  0
SECTION
  2
HEADER
  9
$ACADVER
  1
AC1015
  9
$ACADMAINTVER
 70
    20
  9
$DWGCODEPAGE
  3
ANSI_950
  9
$INSBASE
 10
0.0
 20
0.0
 30
0.0
  9
$EXTMIN
 10
1060.781241111272
 20
206.2812698149723
 30
-0.0021444516781344
  9
$EXTMAX
 10
1613.619351605697
 20
601.7774014769763
 30
221.0360620465502
  9
$LIMMIN
 10
0.0
 20
0.0
  9
$LIMMAX
 10
0.0
 20
0.0
  9
$ORTHOMODE
 70
     1
  9
$REGENMODE
 70
     1
  9
$FILLMODE
 70
     1
  9
$QTEXTMODE
 70
     0
  9
$MIRRTEXT
 70
     1
  9
$LTSCALE
 40
1.0
  9
$ATTMODE
 70
     1
  9
$TEXTSIZE
 40
3.5
  9
$TRACEWID
 40
0.05
  9
$TEXTSTYLE
  7
STANDARD
  9
$CLAYER
  8
0
  9
$CELTYPE
  6
CONTINUOUS
  9
$CECOLOR
 62
   256
  9
$CELTSCALE
 40
1.0
  9
$DISPSILH
 70
     0
  9
$DIMSCALE
 40
1.0
  9
$DIMASZ
 40
3.0
  9
$DIMEXO
 40
1.0
  9
$DIMDLI
 40
6.5
  9
$DIMRND
 40
0.0
  9
$DIMDLE
 40
0.0
  9
$DIMEXE
 40
1.0
  9
$DIMTP
 40
0.1
  9
$DIMTM
 40
0.1
  9
$DIMTXT
 40
3.5
  9
$DIMCEN
 40
0.0
  9
$DIMTSZ
 40
0.0
  9
$DIMTOL
 70
     0
  9
$DIMLIM
 70
     0
  9
$DIMTIH
 70
     0
  9
$DIMTOH
 70
     0
  9
$DIMSE1
 70
     0
  9
$DIMSE2
 70
     0
  9
$DIMTAD
 70
     1
  9
$DIMZIN
 70
     8
  9
$DIMBLK
  1

  9
$DIMASO
 70
     1
  9
$DIMSHO
 70
     1
  9
$DIMPOST
  1

  9
$DIMAPOST
  1
"
  9
$DIMALT
 70
     0
  9
$DIMALTD
 70
     2
  9
$DIMALTF
 40
0.0393701
  9
$DIMLFAC
 40
1.0
  9
$DIMTOFL
 70
     1
  9
$DIMTVP
 40
0.0
  9
$DIMTIX
 70
     0
  9
$DIMSOXD
 70
     0
  9
$DIMSAH
 70
     0
  9
$DIMBLK1
  1

  9
$DIMBLK2
  1

  9
$DIMSTYLE
  2
AM_ISO
  9
$DIMCLRD
 70
   256
  9
$DIMCLRE
 70
   256
  9
$DIMCLRT
 70
   256
  9
$DIMTFAC
 40
0.71
  9
$DIMGAP
 40
1.0
  9
$DIMJUST
 70
     0
  9
$DIMSD1
 70
     0
  9
$DIMSD2
 70
     0
  9
$DIMTOLJ
 70
     0
  9
$DIMTZIN
 70
     8
  9
$DIMALTZ
 70
     0
  9
$DIMALTTZ
 70
     0
  9
$DIMUPT
 70
     0
  9
$DIMDEC
 70
     2
  9
$DIMTDEC
 70
     8
  9
$DIMALTU
 70
     2
  9
$DIMALTTD
 70
     2
  9
$DIMTXSTY
  7
STANDARD
  9
$DIMAUNIT
 70
     0
  9
$DIMADEC
 70
     0
  9
$DIMALTRND
 40
0.0
  9
$DIMAZIN
 70
     2
  9
$DIMDSEP
 70
    46
  9
$DIMATFIT
 70
     3
  9
$DIMFRAC
 70
     0
  9
$DIMLDRBLK
  1

  9
$DIMLUNIT
 70
     2
  9
$DIMLWD
 70
    -1
  9
$DIMLWE
 70
    -1
  9
$DIMTMOVE
 70
     0
  9
$LUNITS
 70
     2
  9
$LUPREC
 70
     2
  9
$SKETCHINC
 40
0.1
  9
$FILLETRAD
 40
2.5
  9
$AUNITS
 70
     0
  9
$AUPREC
 70
     0
  9
$MENU
  1
acad
  9
$ELEVATION
 40
0.0
  9
$PELEVATION
 40
0.0
  9
$THICKNESS
 40
0.0
  9
$LIMCHECK
 70
     0
  9
$CHAMFERA
 40
2.5
  9
$CHAMFERB
 40
2.5
  9
$CHAMFERC
 40
0.0
  9
$CHAMFERD
 40
0.0
  9
$SKPOLY
 70
     0
  9
$TDCREATE
 40
2452359.824870255
  9
$TDUCREATE
 40
2452359.491536922
  9
$TDUPDATE
 40
2455323.678438067
  9
$TDUUPDATE
 40
2455323.345104734
  9
$TDINDWG
 40
0.3423759838
  9
$TDUSRTIMER
 40
0.3423747106
  9
$USRTIMER
 70
     1
  9
$ANGBASE
 50
0.0
  9
$ANGDIR
 70
     0
  9
$PDMODE
 70
     0
  9
$PDSIZE
 40
-1.0
  9
$PLINEWID
 40
0.0
  9
$SPLFRAME
 70
     0
  9
$SPLINETYPE
 70
     6
  9
$SPLINESEGS
 70
     8
  9
$HANDSEED
  5
73F6
  9
$SURFTAB1
 70
     6
  9
$SURFTAB2
 70
     6
  9
$SURFTYPE
 70
     6
  9
$SURFU
 70
     6
  9
$SURFV
 70
     6
  9
$UCSBASE
  2

  9
$UCSNAME
  2

  9
$UCSORG
 10
0.0
 20
0.0
 30
0.0
  9
$UCSXDIR
 10
1.0
 20
0.0
 30
0.0
  9
$UCSYDIR
 10
0.0
 20
1.0
 30
0.0
  9
$UCSORTHOREF
  2

  9
$UCSORTHOVIEW
 70
     0
  9
$UCSORGTOP
 10
0.0
 20
0.0
 30
0.0
  9
$UCSORGBOTTOM
 10
0.0
 20
0.0
 30
0.0
  9
$UCSORGLEFT
 10
0.0
 20
0.0
 30
0.0
  9
$UCSORGRIGHT
 10
0.0
 20
0.0
 30
0.0
  9
$UCSORGFRONT
 10
0.0
 20
0.0
 30
0.0
  9
$UCSORGBACK
 10
0.0
 20
0.0
 30
0.0
  9
$PUCSBASE
  2

  9
$PUCSNAME
  2

  9
$PUCSORG
 10
0.0
 20
0.0
 30
0.0
  9
$PUCSXDIR
 10
1.0
 20
0.0
 30
0.0
  9
$PUCSYDIR
 10
0.0
 20
1.0
 30
0.0
  9
$PUCSORTHOREF
  2

  9
$PUCSORTHOVIEW
 70
     0
  9
$PUCSORGTOP
 10
0.0
 20
0.0
 30
0.0
  9
$PUCSORGBOTTOM
 10
0.0
 20
0.0
 30
0.0
  9
$PUCSORGLEFT
 10
0.0
 20
0.0
 30
0.0
  9
$PUCSORGRIGHT
 10
0.0
 20
0.0
 30
0.0
  9
$PUCSORGFRONT
 10
0.0
 20
0.0
 30
0.0
  9
$PUCSORGBACK
 10
0.0
 20
0.0
 30
0.0
  9
$USERI1
 70
     0
  9
$USERI2
 70
     0
  9
$USERI3
 70
     0
  9
$USERI4
 70
     0
  9
$USERI5
 70
     0
  9
$USERR1
 40
0.0
  9
$USERR2
 40
0.0
  9
$USERR3
 40
0.0
  9
$USERR4
 40
0.0
  9
$USERR5
 40
0.0
  9
$WORLDVIEW
 70
     1
  9
$SHADEDGE
 70
     3
  9
$SHADEDIF
 70
    70
  9
$TILEMODE
 70
     1
  9
$MAXACTVP
 70
    16
  9
$PINSBASE
 10
0.0
 20
0.0
 30
0.0
  9
$PLIMCHECK
 70
     0
  9
$PEXTMIN
 10
1.000000000000000E+20
 20
1.000000000000000E+20
 30
1.000000000000000E+20
  9
$PEXTMAX
 10
-1.000000000000000E+20
 20
-1.000000000000000E+20
 30
-1.000000000000000E+20
  9
$PLIMMIN
 10
0.0
 20
0.0
  9
$PLIMMAX
 10
12.0
 20
9.0
  9
$UNITMODE
 70
     0
  9
$VISRETAIN
 70
     0
  9
$PLINEGEN
 70
     1
  9
$PSLTSCALE
 70
     1
  9
$TREEDEPTH
 70
  3020
  9
$CMLSTYLE
  2
STANDARD
  9
$CMLJUST
 70
     0
  9
$CMLSCALE
 40
1.0
  9
$PROXYGRAPHICS
 70
     0
  9
$MEASUREMENT
 70
     1
  9
$CELWEIGHT
370
     0
  9
$ENDCAPS
280
     0
  9
$JOINSTYLE
280
     0
  9
$LWDISPLAY
290
     0
  9
$INSUNITS
 70
     4
  9
$HYPERLINKBASE
  1

  9
$STYLESHEET
  1

  9
$XEDIT
290
     1
  9
$CEPSNTYPE
380
     0
  9
$PSTYLEMODE
290
     1
  9
$FINGERPRINTGUID
  2

  9
$VERSIONGUID
  2
{1695ECF7-D79B-48A1-AC7F-85722586C877}
  9
$EXTNAMES
290
     1
  9
$PSVPSCALE
 40
0.0
  9
$OLESTARTUP
290
     0
  0
ENDSEC
  0
SECTION
  2
CLASSES
  0
CLASS
  1
IMAGE
  2
AcDbRasterImage
  3
ISM
 90
    32895
280
     0
281
     1
  0
CLASS
  1
DICTIONARYVAR
  2
AcDbDictionaryVar
  3
ObjectDBX Classes
 90
        0
280
     0
281
     0
  0
CLASS
  1
RASTERVARIABLES
  2
AcDbRasterVariables
  3
ISM
 90
    32768
280
     0
281
     0
  0
CLASS
  1
IMAGEDEF
  2
AcDbRasterImageDef
  3
ISM
 90
    32768
280
     0
281
     0
  0
CLASS
  1
IMAGEDEF_REACTOR
  2
AcDbRasterImageDefReactor
  3
ISM
 90
    32769
280
     0
281
     0
  0
CLASS
  1
IDBUFFER
  2
AcDbIdBuffer
  3
ObjectDBX Classes
 90
        0
280
     0
281
     0
  0
CLASS
  1
SPATIAL_FILTER
  2
AcDbSpatialFilter
  3
ObjectDBX Classes
 90
    32768
280
     0
281
     0
  0
CLASS
  1
SORTENTSTABLE
  2
AcDbSortentsTable
  3
ObjectDBX Classes
 90
        0
280
     0
281
     0
  0
CLASS
  1
LAYER_INDEX
  2
AcDbLayerIndex
  3
ObjectDBX Classes
 90
        0
280
     0
281
     0
  0
CLASS
  1
SPATIAL_INDEX
  2
AcDbSpatialIndex
  3
ObjectDBX Classes
 90
    32768
280
     0
281
     0
  0
CLASS
  1
OBJECT_PTR
  2
CAseDLPNTableRecord
  3
"ASE-LPNTableRecord"
 90
    32769
280
     0
281
     0
  0
CLASS
  1
LAYOUT
  2
AcDbLayout
  3
ObjectDBX Classes
 90
        0
280
     0
281
     0
  0
CLASS
  1
PLOTSETTINGS
  2
AcDbPlotSettings
  3
ObjectDBX Classes
 90
    32768
280
     0
281
     0
  0
CLASS
  1
ACDBDICTIONARYWDFLT
  2
AcDbDictionaryWithDefault
  3
ObjectDBX Classes
 90
        0
280
     0
281
     0
  0
CLASS
  1
ACDBPLACEHOLDER
  2
AcDbPlaceHolder
  3
ObjectDBX Classes
 90
        0
280
     0
281
     0
  0
CLASS
  1
VBA_PROJECT
  2
AcDbVbaProject
  3
acad
 90
    32768
280
     0
281
     0
  0
CLASS
  1
WIPEOUT
  2
AcDbWipeout
  3
"WipeOut|Product Desc: Object Enabler for WipeOut entity^I^I^I^I^I^I|Company: Autodesk, Inc.^I^I^I^I^I^I|WEB Address: www.autodesk.com"
 90
    32895
280
     0
281
     1
  0
CLASS
  1
WIPEOUTVARIABLES
  2
AcDbWipeoutVariables
  3
"WipeOut|Product Desc:     WipeOut Dbx Application|Company:          Autodesk, Inc.|WEB Address:      www.autodesk.com"
 90
        0
280
     0
281
     0
  0
CLASS
  1
RTEXT
  2
RText
  3
RText|AutoCAD Express Tool|expresstools@autodesk.com
 90
    32768
280
     0
281
     1
  0
CLASS
  1
ARCALIGNEDTEXT
  2
AcDbArcAlignedText
  3
ATEXT|AutoCAD Express Tool|expresstools@autodesk.com
 90
    32768
280
     0
281
     0
  0
CLASS
  1
ACAD_PROXY_OBJECT_WRAPPER
  2
AcDbProxyObjectWrapper
  3
ObjectDBX Classes
 90
    32768
280
     0
281
     0
  0
CLASS
  1
TABLESTYLE
  2
AcDbTableStyle
  3
ObjectDBX Classes
 90
     2047
280
     0
281
     0
  0
CLASS
  1
ACME_DOCUMENT
  2
AcMeDbDoc
  3
AcMeServices
 90
        0
280
     0
281
     0
  0
CLASS
  1
AMGSETTINGSOBJ
  2
AmgSettingsObj
  3
"AcadM|Product Description: AutoCAD Mechanical 2000|Company: Autodesk"
 90
        0
280
     0
281
     0
  0
CLASS
  1
ACMESCOPE
  2
AcMeScope
  3
AcMeServices
 90
        0
280
     0
281
     0
  0
CLASS
  1
ACMECOMMANDHISTORY
  2
AcMeCommandHistory
  3
AcMeServices
 90
        0
280
     0
281
     0
  0
CLASS
  1
ACIMSYSVARMAN
  2
AcImSysVarManager
  3
AcMeServices
 90
        0
280
     0
281
     0
  0
CLASS
  1
ACIMREALSYSVAR
  2
AcImRealSysVar
  3
AcMeServices
 90
        0
280
     0
281
     0
  0
CLASS
  1
ACIMINTSYSVAR
  2
AcImIntSysVar
  3
AcMeServices
 90
        0
280
     0
281
     0
  0
CLASS
  1
ACMEDRAWINGMAN
  2
AcMeDrawingMan
  3
AcMeServices
 90
        0
280
     0
281
     0
  0
CLASS
  1
ACMEVIEW
  2
AcMeView
  3
AcMeServices
 90
        0
280
     0
281
     0
  0
CLASS
  1
ACDBENTITYCACHE
  2
AcMeEntityCache
  3
AcMeServices
 90
        0
280
     0
281
     0
  0
CLASS
  1
GSMANAGER
  2
AcMeGSManager
  3
AcMeServices
 90
        0
280
     0
281
     0
  0
CLASS
  1
AMDTINTERNALREACTOR
  2
AmdtInternalReactor
  3
AcMeServices
 90
        0
280
     0
281
     0
  0
CLASS
  1
ACMESTATEMGR
  2
AcMeStateMgr
  3
AcMeServices
 90
        0
280
     0
281
     0
  0
CLASS
  1
ACGREFMASTER
  2
AcGrefMaster
  3
AcAttribServices
 90
        0
280
     0
281
     0
  0
CLASS
  1
AM_DRAWING_MGR
  2
AcDmDwgMgr
  3
AcMechDwgViewMgmt
 90
        0
280
     0
281
     0
  0
CLASS
  1
AM_DWG_DOCUMENT
  2
AcDmDwgDocument
  3
AcMechDwgViewMgmt
 90
        0
280
     0
281
     0
  0
CLASS
  1
AM_DWG_SHEET
  2
AcDmSheet
  3
AcMechDwgViewMgmt
 90
        0
280
     0
281
     0
  0
CLASS
  1
AM_VIEWDIMPARMAP
  2
AcDmViewDimParMap
  3
AcMechDwgViewMgmt
 90
        0
280
     0
281
     0
  0
CLASS
  1
AM_DWGMGR_NAME
  2
AcDmDwgMgrName
  3
AcMechDwgViewMgmt
 90
        0
280
     0
281
     0
  0
CLASS
  1
ACME_DATABASE
  2
AcMeDbDatabase
  3
AcMeServices
 90
        0
280
     0
281
     0
  0
CLASS
  1
ACRFINSADJUSTERMGR
  2
AcRfInsAdjusterMgr
  3
AcMeServices
 90
        0
280
     0
281
     0
  0
CLASS
  1
ACGREFACADMASTER
  2
AcGrefacadMaster
  3
AcGrefServices
 90
        0
280
     0
281
     0
  0
CLASS
  1
AMDTMENUSTATEMGR
  2
AmdtMenuStateMgr
  3
McadcomServices
 90
        0
280
     0
281
     0
  0
CLASS
  1
AMDTMCOMMENUSTATE
  2
AmdtMcomMenuState
  3
McadcomServices
 90
        0
280
     0
281
     0
  0
CLASS
  1
AMIMASTER
  2
AmiMaster
  3
AmiServices
 90
        0
280
     0
281
     0
  0
CLASS
  1
ASAPP
  2
AcAsAppObject
  3
AutoSurfServices
 90
        0
280
     0
281
     0
  0
CLASS
  1
IM_STATIC_MAN
  2
AcImStaticVarManager
  3
AcMeServices
 90
        0
280
     0
281
     0
  0
CLASS
  1
ACIMSTRSYSVAR
  2
AcImStrSysVar
  3
AcMeServices
 90
        0
280
     0
281
     0
  0
CLASS
  1
ACIMDBLSTATICVAR
  2
AcImDblStaticVar
  3
AcMeServices
 90
        0
280
     0
281
     0
  0
CLASS
  1
ACIMSTRSTATICVAR
  2
AcImStrStaticVar
  3
AcMeServices
 90
        0
280
     0
281
     0
  0
CLASS
  1
ACIMINTSTATICVAR
  2
AcImIntStaticVar
  3
AcMeServices
 90
        0
280
     0
281
     0
  0
CLASS
  1
ACASGREFMASTER
  2
AcAsGrefMaster
  3
AutoSurfResolverServices
 90
        0
280
     0
281
     0
  0
CLASS
  1
ACADGREFMODULE
  2
AcAdGrefModule
  3
AdGrefServices
 90
        0
280
     0
281
     0
  0
CLASS
  1
AMDTMAPISURFMOUDULE
  2
AmdtMApiSurfModule
  3
MApiSurfServices
 90
        0
280
     0
281
     0
  0
CLASS
  1
MAPIAMMOUDLE
  2
MApiAmModule
  3
MApiAmServices
 90
        0
280
     0
281
     0
  0
CLASS
  1
AMDTADMENUSTATE
  2
AmdtAdMenuState
  3
DesignerServices
 90
        0
280
     0
281
     0
  0
CLASS
  1
ADAPPL
  2
AcAdAppl
  3
DesignerServices
 90
        0
280
     0
281
     0
  0
CLASS
  1
DEPMGR
  2
AcAdDepMgr
  3
DesignerServices
 90
        0
280
     0
281
     0
  0
CLASS
  1
PARAMMGR
  2
AcAdParamMgr
  3
DesignerServices
 90
        0
280
     0
281
     0
  0
CLASS
  1
PARAMSCOPE
  2
AcAdParamScope
  3
DesignerServices
 90
        0
280
     0
281
     0
  0
CLASS
  1
NAMEDAPPL
  2
AcAdNamedAppl
  3
DesignerServices
 90
        0
280
     0
281
     0
  0
CLASS
  1
AMDTDMMENUSTATE
  2
AmdtDmMenuState
  3
AcMechDwgViewMgmt
 90
        0
280
     0
281
     0
  0
CLASS
  1
MAPIADMODULE
  2
MApiAdModule
  3
MApiAdServices
 90
        0
280
     0
281
     0
  0
CLASS
  1
AMDTAMMENUSTATE
  2
AmdtAmMenuState
  3
DesignerAssemblies
 90
        0
280
     0
281
     0
  0
CLASS
  1
ACAMPROJECT
  2
AcAmProject
  3
DesignerAssemblies
 90
        0
280
     0
281
     0
  0
CLASS
  1
ACAMGRCOMPDEF
  2
AcAmGrCompDef
  3
DesignerAssemblies
 90
        0
280
     0
281
     0
  0
CLASS
  1
ACCMCONTEXT
  2
AcCmContext
  3
DesignerAssemblies
 90
        0
280
     0
281
     0
  0
CLASS
  1
ACAMCOMPDEF
  2
AcAmCompDef
  3
DesignerAssemblies
 90
        0
280
     0
281
     0
  0
CLASS
  1
ACAMCOMPDEFMGR
  2
AcAmCompDefMgr
  3
DesignerAssemblies
 90
        0
280
     0
281
     0
  0
CLASS
  1
AMCONTEXTMGR
  2
AcAmContextMgr
  3
DesignerAssemblies
 90
        0
280
     0
281
     0
  0
CLASS
  1
ACAMCONTEXTMODELER
  2
AcAmContextModeler
  3
DesignerAssemblies
 90
        0
280
     0
281
     0
  0
CLASS
  1
ACMDATADICTIONARY
  2
AcmDataDictionary
  3
"AcmSymBB|Product Description: AutoCAD Mechanical 2004 DX|Company: Autodesk"
 90
        0
280
     0
281
     0
  0
CLASS
  1
ACMDATAENTRYBLOCK
  2
AcmDataEntryBlock
  3
"AcmSymBB|Product Description: AutoCAD Mechanical 2004 DX|Company: Autodesk"
 90
        0
280
     0
281
     0
  0
CLASS
  1
CATALOGSTATE
  2
AcAmCatalogState
  3
DesignerAssemblies
 90
        0
280
     0
281
     0
  0
CLASS
  1
ACAMGRCOMPDEFSET
  2
AcAmGrCompDefSet
  3
DesignerAssemblies
 90
        0
280
     0
281
     0
  0
CLASS
  1
AMDTBROWSERDBTAB
  2
AmdtBrowserDbTab
  3
McadcomServices
 90
        0
280
     0
281
     0
  0
CLASS
  1
CBROWSERAPPOBJECT
  2
CBrowserAppObject
  3
McadcomServices
 90
        0
280
     0
281
     0
  0
CLASS
  1
DM_PLACEHOLDER
  2
AcDmSelsetPlaceholder
  3
AcMechDwgViewMgmt
 90
        0
280
     0
281
     0
  0
CLASS
  1
ACMSTANDARDANSI
  2
AcmStandardANSI
  3
"Amdt_StdImp|Product Description: AutoCAD Mechanical 2004 DX|Company: Autodesk"
 90
        0
280
     0
281
     0
  0
CLASS
  1
AMGOBJPROPCFG
  2
AmgObjPropCfg
  3
"AmgLay|Product Description: AutoCAD Mechanical 2000|Company: Autodesk"
 90
        1
280
     0
281
     0
  0
CLASS
  1
ACMSURFSTANDARDANSI
  2
AcmSurfTextStdANSI
  3
"Amdt_StdImp|Product Description: AutoCAD Mechanical 2004 DX|Company: Autodesk"
 90
        0
280
     0
281
     0
  0
CLASS
  1
ACMFCFSTANDARDANSI
  2
AcmFCFStdANSI
  3
"Amdt_StdImp|Product Description: AutoCAD Mechanical 2004 DX|Company: Autodesk"
 90
        0
280
     0
281
     0
  0
CLASS
  1
ACMWELDSTANDARDANSI
  2
AcmWeldingStdANSI
  3
"Amdt_StdImp|Product Description: AutoCAD Mechanical 2004 DX|Company: Autodesk"
 90
        0
280
     0
281
     0
  0
CLASS
  1
ACMIDSTANDARDANSI
  2
AcmIdStdANSI
  3
"Amdt_StdImp|Product Description: AutoCAD Mechanical 2004 DX|Company: Autodesk"
 90
        0
280
     0
281
     0
  0
CLASS
  1
ACMDATUMSTANDARDANSI
  2
AcmDatumStdANSI
  3
"Amdt_StdImp|Product Description: AutoCAD Mechanical 2004 DX|Company: Autodesk"
 90
        0
280
     0
281
     0
  0
CLASS
  1
ACMBOMSTANDARDANSI
  2
AcmBOMStdANSI
  3
"Amdt_StdImp|Product Description: AutoCAD Mechanical 2004 DX|Company: Autodesk"
 90
        0
280
     0
281
     0
  0
CLASS
  1
ACMDETAILSTANDARDANSI
  2
AmdtDetailSymStdANSI
  3
"Amdt_StdImp|Product Description: AutoCAD Mechanical 2004 DX|Company: Autodesk"
 90
        0
280
     0
281
     0
  0
CLASS
  1
ACMSECTIONSTANDARDANSI
  2
AmdtSectionSymStdANSI
  3
"Amdt_StdImp|Product Description: AutoCAD Mechanical 2004 DX|Company: Autodesk"
 90
        0
280
     0
281
     0
  0
CLASS
  1
ACMCENTERLINESTANDARDANSI
  2
AmdtCenterLineStdANSI
  3
"Amdt_StdImp|Product Description: AutoCAD Mechanical 2004 DX|Company: Autodesk"
 90
        0
280
     0
281
     0
  0
CLASS
  1
ACMTHREADLINESTANDARDANSI
  2
AmdtThreadLineStdANSI
  3
"Amdt_StdImp|Product Description: AutoCAD Mechanical 2004 DX|Company: Autodesk"
 90
        0
280
     0
281
     0
  0
CLASS
  1
ACMNOTESTANDARDANSI
  2
AmdtNoteStdANSI
  3
"Amdt_StdImp|Product Description: AutoCAD Mechanical 2004 DX|Company: Autodesk"
 90
        0
280
     0
281
     0
  0
CLASS
  1
AMDTNOTETEMPLATEDB
  2
AmdtNoteTemplateDB
  3
AMDT_STDIMP_MODULE_NAME
 90
        0
280
     0
281
     0
  0
CLASS
  1
ACAMGLAYSTD
  2
AcAmgLayStd
  3
"AcAmgLayStd|Product Description: AutoCAD Mechanical 2000|Company: Autodesk"
 90
        0
280
     0
281
     0
  0
CLASS
  1
ACAMGDIMSTD
  2
AcAmgDimStd
  3
"AcAmgDimStd|Product Description: AutoCAD Mechanical 2000|Company: Autodesk"
 90
        0
280
     0
281
     0
  0
CLASS
  1
ACAMGHOLECHARTSTDANSI
  2
AcAmgHoleChartStdANSI
  3
ACMSYMBB_MODULE_NAME
 90
        0
280
     0
281
     0
  0
CLASS
  1
ACAMGTITLESTD
  2
AcAmgTitleStd
  3
"TITLEAPP"
 90
        0
280
     0
281
     0
  0
CLASS
  1
ACAMGFILTERDAT
  2
AcAmgFilterDat
  3
"AcadM|Product Description: AutoCAD Mechanical 2000|Company: Autodesk"
 90
        0
280
     0
281
     0
  0
CLASS
  1
ACMSTANDARDISO
  2
AcmStandardISO
  3
"Amdt_StdImp|Product Description: AutoCAD Mechanical 2004 DX|Company: Autodesk"
 90
        0
280
     0
281
     0
  0
CLASS
  1
AMDTEDGESTANDARDISO13715
  2
AmdtEdgeStdISO13715
  3
"Amdt_StdImp|Product Description: AutoCAD Mechanical 2004 DX|Company: Autodesk"
 90
        0
280
     0
281
     0
  0
CLASS
  1
ACMSURFSTANDARDISO
  2
AcmSurfTextStdISO
  3
"Amdt_StdImp|Product Description: AutoCAD Mechanical 2004 DX|Company: Autodesk"
 90
        0
280
     0
281
     0
  0
CLASS
  1
ACMFCFSTANDARDISO
  2
AcmFCFStdISO
  3
"Amdt_StdImp|Product Description: AutoCAD Mechanical 2004 DX|Company: Autodesk"
 90
        0
280
     0
281
     0
  0
CLASS
  1
ACMWELDSTANDARDISO
  2
AcmWeldingStdISO
  3
"Amdt_StdImp|Product Description: AutoCAD Mechanical 2004 DX|Company: Autodesk"
 90
        0
280
     0
281
     0
  0
CLASS
  1
ACMIDSTANDARDISO
  2
AcmIdStdISO
  3
"Amdt_StdImp|Product Description: AutoCAD Mechanical 2004 DX|Company: Autodesk"
 90
        0
280
     0
281
     0
  0
CLASS
  1
ACMDATUMSTANDARDISO
  2
AcmDatumStdISO
  3
"Amdt_StdImp|Product Description: AutoCAD Mechanical 2004 DX|Company: Autodesk"
 90
        0
280
     0
281
     0
  0
CLASS
  1
ACMBOMSTANDARDISO
  2
AcmBOMStdISO
  3
"Amdt_StdImp|Product Description: AutoCAD Mechanical 2004 DX|Company: Autodesk"
 90
        0
280
     0
281
     0
  0
CLASS
  1
ACMDETAILSTANDARDISO
  2
AmdtDetailSymStdISO
  3
"Amdt_StdImp|Product Description: AutoCAD Mechanical 2004 DX|Company: Autodesk"
 90
        0
280
     0
281
     0
  0
CLASS
  1
ACMSECTIONSTANDARDISO
  2
AmdtSectionSymStdISO
  3
"Amdt_StdImp|Product Description: AutoCAD Mechanical 2004 DX|Company: Autodesk"
 90
        0
280
     0
281
     0
  0
CLASS
  1
ACMCENTERLINESTANDARDISO
  2
AmdtCenterLineStdISO
  3
"Amdt_StdImp|Product Description: AutoCAD Mechanical 2004 DX|Company: Autodesk"
 90
        0
280
     0
281
     0
  0
CLASS
  1
ACMTHREADLINESTANDARDISO
  2
AmdtThreadLineStdISO
  3
"Amdt_StdImp|Product Description: AutoCAD Mechanical 2004 DX|Company: Autodesk"
 90
        0
280
     0
281
     0
  0
CLASS
  1
ACMNOTESTANDARDISO
  2
AmdtNoteStdISO
  3
"Amdt_StdImp|Product Description: AutoCAD Mechanical 2004 DX|Company: Autodesk"
 90
        0
280
     0
281
     0
  0
CLASS
  1
ACAMGHOLECHARTSTDISO
  2
AcAmgHoleChartStdISO
  3
ACMSYMBB_MODULE_NAME
 90
        0
280
     0
281
     0
  0
CLASS
  1
ACMDIMBREAKPERSREACTOR
  2
AcmDimBreakPersReactor
  3
amgDimApp().moduleName()
 90
    33791
280
     0
281
     0
  0
ENDSEC
  0
SECTION
  2
TABLES
  0
TABLE
  2
VPORT
  5
7
330
0
100
AcDbSymbolTable
 70
   508
  0
VPORT
  5
73EF
330
7
100
AcDbSymbolTableRecord
100
AcDbViewportTableRecord
  2
*Active
 70
     0
 10
0.0
 20
0.0
 11
1.0
 21
1.0
 12
674.7503862173109
 22
-2.178218151027977
 13
0.0
 23
0.0
 14
2.5
 24
2.5
 15
10.0
 25
10.0
 16
0.0
 26
0.0
 36
1.0
 17
662.4499101411736
 27
406.2075537970023
 37
0.0
 40
568.100323814026
 41
0.9815602836879431
 42
50.0
 43
0.0
 44
0.0
 50
0.0
 51
0.0
 71
     0
 72
  2000
 73
     1
 74
     1
 75
     0
 76
     0
 77
     0
 78
     0
281
     0
 65
     0
110
0.0
120
0.0
130
0.0
111
1.0
121
0.0
131
0.0
112
0.0
122
1.0
132
0.0
 79
     0
146
0.0
  0
ENDTAB
  0
TABLE
  2
LTYPE
  5
4
330
0
100
AcDbSymbolTable
 70
    21
  0
LTYPE
  5
11
330
4
100
AcDbSymbolTableRecord
100
AcDbLinetypeTableRecord
  2
BYBLOCK
 70
     0
  3

 72
    65
 73
     0
 40
0.0
  0
LTYPE
  5
12
330
4
100
AcDbSymbolTableRecord
100
AcDbLinetypeTableRecord
  2
BYLAYER
 70
     0
  3

 72
    65
 73
     0
 40
0.0
  0
LTYPE
  5
13
330
4
100
AcDbSymbolTableRecord
100
AcDbLinetypeTableRecord
  2
CONTINUOUS
 70
     0
  3
Solid line
 72
    65
 73
     0
 40
0.0
  0
LTYPE
  5
27
330
4
100
AcDbSymbolTableRecord
100
AcDbLinetypeTableRecord
  2
CENTER
 70
     0
  3
Center ____ _ ____ _ ____ _ ____ _ ____ _ ____
 72
    65
 73
     4
 40
10.16
 49
6.349999999999997
 74
     0
 49
-1.27
 74
     0
 49
1.27
 74
     0
 49
-1.27
 74
     0
  0
LTYPE
  5
F09
330
4
100
AcDbSymbolTableRecord
100
AcDbLinetypeTableRecord
  2
HIDDEN
 70
     0
  3
Hidden __ __ __ __ __ __ __ __ __ __ __ __ __ _
 72
    65
 73
     2
 40
0.375
 49
0.25
 74
     0
 49
-0.125
 74
     0
  0
LTYPE
  5
F0A
330
4
100
AcDbSymbolTableRecord
100
AcDbLinetypeTableRecord
  2
PHANTOM2
 70
     0
  3
Phantom (.5x) ___ _ _ ___ _ _ ___ _ _ ___ _ _
 72
    65
 73
     6
 40
1.25
 49
0.625
 74
     0
 49
-0.125
 74
     0
 49
0.125
 74
     0
 49
-0.125
 74
     0
 49
0.125
 74
     0
 49
-0.125
 74
     0
  0
LTYPE
  5
FA1
330
4
100
AcDbSymbolTableRecord
100
AcDbLinetypeTableRecord
  2
AM_ISO02W050
 70
     0
  3
__ __ __ __ __ __ __ __ __ __ __ __ __ __ __
 72
    65
 73
     2
 40
7.5
 49
6.0
 74
     0
 49
-1.5
 74
     0
  0
LTYPE
  5
FA2
330
4
100
AcDbSymbolTableRecord
100
AcDbLinetypeTableRecord
  2
AM_ISO08W050
 70
     0
  3
____ . ____ . ____ . ____ . ____ . ____ . ____
 72
    65
 73
     4
 40
18.0
 49
12.0
 74
     0
 49
-1.5
 74
     0
 49
3.0
 74
     0
 49
-1.5
 74
     0
  0
LTYPE
  5
FA3
330
4
100
AcDbSymbolTableRecord
100
AcDbLinetypeTableRecord
  2
AM_ISO09W050
 70
     0
  3
_____ . . _____ . . _____ . . ____ .. ____
 72
    65
 73
     6
 40
22.5
 49
12.0
 74
     0
 49
-1.5
 74
     0
 49
3.0
 74
     0
 49
-1.5
 74
     0
 49
3.0
 74
     0
 49
-1.5
 74
     0
  0
LTYPE
  5
FA4
330
4
100
AcDbSymbolTableRecord
100
AcDbLinetypeTableRecord
  2
Amconstr
 70
     0
  3
_______________________
 72
    65
 73
     2
 40
9999.0
 49
9999.0
 74
     0
 49
0.0
 74
     0
  0
LTYPE
  5
FA5
330
4
100
AcDbSymbolTableRecord
100
AcDbLinetypeTableRecord
  2
AM_ISO08W050x2
 70
     0
  3
__ . __ . __ . __ . __ . __
 72
    65
 73
     4
 40
9.0
 49
6.0
 74
     0
 49
-0.75
 74
     0
 49
1.5
 74
     0
 49
-0.75
 74
     0
  0
LTYPE
  5
FA6
330
4
100
AcDbSymbolTableRecord
100
AcDbLinetypeTableRecord
  2
AM_ISO02W050x2
 70
     0
  3
 _ _ _ _ _ _ _ _ _ _ _ _
 72
    65
 73
     2
 40
3.75
 49
3.0
 74
     0
 49
-0.75
 74
     0
  0
LTYPE
  5
FA9
330
4
100
AcDbSymbolTableRecord
100
AcDbLinetypeTableRecord
  2
Amzigzag
 70
     0
  3
/\/-/\/-/\/-/\/-/\/-/\/
 72
    65
 73
     2
 40
11.0001
 49
0.0001
 74
     4
 75
   135
340
FA8
 46
0.04
 50
0.0
 44
0.0
 45
0.0
 49
-11.0
 74
     0
  0
LTYPE
  5
FAA
330
4
100
AcDbSymbolTableRecord
100
AcDbLinetypeTableRecord
  2
CENTER2
 70
     0
  3
Center (.5x) ___ _ ___ _ ___ _ ___ _ ___ _ ___
 72
    65
 73
     4
 40
1.125
 49
0.75
 74
     0
 49
-0.125
 74
     0
 49
0.125
 74
     0
 49
-0.125
 74
     0
  0
LTYPE
  5
FAB
330
4
100
AcDbSymbolTableRecord
100
AcDbLinetypeTableRecord
  2
HIDDEN2
 70
     0
  3
Hidden (.5x) _ _ _ _ _ _ _ _ _ _ _ _ _ _ _ _ _
 72
    65
 73
     2
 40
0.1875
 49
0.125
 74
     0
 49
-0.0625
 74
     0
  0
LTYPE
  5
FAC
330
4
100
AcDbSymbolTableRecord
100
AcDbLinetypeTableRecord
  2
Amzigzag2
 70
     0
  3
/\/-/\/-/\/-/\/-/\/-/\/
 72
    65
 73
     2
 40
0.4401
 49
0.0001
 74
     4
 75
   135
340
FA8
 46
0.0016
 50
0.0
 44
0.0
 45
0.0
 49
-0.4400000000000001
 74
     0
  0
LTYPE
  5
FBA
330
4
100
AcDbSymbolTableRecord
100
AcDbLinetypeTableRecord
  2
ACANSTGB
 70
     0
  3
__ . . __ . .
 72
    65
 73
     6
 40
0.35433070866
 49
0.15748031496
 74
     0
 49
-0.03937007874
 74
     0
 49
0.03937007874
 74
     0
 49
-0.03937007874
 74
     0
 49
0.03937007874
 74
     0
 49
-0.03937007874
 74
     0
  0
LTYPE
  5
FBB
330
4
100
AcDbSymbolTableRecord
100
AcDbLinetypeTableRecord
  2
ACANSTGL
 70
     0
  3
_ _ _ _ _
 72
    65
 73
     2
 40
0.11811023622
 49
0.07874015748
 74
     0
 49
-0.03937007874
 74
     0
  0
LTYPE
  5
10A3
330
4
100
AcDbSymbolTableRecord
100
AcDbLinetypeTableRecord
  2
ACISOWELD
 70
     0
  3
_ _ _ _ _
 72
    65
 73
     2
 40
2.0
 49
2.0
 74
     0
 49
-1.0
 74
     0
  0
LTYPE
  5
10A4
330
4
100
AcDbSymbolTableRecord
100
AcDbLinetypeTableRecord
  2
ACISOTGB
 70
     0
  3
__ . . __ . .
 72
    65
 73
     6
 40
9.0
 49
4.0
 74
     0
 49
-1.0
 74
     0
 49
1.0
 74
     0
 49
-1.0
 74
     0
 49
1.0
 74
     0
 49
-1.0
 74
     0
  0
LTYPE
  5
10A5
330
4
100
AcDbSymbolTableRecord
100
AcDbLinetypeTableRecord
  2
ACISOTGL
 70
     0
  3
_ _ _ _ _
 72
    65
 73
     2
 40
3.0
 49
2.0
 74
     0
 49
-1.0
 74
     0
  0
ENDTAB
  0
TABLE
  2
LAYER
  5
2
102
{ACAD_XDICTIONARY
360
1002
102
}
330
0
100
AcDbSymbolTable
 70
     7
  0
LAYER
  5
14
330
2
100
AcDbSymbolTableRecord
100
AcDbLayerTableRecord
  2
0
 70
     0
 62
     7
  6
CONTINUOUS
370
    -3
390
1D
  0
LAYER
  5
A05
330
2
100
AcDbSymbolTableRecord
100
AcDbLayerTableRecord
  2
CENTER
 70
     0
 62
     1
  6
CENTER
370
    -3
390
1D
  0
LAYER
  5
A16
330
2
100
AcDbSymbolTableRecord
100
AcDbLayerTableRecord
  2
DIM
 70
     0
 62
     4
  6
CONTINUOUS
370
    -3
390
1D
  0
LAYER
  5
D20
330
2
100
AcDbSymbolTableRecord
100
AcDbLayerTableRecord
  2
Defpoints
 70
     0
 62
     7
  6
CONTINUOUS
290
     0
370
    -3
390
1D
  0
LAYER
  5
FD9
330
2
100
AcDbSymbolTableRecord
100
AcDbLayerTableRecord
  2
AM_5
 70
     0
 62
     5
  6
CONTINUOUS
370
    50
390
1D
  0
LAYER
  5
1B6F
330
2
100
AcDbSymbolTableRecord
100
AcDbLayerTableRecord
  2
LOGO
 70
     0
 62
     7
  6
CONTINUOUS
370
    -3
390
1D
  0
ENDTAB
  0
TABLE
  2
STYLE
  5
3
330
0
100
AcDbSymbolTable
 70
     8
  0
STYLE
  5
17
330
3
100
AcDbSymbolTableRecord
100
AcDbTextStyleTableRecord
  2
STANDARD
 70
     0
 40
0.0
 41
1.0
 50
0.0
 71
     0
 42
3.5
  3
ISOCP.SHX
  4

  0
STYLE
  5
9F7
330
3
100
AcDbSymbolTableRecord
100
AcDbTextStyleTableRecord
  2
CHINA
 70
     0
 40
0.0
 41
1.0
 50
0.0
 71
     0
 42
2.5
  3
romans.shx
  4
chineset.shx
  0
STYLE
  5
FA8
330
3
100
AcDbSymbolTableRecord
100
AcDbTextStyleTableRecord
  2

 70
     1
 40
0.0
 41
1.0
 50
0.0
 71
     0
 42
0.2
  3
ltypeshp.shx
  4

  0
STYLE
  5
FAD
330
3
100
AcDbSymbolTableRecord
100
AcDbTextStyleTableRecord
  2
ACANSTS
 70
     0
 40
1.0
 41
1.0
 50
0.0
 71
     0
 42
0.2
  3
romans.shx
  4
chineset.shx
  0
STYLE
  5
FB9
330
3
100
AcDbSymbolTableRecord
100
AcDbTextStyleTableRecord
  2
ACANSGDT
 70
     0
 40
0.0
 41
1.0
 50
0.0
 71
     0
 42
0.2
  3
amgdtans.shx
  4

  0
STYLE
  5
1095
330
3
100
AcDbSymbolTableRecord
100
AcDbTextStyleTableRecord
  2
ACISOTS
 70
     0
 40
1.0
 41
1.0
 50
0.0
 71
     0
 42
0.2
  3
isocp.shx
  4
chineset.shx
  0
STYLE
  5
10A2
330
3
100
AcDbSymbolTableRecord
100
AcDbTextStyleTableRecord
  2
ACISOGDT
 70
     0
 40
0.0
 41
1.0
 50
0.0
 71
     0
 42
0.2
  3
amgdt.shx
  4

  0
STYLE
  5
1B70
330
3
100
AcDbSymbolTableRecord
100
AcDbTextStyleTableRecord
  2
CHINESET
 70
     0
 40
0.0
 41
0.75
 50
0.0
 71
     0
 42
3.0
  3
simplex.shx
  4
CHINESET.SHX
  0
ENDTAB
  0
TABLE
  2
VIEW
  5
5
330
0
100
AcDbSymbolTable
 70
     0
  0
ENDTAB
  0
TABLE
  2
UCS
  5
6
330
0
100
AcDbSymbolTable
 70
     0
  0
ENDTAB
  0
TABLE
  2
APPID
  5
8
330
0
100
AcDbSymbolTable
 70
    22
  0
APPID
  5
16
330
8
100
AcDbSymbolTableRecord
100
AcDbRegAppTableRecord
  2
ACAD
 70
     0
  0
APPID
  5
ED5
330
8
100
AcDbSymbolTableRecord
100
AcDbRegAppTableRecord
  2
GENIUS_GENDIM_13
 70
     0
  0
APPID
  5
ED6
330
8
100
AcDbSymbolTableRecord
100
AcDbRegAppTableRecord
  2
GENIUS_GENDTOL_13
 70
     0
  0
APPID
  5
ED7
330
8
100
AcDbSymbolTableRecord
100
AcDbRegAppTableRecord
  2
GENIUS_GE3DTOL_13
 70
     0
  0
APPID
  5
EDA
330
8
100
AcDbSymbolTableRecord
100
AcDbRegAppTableRecord
  2
MCAD_NO_VIS
 70
     0
  0
APPID
  5
EDB
330
8
100
AcDbSymbolTableRecord
100
AcDbRegAppTableRecord
  2
ACAD_TEMP_GRAPHIC
 70
     0
  0
APPID
  5
F0C
330
8
100
AcDbSymbolTableRecord
100
AcDbRegAppTableRecord
  2
AD_DRAW
 70
     0
  0
APPID
  5
F0F
330
8
100
AcDbSymbolTableRecord
100
AcDbRegAppTableRecord
  2
ACATTRIBSERVICES
 70
     0
  0
APPID
  5
F5B
330
8
100
AcDbSymbolTableRecord
100
AcDbRegAppTableRecord
  2
ASURF_PCURVE_APPNAME
 70
     0
  0
APPID
  5
F60
330
8
100
AcDbSymbolTableRecord
100
AcDbRegAppTableRecord
  2
AMG_3D2D_5.0
 70
     0
  0
APPID
  5
F8F
330
8
100
AcDbSymbolTableRecord
100
AcDbRegAppTableRecord
  2
DESIGNERASSEMBLIES
 70
     0
  0
APPID
  5
F96
330
8
100
AcDbSymbolTableRecord
100
AcDbRegAppTableRecord
  2
ACADM_DIM_EDIT
 70
     0
  0
APPID
  5
F97
330
8
100
AcDbSymbolTableRecord
100
AcDbRegAppTableRecord
  2
AMDT_DM_ADJ
 70
     0
  0
APPID
  5
1052
330
8
100
AcDbSymbolTableRecord
100
AcDbRegAppTableRecord
  2
GENIUS_GENDIMSH_14
 70
     0
  0
APPID
  5
108A
330
8
100
AcDbSymbolTableRecord
100
AcDbRegAppTableRecord
  2
ACAD_DSTYLE_DIMTEXT_FILL
 70
     0
  0
APPID
  5
1B72
330
8
100
AcDbSymbolTableRecord
100
AcDbRegAppTableRecord
  2
GENIUS_GENODEF_13
 70
     0
  0
APPID
  5
1B73
330
8
100
AcDbSymbolTableRecord
100
AcDbRegAppTableRecord
  2
GENIUS_GENOENT_13
 70
     0
  0
APPID
  5
1B74
330
8
100
AcDbSymbolTableRecord
100
AcDbRegAppTableRecord
  2
GENIUS_GENOBJ-N-CRS_13
 70
     0
  0
APPID
  5
1B75
330
8
100
AcDbSymbolTableRecord
100
AcDbRegAppTableRecord
  2
GENIUS_GENOLIS_13
 70
     0
  0
APPID
  5
1B76
330
8
100
AcDbSymbolTableRecord
100
AcDbRegAppTableRecord
  2
GENIUS_GENOREF_13
 70
     0
  0
APPID
  5
1B77
330
8
100
AcDbSymbolTableRecord
100
AcDbRegAppTableRecord
  2
GENIUS_GENREC_14
 70
     0
  0
APPID
  5
1B78
330
8
100
AcDbSymbolTableRecord
100
AcDbRegAppTableRecord
  2
GENIUS_GENOBJ-N-REC_13
 70
     0
  0
ENDTAB
  0
TABLE
  2
DIMSTYLE
  5
9
330
0
100
AcDbSymbolTable
 70
    18
100
AcDbDimStyleTable
 71
     2
340
10AE
340
9F8
  0
DIMSTYLE
105
18
330
9
100
AcDbSymbolTableRecord
100
AcDbDimStyleTableRecord
  2
STANDARD
 70
     0
340
17
  0
DIMSTYLE
105
9F8
330
9
100
AcDbSymbolTableRecord
100
AcDbDimStyleTableRecord
  2
ISO-25
 70
     0
 41
2.0
 42
1.0
 44
1.0
 73
     0
 74
     0
 77
     1
 78
     8
140
2.5
141
1.0
143
0.03937007874016
147
1.0
171
     3
172
     1
174
     1
176
   256
177
   256
178
   256
271
     2
272
     2
274
     3
283
     0
284
     8
340
9F7
  0
DIMSTYLE
105
FC4
330
9
100
AcDbSymbolTableRecord
100
AcDbDimStyleTableRecord
  2
AM_ANSI
 70
     0
  4
mm
 41
0.1
 42
0.05
 43
0.5
 44
0.1
 47
0.1
 48
0.1
 78
     7
 79
     2
140
0.12
141
0.0
146
0.71
147
0.06
176
   256
177
   256
178
     2
274
     4
284
     7
340
17
371
    -1
372
    -1
  0
DIMSTYLE
105
FC5
330
9
100
AcDbSymbolTableRecord
100
AcDbDimStyleTableRecord
  2
AM_ANSI$3
 70
     0
  4
mm
 41
0.1
 42
0.05
 43
0.5
 44
0.1
 47
0.1
 48
0.1
 78
     7
 79
     2
140
0.12
141
0.0
146
0.71
147
0.06
176
   256
177
   256
178
     2
274
     4
284
     7
288
     1
289
     0
340
17
371
    -1
372
    -1
  0
DIMSTYLE
105
FC6
330
9
100
AcDbSymbolTableRecord
100
AcDbDimStyleTableRecord
  2
AM_ANSI$4
 70
     0
  4
mm
 41
0.1
 42
0.05
 43
0.5
 44
0.1
 47
0.1
 48
0.1
 78
     7
 79
     2
140
0.12
141
0.0
146
0.71
147
0.06
176
   256
177
   256
178
     2
274
     4
284
     7
288
     1
289
     0
340
17
371
    -1
372
    -1
  0
DIMSTYLE
105
FC7
330
9
100
AcDbSymbolTableRecord
100
AcDbDimStyleTableRecord
  2
AM_ANSI$7
 70
     0
  4
mm
 41
0.1
 42
0.05
 43
0.5
 44
0.1
 47
0.1
 48
0.1
 78
     7
 79
     2
140
0.24
141
0.0
146
0.71
147
0.06
176
   256
177
   256
178
     2
274
     4
284
     7
340
17
371
    -1
372
    -1
  0
DIMSTYLE
105
FC8
330
9
100
AcDbSymbolTableRecord
100
AcDbDimStyleTableRecord
  2
AM_ANSI$SF
 70
     0
  4
mm
 41
0.1
 42
0.05
 43
0.5
 44
0.1
 47
0.1
 48
0.1
 75
     1
 76
     1
 78
     7
 79
     2
140
0.12
141
0.0
146
0.71
147
0.06
176
   256
177
   256
178
     2
274
     4
284
     7
340
17
371
    -1
372
    -1
  0
DIMSTYLE
105
FCD
330
9
100
AcDbSymbolTableRecord
100
AcDbDimStyleTableRecord
  2
AM_ANSI$SH
 70
     0
  4
mm
 41
0.1
 42
0.05
 43
0.5
 44
0.1
 47
0.1
 48
0.1
 75
     1
 76
     1
 78
     7
 79
     2
140
0.12
141
0.0
146
0.71
147
0.06
173
     1
176
   256
177
   256
178
     2
274
     4
284
     7
340
17
343
FC9
371
    -1
372
    -1
  0
DIMSTYLE
105
FE5
330
9
100
AcDbSymbolTableRecord
100
AcDbDimStyleTableRecord
  2
ISO-25$0
 70
     0
 41
2.0
 42
1.0
 44
1.0
 73
     0
 74
     0
 77
     1
 78
     8
140
2.5
141
1.0
143
0.03937007874016
147
1.0
171
     3
172
     1
174
     1
176
   256
177
   256
178
   256
271
     2
272
     2
274
     3
283
     0
284
     8
340
9F7
  0
DIMSTYLE
105
10AE
330
9
100
AcDbSymbolTableRecord
100
AcDbDimStyleTableRecord
  2
AM_ISO
 70
     0
  4
"
 41
3.0
 42
1.0
 43
6.5
 44
1.0
 47
0.1
 48
0.1
 73
     0
 74
     0
 77
     1
 78
     8
 79
     2
140
3.5
141
0.0
143
0.0393701
146
0.71
147
1.0
172
     1
176
   256
177
   256
178
   256
271
     2
272
     2
283
     0
284
     8
340
17
371
    -1
372
    -1
  0
DIMSTYLE
105
10AF
102
{ACAD_REACTORS
330
6E65
330
6E9F
330
7003
330
7057
330
7208
330
7246
102
}
330
9
100
AcDbSymbolTableRecord
100
AcDbDimStyleTableRecord
  2
AM_ISO$3
 70
     0
  4
"
 41
3.0
 42
1.0
 43
6.5
 44
1.0
 47
0.1
 48
0.1
 73
     0
 77
     1
 78
     8
 79
     2
140
3.5
141
0.0
143
0.0393701
146
0.71
147
1.0
176
   256
177
   256
178
   256
271
     2
272
     2
283
     0
284
     8
288
     1
289
     0
340
17
371
    -1
372
    -1
  0
DIMSTYLE
105
10B0
330
9
100
AcDbSymbolTableRecord
100
AcDbDimStyleTableRecord
  2
AM_ISO$4
 70
     0
  4
"
 41
3.0
 42
1.0
 43
6.5
 44
1.0
 47
0.1
 48
0.1
 73
     0
 77
     1
 78
     8
 79
     2
140
3.5
141
0.0
143
0.0393701
146
0.71
147
1.0
176
   256
177
   256
178
   256
271
     2
272
     2
283
     0
284
     8
288
     1
289
     0
340
17
371
    -1
372
    -1
  0
DIMSTYLE
105
10B1
330
9
100
AcDbSymbolTableRecord
100
AcDbDimStyleTableRecord
  2
AM_ISO$6
 70
     0
  4
"
 41
3.0
 42
1.0
 43
6.5
 44
1.0
 47
0.1
 48
0.1
 73
     0
 74
     0
 78
     8
 79
     2
140
3.5
141
0.0
143
0.0393701
146
0.71
147
1.0
172
     1
176
   256
177
   256
178
   256
271
     2
272
     2
283
     0
284
     8
340
17
371
    -1
372
    -1
  0
DIMSTYLE
105
10B2
102
{ACAD_REACTORS
330
28D6
330
3FEB
102
}
330
9
100
AcDbSymbolTableRecord
100
AcDbDimStyleTableRecord
  2
AM_ISO$7
 70
     0
  4
"
 41
3.0
 42
1.0
 43
6.5
 44
1.0
 47
0.1
 48
0.1
 73
     0
 74
     0
 77
     1
 78
     8
 79
     2
140
5.0
141
0.0
143
0.0393701
146
0.71
147
1.0
172
     1
176
   256
177
   256
178
   256
271
     2
272
     2
283
     0
284
     8
340
17
371
    -1
372
    -1
  0
DIMSTYLE
105
10B3
330
9
100
AcDbSymbolTableRecord
100
AcDbDimStyleTableRecord
  2
AM_ISO$SF
 70
     0
  4
"
 41
2.5
 42
1.0
 43
10.0
 44
1.0
 47
0.1
 48
0.1
 73
     0
 74
     0
 75
     1
 76
     1
 77
     1
 78
     8
 79
     2
140
3.5
141
0.0
143
0.0393701
146
0.71
147
1.5
172
     1
176
   256
177
   256
178
     2
271
     2
272
     3
274
     4
283
     0
284
     8
340
17
371
    -1
372
    -1
  0
DIMSTYLE
105
10B4
330
9
100
AcDbSymbolTableRecord
100
AcDbDimStyleTableRecord
  2
AM_ISO$SH
 70
     0
  4
"
 41
2.5
 42
1.0
 43
10.0
 44
1.0
 47
0.1
 48
0.1
 73
     0
 74
     0
 75
     1
 76
     1
 77
     1
 78
     8
 79
     2
140
3.5
141
0.0
143
0.0393701
144
2.0
146
0.71
147
1.5
172
     1
173
     1
176
   256
177
   256
178
     2
271
     2
272
     3
274
     4
283
     0
284
     8
340
17
343
FC9
371
    -1
372
    -1
  0
DIMSTYLE
105
1182
102
{ACAD_REACTORS
330
6B92
330
6BB1
330
6BEC
330
6C18
330
6C40
330
6C68
330
6C90
330
6CC0
330
6CF1
330
6D22
330
6D4E
330
6D7C
330
6DA8
330
6EDB
330
6F23
330
6F58
330
6F74
330
709B
330
70C3
330
70F4
330
711C
330
714E
102
}
330
9
100
AcDbSymbolTableRecord
100
AcDbDimStyleTableRecord
  2
AM_ISO$0
 70
     0
  4
"
 41
3.0
 42
1.0
 43
6.5
 44
1.0
 47
0.1
 48
0.1
 73
     0
 74
     0
 77
     1
 78
     8
 79
     2
140
3.5
141
0.0
143
0.0393701
146
0.71
147
1.0
172
     1
176
   256
177
   256
178
   256
271
     2
272
     2
283
     0
284
     8
340
17
371
    -1
372
    -1
  0
DIMSTYLE
105
2CDA
102
{ACAD_REACTORS
330
4F0F
330
4F10
330
4F11
102
}
330
9
100
AcDbSymbolTableRecord
100
AcDbDimStyleTableRecord
  2
AM_ISO$2
 70
     0
  4
"
 41
3.0
 42
1.0
 43
6.5
 44
1.0
 47
0.1
 48
0.1
 73
     0
 74
     0
 77
     1
 78
     8
 79
     2
140
3.5
141
0.0
143
0.0393701
146
0.71
147
1.0
172
     1
176
   256
177
   256
178
   256
271
     2
272
     2
283
     0
284
     8
340
17
371
    -1
372
    -1
  0
ENDTAB
  0
TABLE
  2
BLOCK_RECORD
  5
1
330
0
100
AcDbSymbolTable
 70
    67
  0
BLOCK_RECORD
  5
A
102
{ACAD_XDICTIONARY
360
9C9
102
}
330
1
100
AcDbSymbolTableRecord
100
AcDbBlockTableRecord
  2
*MODEL_SPACE
340
A68
  0
BLOCK_RECORD
  5
B
102
{ACAD_XDICTIONARY
360
9CB
102
}
330
1
100
AcDbSymbolTableRecord
100
AcDbBlockTableRecord
  2
*PAPER_SPACE
340
A69
  0
BLOCK_RECORD
  5
FC9
330
1
100
AcDbSymbolTableRecord
100
AcDbBlockTableRecord
  2
GENAXEH
340
0
  0
BLOCK_RECORD
  5
4F12
330
1
100
AcDbSymbolTableRecord
100
AcDbBlockTableRecord
  2
*D2
340
0
  0
BLOCK_RECORD
  5
4F20
330
1
100
AcDbSymbolTableRecord
100
AcDbBlockTableRecord
  2
*D3
340
0
  0
BLOCK_RECORD
  5
4F2E
330
1
100
AcDbSymbolTableRecord
100
AcDbBlockTableRecord
  2
*D4
340
0
  0
BLOCK_RECORD
  5
6B93
330
1
100
AcDbSymbolTableRecord
100
AcDbBlockTableRecord
  2
*D34
340
0
  0
BLOCK_RECORD
  5
6BB2
330
1
100
AcDbSymbolTableRecord
100
AcDbBlockTableRecord
  2
*D35
340
0
  0
BLOCK_RECORD
  5
6BED
330
1
100
AcDbSymbolTableRecord
100
AcDbBlockTableRecord
  2
*D36
340
0
  0
BLOCK_RECORD
  5
6C19
330
1
100
AcDbSymbolTableRecord
100
AcDbBlockTableRecord
  2
*D37
340
0
  0
BLOCK_RECORD
  5
6C41
330
1
100
AcDbSymbolTableRecord
100
AcDbBlockTableRecord
  2
*D38
340
0
  0
BLOCK_RECORD
  5
6C69
330
1
100
AcDbSymbolTableRecord
100
AcDbBlockTableRecord
  2
*D39
340
0
  0
BLOCK_RECORD
  5
6C91
330
1
100
AcDbSymbolTableRecord
100
AcDbBlockTableRecord
  2
*D40
340
0
  0
BLOCK_RECORD
  5
6CC1
330
1
100
AcDbSymbolTableRecord
100
AcDbBlockTableRecord
  2
*D41
340
0
  0
BLOCK_RECORD
  5
6CF2
330
1
100
AcDbSymbolTableRecord
100
AcDbBlockTableRecord
  2
*D42
340
0
  0
BLOCK_RECORD
  5
6D23
330
1
100
AcDbSymbolTableRecord
100
AcDbBlockTableRecord
  2
*D43
340
0
  0
BLOCK_RECORD
  5
6D4F
330
1
100
AcDbSymbolTableRecord
100
AcDbBlockTableRecord
  2
*D44
340
0
  0
BLOCK_RECORD
  5
6D7D
330
1
100
AcDbSymbolTableRecord
100
AcDbBlockTableRecord
  2
*D45
340
0
  0
BLOCK_RECORD
  5
6DA9
330
1
100
AcDbSymbolTableRecord
100
AcDbBlockTableRecord
  2
*D46
340
0
  0
BLOCK_RECORD
  5
6E66
330
1
100
AcDbSymbolTableRecord
100
AcDbBlockTableRecord
  2
*D47
340
0
  0
BLOCK_RECORD
  5
6EA0
330
1
100
AcDbSymbolTableRecord
100
AcDbBlockTableRecord
  2
*D49
340
0
  0
BLOCK_RECORD
  5
6EDC
330
1
100
AcDbSymbolTableRecord
100
AcDbBlockTableRecord
  2
*D50
340
0
  0
BLOCK_RECORD
  5
6F24
330
1
100
AcDbSymbolTableRecord
100
AcDbBlockTableRecord
  2
*D51
340
0
  0
BLOCK_RECORD
  5
6F59
330
1
100
AcDbSymbolTableRecord
100
AcDbBlockTableRecord
  2
*D52
340
0
  0
BLOCK_RECORD
  5
6F75
330
1
100
AcDbSymbolTableRecord
100
AcDbBlockTableRecord
  2
*D53
340
0
  0
BLOCK_RECORD
  5
7004
330
1
100
AcDbSymbolTableRecord
100
AcDbBlockTableRecord
  2
*D55
340
0
  0
BLOCK_RECORD
  5
7058
330
1
100
AcDbSymbolTableRecord
100
AcDbBlockTableRecord
  2
*D56
340
0
  0
BLOCK_RECORD
  5
709C
330
1
100
AcDbSymbolTableRecord
100
AcDbBlockTableRecord
  2
*D57
340
0
  0
BLOCK_RECORD
  5
70C4
330
1
100
AcDbSymbolTableRecord
100
AcDbBlockTableRecord
  2
*D58
340
0
  0
BLOCK_RECORD
  5
70F5
330
1
100
AcDbSymbolTableRecord
100
AcDbBlockTableRecord
  2
*D59
340
0
  0
BLOCK_RECORD
  5
711D
330
1
100
AcDbSymbolTableRecord
100
AcDbBlockTableRecord
  2
*D60
340
0
  0
BLOCK_RECORD
  5
714F
330
1
100
AcDbSymbolTableRecord
100
AcDbBlockTableRecord
  2
*D61
340
0
  0
BLOCK_RECORD
  5
7209
330
1
100
AcDbSymbolTableRecord
100
AcDbBlockTableRecord
  2
*D64
340
0
  0
BLOCK_RECORD
  5
7247
330
1
100
AcDbSymbolTableRecord
100
AcDbBlockTableRecord
  2
*D66
340
0
  0
ENDTAB
  0
ENDSEC
  0
SECTION
  2
BLOCKS
  0
BLOCK
  5
D
330
A
100
AcDbEntity
  8
0
100
AcDbBlockBegin
  2
*MODEL_SPACE
 70
     0
 71
     1
 10
0.0
 20
0.0
 30
0.0
  3
*MODEL_SPACE
  1

  0
ENDBLK
  5
E
330
A
100
AcDbEntity
  8
0
100
AcDbBlockEnd
  0
BLOCK
  5
F
330
B
100
AcDbEntity
 67
     1
  8
0
100
AcDbBlockBegin
  2
*PAPER_SPACE
 70
     0
 71
     1
 10
0.0
 20
0.0
 30
0.0
  3
*PAPER_SPACE
  1

  0
ENDBLK
  5
10
330
B
100
AcDbEntity
 67
     1
  8
0
100
AcDbBlockEnd
  0
BLOCK
  5
FCB
330
FC9
100
AcDbEntity
  8
0
370
     0
100
AcDbBlockBegin
  2
GENAXEH
 70
     0
 10
0.0
 20
0.0
 30
0.0
  3
GENAXEH
  1

  0
LINE
  5
FCA
330
FC9
100
AcDbEntity
  8
0
100
AcDbLine
 10
-1.0
 20
0.0
 30
0.0
 11
1.0
 21
0.0
 31
0.0
  0
ENDBLK
  5
FCC
330
FC9
100
AcDbEntity
  8
0
370
     0
100
AcDbBlockEnd
  0
BLOCK
  5
4F1E
330
4F12
100
AcDbEntity
  8
0
370
     0
100
AcDbBlockBegin
  2
*D2
 70
     1
 10
0.0
 20
0.0
 30
0.0
  3
*D2
  1

  0
LINE
  5
738D
330
4F12
100
AcDbEntity
  8
AM_5
100
AcDbLine
 10
1517.860268223128
 20
391.537363605165
 30
0.0
 11
1522.067115986033
 21
403.0955828408316
 31
0.0
  0
LINE
  5
738E
330
4F12
100
AcDbEntity
  8
AM_5
100
AcDbLine
 10
1502.811381916799
 20
402.7859629328238
 30
0.0
 11
1502.811381916799
 21
406.4908882905848
 31
0.0
  0
ARC
  5
738F
330
4F12
100
AcDbEntity
  8
AM_5
100
AcDbCircle
 10
1502.811381916799
 20
350.1908882905855
 30
0.0
 40
55.29999999999928
100
AcDbArc
 50
73.10865141595245
 51
86.89134858404793
  0
SOLID
  5
7390
330
4F12
100
AcDbEntity
  8
AM_5
370
     0
100
AcDbTrace
 10
1519.037426261457
 20
403.5794183096945
 30
0.0
 11
1518.721020912449
 21
402.630794224443
 31
0.0
 12
1521.725095842707
 22
402.1558902200458
 32
0.0
 13
1521.725095842707
 23
402.1558902200458
 33
0.0
  0
SOLID
  5
7391
330
4F12
100
AcDbEntity
  8
AM_5
370
     0
100
AcDbTrace
 10
1505.7967156967
 20
404.9096979408905
 30
0.0
 11
1505.823840470661
 21
405.9093299965178
 31
0.0
 12
1502.811381916799
 22
405.4908882905847
 32
0.0
 13
1502.811381916799
 23
405.4908882905847
 33
0.0
  0
MTEXT
  5
7392
330
4F12
100
AcDbEntity
  8
AM_5
100
AcDbMText
 10
1512.89171845011
 20
407.3593176075828
 30
0.0
 40
3.5
 41
0.0
 71
     5
 72
     1
  1
20°
 11
0.9848077530122077
 21
-0.1736481776669319
 31
0.0
 73
     1
 44
1.0
1001
ACAD
1000
MTEXTBEGIN
1070
    73
1070
     1
1070
    44
1040
1.0
1070
    74
1070
     0
1000
MTEXTEND
  0
POINT
  5
7393
330
4F12
100
AcDbEntity
  8
Defpoints
 62
     0
370
     0
100
AcDbPoint
 10
1515.564439568855
 20
404.0002696336491
 30
0.0
  0
POINT
  5
7394
330
4F12
100
AcDbEntity
  8
Defpoints
 62
     0
370
     0
100
AcDbPoint
 10
1502.811381916798
 20
304.6394423394044
 30
0.0
  0
POINT
  5
7395
330
4F12
100
AcDbEntity
  8
Defpoints
 62
     0
370
     0
100
AcDbPoint
 10
1502.811381916798
 20
350.1908882905849
 30
0.0
  0
POINT
  5
7396
330
4F12
100
AcDbEntity
  8
Defpoints
 62
     0
370
     0
100
AcDbPoint
 10
1517.518248079802
 20
390.5976709843791
 30
0.0
  0
POINT
  5
7397
330
4F12
100
AcDbEntity
  8
Defpoints
 62
     0
370
     0
100
AcDbPoint
 10
1502.811381916799
 20
401.7859629328238
 30
0.0
  0
ENDBLK
  5
4F1F
330
4F12
100
AcDbEntity
  8
0
370
     0
100
AcDbBlockEnd
  0
BLOCK
  5
4F2C
330
4F20
100
AcDbEntity
  8
0
370
     0
100
AcDbBlockBegin
  2
*D3
 70
     1
 10
0.0
 20
0.0
 30
0.0
  3
*D3
  1

  0
LINE
  5
7398
330
4F20
100
AcDbEntity
  8
AM_5
100
AcDbLine
 10
1502.811381916799
 20
402.7859629328238
 30
0.0
 11
1502.811381916799
 21
406.4908882905842
 31
0.0
  0
LINE
  5
7399
330
4F20
100
AcDbEntity
  8
AM_5
100
AcDbLine
 10
1487.762495610468
 20
391.5373636051647
 30
0.0
 11
1483.555647847563
 21
403.0955828408307
 31
0.0
  0
ARC
  5
739A
330
4F20
100
AcDbEntity
  8
AM_5
100
AcDbCircle
 10
1502.811381916798
 20
350.1908882905844
 30
0.0
 40
55.29999999999993
100
AcDbArc
 50
93.10865141595156
 51
106.8913485840486
  0
SOLID
  5
739B
330
4F20
100
AcDbEntity
  8
AM_5
370
     0
100
AcDbTrace
 10
1499.798923362937
 20
405.9093299965173
 30
0.0
 11
1499.826048136897
 21
404.90969794089
 31
0.0
 12
1502.811381916799
 22
405.4908882905842
 32
0.0
 13
1502.811381916799
 23
405.4908882905842
 33
0.0
  0
SOLID
  5
739C
330
4F20
100
AcDbEntity
  8
AM_5
370
     0
100
AcDbTrace
 10
1486.901742921147
 20
402.6307942244421
 30
0.0
 11
1486.585337572139
 21
403.5794183096936
 31
0.0
 12
1483.897667990888
 22
402.1558902200448
 32
0.0
 13
1483.897667990888
 23
402.1558902200448
 33
0.0
  0
MTEXT
  5
739D
330
4F20
100
AcDbEntity
  8
AM_5
100
AcDbMText
 10
1492.731045383487
 20
407.3593176075823
 30
0.0
 40
3.5
 41
0.0
 71
     5
 72
     1
  1
20°
 11
0.9848077530122074
 21
0.1736481776669339
 31
0.0
 73
     1
 44
1.0
1001
ACAD
1000
MTEXTBEGIN
1070
    73
1070
     1
1070
    44
1040
1.0
1070
    74
1070
     0
1000
MTEXTEND
  0
POINT
  5
739E
330
4F20
100
AcDbEntity
  8
Defpoints
 62
     0
370
     0
100
AcDbPoint
 10
1496.391443765674
 20
405.1169694737137
 30
0.0
  0
POINT
  5
739F
330
4F20
100
AcDbEntity
  8
Defpoints
 62
     0
370
     0
100
AcDbPoint
 10
1502.811381916798
 20
350.190888290585
 30
0.0
  0
POINT
  5
73A0
330
4F20
100
AcDbEntity
  8
Defpoints
 62
     0
370
     0
100
AcDbPoint
 10
1502.811381916798
 20
304.6394423394044
 30
0.0
  0
POINT
  5
73A1
330
4F20
100
AcDbEntity
  8
Defpoints
 62
     0
370
     0
100
AcDbPoint
 10
1502.811381916799
 20
401.7859629328238
 30
0.0
  0
POINT
  5
73A2
330
4F20
100
AcDbEntity
  8
Defpoints
 62
     0
370
     0
100
AcDbPoint
 10
1488.104515753794
 20
390.5976709843788
 30
0.0
  0
ENDBLK
  5
4F2D
330
4F20
100
AcDbEntity
  8
0
370
     0
100
AcDbBlockEnd
  0
BLOCK
  5
4F3A
330
4F2E
100
AcDbEntity
  8
0
370
     0
100
AcDbBlockBegin
  2
*D4
 70
     1
 10
0.0
 20
0.0
 30
0.0
  3
*D4
  1

  0
LINE
  5
73A3
330
4F2E
100
AcDbEntity
  8
AM_5
100
AcDbLine
 10
1502.811381916799
 20
402.7859629328238
 30
0.0
 11
1502.811381916798
 21
412.9908882905843
 31
0.0
  0
LINE
  5
73A4
330
4F2E
100
AcDbEntity
  8
AM_5
100
AcDbLine
 10
1487.88672805456
 20
386.222190058525
 30
0.0
 11
1478.778862364271
 21
408.2105229322931
 31
0.0
  0
ARC
  5
73A5
330
4F2E
100
AcDbEntity
  8
AM_5
100
AcDbCircle
 10
1502.811381916798
 20
350.1908882905842
 30
0.0
 40
61.80000000000021
100
AcDbArc
 50
92.78162168494857
 51
109.7183783150512
  0
SOLID
  5
73A6
330
4F2E
100
AcDbEntity
  8
AM_5
370
     0
100
AcDbTrace
 10
1499.800129808321
 20
412.417925454295
 30
0.0
 11
1499.824401652981
 21
411.4182200589125
 31
0.0
 12
1502.811381916798
 22
411.9908882905843
 32
0.0
 13
1502.811381916798
 23
411.9908882905843
 33
0.0
  0
SOLID
  5
73A7
330
4F2E
100
AcDbEntity
  8
AM_5
370
     0
100
AcDbTrace
 10
1482.140306370894
 20
407.9006348013852
 30
0.0
 11
1481.780159939333
 21
408.8335305875445
 31
0.0
 12
1479.161545796636
 22
407.2866433997819
 32
0.0
 13
1479.161545796636
 23
407.2866433997819
 33
0.0
  0
MTEXT
  5
73A8
330
4F2E
100
AcDbEntity
  8
AM_5
100
AcDbMText
 10
1490.218234424346
 20
413.5009160095578
 30
0.0
 40
3.5
 41
0.0
 71
     5
 72
     1
  1
22.5°
 11
0.9807852804032309
 21
0.1950903220161254
 31
0.0
 73
     1
 44
1.0
1001
ACAD
1000
MTEXTBEGIN
1070
    73
1070
     1
1070
    44
1040
1.0
1070
    74
1070
     0
1000
MTEXTEND
  0
POINT
  5
73A9
330
4F2E
100
AcDbEntity
  8
Defpoints
 62
     0
370
     0
100
AcDbPoint
 10
1494.744863237599
 20
411.4621807234859
 30
0.0
  0
POINT
  5
73AA
330
4F2E
100
AcDbEntity
  8
Defpoints
 62
     0
370
     0
100
AcDbPoint
 10
1488.269411486925
 20
385.2983105260137
 30
0.0
  0
POINT
  5
73AB
330
4F2E
100
AcDbEntity
  8
Defpoints
 62
     0
370
     0
100
AcDbPoint
 10
1502.811381916798
 20
304.6394423394044
 30
0.0
  0
POINT
  5
73AC
330
4F2E
100
AcDbEntity
  8
Defpoints
 62
     0
370
     0
100
AcDbPoint
 10
1502.811381916798
 20
401.7859629328238
 30
0.0
  0
POINT
  5
73AD
330
4F2E
100
AcDbEntity
  8
Defpoints
 62
     0
370
     0
100
AcDbPoint
 10
1502.811381916798
 20
350.1908882905849
 30
0.0
  0
ENDBLK
  5
4F3B
330
4F2E
100
AcDbEntity
  8
0
370
     0
100
AcDbBlockEnd
  0
BLOCK
  5
6B9D
330
6B93
100
AcDbEntity
  8
0
370
     0
100
AcDbBlockBegin
  2
*D34
 70
     1
 10
0.0
 20
0.0
 30
0.0
  3
*D34
  1

  0
LINE
  5
728E
330
6B93
100
AcDbEntity
  8
AM_5
100
AcDbLine
 10
1382.774489822111
 20
306.1908882905849
 30
0.0
 11
1382.774489822111
 21
262.1201872514244
 31
0.0
  0
LINE
  5
728F
330
6B93
100
AcDbEntity
  8
AM_5
100
AcDbLine
 10
1331.774489822112
 20
289.1908882905849
 30
0.0
 11
1331.774489822112
 21
262.1201872514244
 31
0.0
  0
LINE
  5
7290
330
6B93
100
AcDbEntity
  8
AM_5
100
AcDbLine
 10
1379.774489822111
 20
263.1201872514243
 30
0.0
 11
1334.774489822112
 21
263.1201872514243
 31
0.0
  0
SOLID
  5
7291
330
6B93
100
AcDbEntity
  8
AM_5
370
     0
100
AcDbTrace
 10
1379.774489822111
 20
263.6201872514243
 30
0.0
 11
1379.774489822111
 21
262.6201872514243
 31
0.0
 12
1382.774489822111
 22
263.1201872514243
 32
0.0
 13
1382.774489822111
 23
263.1201872514243
 33
0.0
  0
SOLID
  5
7292
330
6B93
100
AcDbEntity
  8
AM_5
370
     0
100
AcDbTrace
 10
1334.774489822112
 20
263.6201872514243
 30
0.0
 11
1334.774489822112
 21
262.6201872514243
 31
0.0
 12
1331.774489822112
 22
263.1201872514243
 32
0.0
 13
1331.774489822112
 23
263.1201872514243
 33
0.0
  0
MTEXT
  5
7293
330
6B93
100
AcDbEntity
  8
AM_5
100
AcDbMText
 10
1357.274489822112
 20
265.8701872514243
 30
0.0
 40
3.5
 41
0.0
 71
     5
 72
     1
  1
51
 73
     1
 44
1.0
1001
ACAD
1000
MTEXTBEGIN
1070
    73
1070
     1
1070
    44
1040
1.0
1070
    74
1070
     0
1000
MTEXTEND
  0
POINT
  5
7294
330
6B93
100
AcDbEntity
  8
Defpoints
 62
     0
370
     0
100
AcDbPoint
 10
1382.774489822111
 20
307.1908882905849
 30
0.0
  0
POINT
  5
7295
330
6B93
100
AcDbEntity
  8
Defpoints
 62
     0
370
     0
100
AcDbPoint
 10
1331.774489822112
 20
290.1908882905849
 30
0.0
  0
POINT
  5
7296
330
6B93
100
AcDbEntity
  8
Defpoints
 62
     0
370
     0
100
AcDbPoint
 10
1331.774489822112
 20
263.1201872514243
 30
0.0
  0
ENDBLK
  5
6B9E
330
6B93
100
AcDbEntity
  8
0
370
     0
100
AcDbBlockEnd
  0
BLOCK
  5
6BBC
330
6BB2
100
AcDbEntity
  8
0
370
     0
100
AcDbBlockBegin
  2
*D35
 70
     1
 10
0.0
 20
0.0
 30
0.0
  3
*D35
  1

  0
LINE
  5
7297
330
6BB2
100
AcDbEntity
  8
AM_5
100
AcDbLine
 10
1382.774489822111
 20
306.1908882905849
 30
0.0
 11
1382.774489822111
 21
255.6201872514244
 31
0.0
  0
LINE
  5
7298
330
6BB2
100
AcDbEntity
  8
AM_5
100
AcDbLine
 10
1324.274489822111
 20
279.1908882905849
 30
0.0
 11
1324.274489822111
 21
255.6201872514244
 31
0.0
  0
LINE
  5
7299
330
6BB2
100
AcDbEntity
  8
AM_5
100
AcDbLine
 10
1379.774489822111
 20
256.6201872514244
 30
0.0
 11
1327.274489822111
 21
256.6201872514244
 31
0.0
  0
SOLID
  5
729A
330
6BB2
100
AcDbEntity
  8
AM_5
370
     0
100
AcDbTrace
 10
1379.774489822111
 20
257.1201872514244
 30
0.0
 11
1379.774489822111
 21
256.1201872514244
 31
0.0
 12
1382.774489822111
 22
256.6201872514244
 32
0.0
 13
1382.774489822111
 23
256.6201872514244
 33
0.0
  0
SOLID
  5
729B
330
6BB2
100
AcDbEntity
  8
AM_5
370
     0
100
AcDbTrace
 10
1327.274489822111
 20
257.1201872514244
 30
0.0
 11
1327.274489822111
 21
256.1201872514244
 31
0.0
 12
1324.274489822111
 22
256.6201872514244
 32
0.0
 13
1324.274489822111
 23
256.6201872514244
 33
0.0
  0
MTEXT
  5
729C
330
6BB2
100
AcDbEntity
  8
AM_5
100
AcDbMText
 10
1353.524489822111
 20
259.3701872514244
 30
0.0
 40
3.5
 41
0.0
 71
     5
 72
     1
  1
58.5
 73
     1
 44
1.0
1001
ACAD
1000
MTEXTBEGIN
1070
    73
1070
     1
1070
    44
1040
1.0
1070
    74
1070
     0
1000
MTEXTEND
  0
POINT
  5
729D
330
6BB2
100
AcDbEntity
  8
Defpoints
 62
     0
370
     0
100
AcDbPoint
 10
1382.774489822111
 20
307.1908882905849
 30
0.0
  0
POINT
  5
729E
330
6BB2
100
AcDbEntity
  8
Defpoints
 62
     0
370
     0
100
AcDbPoint
 10
1324.274489822111
 20
280.1908882905849
 30
0.0
  0
POINT
  5
729F
330
6BB2
100
AcDbEntity
  8
Defpoints
 62
     0
370
     0
100
AcDbPoint
 10
1324.274489822111
 20
256.6201872514244
 30
0.0
  0
ENDBLK
  5
6BBD
330
6BB2
100
AcDbEntity
  8
0
370
     0
100
AcDbBlockEnd
  0
BLOCK
  5
6BF7
330
6BED
100
AcDbEntity
  8
0
370
     0
100
AcDbBlockBegin
  2
*D36
 70
     1
 10
0.0
 20
0.0
 30
0.0
  3
*D36
  1

  0
LINE
  5
72A0
330
6BED
100
AcDbEntity
  8
AM_5
100
AcDbLine
 10
1304.774489822112
 20
279.1908882905849
 30
0.0
 11
1304.774489822112
 21
255.6201872514244
 31
0.0
  0
LINE
  5
72A1
330
6BED
100
AcDbEntity
  8
AM_5
100
AcDbLine
 10
1324.274489822111
 20
279.1908882905849
 30
0.0
 11
1324.274489822111
 21
255.6201872514244
 31
0.0
  0
LINE
  5
72A2
330
6BED
100
AcDbEntity
  8
AM_5
100
AcDbLine
 10
1307.774489822112
 20
256.6201872514244
 30
0.0
 11
1321.274489822111
 21
256.6201872514244
 31
0.0
  0
SOLID
  5
72A3
330
6BED
100
AcDbEntity
  8
AM_5
370
     0
100
AcDbTrace
 10
1307.774489822112
 20
257.1201872514244
 30
0.0
 11
1307.774489822112
 21
256.1201872514244
 31
0.0
 12
1304.774489822112
 22
256.6201872514244
 32
0.0
 13
1304.774489822112
 23
256.6201872514244
 33
0.0
  0
SOLID
  5
72A4
330
6BED
100
AcDbEntity
  8
AM_5
370
     0
100
AcDbTrace
 10
1321.274489822111
 20
257.1201872514244
 30
0.0
 11
1321.274489822111
 21
256.1201872514244
 31
0.0
 12
1324.274489822111
 22
256.6201872514244
 32
0.0
 13
1324.274489822111
 23
256.6201872514244
 33
0.0
  0
MTEXT
  5
72A5
330
6BED
100
AcDbEntity
  8
AM_5
100
AcDbMText
 10
1314.524489822112
 20
259.3701872514244
 30
0.0
 40
3.5
 41
0.0
 71
     5
 72
     1
  1
19.5
 73
     1
 44
1.0
1001
ACAD
1000
MTEXTBEGIN
1070
    73
1070
     1
1070
    44
1040
1.0
1070
    74
1070
     0
1000
MTEXTEND
  0
POINT
  5
72A6
330
6BED
100
AcDbEntity
  8
Defpoints
 62
     0
370
     0
100
AcDbPoint
 10
1304.774489822112
 20
280.1908882905849
 30
0.0
  0
POINT
  5
72A7
330
6BED
100
AcDbEntity
  8
Defpoints
 62
     0
370
     0
100
AcDbPoint
 10
1324.274489822111
 20
280.1908882905849
 30
0.0
  0
POINT
  5
72A8
330
6BED
100
AcDbEntity
  8
Defpoints
 62
     0
370
     0
100
AcDbPoint
 10
1324.274489822111
 20
256.6201872514244
 30
0.0
  0
ENDBLK
  5
6BF8
330
6BED
100
AcDbEntity
  8
0
370
     0
100
AcDbBlockEnd
  0
BLOCK
  5
6C23
330
6C19
100
AcDbEntity
  8
0
370
     0
100
AcDbBlockBegin
  2
*D37
 70
     1
 10
0.0
 20
0.0
 30
0.0
  3
*D37
  1

  0
LINE
  5
72A9
330
6C19
100
AcDbEntity
  8
AM_5
100
AcDbLine
 10
1314.774489822112
 20
279.1908882905849
 30
0.0
 11
1314.774489822112
 21
267.1908882905849
 31
0.0
  0
LINE
  5
72AA
330
6C19
100
AcDbEntity
  8
AM_5
100
AcDbLine
 10
1304.774489822112
 20
279.1908882905849
 30
0.0
 11
1304.774489822112
 21
267.1908882905849
 31
0.0
  0
LINE
  5
72AB
330
6C19
100
AcDbEntity
  8
AM_5
100
AcDbLine
 10
1311.774489822111
 20
268.1908882905848
 30
0.0
 11
1307.774489822112
 21
268.1908882905848
 31
0.0
  0
SOLID
  5
72AC
330
6C19
100
AcDbEntity
  8
AM_5
370
     0
100
AcDbTrace
 10
1311.774489822111
 20
268.6908882905848
 30
0.0
 11
1311.774489822111
 21
267.6908882905848
 31
0.0
 12
1314.774489822112
 22
268.1908882905848
 32
0.0
 13
1314.774489822112
 23
268.1908882905848
 33
0.0
  0
SOLID
  5
72AD
330
6C19
100
AcDbEntity
  8
AM_5
370
     0
100
AcDbTrace
 10
1307.774489822112
 20
268.6908882905848
 30
0.0
 11
1307.774489822112
 21
267.6908882905848
 31
0.0
 12
1304.774489822112
 22
268.1908882905848
 32
0.0
 13
1304.774489822112
 23
268.1908882905848
 33
0.0
  0
MTEXT
  5
72AE
330
6C19
100
AcDbEntity
  8
AM_5
100
AcDbMText
 10
1309.774489822111
 20
270.9408882905848
 30
0.0
 40
3.5
 41
0.0
 71
     5
 72
     1
  1
10
 73
     1
 44
1.0
1001
ACAD
1000
MTEXTBEGIN
1070
    73
1070
     1
1070
    44
1040
1.0
1070
    74
1070
     0
1000
MTEXTEND
  0
POINT
  5
72AF
330
6C19
100
AcDbEntity
  8
Defpoints
 62
     0
370
     0
100
AcDbPoint
 10
1314.774489822112
 20
280.1908882905849
 30
0.0
  0
POINT
  5
72B0
330
6C19
100
AcDbEntity
  8
Defpoints
 62
     0
370
     0
100
AcDbPoint
 10
1304.774489822112
 20
280.1908882905849
 30
0.0
  0
POINT
  5
72B1
330
6C19
100
AcDbEntity
  8
Defpoints
 62
     0
370
     0
100
AcDbPoint
 10
1304.774489822112
 20
268.1908882905848
 30
0.0
  0
ENDBLK
  5
6C24
330
6C19
100
AcDbEntity
  8
0
370
     0
100
AcDbBlockEnd
  0
BLOCK
  5
6C4B
330
6C41
100
AcDbEntity
  8
0
370
     0
100
AcDbBlockBegin
  2
*D38
 70
     1
 10
0.0
 20
0.0
 30
0.0
  3
*D38
  1

  0
LINE
  5
72B2
330
6C41
100
AcDbEntity
  8
AM_5
100
AcDbLine
 10
1280.830117796543
 20
350.190888290585
 30
0.0
 11
1268.830117796543
 21
350.190888290585
 31
0.0
  0
LINE
  5
72B3
330
6C41
100
AcDbEntity
  8
AM_5
100
AcDbLine
 10
1292.774489822112
 20
280.1908882905849
 30
0.0
 11
1268.830117796543
 21
280.1908882905849
 31
0.0
  0
LINE
  5
72B4
330
6C41
100
AcDbEntity
  8
AM_5
100
AcDbLine
 10
1269.830117796543
 20
347.190888290585
 30
0.0
 11
1269.830117796543
 21
283.1908882905849
 31
0.0
  0
SOLID
  5
72B5
330
6C41
100
AcDbEntity
  8
AM_5
370
     0
100
AcDbTrace
 10
1269.330117796543
 20
347.190888290585
 30
0.0
 11
1270.330117796543
 21
347.190888290585
 31
0.0
 12
1269.830117796543
 22
350.190888290585
 32
0.0
 13
1269.830117796543
 23
350.190888290585
 33
0.0
  0
SOLID
  5
72B6
330
6C41
100
AcDbEntity
  8
AM_5
370
     0
100
AcDbTrace
 10
1269.330117796543
 20
283.1908882905849
 30
0.0
 11
1270.330117796543
 21
283.1908882905849
 31
0.0
 12
1269.830117796543
 22
280.1908882905849
 32
0.0
 13
1269.830117796543
 23
280.1908882905849
 33
0.0
  0
MTEXT
  5
72B7
330
6C41
100
AcDbEntity
  8
AM_5
100
AcDbMText
 10
1267.080117796543
 20
315.1908882905852
 30
0.0
 40
3.5
 41
0.0
 71
     5
 72
     1
  1
70
 11
0.0000000000000001
 21
1.0
 31
0.0
 73
     1
 44
1.0
1001
ACAD
1000
MTEXTBEGIN
1070
    73
1070
     1
1070
    44
1040
1.0
1070
    74
1070
     0
1000
MTEXTEND
  0
POINT
  5
72B8
330
6C41
100
AcDbEntity
  8
Defpoints
 62
     0
370
     0
100
AcDbPoint
 10
1281.830117796543
 20
350.190888290585
 30
0.0
  0
POINT
  5
72B9
330
6C41
100
AcDbEntity
  8
Defpoints
 62
     0
370
     0
100
AcDbPoint
 10
1293.774489822111
 20
280.1908882905849
 30
0.0
  0
POINT
  5
72BA
330
6C41
100
AcDbEntity
  8
Defpoints
 62
     0
370
     0
100
AcDbPoint
 10
1269.830117796543
 20
280.1908882905849
 30
0.0
  0
ENDBLK
  5
6C4C
330
6C41
100
AcDbEntity
  8
0
370
     0
100
AcDbBlockEnd
  0
BLOCK
  5
6C73
330
6C69
100
AcDbEntity
  8
0
370
     0
100
AcDbBlockBegin
  2
*D39
 70
     1
 10
0.0
 20
0.0
 30
0.0
  3
*D39
  1

  0
LINE
  5
72BB
330
6C69
100
AcDbEntity
  8
AM_5
100
AcDbLine
 10
1292.774489822112
 20
308.190888290585
 30
0.0
 11
1280.774488822111
 21
308.190888290585
 31
0.0
  0
LINE
  5
72BC
330
6C69
100
AcDbEntity
  8
AM_5
100
AcDbLine
 10
1292.774489822112
 20
297.1908882905849
 30
0.0
 11
1280.774488822111
 21
297.1908882905849
 31
0.0
  0
LINE
  5
72BD
330
6C69
100
AcDbEntity
  8
AM_5
100
AcDbLine
 10
1281.774488822111
 20
305.190888290585
 30
0.0
 11
1281.774488822111
 21
300.1908882905849
 31
0.0
  0
SOLID
  5
72BE
330
6C69
100
AcDbEntity
  8
AM_5
370
     0
100
AcDbTrace
 10
1281.274488822111
 20
305.190888290585
 30
0.0
 11
1282.274488822111
 21
305.190888290585
 31
0.0
 12
1281.774488822111
 22
308.190888290585
 32
0.0
 13
1281.774488822111
 23
308.190888290585
 33
0.0
  0
SOLID
  5
72BF
330
6C69
100
AcDbEntity
  8
AM_5
370
     0
100
AcDbTrace
 10
1281.274488822111
 20
300.1908882905849
 30
0.0
 11
1282.274488822111
 21
300.1908882905849
 31
0.0
 12
1281.774488822111
 22
297.1908882905849
 32
0.0
 13
1281.774488822111
 23
297.1908882905849
 33
0.0
  0
MTEXT
  5
72C0
330
6C69
100
AcDbEntity
  8
AM_5
100
AcDbMText
 10
1279.024488822111
 20
302.6908882905852
 30
0.0
 40
3.5
 41
0.0
 71
     5
 72
     1
  1
11
 11
0.0000000000000001
 21
1.0
 31
0.0
 73
     1
 44
1.0
1001
ACAD
1000
MTEXTBEGIN
1070
    73
1070
     1
1070
    44
1040
1.0
1070
    74
1070
     0
1000
MTEXTEND
  0
POINT
  5
72C1
330
6C69
100
AcDbEntity
  8
Defpoints
 62
     0
370
     0
100
AcDbPoint
 10
1293.774489822111
 20
308.190888290585
 30
0.0
  0
POINT
  5
72C2
330
6C69
100
AcDbEntity
  8
Defpoints
 62
     0
370
     0
100
AcDbPoint
 10
1293.774489822111
 20
297.1908882905849
 30
0.0
  0
POINT
  5
72C3
330
6C69
100
AcDbEntity
  8
Defpoints
 62
     0
370
     0
100
AcDbPoint
 10
1281.774488822111
 20
297.1908882905849
 30
0.0
  0
ENDBLK
  5
6C74
330
6C69
100
AcDbEntity
  8
0
370
     0
100
AcDbBlockEnd
  0
BLOCK
  5
6C9D
330
6C91
100
AcDbEntity
  8
0
370
     0
100
AcDbBlockBegin
  2
*D40
 70
     1
 10
0.0
 20
0.0
 30
0.0
  3
*D40
  1

  0
LINE
  5
72C4
330
6C91
100
AcDbEntity
  8
AM_5
100
AcDbLine
 10
1292.774489822112
 20
297.1908882905849
 30
0.0
 11
1280.774488822111
 21
297.1908882905849
 31
0.0
  0
LINE
  5
72C5
330
6C91
100
AcDbEntity
  8
AM_5
100
AcDbLine
 10
1292.774489822112
 20
291.1908882905849
 30
0.0
 11
1280.774488822111
 21
291.1908882905849
 31
0.0
  0
LINE
  5
72C6
330
6C91
100
AcDbEntity
  8
AM_5
100
AcDbLine
 10
1281.774488822111
 20
300.1908882905849
 30
0.0
 11
1281.774488822111
 21
303.1908882905849
 31
0.0
  0
LINE
  5
72C7
330
6C91
100
AcDbEntity
  8
AM_5
100
AcDbLine
 10
1281.774488822111
 20
288.1908882905849
 30
0.0
 11
1281.774488822111
 21
285.1908882905849
 31
0.0
  0
LINE
  5
72C8
330
6C91
100
AcDbEntity
  8
AM_5
100
AcDbLine
 10
1281.774488822111
 20
297.1908882905849
 30
0.0
 11
1281.774488822111
 21
291.1908882905849
 31
0.0
  0
SOLID
  5
72C9
330
6C91
100
AcDbEntity
  8
AM_5
370
     0
100
AcDbTrace
 10
1281.274488822111
 20
300.1908882905849
 30
0.0
 11
1282.274488822111
 21
300.1908882905849
 31
0.0
 12
1281.774488822111
 22
297.1908882905849
 32
0.0
 13
1281.774488822111
 23
297.1908882905849
 33
0.0
  0
SOLID
  5
72CA
330
6C91
100
AcDbEntity
  8
AM_5
370
     0
100
AcDbTrace
 10
1281.274488822111
 20
288.1908882905849
 30
0.0
 11
1282.274488822111
 21
288.1908882905849
 31
0.0
 12
1281.774488822111
 22
291.1908882905849
 32
0.0
 13
1281.774488822111
 23
291.1908882905849
 33
0.0
  0
MTEXT
  5
72CB
330
6C91
100
AcDbEntity
  8
AM_5
100
AcDbMText
 10
1279.024488822111
 20
294.1908882905851
 30
0.0
 40
3.5
 41
0.0
 71
     5
 72
     1
  1
6
 11
0.0000000000000001
 21
1.0
 31
0.0
 73
     1
 44
1.0
1001
ACAD
1000
MTEXTBEGIN
1070
    73
1070
     1
1070
    44
1040
1.0
1070
    74
1070
     0
1000
MTEXTEND
  0
POINT
  5
72CC
330
6C91
100
AcDbEntity
  8
Defpoints
 62
     0
370
     0
100
AcDbPoint
 10
1293.774489822112
 20
297.1908882905849
 30
0.0
  0
POINT
  5
72CD
330
6C91
100
AcDbEntity
  8
Defpoints
 62
     0
370
     0
100
AcDbPoint
 10
1293.774489822111
 20
291.1908882905849
 30
0.0
  0
POINT
  5
72CE
330
6C91
100
AcDbEntity
  8
Defpoints
 62
     0
370
     0
100
AcDbPoint
 10
1281.774488822111
 20
291.1908882905849
 30
0.0
  0
ENDBLK
  5
6C9E
330
6C91
100
AcDbEntity
  8
0
370
     0
100
AcDbBlockEnd
  0
BLOCK
  5
6CCB
330
6CC1
100
AcDbEntity
  8
0
370
     0
100
AcDbBlockBegin
  2
*D41
 70
     1
 10
0.0
 20
0.0
 30
0.0
  3
*D41
  1

  0
LINE
  5
72CF
330
6CC1
100
AcDbEntity
  8
AM_5
100
AcDbLine
 10
1382.774489822111
 20
394.1908882905849
 30
0.0
 11
1382.774489822111
 21
406.1908882905848
 31
0.0
  0
LINE
  5
72D0
330
6CC1
100
AcDbEntity
  8
AM_5
100
AcDbLine
 10
1293.774489822111
 20
391.387040713291
 30
0.0
 11
1293.774489822111
 21
406.1908882905848
 31
0.0
  0
LINE
  5
72D1
330
6CC1
100
AcDbEntity
  8
AM_5
100
AcDbLine
 10
1379.774489822111
 20
405.1908882905848
 30
0.0
 11
1296.774489822111
 21
405.1908882905848
 31
0.0
  0
SOLID
  5
72D2
330
6CC1
100
AcDbEntity
  8
AM_5
370
     0
100
AcDbTrace
 10
1379.774489822111
 20
405.6908882905848
 30
0.0
 11
1379.774489822111
 21
404.6908882905849
 31
0.0
 12
1382.774489822111
 22
405.1908882905848
 32
0.0
 13
1382.774489822111
 23
405.1908882905848
 33
0.0
  0
SOLID
  5
72D3
330
6CC1
100
AcDbEntity
  8
AM_5
370
     0
100
AcDbTrace
 10
1296.774489822111
 20
405.6908882905848
 30
0.0
 11
1296.774489822111
 21
404.6908882905849
 31
0.0
 12
1293.774489822111
 22
405.1908882905848
 32
0.0
 13
1293.774489822111
 23
405.1908882905848
 33
0.0
  0
MTEXT
  5
72D4
330
6CC1
100
AcDbEntity
  8
AM_5
100
AcDbMText
 10
1338.274489822111
 20
408.1167341688693
 30
0.0
 40
3.5
 41
0.0
 71
     5
 72
     1
  1
(89)
 73
     1
 44
1.0
1001
ACAD
1000
MTEXTBEGIN
1070
    73
1070
     1
1070
    44
1040
1.0
1070
    74
1070
     0
1000
MTEXTEND
  0
POINT
  5
72D5
330
6CC1
100
AcDbEntity
  8
Defpoints
 62
     0
370
     0
100
AcDbPoint
 10
1382.774489822111
 20
393.1908882905849
 30
0.0
  0
POINT
  5
72D6
330
6CC1
100
AcDbEntity
  8
Defpoints
 62
     0
370
     0
100
AcDbPoint
 10
1293.774489822111
 20
390.387040713291
 30
0.0
  0
POINT
  5
72D7
330
6CC1
100
AcDbEntity
  8
Defpoints
 62
     0
370
     0
100
AcDbPoint
 10
1293.774489822111
 20
405.1908882905848
 30
0.0
  0
ENDBLK
  5
6CCC
330
6CC1
100
AcDbEntity
  8
0
370
     0
100
AcDbBlockEnd
  0
BLOCK
  5
6CFC
330
6CF2
100
AcDbEntity
  8
0
370
     0
100
AcDbBlockBegin
  2
*D42
 70
     1
 10
0.0
 20
0.0
 30
0.0
  3
*D42
  1

  0
LINE
  5
72D8
330
6CF2
100
AcDbEntity
  8
AM_5
100
AcDbLine
 10
1383.774489822111
 20
463.643751607192
 30
0.0
 11
1403.735202934702
 21
463.643751607192
 31
0.0
  0
LINE
  5
72D9
330
6CF2
100
AcDbEntity
  8
AM_5
100
AcDbLine
 10
1383.774489822112
 20
549.643751607192
 30
0.0
 11
1403.735202934702
 21
549.643751607192
 31
0.0
  0
LINE
  5
72DA
330
6CF2
100
AcDbEntity
  8
AM_5
100
AcDbLine
 10
1402.735202934702
 20
466.643751607192
 30
0.0
 11
1402.735202934702
 21
546.643751607192
 31
0.0
  0
SOLID
  5
72DB
330
6CF2
100
AcDbEntity
  8
AM_5
370
     0
100
AcDbTrace
 10
1402.235202934702
 20
466.643751607192
 30
0.0
 11
1403.235202934702
 21
466.643751607192
 31
0.0
 12
1402.735202934702
 22
463.643751607192
 32
0.0
 13
1402.735202934702
 23
463.643751607192
 33
0.0
  0
SOLID
  5
72DC
330
6CF2
100
AcDbEntity
  8
AM_5
370
     0
100
AcDbTrace
 10
1402.235202934702
 20
546.643751607192
 30
0.0
 11
1403.235202934702
 21
546.643751607192
 31
0.0
 12
1402.735202934702
 22
549.643751607192
 32
0.0
 13
1402.735202934702
 23
549.643751607192
 33
0.0
  0
MTEXT
  5
72DD
330
6CF2
100
AcDbEntity
  8
AM_5
100
AcDbMText
 10
1399.985202934702
 20
506.6437516071922
 30
0.0
 40
3.5
 41
0.0
 71
     5
 72
     1
  1
%%c86
 11
0.0000000000000001
 21
1.0
 31
0.0
 73
     1
 44
1.0
1001
ACAD
1000
MTEXTBEGIN
1070
    73
1070
     1
1070
    44
1040
1.0
1070
    74
1070
     0
1000
MTEXTEND
  0
POINT
  5
72DE
330
6CF2
100
AcDbEntity
  8
Defpoints
 62
     0
370
     0
100
AcDbPoint
 10
1382.774489822111
 20
463.643751607192
 30
0.0
  0
POINT
  5
72DF
330
6CF2
100
AcDbEntity
  8
Defpoints
 62
     0
370
     0
100
AcDbPoint
 10
1382.774489822112
 20
549.643751607192
 30
0.0
  0
POINT
  5
72E0
330
6CF2
100
AcDbEntity
  8
Defpoints
 62
     0
370
     0
100
AcDbPoint
 10
1402.735202934702
 20
549.643751607192
 30
0.0
  0
ENDBLK
  5
6CFD
330
6CF2
100
AcDbEntity
  8
0
370
     0
100
AcDbBlockEnd
  0
BLOCK
  5
6D2D
330
6D23
100
AcDbEntity
  8
0
370
     0
100
AcDbBlockBegin
  2
*D43
 70
     1
 10
0.0
 20
0.0
 30
0.0
  3
*D43
  1

  0
LINE
  5
72E1
330
6D23
100
AcDbEntity
  8
AM_5
100
AcDbLine
 10
1382.774489822112
 20
550.643751607192
 30
0.0
 11
1382.774489822112
 21
562.643751607192
 31
0.0
  0
LINE
  5
72E2
330
6D23
100
AcDbEntity
  8
AM_5
100
AcDbLine
 10
1370.774489822111
 20
524.4290764237304
 30
0.0
 11
1370.774489822111
 21
562.643751607192
 31
0.0
  0
LINE
  5
72E3
330
6D23
100
AcDbEntity
  8
AM_5
100
AcDbLine
 10
1379.774489822112
 20
561.643751607192
 30
0.0
 11
1373.774489822111
 21
561.643751607192
 31
0.0
  0
SOLID
  5
72E4
330
6D23
100
AcDbEntity
  8
AM_5
370
     0
100
AcDbTrace
 10
1379.774489822112
 20
562.143751607192
 30
0.0
 11
1379.774489822112
 21
561.143751607192
 31
0.0
 12
1382.774489822112
 22
561.643751607192
 32
0.0
 13
1382.774489822112
 23
561.643751607192
 33
0.0
  0
SOLID
  5
72E5
330
6D23
100
AcDbEntity
  8
AM_5
370
     0
100
AcDbTrace
 10
1373.774489822111
 20
562.143751607192
 30
0.0
 11
1373.774489822111
 21
561.143751607192
 31
0.0
 12
1370.774489822111
 22
561.643751607192
 32
0.0
 13
1370.774489822111
 23
561.643751607192
 33
0.0
  0
MTEXT
  5
72E6
330
6D23
100
AcDbEntity
  8
AM_5
100
AcDbMText
 10
1376.774489822112
 20
564.3940960953809
 30
0.0
 40
3.5
 41
0.0
 71
     5
 72
     1
  1
12
 73
     1
 44
1.0
1001
ACAD
1000
MTEXTBEGIN
1070
    73
1070
     1
1070
    44
1040
1.0
1070
    74
1070
     0
1000
MTEXTEND
  0
POINT
  5
72E7
330
6D23
100
AcDbEntity
  8
Defpoints
 62
     0
370
     0
100
AcDbPoint
 10
1382.774489822112
 20
549.643751607192
 30
0.0
  0
POINT
  5
72E8
330
6D23
100
AcDbEntity
  8
Defpoints
 62
     0
370
     0
100
AcDbPoint
 10
1370.774489822111
 20
523.4290764237304
 30
0.0
  0
POINT
  5
72E9
330
6D23
100
AcDbEntity
  8
Defpoints
 62
     0
370
     0
100
AcDbPoint
 10
1370.774489822111
 20
561.643751607192
 30
0.0
  0
ENDBLK
  5
6D2E
330
6D23
100
AcDbEntity
  8
0
370
     0
100
AcDbBlockEnd
  0
BLOCK
  5
6D59
330
6D4F
100
AcDbEntity
  8
0
370
     0
100
AcDbBlockBegin
  2
*D44
 70
     1
 10
0.0
 20
0.0
 30
0.0
  3
*D44
  1

  0
LINE
  5
72EA
330
6D4F
100
AcDbEntity
  8
AM_5
100
AcDbLine
 10
1370.774489822112
 20
524.4290764237307
 30
0.0
 11
1370.774489822112
 21
562.6437516071923
 31
0.0
  0
LINE
  5
72EB
330
6D4F
100
AcDbEntity
  8
AM_5
100
AcDbLine
 10
1340.274489822112
 20
495.5568898945838
 30
0.0
 11
1340.274489822112
 21
562.6437516071923
 31
0.0
  0
LINE
  5
72EC
330
6D4F
100
AcDbEntity
  8
AM_5
100
AcDbLine
 10
1367.774489822112
 20
561.6437516071924
 30
0.0
 11
1343.274489822112
 21
561.6437516071924
 31
0.0
  0
SOLID
  5
72ED
330
6D4F
100
AcDbEntity
  8
AM_5
370
     0
100
AcDbTrace
 10
1367.774489822112
 20
562.1437516071924
 30
0.0
 11
1367.774489822112
 21
561.1437516071923
 31
0.0
 12
1370.774489822112
 22
561.6437516071924
 32
0.0
 13
1370.774489822112
 23
561.6437516071924
 33
0.0
  0
SOLID
  5
72EE
330
6D4F
100
AcDbEntity
  8
AM_5
370
     0
100
AcDbTrace
 10
1343.274489822112
 20
562.1437516071924
 30
0.0
 11
1343.274489822112
 21
561.1437516071923
 31
0.0
 12
1340.274489822112
 22
561.6437516071924
 32
0.0
 13
1340.274489822112
 23
561.6437516071924
 33
0.0
  0
MTEXT
  5
72EF
330
6D4F
100
AcDbEntity
  8
AM_5
100
AcDbMText
 10
1355.524489822112
 20
564.3937516071924
 30
0.0
 40
3.5
 41
0.0
 71
     5
 72
     1
  1
30.5
 73
     1
 44
1.0
1001
ACAD
1000
MTEXTBEGIN
1070
    73
1070
     1
1070
    44
1040
1.0
1070
    74
1070
     0
1000
MTEXTEND
  0
POINT
  5
72F0
330
6D4F
100
AcDbEntity
  8
Defpoints
 62
     0
370
     0
100
AcDbPoint
 10
1370.774489822112
 20
523.4290764237307
 30
0.0
  0
POINT
  5
72F1
330
6D4F
100
AcDbEntity
  8
Defpoints
 62
     0
370
     0
100
AcDbPoint
 10
1340.274489822112
 20
494.5568898945838
 30
0.0
  0
POINT
  5
72F2
330
6D4F
100
AcDbEntity
  8
Defpoints
 62
     0
370
     0
100
AcDbPoint
 10
1340.274489822112
 20
561.6437516071924
 30
0.0
  0
ENDBLK
  5
6D5A
330
6D4F
100
AcDbEntity
  8
0
370
     0
100
AcDbBlockEnd
  0
BLOCK
  5
6D89
330
6D7D
100
AcDbEntity
  8
0
370
     0
100
AcDbBlockBegin
  2
*D45
 70
     1
 10
0.0
 20
0.0
 30
0.0
  3
*D45
  1

  0
LINE
  5
72F3
330
6D7D
100
AcDbEntity
  8
AM_5
100
AcDbLine
 10
1296.774489822112
 20
555.739250430474
 30
0.0
 11
1296.774489822112
 21
580.6711972138409
 31
0.0
  0
LINE
  5
72F4
330
6D7D
100
AcDbEntity
  8
AM_5
100
AcDbLine
 10
1293.774489822111
 20
571.2655298721029
 30
0.0
 11
1293.774489822111
 21
580.6711972138409
 31
0.0
  0
LINE
  5
72F5
330
6D7D
100
AcDbEntity
  8
AM_5
100
AcDbLine
 10
1299.774489822112
 20
579.6711972138409
 30
0.0
 11
1302.774489822112
 21
579.6711972138409
 31
0.0
  0
LINE
  5
72F6
330
6D7D
100
AcDbEntity
  8
AM_5
100
AcDbLine
 10
1290.774489822112
 20
579.6711972138409
 30
0.0
 11
1284.229515075281
 21
579.6711972138409
 31
0.0
  0
LINE
  5
72F7
330
6D7D
100
AcDbEntity
  8
AM_5
100
AcDbLine
 10
1296.774489822112
 20
579.6711972138409
 30
0.0
 11
1293.774489822111
 21
579.6711972138409
 31
0.0
  0
SOLID
  5
72F8
330
6D7D
100
AcDbEntity
  8
AM_5
370
     0
100
AcDbTrace
 10
1299.774489822112
 20
580.1711972138409
 30
0.0
 11
1299.774489822112
 21
579.171197213841
 31
0.0
 12
1296.774489822112
 22
579.6711972138409
 32
0.0
 13
1296.774489822112
 23
579.6711972138409
 33
0.0
  0
SOLID
  5
72F9
330
6D7D
100
AcDbEntity
  8
AM_5
370
     0
100
AcDbTrace
 10
1290.774489822112
 20
580.1711972138409
 30
0.0
 11
1290.774489822112
 21
579.171197213841
 31
0.0
 12
1293.774489822111
 22
579.6711972138409
 32
0.0
 13
1293.774489822111
 23
579.6711972138409
 33
0.0
  0
MTEXT
  5
72FA
330
6D7D
100
AcDbEntity
  8
AM_5
100
AcDbMText
 10
1286.002002448696
 20
582.4211972138409
 30
0.0
 40
3.5
 41
0.0
 71
     5
 72
     1
  1
3
 73
     1
 44
1.0
1001
ACAD
1000
MTEXTBEGIN
1070
    73
1070
     1
1070
    44
1040
1.0
1070
    74
1070
     0
1000
MTEXTEND
  0
POINT
  5
72FB
330
6D7D
100
AcDbEntity
  8
Defpoints
 62
     0
370
     0
100
AcDbPoint
 10
1296.774489822112
 20
554.739250430474
 30
0.0
  0
POINT
  5
72FC
330
6D7D
100
AcDbEntity
  8
Defpoints
 62
     0
370
     0
100
AcDbPoint
 10
1293.774489822111
 20
570.265529872103
 30
0.0
  0
POINT
  5
72FD
330
6D7D
100
AcDbEntity
  8
Defpoints
 62
     0
370
     0
100
AcDbPoint
 10
1293.774489822111
 20
579.6711972138409
 30
0.0
  0
ENDBLK
  5
6D8A
330
6D7D
100
AcDbEntity
  8
0
370
     0
100
AcDbBlockEnd
  0
BLOCK
  5
6DB5
330
6DA9
100
AcDbEntity
  8
0
370
     0
100
AcDbBlockBegin
  2
*D46
 70
     1
 10
0.0
 20
0.0
 30
0.0
  3
*D46
  1

  0
LINE
  5
72FE
330
6DA9
100
AcDbEntity
  8
AM_5
100
AcDbLine
 10
1297.774489822112
 20
553.732956123053
 30
0.0
 11
1297.774489822112
 21
587.1711972138399
 31
0.0
  0
LINE
  5
72FF
330
6DA9
100
AcDbEntity
  8
AM_5
100
AcDbLine
 10
1293.774489822111
 20
571.2655298721029
 30
0.0
 11
1293.774489822111
 21
587.1711972138399
 31
0.0
  0
LINE
  5
7300
330
6DA9
100
AcDbEntity
  8
AM_5
100
AcDbLine
 10
1300.774489822112
 20
586.1711972138399
 30
0.0
 11
1303.774489822111
 21
586.1711972138399
 31
0.0
  0
LINE
  5
7301
330
6DA9
100
AcDbEntity
  8
AM_5
100
AcDbLine
 10
1290.774489822112
 20
586.1711972138399
 30
0.0
 11
1287.774489822111
 21
586.1711972138399
 31
0.0
  0
LINE
  5
7302
330
6DA9
100
AcDbEntity
  8
AM_5
100
AcDbLine
 10
1297.774489822112
 20
586.1711972138399
 30
0.0
 11
1293.774489822111
 21
586.1711972138399
 31
0.0
  0
SOLID
  5
7303
330
6DA9
100
AcDbEntity
  8
AM_5
370
     0
100
AcDbTrace
 10
1300.774489822112
 20
586.6711972138399
 30
0.0
 11
1300.774489822112
 21
585.6711972138399
 31
0.0
 12
1297.774489822112
 22
586.1711972138399
 32
0.0
 13
1297.774489822112
 23
586.1711972138399
 33
0.0
  0
SOLID
  5
7304
330
6DA9
100
AcDbEntity
  8
AM_5
370
     0
100
AcDbTrace
 10
1290.774489822112
 20
586.6711972138399
 30
0.0
 11
1290.774489822112
 21
585.6711972138399
 31
0.0
 12
1293.774489822111
 22
586.1711972138399
 32
0.0
 13
1293.774489822111
 23
586.1711972138399
 33
0.0
  0
MTEXT
  5
7305
330
6DA9
100
AcDbEntity
  8
AM_5
100
AcDbMText
 10
1295.774489822111
 20
588.9211972138399
 30
0.0
 40
3.5
 41
0.0
 71
     5
 72
     1
  1
4
 73
     1
 44
1.0
1001
ACAD
1000
MTEXTBEGIN
1070
    73
1070
     1
1070
    44
1040
1.0
1070
    74
1070
     0
1000
MTEXTEND
  0
POINT
  5
7306
330
6DA9
100
AcDbEntity
  8
Defpoints
 62
     0
370
     0
100
AcDbPoint
 10
1297.774489822112
 20
552.7329561230529
 30
0.0
  0
POINT
  5
7307
330
6DA9
100
AcDbEntity
  8
Defpoints
 62
     0
370
     0
100
AcDbPoint
 10
1293.774489822111
 20
570.265529872103
 30
0.0
  0
POINT
  5
7308
330
6DA9
100
AcDbEntity
  8
Defpoints
 62
     0
370
     0
100
AcDbPoint
 10
1293.774489822111
 20
586.1711972138399
 30
0.0
  0
ENDBLK
  5
6DB6
330
6DA9
100
AcDbEntity
  8
0
370
     0
100
AcDbBlockEnd
  0
BLOCK
  5
6E6F
330
6E66
100
AcDbEntity
  8
0
370
     0
100
AcDbBlockBegin
  2
*D47
 70
     1
 10
0.0
 20
0.0
 30
0.0
  3
*D47
  1

  0
LINE
  5
73AE
330
6E66
100
AcDbEntity
  8
AM_5
100
AcDbLine
 10
1484.896676246846
 20
389.6428078502535
 30
0.0
 11
1470.998516770102
 21
407.5453446225011
 31
0.0
  0
LINE
  5
73AF
330
6E66
100
AcDbEntity
  8
AM_5
100
AcDbLine
 10
1470.998516770102
 20
407.5453446225011
 30
0.0
 11
1448.521663866626
 21
407.5453446225012
 31
0.0
  0
SOLID
  5
73B0
330
6E66
100
AcDbEntity
  8
AM_5
370
     0
100
AcDbTrace
 10
1485.29163054905
 20
389.9494201448062
 30
0.0
 11
1484.501721944643
 21
389.336195555701
 31
0.0
 12
1486.736350014162
 22
387.2730820370318
 32
0.0
 13
1486.736350014162
 23
387.2730820370318
 33
0.0
  0
MTEXT
  5
73B1
330
6E66
100
AcDbEntity
  8
AM_5
100
AcDbMText
 10
1459.260090318364
 20
410.7328446225007
 30
0.0
 40
3.5
 41
0.0
 71
     5
 72
     1
  1
\U+22055*5depth
 73
     1
 44
1.0
1001
ACAD
1000
MTEXTBEGIN
1070
    73
1070
     1
1070
    44
1040
1.0
1070
    74
1070
     0
1000
MTEXTEND
  0
POINT
  5
73B2
330
6E66
100
AcDbEntity
  8
Defpoints
 62
     0
370
     0
100
AcDbPoint
 10
1486.736350014162
 20
387.2730820370318
 30
0.0
  0
POINT
  5
73B3
330
6E66
100
AcDbEntity
  8
Defpoints
 62
     0
370
     0
100
AcDbPoint
 10
1489.802472959688
 20
383.3235390149964
 30
0.0
  0
ENDBLK
  5
6E70
330
6E66
100
AcDbEntity
  8
0
370
     0
100
AcDbBlockEnd
  0
BLOCK
  5
6EA6
330
6EA0
100
AcDbEntity
  8
0
370
     0
100
AcDbBlockBegin
  2
*D49
 70
     1
 10
0.0
 20
0.0
 30
0.0
  3
*D49
  1

  0
LINE
  5
73B4
330
6EA0
100
AcDbEntity
  8
AM_5
100
AcDbLine
 10
1479.027638375467
 20
376.5458412057435
 30
0.0
 11
1477.017744555073
 21
378.7730203253344
 31
0.0
  0
LINE
  5
73B5
330
6EA0
100
AcDbEntity
  8
AM_5
100
AcDbLine
 10
1526.595125458128
 20
323.8359353754263
 30
0.0
 11
1536.856667525309
 21
312.4650400599977
 31
0.0
  0
LINE
  5
73B6
330
6EA0
100
AcDbEntity
  8
AM_5
100
AcDbLine
 10
1536.856667525309
 20
312.4650400599977
 30
0.0
 11
1565.283520428786
 21
312.4650400599977
 31
0.0
  0
LINE
  5
73B7
330
6EA0
100
AcDbEntity
  8
AM_5
100
AcDbLine
 10
1481.037532195862
 20
374.3186620861526
 30
0.0
 11
1524.585231637734
 21
326.0631144950171
 31
0.0
  0
SOLID
  5
73B8
330
6EA0
100
AcDbEntity
  8
AM_5
370
     0
100
AcDbTrace
 10
1479.398834895399
 20
376.8808235091425
 30
0.0
 11
1478.656441855536
 21
376.2108589023445
 31
0.0
 12
1481.037532195862
 22
374.3186620861526
 32
0.0
 13
1481.037532195862
 23
374.3186620861526
 33
0.0
  0
SOLID
  5
73B9
330
6EA0
100
AcDbEntity
  8
AM_5
370
     0
100
AcDbTrace
 10
1526.96632197806
 20
324.1709176788252
 30
0.0
 11
1526.223928938197
 21
323.5009530720271
 31
0.0
 12
1524.585231637734
 22
326.0631144950171
 32
0.0
 13
1524.585231637734
 23
326.0631144950171
 33
0.0
  0
MTEXT
  5
73BA
330
6EA0
100
AcDbEntity
  8
AM_5
100
AcDbMText
 10
1551.570093977048
 20
315.6528845481867
 30
0.0
 40
3.5
 41
0.0
 71
     5
 72
     1
  1
\U+220565*2.5depth
 73
     1
 44
1.0
1001
ACAD
1000
MTEXTBEGIN
1070
    73
1070
     1
1070
    44
1040
1.0
1070
    74
1070
     0
1000
MTEXTEND
  0
POINT
  5
73BB
330
6EA0
100
AcDbEntity
  8
Defpoints
 62
     0
370
     0
100
AcDbPoint
 10
1524.585231637734
 20
326.0631144950171
 30
0.0
  0
POINT
  5
73BC
330
6EA0
100
AcDbEntity
  8
Defpoints
 62
     0
370
     0
100
AcDbPoint
 10
1481.037532195862
 20
374.3186620861526
 30
0.0
  0
ENDBLK
  5
6EA7
330
6EA0
100
AcDbEntity
  8
0
370
     0
100
AcDbBlockEnd
  0
BLOCK
  5
6EE8
330
6EDC
100
AcDbEntity
  8
0
370
     0
100
AcDbBlockBegin
  2
*D50
 70
     1
 10
0.0
 20
0.0
 30
0.0
  3
*D50
  1

  0
LINE
  5
73BD
330
6EDC
100
AcDbEntity
  8
AM_5
100
AcDbLine
 10
1515.809020380123
 20
312.278998409221
 30
0.0
 11
1531.66745635792
 21
273.993347193602
 31
0.0
  0
LINE
  5
73BE
330
6EDC
100
AcDbEntity
  8
AM_5
100
AcDbLine
 10
1520.42841804268
 20
314.1924155710466
 30
0.0
 11
1536.286854020477
 21
275.9067643554277
 31
0.0
  0
LINE
  5
73BF
330
6EDC
100
AcDbEntity
  8
AM_5
100
AcDbLine
 10
1538.675809185645
 20
277.9786941850343
 30
0.0
 11
1541.447447783179
 21
279.1267444821297
 31
0.0
  0
LINE
  5
73C0
330
6EDC
100
AcDbEntity
  8
AM_5
100
AcDbLine
 10
1528.513134328021
 20
273.7691764290179
 30
0.0
 11
1506.961932372597
 21
264.8423762936392
 31
0.0
  0
LINE
  5
73C1
330
6EDC
100
AcDbEntity
  8
AM_5
100
AcDbLine
 10
1535.904170588112
 20
276.830643887939
 30
0.0
 11
1531.284772925555
 21
274.9172267261132
 31
0.0
  0
SOLID
  5
73C2
330
6EDC
100
AcDbEntity
  8
AM_5
370
     0
100
AcDbTrace
 10
1538.484467469463
 20
278.4406339512899
 30
0.0
 11
1538.867150901828
 21
277.5167544187786
 31
0.0
 12
1535.904170588112
 22
276.830643887939
 32
0.0
 13
1535.904170588112
 23
276.830643887939
 33
0.0
  0
SOLID
  5
73C3
330
6EDC
100
AcDbEntity
  8
AM_5
370
     0
100
AcDbTrace
 10
1528.321792611838
 20
274.2311161952736
 30
0.0
 11
1528.704476044203
 21
273.3072366627623
 31
0.0
 12
1531.284772925555
 22
274.9172267261132
 32
0.0
 13
1531.284772925555
 23
274.9172267261132
 33
0.0
  0
MTEXT
  5
73C4
330
6EDC
100
AcDbEntity
  8
AM_5
100
AcDbMText
 10
1515.131910610878
 20
271.6766172226605
 30
0.0
 40
3.5
 41
0.0
 71
     5
 72
     1
  1
5*5depth
 11
0.9238795325112768
 21
0.3826834323651135
 31
0.0
 73
     1
 44
1.0
1001
ACAD
1000
MTEXTBEGIN
1070
    73
1070
     1
1070
    44
1040
1.0
1070
    74
1070
     0
1000
MTEXTEND
  0
POINT
  5
73C5
330
6EDC
100
AcDbEntity
  8
Defpoints
 62
     0
370
     0
100
AcDbPoint
 10
1515.426336947758
 20
313.2028779417323
 30
0.0
  0
POINT
  5
73C6
330
6EDC
100
AcDbEntity
  8
Defpoints
 62
     0
370
     0
100
AcDbPoint
 10
1520.045734610315
 20
315.1162951035579
 30
0.0
  0
POINT
  5
73C7
330
6EDC
100
AcDbEntity
  8
Defpoints
 62
     0
370
     0
100
AcDbPoint
 10
1535.904170588112
 20
276.830643887939
 30
0.0
  0
ENDBLK
  5
6EE9
330
6EDC
100
AcDbEntity
  8
0
370
     0
100
AcDbBlockEnd
  0
BLOCK
  5
6F30
330
6F24
100
AcDbEntity
  8
0
370
     0
100
AcDbBlockBegin
  2
*D51
 70
     1
 10
0.0
 20
0.0
 30
0.0
  3
*D51
  1

  0
LINE
  5
73C8
330
6F24
100
AcDbEntity
  8
AM_5
100
AcDbLine
 10
1515.090080800882
 20
317.9343609865801
 30
0.0
 11
1458.153200865158
 21
294.3503331179881
 31
0.0
  0
LINE
  5
73C9
330
6F24
100
AcDbEntity
  8
AM_5
100
AcDbLine
 10
1517.768864827439
 20
311.4672042590019
 30
0.0
 11
1460.831984891714
 21
287.8831763904099
 31
0.0
  0
LINE
  5
73CA
330
6F24
100
AcDbEntity
  8
AM_5
100
AcDbLine
 10
1457.929030100573
 20
297.504655147887
 30
0.0
 11
1456.780979803478
 21
300.2762937454208
 31
0.0
  0
LINE
  5
73CB
330
6F24
100
AcDbEntity
  8
AM_5
100
AcDbLine
 10
1462.90391472132
 20
285.4942212252413
 30
0.0
 11
1464.051965018416
 21
282.7225826277075
 31
0.0
  0
LINE
  5
73CC
330
6F24
100
AcDbEntity
  8
AM_5
100
AcDbLine
 10
1459.077080397669
 20
294.7330165503533
 30
0.0
 11
1461.755864424225
 21
288.2658598227751
 31
0.0
  0
SOLID
  5
73CD
330
6F24
100
AcDbEntity
  8
AM_5
370
     0
100
AcDbTrace
 10
1458.390969866829
 20
297.6959968640696
 30
0.0
 11
1457.467090334318
 21
297.3133134317044
 31
0.0
 12
1459.077080397669
 22
294.7330165503533
 32
0.0
 13
1459.077080397669
 23
294.7330165503533
 33
0.0
  0
SOLID
  5
73CE
330
6F24
100
AcDbEntity
  8
AM_5
370
     0
100
AcDbTrace
 10
1463.365854487576
 20
285.6855629414239
 30
0.0
 11
1462.441974955065
 21
285.3028795090587
 31
0.0
 12
1461.755864424225
 22
288.2658598227751
 32
0.0
 13
1461.755864424225
 23
288.2658598227751
 33
0.0
  0
MTEXT
  5
73CF
330
6F24
100
AcDbEntity
  8
AM_5
100
AcDbMText
 10
1462.957141125353
 20
292.5518176255684
 30
0.0
 40
3.5
 41
0.0
 71
     5
 72
     1
  1
7
 11
0.382683432365178
 21
-0.9238795325112501
 31
0.0
 73
     1
 44
1.0
1001
ACAD
1000
MTEXTBEGIN
1070
    73
1070
     1
1070
    44
1040
1.0
1070
    74
1070
     0
1000
MTEXTEND
  0
POINT
  5
73D0
330
6F24
100
AcDbEntity
  8
Defpoints
 62
     0
370
     0
100
AcDbPoint
 10
1516.013960333394
 20
318.3170444189453
 30
0.0
  0
POINT
  5
73D1
330
6F24
100
AcDbEntity
  8
Defpoints
 62
     0
370
     0
100
AcDbPoint
 10
1518.69274435995
 20
311.849887691367
 30
0.0
  0
POINT
  5
73D2
330
6F24
100
AcDbEntity
  8
Defpoints
 62
     0
370
     0
100
AcDbPoint
 10
1461.755864424225
 20
288.2658598227751
 30
0.0
  0
ENDBLK
  5
6F31
330
6F24
100
AcDbEntity
  8
0
370
     0
100
AcDbBlockEnd
  0
BLOCK
  5
6F63
330
6F59
100
AcDbEntity
  8
0
370
     0
100
AcDbBlockBegin
  2
*D52
 70
     1
 10
0.0
 20
0.0
 30
0.0
  3
*D52
  1

  0
LINE
  5
73D3
330
6F59
100
AcDbEntity
  8
AM_5
100
AcDbLine
 10
1501.887502384287
 20
349.8082048582199
 30
0.0
 11
1444.950622448558
 21
326.2241769896416
 31
0.0
  0
LINE
  5
73D4
330
6F59
100
AcDbEntity
  8
AM_5
100
AcDbLine
 10
1515.090080800883
 20
317.9343609865802
 30
0.0
 11
1458.153200865149
 21
294.3503331180002
 31
0.0
  0
LINE
  5
73D5
330
6F59
100
AcDbEntity
  8
AM_5
100
AcDbLine
 10
1447.022552278164
 20
323.8352218244726
 30
0.0
 11
1457.929030100566
 21
297.5046551478992
 31
0.0
  0
SOLID
  5
73D6
330
6F59
100
AcDbEntity
  8
AM_5
370
     0
100
AcDbTrace
 10
1447.48449204442
 20
324.026563540655
 30
0.0
 11
1446.560612511908
 21
323.6438801082901
 31
0.0
 12
1445.874501981069
 22
326.6068604220066
 32
0.0
 13
1445.874501981069
 23
326.6068604220066
 33
0.0
  0
SOLID
  5
73D7
330
6F59
100
AcDbEntity
  8
AM_5
370
     0
100
AcDbTrace
 10
1458.390969866821
 20
297.6959968640817
 30
0.0
 11
1457.46709033431
 21
297.3133134317167
 31
0.0
 12
1459.07708039766
 22
294.7330165503652
 32
0.0
 13
1459.07708039766
 23
294.7330165503652
 33
0.0
  0
MTEXT
  5
73D8
330
6F59
100
AcDbEntity
  8
AM_5
100
AcDbMText
 10
1455.016459903771
 20
311.7223179251894
 30
0.0
 40
3.5
 41
0.0
 71
     5
 72
     1
  1
34.5
 11
0.3826834323649597
 21
-0.9238795325113406
 31
0.0
 73
     1
 44
1.0
1001
ACAD
1000
MTEXTBEGIN
1070
    73
1070
     1
1070
    44
1040
1.0
1070
    74
1070
     0
1000
MTEXTEND
  0
POINT
  5
73D9
330
6F59
100
AcDbEntity
  8
Defpoints
 62
     0
370
     0
100
AcDbPoint
 10
1502.811381916799
 20
350.1908882905848
 30
0.0
  0
POINT
  5
73DA
330
6F59
100
AcDbEntity
  8
Defpoints
 62
     0
370
     0
100
AcDbPoint
 10
1516.013960333394
 20
318.3170444189452
 30
0.0
  0
POINT
  5
73DB
330
6F59
100
AcDbEntity
  8
Defpoints
 62
     0
370
     0
100
AcDbPoint
 10
1459.07708039766
 20
294.7330165503652
 30
0.0
  0
ENDBLK
  5
6F64
330
6F59
100
AcDbEntity
  8
0
370
     0
100
AcDbBlockEnd
  0
BLOCK
  5
6F7F
330
6F75
100
AcDbEntity
  8
0
370
     0
100
AcDbBlockBegin
  2
*D53
 70
     1
 10
0.0
 20
0.0
 30
0.0
  3
*D53
  1

  0
LINE
  5
73DC
330
6F75
100
AcDbEntity
  8
AM_5
100
AcDbLine
 10
1487.345531954414
 20
384.9156270936488
 30
0.0
 11
1430.408652018681
 21
361.331599225069
 31
0.0
  0
LINE
  5
73DD
330
6F75
100
AcDbEntity
  8
AM_5
100
AcDbLine
 10
1501.887502384287
 20
349.8082048582199
 30
0.0
 11
1444.950622448549
 21
326.2241769896381
 31
0.0
  0
LINE
  5
73DE
330
6F75
100
AcDbEntity
  8
AM_5
100
AcDbLine
 10
1432.480581848287
 20
358.9426440599
 30
0.0
 11
1444.726451683966
 21
329.3784990195371
 31
0.0
  0
SOLID
  5
73DF
330
6F75
100
AcDbEntity
  8
AM_5
370
     0
100
AcDbTrace
 10
1432.942521614543
 20
359.1339857760825
 30
0.0
 11
1432.018642082032
 21
358.7513023437175
 31
0.0
 12
1431.332531551192
 22
361.7142826574339
 32
0.0
 13
1431.332531551192
 23
361.7142826574339
 33
0.0
  0
SOLID
  5
73E0
330
6F75
100
AcDbEntity
  8
AM_5
370
     0
100
AcDbTrace
 10
1445.188391450221
 20
329.5698407357196
 30
0.0
 11
1444.26451191771
 21
329.1871573033546
 31
0.0
 12
1445.874501981061
 22
326.6068604220031
 32
0.0
 13
1445.874501981061
 23
326.6068604220031
 33
0.0
  0
MTEXT
  5
73E1
330
6F75
100
AcDbEntity
  8
AM_5
100
AcDbMText
 10
1441.144185480533
 20
345.212950978722
 30
0.0
 40
3.5
 41
0.0
 71
     5
 72
     1
  1
38
 11
0.3826834323649597
 21
-0.9238795325113406
 31
0.0
 73
     1
 44
1.0
1001
ACAD
1000
MTEXTBEGIN
1070
    73
1070
     1
1070
    44
1040
1.0
1070
    74
1070
     0
1000
MTEXTEND
  0
POINT
  5
73E2
330
6F75
100
AcDbEntity
  8
Defpoints
 62
     0
370
     0
100
AcDbPoint
 10
1488.269411486926
 20
385.2983105260138
 30
0.0
  0
POINT
  5
73E3
330
6F75
100
AcDbEntity
  8
Defpoints
 62
     0
370
     0
100
AcDbPoint
 10
1502.811381916799
 20
350.1908882905848
 30
0.0
  0
POINT
  5
73E4
330
6F75
100
AcDbEntity
  8
Defpoints
 62
     0
370
     0
100
AcDbPoint
 10
1445.874501981061
 20
326.6068604220031
 30
0.0
  0
ENDBLK
  5
6F80
330
6F75
100
AcDbEntity
  8
0
370
     0
100
AcDbBlockEnd
  0
BLOCK
  5
700D
330
7004
100
AcDbEntity
  8
0
370
     0
100
AcDbBlockBegin
  2
*D55
 70
     1
 10
0.0
 20
0.0
 30
0.0
  3
*D55
  1

  0
LINE
  5
73E5
330
7004
100
AcDbEntity
  8
AM_5
100
AcDbLine
 10
1539.96353480623
 20
373.4329820487043
 30
0.0
 11
1562.838054489507
 21
396.3016052535695
 31
0.0
  0
LINE
  5
73E6
330
7004
100
AcDbEntity
  8
AM_5
100
AcDbLine
 10
1562.838054489507
 20
396.3016052535695
 30
0.0
 11
1596.164907392984
 21
396.3016052535696
 31
0.0
  0
SOLID
  5
73E7
330
7004
100
AcDbEntity
  8
AM_5
370
     0
100
AcDbTrace
 10
1539.610026993054
 20
373.7865810108394
 30
0.0
 11
1540.317042619407
 21
373.0793830865691
 31
0.0
 12
1537.84194103342
 22
371.3119351696445
 32
0.0
 13
1537.84194103342
 23
371.3119351696445
 33
0.0
  0
MTEXT
  5
73E8
330
7004
100
AcDbEntity
  8
AM_5
100
AcDbMText
 10
1580.001480941245
 20
399.489449741759
 30
0.0
 40
3.5
 41
0.0
 71
     5
 72
     1
  1
3-M6*1*12depth
 73
     1
 44
1.0
1001
ACAD
1000
MTEXTBEGIN
1070
    73
1070
     1
1070
    44
1040
1.0
1070
    74
1070
     0
1000
MTEXTEND
  0
POINT
  5
73E9
330
7004
100
AcDbEntity
  8
Defpoints
 62
     0
370
     0
100
AcDbPoint
 10
1537.84194103342
 20
371.3119351696445
 30
0.0
  0
POINT
  5
73EA
330
7004
100
AcDbEntity
  8
Defpoints
 62
     0
370
     0
100
AcDbPoint
 10
1533.598753487797
 20
367.0698414115241
 30
0.0
  0
ENDBLK
  5
700E
330
7004
100
AcDbEntity
  8
0
370
     0
100
AcDbBlockEnd
  0
BLOCK
  5
705E
330
7058
100
AcDbEntity
  8
0
370
     0
100
AcDbBlockBegin
  2
*D56
 70
     1
 10
0.0
 20
0.0
 30
0.0
  3
*D56
  1

  0
LINE
  5
7346
330
7058
100
AcDbEntity
  8
AM_5
100
AcDbLine
 10
1168.825159456385
 20
393.4412618889536
 30
0.0
 11
1151.988579773534
 21
418.8292735149632
 31
0.0
  0
LINE
  5
7347
330
7058
100
AcDbEntity
  8
AM_5
100
AcDbLine
 10
1151.988579773534
 20
418.8292735149632
 30
0.0
 11
1126.711726870057
 21
418.8292735149633
 31
0.0
  0
SOLID
  5
7348
330
7058
100
AcDbEntity
  8
AM_5
370
     0
100
AcDbTrace
 10
1169.241855773716
 20
393.7176025828859
 30
0.0
 11
1168.408463139055
 21
393.1649211950215
 31
0.0
 12
1170.483203619979
 22
390.9410839849688
 32
0.0
 13
1170.483203619979
 23
390.9410839849688
 33
0.0
  0
MTEXT
  5
7349
330
7058
100
AcDbEntity
  8
AM_5
100
AcDbMText
 10
1138.850153321796
 20
424.9334401816303
 30
0.0
 40
3.5
 41
0.0
 71
     5
 72
     1
  1
3-\U+22056.6\P%%c11*17depth
 73
     1
 44
1.0
1001
ACAD
1000
MTEXTBEGIN
1070
    73
1070
     1
1070
    44
1040
1.0
1070
    74
1070
     0
1000
MTEXTEND
  0
POINT
  5
734A
330
7058
100
AcDbEntity
  8
Defpoints
 62
     0
370
     0
100
AcDbPoint
 10
1170.483203619979
 20
390.9410839849688
 30
0.0
  0
POINT
  5
734B
330
7058
100
AcDbEntity
  8
Defpoints
 62
     0
370
     0
100
AcDbPoint
 10
1174.130900779884
 20
385.4406925962022
 30
0.0
  0
ENDBLK
  5
705F
330
7058
100
AcDbEntity
  8
0
370
     0
100
AcDbBlockEnd
  0
BLOCK
  5
70A6
330
709C
100
AcDbEntity
  8
0
370
     0
100
AcDbBlockBegin
  2
*D57
 70
     1
 10
0.0
 20
0.0
 30
0.0
  3
*D57
  1

  0
LINE
  5
734C
330
709C
100
AcDbEntity
  8
AM_5
100
AcDbLine
 10
1107.819248531236
 20
380.4947358678784
 30
0.0
 11
1097.426943685823
 21
386.4947358678788
 31
0.0
  0
LINE
  5
734D
330
709C
100
AcDbEntity
  8
AM_5
100
AcDbLine
 10
1113.819248531236
 20
390.8870407132918
 30
0.0
 11
1103.426943685823
 21
396.8870407132922
 31
0.0
  0
LINE
  5
734E
330
709C
100
AcDbEntity
  8
AM_5
100
AcDbLine
 10
1099.792969089607
 20
388.5928120792321
 30
0.0
 11
1102.792969089608
 21
393.788964501939
 31
0.0
  0
SOLID
  5
734F
330
709C
100
AcDbEntity
  8
AM_5
370
     0
100
AcDbTrace
 10
1099.359956387715
 20
388.8428120792321
 30
0.0
 11
1100.225981791499
 21
388.3428120792321
 31
0.0
 12
1098.292969089607
 22
385.9947358678788
 32
0.0
 13
1098.292969089607
 23
385.9947358678788
 33
0.0
  0
SOLID
  5
7350
330
709C
100
AcDbEntity
  8
AM_5
370
     0
100
AcDbTrace
 10
1102.359956387715
 20
394.038964501939
 30
0.0
 11
1103.2259817915
 21
393.538964501939
 31
0.0
 12
1104.292969089608
 22
396.3870407132922
 32
0.0
 13
1104.292969089608
 23
396.3870407132922
 33
0.0
  0
MTEXT
  5
7351
330
709C
100
AcDbEntity
  8
AM_5
100
AcDbMText
 10
1098.911100893678
 20
392.5660605346802
 30
0.0
 40
3.5
 41
0.0
 71
     5
 72
     1
  1
12
 11
0.5000000000000285
 21
0.8660254037844222
 31
0.0
 73
     1
 44
1.0
1001
ACAD
1000
MTEXTBEGIN
1070
    73
1070
     1
1070
    44
1040
1.0
1070
    74
1070
     0
1000
MTEXTEND
  0
POINT
  5
7352
330
709C
100
AcDbEntity
  8
Defpoints
 62
     0
370
     0
100
AcDbPoint
 10
1108.68527393502
 20
379.9947358678784
 30
0.0
  0
POINT
  5
7353
330
709C
100
AcDbEntity
  8
Defpoints
 62
     0
370
     0
100
AcDbPoint
 10
1114.685273935021
 20
390.3870407132918
 30
0.0
  0
POINT
  5
7354
330
709C
100
AcDbEntity
  8
Defpoints
 62
     0
370
     0
100
AcDbPoint
 10
1104.292969089608
 20
396.3870407132922
 30
0.0
  0
ENDBLK
  5
70A7
330
709C
100
AcDbEntity
  8
0
370
     0
100
AcDbBlockEnd
  0
BLOCK
  5
70CE
330
70C4
100
AcDbEntity
  8
0
370
     0
100
AcDbBlockBegin
  2
*D58
 70
     1
 10
0.0
 20
0.0
 30
0.0
  3
*D58
  1

  0
LINE
  5
7355
330
70C4
100
AcDbEntity
  8
AM_5
100
AcDbLine
 10
1159.307052199931
 20
279.1908882905849
 30
0.0
 11
1159.307052199931
 21
266.1852262687992
 31
0.0
  0
LINE
  5
7356
330
70C4
100
AcDbEntity
  8
AM_5
100
AcDbLine
 10
1185.307052199931
 20
279.1908882905849
 30
0.0
 11
1185.307052199931
 21
266.1852262687992
 31
0.0
  0
LINE
  5
7357
330
70C4
100
AcDbEntity
  8
AM_5
100
AcDbLine
 10
1162.307052199931
 20
267.1852262687992
 30
0.0
 11
1182.307052199931
 21
267.1852262687992
 31
0.0
  0
SOLID
  5
7358
330
70C4
100
AcDbEntity
  8
AM_5
370
     0
100
AcDbTrace
 10
1162.307052199931
 20
267.6852262687992
 30
0.0
 11
1162.307052199931
 21
266.6852262687992
 31
0.0
 12
1159.307052199931
 22
267.1852262687992
 32
0.0
 13
1159.307052199931
 23
267.1852262687992
 33
0.0
  0
SOLID
  5
7359
330
70C4
100
AcDbEntity
  8
AM_5
370
     0
100
AcDbTrace
 10
1182.307052199931
 20
267.6852262687992
 30
0.0
 11
1182.307052199931
 21
266.6852262687992
 31
0.0
 12
1185.307052199931
 22
267.1852262687992
 32
0.0
 13
1185.307052199931
 23
267.1852262687992
 33
0.0
  0
MTEXT
  5
735A
330
70C4
100
AcDbEntity
  8
AM_5
100
AcDbMText
 10
1172.307052199931
 20
269.9355707569882
 30
0.0
 40
3.5
 41
0.0
 71
     5
 72
     1
  1
26
 73
     1
 44
1.0
1001
ACAD
1000
MTEXTBEGIN
1070
    73
1070
     1
1070
    44
1040
1.0
1070
    74
1070
     0
1000
MTEXTEND
  0
POINT
  5
735B
330
70C4
100
AcDbEntity
  8
Defpoints
 62
     0
370
     0
100
AcDbPoint
 10
1159.307052199931
 20
280.1908882905849
 30
0.0
  0
POINT
  5
735C
330
70C4
100
AcDbEntity
  8
Defpoints
 62
     0
370
     0
100
AcDbPoint
 10
1185.307052199931
 20
280.1908882905849
 30
0.0
  0
POINT
  5
735D
330
70C4
100
AcDbEntity
  8
Defpoints
 62
     0
370
     0
100
AcDbPoint
 10
1185.307052199931
 20
267.1852262687992
 30
0.0
  0
ENDBLK
  5
70CF
330
70C4
100
AcDbEntity
  8
0
370
     0
100
AcDbBlockEnd
  0
BLOCK
  5
70FF
330
70F5
100
AcDbEntity
  8
0
370
     0
100
AcDbBlockBegin
  2
*D59
 70
     1
 10
0.0
 20
0.0
 30
0.0
  3
*D59
  1

  0
LINE
  5
735E
330
70F5
100
AcDbEntity
  8
AM_5
100
AcDbLine
 10
1152.307052199935
 20
292.6223457956599
 30
0.0
 11
1152.307052199935
 21
259.6852262687979
 31
0.0
  0
LINE
  5
735F
330
70F5
100
AcDbEntity
  8
AM_5
100
AcDbLine
 10
1192.307052199931
 20
292.6223457956613
 30
0.0
 11
1192.307052199931
 21
259.6852262687979
 31
0.0
  0
LINE
  5
7360
330
70F5
100
AcDbEntity
  8
AM_5
100
AcDbLine
 10
1155.307052199935
 20
260.6852262687979
 30
0.0
 11
1189.307052199931
 21
260.6852262687979
 31
0.0
  0
SOLID
  5
7361
330
70F5
100
AcDbEntity
  8
AM_5
370
     0
100
AcDbTrace
 10
1155.307052199935
 20
261.1852262687979
 30
0.0
 11
1155.307052199935
 21
260.1852262687978
 31
0.0
 12
1152.307052199935
 22
260.6852262687979
 32
0.0
 13
1152.307052199935
 23
260.6852262687979
 33
0.0
  0
SOLID
  5
7362
330
70F5
100
AcDbEntity
  8
AM_5
370
     0
100
AcDbTrace
 10
1189.307052199931
 20
261.1852262687979
 30
0.0
 11
1189.307052199931
 21
260.1852262687978
 31
0.0
 12
1192.307052199931
 22
260.6852262687979
 32
0.0
 13
1192.307052199931
 23
260.6852262687979
 33
0.0
  0
MTEXT
  5
7363
330
70F5
100
AcDbEntity
  8
AM_5
100
AcDbMText
 10
1172.307052199933
 20
263.4352262687979
 30
0.0
 40
3.5
 41
0.0
 71
     5
 72
     1
  1
40
 73
     1
 44
1.0
1001
ACAD
1000
MTEXTBEGIN
1070
    73
1070
     1
1070
    44
1040
1.0
1070
    74
1070
     0
1000
MTEXTEND
  0
POINT
  5
7364
330
70F5
100
AcDbEntity
  8
Defpoints
 62
     0
370
     0
100
AcDbPoint
 10
1152.307052199935
 20
293.6223457956598
 30
0.0
  0
POINT
  5
7365
330
70F5
100
AcDbEntity
  8
Defpoints
 62
     0
370
     0
100
AcDbPoint
 10
1192.307052199931
 20
293.6223457956613
 30
0.0
  0
POINT
  5
7366
330
70F5
100
AcDbEntity
  8
Defpoints
 62
     0
370
     0
100
AcDbPoint
 10
1192.307052199931
 20
260.6852262687979
 30
0.0
  0
ENDBLK
  5
7100
330
70F5
100
AcDbEntity
  8
0
370
     0
100
AcDbBlockEnd
  0
BLOCK
  5
7127
330
711D
100
AcDbEntity
  8
0
370
     0
100
AcDbBlockBegin
  2
*D60
 70
     1
 10
0.0
 20
0.0
 30
0.0
  3
*D60
  1

  0
LINE
  5
7367
330
711D
100
AcDbEntity
  8
AM_5
100
AcDbLine
 10
1228.665690744027
 20
381.5748628868004
 30
0.0
 11
1249.297298386976
 21
345.8398702073864
 31
0.0
  0
LINE
  5
7368
330
711D
100
AcDbEntity
  8
AM_5
100
AcDbLine
 10
1213.943258879692
 20
373.0748628868004
 30
0.0
 11
1234.57486652264
 21
337.3398702073864
 31
0.0
  0
LINE
  5
7369
330
711D
100
AcDbEntity
  8
AM_5
100
AcDbLine
 10
1246.199222175623
 20
345.205895611171
 30
0.0
 11
1236.672942733993
 21
339.7058956111709
 31
0.0
  0
SOLID
  5
736A
330
711D
100
AcDbEntity
  8
AM_5
370
     0
100
AcDbTrace
 10
1245.949222175622
 20
345.6389083130632
 30
0.0
 11
1246.449222175623
 21
344.7728829092788
 31
0.0
 12
1248.797298386976
 22
346.7058956111709
 32
0.0
 13
1248.797298386976
 23
346.7058956111709
 33
0.0
  0
SOLID
  5
736B
330
711D
100
AcDbEntity
  8
AM_5
370
     0
100
AcDbTrace
 10
1236.422942733993
 20
340.1389083130631
 30
0.0
 11
1236.922942733993
 21
339.2728829092787
 31
0.0
 12
1234.07486652264
 22
338.2058956111709
 32
0.0
 13
1234.07486652264
 23
338.2058956111709
 33
0.0
  0
MTEXT
  5
736C
330
711D
100
AcDbEntity
  8
AM_5
100
AcDbMText
 10
1240.061082454808
 20
344.8374654715782
 30
0.0
 40
3.5
 41
0.0
 71
     5
 72
     1
  1
17
 11
0.8660254037844456
 21
0.499999999999988
 31
0.0
 73
     1
 44
1.0
1001
ACAD
1000
MTEXTBEGIN
1070
    73
1070
     1
1070
    44
1040
1.0
1070
    74
1070
     0
1000
MTEXTEND
  0
POINT
  5
736D
330
711D
100
AcDbEntity
  8
Defpoints
 62
     0
370
     0
100
AcDbPoint
 10
1228.165690744028
 20
382.4408882905848
 30
0.0
  0
POINT
  5
736E
330
711D
100
AcDbEntity
  8
Defpoints
 62
     0
370
     0
100
AcDbPoint
 10
1213.443258879691
 20
373.9408882905848
 30
0.0
  0
POINT
  5
736F
330
711D
100
AcDbEntity
  8
Defpoints
 62
     0
370
     0
100
AcDbPoint
 10
1234.07486652264
 20
338.2058956111709
 30
0.0
  0
ENDBLK
  5
7128
330
711D
100
AcDbEntity
  8
0
370
     0
100
AcDbBlockEnd
  0
BLOCK
  5
715B
330
714F
100
AcDbEntity
  8
0
370
     0
100
AcDbBlockBegin
  2
*D61
 70
     1
 10
0.0
 20
0.0
 30
0.0
  3
*D61
  1

  0
LINE
  5
7370
330
714F
100
AcDbEntity
  8
AM_5
100
AcDbLine
 10
1212.180119158879
 20
365.1287104640937
 30
0.0
 11
1229.811726801826
 21
334.5898702073879
 31
0.0
  0
LINE
  5
7371
330
714F
100
AcDbEntity
  8
AM_5
100
AcDbLine
 10
1213.943258879692
 20
373.0748628868006
 30
0.0
 11
1234.57486652264
 21
337.3398702073876
 31
0.0
  0
LINE
  5
7372
330
714F
100
AcDbEntity
  8
AM_5
100
AcDbLine
 10
1236.672942733993
 20
339.705895611172
 30
0.0
 11
1239.271018945347
 21
341.205895611172
 31
0.0
  0
LINE
  5
7373
330
714F
100
AcDbEntity
  8
AM_5
100
AcDbLine
 10
1226.713650590473
 20
333.9558956111726
 30
0.0
 11
1218.014447279343
 21
328.9334082377569
 31
0.0
  0
LINE
  5
7374
330
714F
100
AcDbEntity
  8
AM_5
100
AcDbLine
 10
1234.07486652264
 20
338.2058956111721
 30
0.0
 11
1229.311726801826
 21
335.4558956111724
 31
0.0
  0
SOLID
  5
7375
330
714F
100
AcDbEntity
  8
AM_5
370
     0
100
AcDbTrace
 10
1236.422942733993
 20
340.1389083130642
 30
0.0
 11
1236.922942733993
 21
339.2728829092797
 31
0.0
 12
1234.07486652264
 22
338.2058956111721
 32
0.0
 13
1234.07486652264
 23
338.2058956111721
 33
0.0
  0
SOLID
  5
7376
330
714F
100
AcDbEntity
  8
AM_5
370
     0
100
AcDbTrace
 10
1226.463650590473
 20
334.3889083130648
 30
0.0
 11
1226.963650590473
 21
333.5228829092803
 31
0.0
 12
1229.311726801826
 22
335.4558956111724
 32
0.0
 13
1229.311726801826
 23
335.4558956111724
 33
0.0
  0
MTEXT
  5
7377
330
714F
100
AcDbEntity
  8
AM_5
100
AcDbMText
 10
1219.690010829231
 20
333.0762217848717
 30
0.0
 40
3.5
 41
0.0
 71
     5
 72
     1
  1
5.5
 11
0.8660254037844461
 21
0.4999999999999868
 31
0.0
 73
     1
 44
1.0
1001
ACAD
1000
MTEXTBEGIN
1070
    73
1070
     1
1070
    44
1040
1.0
1070
    74
1070
     0
1000
MTEXTEND
  0
POINT
  5
7378
330
714F
100
AcDbEntity
  8
Defpoints
 62
     0
370
     0
100
AcDbPoint
 10
1211.680119158879
 20
365.9947358678782
 30
0.0
  0
POINT
  5
7379
330
714F
100
AcDbEntity
  8
Defpoints
 62
     0
370
     0
100
AcDbPoint
 10
1213.443258879692
 20
373.940888290585
 30
0.0
  0
POINT
  5
737A
330
714F
100
AcDbEntity
  8
Defpoints
 62
     0
370
     0
100
AcDbPoint
 10
1234.07486652264
 20
338.2058956111721
 30
0.0
  0
ENDBLK
  5
715C
330
714F
100
AcDbEntity
  8
0
370
     0
100
AcDbBlockEnd
  0
BLOCK
  5
7212
330
7209
100
AcDbEntity
  8
0
370
     0
100
AcDbBlockBegin
  2
*D64
 70
     1
 10
0.0
 20
0.0
 30
0.0
  3
*D64
  1

  0
LINE
  5
737B
330
7209
100
AcDbEntity
  8
AM_5
100
AcDbLine
 10
1210.489125515282
 20
376.3790397591632
 30
0.0
 11
1212.963125946082
 21
378.0758962258097
 31
0.0
  0
LINE
  5
737C
330
7209
100
AcDbEntity
  8
AM_5
100
AcDbLine
 10
1134.12497888458
 20
324.0027368220071
 30
0.0
 11
1130.334978310303
 21
321.4032680009868
 31
0.0
  0
LINE
  5
737D
330
7209
100
AcDbEntity
  8
AM_5
100
AcDbLine
 10
1130.334978310303
 20
321.4032680009868
 30
0.0
 11
1118.661356263059
 21
321.4032680009868
 31
0.0
  0
LINE
  5
737E
330
7209
100
AcDbEntity
  8
AM_5
100
AcDbLine
 10
1208.015125084482
 20
374.6821832925166
 30
0.0
 11
1136.598979315381
 21
325.6995932886536
 31
0.0
  0
SOLID
  5
737F
330
7209
100
AcDbEntity
  8
AM_5
370
     0
100
AcDbTrace
 10
1210.206316104174
 20
376.7913731642965
 30
0.0
 11
1210.77193492639
 21
375.9667063540298
 31
0.0
 12
1208.015125084482
 22
374.6821832925166
 32
0.0
 13
1208.015125084482
 23
374.6821832925166
 33
0.0
  0
SOLID
  5
7380
330
7209
100
AcDbEntity
  8
AM_5
370
     0
100
AcDbTrace
 10
1133.842169473473
 20
324.4150702271405
 30
0.0
 11
1134.407788295688
 21
323.5904034168737
 31
0.0
 12
1136.598979315381
 22
325.6995932886536
 32
0.0
 13
1136.598979315381
 23
325.6995932886536
 33
0.0
  0
MTEXT
  5
7381
330
7209
100
AcDbEntity
  8
AM_5
100
AcDbMText
 10
1123.998167286682
 20
324.1532680009867
 30
0.0
 40
3.5
 41
0.0
 71
     5
 72
     1
  1
\U+220586.6
 73
     1
 44
1.0
1001
ACAD
1000
MTEXTBEGIN
1070
    73
1070
     1
1070
    44
1040
1.0
1070
    74
1070
     0
1000
MTEXTEND
  0
POINT
  5
7382
330
7209
100
AcDbEntity
  8
Defpoints
 62
     0
370
     0
100
AcDbPoint
 10
1136.598979315381
 20
325.6995932886536
 30
0.0
  0
POINT
  5
7383
330
7209
100
AcDbEntity
  8
Defpoints
 62
     0
370
     0
100
AcDbPoint
 10
1208.015125084482
 20
374.6821832925166
 30
0.0
  0
ENDBLK
  5
7213
330
7209
100
AcDbEntity
  8
0
370
     0
100
AcDbBlockEnd
  0
BLOCK
  5
7250
330
7247
100
AcDbEntity
  8
0
370
     0
100
AcDbBlockBegin
  2
*D66
 70
     1
 10
0.0
 20
0.0
 30
0.0
  3
*D66
  1

  0
LINE
  5
7384
330
7247
100
AcDbEntity
  8
AM_5
100
AcDbLine
 10
1218.536442672473
 20
392.9909286706744
 30
0.0
 11
1220.737842218785
 21
395.029025831631
 31
0.0
  0
LINE
  5
7385
330
7247
100
AcDbEntity
  8
AM_5
100
AcDbLine
 10
1126.077661727389
 20
307.3908479104958
 30
0.0
 11
1123.876262181078
 21
305.3527507495392
 31
0.0
  0
LINE
  5
7386
330
7247
100
AcDbEntity
  8
AM_5
100
AcDbLine
 10
1123.876262181078
 20
305.3527507495392
 30
0.0
 11
1114.123506275566
 21
305.3527507495392
 31
0.0
  0
LINE
  5
7387
330
7247
100
AcDbEntity
  8
AM_5
100
AcDbLine
 10
1216.335043126162
 20
390.9528315097177
 30
0.0
 11
1128.279061273701
 21
309.4289450714524
 31
0.0
  0
SOLID
  5
7388
330
7247
100
AcDbEntity
  8
AM_5
370
     0
100
AcDbTrace
 10
1218.196759812314
 20
393.3578285950597
 30
0.0
 11
1218.876125532633
 21
392.6240287462892
 31
0.0
 12
1216.335043126162
 22
390.9528315097177
 32
0.0
 13
1216.335043126162
 23
390.9528315097177
 33
0.0
  0
SOLID
  5
7389
330
7247
100
AcDbEntity
  8
AM_5
370
     0
100
AcDbTrace
 10
1125.73797886723
 20
307.7577478348811
 30
0.0
 11
1126.417344587549
 21
307.0239479861106
 31
0.0
 12
1128.279061273701
 22
309.4289450714524
 32
0.0
 13
1128.279061273701
 23
309.4289450714524
 33
0.0
  0
MTEXT
  5
738A
330
7247
100
AcDbEntity
  8
AM_5
100
AcDbMText
 10
1118.499884228322
 20
308.1030952377282
 30
0.0
 40
3.5
 41
0.0
 71
     5
 72
     1
  1
\U+2205120
 73
     1
 44
1.0
1001
ACAD
1000
MTEXTBEGIN
1070
    73
1070
     1
1070
    44
1040
1.0
1070
    74
1070
     0
1000
MTEXTEND
  0
POINT
  5
738B
330
7247
100
AcDbEntity
  8
Defpoints
 62
     0
370
     0
100
AcDbPoint
 10
1128.279061273701
 20
309.4289450714524
 30
0.0
  0
POINT
  5
738C
330
7247
100
AcDbEntity
  8
Defpoints
 62
     0
370
     0
100
AcDbPoint
 10
1216.335043126162
 20
390.9528315097177
 30
0.0
  0
ENDBLK
  5
7251
330
7247
100
AcDbEntity
  8
0
370
     0
100
AcDbBlockEnd
  0
ENDSEC
  0
SECTION
  2
ENTITIES
  0
LWPOLYLINE
  5
1C11
330
A
100
AcDbEntity
  8
0
 62
     4
100
AcDbPolyline
 90
        4
 70
     1
 43
0.0
 10
1060.877723064923
 20
240.0202664908585
 10
1613.552846064923
 20
240.0202664908585
 10
1613.552846064923
 20
601.777076116834
 10
1060.877723064923
 20
601.777076116834
1001
GENIUS_GENREC_14
1002
{
1000
PYDIR
1011
1060.877723064923
1021
601.777076116834
1031
0.0
1002
}
1002
{
1000
PXDIR
1011
1613.552846064923
1021
240.0202664908585
1031
0.0
1002
}
1002
{
1000
PORI
1011
1060.877723064923
1021
240.0202664908585
1031
0.0
1002
}
1002
{
1000
PINS
1011
1060.877723064923
1021
240.0202664908585
1031
0.0
1002
}
1002
{
1000
PINS2
1011
1613.552846064923
1021
601.777076116834
1031
0.0
1002
}
1002
{
1000
C
1070
     1
1002
}
1001
GENIUS_GENODEF_13
1002
{
1000
HIER
1070
     0
1002
}
1002
{
1000
MANEDIT
1070
     0
1002
}
1002
{
1000
NOSEL
1070
     0
1002
}
1002
{
1000
BEHIND
1070
     0
1002
}
1002
{
1000
OTHER
1070
     0
1002
}
1002
{
1000
REACTOR
1002
}
1001
GENIUS_GENOBJ-N-REC_13
1002
{
1000
OWNER
1000
GEN
1002
}
  0
LWPOLYLINE
  5
1C12
330
A
100
AcDbEntity
  8
LOGO
 62
     4
100
AcDbPolyline
 90
        4
 70
     1
 43
0.0
 10
1060.877723064923
 20
240.0202664908586
 10
1613.552846064923
 20
240.0202664908585
 10
1613.552846064923
 20
206.2954544287403
 10
1060.877723064923
 20
206.2954544287403
1001
GENIUS_GENREC_14
1002
{
1000
PYDIR
1011
1060.877723064923
1021
206.2954544287403
1031
0.0
1002
}
1002
{
1000
PXDIR
1011
1613.552846064923
1021
240.0202664908585
1031
0.0
1002
}
1002
{
1000
PORI
1011
1060.877723064923
1021
240.0202664908586
1031
0.0
1002
}
1002
{
1000
PINS
1011
1060.877723064923
1021
240.0202664908586
1031
0.0
1002
}
1002
{
1000
PINS2
1011
1613.552846064923
1021
206.2954544287403
1031
0.0
1002
}
1002
{
1000
C
1070
     1
1002
}
1001
GENIUS_GENOBJ-N-REC_13
1002
{
1000
OWNER
1000
GEN
1002
}
1001
GENIUS_GENODEF_13
1002
{
1000
HIER
1070
     0
1002
}
1002
{
1000
MANEDIT
1070
     0
1002
}
1002
{
1000
NOSEL
1070
     0
1002
}
1002
{
1000
BEHIND
1070
     0
1002
}
1002
{
1000
OTHER
1070
     0
1002
}
1002
{
1000
REACTOR
1002
}
  0
LINE
  5
1C13
330
A
100
AcDbEntity
  8
LOGO
 62
     4
100
AcDbLine
 10
1203.942499851293
 20
221.4716198566942
 30
0.0
 11
1203.942499851293
 21
209.1058554339172
 31
0.0
  0
LINE
  5
1C14
330
A
100
AcDbEntity
  8
LOGO
 62
     4
100
AcDbLine
 10
1181.459291809881
 20
221.4716198566942
 30
0.0
 11
1181.459291809881
 21
209.1058554339172
 31
0.0
  0
LINE
  5
1C15
330
A
100
AcDbEntity
  8
LOGO
 62
     4
100
AcDbLine
 10
1203.942499851293
 20
209.1058554339172
 30
0.0
 11
1181.459291809881
 21
209.1058554339172
 31
0.0
  0
LINE
  5
1C16
330
A
100
AcDbEntity
  8
LOGO
 62
     4
100
AcDbLine
 10
1214.410325180425
 20
236.6477852846466
 30
0.0
 11
1181.459291809881
 21
236.6477852846466
 31
0.0
  0
LINE
  5
1C17
330
A
100
AcDbEntity
  8
LOGO
 62
     4
100
AcDbLine
 10
1214.410325180425
 20
226.5303416660115
 30
0.0
 11
1181.459291809881
 21
226.5303416660115
 31
0.0
  0
LINE
  5
1C18
330
A
100
AcDbEntity
  8
LOGO
 62
     4
100
AcDbLine
 10
1181.459291809881
 20
236.6477852846466
 30
0.0
 11
1181.459291809881
 21
226.5303416660115
 31
0.0
  0
LINE
  5
1C19
330
A
100
AcDbEntity
  8
LOGO
 62
     4
100
AcDbLine
 10
1214.410325180425
 20
236.6477852846466
 30
0.0
 11
1214.410325180425
 21
226.5303416660115
 31
0.0
  0
LINE
  5
1C1A
330
A
100
AcDbEntity
  8
LOGO
 62
     4
100
AcDbLine
 10
1193.873954581904
 20
226.5303416660115
 30
0.0
 11
1193.873954581904
 21
221.4716198566942
 31
0.0
  0
TEXT
  5
1C1B
330
A
100
AcDbEntity
  8
LOGO
  6
Continuous
100
AcDbText
 10
1183.144672303575
 20
229.4233173398623
 30
0.0
 40
5.13084
  1
MCHG2L
  7
CHINESET
100
AcDbText
  0
LINE
  5
1C1C
330
A
100
AcDbEntity
  8
LOGO
 62
     4
100
AcDbLine
 10
1203.942499851293
 20
221.4716198566942
 30
0.0
 11
1181.459291809881
 21
221.4716198566942
 31
0.0
  0
TEXT
  5
1C1D
330
A
100
AcDbEntity
  8
LOGO
  6
Continuous
100
AcDbText
 10
1188.674082089617
 20
210.8512568599795
 30
221.0268624168925
 40
2.529727199999999
  1
Model
 41
0.8
  7
CHINESET
100
AcDbText
  0
TEXT
  5
1C1E
330
A
100
AcDbEntity
  8
LOGO
100
AcDbText
 10
1188.00075094535
 20
215.5408258936562
 30
221.0268624168925
 40
4.216212
  1
型號
  7
CHINESET
100
AcDbText
  0
LINE
  5
1C1F
330
A
100
AcDbEntity
  8
LOGO
  6
Continuous
100
AcDbLine
 10
1215.843851462886
 20
231.5532258910979
 30
0.0
 11
1220.311345395761
 21
231.5532258910979
 31
0.0
  0
LINE
  5
1C20
330
A
100
AcDbEntity
  8
LOGO
 62
     4
100
AcDbLine
 10
1229.368033113933
 20
221.4716198566942
 30
0.0
 11
1229.368033113933
 21
209.1058554339172
 31
0.0
  0
LINE
  5
1C21
330
A
100
AcDbEntity
  8
LOGO
 62
     4
100
AcDbLine
 10
1206.884825072521
 20
221.4716198566942
 30
0.0
 11
1206.884825072521
 21
209.1058554339172
 31
0.0
  0
LINE
  5
1C22
330
A
100
AcDbEntity
  8
LOGO
 62
     4
100
AcDbLine
 10
1229.368033113933
 20
209.1058554339172
 30
0.0
 11
1206.884825072521
 21
209.1058554339172
 31
0.0
  0
LINE
  5
1C23
330
A
100
AcDbEntity
  8
LOGO
 62
     4
100
AcDbLine
 10
1239.008750785508
 20
236.6477852846466
 30
0.0
 11
1221.720604235925
 21
236.6477852846466
 31
0.0
  0
LINE
  5
1C24
330
A
100
AcDbEntity
  8
LOGO
 62
     4
100
AcDbLine
 10
1239.008750785508
 20
226.5303416660115
 30
0.0
 11
1221.720604235925
 21
226.5303416660115
 31
0.0
  0
LINE
  5
1C25
330
A
100
AcDbEntity
  8
LOGO
 62
     4
100
AcDbLine
 10
1221.720604235925
 20
236.6477852846466
 30
0.0
 11
1221.720604235925
 21
226.5303416660115
 31
0.0
  0
LINE
  5
1C26
330
A
100
AcDbEntity
  8
LOGO
 62
     4
100
AcDbLine
 10
1239.008750785508
 20
236.6477852846466
 30
0.0
 11
1239.008750785508
 21
226.5303416660115
 31
0.0
  0
LINE
  5
1C27
330
A
100
AcDbEntity
  8
LOGO
 62
     4
100
AcDbLine
 10
1229.494023441776
 20
226.5303416660115
 30
0.0
 11
1229.494023441776
 21
224.0009807613529
 31
0.0
  0
TEXT
  5
1C28
330
A
100
AcDbEntity
  8
LOGO
  6
Continuous
100
AcDbText
 10
1225.544888722191
 20
228.9505286390105
 30
0.0
 40
5.13084
  1
50
  7
CHINESET
100
AcDbText
  0
LINE
  5
1C29
330
A
100
AcDbEntity
  8
LOGO
 62
     4
100
AcDbLine
 10
1229.368033113933
 20
221.4716198566942
 30
0.0
 11
1206.884825072521
 21
221.4716198566942
 31
0.0
  0
LINE
  5
1C2A
330
A
100
AcDbEntity
  8
LOGO
  6
Continuous
100
AcDbLine
 10
1258.376531977359
 20
231.5532258910979
 30
0.0
 11
1262.844025910235
 21
231.5532258910979
 31
0.0
  0
LINE
  5
1C2B
330
A
100
AcDbEntity
  8
LOGO
 62
     4
100
AcDbLine
 10
1281.858137774163
 20
221.4716198566942
 30
0.0
 11
1281.858137774163
 21
209.1058554339172
 31
0.0
  0
LINE
  5
1C2C
330
A
100
AcDbEntity
  8
LOGO
 62
     4
100
AcDbLine
 10
1255.976004502244
 20
221.4716198566942
 30
0.0
 11
1255.976004502244
 21
209.1058554339172
 31
0.0
  0
LINE
  5
1C2D
330
A
100
AcDbEntity
  8
LOGO
 62
     4
100
AcDbLine
 10
1281.858137774163
 20
209.1058554339172
 30
0.0
 11
1255.976004502244
 21
209.1058554339172
 31
0.0
  0
LINE
  5
1C2E
330
A
100
AcDbEntity
  8
LOGO
 62
     4
100
AcDbLine
 10
1275.017963801221
 20
236.6477852846466
 30
0.0
 11
1264.253284750398
 21
236.6477852846466
 31
0.0
  0
LINE
  5
1C2F
330
A
100
AcDbEntity
  8
LOGO
 62
     4
100
AcDbLine
 10
1275.017963801221
 20
226.5303416660115
 30
0.0
 11
1264.253284750398
 21
226.5303416660115
 31
0.0
  0
LINE
  5
1C30
330
A
100
AcDbEntity
  8
LOGO
 62
     4
100
AcDbLine
 10
1264.253284750398
 20
236.6477852846466
 30
0.0
 11
1264.253284750398
 21
226.5303416660115
 31
0.0
  0
LINE
  5
1C31
330
A
100
AcDbEntity
  8
LOGO
 62
     4
100
AcDbLine
 10
1275.017963801221
 20
236.6477852846466
 30
0.0
 11
1275.017963801221
 21
226.5303416660115
 31
0.0
  0
LINE
  5
1C32
330
A
100
AcDbEntity
  8
LOGO
 62
     4
100
AcDbLine
 10
1269.635624275809
 20
226.5303416660115
 30
0.0
 11
1269.635624275809
 21
221.4716198566942
 31
0.0
  0
LINE
  5
1C33
330
A
100
AcDbEntity
  8
LOGO
 62
     4
100
AcDbLine
 10
1281.858137774163
 20
221.4716198566942
 30
0.0
 11
1255.976004502244
 21
221.4716198566942
 31
0.0
  0
TEXT
  5
1C34
330
A
100
AcDbEntity
  8
LOGO
  6
Continuous
100
AcDbText
 10
1211.594138244047
 20
210.8512568599795
 30
221.0268624168925
 40
2.529727199999999
  1
Tube I.D.
 41
0.8
  7
CHINESET
100
AcDbText
  0
TEXT
  5
1C35
330
A
100
AcDbEntity
  8
LOGO
100
AcDbText
 10
1212.614151506326
 20
215.5408258936562
 30
221.0268624168925
 40
4.216212
  1
內徑
  7
CHINESET
100
AcDbText
  0
TEXT
  5
1C36
330
A
100
AcDbEntity
  8
LOGO
  6
Continuous
100
AcDbText
 10
1258.327103795886
 20
210.8512568599795
 30
221.0268624168925
 40
2.529727199999999
  1
Sensor switch
 41
0.8
  7
CHINESET
100
AcDbText
  0
TEXT
  5
1C37
330
A
100
AcDbEntity
  8
LOGO
100
AcDbText
 10
1258.15170082775
 20
215.5408258936562
 30
221.0268624168925
 40
4.216212
  1
感應器型式
  7
CHINESET
100
AcDbText
  0
LINE
  5
1C38
330
A
100
AcDbEntity
  8
LOGO
 62
     4
100
AcDbLine
 10
1256.431951976349
 20
236.6477852846466
 30
0.0
 11
1240.436803586962
 21
236.6477852846466
 31
0.0
  0
LINE
  5
1C39
330
A
100
AcDbEntity
  8
LOGO
 62
     4
100
AcDbLine
 10
1256.431951976349
 20
226.5303416660115
 30
0.0
 11
1240.436803586962
 21
226.5303416660115
 31
0.0
  0
LINE
  5
1C3A
330
A
100
AcDbEntity
  8
LOGO
 62
     4
100
AcDbLine
 10
1240.436803586962
 20
236.6477852846466
 30
0.0
 11
1240.436803586962
 21
226.5303416660115
 31
0.0
  0
LINE
  5
1C3B
330
A
100
AcDbEntity
  8
LOGO
 62
     4
100
AcDbLine
 10
1256.431951976349
 20
236.6477852846466
 30
0.0
 11
1256.431951976349
 21
226.5303416660115
 31
0.0
  0
TEXT
  5
1C3C
330
A
100
AcDbEntity
  8
LOGO
  6
Continuous
100
AcDbText
 10
1242.491839575449
 20
229.1361638185181
 30
0.0
 40
5.13084
  1
(M)
  7
CHINESET
100
AcDbText
  0
LINE
  5
1C3D
330
A
100
AcDbEntity
  8
LOGO
 62
     4
100
AcDbLine
 10
1252.280335056773
 20
221.4716198566942
 30
0.0
 11
1252.280335056773
 21
209.1058554339172
 31
0.0
  0
LINE
  5
1C3E
330
A
100
AcDbEntity
  8
LOGO
 62
     4
100
AcDbLine
 10
1233.964177808909
 20
221.4716198566942
 30
0.0
 11
1233.964177808909
 21
209.1058554339172
 31
0.0
  0
LINE
  5
1C3F
330
A
100
AcDbEntity
  8
LOGO
 62
     4
100
AcDbLine
 10
1252.280335056773
 20
209.1058554339172
 30
0.0
 11
1233.964177808909
 21
209.1058554339172
 31
0.0
  0
LINE
  5
1C40
330
A
100
AcDbEntity
  8
LOGO
 62
     4
100
AcDbLine
 10
1252.280335056773
 20
221.4716198566942
 30
0.0
 11
1233.964177808909
 21
221.4716198566942
 31
0.0
  0
TEXT
  5
1C41
330
A
100
AcDbEntity
  8
LOGO
  6
Continuous
100
AcDbText
 10
1237.945639013819
 20
210.8512568599795
 30
221.0268624168925
 40
2.529727199999999
  1
Magnet
 41
0.8
  7
CHINESET
100
AcDbText
  0
TEXT
  5
1C42
330
A
100
AcDbEntity
  8
LOGO
100
AcDbText
 10
1236.596574265232
 20
215.5408258936562
 30
221.0268624168925
 40
4.216212
  1
附磁石
  7
CHINESET
100
AcDbText
  0
LINE
  5
1C43
330
A
100
AcDbEntity
  8
LOGO
 62
     4
100
AcDbLine
 10
1248.434377781656
 20
226.5303416660115
 30
0.0
 11
1248.434377781656
 21
224.0009807613529
 31
0.0
  0
LINE
  5
1C44
330
A
100
AcDbEntity
  8
LOGO
 62
     4
100
AcDbLine
 10
1229.494023441776
 20
224.0009807613529
 30
0.0
 11
1218.126429093227
 21
224.0009807613529
 31
0.0
  0
LINE
  5
1C45
330
A
100
AcDbEntity
  8
LOGO
 62
     4
100
AcDbLine
 10
1218.126429093227
 20
221.4716198566942
 30
0.0
 11
1218.126429093227
 21
224.0009807613529
 31
0.0
  0
LINE
  5
1C46
330
A
100
AcDbEntity
  8
LOGO
 62
     4
100
AcDbLine
 10
1248.434377781656
 20
224.0009807613529
 30
0.0
 11
1243.122256432841
 21
224.0009807613529
 31
0.0
  0
LINE
  5
1C47
330
A
100
AcDbEntity
  8
LOGO
 62
     4
100
AcDbLine
 10
1243.122256432841
 20
221.4716198566942
 30
0.0
 11
1243.122256432841
 21
224.0009807613529
 31
0.0
  0
TEXT
  5
1C48
330
A
100
AcDbEntity
  8
LOGO
 62
     7
100
AcDbText
 10
1137.026115632112
 20
225.2460002031597
 30
0.0
 40
4.496641608282352
  1
Order example:
 41
0.8
  7
CHINESET
100
AcDbText
  0
TEXT
  5
1C49
330
A
100
AcDbEntity
  8
LOGO
 62
     7
100
AcDbText
 10
1137.832850322351
 20
231.5763405460963
 30
0.0
 40
6.744962412423528
  1
訂購代號:
  7
CHINESET
100
AcDbText
  0
LINE
  5
1C4A
330
A
100
AcDbEntity
  8
LOGO
 62
     4
100
AcDbLine
 10
1135.072309601582
 20
206.2954544287407
 30
0.0
 11
1135.072309601582
 21
240.0202664908586
 31
0.0
  0
TEXT
  5
1C4B
330
A
100
AcDbEntity
  8
LOGO
  6
Continuous
100
AcDbText
 10
1072.991827153599
 20
212.9206428631648
 30
0.0
 40
5.058721809317647
  1
金器工業股份有限公司
  7
CHINESET
100
AcDbText
  0
TEXT
  5
1C4C
330
A
100
AcDbEntity
  8
LOGO
  6
Continuous
100
AcDbText
 10
1063.699956008637
 20
207.8609299409917
 30
0.0
 40
3.372481206211764
  1
MINDMAN INDUSTRIAL CO., LTD.
 41
0.85
  7
CHINESET
100
AcDbText
  0
LINE
  5
1C4D
330
A
100
AcDbEntity
  8
LOGO
100
AcDbLine
 10
1135.072309601582
 20
233.275304078435
 30
0.0
 11
1085.609251910476
 21
233.275304078435
 31
0.0
  0
LINE
  5
1C4E
330
A
100
AcDbEntity
  8
LOGO
100
AcDbLine
 10
1135.072309601582
 20
226.5303416660116
 30
0.0
 11
1085.609251910476
 21
226.5303416660116
 31
0.0
  0
LINE
  5
1C4F
330
A
100
AcDbEntity
  8
LOGO
 62
     4
100
AcDbLine
 10
1135.072309601582
 20
219.7853792535883
 30
0.0
 11
1060.877723064923
 21
219.7853792535883
 31
0.0
  0
LINE
  5
1C50
330
A
100
AcDbEntity
  8
LOGO
 62
     4
100
AcDbLine
 10
1085.609251910476
 20
219.7853792535883
 30
0.0
 11
1085.609251910476
 21
240.0202664908586
 31
0.0
  0
TEXT
  5
1C51
330
A
100
AcDbEntity
  8
LOGO
100
AcDbText
 10
1119.414917221584
 20
221.4716198566937
 30
0.0
 40
3.372481206211764
  1
mm
  7
CHINESET
 72
     1
 11
1123.590370143561
 21
223.1578604597995
 31
0.0
100
AcDbText
 73
     2
  0
TEXT
  5
1C52
330
A
100
AcDbEntity
  8
LOGO
100
AcDbText
 10
1117.648379446902
 20
234.9615446815408
 30
0.0
 40
3.372481206211764
  1
1 : 1
  7
CHINESET
 72
     1
 11
1123.590370143561
 21
236.6477852846467
 31
0.0
100
AcDbText
 73
     2
  0
LINE
  5
1C53
330
A
100
AcDbEntity
  8
LOGO
 62
     4
100
AcDbLine
 10
1112.58910156017
 20
219.7853792535883
 30
0.0
 11
1112.58910156017
 21
240.0202664908586
 31
0.0
  0
CIRCLE
  5
1C54
330
A
100
AcDbEntity
  8
LOGO
  6
Continuous
100
AcDbCircle
 10
1118.833672336752
 20
229.9100366342027
 30
0.0
 40
1.958141967586004
  0
CIRCLE
  5
1C55
330
A
100
AcDbEntity
  8
LOGO
  6
Continuous
100
AcDbCircle
 10
1118.833672336752
 20
229.9100366342027
 30
0.0
 40
1.147297848504605
  0
LINE
  5
1C56
330
A
100
AcDbEntity
  8
LOGO
100
AcDbLine
 10
1131.138863674248
 20
227.9518946666164
 30
0.0
 11
1131.138863674248
 21
231.868178601789
 31
0.0
  0
LINE
  5
1C57
330
A
100
AcDbEntity
  8
LOGO
100
AcDbLine
 10
1125.000201008578
 20
228.7627387856982
 30
0.0
 11
1125.000201008578
 21
231.0573344827075
 31
0.0
  0
LINE
  5
1C58
330
A
100
AcDbEntity
  8
LOGO
  6
Continuous
100
AcDbLine
 10
1125.000201008578
 20
231.0573344827075
 30
0.0
 11
1131.138863674248
 21
231.868178601789
 31
0.0
  0
LINE
  5
1C59
330
A
100
AcDbEntity
  8
LOGO
  6
Continuous
100
AcDbLine
 10
1125.000201008578
 20
228.7627387856982
 30
0.0
 11
1131.138863674248
 21
227.9518946666164
 31
0.0
  0
TEXT
  5
1C5A
330
A
100
AcDbEntity
  8
LOGO
100
AcDbText
 10
1088.390043333633
 20
234.9632043671738
 30
221.0268624168925
 40
3.372481206211764
  1
比例 Scale:
 41
0.9
  7
CHINESET
 72
     4
 11
1099.099176735323
 21
236.6477852846467
 31
221.0268624168925
100
AcDbText
  0
TEXT
  5
1C5B
330
A
100
AcDbEntity
  8
LOGO
100
AcDbText
 10
1088.195824549883
 20
228.2640216167931
 30
221.0268624168925
 40
3.372481206211764
  1
投影  View:
 41
0.9
  7
CHINESET
 72
     4
 11
1099.099176735323
 21
229.9028228722231
 31
221.0268624168925
100
AcDbText
  0
TEXT
  5
1C5C
330
A
100
AcDbEntity
  8
LOGO
100
AcDbText
 10
1088.525544810669
 20
221.4716198566937
 30
221.0268624168925
 40
3.372481206211764
  1
單位  Unit:
 41
0.9
  7
CHINESET
 72
     4
 11
1099.099176735323
 21
223.1578604597995
 31
221.0268624168925
100
AcDbText
  0
SOLID
  5
1C5D
330
A
100
AcDbEntity
  8
LOGO
 62
     5
100
AcDbTrace
 10
1064.376726440574
 20
225.3916492240159
 30
0.0
 11
1065.834898820233
 21
225.3916492240156
 31
0.0
 12
1071.918997369845
 22
239.2191459276803
 32
0.0
 13
1073.377169749505
 23
239.2191459276795
 33
0.0
  0
SOLID
  5
1C5E
330
A
100
AcDbEntity
  8
LOGO
 62
     5
100
AcDbTrace
 10
1066.438280494576
 20
225.3916492240159
 30
0.0
 11
1067.896452874236
 21
225.3916492240159
 31
0.0
 12
1073.377169749505
 22
238.1129461913867
 32
0.0
 13
1071.918997369845
 23
232.7663141326364
 33
0.0
  0
SOLID
  5
1C5F
330
A
100
AcDbEntity
  8
LOGO
 62
     2
100
AcDbTrace
 10
1065.834898820233
 20
225.3916492240156
 30
0.0
 11
1066.438280494576
 21
225.3916492240159
 31
0.0
 12
1073.377169749505
 22
239.2191459276795
 32
0.0
 13
1073.980551423848
 23
239.2191459276795
 33
0.0
  0
SOLID
  5
1C60
330
A
100
AcDbEntity
  8
LOGO
 62
     5
100
AcDbTrace
 10
1062.038918528311
 20
220.3634686045023
 30
0.0
 11
1062.541736590263
 21
220.3634686045023
 31
0.0
 12
1063.957711388948
 22
222.8775589142589
 32
0.0
 13
1064.460529450899
 23
222.8775589142589
 33
0.0
  0
SOLID
  5
1C61
330
A
100
AcDbEntity
  8
LOGO
 62
     5
100
AcDbTrace
 10
1063.957711388948
 20
222.8775589142589
 30
0.0
 11
1064.460529450899
 21
222.8775589142589
 31
0.0
 12
1063.957711388948
 22
220.3634686045023
 32
0.0
 13
1064.460529450899
 23
220.3634686045023
 33
0.0
  0
SOLID
  5
1C62
330
A
100
AcDbEntity
  8
LOGO
 62
     5
100
AcDbTrace
 10
1063.957711388948
 20
220.3634686045023
 30
0.0
 11
1064.460529450899
 21
220.3634686045023
 31
0.0
 12
1065.876504249586
 22
222.8775589142589
 32
0.0
 13
1066.379322311538
 23
222.8775589142589
 33
0.0
  0
SOLID
  5
1C63
330
A
100
AcDbEntity
  8
LOGO
 62
     5
100
AcDbTrace
 10
1065.876504249586
 20
222.8775589142589
 30
0.0
 11
1066.379322311538
 21
222.8775589142589
 31
0.0
 12
1065.876504249586
 22
220.3634686045023
 32
0.0
 13
1066.379322311538
 23
220.3634686045023
 33
0.0
  0
POLYLINE
  5
1C64
330
A
100
AcDbEntity
  8
LOGO
 62
     5
100
AcDb2dPolyline
 66
     1
 10
0.0
 20
0.0
 30
0.0
 40
0.5036238601276235
 41
0.5036238601276235
  0
VERTEX
  5
1C65
330
1C64
100
AcDbEntity
  8
LOGO
 62
     5
100
AcDbVertex
100
AcDb2dVertex
 10
1082.730794399067
 20
221.8719227903561
 30
0.0
 42
1.0
  0
VERTEX
  5
1C66
330
1C64
100
AcDbEntity
  8
LOGO
 62
     5
100
AcDbVertex
100
AcDb2dVertex
 10
1081.219922818683
 20
221.8719227903561
 30
0.0
 42
1.0
  0
SEQEND
  5
1C67
330
1C64
100
AcDbEntity
  8
LOGO
 62
     5
  0
POLYLINE
  5
1C68
330
A
100
AcDbEntity
  8
LOGO
 62
     5
100
AcDb2dPolyline
 66
     1
 10
0.0
 20
0.0
 30
0.0
 70
     1
  0
VERTEX
  5
1C69
330
1C68
100
AcDbEntity
  8
LOGO
 62
     5
100
AcDbVertex
100
AcDb2dVertex
 10
1078.371862686092
 20
221.6205137593802
 30
0.0
 42
1.000000057330635
  0
VERTEX
  5
1C6A
330
1C68
100
AcDbEntity
  8
LOGO
 62
     5
100
AcDbVertex
100
AcDb2dVertex
 10
1079.880316871947
 20
221.6205137593802
 30
0.0
 42
1.000000057330635
  0
SEQEND
  5
1C6B
330
1C68
100
AcDbEntity
  8
LOGO
 62
     5
  0
CIRCLE
  5
1C6C
330
A
100
AcDbEntity
  8
LOGO
 62
     5
100
AcDbCircle
 10
1079.126089779021
 20
221.6205137593802
 30
0.0
 40
0.754227092927129
  0
POLYLINE
  5
1C6D
330
A
100
AcDbEntity
  8
LOGO
 62
     5
100
AcDb2dPolyline
 66
     1
 10
0.0
 20
0.0
 30
0.0
 70
     1
 40
0.5036238601276235
 41
0.5036238601276235
  0
VERTEX
  5
1C6E
330
1C6D
100
AcDbEntity
  8
LOGO
 62
     5
100
AcDbVertex
100
AcDb2dVertex
 10
1078.118842058765
 20
221.6205137593802
 30
0.0
 42
1.0
  0
VERTEX
  5
1C6F
330
1C6D
100
AcDbEntity
  8
LOGO
 62
     5
100
AcDbVertex
100
AcDb2dVertex
 10
1080.133337499275
 20
221.6205137593802
 30
0.0
 42
1.0
  0
SEQEND
  5
1C70
330
1C6D
100
AcDbEntity
  8
LOGO
 62
     5
  0
LINE
  5
1C71
330
A
100
AcDbEntity
  8
LOGO
100
AcDbLine
 10
1082.980994732777
 20
220.3634686045023
 30
0.0
 11
1082.980994732777
 21
221.8719227903561
 31
0.0
  0
SOLID
  5
1C72
330
A
100
AcDbEntity
  8
LOGO
 62
     5
100
AcDbTrace
 10
1079.880266590143
 20
222.8775589142589
 30
0.0
 11
1080.383084652093
 21
222.8775589142589
 31
0.0
 12
1079.880266590143
 22
220.3634686045023
 32
0.0
 13
1080.383084652093
 23
220.3634686045023
 33
0.0
  0
SOLID
  5
1C73
330
A
100
AcDbEntity
  8
LOGO
 62
     5
100
AcDbTrace
 10
1080.969722484971
 20
220.3634686045023
 30
0.0
 11
1081.472540546923
 21
220.3634686045023
 31
0.0
 12
1080.969722484971
 22
222.8775589142589
 32
0.0
 13
1081.472540546923
 23
222.8775589142589
 33
0.0
  0
SOLID
  5
1C74
330
A
100
AcDbEntity
  8
LOGO
 62
     5
100
AcDbTrace
 10
1082.478176670826
 20
221.8719227903561
 30
0.0
 11
1082.980994732777
 21
221.8719227903561
 31
0.0
 12
1082.478176670826
 22
220.3634686045023
 32
0.0
 13
1082.980994732777
 23
220.3634686045023
 33
0.0
  0
SOLID
  5
1C75
330
A
100
AcDbEntity
  8
LOGO
 62
     5
100
AcDbTrace
 10
1080.919440678776
 20
238.1129461913867
 30
0.0
 11
1079.461268299117
 21
232.7663141326364
 31
0.0
 12
1080.919440678776
 22
225.3916492240156
 32
0.0
 13
1079.461268299117
 23
225.3916492240156
 33
0.0
  0
SOLID
  5
1C76
330
A
100
AcDbEntity
  8
LOGO
 62
     5
100
AcDbTrace
 10
1081.522822353118
 20
225.3916492240156
 30
0.0
 11
1082.980994732777
 21
225.3916492240156
 31
0.0
 12
1081.522822353118
 22
239.2191459276795
 32
0.0
 13
1082.980994732777
 23
239.2191459276803
 33
0.0
  0
SOLID
  5
1C77
330
A
100
AcDbEntity
  8
LOGO
 62
     2
100
AcDbTrace
 10
1080.919440678776
 20
239.2191459276803
 30
0.0
 11
1081.522822353118
 21
239.2191459276795
 31
0.0
 12
1080.919440678776
 22
225.3916492240156
 32
0.0
 13
1081.522822353118
 23
225.3916492240156
 33
0.0
  0
POLYLINE
  5
1C78
330
A
100
AcDbEntity
  8
LOGO
 62
     5
100
AcDb2dPolyline
 66
     1
 10
0.0
 20
0.0
 30
0.0
 40
0.5036238601276235
 41
0.5036238601276235
  0
VERTEX
  5
1C79
330
1C78
100
AcDbEntity
  8
LOGO
 62
     5
100
AcDbVertex
100
AcDb2dVertex
 10
1075.523701989892
 20
221.8719227903561
 30
0.0
 42
1.0
  0
VERTEX
  5
1C7A
330
1C78
100
AcDbEntity
  8
LOGO
 62
     5
100
AcDbVertex
100
AcDb2dVertex
 10
1074.012830409509
 20
221.8719227903561
 30
0.0
 42
1.0
  0
SEQEND
  5
1C7B
330
1C78
100
AcDbEntity
  8
LOGO
 62
     5
  0
POLYLINE
  5
1C7C
330
A
100
AcDbEntity
  8
LOGO
 62
     5
100
AcDb2dPolyline
 66
     1
 10
0.0
 20
0.0
 30
0.0
 40
0.5036238601276235
 41
0.5036238601276235
  0
VERTEX
  5
1C7D
330
1C7C
100
AcDbEntity
  8
LOGO
 62
     5
100
AcDbVertex
100
AcDb2dVertex
 10
1077.032156175745
 20
221.8719227903561
 30
0.0
 42
1.0
  0
VERTEX
  5
1C7E
330
1C7C
100
AcDbEntity
  8
LOGO
 62
     5
100
AcDbVertex
100
AcDb2dVertex
 10
1075.521284595362
 20
221.8719227903561
 30
0.0
 42
1.0
  0
SEQEND
  5
1C7F
330
1C7C
100
AcDbEntity
  8
LOGO
 62
     5
  0
POLYLINE
  5
1C80
330
A
100
AcDbEntity
  8
LOGO
 62
     5
100
AcDb2dPolyline
 66
     1
 10
0.0
 20
0.0
 30
0.0
 40
0.5036238601276235
 41
0.5036238601276235
  0
VERTEX
  5
1C81
330
1C80
100
AcDbEntity
  8
LOGO
 62
     5
100
AcDbVertex
100
AcDb2dVertex
 10
1069.82506376657
 20
221.8719227903561
 30
0.0
 42
1.0
  0
VERTEX
  5
1C82
330
1C80
100
AcDbEntity
  8
LOGO
 62
     5
100
AcDbVertex
100
AcDb2dVertex
 10
1068.314192186188
 20
221.8719227903561
 30
0.0
 42
1.0
  0
SEQEND
  5
1C83
330
1C80
100
AcDbEntity
  8
LOGO
 62
     5
  0
SOLID
  5
1C84
330
A
100
AcDbEntity
  8
LOGO
 62
     5
100
AcDbTrace
 10
1068.063991852477
 20
222.8775589142589
 30
0.0
 11
1068.566809914427
 21
222.8775589142589
 31
0.0
 12
1068.063991852477
 22
220.3634686045023
 32
0.0
 13
1068.566809914427
 23
220.3634686045023
 33
0.0
  0
SOLID
  5
1C85
330
A
100
AcDbEntity
  8
LOGO
 62
     5
100
AcDbTrace
 10
1069.572446038331
 20
221.8719227903561
 30
0.0
 11
1070.075264100283
 21
221.8719227903561
 31
0.0
 12
1069.572446038331
 22
220.3634686045023
 32
0.0
 13
1070.075264100283
 23
220.3634686045023
 33
0.0
  0
POLYLINE
  5
1C86
330
A
100
AcDbEntity
  8
LOGO
 62
     5
100
AcDb2dPolyline
 66
     1
 10
0.0
 20
0.0
 30
0.0
 70
     1
 40
0.5036238601276235
 41
0.5036238601276235
  0
VERTEX
  5
1C87
330
1C86
100
AcDbEntity
  8
LOGO
 62
     5
100
AcDbVertex
100
AcDb2dVertex
 10
1070.91174964959
 20
221.6205137593802
 30
0.0
 42
1.0
  0
VERTEX
  5
1C88
330
1C86
100
AcDbEntity
  8
LOGO
 62
     5
100
AcDbVertex
100
AcDb2dVertex
 10
1072.926245090101
 20
221.6205137593802
 30
0.0
 42
1.0
  0
SEQEND
  5
1C89
330
1C86
100
AcDbEntity
  8
LOGO
 62
     5
  0
SOLID
  5
1C8A
330
A
100
AcDbEntity
  8
LOGO
 62
     5
100
AcDbTrace
 10
1072.673174180967
 20
223.6317860071864
 30
0.0
 11
1073.175992242918
 21
223.6317860071864
 31
0.0
 12
1072.673174180967
 22
220.3634686045023
 32
0.0
 13
1073.175992242918
 23
220.3634686045023
 33
0.0
  0
SOLID
  5
1C8B
330
A
100
AcDbEntity
  8
LOGO
 62
     5
100
AcDbTrace
 10
1073.762630075798
 20
222.8775589142589
 30
0.0
 11
1074.265448137749
 21
222.8775589142589
 31
0.0
 12
1073.762630075798
 22
220.3634686045023
 32
0.0
 13
1074.265448137749
 23
220.3634686045023
 33
0.0
  0
SOLID
  5
1C8C
330
A
100
AcDbEntity
  8
LOGO
 62
     5
100
AcDbTrace
 10
1075.271084261651
 20
221.8719227903561
 30
0.0
 11
1075.773902323603
 21
221.8719227903561
 31
0.0
 12
1075.271084261651
 22
220.3634686045023
 32
0.0
 13
1075.773902323603
 23
220.3634686045023
 33
0.0
  0
SOLID
  5
1C8D
330
A
100
AcDbEntity
  8
LOGO
 62
     5
100
AcDbTrace
 10
1076.779538447506
 20
221.8719227903561
 30
0.0
 11
1077.282356509457
 21
221.8719227903561
 31
0.0
 12
1076.779538447506
 22
220.3634686045014
 32
0.0
 13
1077.282356509457
 23
220.3634686045014
 33
0.0
  0
SOLID
  5
1C8E
330
A
100
AcDbEntity
  8
LOGO
 62
     5
100
AcDbTrace
 10
1066.974535957646
 20
223.2295315576249
 30
0.0
 11
1067.477354019599
 21
223.2295315576249
 31
0.0
 12
1066.974535957646
 22
223.6317860071864
 32
0.0
 13
1067.477354019599
 23
223.6317860071864
 33
0.0
  0
SOLID
  5
1C8F
330
A
100
AcDbEntity
  8
LOGO
 62
     5
100
AcDbTrace
 10
1066.974535957646
 20
222.8775589142589
 30
0.0
 11
1067.477354019599
 21
222.8775589142589
 31
0.0
 12
1066.974535957646
 22
220.3634686045014
 32
0.0
 13
1067.477354019599
 23
220.3634686045023
 33
0.0
  0
SOLID
  5
1C90
330
A
100
AcDbEntity
  8
LOGO
 62
     5
100
AcDbTrace
 10
1071.918997369845
 20
225.3916492240159
 30
0.0
 11
1073.377169749505
 21
225.3916492240159
 31
0.0
 12
1071.918997369845
 22
232.7663141326364
 32
0.0
 13
1073.377169749505
 23
238.1129461913867
 33
0.0
  0
SOLID
  5
1C91
330
A
100
AcDbEntity
  8
LOGO
 62
     5
100
AcDbTrace
 10
1073.980551423848
 20
239.2191459276795
 30
0.0
 11
1075.438723803506
 21
239.2191459276803
 31
0.0
 12
1073.980551423848
 22
226.4978489603089
 32
0.0
 13
1075.438723803506
 23
231.8444810190591
 33
0.0
  0
SOLID
  5
1C92
330
A
100
AcDbEntity
  8
LOGO
 62
     2
100
AcDbTrace
 10
1073.377169749505
 20
239.2191459276795
 30
0.0
 11
1073.980551423848
 21
239.2191459276795
 31
0.0
 12
1073.377169749505
 22
225.3916492240159
 32
0.0
 13
1073.980551423848
 23
225.3916492240159
 33
0.0
  0
SOLID
  5
1C93
330
A
100
AcDbEntity
  8
LOGO
 62
     5
100
AcDbTrace
 10
1073.980551423848
 20
226.4978489603089
 30
0.0
 11
1075.438723803506
 21
231.8444810190591
 31
0.0
 12
1080.919440678776
 22
239.2191459276803
 32
0.0
 13
1079.461268299117
 23
239.2191459276803
 33
0.0
  0
SOLID
  5
1C94
330
A
100
AcDbEntity
  8
LOGO
 62
     5
100
AcDbTrace
 10
1073.980551423848
 20
225.3916492240159
 30
0.0
 11
1075.438723803506
 21
225.3916492240159
 31
0.0
 12
1080.919440678776
 22
238.1129461913867
 32
0.0
 13
1079.461268299117
 23
232.7663141326364
 33
0.0
  0
SOLID
  5
1C95
330
A
100
AcDbEntity
  8
LOGO
 62
     2
100
AcDbTrace
 10
1073.377169749505
 20
225.3916492240159
 30
0.0
 11
1073.980551423848
 21
225.3916492240159
 31
0.0
 12
1080.919440678776
 22
239.2191459276803
 32
0.0
 13
1081.522822353118
 23
239.2191459276795
 33
0.0
  0
TEXT
  5
1C96
330
A
100
AcDbEntity
  8
LOGO
100
AcDbText
 10
1136.410033152863
 20
208.0896011194758
 30
0.0
 40
3.3729696
  1
01005060
 41
0.7
  7
CHINESET
 72
     1
 11
1144.842457152863
 21
208.0896011194758
 31
0.0
100
AcDbText
  0
LINE
  5
1C97
330
A
100
AcDbEntity
  8
LOGO
 62
     4
100
AcDbLine
 10
1155.31012720158
 20
213.0404168411651
 30
0.0
 11
1155.310127201582
 21
206.295454428741
 31
0.0
  0
LINE
  5
1C98
330
A
100
AcDbEntity
  8
LOGO
 62
     4
100
AcDbLine
 10
1155.31012720158
 20
213.0404168411651
 30
0.0
 11
1135.072309601582
 21
213.0404168411651
 31
0.0
  0
LINE
  5
1C99
330
A
100
AcDbEntity
  8
LOGO
  6
AM_ISO08W050x2
 48
0.2
100
AcDbLine
 10
1116.134344313568
 20
229.9100366342027
 30
0.0
 11
1121.533000359937
 21
229.9100366342027
 31
0.0
1001
GENIUS_GENOREF_13
1005
1C9E
  0
LINE
  5
1C9A
330
A
100
AcDbEntity
  8
LOGO
  6
AM_ISO08W050x2
 48
0.2
100
AcDbLine
 10
1118.833672336752
 20
227.2107086110181
 30
0.0
 11
1118.833672336752
 21
232.609364657387
 31
0.0
1001
GENIUS_GENOREF_13
1005
1C9D
  0
LINE
  5
1C9B
330
A
100
AcDbEntity
  8
LOGO
  6
AM_ISO08W050x2
 48
0.3
100
AcDbLine
 10
1124.509278618655
 20
229.9100366342027
 30
0.0
 11
1131.757007132805
 21
229.9100366342027
 31
0.0
1001
GENIUS_GENOREF_13
1005
1C9C
  0
POINT
  5
1C9C
330
A
100
AcDbEntity
  8
0
 60
     1
100
AcDbPoint
 10
-1593.379040456162
 20
-905.8533651541795
 30
0.0
1001
GENIUS_GENOBJ-N-CRS_13
1002
{
1000
OWNER
1000
GEN
1002
}
1001
GENIUS_GENOLIS_13
1002
{
1000
ENT
1005
0
1005
0
1005
0
1005
1C9B
1002
}
1001
GENIUS_GENOENT_13
1002
{
1000
MYREF
1005
1C9C
1002
}
1002
{
1000
GRP
1005
0
1002
}
1001
GENIUS_GENODEF_13
1002
{
1000
HIER
1070
    10
1002
}
1002
{
1000
MANEDIT
1070
     1
1002
}
1002
{
1000
NOSEL
1070
     0
1002
}
1002
{
1000
BEHIND
1070
     0
1002
}
1002
{
1000
OTHER
1070
     0
1002
}
1002
{
1000
REACTOR
1002
}
  0
POINT
  5
1C9D
330
A
100
AcDbEntity
  8
0
 60
     1
100
AcDbPoint
 10
-1604.703625679017
 20
-896.9777786755432
 30
0.0
1001
GENIUS_GENOBJ-N-CRS_13
1002
{
1000
OWNER
1000
GEN
1002
}
1001
GENIUS_GENOLIS_13
1002
{
1000
ENT
1005
0
1005
0
1005
0
1005
1C9A
1002
}
1001
GENIUS_GENOENT_13
1002
{
1000
MYREF
1005
1C9D
1002
}
1002
{
1000
GRP
1005
0
1002
}
1001
GENIUS_GENODEF_13
1002
{
1000
HIER
1070
    10
1002
}
1002
{
1000
MANEDIT
1070
     1
1002
}
1002
{
1000
NOSEL
1070
     0
1002
}
1002
{
1000
BEHIND
1070
     0
1002
}
1002
{
1000
OTHER
1070
     0
1002
}
1002
{
1000
REACTOR
1002
}
  0
POINT
  5
1C9E
330
A
100
AcDbEntity
  8
0
 60
     1
100
AcDbPoint
 10
-1598.34495198118
 20
-905.8533651541795
 30
0.0
1001
GENIUS_GENOBJ-N-CRS_13
1002
{
1000
OWNER
1000
GEN
1002
}
1001
GENIUS_GENOLIS_13
1002
{
1000
ENT
1005
0
1005
0
1005
0
1005
1C99
1002
}
1001
GENIUS_GENOENT_13
1002
{
1000
MYREF
1005
1C9E
1002
}
1002
{
1000
GRP
1005
0
1002
}
1001
GENIUS_GENODEF_13
1002
{
1000
HIER
1070
    10
1002
}
1002
{
1000
MANEDIT
1070
     1
1002
}
1002
{
1000
NOSEL
1070
     0
1002
}
1002
{
1000
BEHIND
1070
     0
1002
}
1002
{
1000
OTHER
1070
     0
1002
}
1002
{
1000
REACTOR
1002
}
  0
LEADER
  5
28D6
330
A
100
AcDbEntity
  8
AM_5
100
AcDbLeader
  3
AM_ISO$7
 73
     0
 74
     0
 75
     1
 40
4.676852903476758
 41
55.29862204724413
 76
     3
 10
1373.935095223737
 20
524.8538812813767
 30
0.0
 10
1390.336009713765
 20
559.5392022459766
 30
0.0
 10
1393.336009713765
 20
559.5392022459766
 30
0.0
340
28D7
1001
ACAD
1000
DSTYLE
1002
{
1070
   140
1040
3.5
1070
   174
1070
     1
1002
}
  0
MTEXT
  5
28D7
102
{ACAD_REACTORS
330
28D6
102
}
330
A
100
AcDbEntity
  8
AM_5
100
AcDbMText
 10
1394.336009713765
 20
560.5392022459766
 30
0.0
 40
3.5
 41
0.0
 71
     7
 72
     1
  1
M5*0.8(Finger Openingport)
 73
     1
 44
1.0
1001
ACAD
1000
MTEXTBEGIN
1070
    73
1070
     1
1070
    44
1040
1.0
1070
    74
1070
     0
1000
MTEXTEND
  0
LEADER
  5
333B
330
A
100
AcDbEntity
  8
AM_5
100
AcDbLeader
  3
AM_ISO$7
 73
     0
 74
     0
 75
     1
 40
4.676852903476758
 41
55.29862204724413
 76
     3
 10
1342.404655505011
 20
487.8308006436344
 30
0.0
 10
1367.07390620573
 20
447.1140236326314
 30
0.0
 10
1370.07390620573
 20
447.1140236326314
 30
0.0
340
333C
1001
ACAD
1000
DSTYLE
1002
{
1070
   140
1040
3.5
1070
   174
1070
     1
1002
}
  0
MTEXT
  5
333C
102
{ACAD_REACTORS
330
333B
102
}
330
A
100
AcDbEntity
  8
AM_5
100
AcDbMText
 10
1371.07390620573
 20
448.1140236326313
 30
0.0
 40
3.5
 41
0.0
 71
     7
 72
     1
  1
M5*0.8(Finger Openingport)
 73
     1
 44
1.0
1001
ACAD
1000
MTEXTBEGIN
1070
    73
1070
     1
1070
    44
1040
1.0
1070
    74
1070
     0
1000
MTEXTEND
  0
LEADER
  5
3FEB
330
A
100
AcDbEntity
  8
AM_5
100
AcDbLeader
  3
AM_ISO$7
 73
     0
 74
     0
 75
     1
 40
14.76455176687155
 41
95.50000000000006
 76
     3
 10
1228.872799659559
 20
384.8388034228565
 30
0.0
 10
1251.470901855045
 20
421.5955363504524
 30
0.0
 10
1254.470901855045
 20
421.5955363504524
 30
0.0
340
3FEC
213
1.512345450629709
223
9.377176379185129
233
0.0
1001
ACAD
1000
DSTYLE
1002
{
1070
   140
1040
3.5
1070
   272
1070
     8
1002
}
  0
MTEXT
  5
3FEC
102
{ACAD_REACTORS
330
3FEB
102
}
330
A
100
AcDbEntity
  8
AM_5
100
AcDbMText
 10
1253.958556404415
 20
413.2183599712673
 30
0.0
 40
5.0
 41
0.0
 71
     7
 72
     1
  1
6-M5*0.8*10depth\PThread for mounting attachment
 73
     1
 44
1.0
1001
ACAD
1000
MTEXTBEGIN
1070
    73
1070
     1
1070
    44
1040
1.0
1070
    74
1070
     0
1000
MTEXTEND
  0
MTEXT
  5
4412
330
A
100
AcDbEntity
  8
AM_5
100
AcDbMText
 10
1570.288261591533
 20
395.2169878590114
 30
0.0
 40
3.5
 41
38.43995361238103
 71
     1
 72
     5
  1
P.C.D%%C76
 73
     1
 44
1.0
1001
ACAD
1000
MTEXTBEGIN
1070
    73
1070
     1
1070
    44
1040
1.0
1070
    74
1070
     0
1000
MTEXTEND
  0
LINE
  5
4F0C
330
A
100
AcDbEntity
  8
CENTER
100
AcDbLine
 10
1486.355994325101
 20
389.9177081885708
 30
0.0
 11
1502.811381916798
 21
350.190888290585
 31
0.0
  0
LINE
  5
4F0D
330
A
100
AcDbEntity
  8
CENTER
100
AcDbLine
 10
1502.811381916798
 20
350.190888290585
 30
0.0
 11
1517.518248079802
 21
390.5976709843791
 31
0.0
  0
LINE
  5
4F0E
330
A
100
AcDbEntity
  8
CENTER
100
AcDbLine
 10
1502.811381916798
 20
350.190888290585
 30
0.0
 11
1488.104515753794
 21
390.5976709843788
 31
0.0
  0
DIMENSION
  5
4F0F
330
A
100
AcDbEntity
  8
AM_5
100
AcDbDimension
  2
*D2
 10
1502.811381916799
 20
401.7859629328238
 30
0.0
 11
1512.89171845011
 21
407.359317607583
 31
0.0
 70
    34
 71
     5
 42
0.3490658503988548
  3
AM_ISO$2
100
AcDb2LineAngularDimension
 13
1502.811381916798
 23
350.190888290585
 33
0.0
 14
1517.518248079802
 24
390.5976709843791
 34
0.0
 15
1502.811381916798
 25
304.6394423394044
 35
0.0
 16
1515.564439568855
 26
404.0002696336491
 36
0.0
1001
ACAD
1000
DSTYLE
1002
{
1070
   179
1070
     2
1070
   272
1070
     8
1002
}
  0
DIMENSION
  5
4F10
330
A
100
AcDbEntity
  8
AM_5
100
AcDbDimension
  2
*D3
 10
1488.104515753794
 20
390.5976709843788
 30
0.0
 11
1492.731045383487
 21
407.3593176075823
 31
0.0
 70
    34
 71
     5
 42
0.3490658503988815
  3
AM_ISO$2
100
AcDb2LineAngularDimension
 13
1502.811381916798
 23
304.6394423394044
 33
0.0
 14
1502.811381916799
 24
401.7859629328238
 34
0.0
 15
1502.811381916798
 25
350.190888290585
 35
0.0
 16
1496.391443765674
 26
405.1169694737137
 36
0.0
1001
ACAD
1000
DSTYLE
1002
{
1070
   179
1070
     2
1070
   272
1070
     8
1002
}
  0
DIMENSION
  5
4F11
330
A
100
AcDbEntity
  8
AM_5
100
AcDbDimension
  2
*D4
 10
1502.811381916798
 20
350.190888290585
 30
0.0
 11
1490.218234424346
 21
413.5009160095578
 31
0.0
 70
    34
 71
     5
 42
0.3926990816987255
  3
AM_ISO$2
100
AcDb2LineAngularDimension
 13
1502.811381916798
 23
304.6394423394044
 33
0.0
 14
1502.811381916799
 24
401.7859629328238
 34
0.0
 15
1488.269411486925
 25
385.2983105260138
 35
0.0
 16
1494.744863237599
 26
411.4621807234859
 36
0.0
1001
ACAD
1000
DSTYLE
1002
{
1070
   179
1070
     2
1070
   272
1070
     8
1002
}
  0
ARC
  5
67F5
330
A
100
AcDbEntity
  8
0
100
AcDbCircle
 10
1172.307052199931
 20
350.190888290585
 30
0.0
 40
60.0
100
AcDbArc
 50
10.52877936551035
 51
24.26082952273133
  0
ARC
  5
67F6
330
A
100
AcDbEntity
  8
0
100
AcDbCircle
 10
1172.307052199931
 20
350.190888290585
 30
0.0
 40
56.99999999999997
100
AcDbArc
 50
9.459022462454768
 51
23.95767158094256
  0
LINE
  5
67F7
330
A
100
AcDbEntity
  8
0
100
AcDbLine
 10
1231.296847055595
 20
361.1546514623584
 30
0.0
 11
1228.532045439519
 21
359.5583925050615
 31
0.0
  0
LINE
  5
67F8
330
A
100
AcDbEntity
  8
0
100
AcDbLine
 10
1148.572273205471
 20
318.0155705873567
 30
0.0
 11
1149.368283835293
 21
317.8752124363884
 31
0.0
  0
LINE
  5
67F9
330
A
100
AcDbEntity
  8
0
100
AcDbLine
 10
1149.368283835293
 20
317.8752124363884
 30
0.0
 11
1151.746597991134
 21
320.7095768759286
 31
0.0
  0
LINE
  5
67FA
330
A
100
AcDbEntity
  8
0
100
AcDbLine
 10
1151.746597991134
 20
320.7095768759286
 30
0.0
 11
1146.843913555172
 21
324.8234175779223
 31
0.0
  0
LINE
  5
67FB
330
A
100
AcDbEntity
  8
0
100
AcDbLine
 10
1146.843913555172
 20
324.8234175779223
 30
0.0
 11
1144.465599399332
 21
321.9890531383821
 31
0.0
  0
LINE
  5
67FC
330
A
100
AcDbEntity
  8
0
100
AcDbLine
 10
1144.465599399332
 20
321.9890531383821
 30
0.0
 11
1144.742050989876
 21
321.2295086357894
 31
0.0
  0
LINE
  5
67FD
330
A
100
AcDbEntity
  8
0
100
AcDbLine
 10
1144.742050989876
 20
321.2295086357894
 30
0.0
 11
1142.605666879094
 21
318.6834651966033
 31
0.0
  0
ARC
  5
67FE
330
A
100
AcDbEntity
  8
0
100
AcDbCircle
 10
1172.307052199931
 20
350.190888290585
 30
0.0
 40
43.3
100
AcDbArc
 50
217.297468593821
 51
226.6900889020668
  0
LINE
  5
67FF
330
A
100
AcDbEntity
  8
0
100
AcDbLine
 10
1137.861891224341
 20
323.953112367963
 30
0.0
 11
1142.148086856122
 21
326.4277485697708
 31
0.0
  0
ARC
  5
6800
330
A
100
AcDbEntity
  8
0
100
AcDbCircle
 10
1139.398086856122
 20
331.1908882905852
 30
0.0
 40
5.500000000000028
100
AcDbArc
 50
300.0000000000005
 51
120.0000000000005
  0
LINE
  5
6801
330
A
100
AcDbEntity
  8
0
100
AcDbLine
 10
1136.648086856122
 20
335.9540280113996
 30
0.0
 11
1132.361891224342
 21
333.4793918095919
 31
0.0
  0
ARC
  5
6802
330
A
100
AcDbEntity
  8
0
100
AcDbCircle
 10
1172.307052199931
 20
350.190888290585
 30
0.0
 40
43.30000000000002
100
AcDbArc
 50
193.3099110979375
 51
202.7025314061845
  0
LINE
  5
6803
330
A
100
AcDbEntity
  8
0
100
AcDbLine
 10
1130.17013073234
 20
340.2224456221405
 30
0.0
 11
1133.443261085205
 21
340.7995868147264
 31
0.0
  0
LINE
  5
6804
330
A
100
AcDbEntity
  8
0
100
AcDbLine
 10
1133.443261085205
 20
340.7995868147264
 30
0.0
 11
1133.962820124483
 21
340.1804004631021
 31
0.0
  0
LINE
  5
6805
330
A
100
AcDbEntity
  8
0
100
AcDbLine
 10
1133.962820124483
 20
340.1804004631021
 30
0.0
 11
1137.606608810628
 21
340.8228987204698
 31
0.0
  0
LINE
  5
6806
330
A
100
AcDbEntity
  8
0
100
AcDbLine
 10
1137.606608810628
 20
340.8228987204698
 30
0.0
 11
1136.49526047356
 21
347.1256683397478
 31
0.0
  0
LINE
  5
6807
330
A
100
AcDbEntity
  8
0
100
AcDbLine
 10
1136.49526047356
 20
347.1256683397478
 30
0.0
 11
1132.851471787415
 21
346.4831700823801
 31
0.0
  0
LINE
  5
6808
330
A
100
AcDbEntity
  8
0
100
AcDbLine
 10
1132.851471787415
 20
346.4831700823801
 30
0.0
 11
1132.57502019687
 21
345.7236255797874
 31
0.0
  0
LINE
  5
6809
330
A
100
AcDbEntity
  8
0
100
AcDbLine
 10
1132.57502019687
 20
345.7236255797874
 30
0.0
 11
1129.301889844005
 21
345.1464843872016
 31
0.0
  0
ARC
  5
680A
330
A
100
AcDbEntity
  8
0
100
AcDbCircle
 10
1172.307052199931
 20
350.190888290585
 30
0.0
 40
43.30000000000004
100
AcDbArc
 50
180.4907715947453
 51
186.6900889020623
  0
ARC
  5
680B
330
A
100
AcDbEntity
  8
0
100
AcDbCircle
 10
1125.008787370056
 20
349.7857413012138
 30
0.0
 40
4.000000000000031
100
AcDbArc
 50
0.4907715948267177
 51
59.99999999999946
  0
LINE
  5
680C
330
A
100
AcDbEntity
  8
0
100
AcDbLine
 10
1116.082058960343
 20
359.5583925050615
 30
0.0
 11
1127.008787370056
 21
353.2498429163514
 31
0.0
  0
ARC
  5
680D
330
A
100
AcDbEntity
  8
0
100
AcDbCircle
 10
1172.307052199931
 20
350.190888290585
 30
0.0
 40
57.00000000000001
100
AcDbArc
 50
156.0423284190544
 51
170.5409775375452
  0
LINE
  5
680E
330
A
100
AcDbEntity
  8
0
100
AcDbLine
 10
1146.790391701536
 20
357.9947358678784
 30
0.0
 11
1132.933985240985
 21
365.9947358678785
 31
0.0
  0
LINE
  5
680F
330
A
100
AcDbEntity
  8
0
100
AcDbLine
 10
1152.790391701536
 20
368.3870407132916
 30
0.0
 11
1146.790391701536
 21
357.9947358678784
 31
0.0
  0
LINE
  5
6810
330
A
100
AcDbEntity
  8
0
100
AcDbLine
 10
1152.790391701536
 20
368.3870407132916
 30
0.0
 11
1138.933985240985
 21
376.3870407132916
 31
0.0
  0
ARC
  5
6811
330
A
100
AcDbEntity
  8
0
100
AcDbCircle
 10
1172.307052199931
 20
350.190888290585
 30
0.0
 40
57.00000000000002
100
AcDbArc
 50
129.4590224624528
 51
143.9576715809447
  0
LINE
  5
6812
330
A
100
AcDbEntity
  8
0
100
AcDbLine
 10
1147.008787370056
 20
387.8908590677289
 30
0.0
 11
1136.082058960343
 21
394.1994086564389
 31
0.0
  0
ARC
  5
6813
330
A
100
AcDbEntity
  8
0
100
AcDbCircle
 10
1149.008787370056
 20
391.3549606828666
 30
0.0
 40
3.999999999999982
100
AcDbArc
 50
239.9999999999995
 51
299.5092284052535
  0
ARC
  5
6814
330
A
100
AcDbEntity
  8
0
100
AcDbCircle
 10
1172.307052199931
 20
350.190888290585
 30
0.0
 40
43.30000000000004
100
AcDbArc
 50
97.2974685938184
 51
119.5092284052535
  0
LINE
  5
6815
330
A
100
AcDbEntity
  8
0
100
AcDbLine
 10
1166.807052199931
 20
393.1401606942007
 30
0.0
 11
1166.807052199931
 21
388.1908882905849
 31
0.0
  0
ARC
  5
6816
330
A
100
AcDbEntity
  8
0
100
AcDbCircle
 10
1172.307052199931
 20
388.1908882905849
 30
0.0
 40
5.5
100
AcDbArc
 50
180.0
 51
0.0
  0
LINE
  5
6817
330
A
100
AcDbEntity
  8
0
100
AcDbLine
 10
1177.807052199931
 20
388.1908882905849
 30
0.0
 11
1177.807052199931
 21
393.1401606942007
 31
0.0
  0
ARC
  5
6818
330
A
100
AcDbEntity
  8
0
100
AcDbCircle
 10
1172.307052199931
 20
350.190888290585
 30
0.0
 40
43.30000000000002
100
AcDbArc
 50
60.49077159474652
 51
82.70253140618162
  0
ARC
  5
6819
330
A
100
AcDbEntity
  8
0
100
AcDbCircle
 10
1195.605317029806
 20
391.3549606828666
 30
0.0
 40
4.000000000000011
100
AcDbArc
 50
240.4907715947465
 51
300.0000000000005
  0
LINE
  5
681A
330
A
100
AcDbEntity
  8
0
100
AcDbLine
 10
1208.532045439519
 20
394.1994086564389
 30
0.0
 11
1197.605317029806
 21
387.8908590677289
 31
0.0
  0
ARC
  5
681B
330
A
100
AcDbEntity
  8
0
100
AcDbCircle
 10
1172.307052199931
 20
350.190888290585
 30
0.0
 40
56.99999999999999
100
AcDbArc
 50
36.04232841905265
 51
50.54097753754718
  0
LINE
  5
681C
330
A
100
AcDbEntity
  8
0
100
AcDbLine
 10
1191.823712698327
 20
368.3870407132914
 30
0.0
 11
1205.680119158878
 21
376.3870407132912
 31
0.0
  0
LINE
  5
681D
330
A
100
AcDbEntity
  8
0
100
AcDbLine
 10
1197.823712698327
 20
357.9947358678779
 30
0.0
 11
1191.823712698327
 21
368.3870407132914
 31
0.0
  0
LINE
  5
681E
330
A
100
AcDbEntity
  8
0
100
AcDbLine
 10
1197.823712698327
 20
357.9947358678779
 30
0.0
 11
1211.680119158878
 21
365.9947358678779
 31
0.0
  0
ARC
  5
681F
330
A
100
AcDbEntity
  8
0
100
AcDbCircle
 10
1219.605317029806
 20
349.7857413012138
 30
0.0
 40
4.000000000000096
100
AcDbArc
 50
120.0000000000005
 51
179.5092284052547
  0
ARC
  5
6820
330
A
100
AcDbEntity
  8
0
100
AcDbCircle
 10
1172.307052199931
 20
350.190888290585
 30
0.0
 40
43.3
100
AcDbArc
 50
353.3099110979376
 51
359.5092284052417
  0
LINE
  5
6821
330
A
100
AcDbEntity
  8
0
100
AcDbLine
 10
1212.039084202992
 20
345.7236255797874
 30
0.0
 11
1215.312214555857
 21
345.1464843872016
 31
0.0
  0
LINE
  5
6822
330
A
100
AcDbEntity
  8
0
100
AcDbLine
 10
1211.762632612447
 20
346.4831700823801
 30
0.0
 11
1212.039084202992
 21
345.7236255797874
 31
0.0
  0
LINE
  5
6823
330
A
100
AcDbEntity
  8
0
100
AcDbLine
 10
1208.118843926302
 20
347.1256683397478
 30
0.0
 11
1211.762632612447
 21
346.4831700823801
 31
0.0
  0
LINE
  5
6824
330
A
100
AcDbEntity
  8
0
100
AcDbLine
 10
1207.007495589234
 20
340.8228987204698
 30
0.0
 11
1208.118843926302
 21
347.1256683397478
 31
0.0
  0
LINE
  5
6825
330
A
100
AcDbEntity
  8
0
100
AcDbLine
 10
1210.651284275379
 20
340.1804004631021
 30
0.0
 11
1207.007495589234
 21
340.8228987204698
 31
0.0
  0
LINE
  5
6826
330
A
100
AcDbEntity
  8
0
100
AcDbLine
 10
1211.170843314657
 20
340.7995868147264
 30
0.0
 11
1210.651284275379
 21
340.1804004631021
 31
0.0
  0
LINE
  5
6827
330
A
100
AcDbEntity
  8
0
100
AcDbLine
 10
1214.443973667522
 20
340.2224456221405
 30
0.0
 11
1211.170843314657
 21
340.7995868147264
 31
0.0
  0
ARC
  5
6828
330
A
100
AcDbEntity
  8
0
100
AcDbCircle
 10
1172.307052199931
 20
350.190888290585
 30
0.0
 40
43.29999999999998
100
AcDbArc
 50
337.2974685938155
 51
346.6900889020625
  0
LINE
  5
6829
330
A
100
AcDbEntity
  8
0
100
AcDbLine
 10
1212.25221317552
 20
333.4793918095912
 30
0.0
 11
1207.96601754374
 21
335.9540280113993
 31
0.0
  0
ARC
  5
682A
330
A
100
AcDbEntity
  8
0
100
AcDbCircle
 10
1205.21601754374
 20
331.1908882905848
 30
0.0
 40
5.500000000000035
100
AcDbArc
 50
59.99999999999946
 51
239.9999999999995
  0
LINE
  5
682B
330
A
100
AcDbEntity
  8
0
100
AcDbLine
 10
1202.46601754374
 20
326.4277485697704
 30
0.0
 11
1206.75221317552
 21
323.9531123679624
 31
0.0
  0
ARC
  5
682C
330
A
100
AcDbEntity
  8
0
100
AcDbCircle
 10
1172.307052199931
 20
350.190888290585
 30
0.0
 40
43.29999999999999
100
AcDbArc
 50
313.3099110979332
 51
322.702531406179
  0
LINE
  5
682D
330
A
100
AcDbEntity
  8
0
100
AcDbLine
 10
1199.872053409986
 20
321.2295086357894
 30
0.0
 11
1202.008437520768
 21
318.6834651966033
 31
0.0
  0
LINE
  5
682E
330
A
100
AcDbEntity
  8
0
100
AcDbLine
 10
1200.14850500053
 20
321.9890531383821
 30
0.0
 11
1199.872053409986
 21
321.2295086357894
 31
0.0
  0
LINE
  5
682F
330
A
100
AcDbEntity
  8
0
100
AcDbLine
 10
1197.77019084469
 20
324.8234175779223
 30
0.0
 11
1200.14850500053
 21
321.9890531383821
 31
0.0
  0
LINE
  5
6830
330
A
100
AcDbEntity
  8
0
100
AcDbLine
 10
1192.867506408728
 20
320.7095768759286
 30
0.0
 11
1197.77019084469
 21
324.8234175779223
 31
0.0
  0
LINE
  5
6831
330
A
100
AcDbEntity
  8
0
100
AcDbLine
 10
1195.245820564569
 20
317.8752124363884
 30
0.0
 11
1192.867506408728
 21
320.7095768759286
 31
0.0
  0
LINE
  5
6832
330
A
100
AcDbEntity
  8
0
100
AcDbLine
 10
1196.041831194391
 20
318.0155705873567
 30
0.0
 11
1195.245820564569
 21
317.8752124363884
 31
0.0
  0
LINE
  5
6833
330
A
100
AcDbEntity
  8
0
100
AcDbLine
 10
1198.178215305173
 20
315.4695271481706
 30
0.0
 11
1196.041831194391
 21
318.0155705873567
 31
0.0
  0
ARC
  5
6834
330
A
100
AcDbEntity
  8
0
100
AcDbCircle
 10
1172.307052199931
 20
350.190888290585
 30
0.0
 40
43.29999999999996
100
AcDbArc
 50
300.4907715947457
 51
306.6900889020607
  0
ARC
  5
6835
330
A
100
AcDbEntity
  8
0
100
AcDbCircle
 10
1196.307052199931
 20
309.4319628876747
 30
0.0
 40
4.000000000000011
100
AcDbArc
 50
120.4907715947456
 51
180.0
  0
LINE
  5
6836
330
A
100
AcDbEntity
  8
0
100
AcDbLine
 10
1192.307052199931
 20
296.8148637102549
 30
0.0
 11
1192.307052199931
 21
309.4319628876747
 31
0.0
  0
ARC
  5
6837
330
A
100
AcDbEntity
  8
0
100
AcDbCircle
 10
1172.307052199931
 20
350.190888290585
 30
0.0
 40
56.99999999999999
100
AcDbArc
 50
276.0423284190575
 51
290.5409775375417
  0
LINE
  5
6838
330
A
100
AcDbEntity
  8
0
100
AcDbLine
 10
1178.307052199931
 20
324.190888290585
 30
0.0
 11
1178.307052199931
 21
308.1908882905849
 31
0.0
  0
LINE
  5
6839
330
A
100
AcDbEntity
  8
0
100
AcDbLine
 10
1166.307052199931
 20
324.190888290585
 30
0.0
 11
1178.307052199931
 21
324.190888290585
 31
0.0
  0
LINE
  5
683A
330
A
100
AcDbEntity
  8
0
100
AcDbLine
 10
1166.307052199931
 20
324.190888290585
 30
0.0
 11
1166.307052199931
 21
308.190888290585
 31
0.0
  0
ARC
  5
683B
330
A
100
AcDbEntity
  8
0
100
AcDbCircle
 10
1172.307052199931
 20
350.190888290585
 30
0.0
 40
56.99999999999993
100
AcDbArc
 50
249.4590224624584
 51
263.9576715809425
  0
LINE
  5
683C
330
A
100
AcDbEntity
  8
0
100
AcDbLine
 10
1152.307052199931
 20
309.4319628876747
 30
0.0
 11
1152.307052199931
 21
296.8148637102549
 31
0.0
  0
ARC
  5
683D
330
A
100
AcDbEntity
  8
0
100
AcDbCircle
 10
1148.307052199931
 20
309.4319628876747
 30
0.0
 40
4.0
100
AcDbArc
 50
0.0
 51
59.50922840525437
  0
ARC
  5
683E
330
A
100
AcDbEntity
  8
0
100
AcDbCircle
 10
1172.307052199931
 20
350.190888290585
 30
0.0
 40
43.30000000000004
100
AcDbArc
 50
233.3099110979393
 51
239.5092284052544
  0
LINE
  5
683F
330
A
100
AcDbEntity
  8
0
100
AcDbLine
 10
1146.435889094689
 20
315.4695271481706
 30
0.0
 11
1148.572273205471
 21
318.0155705873567
 31
0.0
  0
LINE
  5
6840
330
A
100
AcDbEntity
  8
0
100
AcDbLine
 10
1217.605317029806
 20
353.2498429163514
 30
0.0
 11
1228.532045439519
 21
359.5583925050615
 31
0.0
  0
LINE
  5
6841
330
A
100
AcDbEntity
  8
0
100
AcDbLine
 10
1208.532045439519
 20
394.1994086564389
 30
0.0
 11
1211.296847055594
 21
395.7956676137359
 31
0.0
  0
ARC
  5
6842
330
A
100
AcDbEntity
  8
0
100
AcDbCircle
 10
1172.307052199931
 20
350.190888290585
 30
0.0
 40
60.0
100
AcDbArc
 50
35.73917047726383
 51
49.47122063448855
  0
ARC
  5
6843
330
A
100
AcDbEntity
  8
0
100
AcDbCircle
 10
1172.307052199931
 20
350.190888290585
 30
0.0
 40
59.99999999999998
100
AcDbArc
 50
275.7391704772747
 51
289.4712206344868
  0
LINE
  5
6844
330
A
100
AcDbEntity
  8
0
100
AcDbLine
 10
1192.307052199931
 20
296.8148637102549
 30
0.0
 11
1192.307052199931
 21
293.6223457956611
 31
0.0
  0
ARC
  5
6845
330
A
100
AcDbEntity
  8
CENTER
100
AcDbCircle
 10
1172.307052199931
 20
350.190888290585
 30
0.0
 40
59.99999999999998
100
AcDbArc
 50
214.5362195446121
 51
246.5844044958366
  0
LINE
  5
6846
330
A
100
AcDbEntity
  8
0
100
AcDbLine
 10
1152.307052199931
 20
293.6223457956611
 30
0.0
 11
1152.307052199931
 21
296.8148637102549
 31
0.0
  0
ARC
  5
6847
330
A
100
AcDbEntity
  8
0
100
AcDbCircle
 10
1172.307052199931
 20
350.190888290585
 30
0.0
 40
60.0
100
AcDbArc
 50
130.5287793655114
 51
144.2608295227362
  0
LINE
  5
6848
330
A
100
AcDbEntity
  8
0
100
AcDbLine
 10
1133.317257344268
 20
395.7956676137359
 30
0.0
 11
1136.082058960343
 21
394.1994086564389
 31
0.0
  0
ARC
  5
6849
330
A
100
AcDbEntity
  8
0
100
AcDbCircle
 10
1172.307052199931
 20
350.190888290585
 30
0.0
 40
60.00000000000003
100
AcDbArc
 50
155.7391704772657
 51
169.4712206344896
  0
LINE
  5
684A
330
A
100
AcDbEntity
  8
0
100
AcDbLine
 10
1116.082058960343
 20
359.5583925050615
 30
0.0
 11
1113.317257344268
 21
361.1546514623584
 31
0.0
  0
CIRCLE
  5
684B
330
A
100
AcDbEntity
  8
0
100
AcDbCircle
 10
1205.21601754374
 20
331.1908882905848
 30
0.0
 40
3.299999999999953
  0
ARC
  5
684C
330
A
100
AcDbEntity
  8
0
100
AcDbCircle
 10
1172.307052199931
 20
350.190888290585
 30
0.0
 40
43.29999999999999
100
AcDbArc
 50
322.702531406179
 51
337.2974685938155
  0
CIRCLE
  5
684D
330
A
100
AcDbEntity
  8
0
100
AcDbCircle
 10
1172.307052199931
 20
388.1908882905849
 30
0.0
 40
3.299999999999953
  0
ARC
  5
684E
330
A
100
AcDbEntity
  8
0
100
AcDbCircle
 10
1172.307052199931
 20
350.190888290585
 30
0.0
 40
43.30000000000002
100
AcDbArc
 50
82.70253140618162
 51
97.2974685938184
  0
CIRCLE
  5
684F
330
A
100
AcDbEntity
  8
0
100
AcDbCircle
 10
1139.398086856122
 20
331.1908882905852
 30
0.0
 40
3.299999999999953
  0
ARC
  5
6850
330
A
100
AcDbEntity
  8
0
100
AcDbCircle
 10
1172.307052199931
 20
350.190888290585
 30
0.0
 40
43.3
100
AcDbArc
 50
202.7025314061845
 51
217.297468593821
  0
LINE
  5
6851
330
A
100
AcDbEntity
  8
0
100
AcDbLine
 10
1166.307052199931
 20
280.190888290585
 30
0.0
 11
1166.307052199931
 21
291.1908882905849
 31
0.0
  0
LINE
  5
6852
330
A
100
AcDbEntity
  8
0
100
AcDbLine
 10
1166.307052199931
 20
291.1908882905849
 30
0.0
 11
1178.307052199931
 21
291.1908882905849
 31
0.0
  0
ARC
  5
6853
330
A
100
AcDbEntity
  8
DIM
100
AcDbCircle
 10
1172.307052199931
 20
285.690888290585
 30
0.0
 40
2.5
100
AcDbArc
 50
90.0
 51
0.0
  0
LINE
  5
6854
330
A
100
AcDbEntity
  8
0
100
AcDbLine
 10
1178.307052199931
 20
280.1908882905849
 30
0.0
 11
1178.307052199931
 21
291.1908882905849
 31
0.0
  0
LINE
  5
6855
330
A
100
AcDbEntity
  8
0
100
AcDbLine
 10
1166.307052199931
 20
280.190888290585
 30
0.0
 11
1178.307052199931
 21
280.1908882905849
 31
0.0
  0
LINE
  5
6856
330
A
100
AcDbEntity
  8
0
100
AcDbLine
 10
1166.307052199931
 20
297.1908882905849
 30
0.0
 11
1178.307052199931
 21
297.1908882905849
 31
0.0
  0
LINE
  5
6857
330
A
100
AcDbEntity
  8
0
100
AcDbLine
 10
1166.307052199931
 20
297.1908882905849
 30
0.0
 11
1166.307052199931
 21
308.190888290585
 31
0.0
  0
ARC
  5
6858
330
A
100
AcDbEntity
  8
DIM
100
AcDbCircle
 10
1172.307052199931
 20
302.690888290585
 30
0.0
 40
2.5
100
AcDbArc
 50
90.0
 51
0.0
  0
LINE
  5
6859
330
A
100
AcDbEntity
  8
0
100
AcDbLine
 10
1178.307052199931
 20
297.1908882905849
 30
0.0
 11
1178.307052199931
 21
308.1908882905849
 31
0.0
  0
LINE
  5
685A
330
A
100
AcDbEntity
  8
0
100
AcDbLine
 10
1166.307052199931
 20
308.190888290585
 30
0.0
 11
1178.307052199931
 21
308.1908882905849
 31
0.0
  0
LINE
  5
685B
330
A
100
AcDbEntity
  8
0
100
AcDbLine
 10
1166.307052199931
 20
291.1908882905849
 30
0.0
 11
1166.307052199931
 21
297.1908882905849
 31
0.0
  0
LINE
  5
685C
330
A
100
AcDbEntity
  8
0
100
AcDbLine
 10
1178.307052199931
 20
291.1908882905849
 30
0.0
 11
1178.307052199931
 21
297.1908882905849
 31
0.0
  0
LINE
  5
685D
330
A
100
AcDbEntity
  8
0
100
AcDbLine
 10
1185.307052199931
 20
280.1908882905849
 30
0.0
 11
1185.307052199931
 21
291.616149708155
 31
0.0
  0
LINE
  5
685E
330
A
100
AcDbEntity
  8
0
100
AcDbLine
 10
1178.307052199931
 20
280.1908882905849
 30
0.0
 11
1185.307052199931
 21
280.1908882905849
 31
0.0
  0
LINE
  5
685F
330
A
100
AcDbEntity
  8
0
100
AcDbLine
 10
1159.307052199931
 20
280.1908882905849
 30
0.0
 11
1159.307052199931
 21
291.616149708155
 31
0.0
  0
LINE
  5
6860
330
A
100
AcDbEntity
  8
0
100
AcDbLine
 10
1159.307052199931
 20
280.1908882905849
 30
0.0
 11
1166.307052199931
 21
280.1908882905849
 31
0.0
  0
LINE
  5
6861
330
A
100
AcDbEntity
  8
0
100
AcDbLine
 10
1235.928830464842
 20
379.9947358678776
 30
0.0
 11
1226.402551023213
 21
374.4947358678778
 31
0.0
  0
LINE
  5
6862
330
A
100
AcDbEntity
  8
0
100
AcDbLine
 10
1226.402551023213
 20
374.4947358678778
 30
0.0
 11
1220.402551023213
 21
384.887040713291
 31
0.0
  0
LINE
  5
6863
330
A
100
AcDbEntity
  8
0
100
AcDbLine
 10
1229.928830464843
 20
390.387040713291
 30
0.0
 11
1220.402551023213
 21
384.887040713291
 31
0.0
  0
LINE
  5
6864
330
A
100
AcDbEntity
  8
0
100
AcDbLine
 10
1235.928830464842
 20
379.9947358678776
 30
0.0
 11
1229.928830464843
 21
390.387040713291
 31
0.0
  0
LINE
  5
6865
330
A
100
AcDbEntity
  8
0
100
AcDbLine
 10
1221.206398600507
 20
371.4947358678778
 30
0.0
 11
1215.206398600507
 21
381.8870407132912
 31
0.0
  0
LINE
  5
6866
330
A
100
AcDbEntity
  8
0
100
AcDbLine
 10
1221.206398600507
 20
371.4947358678778
 30
0.0
 11
1211.680119158878
 21
365.9947358678779
 31
0.0
  0
LINE
  5
6867
330
A
100
AcDbEntity
  8
0
100
AcDbLine
 10
1215.206398600507
 20
381.8870407132912
 30
0.0
 11
1205.680119158878
 21
376.3870407132912
 31
0.0
  0
LINE
  5
6868
330
A
100
AcDbEntity
  8
0
100
AcDbLine
 10
1211.680119158878
 20
365.9947358678779
 30
0.0
 11
1205.680119158878
 21
376.3870407132912
 31
0.0
  0
LINE
  5
6869
330
A
100
AcDbEntity
  8
0
100
AcDbLine
 10
1226.402551023213
 20
374.4947358678778
 30
0.0
 11
1221.206398600507
 21
371.4947358678778
 31
0.0
  0
LINE
  5
686A
330
A
100
AcDbEntity
  8
0
100
AcDbLine
 10
1220.402551023213
 20
384.8870407132912
 30
0.0
 11
1215.206398600507
 21
381.8870407132912
 31
0.0
  0
LINE
  5
686B
330
A
100
AcDbEntity
  8
0
100
AcDbLine
 10
1239.428830464842
 20
373.9325580413864
 30
0.0
 11
1229.534263832348
 21
368.2199273326016
 31
0.0
  0
LINE
  5
686C
330
A
100
AcDbEntity
  8
0
100
AcDbLine
 10
1239.428830464842
 20
373.9325580413864
 30
0.0
 11
1235.928830464842
 21
379.9947358678776
 31
0.0
  0
LINE
  5
686D
330
A
100
AcDbEntity
  8
0
100
AcDbLine
 10
1226.428830464842
 20
396.4492185397821
 30
0.0
 11
1216.534263832348
 21
390.7365878309972
 31
0.0
  0
LINE
  5
686E
330
A
100
AcDbEntity
  8
0
100
AcDbLine
 10
1229.928830464843
 20
390.387040713291
 30
0.0
 11
1226.428830464842
 21
396.4492185397821
 31
0.0
  0
LINE
  5
686F
330
A
100
AcDbEntity
  8
0
100
AcDbLine
 10
1129.407705799356
 20
381.8870407132919
 30
0.0
 11
1123.407705799356
 21
371.4947358678785
 31
0.0
  0
LINE
  5
6870
330
A
100
AcDbEntity
  8
0
100
AcDbLine
 10
1129.407705799356
 20
381.8870407132919
 30
0.0
 11
1138.933985240985
 21
376.3870407132916
 31
0.0
  0
LINE
  5
6871
330
A
100
AcDbEntity
  8
0
100
AcDbLine
 10
1123.407705799356
 20
371.4947358678785
 30
0.0
 11
1132.933985240985
 21
365.9947358678785
 31
0.0
  0
LINE
  5
6872
330
A
100
AcDbEntity
  8
0
100
AcDbLine
 10
1138.933985240985
 20
376.3870407132916
 30
0.0
 11
1132.933985240985
 21
365.9947358678785
 31
0.0
  0
LINE
  5
6873
330
A
100
AcDbEntity
  8
0
100
AcDbLine
 10
1114.685273935021
 20
390.3870407132919
 30
0.0
 11
1124.211553376649
 21
384.8870407132919
 31
0.0
  0
LINE
  5
6874
330
A
100
AcDbEntity
  8
0
100
AcDbLine
 10
1124.211553376649
 20
384.8870407132919
 30
0.0
 11
1118.211553376649
 21
374.4947358678786
 31
0.0
  0
LINE
  5
6875
330
A
100
AcDbEntity
  8
0
100
AcDbLine
 10
1108.68527393502
 20
379.9947358678786
 30
0.0
 11
1118.211553376649
 21
374.4947358678786
 31
0.0
  0
LINE
  5
6876
330
A
100
AcDbEntity
  8
0
100
AcDbLine
 10
1114.685273935021
 20
390.3870407132919
 30
0.0
 11
1108.68527393502
 21
379.9947358678786
 31
0.0
  0
LINE
  5
6877
330
A
100
AcDbEntity
  8
0
100
AcDbLine
 10
1124.211553376649
 20
384.8870407132919
 30
0.0
 11
1129.407705799356
 21
381.8870407132919
 31
0.0
  0
LINE
  5
6878
330
A
100
AcDbEntity
  8
0
100
AcDbLine
 10
1118.211553376649
 20
374.4947358678786
 30
0.0
 11
1123.407705799356
 21
371.4947358678785
 31
0.0
  0
LINE
  5
6879
330
A
100
AcDbEntity
  8
0
100
AcDbLine
 10
1118.185273935021
 20
396.4492185397829
 30
0.0
 11
1128.079840567514
 21
390.7365878309977
 31
0.0
  0
LINE
  5
687A
330
A
100
AcDbEntity
  8
0
100
AcDbLine
 10
1118.185273935021
 20
396.4492185397829
 30
0.0
 11
1114.685273935021
 21
390.3870407132919
 31
0.0
  0
LINE
  5
687B
330
A
100
AcDbEntity
  8
0
100
AcDbLine
 10
1105.18527393502
 20
373.9325580413876
 30
0.0
 11
1115.079840567514
 21
368.2199273326024
 31
0.0
  0
LINE
  5
687C
330
A
100
AcDbEntity
  8
0
100
AcDbLine
 10
1108.68527393502
 20
379.9947358678786
 30
0.0
 11
1105.18527393502
 21
373.9325580413876
 31
0.0
  0
LINE
  5
687D
330
A
100
AcDbEntity
  8
0
100
AcDbLine
 10
1382.774489822111
 20
393.1908882905849
 30
0.0
 11
1331.774489822112
 21
393.1908882905849
 31
0.0
  0
LINE
  5
687E
330
A
100
AcDbEntity
  8
0
100
AcDbLine
 10
1331.774489822112
 20
307.1908882905849
 30
0.0
 11
1382.774489822111
 21
307.1908882905849
 31
0.0
  0
LINE
  5
687F
330
A
100
AcDbEntity
  8
0
100
AcDbLine
 10
1324.274489822111
 20
290.1908882905849
 30
0.0
 11
1331.774489822112
 21
290.1908882905849
 31
0.0
  0
LINE
  5
6880
330
A
100
AcDbEntity
  8
0
100
AcDbLine
 10
1299.50654062968
 20
390.387040713291
 30
0.0
 11
1299.50654062968
 21
395.7956676137359
 31
0.0
  0
LINE
  5
6881
330
A
100
AcDbEntity
  8
0
100
AcDbLine
 10
1299.50654062968
 20
395.7956676137359
 30
0.0
 11
1304.774489822112
 21
395.7956676137359
 31
0.0
  0
LINE
  5
6882
330
A
100
AcDbEntity
  8
0
100
AcDbLine
 10
1314.774489822112
 20
395.7956676137359
 30
0.0
 11
1331.774489822111
 21
395.7956676137359
 31
0.0
  0
LINE
  5
6883
330
A
100
AcDbEntity
  8
0
100
AcDbLine
 10
1331.774489822111
 20
361.1546514623584
 30
0.0
 11
1331.774489822111
 21
395.7956676137359
 31
0.0
  0
LINE
  5
6884
330
A
100
AcDbEntity
  8
0
100
AcDbLine
 10
1331.774489822111
 20
361.1546514623584
 30
0.0
 11
1299.50654062968
 21
361.1546514623584
 31
0.0
  0
LINE
  5
6885
330
A
100
AcDbEntity
  8
0
100
AcDbLine
 10
1299.50654062968
 20
361.1546514623584
 30
0.0
 11
1299.50654062968
 21
374.8443589810764
 31
0.0
  0
LINE
  5
6886
330
A
100
AcDbEntity
  8
0
100
AcDbLine
 10
1299.50654062968
 20
374.8443589810764
 30
0.0
 11
1304.774489822111
 21
374.8443589810764
 31
0.0
  0
LINE
  5
6887
330
A
100
AcDbEntity
  8
0
100
AcDbLine
 10
1331.774489822111
 20
353.2498429163514
 30
0.0
 11
1297.774489822111
 21
353.2498429163514
 31
0.0
  0
LINE
  5
6888
330
A
100
AcDbEntity
  8
0
100
AcDbLine
 10
1297.774489822111
 20
353.2498429163514
 30
0.0
 11
1297.774489822111
 21
359.5583925050615
 31
0.0
  0
LINE
  5
6889
330
A
100
AcDbEntity
  8
0
100
AcDbLine
 10
1299.50654062968
 20
361.1546514623584
 30
0.0
 11
1297.774489822111
 21
359.5583925050615
 31
0.0
  0
LINE
  5
688A
330
A
100
AcDbEntity
  8
0
100
AcDbLine
 10
1331.774489822111
 20
353.2498429163514
 30
0.0
 11
1331.774489822111
 21
361.1546514623584
 31
0.0
  0
LINE
  5
688B
330
A
100
AcDbEntity
  8
0
100
AcDbLine
 10
1297.774489822111
 20
359.5583925050615
 30
0.0
 11
1297.774489822111
 21
373.3364013094146
 31
0.0
  0
LINE
  5
688C
330
A
100
AcDbEntity
  8
0
100
AcDbLine
 10
1297.774489822111
 20
373.3364013094146
 30
0.0
 11
1299.50654062968
 21
374.8443589810764
 31
0.0
  0
LINE
  5
688D
330
A
100
AcDbEntity
  8
0
100
AcDbLine
 10
1297.774489822111
 20
394.1994086564389
 30
0.0
 11
1299.50654062968
 21
395.7956676137359
 31
0.0
  0
LINE
  5
688E
330
A
100
AcDbEntity
  8
0
100
AcDbLine
 10
1297.774489822111
 20
390.387040713291
 30
0.0
 11
1297.774489822111
 21
394.1994086564389
 31
0.0
  0
LINE
  5
688F
330
A
100
AcDbEntity
  8
0
100
AcDbLine
 10
1331.774489822111
 20
349.8200032030633
 30
0.0
 11
1297.774489822111
 21
349.8200032030633
 31
0.0
  0
LINE
  5
6890
330
A
100
AcDbEntity
  8
0
100
AcDbLine
 10
1297.774489822111
 20
349.8200032030633
 30
0.0
 11
1297.774489822111
 21
353.2498429163514
 31
0.0
  0
LINE
  5
6891
330
A
100
AcDbEntity
  8
0
100
AcDbLine
 10
1331.774489822111
 20
349.8200032030633
 30
0.0
 11
1331.774489822111
 21
353.2498429163514
 31
0.0
  0
LINE
  5
6892
330
A
100
AcDbEntity
  8
0
100
AcDbLine
 10
1297.774489822111
 20
345.1464843872015
 30
0.0
 11
1331.774489822111
 21
345.1464843872015
 31
0.0
  0
LINE
  5
6893
330
A
100
AcDbEntity
  8
0
100
AcDbLine
 10
1297.774489822111
 20
345.1464843872015
 30
0.0
 11
1297.774489822111
 21
349.8200032030633
 31
0.0
  0
LINE
  5
6894
330
A
100
AcDbEntity
  8
0
100
AcDbLine
 10
1331.774489822111
 20
345.1464843872015
 30
0.0
 11
1331.774489822111
 21
349.8200032030633
 31
0.0
  0
LWPOLYLINE
  5
6895
330
A
100
AcDbEntity
  8
0
100
AcDbPolyline
 90
       20
 70
   128
 43
0.0
 10
1340.274489822111
 20
392.0336755871634
 10
1338.62581140219
 20
391.9679271876568
 10
1337.163093980767
 20
391.7685939667384
 10
1336.044137216397
 20
391.4315770928471
 10
1335.399492078801
 20
390.9641769758753
 10
1335.306256405698
 20
390.4017483734907
 10
1335.76762476618
 20
389.8058644260615
 10
1336.731977274054
 20
389.254565428868
 10
1338.100448856973
 20
388.8355531158037
 10
1339.716449697955
 20
388.6275840876511
 10
1341.386614120587
 20
388.6699167662608
 10
1342.927075011814
 20
388.9512993115344
 10
1344.176811370151
 20
389.4215999259408
 10
1344.992602999672
 20
390.0016443980772
 10
1345.274489780386
 20
390.5978919063865
 10
1344.995479928154
 20
391.1312944033049
 10
1344.191264094099
 20
391.554948947172
 10
1342.943716575054
 20
391.8479107263713
 10
1341.389979531617
 20
392.0042610221468
 10
1340.274489822111
 20
392.0336755871634
  0
LINE
  5
6896
330
A
100
AcDbEntity
  8
0
100
AcDbLine
 10
1382.774489822111
 20
345.198666496216
 30
0.0
 11
1382.774489822111
 21
393.1908882905849
 31
0.0
  0
LINE
  5
6897
330
A
100
AcDbEntity
  8
0
100
AcDbLine
 10
1331.774489822111
 20
345.1986664962159
 30
0.0
 11
1382.774489822111
 21
345.198666496216
 31
0.0
  0
LINE
  5
6898
330
A
100
AcDbEntity
  8
0
100
AcDbLine
 10
1382.774489822111
 20
340.2746277311548
 30
0.0
 11
1331.774489822111
 21
340.2746277311548
 31
0.0
  0
LINE
  5
6899
330
A
100
AcDbEntity
  8
0
100
AcDbLine
 10
1331.774489822111
 20
340.2746277311548
 30
0.0
 11
1331.774489822111
 21
340.2224456221405
 31
0.0
  0
LINE
  5
689A
330
A
100
AcDbEntity
  8
0
100
AcDbLine
 10
1297.774489822111
 20
340.2224456221405
 30
0.0
 11
1331.774489822111
 21
340.2224456221405
 31
0.0
  0
LINE
  5
689B
330
A
100
AcDbEntity
  8
0
100
AcDbLine
 10
1297.774489822111
 20
340.7995868147264
 30
0.0
 11
1382.774489822111
 21
340.7995868147264
 31
0.0
  0
LINE
  5
689C
330
A
100
AcDbEntity
  8
0
100
AcDbLine
 10
1382.774489822111
 20
340.2746277311548
 30
0.0
 11
1382.774489822111
 21
340.7995868147264
 31
0.0
  0
LINE
  5
689D
330
A
100
AcDbEntity
  8
0
100
AcDbLine
 10
1297.774489822111
 20
340.2224456221405
 30
0.0
 11
1297.774489822111
 21
340.7995868147264
 31
0.0
  0
LINE
  5
689E
330
A
100
AcDbEntity
  8
0
100
AcDbLine
 10
1314.774489822111
 20
323.9531123679624
 30
0.0
 11
1297.774489822111
 21
323.9531123679624
 31
0.0
  0
LINE
  5
689F
330
A
100
AcDbEntity
  8
0
100
AcDbLine
 10
1314.774489822111
 20
323.9531123679624
 30
0.0
 11
1314.774489822111
 21
333.4793918095912
 31
0.0
  0
LINE
  5
68A0
330
A
100
AcDbEntity
  8
0
100
AcDbLine
 10
1314.774489822111
 20
333.4793918095912
 30
0.0
 11
1297.774489822111
 21
333.4793918095912
 31
0.0
  0
LINE
  5
68A1
330
A
100
AcDbEntity
  8
0
100
AcDbLine
 10
1297.774489822111
 20
318.6834651966033
 30
0.0
 11
1331.774489822111
 21
318.6834651966033
 31
0.0
  0
LINE
  5
68A2
330
A
100
AcDbEntity
  8
0
100
AcDbLine
 10
1331.774489822111
 20
318.6834651966033
 30
0.0
 11
1331.774489822111
 21
340.2224456221405
 31
0.0
  0
LINE
  5
68A3
330
A
100
AcDbEntity
  8
0
100
AcDbLine
 10
1297.774489822111
 20
333.4793918095912
 30
0.0
 11
1297.774489822111
 21
340.2224456221405
 31
0.0
  0
LINE
  5
68A4
330
A
100
AcDbEntity
  8
0
100
AcDbLine
 10
1297.774489822111
 20
318.6834651966033
 30
0.0
 11
1297.774489822111
 21
323.9531123679624
 31
0.0
  0
LINE
  5
68A5
330
A
100
AcDbEntity
  8
0
100
AcDbLine
 10
1331.774489822111
 20
318.9136652204549
 30
0.0
 11
1382.774489822111
 21
318.9136652204549
 31
0.0
  0
LINE
  5
68A6
330
A
100
AcDbEntity
  8
0
100
AcDbLine
 10
1382.774489822111
 20
318.9136652204549
 30
0.0
 11
1382.774489822111
 21
340.2746277311548
 31
0.0
  0
LINE
  5
68A7
330
A
100
AcDbEntity
  8
0
100
AcDbLine
 10
1297.774489822111
 20
340.8228987204698
 30
0.0
 11
1382.774489822111
 21
340.8228987204698
 31
0.0
  0
LINE
  5
68A8
330
A
100
AcDbEntity
  8
0
100
AcDbLine
 10
1382.774489822111
 20
340.7995868147264
 30
0.0
 11
1382.774489822111
 21
340.8228987204698
 31
0.0
  0
LINE
  5
68A9
330
A
100
AcDbEntity
  8
0
100
AcDbLine
 10
1297.774489822111
 20
340.7995868147264
 30
0.0
 11
1297.774489822111
 21
340.8228987204698
 31
0.0
  0
LINE
  5
68AA
330
A
100
AcDbEntity
  8
0
100
AcDbLine
 10
1382.774489822111
 20
340.8228987204698
 30
0.0
 11
1382.774489822111
 21
345.198666496216
 31
0.0
  0
LINE
  5
68AB
330
A
100
AcDbEntity
  8
0
100
AcDbLine
 10
1297.774489822111
 20
340.8228987204698
 30
0.0
 11
1297.774489822111
 21
345.1464843872015
 31
0.0
  0
LINE
  5
68AC
330
A
100
AcDbEntity
  8
0
100
AcDbLine
 10
1314.774489822111
 20
326.4277485697703
 30
0.0
 11
1297.774489822111
 21
326.4277485697703
 31
0.0
  0
LINE
  5
68AD
330
A
100
AcDbEntity
  8
0
100
AcDbLine
 10
1297.774489822111
 20
333.4793918095912
 30
0.0
 11
1297.774489822111
 21
326.4277485697703
 31
0.0
  0
LINE
  5
68AE
330
A
100
AcDbEntity
  8
0
100
AcDbLine
 10
1297.774489822111
 20
326.4277485697703
 30
0.0
 11
1297.774489822111
 21
323.9531123679624
 31
0.0
  0
LINE
  5
68AF
330
A
100
AcDbEntity
  8
0
100
AcDbLine
 10
1382.774489822111
 20
315.6997271720222
 30
0.0
 11
1331.774489822111
 21
315.6997271720222
 31
0.0
  0
LINE
  5
68B0
330
A
100
AcDbEntity
  8
0
100
AcDbLine
 10
1331.774489822111
 20
315.6997271720222
 30
0.0
 11
1331.774489822111
 21
315.4695271481706
 31
0.0
  0
LINE
  5
68B1
330
A
100
AcDbEntity
  8
0
100
AcDbLine
 10
1297.774489822111
 20
315.4695271481706
 30
0.0
 11
1331.774489822111
 21
315.4695271481706
 31
0.0
  0
LINE
  5
68B2
330
A
100
AcDbEntity
  8
0
100
AcDbLine
 10
1297.774489822111
 20
318.0155705873567
 30
0.0
 11
1382.774489822111
 21
318.0155705873567
 31
0.0
  0
LINE
  5
68B3
330
A
100
AcDbEntity
  8
0
100
AcDbLine
 10
1382.774489822111
 20
315.6997271720222
 30
0.0
 11
1382.774489822111
 21
318.0155705873567
 31
0.0
  0
LINE
  5
68B4
330
A
100
AcDbEntity
  8
0
100
AcDbLine
 10
1297.774489822111
 20
315.4695271481706
 30
0.0
 11
1297.774489822111
 21
318.0155705873567
 31
0.0
  0
LINE
  5
68B5
330
A
100
AcDbEntity
  8
0
100
AcDbLine
 10
1331.774489822111
 20
312.8788064735445
 30
0.0
 11
1331.774489822111
 21
315.4695271481706
 31
0.0
  0
LINE
  5
68B6
330
A
100
AcDbEntity
  8
0
100
AcDbLine
 10
1331.774489822111
 20
312.8788064735445
 30
0.0
 11
1297.774489822111
 21
312.8788064735445
 31
0.0
  0
LINE
  5
68B7
330
A
100
AcDbEntity
  8
0
100
AcDbLine
 10
1297.774489822111
 20
312.8788064735445
 30
0.0
 11
1297.774489822111
 21
315.4695271481706
 31
0.0
  0
LINE
  5
68B8
330
A
100
AcDbEntity
  8
0
100
AcDbLine
 10
1382.774489822111
 20
307.1908882905849
 30
0.0
 11
1382.774489822111
 21
315.6997271720222
 31
0.0
  0
LINE
  5
68B9
330
A
100
AcDbEntity
  8
0
100
AcDbLine
 10
1382.774489822111
 20
318.0155705873568
 30
0.0
 11
1382.774489822111
 21
318.9136652204549
 31
0.0
  0
LINE
  5
68BA
330
A
100
AcDbEntity
  8
0
100
AcDbLine
 10
1297.774489822111
 20
318.0155705873567
 30
0.0
 11
1297.774489822111
 21
318.6834651966033
 31
0.0
  0
LINE
  5
68BB
330
A
100
AcDbEntity
  8
0
100
AcDbLine
 10
1331.774489822111
 20
309.4319628876747
 30
0.0
 11
1297.774489822111
 21
309.4319628876747
 31
0.0
  0
LINE
  5
68BC
330
A
100
AcDbEntity
  8
0
100
AcDbLine
 10
1331.774489822111
 20
309.4319628876747
 30
0.0
 11
1331.774489822111
 21
312.8788064735445
 31
0.0
  0
LINE
  5
68BD
330
A
100
AcDbEntity
  8
0
100
AcDbLine
 10
1297.774489822111
 20
309.4319628876747
 30
0.0
 11
1297.774489822111
 21
312.8788064735445
 31
0.0
  0
LINE
  5
68BE
330
A
100
AcDbEntity
  8
0
100
AcDbLine
 10
1331.774489822111
 20
293.6223457956611
 30
0.0
 11
1299.50654062968
 21
293.6223457956611
 31
0.0
  0
LWPOLYLINE
  5
68BF
330
A
100
AcDbEntity
  8
0
100
AcDbPolyline
 90
        3
 70
   128
 43
0.0
 10
1297.774489822111
 20
296.8148637102549
 10
1298.480127664838
 20
295.5115993215
 10
1299.50654062968
 20
293.6223457956611
  0
LINE
  5
68C0
330
A
100
AcDbEntity
  8
0
100
AcDbLine
 10
1331.774489822111
 20
293.6223457956611
 30
0.0
 11
1331.774489822111
 21
309.4319628876747
 31
0.0
  0
LINE
  5
68C1
330
A
100
AcDbEntity
  8
0
100
AcDbLine
 10
1297.774489822111
 20
296.8148637102549
 30
0.0
 11
1297.774489822111
 21
309.4319628876747
 31
0.0
  0
LINE
  5
68C2
330
A
100
AcDbEntity
  8
0
100
AcDbLine
 10
1324.274489822111
 20
290.6006206288266
 30
0.0
 11
1314.774489822111
 21
290.6006206288266
 31
0.0
  0
LINE
  5
68C3
330
A
100
AcDbEntity
  8
0
100
AcDbLine
 10
1314.774489822111
 20
291.616149708155
 30
0.0
 11
1304.774489822111
 21
291.616149708155
 31
0.0
  0
LINE
  5
68C4
330
A
100
AcDbEntity
  8
0
100
AcDbLine
 10
1299.50654062968
 20
290.4916420641878
 30
0.0
 11
1304.774489822111
 21
290.4916420641878
 31
0.0
  0
LINE
  5
68C5
330
A
100
AcDbEntity
  8
0
100
AcDbLine
 10
1299.50654062968
 20
290.4916420641878
 30
0.0
 11
1299.50654062968
 21
293.6223457956611
 31
0.0
  0
LINE
  5
68C6
330
A
100
AcDbEntity
  8
0
100
AcDbLine
 10
1331.774489822112
 20
290.1908882905849
 30
0.0
 11
1331.774489822111
 21
293.6223457956611
 31
0.0
  0
LINE
  5
68C7
330
A
100
AcDbEntity
  8
0
100
AcDbLine
 10
1297.774489822112
 20
293.5075574075114
 30
0.0
 11
1299.50654062968
 21
290.4916420641878
 31
0.0
  0
LINE
  5
68C8
330
A
100
AcDbEntity
  8
0
100
AcDbLine
 10
1297.774489822112
 20
293.5075574075114
 30
0.0
 11
1297.774489822111
 21
296.8148637102549
 31
0.0
  0
LWPOLYLINE
  5
68C9
330
A
100
AcDbEntity
  8
0
100
AcDbPolyline
 90
        8
 70
   128
 43
0.0
 10
1340.274489822111
 20
391.5638292767704
 10
1341.280982422555
 20
391.5288234146369
 10
1342.246269097678
 20
391.4252389723452
 10
1343.130830897585
 20
391.2573167091331
 10
1343.898453758257
 20
391.0319313821868
 10
1344.517711109585
 20
390.758310293273
 10
1344.963250482847
 20
390.4476555219209
 10
1345.175614259844
 20
390.1921348504505
  0
LWPOLYLINE
  5
68CA
330
A
100
AcDbEntity
  8
0
100
AcDbPolyline
 90
        8
 70
   128
 43
0.0
 10
1335.380972360352
 20
390.2047763510483
 10
1335.585729161376
 20
390.4476555219209
 10
1336.031268534638
 20
390.758310293273
 10
1336.650525885966
 20
391.0319313821868
 10
1337.418148746637
 20
391.2573167091331
 10
1338.302710546545
 20
391.4252389723452
 10
1339.267997221668
 20
391.5288234146369
 10
1340.274489822111
 20
391.5638292767704
  0
LWPOLYLINE
  5
68CB
330
A
100
AcDbEntity
  8
0
100
AcDbPolyline
 90
       23
 70
   128
 43
0.0
 10
1340.274489822111
 20
390.7087789184562
 10
1340.978821214215
 20
390.6741433710313
 10
1341.62609186575
 20
390.5730426948224
 10
1342.163863757997
 20
390.4136674653479
 10
1342.548569810498
 20
390.2089293158584
 10
1342.749043426814
 20
389.9754149136012
 10
1342.749043426814
 20
389.7320422066832
 10
1342.548569810498
 20
389.4985278044259
 10
1342.163863757997
 20
389.2937896549364
 10
1341.62609186575
 20
389.1344144254619
 10
1340.978821214215
 20
389.0333137492532
 10
1340.274489822111
 20
388.9986782018281
 10
1339.570158430008
 20
389.0333137492532
 10
1338.922887778472
 20
389.1344144254619
 10
1338.385115886226
 20
389.2937896549364
 10
1338.000409833725
 20
389.4985278044259
 10
1337.799936217409
 20
389.7320422066832
 10
1337.799936217409
 20
389.9754149136012
 10
1338.000409833725
 20
390.2089293158584
 10
1338.385115886226
 20
390.4136674653479
 10
1338.922887778472
 20
390.5730426948224
 10
1339.570158430008
 20
390.6741433710313
 10
1340.274489822111
 20
390.7087789184562
  0
LINE
  5
68CC
330
A
100
AcDbEntity
  8
0
100
AcDbLine
 10
1304.774489822112
 20
280.1908882905849
 30
0.0
 11
1304.774489822112
 21
291.616149708155
 31
0.0
  0
LINE
  5
68CD
330
A
100
AcDbEntity
  8
0
100
AcDbLine
 10
1314.774489822111
 20
291.616149708155
 30
0.0
 11
1314.774489822112
 21
280.1908882905849
 31
0.0
  0
LINE
  5
68CE
330
A
100
AcDbEntity
  8
0
100
AcDbLine
 10
1314.774489822112
 20
280.1908882905849
 30
0.0
 11
1304.774489822112
 21
280.1908882905849
 31
0.0
  0
LINE
  5
68CF
330
A
100
AcDbEntity
  8
0
100
AcDbLine
 10
1324.274489822111
 20
290.6006206288266
 30
0.0
 11
1324.274489822111
 21
280.1908882905849
 31
0.0
  0
LINE
  5
68D0
330
A
100
AcDbEntity
  8
0
100
AcDbLine
 10
1324.274489822111
 20
280.1908882905849
 30
0.0
 11
1314.774489822112
 21
280.1908882905849
 31
0.0
  0
LINE
  5
68D1
330
A
100
AcDbEntity
  8
0
100
AcDbLine
 10
1293.774489822111
 20
280.1908882905849
 30
0.0
 11
1293.774489822111
 21
291.1908882905849
 31
0.0
  0
LINE
  5
68D2
330
A
100
AcDbEntity
  8
0
100
AcDbLine
 10
1293.774489822111
 20
291.1908882905849
 30
0.0
 11
1296.774489822112
 21
291.1908882905849
 31
0.0
  0
LINE
  5
68D3
330
A
100
AcDbEntity
  8
0
100
AcDbLine
 10
1296.774489822112
 20
291.1908882905849
 30
0.0
 11
1296.774489822112
 21
297.1908882905849
 31
0.0
  0
LINE
  5
68D4
330
A
100
AcDbEntity
  8
0
100
AcDbLine
 10
1296.774489822112
 20
297.1908882905849
 30
0.0
 11
1293.774489822111
 21
297.1908882905849
 31
0.0
  0
LINE
  5
68D5
330
A
100
AcDbEntity
  8
0
100
AcDbLine
 10
1293.774489822111
 20
297.1908882905849
 30
0.0
 11
1293.774489822111
 21
308.190888290585
 31
0.0
  0
LINE
  5
68D6
330
A
100
AcDbEntity
  8
0
100
AcDbLine
 10
1304.774489822112
 20
280.1908882905849
 30
0.0
 11
1293.774489822111
 21
280.1908882905849
 31
0.0
  0
LINE
  5
68D7
330
A
100
AcDbEntity
  8
0
100
AcDbLine
 10
1293.774489822111
 20
308.190888290585
 30
0.0
 11
1297.774489822111
 21
308.1908882905849
 31
0.0
  0
LINE
  5
68D8
330
A
100
AcDbEntity
  8
0
100
AcDbLine
 10
1314.774489822111
 20
373.9325580413864
 30
0.0
 11
1304.774489822111
 21
373.9325580413864
 31
0.0
  0
LINE
  5
68D9
330
A
100
AcDbEntity
  8
0
100
AcDbLine
 10
1304.774489822111
 20
373.9325580413864
 30
0.0
 11
1304.774489822111
 21
379.9947358678776
 31
0.0
  0
LINE
  5
68DA
330
A
100
AcDbEntity
  8
0
100
AcDbLine
 10
1304.774489822111
 20
379.9947358678776
 30
0.0
 11
1293.774489822111
 21
379.9947358678776
 31
0.0
  0
LINE
  5
68DB
330
A
100
AcDbEntity
  8
0
100
AcDbLine
 10
1293.774489822111
 20
379.9947358678776
 30
0.0
 11
1293.774489822111
 21
390.387040713291
 31
0.0
  0
LINE
  5
68DC
330
A
100
AcDbEntity
  8
0
100
AcDbLine
 10
1304.774489822111
 20
390.387040713291
 30
0.0
 11
1293.774489822111
 21
390.387040713291
 31
0.0
  0
LINE
  5
68DD
330
A
100
AcDbEntity
  8
0
100
AcDbLine
 10
1304.774489822111
 20
390.387040713291
 30
0.0
 11
1304.774489822111
 21
396.4492185397821
 31
0.0
  0
LINE
  5
68DE
330
A
100
AcDbEntity
  8
0
100
AcDbLine
 10
1314.774489822111
 20
396.4492185397821
 30
0.0
 11
1304.774489822111
 21
396.4492185397821
 31
0.0
  0
LINE
  5
68DF
330
A
100
AcDbEntity
  8
0
100
AcDbLine
 10
1314.774489822111
 20
391.2530661170755
 30
0.0
 11
1314.774489822111
 21
396.4492185397821
 31
0.0
  0
LINE
  5
68E0
330
A
100
AcDbEntity
  8
0
100
AcDbLine
 10
1324.274489822111
 20
391.2530661170755
 30
0.0
 11
1314.774489822111
 21
391.2530661170755
 31
0.0
  0
LINE
  5
68E1
330
A
100
AcDbEntity
  8
0
100
AcDbLine
 10
1324.274489822111
 20
379.1287104640933
 30
0.0
 11
1324.274489822111
 21
391.2530661170755
 31
0.0
  0
LINE
  5
68E2
330
A
100
AcDbEntity
  8
0
100
AcDbLine
 10
1314.774489822111
 20
379.1287104640933
 30
0.0
 11
1324.274489822111
 21
379.1287104640933
 31
0.0
  0
LINE
  5
68E3
330
A
100
AcDbEntity
  8
0
100
AcDbLine
 10
1314.774489822111
 20
373.9325580413864
 30
0.0
 11
1314.774489822111
 21
379.1287104640933
 31
0.0
  0
LINE
  5
68E4
330
A
100
AcDbEntity
  8
0
100
AcDbLine
 10
1304.774489822111
 20
373.9325580413864
 30
0.0
 11
1304.774489822111
 21
368.2199273326016
 31
0.0
  0
LINE
  5
68E5
330
A
100
AcDbEntity
  8
0
100
AcDbLine
 10
1314.774489822111
 20
368.2199273326016
 30
0.0
 11
1314.774489822111
 21
373.9325580413864
 31
0.0
  0
LINE
  5
68E6
330
A
100
AcDbEntity
  8
0
100
AcDbLine
 10
1324.274489822111
 20
373.9238442949725
 30
0.0
 11
1324.274489822111
 21
379.1287104640933
 31
0.0
  0
LINE
  5
68E7
330
A
100
AcDbEntity
  8
0
100
AcDbLine
 10
1293.774489822111
 20
371.4947358678778
 30
0.0
 11
1293.774489822111
 21
365.9947358678779
 31
0.0
  0
LINE
  5
68E8
330
A
100
AcDbEntity
  8
0
100
AcDbLine
 10
1296.774489822111
 20
371.4947358678778
 30
0.0
 11
1293.774489822111
 21
371.4947358678778
 31
0.0
  0
LINE
  5
68E9
330
A
100
AcDbEntity
  8
0
100
AcDbLine
 10
1296.774489822111
 20
374.4947358678778
 30
0.0
 11
1296.774489822111
 21
371.4947358678778
 31
0.0
  0
LINE
  5
68EA
330
A
100
AcDbEntity
  8
0
100
AcDbLine
 10
1293.774489822111
 20
374.4947358678778
 30
0.0
 11
1296.774489822111
 21
374.4947358678778
 31
0.0
  0
LINE
  5
68EB
330
A
100
AcDbEntity
  8
0
100
AcDbLine
 10
1293.774489822111
 20
379.9947358678776
 30
0.0
 11
1293.774489822111
 21
374.4947358678778
 31
0.0
  0
LINE
  5
68EC
330
A
100
AcDbEntity
  8
0
100
AcDbLine
 10
1293.774489822111
 20
365.9947358678779
 30
0.0
 11
1297.774489822112
 21
365.9947358678779
 31
0.0
  0
LINE
  5
68ED
330
A
100
AcDbEntity
  8
0
100
AcDbLine
 10
1293.774489822111
 20
371.4947358678778
 30
0.0
 11
1293.774489822111
 21
374.4947358678787
 31
0.0
  0
ARC
  5
68EE
330
A
100
AcDbEntity
  8
0
100
AcDbCircle
 10
1502.811381916798
 20
350.190888290585
 30
0.0
 40
43.0000000000001
100
AcDbArc
 50
233.3330294939405
 51
306.6669705060594
  0
LINE
  5
68EF
330
A
100
AcDbEntity
  8
0
100
AcDbLine
 10
1477.133379566667
 20
315.6997271720222
 30
0.0
 11
1479.076602922338
 21
318.0155705873567
 31
0.0
  0
LINE
  5
68F0
330
A
100
AcDbEntity
  8
0
100
AcDbLine
 10
1479.076602922338
 20
318.0155705873567
 30
0.0
 11
1479.872613552161
 21
317.8752124363884
 31
0.0
  0
LINE
  5
68F1
330
A
100
AcDbEntity
  8
0
100
AcDbLine
 10
1479.872613552161
 20
317.8752124363884
 30
0.0
 11
1482.250927708001
 21
320.7095768759286
 31
0.0
  0
LINE
  5
68F2
330
A
100
AcDbEntity
  8
0
100
AcDbLine
 10
1482.250927708001
 20
320.7095768759286
 30
0.0
 11
1477.34824327204
 21
324.8234175779223
 31
0.0
  0
LINE
  5
68F3
330
A
100
AcDbEntity
  8
0
100
AcDbLine
 10
1477.34824327204
 20
324.8234175779223
 30
0.0
 11
1474.969929116199
 21
321.9890531383821
 31
0.0
  0
LINE
  5
68F4
330
A
100
AcDbEntity
  8
0
100
AcDbLine
 10
1474.969929116199
 20
321.9890531383821
 30
0.0
 11
1475.246380706744
 21
321.2295086357894
 31
0.0
  0
LINE
  5
68F5
330
A
100
AcDbEntity
  8
0
100
AcDbLine
 10
1475.246380706744
 20
321.2295086357894
 30
0.0
 11
1473.303157351072
 21
318.9136652204549
 31
0.0
  0
ARC
  5
68F6
330
A
100
AcDbEntity
  8
0
100
AcDbCircle
 10
1502.811381916798
 20
350.190888290585
 30
0.0
 40
42.99999999999996
100
AcDbArc
 50
193.3330294939446
 51
226.6669705060579
  0
LINE
  5
68F7
330
A
100
AcDbEntity
  8
0
100
AcDbLine
 10
1460.97039989537
 20
340.2746277311548
 30
0.0
 11
1463.947590802073
 21
340.7995868147264
 31
0.0
  0
LINE
  5
68F8
330
A
100
AcDbEntity
  8
0
100
AcDbLine
 10
1463.947590802073
 20
340.7995868147264
 30
0.0
 11
1464.46714984135
 21
340.1804004631021
 31
0.0
  0
LINE
  5
68F9
330
A
100
AcDbEntity
  8
0
100
AcDbLine
 10
1464.46714984135
 20
340.1804004631021
 30
0.0
 11
1468.110938527496
 21
340.8228987204698
 31
0.0
  0
LINE
  5
68FA
330
A
100
AcDbEntity
  8
0
100
AcDbLine
 10
1468.110938527496
 20
340.8228987204698
 30
0.0
 11
1466.999590190427
 21
347.1256683397478
 31
0.0
  0
LINE
  5
68FB
330
A
100
AcDbEntity
  8
0
100
AcDbLine
 10
1466.999590190427
 20
347.1256683397478
 30
0.0
 11
1463.355801504282
 21
346.4831700823802
 31
0.0
  0
LINE
  5
68FC
330
A
100
AcDbEntity
  8
0
100
AcDbLine
 10
1463.355801504282
 20
346.4831700823802
 30
0.0
 11
1463.079349913738
 21
345.7236255797874
 31
0.0
  0
LINE
  5
68FD
330
A
100
AcDbEntity
  8
0
100
AcDbLine
 10
1463.079349913738
 20
345.7236255797874
 30
0.0
 11
1460.102159007035
 21
345.198666496216
 31
0.0
  0
ARC
  5
68FE
330
A
100
AcDbEntity
  8
0
100
AcDbCircle
 10
1502.811381916798
 20
350.190888290585
 30
0.0
 40
43.00000000000003
100
AcDbArc
 50
353.3330294939444
 51
186.6669705060587
  0
LINE
  5
68FF
330
A
100
AcDbEntity
  8
0
100
AcDbLine
 10
1542.543413919859
 20
345.7236255797874
 30
0.0
 11
1545.520604826562
 21
345.198666496216
 31
0.0
  0
LINE
  5
6900
330
A
100
AcDbEntity
  8
0
100
AcDbLine
 10
1542.266962329315
 20
346.4831700823802
 30
0.0
 11
1542.543413919859
 21
345.7236255797874
 31
0.0
  0
LINE
  5
6901
330
A
100
AcDbEntity
  8
0
100
AcDbLine
 10
1538.623173643169
 20
347.1256683397478
 30
0.0
 11
1542.266962329315
 21
346.4831700823802
 31
0.0
  0
LINE
  5
6902
330
A
100
AcDbEntity
  8
0
100
AcDbLine
 10
1537.511825306101
 20
340.8228987204698
 30
0.0
 11
1538.623173643169
 21
347.1256683397478
 31
0.0
  0
LINE
  5
6903
330
A
100
AcDbEntity
  8
0
100
AcDbLine
 10
1541.155613992247
 20
340.1804004631021
 30
0.0
 11
1537.511825306101
 21
340.8228987204698
 31
0.0
  0
LINE
  5
6904
330
A
100
AcDbEntity
  8
0
100
AcDbLine
 10
1541.675173031524
 20
340.7995868147264
 30
0.0
 11
1541.155613992247
 21
340.1804004631021
 31
0.0
  0
LINE
  5
6905
330
A
100
AcDbEntity
  8
0
100
AcDbLine
 10
1544.652363938227
 20
340.2746277311548
 30
0.0
 11
1541.675173031524
 21
340.7995868147264
 31
0.0
  0
ARC
  5
6906
330
A
100
AcDbEntity
  8
0
100
AcDbCircle
 10
1502.811381916798
 20
350.190888290585
 30
0.0
 40
43.00000000000003
100
AcDbArc
 50
313.3330294939421
 51
346.6669705060585
  0
LINE
  5
6907
330
A
100
AcDbEntity
  8
0
100
AcDbLine
 10
1530.376383126853
 20
321.2295086357894
 30
0.0
 11
1532.319606482525
 21
318.9136652204549
 31
0.0
  0
LINE
  5
6908
330
A
100
AcDbEntity
  8
0
100
AcDbLine
 10
1530.652834717398
 20
321.9890531383821
 30
0.0
 11
1530.376383126853
 21
321.2295086357894
 31
0.0
  0
LINE
  5
6909
330
A
100
AcDbEntity
  8
0
100
AcDbLine
 10
1528.274520561557
 20
324.8234175779223
 30
0.0
 11
1530.652834717398
 21
321.9890531383821
 31
0.0
  0
LINE
  5
690A
330
A
100
AcDbEntity
  8
0
100
AcDbLine
 10
1523.371836125596
 20
320.7095768759286
 30
0.0
 11
1528.274520561557
 21
324.8234175779223
 31
0.0
  0
LINE
  5
690B
330
A
100
AcDbEntity
  8
0
100
AcDbLine
 10
1525.750150281436
 20
317.8752124363884
 30
0.0
 11
1523.371836125596
 21
320.7095768759286
 31
0.0
  0
LINE
  5
690C
330
A
100
AcDbEntity
  8
0
100
AcDbLine
 10
1526.546160911258
 20
318.0155705873567
 30
0.0
 11
1525.750150281436
 21
317.8752124363884
 31
0.0
  0
LINE
  5
690D
330
A
100
AcDbEntity
  8
0
100
AcDbLine
 10
1528.489384266929
 20
315.6997271720222
 30
0.0
 11
1526.546160911258
 21
318.0155705873567
 31
0.0
  0
CIRCLE
  5
690E
330
A
100
AcDbEntity
  8
0
100
AcDbCircle
 10
1502.811381916798
 20
350.190888290585
 30
0.0
 40
32.5
  0
CIRCLE
  5
690F
330
A
100
AcDbEntity
  8
0
100
AcDbCircle
 10
1502.811381916798
 20
388.1908882905849
 30
0.0
 40
3.300000000000068
  0
ARC
  5
6910
330
A
100
AcDbEntity
  8
DIM
100
AcDbCircle
 10
1502.811381916798
 20
312.1908882905849
 30
0.0
 40
3.000000000000113
100
AcDbArc
 50
89.99999999998697
 51
2.26226326578987
  0
CIRCLE
  5
6911
330
A
100
AcDbEntity
  8
0
100
AcDbCircle
 10
1469.902416572989
 20
331.1908882905848
 30
0.0
 40
3.300000000000001
  0
CIRCLE
  5
6912
330
A
100
AcDbEntity
  8
0
100
AcDbCircle
 10
1535.720347260607
 20
331.1908882905852
 30
0.0
 40
3.299999999999993
  0
CIRCLE
  5
6913
330
A
100
AcDbEntity
  8
0
100
AcDbCircle
 10
1488.269411486925
 20
385.2983105260138
 30
0.0
 40
2.5
  0
ARC
  5
6914
330
A
100
AcDbEntity
  8
0
100
AcDbCircle
 10
1517.736035779036
 20
314.1595865226448
 30
0.0
 40
2.500000000000076
100
AcDbArc
 50
202.4999999999972
 51
22.50000000000826
  0
LINE
  5
6915
330
A
100
AcDbEntity
  8
0
100
AcDbLine
 10
1520.045734610315
 20
315.1162951035575
 30
0.0
 11
1519.280367745585
 21
316.9640541685801
 31
0.0
  0
ARC
  5
6916
330
A
100
AcDbEntity
  8
0
100
AcDbCircle
 10
1516.970668914306
 20
316.0073455876672
 30
0.0
 40
2.500000000000076
100
AcDbArc
 50
22.50000000000826
 51
202.4999999999972
  0
LINE
  5
6917
330
A
100
AcDbEntity
  8
0
100
AcDbLine
 10
1514.660970083028
 20
315.0506370067546
 30
0.0
 11
1515.426336947759
 21
313.202877941732
 31
0.0
  0
ARC
  5
6918
330
A
100
AcDbEntity
  8
0
100
AcDbCircle
 10
1502.811381916799
 20
350.190888290585
 30
0.0
 40
43.30000000000009
100
AcDbArc
 50
180.4907715947453
 51
186.6900889020656
  0
ARC
  5
6919
330
A
100
AcDbEntity
  8
0
100
AcDbCircle
 10
1455.513117086924
 20
349.7857413012138
 30
0.0
 40
4.000000000000031
100
AcDbArc
 50
0.4907715949211641
 51
59.99999999999946
  0
LINE
  5
691A
330
A
100
AcDbEntity
  8
0
100
AcDbLine
 10
1457.513117086924
 20
353.2498429163514
 30
0.0
 11
1443.821587061135
 21
361.1546514623584
 31
0.0
  0
ARC
  5
691B
330
A
100
AcDbEntity
  8
0
100
AcDbCircle
 10
1502.811381916799
 20
350.190888290585
 30
0.0
 40
60.0
100
AcDbArc
 50
130.5287793655114
 51
169.4712206344896
  0
LINE
  5
691C
330
A
100
AcDbEntity
  8
0
100
AcDbLine
 10
1463.821587061136
 20
395.7956676137359
 30
0.0
 11
1477.513117086924
 21
387.8908590677289
 31
0.0
  0
ARC
  5
691D
330
A
100
AcDbEntity
  8
0
100
AcDbCircle
 10
1479.513117086924
 20
391.3549606828666
 30
0.0
 40
3.999999999999998
100
AcDbArc
 50
239.9999999999995
 51
299.5092284052535
  0
ARC
  5
691E
330
A
100
AcDbEntity
  8
0
100
AcDbCircle
 10
1502.811381916799
 20
350.190888290585
 30
0.0
 40
43.3
100
AcDbArc
 50
60.49077159474652
 51
119.5092284052535
  0
ARC
  5
691F
330
A
100
AcDbEntity
  8
0
100
AcDbCircle
 10
1526.109646746674
 20
391.3549606828666
 30
0.0
 40
3.999999999999998
100
AcDbArc
 50
240.4907715947465
 51
300.0000000000005
  0
LINE
  5
6920
330
A
100
AcDbEntity
  8
0
100
AcDbLine
 10
1528.109646746674
 20
387.8908590677289
 30
0.0
 11
1541.801176772462
 21
395.7956676137359
 31
0.0
  0
ARC
  5
6921
330
A
100
AcDbEntity
  8
0
100
AcDbCircle
 10
1502.811381916799
 20
350.190888290585
 30
0.0
 40
60.0
100
AcDbArc
 50
10.52877936551035
 51
49.47122063448855
  0
LINE
  5
6922
330
A
100
AcDbEntity
  8
0
100
AcDbLine
 10
1561.801176772462
 20
361.1546514623584
 30
0.0
 11
1548.109646746674
 21
353.2498429163514
 31
0.0
  0
ARC
  5
6923
330
A
100
AcDbEntity
  8
0
100
AcDbCircle
 10
1550.109646746674
 20
349.7857413012138
 30
0.0
 40
4.000000000000039
100
AcDbArc
 50
120.0000000000005
 51
179.5092284052547
  0
ARC
  5
6924
330
A
100
AcDbEntity
  8
0
100
AcDbCircle
 10
1502.811381916799
 20
350.190888290585
 30
0.0
 40
43.29999999999998
100
AcDbArc
 50
353.3099110979376
 51
359.5092284052547
  0
LINE
  5
6925
330
A
100
AcDbEntity
  8
0
100
AcDbLine
 10
1459.806219560874
 20
345.1464843872015
 30
0.0
 11
1460.102159007036
 21
345.1986664962159
 31
0.0
  0
LINE
  5
6926
330
A
100
AcDbEntity
  8
0
100
AcDbLine
 10
1545.816544272725
 20
345.1464843872015
 30
0.0
 11
1545.520604826562
 21
345.1986664962159
 31
0.0
  0
ARC
  5
6927
330
A
100
AcDbEntity
  8
0
100
AcDbCircle
 10
1502.811381916799
 20
350.190888290585
 30
0.0
 40
43.30000000000001
100
AcDbArc
 50
313.3099110979332
 51
346.6900889020625
  0
LINE
  5
6928
330
A
100
AcDbEntity
  8
0
100
AcDbLine
 10
1532.512767237636
 20
318.6834651966033
 30
0.0
 11
1532.319606482525
 21
318.9136652204549
 31
0.0
  0
LINE
  5
6929
330
A
100
AcDbEntity
  8
0
100
AcDbLine
 10
1544.652363938227
 20
340.2746277311548
 30
0.0
 11
1544.94830338439
 21
340.2224456221405
 31
0.0
  0
ARC
  5
692A
330
A
100
AcDbEntity
  8
0
100
AcDbCircle
 10
1526.811381916799
 20
309.4319628876747
 30
0.0
 40
4.00000000000002
100
AcDbArc
 50
120.4907715947456
 51
180.0
  0
LINE
  5
692B
330
A
100
AcDbEntity
  8
0
100
AcDbLine
 10
1522.811381916799
 20
309.4319628876747
 30
0.0
 11
1522.811381916799
 21
293.6223457956611
 31
0.0
  0
ARC
  5
692C
330
A
100
AcDbEntity
  8
0
100
AcDbCircle
 10
1502.811381916799
 20
350.190888290585
 30
0.0
 40
60.0
100
AcDbArc
 50
250.5287793655132
 51
289.4712206344868
  0
LINE
  5
692D
330
A
100
AcDbEntity
  8
0
100
AcDbLine
 10
1482.811381916799
 20
293.6223457956611
 30
0.0
 11
1482.811381916799
 21
309.4319628876747
 31
0.0
  0
ARC
  5
692E
330
A
100
AcDbEntity
  8
0
100
AcDbCircle
 10
1478.811381916799
 20
309.4319628876747
 30
0.0
 40
4.0
100
AcDbArc
 50
0.0
 51
59.50922840525437
  0
ARC
  5
692F
330
A
100
AcDbEntity
  8
0
100
AcDbCircle
 10
1502.811381916799
 20
350.190888290585
 30
0.0
 40
43.30000000000004
100
AcDbArc
 50
233.3099110979393
 51
239.5092284052544
  0
ARC
  5
6930
330
A
100
AcDbEntity
  8
0
100
AcDbCircle
 10
1502.811381916799
 20
350.190888290585
 30
0.0
 40
43.29999999999998
100
AcDbArc
 50
300.4907715947457
 51
306.6900889020607
  0
LINE
  5
6931
330
A
100
AcDbEntity
  8
0
100
AcDbLine
 10
1477.133379566668
 20
315.6997271720222
 30
0.0
 11
1476.940218811557
 21
315.4695271481706
 31
0.0
  0
LINE
  5
6932
330
A
100
AcDbEntity
  8
0
100
AcDbLine
 10
1528.48938426693
 20
315.6997271720222
 30
0.0
 11
1528.682545022041
 21
315.4695271481706
 31
0.0
  0
ARC
  5
6933
330
A
100
AcDbEntity
  8
0
100
AcDbCircle
 10
1502.811381916799
 20
350.190888290585
 30
0.0
 40
43.30000000000001
100
AcDbArc
 50
193.3099110979375
 51
226.6900889020668
  0
LINE
  5
6934
330
A
100
AcDbEntity
  8
0
100
AcDbLine
 10
1460.97039989537
 20
340.2746277311548
 30
0.0
 11
1460.674460449208
 21
340.2224456221405
 31
0.0
  0
LINE
  5
6935
330
A
100
AcDbEntity
  8
0
100
AcDbLine
 10
1473.109996595962
 20
318.6834651966033
 30
0.0
 11
1473.303157351073
 21
318.9136652204549
 31
0.0
  0
LINE
  5
6936
330
A
100
AcDbEntity
  8
0
100
AcDbLine
 10
1495.811381916799
 20
290.6006206288266
 30
0.0
 11
1495.811381916799
 21
280.1908882905849
 31
0.0
  0
LINE
  5
6937
330
A
100
AcDbEntity
  8
0
100
AcDbLine
 10
1509.811381916799
 20
290.6006206288266
 30
0.0
 11
1509.811381916799
 21
280.1908882905849
 31
0.0
  0
LINE
  5
6938
330
A
100
AcDbEntity
  8
0
100
AcDbLine
 10
1509.811381916799
 20
280.1908882905849
 30
0.0
 11
1495.811381916799
 21
280.1908882905849
 31
0.0
  0
LINE
  5
6939
330
A
100
AcDbEntity
  8
0
100
AcDbLine
 10
1515.811381916799
 20
291.616149708155
 30
0.0
 11
1515.811381916799
 21
280.1908882905849
 31
0.0
  0
LINE
  5
693A
330
A
100
AcDbEntity
  8
0
100
AcDbLine
 10
1515.811381916799
 20
280.1908882905849
 30
0.0
 11
1509.811381916799
 21
280.1908882905849
 31
0.0
  0
LINE
  5
693B
330
A
100
AcDbEntity
  8
0
100
AcDbLine
 10
1489.811381916799
 20
291.616149708155
 30
0.0
 11
1489.811381916799
 21
280.1908882905849
 31
0.0
  0
LINE
  5
693C
330
A
100
AcDbEntity
  8
0
100
AcDbLine
 10
1495.811381916799
 20
280.1908882905849
 30
0.0
 11
1489.811381916799
 21
280.1908882905849
 31
0.0
  0
LINE
  5
693D
330
A
100
AcDbEntity
  8
0
100
AcDbLine
 10
1454.704696303402
 20
386.0481999479547
 30
0.0
 11
1445.689603651888
 21
391.2530661170755
 31
0.0
  0
LINE
  5
693E
330
A
100
AcDbEntity
  8
0
100
AcDbLine
 10
1447.704696303402
 20
373.9238442949723
 30
0.0
 11
1438.689603651888
 21
379.1287104640933
 31
0.0
  0
LINE
  5
693F
330
A
100
AcDbEntity
  8
0
100
AcDbLine
 10
1438.689603651888
 20
379.1287104640933
 30
0.0
 11
1445.689603651888
 21
391.2530661170755
 31
0.0
  0
LINE
  5
6940
330
A
100
AcDbEntity
  8
0
100
AcDbLine
 10
1458.584170284382
 20
390.7365878309971
 30
0.0
 11
1448.689603651888
 21
396.4492185397821
 31
0.0
  0
LINE
  5
6941
330
A
100
AcDbEntity
  8
0
100
AcDbLine
 10
1445.689603651888
 20
391.2530661170755
 30
0.0
 11
1448.689603651888
 21
396.4492185397821
 31
0.0
  0
LINE
  5
6942
330
A
100
AcDbEntity
  8
0
100
AcDbLine
 10
1445.584170284383
 20
368.2199273326015
 30
0.0
 11
1435.689603651888
 21
373.9325580413864
 31
0.0
  0
LINE
  5
6943
330
A
100
AcDbEntity
  8
0
100
AcDbLine
 10
1435.689603651888
 20
373.9325580413864
 30
0.0
 11
1438.689603651888
 21
379.1287104640933
 31
0.0
  0
LINE
  5
6944
330
A
100
AcDbEntity
  8
0
100
AcDbLine
 10
1557.918067530196
 20
373.9238442949735
 30
0.0
 11
1566.93316018171
 21
379.1287104640941
 31
0.0
  0
LINE
  5
6945
330
A
100
AcDbEntity
  8
0
100
AcDbLine
 10
1550.918067530196
 20
386.0481999479555
 30
0.0
 11
1559.93316018171
 21
391.2530661170763
 31
0.0
  0
LINE
  5
6946
330
A
100
AcDbEntity
  8
0
100
AcDbLine
 10
1559.93316018171
 20
391.2530661170763
 30
0.0
 11
1566.93316018171
 21
379.1287104640941
 31
0.0
  0
LINE
  5
6947
330
A
100
AcDbEntity
  8
0
100
AcDbLine
 10
1560.038593549216
 20
368.2199273326024
 30
0.0
 11
1569.93316018171
 21
373.9325580413876
 31
0.0
  0
LINE
  5
6948
330
A
100
AcDbEntity
  8
0
100
AcDbLine
 10
1566.93316018171
 20
379.1287104640941
 30
0.0
 11
1569.93316018171
 21
373.9325580413876
 31
0.0
  0
LINE
  5
6949
330
A
100
AcDbEntity
  8
0
100
AcDbLine
 10
1547.038593549216
 20
390.7365878309978
 30
0.0
 11
1556.93316018171
 21
396.4492185397829
 31
0.0
  0
LINE
  5
694A
330
A
100
AcDbEntity
  8
0
100
AcDbLine
 10
1556.93316018171
 20
396.4492185397829
 30
0.0
 11
1559.93316018171
 21
391.2530661170763
 31
0.0
  0
LINE
  5
694B
330
A
100
AcDbEntity
  8
CENTER
100
AcDbLine
 10
1446.91593880477
 20
350.190888290585
 30
0.0
 11
1558.706825028826
 21
350.190888290585
 31
0.0
  0
LINE
  5
694C
330
A
100
AcDbEntity
  8
CENTER
100
AcDbLine
 10
1502.811381916799
 20
276.0212159307601
 30
0.0
 11
1502.811381916799
 21
401.7859629328238
 31
0.0
  0
CIRCLE
  5
694D
330
A
100
AcDbEntity
  8
CENTER
100
AcDbCircle
 10
1502.811381916799
 20
350.190888290585
 30
0.0
 40
38.00000000000006
  0
CIRCLE
  5
694E
330
A
100
AcDbEntity
  8
0
100
AcDbCircle
 10
1502.811381916799
 20
312.1908882905848
 30
0.0
 40
2.5
  0
ARC
  5
694F
330
A
100
AcDbEntity
  8
DIM
100
AcDbCircle
 10
1535.720347260608
 20
369.1908882905847
 30
0.0
 40
3.000000000000113
100
AcDbArc
 50
209.9999999999917
 51
122.2622632657868
  0
CIRCLE
  5
6950
330
A
100
AcDbEntity
  8
0
100
AcDbCircle
 10
1535.720347260608
 20
369.1908882905851
 30
0.0
 40
2.5
  0
ARC
  5
6951
330
A
100
AcDbEntity
  8
DIM
100
AcDbCircle
 10
1469.902416572991
 20
369.1908882905853
 30
0.0
 40
3.000000000000113
100
AcDbArc
 50
329.9999999999906
 51
242.2622632657954
  0
CIRCLE
  5
6952
330
A
100
AcDbEntity
  8
0
100
AcDbCircle
 10
1469.902416572991
 20
369.1908882905849
 30
0.0
 40
2.5
  0
LINE
  5
6953
330
A
100
AcDbEntity
  8
CENTER
100
AcDbLine
 10
1172.307052199931
 20
275.1037334170676
 30
0.0
 11
1172.307052199931
 21
407.045881158502
 31
0.0
  0
LINE
  5
6954
330
A
100
AcDbEntity
  8
CENTER
100
AcDbLine
 10
1116.411609087903
 20
350.190888290585
 30
0.0
 11
1228.20249531196
 21
350.190888290585
 31
0.0
  0
CIRCLE
  5
6955
330
A
100
AcDbEntity
  8
CENTER
100
AcDbCircle
 10
1172.307052199931
 20
350.190888290585
 30
0.0
 40
38.00000000000006
  0
LINE
  5
6956
330
A
100
AcDbEntity
  8
CENTER
100
AcDbLine
 10
1281.830117796543
 20
350.190888290585
 30
0.0
 11
1393.621004020599
 21
350.190888290585
 31
0.0
  0
LINE
  5
6957
330
A
100
AcDbEntity
  8
CENTER
100
AcDbLine
 10
1283.418125837213
 20
506.6437516071915
 30
0.0
 11
1390.735201934702
 21
506.6437516071915
 31
0.0
  0
CIRCLE
  5
6958
330
A
100
AcDbEntity
  8
0
100
AcDbCircle
 10
1172.307052199931
 20
302.690888290585
 30
0.0
 40
2.1
  0
CIRCLE
  5
6959
330
A
100
AcDbEntity
  8
0
100
AcDbCircle
 10
1172.307052199931
 20
285.690888290585
 30
0.0
 40
2.1
  0
LINE
  5
695A
330
A
100
AcDbEntity
  8
CENTER
100
AcDbLine
 10
1172.217052199931
 20
302.690888290585
 30
0.0
 11
1172.397052199931
 21
302.690888290585
 31
0.0
  0
LINE
  5
695B
330
A
100
AcDbEntity
  8
CENTER
100
AcDbLine
 10
1172.307052199931
 20
302.600888290585
 30
0.0
 11
1172.307052199931
 21
302.7808882905849
 31
0.0
  0
LINE
  5
695C
330
A
100
AcDbEntity
  8
CENTER
100
AcDbLine
 10
1172.217052199931
 20
285.690888290585
 30
0.0
 11
1172.397052199931
 21
285.690888290585
 31
0.0
  0
LINE
  5
695D
330
A
100
AcDbEntity
  8
CENTER
100
AcDbLine
 10
1172.307052199931
 20
285.600888290585
 30
0.0
 11
1172.307052199931
 21
285.7808882905849
 31
0.0
  0
ARC
  5
695E
330
A
100
AcDbEntity
  8
DIM
100
AcDbCircle
 10
1228.165690744028
 20
382.4408882905849
 30
0.0
 40
2.5
100
AcDbArc
 50
209.9999999999973
 51
120.0000000000005
  0
LINE
  5
695F
330
A
100
AcDbEntity
  8
CENTER
100
AcDbLine
 10
1228.243633030368
 20
382.485888290585
 30
0.0
 11
1228.087748457687
 21
382.3958882905849
 31
0.0
  0
LINE
  5
6960
330
A
100
AcDbEntity
  8
CENTER
100
AcDbLine
 10
1228.210690744027
 20
382.3629460042442
 30
0.0
 11
1228.120690744028
 21
382.5188305769255
 31
0.0
  0
CIRCLE
  5
6961
330
A
100
AcDbEntity
  8
0
100
AcDbCircle
 10
1228.165690744028
 20
382.4408882905849
 30
0.0
 40
2.1
  0
ARC
  5
6962
330
A
100
AcDbEntity
  8
DIM
100
AcDbCircle
 10
1213.443258879692
 20
373.9408882905849
 30
0.0
 40
2.5
100
AcDbArc
 50
209.9999999999973
 51
120.0000000000005
  0
LINE
  5
6963
330
A
100
AcDbEntity
  8
CENTER
100
AcDbLine
 10
1213.521201166033
 20
373.9858882905847
 30
0.0
 11
1213.365316593351
 21
373.8958882905849
 31
0.0
  0
LINE
  5
6964
330
A
100
AcDbEntity
  8
CENTER
100
AcDbLine
 10
1213.488258879692
 20
373.8629460042442
 30
0.0
 11
1213.398258879692
 21
374.0188305769255
 31
0.0
  0
CIRCLE
  5
6965
330
A
100
AcDbEntity
  8
0
100
AcDbCircle
 10
1213.443258879692
 20
373.9408882905849
 30
0.0
 40
2.1
  0
ARC
  5
6966
330
A
100
AcDbEntity
  8
DIM
100
AcDbCircle
 10
1116.448413655835
 20
382.4408882905851
 30
0.0
 40
2.5
100
AcDbArc
 50
330.0000000000027
 51
239.9999999999995
  0
LINE
  5
6967
330
A
100
AcDbEntity
  8
CENTER
100
AcDbLine
 10
1116.370471369494
 20
382.4858882905851
 30
0.0
 11
1116.526355942175
 21
382.3958882905852
 31
0.0
  0
LINE
  5
6968
330
A
100
AcDbEntity
  8
CENTER
100
AcDbLine
 10
1116.493413655835
 20
382.5188305769258
 30
0.0
 11
1116.403413655834
 21
382.3629460042445
 31
0.0
  0
CIRCLE
  5
6969
330
A
100
AcDbEntity
  8
0
100
AcDbCircle
 10
1116.448413655835
 20
382.4408882905851
 30
0.0
 40
2.1
  0
ARC
  5
696A
330
A
100
AcDbEntity
  8
DIM
100
AcDbCircle
 10
1131.17084552017
 20
373.9408882905851
 30
0.0
 40
2.5
100
AcDbArc
 50
330.0000000000027
 51
239.9999999999995
  0
LINE
  5
696B
330
A
100
AcDbEntity
  8
CENTER
100
AcDbLine
 10
1131.092903233829
 20
373.9858882905851
 30
0.0
 11
1131.248787806511
 21
373.8958882905853
 31
0.0
  0
LINE
  5
696C
330
A
100
AcDbEntity
  8
CENTER
100
AcDbLine
 10
1131.21584552017
 20
374.0188305769255
 30
0.0
 11
1131.12584552017
 21
373.8629460042445
 31
0.0
  0
CIRCLE
  5
696D
330
A
100
AcDbEntity
  8
0
100
AcDbCircle
 10
1131.17084552017
 20
373.9408882905851
 30
0.0
 40
2.1
  0
LINE
  5
696E
330
A
100
AcDbEntity
  8
0
  6
Continuous
 62
     7
370
    15
100
AcDbLine
 10
1382.774489822111
 20
463.643751607192
 30
0.0
 11
1382.774489822112
 21
549.643751607192
 31
0.0
  0
LINE
  5
696F
330
A
100
AcDbEntity
  8
0
  6
Continuous
 62
     7
370
    15
100
AcDbLine
 10
1314.774489822111
 20
501.1437516071922
 30
0.0
 11
1314.774489822111
 21
512.1437516071922
 31
0.0
  0
LINE
  5
6970
330
A
100
AcDbEntity
  8
0
  6
Continuous
 62
     7
370
    15
100
AcDbLine
 10
1297.774489822111
 20
512.1437516071922
 30
0.0
 11
1297.774489822111
 21
501.1437516071922
 31
0.0
  0
LINE
  5
6971
330
A
100
AcDbEntity
  8
0
  6
Continuous
 62
     7
370
    15
100
AcDbLine
 10
1293.774489822112
 20
512.6437516071924
 30
0.0
 11
1293.774489822111
 21
500.6437516071924
 31
0.0
  0
LINE
  5
6972
330
A
100
AcDbEntity
  8
0
  6
Continuous
 62
     7
370
    15
100
AcDbLine
 10
1331.774489822111
 20
485.315741731218
 30
0.0
 11
1331.774489822112
 21
527.9717614831664
 31
0.0
  0
LINE
  5
6973
330
A
100
AcDbEntity
  8
0
  6
Continuous
 62
     7
370
    15
100
AcDbLine
 10
1331.774489822112
 20
545.6335464628556
 30
0.0
 11
1331.774489822112
 21
565.6335464628559
 31
0.0
  0
LINE
  5
6974
330
A
100
AcDbEntity
  8
0
  6
Continuous
 62
     7
370
    15
100
AcDbLine
 10
1299.50654062968
 20
545.6335464628556
 30
0.0
 11
1299.50654062968
 21
555.3448154260344
 31
0.0
  0
LINE
  5
6975
330
A
100
AcDbEntity
  8
0
  6
Continuous
 62
     7
370
    15
100
AcDbLine
 10
1297.774489822112
 20
542.8687448467805
 30
0.0
 11
1297.774489822112
 21
552.7329561230529
 31
0.0
  0
LINE
  5
6976
330
A
100
AcDbEntity
  8
0
  6
Continuous
 62
     7
370
    15
100
AcDbLine
 10
1293.774489822111
 20
549.5430980077675
 30
0.0
 11
1293.774489822111
 21
540.0168185661385
 31
0.0
  0
LINE
  5
6977
330
A
100
AcDbEntity
  8
0
  6
Continuous
 62
     7
370
    15
100
AcDbLine
 10
1382.774489822112
 20
549.643751607192
 30
0.0
 11
1331.774489822112
 21
549.6437516071922
 31
0.0
  0
LINE
  5
6978
330
A
100
AcDbEntity
  8
0
  6
Continuous
 62
     7
370
    15
100
AcDbLine
 10
1324.274489822111
 20
563.7655298721027
 30
0.0
 11
1324.274489822111
 21
570.7655298721028
 31
0.0
  0
LINE
  5
6979
330
A
100
AcDbEntity
  8
0
  6
Continuous
 62
     7
370
    15
100
AcDbLine
 10
1293.774489822111
 20
564.2655298721027
 30
0.0
 11
1293.774489822111
 21
570.265529872103
 31
0.0
  0
LINE
  5
697A
330
A
100
AcDbEntity
  8
0
  6
Continuous
 62
     7
370
    15
100
AcDbLine
 10
1324.274489822111
 20
570.7655298721028
 30
0.0
 11
1314.774489822112
 21
570.765529872103
 31
0.0
  0
LINE
  5
697B
330
A
100
AcDbEntity
  8
0
  6
Continuous
 62
     7
370
    15
100
AcDbLine
 10
1314.774489822112
 20
573.765529872103
 30
0.0
 11
1304.774489822112
 21
573.765529872103
 31
0.0
  0
LINE
  5
697C
330
A
100
AcDbEntity
  8
0
  6
Continuous
 62
     7
370
    15
100
AcDbLine
 10
1304.774489822112
 20
570.265529872103
 30
0.0
 11
1304.774489822112
 21
573.765529872103
 31
0.0
  0
LINE
  5
697D
330
A
100
AcDbEntity
  8
0
  6
Continuous
 62
     7
370
    15
100
AcDbLine
 10
1304.774489822112
 20
570.265529872103
 30
0.0
 11
1293.774489822111
 21
570.265529872103
 31
0.0
  0
LINE
  5
697E
330
A
100
AcDbEntity
  8
0
  6
Continuous
 62
     7
370
    15
100
AcDbLine
 10
1314.774489822112
 20
570.765529872103
 30
0.0
 11
1314.774489822112
 21
573.765529872103
 31
0.0
  0
LINE
  5
697F
330
A
100
AcDbEntity
  8
0
  6
Continuous
 62
     7
370
    15
100
AcDbLine
 10
1314.774489822112
 20
554.750437220589
 30
0.0
 11
1324.274489822111
 21
554.750437220589
 31
0.0
  0
LINE
  5
6980
330
A
100
AcDbEntity
  8
0
  6
Continuous
 62
     7
370
    15
100
AcDbLine
 10
1314.774489822112
 20
563.7655298721027
 30
0.0
 11
1324.274489822111
 21
563.7655298721027
 31
0.0
  0
LINE
  5
6981
330
A
100
AcDbEntity
  8
0
  6
Continuous
 62
     7
370
    15
100
AcDbLine
 10
1314.774489822112
 20
550.8709632396088
 30
0.0
 11
1314.774489822112
 21
560.7655298721027
 31
0.0
  0
LINE
  5
6982
330
A
100
AcDbEntity
  8
0
  6
Continuous
 62
     7
370
    15
100
AcDbLine
 10
1304.774489822112
 20
560.7655298721027
 30
0.0
 11
1304.774489822112
 21
550.8709632396088
 31
0.0
  0
LINE
  5
6983
330
A
100
AcDbEntity
  8
0
  6
Continuous
 62
     7
370
    15
100
AcDbLine
 10
1293.774489822111
 20
564.2655298721027
 30
0.0
 11
1293.774489822111
 21
554.739250430474
 31
0.0
  0
LINE
  5
6984
330
A
100
AcDbEntity
  8
0
  6
Continuous
 62
     7
370
    15
100
AcDbLine
 10
1314.774489822112
 20
560.7655298721027
 30
0.0
 11
1304.774489822112
 21
560.7655298721027
 31
0.0
  0
LINE
  5
6985
330
A
100
AcDbEntity
  8
0
  6
Continuous
 62
     7
370
    15
100
AcDbLine
 10
1304.774489822112
 20
560.7655298721027
 30
0.0
 11
1304.774489822112
 21
564.2655298721027
 31
0.0
  0
LINE
  5
6986
330
A
100
AcDbEntity
  8
0
  6
Continuous
 62
     7
370
    15
100
AcDbLine
 10
1304.774489822112
 20
564.2655298721027
 30
0.0
 11
1293.774489822111
 21
564.2655298721027
 31
0.0
  0
LINE
  5
6987
330
A
100
AcDbEntity
  8
0
  6
Continuous
 62
     7
370
    15
100
AcDbLine
 10
1314.774489822112
 20
560.7655298721027
 30
0.0
 11
1314.774489822112
 21
563.7655298721027
 31
0.0
  0
LINE
  5
6988
330
A
100
AcDbEntity
  8
0
  6
Continuous
 62
     7
370
    15
100
AcDbLine
 10
1314.774489822112
 20
550.8709632396088
 30
0.0
 11
1304.774489822112
 21
550.8709632396088
 31
0.0
  0
LINE
  5
6989
330
A
100
AcDbEntity
  8
0
  6
Continuous
 62
     7
370
    15
100
AcDbLine
 10
1297.774489822112
 20
552.7329561230529
 30
0.0
 11
1299.50654062968
 21
555.3448154260344
 31
0.0
  0
LINE
  5
698A
330
A
100
AcDbEntity
  8
0
  6
Continuous
 62
     7
370
    15
100
AcDbLine
 10
1296.774489822112
 20
554.739250430474
 30
0.0
 11
1296.774489822112
 21
549.5430980077675
 31
0.0
  0
LINE
  5
698B
330
A
100
AcDbEntity
  8
0
  6
Continuous
 62
     7
370
    15
100
AcDbLine
 10
1293.774489822111
 20
549.5430980077675
 30
0.0
 11
1293.774489822111
 21
554.739250430474
 31
0.0
  0
LINE
  5
698C
330
A
100
AcDbEntity
  8
0
  6
Continuous
 62
     7
370
    15
100
AcDbLine
 10
1299.50654062968
 20
555.3448154260344
 30
0.0
 11
1304.774489822112
 21
555.3448154260344
 31
0.0
  0
LINE
  5
698D
330
A
100
AcDbEntity
  8
0
  6
Continuous
 62
     7
370
    15
100
AcDbLine
 10
1293.774489822111
 20
554.739250430474
 30
0.0
 11
1296.774489822112
 21
554.739250430474
 31
0.0
  0
LINE
  5
698E
330
A
100
AcDbEntity
  8
0
  6
Continuous
 62
     7
370
    15
100
AcDbLine
 10
1296.774489822112
 20
549.5430980077675
 30
0.0
 11
1293.774489822111
 21
549.5430980077675
 31
0.0
  0
LINE
  5
698F
330
A
100
AcDbEntity
  8
0
  6
Continuous
 62
     7
370
    15
100
AcDbLine
 10
1324.274489822111
 20
554.750437220589
 30
0.0
 11
1324.274489822111
 21
563.7655298721027
 31
0.0
  0
LINE
  5
6990
330
A
100
AcDbEntity
  8
0
  6
Continuous
 62
     7
370
    15
100
AcDbLine
 10
1324.274489822111
 20
565.6335464628559
 30
0.0
 11
1331.774489822112
 21
565.6335464628559
 31
0.0
  0
LINE
  5
6991
330
A
100
AcDbEntity
  8
0
  6
Continuous
 62
     7
370
    15
100
AcDbLine
 10
1331.774489822112
 20
527.9717614831664
 30
0.0
 11
1331.774489822112
 21
531.942016437067
 31
0.0
  0
LINE
  5
6992
330
A
100
AcDbEntity
  8
0
  6
Continuous
 62
     7
370
    15
100
AcDbLine
 10
1297.774489822112
 20
527.9717614831667
 30
0.0
 11
1297.774489822112
 21
531.9420164370673
 31
0.0
  0
LINE
  5
6993
330
A
100
AcDbEntity
  8
0
  6
Continuous
 62
     7
370
    15
100
AcDbLine
 10
1331.774489822112
 20
545.6335464628556
 30
0.0
 11
1299.50654062968
 21
545.6335464628556
 31
0.0
  0
LINE
  5
6994
330
A
100
AcDbEntity
  8
0
  6
Continuous
 62
     7
370
    15
100
AcDbLine
 10
1331.774489822112
 20
531.942016437067
 30
0.0
 11
1297.774489822112
 21
531.9420164370673
 31
0.0
  0
LINE
  5
6995
330
A
100
AcDbEntity
  8
0
  6
Continuous
 62
     7
370
    15
100
AcDbLine
 10
1297.774489822112
 20
531.9420164370673
 30
0.0
 11
1297.774489822112
 21
542.8687448467805
 31
0.0
  0
LINE
  5
6996
330
A
100
AcDbEntity
  8
0
  6
Continuous
 62
     7
370
    15
100
AcDbLine
 10
1299.50654062968
 20
545.6335464628556
 30
0.0
 11
1297.774489822112
 21
542.8687448467805
 31
0.0
  0
LINE
  5
6997
330
A
100
AcDbEntity
  8
0
  6
Continuous
 62
     7
370
    15
100
AcDbLine
 10
1293.774489822111
 20
540.0168185661385
 30
0.0
 11
1297.774489822112
 21
540.0168185661385
 31
0.0
  0
LINE
  5
6998
330
A
100
AcDbEntity
  8
0
  6
Continuous
 62
     7
370
    15
100
AcDbLine
 10
1331.774489822112
 20
531.942016437067
 30
0.0
 11
1331.774489822112
 21
545.6335464628556
 31
0.0
  0
LINE
  5
6999
330
A
100
AcDbEntity
  8
0
  6
Continuous
 62
     7
370
    15
100
AcDbLine
 10
1331.774489822112
 20
527.9717614831664
 30
0.0
 11
1297.774489822112
 21
527.9717614831667
 31
0.0
  0
LINE
  5
699A
330
A
100
AcDbEntity
  8
0
  6
Continuous
 62
     7
370
    15
100
AcDbLine
 10
1297.774489822111
 20
512.1437516071922
 30
0.0
 11
1297.774489822112
 21
527.9717614831667
 31
0.0
  0
LINE
  5
699B
330
A
100
AcDbEntity
  8
0
  6
Continuous
 62
     7
370
    15
100
AcDbLine
 10
1314.774489822111
 20
512.1437516071922
 30
0.0
 11
1297.774489822111
 21
512.1437516071922
 31
0.0
  0
LINE
  5
699C
330
A
100
AcDbEntity
  8
0
  6
Continuous
 62
     7
370
    15
100
AcDbLine
 10
1293.774489822112
 20
512.6437516071924
 30
0.0
 11
1297.774489822111
 21
512.6437516071923
 31
0.0
  0
POLYLINE
  5
699D
330
A
100
AcDbEntity
  8
0
  6
Continuous
 62
     7
370
    15
100
AcDb2dPolyline
 66
     1
 10
0.0
 20
0.0
 30
0.0
 70
   128
  0
VERTEX
  5
699E
330
699D
100
AcDbEntity
  8
0
100
AcDbVertex
100
AcDb2dVertex
 10
1370.774489822111
 20
518.7306133198006
 30
0.0
  0
VERTEX
  5
699F
330
699D
100
AcDbEntity
  8
0
100
AcDbVertex
100
AcDb2dVertex
 10
1371.478821214215
 20
518.8257737042619
 30
0.0
  0
VERTEX
  5
69A0
330
699D
100
AcDbEntity
  8
0
100
AcDbVertex
100
AcDb2dVertex
 10
1372.12609186575
 20
519.1035455292365
 30
0.0
  0
VERTEX
  5
69A1
330
699D
100
AcDbEntity
  8
0
100
AcDbVertex
100
AcDb2dVertex
 10
1372.663863757997
 20
519.5414253734385
 30
0.0
  0
VERTEX
  5
69A2
330
699D
100
AcDbEntity
  8
0
100
AcDbVertex
100
AcDb2dVertex
 10
1373.048569810498
 20
520.1039388160617
 30
0.0
  0
VERTEX
  5
69A3
330
699D
100
AcDbEntity
  8
0
100
AcDbVertex
100
AcDb2dVertex
 10
1373.249043426814
 20
520.7455143633811
 30
0.0
  0
VERTEX
  5
69A4
330
699D
100
AcDbEntity
  8
0
100
AcDbVertex
100
AcDb2dVertex
 10
1373.249043426814
 20
521.4141753801499
 30
0.0
  0
VERTEX
  5
69A5
330
699D
100
AcDbEntity
  8
0
100
AcDbVertex
100
AcDb2dVertex
 10
1373.048569810498
 20
522.0557509274693
 30
0.0
  0
VERTEX
  5
69A6
330
699D
100
AcDbEntity
  8
0
100
AcDbVertex
100
AcDb2dVertex
 10
1372.663863757997
 20
522.6182643700926
 30
0.0
  0
VERTEX
  5
69A7
330
699D
100
AcDbEntity
  8
0
100
AcDbVertex
100
AcDb2dVertex
 10
1372.12609186575
 20
523.0561442142945
 30
0.0
  0
VERTEX
  5
69A8
330
699D
100
AcDbEntity
  8
0
100
AcDbVertex
100
AcDb2dVertex
 10
1371.478821214215
 20
523.3339160392691
 30
0.0
  0
VERTEX
  5
69A9
330
699D
100
AcDbEntity
  8
0
100
AcDbVertex
100
AcDb2dVertex
 10
1370.774489822111
 20
523.4290764237304
 30
0.0
  0
VERTEX
  5
69AA
330
699D
100
AcDbEntity
  8
0
100
AcDbVertex
100
AcDb2dVertex
 10
1370.070158430008
 20
523.3339160392691
 30
0.0
  0
VERTEX
  5
69AB
330
699D
100
AcDbEntity
  8
0
100
AcDbVertex
100
AcDb2dVertex
 10
1369.422887778472
 20
523.0561442142945
 30
0.0
  0
VERTEX
  5
69AC
330
699D
100
AcDbEntity
  8
0
100
AcDbVertex
100
AcDb2dVertex
 10
1368.885115886226
 20
522.6182643700926
 30
0.0
  0
VERTEX
  5
69AD
330
699D
100
AcDbEntity
  8
0
100
AcDbVertex
100
AcDb2dVertex
 10
1368.500409833725
 20
522.0557509274693
 30
0.0
  0
VERTEX
  5
69AE
330
699D
100
AcDbEntity
  8
0
100
AcDbVertex
100
AcDb2dVertex
 10
1368.299936217409
 20
521.4141753801499
 30
0.0
  0
VERTEX
  5
69AF
330
699D
100
AcDbEntity
  8
0
100
AcDbVertex
100
AcDb2dVertex
 10
1368.299936217409
 20
520.7455143633811
 30
0.0
  0
VERTEX
  5
69B0
330
699D
100
AcDbEntity
  8
0
100
AcDbVertex
100
AcDb2dVertex
 10
1368.500409833725
 20
520.1039388160617
 30
0.0
  0
VERTEX
  5
69B1
330
699D
100
AcDbEntity
  8
0
100
AcDbVertex
100
AcDb2dVertex
 10
1368.885115886226
 20
519.5414253734385
 30
0.0
  0
VERTEX
  5
69B2
330
699D
100
AcDbEntity
  8
0
100
AcDbVertex
100
AcDb2dVertex
 10
1369.422887778472
 20
519.1035455292365
 30
0.0
  0
VERTEX
  5
69B3
330
699D
100
AcDbEntity
  8
0
100
AcDbVertex
100
AcDb2dVertex
 10
1370.070158430008
 20
518.8257737042619
 30
0.0
  0
VERTEX
  5
69B4
330
699D
100
AcDbEntity
  8
0
100
AcDbVertex
100
AcDb2dVertex
 10
1370.774489822111
 20
518.7306133198006
 30
0.0
  0
SEQEND
  5
69B5
330
699D
100
AcDbEntity
  8
0
  0
POLYLINE
  5
69B6
330
A
100
AcDbEntity
  8
0
  6
Continuous
 62
     7
370
    15
100
AcDb2dPolyline
 66
     1
 10
0.0
 20
0.0
 30
0.0
 70
   128
  0
VERTEX
  5
69B7
330
69B6
100
AcDbEntity
  8
0
100
AcDbVertex
100
AcDb2dVertex
 10
1372.629691983957
 20
519.5051306043523
 30
0.0
  0
VERTEX
  5
69B8
330
69B6
100
AcDbEntity
  8
0
100
AcDbVertex
100
AcDb2dVertex
 10
1372.12609186575
 20
519.9067156794678
 30
0.0
  0
VERTEX
  5
69B9
330
69B6
100
AcDbEntity
  8
0
100
AcDbVertex
100
AcDb2dVertex
 10
1371.478821214215
 20
520.1844875044427
 30
0.0
  0
VERTEX
  5
69BA
330
69B6
100
AcDbEntity
  8
0
100
AcDbVertex
100
AcDb2dVertex
 10
1370.774489822111
 20
520.2796478889037
 30
0.0
  0
VERTEX
  5
69BB
330
69B6
100
AcDbEntity
  8
0
100
AcDbVertex
100
AcDb2dVertex
 10
1370.070158430008
 20
520.1844875044427
 30
0.0
  0
VERTEX
  5
69BC
330
69B6
100
AcDbEntity
  8
0
100
AcDbVertex
100
AcDb2dVertex
 10
1369.422887778472
 20
519.9067156794678
 30
0.0
  0
VERTEX
  5
69BD
330
69B6
100
AcDbEntity
  8
0
100
AcDbVertex
100
AcDb2dVertex
 10
1368.919287660266
 20
519.5051306043523
 30
0.0
  0
SEQEND
  5
69BE
330
69B6
100
AcDbEntity
  8
0
  0
POLYLINE
  5
69BF
330
A
100
AcDbEntity
  8
0
  6
Continuous
 62
     7
370
    15
100
AcDb2dPolyline
 66
     1
 10
0.0
 20
0.0
 30
0.0
 70
   128
  0
VERTEX
  5
69C0
330
69BF
100
AcDbEntity
  8
0
100
AcDbVertex
100
AcDb2dVertex
 10
1370.774489822111
 20
516.5523918394988
 30
0.0
  0
VERTEX
  5
69C1
330
69BF
100
AcDbEntity
  8
0
100
AcDbVertex
100
AcDb2dVertex
 10
1369.12581140219
 20
516.8260411823585
 30
0.0
  0
VERTEX
  5
69C2
330
69BF
100
AcDbEntity
  8
0
100
AcDbVertex
100
AcDb2dVertex
 10
1367.663093980767
 20
517.6116315621853
 30
0.0
  0
VERTEX
  5
69C3
330
69BF
100
AcDbEntity
  8
0
100
AcDbVertex
100
AcDb2dVertex
 10
1366.544137216397
 20
518.8177233138691
 30
0.0
  0
VERTEX
  5
69C4
330
69BF
100
AcDbEntity
  8
0
100
AcDbVertex
100
AcDb2dVertex
 10
1365.899492078801
 20
520.3016771373
 30
0.0
  0
VERTEX
  5
69C5
330
69BF
100
AcDbEntity
  8
0
100
AcDbVertex
100
AcDb2dVertex
 10
1365.806256405698
 20
521.8781446503349
 30
0.0
  0
VERTEX
  5
69C6
330
69BF
100
AcDbEntity
  8
0
100
AcDbVertex
100
AcDb2dVertex
 10
1366.26762476618
 20
523.3666002217558
 30
0.0
  0
VERTEX
  5
69C7
330
69BF
100
AcDbEntity
  8
0
100
AcDbVertex
100
AcDb2dVertex
 10
1367.231977274054
 20
524.6167627193009
 30
0.0
  0
VERTEX
  5
69C8
330
69BF
100
AcDbEntity
  8
0
100
AcDbVertex
100
AcDb2dVertex
 10
1368.600448856973
 20
525.5008425956368
 30
0.0
  0
VERTEX
  5
69C9
330
69BF
100
AcDbEntity
  8
0
100
AcDbVertex
100
AcDb2dVertex
 10
1370.216449697955
 20
525.9212103661619
 30
0.0
  0
VERTEX
  5
69CA
330
69BF
100
AcDbEntity
  8
0
100
AcDbVertex
100
AcDb2dVertex
 10
1371.886614120587
 20
525.8365723370415
 30
0.0
  0
VERTEX
  5
69CB
330
69BF
100
AcDbEntity
  8
0
100
AcDbVertex
100
AcDb2dVertex
 10
1373.427075011814
 20
525.2617680828283
 30
0.0
  0
VERTEX
  5
69CC
330
69BF
100
AcDbEntity
  8
0
100
AcDbVertex
100
AcDb2dVertex
 10
1374.676811370151
 20
524.2491844216261
 30
0.0
  0
VERTEX
  5
69CD
330
69BF
100
AcDbEntity
  8
0
100
AcDbVertex
100
AcDb2dVertex
 10
1375.492602999672
 20
522.8950191931302
 30
0.0
  0
VERTEX
  5
69CE
330
69BF
100
AcDbEntity
  8
0
100
AcDbVertex
100
AcDb2dVertex
 10
1375.774489780387
 20
521.3500107777832
 30
0.0
  0
VERTEX
  5
69CF
330
69BF
100
AcDbEntity
  8
0
100
AcDbVertex
100
AcDb2dVertex
 10
1375.495479928154
 20
519.7922552226442
 30
0.0
  0
VERTEX
  5
69D0
330
69BF
100
AcDbEntity
  8
0
100
AcDbVertex
100
AcDb2dVertex
 10
1374.6912640941
 20
518.3917082805115
 30
0.0
  0
VERTEX
  5
69D1
330
69BF
100
AcDbEntity
  8
0
100
AcDbVertex
100
AcDb2dVertex
 10
1373.443716575055
 20
517.3064192745438
 30
0.0
  0
VERTEX
  5
69D2
330
69BF
100
AcDbEntity
  8
0
100
AcDbVertex
100
AcDb2dVertex
 10
1371.889979531617
 20
516.675793314217
 30
0.0
  0
VERTEX
  5
69D3
330
69BF
100
AcDbEntity
  8
0
100
AcDbVertex
100
AcDb2dVertex
 10
1370.774489822111
 20
516.5523918394988
 30
0.0
  0
SEQEND
  5
69D4
330
69BF
100
AcDbEntity
  8
0
  0
POLYLINE
  5
69D5
330
A
100
AcDbEntity
  8
0
  6
Continuous
 62
     7
370
    15
100
AcDb2dPolyline
 66
     1
 10
0.0
 20
0.0
 30
0.0
 70
   128
  0
VERTEX
  5
69D6
330
69D5
100
AcDbEntity
  8
0
100
AcDbVertex
100
AcDb2dVertex
 10
1375.774489822111
 20
521.0798448717656
 30
0.0
  0
VERTEX
  5
69D7
330
69D5
100
AcDbEntity
  8
0
100
AcDbVertex
100
AcDb2dVertex
 10
1375.768072357967
 20
521.3178181227989
 30
0.0
  0
VERTEX
  5
69D8
330
69D5
100
AcDbEntity
  8
0
100
AcDbVertex
100
AcDb2dVertex
 10
1375.614875416443
 20
522.2575265464896
 30
0.0
  0
VERTEX
  5
69D9
330
69D5
100
AcDbEntity
  8
0
100
AcDbVertex
100
AcDb2dVertex
 10
1375.263512519965
 20
523.1490205440453
 30
0.0
  0
VERTEX
  5
69DA
330
69D5
100
AcDbEntity
  8
0
100
AcDbVertex
100
AcDb2dVertex
 10
1374.7283685068
 20
523.9558022464601
 30
0.0
  0
VERTEX
  5
69DB
330
69D5
100
AcDbEntity
  8
0
100
AcDbVertex
100
AcDb2dVertex
 10
1374.031352235723
 20
524.6448419160445
 30
0.0
  0
VERTEX
  5
69DC
330
69D5
100
AcDbEntity
  8
0
100
AcDbVertex
100
AcDb2dVertex
 10
1373.200999634767
 20
525.1879301877664
 30
0.0
  0
VERTEX
  5
69DD
330
69D5
100
AcDbEntity
  8
0
100
AcDbVertex
100
AcDb2dVertex
 10
1372.271305436978
 20
525.562832963972
 30
0.0
  0
VERTEX
  5
69DE
330
69D5
100
AcDbEntity
  8
0
100
AcDbVertex
100
AcDb2dVertex
 10
1371.280331432048
 20
525.7542016809537
 30
0.0
  0
VERTEX
  5
69DF
330
69D5
100
AcDbEntity
  8
0
100
AcDbVertex
100
AcDb2dVertex
 10
1370.268648212174
 20
525.7542016809537
 30
0.0
  0
VERTEX
  5
69E0
330
69D5
100
AcDbEntity
  8
0
100
AcDbVertex
100
AcDb2dVertex
 10
1369.277674207244
 20
525.562832963972
 30
0.0
  0
VERTEX
  5
69E1
330
69D5
100
AcDbEntity
  8
0
100
AcDbVertex
100
AcDb2dVertex
 10
1368.347980009456
 20
525.1879301877664
 30
0.0
  0
VERTEX
  5
69E2
330
69D5
100
AcDbEntity
  8
0
100
AcDbVertex
100
AcDb2dVertex
 10
1367.5176274085
 20
524.6448419160443
 30
0.0
  0
VERTEX
  5
69E3
330
69D5
100
AcDbEntity
  8
0
100
AcDbVertex
100
AcDb2dVertex
 10
1366.820611137423
 20
523.9558022464601
 30
0.0
  0
VERTEX
  5
69E4
330
69D5
100
AcDbEntity
  8
0
100
AcDbVertex
100
AcDb2dVertex
 10
1366.285467124258
 20
523.1490205440453
 30
0.0
  0
VERTEX
  5
69E5
330
69D5
100
AcDbEntity
  8
0
100
AcDbVertex
100
AcDb2dVertex
 10
1365.93410422778
 20
522.2575265464896
 30
0.0
  0
VERTEX
  5
69E6
330
69D5
100
AcDbEntity
  8
0
100
AcDbVertex
100
AcDb2dVertex
 10
1365.780907286256
 20
521.3178181227989
 30
0.0
  0
VERTEX
  5
69E7
330
69D5
100
AcDbEntity
  8
0
100
AcDbVertex
100
AcDb2dVertex
 10
1365.774489822111
 20
521.0798448717654
 30
0.0
  0
SEQEND
  5
69E8
330
69D5
100
AcDbEntity
  8
0
  0
LINE
  5
69E9
330
A
100
AcDbEntity
  8
0
  6
Continuous
 62
     7
370
    15
100
AcDbLine
 10
1331.774489822111
 20
467.6539567515288
 30
0.0
 11
1331.774489822111
 21
481.3454867773174
 31
0.0
  0
LINE
  5
69EA
330
A
100
AcDbEntity
  8
0
  6
Continuous
 62
     7
370
    15
100
AcDbLine
 10
1297.774489822111
 20
470.418758367604
 30
0.0
 11
1297.774489822111
 21
481.3454867773174
 31
0.0
  0
POLYLINE
  5
69EB
330
A
100
AcDbEntity
  8
0
  6
Continuous
 62
     7
370
    15
100
AcDb2dPolyline
 66
     1
 10
0.0
 20
0.0
 30
0.0
 70
   128
  0
VERTEX
  5
69EC
330
69EB
100
AcDbEntity
  8
0
100
AcDbVertex
100
AcDb2dVertex
 10
1340.274489822111
 20
496.7351113748853
 30
0.0
  0
VERTEX
  5
69ED
330
69EB
100
AcDbEntity
  8
0
100
AcDbVertex
100
AcDb2dVertex
 10
1338.62581140219
 20
496.4614620320256
 30
0.0
  0
VERTEX
  5
69EE
330
69EB
100
AcDbEntity
  8
0
100
AcDbVertex
100
AcDb2dVertex
 10
1337.163093980767
 20
495.6758716521989
 30
0.0
  0
VERTEX
  5
69EF
330
69EB
100
AcDbEntity
  8
0
100
AcDbVertex
100
AcDb2dVertex
 10
1336.044137216397
 20
494.4697799005151
 30
0.0
  0
VERTEX
  5
69F0
330
69EB
100
AcDbEntity
  8
0
100
AcDbVertex
100
AcDb2dVertex
 10
1335.399492078801
 20
492.9858260770841
 30
0.0
  0
VERTEX
  5
69F1
330
69EB
100
AcDbEntity
  8
0
100
AcDbVertex
100
AcDb2dVertex
 10
1335.306256405698
 20
491.4093585640492
 30
0.0
  0
VERTEX
  5
69F2
330
69EB
100
AcDbEntity
  8
0
100
AcDbVertex
100
AcDb2dVertex
 10
1335.76762476618
 20
489.9209029926286
 30
0.0
  0
VERTEX
  5
69F3
330
69EB
100
AcDbEntity
  8
0
100
AcDbVertex
100
AcDb2dVertex
 10
1336.731977274054
 20
488.6707404950833
 30
0.0
  0
VERTEX
  5
69F4
330
69EB
100
AcDbEntity
  8
0
100
AcDbVertex
100
AcDb2dVertex
 10
1338.100448856973
 20
487.7866606187475
 30
0.0
  0
VERTEX
  5
69F5
330
69EB
100
AcDbEntity
  8
0
100
AcDbVertex
100
AcDb2dVertex
 10
1339.716449697955
 20
487.3662928482223
 30
0.0
  0
VERTEX
  5
69F6
330
69EB
100
AcDbEntity
  8
0
100
AcDbVertex
100
AcDb2dVertex
 10
1341.386614120587
 20
487.4509308773427
 30
0.0
  0
VERTEX
  5
69F7
330
69EB
100
AcDbEntity
  8
0
100
AcDbVertex
100
AcDb2dVertex
 10
1342.927075011814
 20
488.025735131556
 30
0.0
  0
VERTEX
  5
69F8
330
69EB
100
AcDbEntity
  8
0
100
AcDbVertex
100
AcDb2dVertex
 10
1344.176811370151
 20
489.038318792758
 30
0.0
  0
VERTEX
  5
69F9
330
69EB
100
AcDbEntity
  8
0
100
AcDbVertex
100
AcDb2dVertex
 10
1344.992602999672
 20
490.392484021254
 30
0.0
  0
VERTEX
  5
69FA
330
69EB
100
AcDbEntity
  8
0
100
AcDbVertex
100
AcDb2dVertex
 10
1345.274489780386
 20
491.9374924366009
 30
0.0
  0
VERTEX
  5
69FB
330
69EB
100
AcDbEntity
  8
0
100
AcDbVertex
100
AcDb2dVertex
 10
1344.995479928154
 20
493.49524799174
 30
0.0
  0
VERTEX
  5
69FC
330
69EB
100
AcDbEntity
  8
0
100
AcDbVertex
100
AcDb2dVertex
 10
1344.191264094099
 20
494.8957949338726
 30
0.0
  0
VERTEX
  5
69FD
330
69EB
100
AcDbEntity
  8
0
100
AcDbVertex
100
AcDb2dVertex
 10
1342.943716575054
 20
495.9810839398405
 30
0.0
  0
VERTEX
  5
69FE
330
69EB
100
AcDbEntity
  8
0
100
AcDbVertex
100
AcDb2dVertex
 10
1341.389979531617
 20
496.6117099001673
 30
0.0
  0
VERTEX
  5
69FF
330
69EB
100
AcDbEntity
  8
0
100
AcDbVertex
100
AcDb2dVertex
 10
1340.274489822111
 20
496.7351113748853
 30
0.0
  0
SEQEND
  5
6A00
330
69EB
100
AcDbEntity
  8
0
  0
POLYLINE
  5
6A01
330
A
100
AcDbEntity
  8
0
  6
Continuous
 62
     7
370
    15
100
AcDb2dPolyline
 66
     1
 10
0.0
 20
0.0
 30
0.0
 70
   128
  0
VERTEX
  5
6A02
330
6A01
100
AcDbEntity
  8
0
100
AcDbVertex
100
AcDb2dVertex
 10
1340.274489822111
 20
494.5568898945835
 30
0.0
  0
VERTEX
  5
6A03
330
6A01
100
AcDbEntity
  8
0
100
AcDbVertex
100
AcDb2dVertex
 10
1340.978821214215
 20
494.4617295101223
 30
0.0
  0
VERTEX
  5
6A04
330
6A01
100
AcDbEntity
  8
0
100
AcDbVertex
100
AcDb2dVertex
 10
1341.62609186575
 20
494.1839576851476
 30
0.0
  0
VERTEX
  5
6A05
330
6A01
100
AcDbEntity
  8
0
100
AcDbVertex
100
AcDb2dVertex
 10
1342.163863757997
 20
493.7460778409457
 30
0.0
  0
VERTEX
  5
6A06
330
6A01
100
AcDbEntity
  8
0
100
AcDbVertex
100
AcDb2dVertex
 10
1342.548569810498
 20
493.1835643983226
 30
0.0
  0
VERTEX
  5
6A07
330
6A01
100
AcDbEntity
  8
0
100
AcDbVertex
100
AcDb2dVertex
 10
1342.749043426814
 20
492.5419888510031
 30
0.0
  0
VERTEX
  5
6A08
330
6A01
100
AcDbEntity
  8
0
100
AcDbVertex
100
AcDb2dVertex
 10
1342.749043426814
 20
491.8733278342343
 30
0.0
  0
VERTEX
  5
6A09
330
6A01
100
AcDbEntity
  8
0
100
AcDbVertex
100
AcDb2dVertex
 10
1342.548569810498
 20
491.2317522869149
 30
0.0
  0
VERTEX
  5
6A0A
330
6A01
100
AcDbEntity
  8
0
100
AcDbVertex
100
AcDb2dVertex
 10
1342.163863757997
 20
490.6692388442917
 30
0.0
  0
VERTEX
  5
6A0B
330
6A01
100
AcDbEntity
  8
0
100
AcDbVertex
100
AcDb2dVertex
 10
1341.62609186575
 20
490.2313590000898
 30
0.0
  0
VERTEX
  5
6A0C
330
6A01
100
AcDbEntity
  8
0
100
AcDbVertex
100
AcDb2dVertex
 10
1340.978821214215
 20
489.9535871751151
 30
0.0
  0
VERTEX
  5
6A0D
330
6A01
100
AcDbEntity
  8
0
100
AcDbVertex
100
AcDb2dVertex
 10
1340.274489822111
 20
489.8584267906541
 30
0.0
  0
VERTEX
  5
6A0E
330
6A01
100
AcDbEntity
  8
0
100
AcDbVertex
100
AcDb2dVertex
 10
1339.570158430008
 20
489.9535871751151
 30
0.0
  0
VERTEX
  5
6A0F
330
6A01
100
AcDbEntity
  8
0
100
AcDbVertex
100
AcDb2dVertex
 10
1338.922887778472
 20
490.2313590000898
 30
0.0
  0
VERTEX
  5
6A10
330
6A01
100
AcDbEntity
  8
0
100
AcDbVertex
100
AcDb2dVertex
 10
1338.385115886226
 20
490.6692388442917
 30
0.0
  0
VERTEX
  5
6A11
330
6A01
100
AcDbEntity
  8
0
100
AcDbVertex
100
AcDb2dVertex
 10
1338.000409833725
 20
491.2317522869149
 30
0.0
  0
VERTEX
  5
6A12
330
6A01
100
AcDbEntity
  8
0
100
AcDbVertex
100
AcDb2dVertex
 10
1337.799936217409
 20
491.8733278342343
 30
0.0
  0
VERTEX
  5
6A13
330
6A01
100
AcDbEntity
  8
0
100
AcDbVertex
100
AcDb2dVertex
 10
1337.799936217409
 20
492.5419888510031
 30
0.0
  0
VERTEX
  5
6A14
330
6A01
100
AcDbEntity
  8
0
100
AcDbVertex
100
AcDb2dVertex
 10
1338.000409833725
 20
493.1835643983226
 30
0.0
  0
VERTEX
  5
6A15
330
6A01
100
AcDbEntity
  8
0
100
AcDbVertex
100
AcDb2dVertex
 10
1338.385115886226
 20
493.746077840946
 30
0.0
  0
VERTEX
  5
6A16
330
6A01
100
AcDbEntity
  8
0
100
AcDbVertex
100
AcDb2dVertex
 10
1338.922887778472
 20
494.1839576851476
 30
0.0
  0
VERTEX
  5
6A17
330
6A01
100
AcDbEntity
  8
0
100
AcDbVertex
100
AcDb2dVertex
 10
1339.570158430008
 20
494.4617295101223
 30
0.0
  0
VERTEX
  5
6A18
330
6A01
100
AcDbEntity
  8
0
100
AcDbVertex
100
AcDb2dVertex
 10
1340.274489822111
 20
494.5568898945835
 30
0.0
  0
SEQEND
  5
6A19
330
6A01
100
AcDbEntity
  8
0
  0
POLYLINE
  5
6A1A
330
A
100
AcDbEntity
  8
0
  6
Continuous
 62
     7
370
    15
100
AcDb2dPolyline
 66
     1
 10
0.0
 20
0.0
 30
0.0
 70
   128
  0
VERTEX
  5
6A1B
330
6A1A
100
AcDbEntity
  8
0
100
AcDbVertex
100
AcDb2dVertex
 10
1342.129691983957
 20
493.782372610032
 30
0.0
  0
VERTEX
  5
6A1C
330
6A1A
100
AcDbEntity
  8
0
100
AcDbVertex
100
AcDb2dVertex
 10
1341.62609186575
 20
493.3807875349165
 30
0.0
  0
VERTEX
  5
6A1D
330
6A1A
100
AcDbEntity
  8
0
100
AcDbVertex
100
AcDb2dVertex
 10
1340.978821214215
 20
493.1030157099415
 30
0.0
  0
VERTEX
  5
6A1E
330
6A1A
100
AcDbEntity
  8
0
100
AcDbVertex
100
AcDb2dVertex
 10
1340.274489822111
 20
493.0078553254806
 30
0.0
  0
VERTEX
  5
6A1F
330
6A1A
100
AcDbEntity
  8
0
100
AcDbVertex
100
AcDb2dVertex
 10
1339.570158430008
 20
493.1030157099415
 30
0.0
  0
VERTEX
  5
6A20
330
6A1A
100
AcDbEntity
  8
0
100
AcDbVertex
100
AcDb2dVertex
 10
1338.922887778472
 20
493.3807875349165
 30
0.0
  0
VERTEX
  5
6A21
330
6A1A
100
AcDbEntity
  8
0
100
AcDbVertex
100
AcDb2dVertex
 10
1338.419287660266
 20
493.782372610032
 30
0.0
  0
SEQEND
  5
6A22
330
6A1A
100
AcDbEntity
  8
0
  0
LINE
  5
6A23
330
A
100
AcDbEntity
  8
0
  6
Continuous
 62
     7
370
    15
100
AcDbLine
 10
1297.774489822111
 20
485.315741731218
 30
0.0
 11
1297.774489822111
 21
501.1437516071922
 31
0.0
  0
LINE
  5
6A24
330
A
100
AcDbEntity
  8
0
  6
Continuous
 62
     7
370
    15
100
AcDbLine
 10
1314.774489822111
 20
501.1437516071922
 30
0.0
 11
1297.774489822111
 21
501.1437516071922
 31
0.0
  0
LINE
  5
6A25
330
A
100
AcDbEntity
  8
0
  6
Continuous
 62
     7
370
    15
100
AcDbLine
 10
1293.774489822111
 20
500.6437516071924
 30
0.0
 11
1297.774489822111
 21
500.6437516071924
 31
0.0
  0
LINE
  5
6A26
330
A
100
AcDbEntity
  8
0
  6
Continuous
 62
     7
370
    15
100
AcDbLine
 10
1331.774489822111
 20
481.3454867773174
 30
0.0
 11
1297.774489822111
 21
481.3454867773174
 31
0.0
  0
LINE
  5
6A27
330
A
100
AcDbEntity
  8
0
  6
Continuous
 62
     7
370
    15
100
AcDbLine
 10
1331.774489822111
 20
485.315741731218
 30
0.0
 11
1297.774489822111
 21
485.315741731218
 31
0.0
  0
LINE
  5
6A28
330
A
100
AcDbEntity
  8
0
  6
Continuous
 62
     7
370
    15
100
AcDbLine
 10
1297.774489822111
 20
481.3454867773174
 30
0.0
 11
1297.774489822111
 21
485.315741731218
 31
0.0
  0
LINE
  5
6A29
330
A
100
AcDbEntity
  8
0
  6
Continuous
 62
     7
370
    15
100
AcDbLine
 10
1331.774489822111
 20
481.3454867773174
 30
0.0
 11
1331.774489822111
 21
485.315741731218
 31
0.0
  0
POLYLINE
  5
6A2A
330
A
100
AcDbEntity
  8
0
  6
Continuous
 62
     7
370
    15
100
AcDb2dPolyline
 66
     1
 10
0.0
 20
0.0
 30
0.0
 70
   128
  0
VERTEX
  5
6A2B
330
6A2A
100
AcDbEntity
  8
0
100
AcDbVertex
100
AcDb2dVertex
 10
1345.274489822111
 20
492.2076583426186
 30
0.0
  0
VERTEX
  5
6A2C
330
6A2A
100
AcDbEntity
  8
0
100
AcDbVertex
100
AcDb2dVertex
 10
1345.268072357967
 20
491.9696850915853
 30
0.0
  0
VERTEX
  5
6A2D
330
6A2A
100
AcDbEntity
  8
0
100
AcDbVertex
100
AcDb2dVertex
 10
1345.114875416442
 20
491.0299766678946
 30
0.0
  0
VERTEX
  5
6A2E
330
6A2A
100
AcDbEntity
  8
0
100
AcDbVertex
100
AcDb2dVertex
 10
1344.763512519965
 20
490.1384826703389
 30
0.0
  0
VERTEX
  5
6A2F
330
6A2A
100
AcDbEntity
  8
0
100
AcDbVertex
100
AcDb2dVertex
 10
1344.2283685068
 20
489.3317009679239
 30
0.0
  0
VERTEX
  5
6A30
330
6A2A
100
AcDbEntity
  8
0
100
AcDbVertex
100
AcDb2dVertex
 10
1343.531352235723
 20
488.6426612983397
 30
0.0
  0
VERTEX
  5
6A31
330
6A2A
100
AcDbEntity
  8
0
100
AcDbVertex
100
AcDb2dVertex
 10
1342.700999634766
 20
488.0995730266177
 30
0.0
  0
VERTEX
  5
6A32
330
6A2A
100
AcDbEntity
  8
0
100
AcDbVertex
100
AcDb2dVertex
 10
1341.771305436978
 20
487.7246702504122
 30
0.0
  0
VERTEX
  5
6A33
330
6A2A
100
AcDbEntity
  8
0
100
AcDbVertex
100
AcDb2dVertex
 10
1340.780331432048
 20
487.5333015334304
 30
0.0
  0
VERTEX
  5
6A34
330
6A2A
100
AcDbEntity
  8
0
100
AcDbVertex
100
AcDb2dVertex
 10
1339.768648212174
 20
487.5333015334304
 30
0.0
  0
VERTEX
  5
6A35
330
6A2A
100
AcDbEntity
  8
0
100
AcDbVertex
100
AcDb2dVertex
 10
1338.777674207245
 20
487.7246702504124
 30
0.0
  0
VERTEX
  5
6A36
330
6A2A
100
AcDbEntity
  8
0
100
AcDbVertex
100
AcDb2dVertex
 10
1337.847980009456
 20
488.0995730266177
 30
0.0
  0
VERTEX
  5
6A37
330
6A2A
100
AcDbEntity
  8
0
100
AcDbVertex
100
AcDb2dVertex
 10
1337.0176274085
 20
488.6426612983399
 30
0.0
  0
VERTEX
  5
6A38
330
6A2A
100
AcDbEntity
  8
0
100
AcDbVertex
100
AcDb2dVertex
 10
1336.320611137423
 20
489.3317009679241
 30
0.0
  0
VERTEX
  5
6A39
330
6A2A
100
AcDbEntity
  8
0
100
AcDbVertex
100
AcDb2dVertex
 10
1335.785467124257
 20
490.1384826703389
 30
0.0
  0
VERTEX
  5
6A3A
330
6A2A
100
AcDbEntity
  8
0
100
AcDbVertex
100
AcDb2dVertex
 10
1335.43410422778
 20
491.0299766678946
 30
0.0
  0
VERTEX
  5
6A3B
330
6A2A
100
AcDbEntity
  8
0
100
AcDbVertex
100
AcDb2dVertex
 10
1335.280907286256
 20
491.9696850915853
 30
0.0
  0
VERTEX
  5
6A3C
330
6A2A
100
AcDbEntity
  8
0
100
AcDbVertex
100
AcDb2dVertex
 10
1335.274489822111
 20
492.2076583426188
 30
0.0
  0
SEQEND
  5
6A3D
330
6A2A
100
AcDbEntity
  8
0
  0
LINE
  5
6A3E
330
A
100
AcDbEntity
  8
0
  6
Continuous
 62
     7
370
    15
100
AcDbLine
 10
1331.774489822111
 20
463.6437516071922
 30
0.0
 11
1382.774489822111
 21
463.643751607192
 31
0.0
  0
LINE
  5
6A3F
330
A
100
AcDbEntity
  8
0
  6
Continuous
 62
     7
370
    15
100
AcDbLine
 10
1331.774489822111
 20
447.6539567515287
 30
0.0
 11
1331.774489822111
 21
467.6539567515288
 31
0.0
  0
LINE
  5
6A40
330
A
100
AcDbEntity
  8
0
  6
Continuous
 62
     7
370
    15
100
AcDbLine
 10
1314.774489822111
 20
462.4165399747751
 30
0.0
 11
1314.774489822111
 21
452.521973342281
 31
0.0
  0
LINE
  5
6A41
330
A
100
AcDbEntity
  8
0
  6
Continuous
 62
     7
370
    15
100
AcDbLine
 10
1324.274489822111
 20
458.5370659937949
 30
0.0
 11
1324.274489822111
 21
449.5219733422812
 31
0.0
  0
LINE
  5
6A42
330
A
100
AcDbEntity
  8
0
  6
Continuous
 62
     7
370
    15
100
AcDbLine
 10
1304.774489822111
 20
452.5219733422813
 30
0.0
 11
1304.774489822111
 21
462.4165399747751
 31
0.0
  0
LINE
  5
6A43
330
A
100
AcDbEntity
  8
0
  6
Continuous
 62
     7
370
    15
100
AcDbLine
 10
1293.774489822111
 20
449.0219733422812
 30
0.0
 11
1293.774489822111
 21
458.5482527839102
 31
0.0
  0
LINE
  5
6A44
330
A
100
AcDbEntity
  8
0
  6
Continuous
 62
     7
370
    15
100
AcDbLine
 10
1324.274489822111
 20
458.5370659937949
 30
0.0
 11
1314.774489822111
 21
458.5370659937949
 31
0.0
  0
LINE
  5
6A45
330
A
100
AcDbEntity
  8
0
  6
Continuous
 62
     7
370
    15
100
AcDbLine
 10
1299.50654062968
 20
467.653956751529
 30
0.0
 11
1331.774489822111
 21
467.6539567515288
 31
0.0
  0
LINE
  5
6A46
330
A
100
AcDbEntity
  8
0
  6
Continuous
 62
     7
370
    15
100
AcDbLine
 10
1299.50654062968
 20
457.9426877883499
 30
0.0
 11
1299.50654062968
 21
467.653956751529
 31
0.0
  0
LINE
  5
6A47
330
A
100
AcDbEntity
  8
0
  6
Continuous
 62
     7
370
    15
100
AcDbLine
 10
1297.774489822111
 20
460.5545470913313
 30
0.0
 11
1297.774489822111
 21
470.418758367604
 31
0.0
  0
LINE
  5
6A48
330
A
100
AcDbEntity
  8
0
  6
Continuous
 62
     7
370
    15
100
AcDbLine
 10
1293.774489822111
 20
463.7444052066167
 30
0.0
 11
1293.774489822111
 21
473.2706846482456
 31
0.0
  0
LINE
  5
6A49
330
A
100
AcDbEntity
  8
0
  6
Continuous
 62
     7
370
    15
100
AcDbLine
 10
1297.774489822111
 20
470.418758367604
 30
0.0
 11
1299.50654062968
 21
467.653956751529
 31
0.0
  0
LINE
  5
6A4A
330
A
100
AcDbEntity
  8
0
  6
Continuous
 62
     7
370
    15
100
AcDbLine
 10
1293.774489822111
 20
473.2706846482456
 30
0.0
 11
1297.774489822112
 21
473.2706846482456
 31
0.0
  0
LINE
  5
6A4B
330
A
100
AcDbEntity
  8
0
  6
Continuous
 62
     7
370
    15
100
AcDbLine
 10
1314.774489822111
 20
462.4165399747751
 30
0.0
 11
1304.774489822111
 21
462.4165399747751
 31
0.0
  0
LINE
  5
6A4C
330
A
100
AcDbEntity
  8
0
  6
Continuous
 62
     7
370
    15
100
AcDbLine
 10
1296.774489822111
 20
458.5482527839102
 30
0.0
 11
1296.774489822111
 21
463.7444052066167
 31
0.0
  0
LINE
  5
6A4D
330
A
100
AcDbEntity
  8
0
  6
Continuous
 62
     7
370
    15
100
AcDbLine
 10
1293.774489822111
 20
458.5482527839102
 30
0.0
 11
1293.774489822111
 21
463.7444052066167
 31
0.0
  0
LINE
  5
6A4E
330
A
100
AcDbEntity
  8
0
  6
Continuous
 62
     7
370
    15
100
AcDbLine
 10
1296.774489822111
 20
463.7444052066167
 30
0.0
 11
1293.774489822111
 21
463.7444052066167
 31
0.0
  0
LINE
  5
6A4F
330
A
100
AcDbEntity
  8
0
  6
Continuous
 62
     7
370
    15
100
AcDbLine
 10
1299.50654062968
 20
457.9426877883499
 30
0.0
 11
1304.774489822111
 21
457.9426877883496
 31
0.0
  0
LINE
  5
6A50
330
A
100
AcDbEntity
  8
0
  6
Continuous
 62
     7
370
    15
100
AcDbLine
 10
1297.774489822111
 20
460.5545470913313
 30
0.0
 11
1299.50654062968
 21
457.9426877883499
 31
0.0
  0
LINE
  5
6A51
330
A
100
AcDbEntity
  8
0
  6
Continuous
 62
     7
370
    15
100
AcDbLine
 10
1293.774489822111
 20
458.5482527839102
 30
0.0
 11
1296.774489822111
 21
458.5482527839102
 31
0.0
  0
LINE
  5
6A52
330
A
100
AcDbEntity
  8
0
  6
Continuous
 62
     7
370
    15
100
AcDbLine
 10
1314.774489822111
 20
442.5219733422813
 30
0.0
 11
1324.274489822111
 21
442.5219733422813
 31
0.0
  0
LINE
  5
6A53
330
A
100
AcDbEntity
  8
0
  6
Continuous
 62
     7
370
    15
100
AcDbLine
 10
1324.274489822111
 20
449.5219733422812
 30
0.0
 11
1314.774489822111
 21
449.5219733422812
 31
0.0
  0
LINE
  5
6A54
330
A
100
AcDbEntity
  8
0
  6
Continuous
 62
     7
370
    15
100
AcDbLine
 10
1293.774489822111
 20
443.0219733422813
 30
0.0
 11
1293.774489822111
 21
449.0219733422812
 31
0.0
  0
LINE
  5
6A55
330
A
100
AcDbEntity
  8
0
  6
Continuous
 62
     7
370
    15
100
AcDbLine
 10
1314.774489822111
 20
452.521973342281
 30
0.0
 11
1304.774489822111
 21
452.5219733422813
 31
0.0
  0
LINE
  5
6A56
330
A
100
AcDbEntity
  8
0
  6
Continuous
 62
     7
370
    15
100
AcDbLine
 10
1304.774489822111
 20
449.0219733422812
 30
0.0
 11
1304.774489822111
 21
452.5219733422813
 31
0.0
  0
LINE
  5
6A57
330
A
100
AcDbEntity
  8
0
  6
Continuous
 62
     7
370
    15
100
AcDbLine
 10
1304.774489822111
 20
449.0219733422812
 30
0.0
 11
1293.774489822111
 21
449.0219733422812
 31
0.0
  0
LINE
  5
6A58
330
A
100
AcDbEntity
  8
0
  6
Continuous
 62
     7
370
    15
100
AcDbLine
 10
1314.774489822111
 20
449.5219733422812
 30
0.0
 11
1314.774489822111
 21
452.521973342281
 31
0.0
  0
LINE
  5
6A59
330
A
100
AcDbEntity
  8
0
  6
Continuous
 62
     7
370
    15
100
AcDbLine
 10
1314.774489822111
 20
439.5219733422813
 30
0.0
 11
1304.774489822111
 21
439.5219733422813
 31
0.0
  0
LINE
  5
6A5A
330
A
100
AcDbEntity
  8
0
  6
Continuous
 62
     7
370
    15
100
AcDbLine
 10
1304.774489822111
 20
439.5219733422813
 30
0.0
 11
1304.774489822111
 21
443.0219733422813
 31
0.0
  0
LINE
  5
6A5B
330
A
100
AcDbEntity
  8
0
  6
Continuous
 62
     7
370
    15
100
AcDbLine
 10
1304.774489822111
 20
443.0219733422813
 30
0.0
 11
1293.774489822111
 21
443.0219733422813
 31
0.0
  0
LINE
  5
6A5C
330
A
100
AcDbEntity
  8
0
  6
Continuous
 62
     7
370
    15
100
AcDbLine
 10
1314.774489822111
 20
439.5219733422813
 30
0.0
 11
1314.774489822111
 21
442.5219733422813
 31
0.0
  0
LINE
  5
6A5D
330
A
100
AcDbEntity
  8
0
  6
Continuous
 62
     7
370
    15
100
AcDbLine
 10
1324.274489822111
 20
442.5219733422813
 30
0.0
 11
1324.274489822111
 21
449.5219733422812
 31
0.0
  0
LINE
  5
6A5E
330
A
100
AcDbEntity
  8
0
  6
Continuous
 62
     7
370
    15
100
AcDbLine
 10
1331.774489822111
 20
447.6539567515287
 30
0.0
 11
1324.274489822111
 21
447.6539567515288
 31
0.0
  0
LINE
  5
6A5F
330
A
100
AcDbEntity
  8
0
370
     0
100
AcDbLine
 10
1324.274489822111
 20
373.9238442949725
 30
0.0
 11
1314.774489822111
 21
373.9325580413864
 31
0.0
  0
LINE
  5
6A60
330
A
100
AcDbEntity
  8
0
370
     0
100
AcDbLine
 10
1304.774489822111
 20
368.2199273326016
 30
0.0
 11
1314.774489822111
 21
368.2199273326016
 31
0.0
  0
DIMENSION
  5
6B92
330
A
100
AcDbEntity
  8
AM_5
100
AcDbDimension
  2
*D34
 10
1331.774489822112
 20
263.1201872514243
 30
0.0
 11
1357.274489822112
 21
265.8701872514243
 31
0.0
 70
    32
 71
     5
 42
50.99999999999977
  3
AM_ISO$0
100
AcDbAlignedDimension
 13
1382.774489822111
 23
307.1908882905849
 33
0.0
 14
1331.774489822112
 24
290.1908882905849
 34
0.0
100
AcDbRotatedDimension
1001
ACAD
1000
DSTYLE
1002
{
1070
   272
1070
     8
1002
}
  0
DIMENSION
  5
6BB1
330
A
100
AcDbEntity
  8
AM_5
100
AcDbDimension
  2
*D35
 10
1324.274489822111
 20
256.6201872514244
 30
0.0
 11
1353.524489822111
 21
259.3701872514244
 31
0.0
 70
    32
 71
     5
 42
58.5
  3
AM_ISO$0
100
AcDbAlignedDimension
 13
1382.774489822111
 23
307.1908882905849
 33
0.0
 14
1324.274489822111
 24
280.1908882905849
 34
0.0
100
AcDbRotatedDimension
1001
ACAD
1000
DSTYLE
1002
{
1070
   174
1070
     1
1070
   272
1070
     8
1002
}
  0
DIMENSION
  5
6BEC
330
A
100
AcDbEntity
  8
AM_5
100
AcDbDimension
  2
*D36
 10
1324.274489822111
 20
256.6201872514244
 30
0.0
 11
1314.524489822112
 21
259.3701872514244
 31
0.0
 70
    32
 71
     5
 42
19.49999999999977
  3
AM_ISO$0
100
AcDbAlignedDimension
 13
1304.774489822112
 23
280.1908882905849
 33
0.0
 14
1324.274489822111
 24
280.1908882905849
 34
0.0
100
AcDbRotatedDimension
1001
ACAD
1000
DSTYLE
1002
{
1070
   174
1070
     1
1070
   272
1070
     8
1002
}
  0
DIMENSION
  5
6C18
330
A
100
AcDbEntity
  8
AM_5
100
AcDbDimension
  2
*D37
 10
1304.774489822112
 20
268.1908882905848
 30
0.0
 11
1309.774489822111
 21
270.9408882905848
 31
0.0
 70
    32
 71
     5
 42
10.0
  3
AM_ISO$0
100
AcDbAlignedDimension
 13
1314.774489822112
 23
280.1908882905849
 33
0.0
 14
1304.774489822112
 24
280.1908882905849
 34
0.0
100
AcDbRotatedDimension
1001
ACAD
1000
DSTYLE
1002
{
1070
   272
1070
     8
1002
}
  0
DIMENSION
  5
6C40
330
A
100
AcDbEntity
  8
AM_5
100
AcDbDimension
  2
*D38
 10
1269.830117796543
 20
280.1908882905849
 30
0.0
 11
1267.080117796543
 21
315.1908882905852
 31
0.0
 70
    32
 71
     5
 42
70.00000000000006
  3
AM_ISO$0
100
AcDbAlignedDimension
 13
1281.830117796543
 23
350.190888290585
 33
0.0
 14
1293.774489822111
 24
280.1908882905849
 34
0.0
 50
90.0
100
AcDbRotatedDimension
1001
ACAD
1000
DSTYLE
1002
{
1070
   272
1070
     8
1002
}
  0
DIMENSION
  5
6C68
330
A
100
AcDbEntity
  8
AM_5
100
AcDbDimension
  2
*D39
 10
1281.774488822111
 20
297.1908882905849
 30
0.0
 11
1279.024488822111
 21
302.6908882905852
 31
0.0
 70
    32
 71
     5
 42
11.00000000000011
  3
AM_ISO$0
100
AcDbAlignedDimension
 13
1293.774489822111
 23
308.190888290585
 33
0.0
 14
1293.774489822111
 24
297.1908882905849
 34
0.0
 50
90.0
100
AcDbRotatedDimension
1001
ACAD
1000
DSTYLE
1002
{
1070
   174
1070
     1
1070
   272
1070
     8
1002
}
  0
DIMENSION
  5
6C90
330
A
100
AcDbEntity
  8
AM_5
100
AcDbDimension
  2
*D40
 10
1281.774488822111
 20
291.1908882905849
 30
0.0
 11
1279.024488822111
 21
294.1908882905851
 31
0.0
 70
    32
 71
     5
 42
6.0
  3
AM_ISO$0
100
AcDbAlignedDimension
 13
1293.774489822112
 23
297.1908882905849
 33
0.0
 14
1293.774489822111
 24
291.1908882905849
 34
0.0
 50
90.0
100
AcDbRotatedDimension
1001
ACAD
1000
DSTYLE
1002
{
1070
   174
1070
     1
1070
   272
1070
     8
1002
}
  0
DIMENSION
  5
6CC0
330
A
100
AcDbEntity
  8
AM_5
100
AcDbDimension
  2
*D41
 10
1293.774489822111
 20
405.1908882905848
 30
0.0
 11
1338.274489822111
 21
408.1167341688693
 31
0.0
 70
    32
  1
(<>)
 71
     5
 42
89.00000000000023
  3
AM_ISO$0
100
AcDbAlignedDimension
 13
1382.774489822111
 23
393.1908882905849
 33
0.0
 14
1293.774489822111
 24
390.387040713291
 34
0.0
100
AcDbRotatedDimension
1001
ACAD
1000
DSTYLE
1002
{
1070
   272
1070
     8
1002
}
  0
DIMENSION
  5
6CF1
330
A
100
AcDbEntity
  8
AM_5
100
AcDbDimension
  2
*D42
 10
1402.735202934702
 20
549.643751607192
 30
0.0
 11
1399.985202934702
 21
506.6437516071922
 31
0.0
 70
    32
  1
%%c<>
 71
     5
 42
86.00000000000006
  3
AM_ISO$0
100
AcDbAlignedDimension
 13
1382.774489822111
 23
463.643751607192
 33
0.0
 14
1382.774489822112
 24
549.643751607192
 34
0.0
 50
90.0
100
AcDbRotatedDimension
1001
ACAD
1000
DSTYLE
1002
{
1070
   272
1070
     8
1002
}
  0
DIMENSION
  5
6D22
330
A
100
AcDbEntity
  8
AM_5
100
AcDbDimension
  2
*D43
 10
1370.774489822111
 20
561.643751607192
 30
0.0
 11
1376.774489822112
 21
564.3940960953809
 31
0.0
 70
    32
 71
     5
 42
12.00000000000023
  3
AM_ISO$0
100
AcDbAlignedDimension
 13
1382.774489822112
 23
549.643751607192
 33
0.0
 14
1370.774489822111
 24
523.4290764237304
 34
0.0
100
AcDbRotatedDimension
1001
ACAD
1000
DSTYLE
1002
{
1070
   174
1070
     1
1070
   272
1070
     8
1002
}
  0
DIMENSION
  5
6D4E
330
A
100
AcDbEntity
  8
AM_5
100
AcDbDimension
  2
*D44
 10
1340.274489822112
 20
561.6437516071924
 30
0.0
 11
1355.524489822112
 21
564.3937516071924
 31
0.0
 70
    32
 71
     5
 42
30.5
  3
AM_ISO$0
100
AcDbAlignedDimension
 13
1370.774489822112
 23
523.4290764237307
 33
0.0
 14
1340.274489822112
 24
494.5568898945838
 34
0.0
100
AcDbRotatedDimension
1001
ACAD
1000
DSTYLE
1002
{
1070
   174
1070
     1
1070
   272
1070
     8
1002
}
  0
DIMENSION
  5
6D7C
330
A
100
AcDbEntity
  8
AM_5
100
AcDbDimension
  2
*D45
 10
1293.774489822111
 20
579.6711972138409
 30
0.0
 11
1286.002002448696
 21
582.4211972138409
 31
0.0
 70
    32
 71
     5
 42
3.0
  3
AM_ISO$0
100
AcDbAlignedDimension
 13
1296.774489822112
 23
554.739250430474
 33
0.0
 14
1293.774489822111
 24
570.265529872103
 34
0.0
100
AcDbRotatedDimension
1001
ACAD
1000
DSTYLE
1002
{
1070
   272
1070
     8
1002
}
  0
DIMENSION
  5
6DA8
330
A
100
AcDbEntity
  8
AM_5
100
AcDbDimension
  2
*D46
 10
1293.774489822111
 20
586.1711972138399
 30
0.0
 11
1295.774489822111
 21
588.9211972138399
 31
0.0
 70
    32
 71
     5
 42
4.0
  3
AM_ISO$0
100
AcDbAlignedDimension
 13
1297.774489822112
 23
552.7329561230529
 33
0.0
 14
1293.774489822111
 24
570.265529872103
 34
0.0
100
AcDbRotatedDimension
1001
ACAD
1000
DSTYLE
1002
{
1070
   272
1070
     8
1002
}
  0
DIMENSION
  5
6E65
330
A
100
AcDbEntity
  8
AM_5
100
AcDbDimension
  2
*D47
 10
1489.802472959688
 20
383.3235390149964
 30
0.0
 11
1459.260090318364
 21
407.5453446225008
 31
0.0
 70
   163
  1
<>*5depth
 71
     5
 42
4.999999999998863
  3
AM_ISO$3
100
AcDbDiametricDimension
 15
1486.736350014162
 25
387.2730820370318
 35
0.0
 40
0.0
1001
ACAD
1000
DSTYLE
1002
{
1070
   272
1070
     8
1002
}
  0
DIMENSION
  5
6E9F
330
A
100
AcDbEntity
  8
AM_5
100
AcDbDimension
  2
*D49
 10
1481.037532195862
 20
374.3186620861526
 30
0.0
 11
1551.570093977048
 21
312.4650400599977
 31
0.0
 70
   163
  1
<>*2.5depth
 71
     5
 42
65.00000000000011
  3
AM_ISO$3
100
AcDbDiametricDimension
 15
1524.585231637734
 25
326.0631144950171
 35
0.0
 40
0.0
1001
ACAD
1000
DSTYLE
1002
{
1070
   172
1070
     1
1070
   272
1070
     8
1002
}
  0
DIMENSION
  5
6EDB
330
A
100
AcDbEntity
  8
AM_5
100
AcDbDimension
  2
*D50
 10
1535.904170588112
 20
276.830643887939
 30
0.0
 11
1516.351714051542
 21
268.7317512127808
 31
0.0
 70
   161
  1
<>*5depth
 71
     5
 42
5.000000000000454
  3
AM_ISO$0
100
AcDbAlignedDimension
 13
1515.426336947758
 23
313.2028779417323
 33
0.0
 14
1520.045734610315
 24
315.116295103558
 34
0.0
1001
ACAD
1000
DSTYLE
1002
{
1070
   272
1070
     8
1002
}
  0
LINE
  5
6F03
330
A
100
AcDbEntity
  8
0
  6
Continuous
370
     0
100
AcDbLine
 10
1516.013960333394
 20
318.3170444189453
 30
0.0
 11
1518.323659164672
 21
319.2737529998584
 31
0.0
  0
LINE
  5
6F13
330
A
100
AcDbEntity
  8
0
  6
Continuous
370
     0
100
AcDbLine
 10
1518.69274435995
 20
311.8498876913668
 30
0.0
 11
1521.002443191228
 21
312.8065962722798
 31
0.0
  0
DIMENSION
  5
6F23
330
A
100
AcDbEntity
  8
AM_5
100
AcDbDimension
  2
*D51
 10
1461.755864424225
 20
288.2658598227751
 30
0.0
 11
1462.957141125353
 21
292.5518176255684
 31
0.0
 70
    33
 71
     5
 42
6.999999999999488
  3
AM_ISO$0
100
AcDbAlignedDimension
 13
1516.013960333394
 23
318.3170444189453
 33
0.0
 14
1518.69274435995
 24
311.849887691367
 34
0.0
1001
ACAD
1000
DSTYLE
1002
{
1070
   174
1070
     1
1070
   272
1070
     8
1002
}
  0
DIMENSION
  5
6F58
330
A
100
AcDbEntity
  8
AM_5
100
AcDbDimension
  2
*D52
 10
1459.07708039766
 20
294.7330165503652
 30
0.0
 11
1455.016459903771
 21
311.7223179251894
 31
0.0
 70
    32
 71
     5
 42
34.50000000000017
  3
AM_ISO$0
100
AcDbAlignedDimension
 13
1502.811381916799
 23
350.1908882905848
 33
0.0
 14
1516.013960333394
 24
318.3170444189452
 34
0.0
 50
112.4999999999919
100
AcDbRotatedDimension
1001
ACAD
1000
DSTYLE
1002
{
1070
   174
1070
     1
1070
   272
1070
     8
1002
}
  0
DIMENSION
  5
6F74
330
A
100
AcDbEntity
  8
AM_5
100
AcDbDimension
  2
*D53
 10
1445.874501981061
 20
326.6068604220031
 30
0.0
 11
1441.144185480533
 21
345.212950978722
 31
0.0
 70
    32
 71
     5
 42
37.99999999999994
  3
AM_ISO$0
100
AcDbAlignedDimension
 13
1488.269411486925
 23
385.2983105260137
 33
0.0
 14
1502.811381916799
 24
350.1908882905848
 34
0.0
 50
112.4999999999919
100
AcDbRotatedDimension
1001
ACAD
1000
DSTYLE
1002
{
1070
   174
1070
     1
1070
   272
1070
     8
1002
}
  0
DIMENSION
  5
7003
330
A
100
AcDbEntity
  8
AM_5
100
AcDbDimension
  2
*D55
 10
1533.598753487797
 20
367.0698414115241
 30
0.0
 11
1580.001480941245
 21
396.30160525357
 31
0.0
 70
   163
  1
3-M6*1*12depth
 71
     5
 42
6.000000000000909
  3
AM_ISO$3
100
AcDbDiametricDimension
 15
1537.84194103342
 25
371.3119351696445
 35
0.0
 40
0.0
1001
ACAD
1000
DSTYLE
1002
{
1070
   272
1070
     8
1002
}
  0
DIMENSION
  5
7057
330
A
100
AcDbEntity
  8
AM_5
100
AcDbDimension
  2
*D56
 10
1174.130900779884
 20
385.4406925962022
 30
0.0
 11
1138.850153321796
 21
418.8292735149636
 31
0.0
 70
   163
  1
3-<>\P%%c11*17depth
 71
     5
 42
6.600000000000079
  3
AM_ISO$3
100
AcDbDiametricDimension
 15
1170.483203619979
 25
390.9410839849688
 35
0.0
 40
0.0
1001
ACAD
1000
DSTYLE
1002
{
1070
   272
1070
     8
1002
}
  0
MTEXT
  5
708A
330
A
100
AcDbEntity
  8
AM_5
100
AcDbMText
 10
1124.428423767499
 20
417.5391866064233
 30
0.0
 40
3.5
 41
61.42888888888889
 71
     1
 72
     5
  1
P.C.D%%C76\P(mounting hole)
 73
     1
 44
1.0
1001
ACAD
1000
MTEXTBEGIN
1070
    73
1070
     1
1070
    44
1040
1.0
1070
    74
1070
     0
1000
MTEXTEND
  0
DIMENSION
  5
709B
330
A
100
AcDbEntity
  8
AM_5
100
AcDbDimension
  2
*D57
 10
1104.292969089608
 20
396.3870407132922
 30
0.0
 11
1098.911100893678
 21
392.5660605346802
 31
0.0
 70
    33
 71
     5
 42
12.00000000000034
  3
AM_ISO$0
100
AcDbAlignedDimension
 13
1108.68527393502
 23
379.9947358678786
 33
0.0
 14
1114.685273935021
 24
390.3870407132919
 34
0.0
1001
ACAD
1000
DSTYLE
1002
{
1070
   272
1070
     8
1002
}
  0
DIMENSION
  5
70C3
330
A
100
AcDbEntity
  8
AM_5
100
AcDbDimension
  2
*D58
 10
1185.307052199931
 20
267.1852262687992
 30
0.0
 11
1172.307052199931
 21
267.1852262687992
 31
0.0
 70
   160
 71
     5
 42
26.0
  3
AM_ISO$0
100
AcDbAlignedDimension
 13
1159.307052199931
 23
280.1908882905849
 33
0.0
 14
1185.307052199931
 24
280.1908882905849
 34
0.0
100
AcDbRotatedDimension
1001
ACAD
1000
DSTYLE
1002
{
1070
   272
1070
     8
1002
}
  0
DIMENSION
  5
70F4
330
A
100
AcDbEntity
  8
AM_5
100
AcDbDimension
  2
*D59
 10
1192.307052199931
 20
260.6852262687979
 30
0.0
 11
1172.307052199933
 21
263.4352262687979
 31
0.0
 70
    32
 71
     5
 42
39.99999999999636
  3
AM_ISO$0
100
AcDbAlignedDimension
 13
1152.307052199935
 23
293.6223457956598
 33
0.0
 14
1192.307052199931
 24
293.6223457956613
 34
0.0
100
AcDbRotatedDimension
1001
ACAD
1000
DSTYLE
1002
{
1070
   272
1070
     8
1002
}
  0
DIMENSION
  5
711C
330
A
100
AcDbEntity
  8
AM_5
100
AcDbDimension
  2
*D60
 10
1234.07486652264
 20
338.2058956111709
 30
0.0
 11
1240.061082454808
 21
344.8374654715782
 31
0.0
 70
    33
 71
     5
 42
17.00000000000045
  3
AM_ISO$0
100
AcDbAlignedDimension
 13
1228.165690744028
 23
382.4408882905849
 33
0.0
 14
1213.443258879692
 24
373.9408882905849
 34
0.0
1001
ACAD
1000
DSTYLE
1002
{
1070
   174
1070
     1
1070
   272
1070
     8
1002
}
  0
DIMENSION
  5
714E
330
A
100
AcDbEntity
  8
AM_5
100
AcDbDimension
  2
*D61
 10
1234.07486652264
 20
338.2058956111721
 30
0.0
 11
1221.065010829231
 21
330.6946519244644
 31
0.0
 70
   160
 71
     5
 42
5.499999999999317
  3
AM_ISO$0
100
AcDbAlignedDimension
 13
1211.680119158878
 23
365.9947358678782
 33
0.0
 14
1213.443258879692
 24
373.940888290585
 34
0.0
 50
29.99999999999913
100
AcDbRotatedDimension
1001
ACAD
1000
DSTYLE
1002
{
1070
   174
1070
     1
1070
   272
1070
     8
1002
}
  0
DIMENSION
  5
7208
330
A
100
AcDbEntity
  8
AM_5
100
AcDbDimension
  2
*D64
 10
1208.015125084482
 20
374.6821832925166
 30
0.0
 11
1123.998167286682
 21
321.4032680009867
 31
0.0
 70
   163
 71
     5
 42
86.60000000000014
  3
AM_ISO$3
100
AcDbDiametricDimension
 15
1136.598979315381
 25
325.6995932886536
 35
0.0
 40
0.0
1001
ACAD
1000
DSTYLE
1002
{
1070
   172
1070
     1
1070
   272
1070
     8
1002
}
  0
ARC
  5
722F
330
A
100
AcDbEntity
  8
0
100
AcDbCircle
 10
1172.307052199931
 20
350.190888290585
 30
0.0
 40
59.99999999999998
100
AcDbArc
 50
250.5287793655093
 51
264.2608295227383
  0
DIMENSION
  5
7246
330
A
100
AcDbEntity
  8
AM_5
100
AcDbDimension
  2
*D66
 10
1216.335043126162
 20
390.9528315097177
 30
0.0
 11
1118.499884228322
 21
305.3527507495392
 31
0.0
 70
   163
 71
     5
 42
120.0
  3
AM_ISO$3
100
AcDbDiametricDimension
 15
1128.279061273701
 25
309.4289450714524
 35
0.0
 40
0.0
1001
ACAD
1000
DSTYLE
1002
{
1070
   172
1070
     1
1070
   272
1070
     8
1002
}
  0
ENDSEC
  0
SECTION
  2
OBJECTS
  0
DICTIONARY
  5
19
330
0
100
AcDbDictionary
281
     1
  3
ACAD_COLOR
350
ECA
  3
ACAD_GROUP
350
1A
  3
ACAD_LAYOUT
350
1E
  3
ACAD_MATERIAL
350
EC9
  3
ACAD_MLINESTYLE
350
1B
  3
ACAD_PLOTSETTINGS
350
22
  3
ACAD_PLOTSTYLENAME
350
1F
  3
ACAD_TABLESTYLE
350
ECB
  3
ACAD_WIPEOUT_VARS
350
23
  3
AcadDim
350
28D5
  3
ACDBHEADERROUNDTRIPXREC
350
73F1
  3
AcDbVariableDictionary
350
1257
  3
AcmDictionary
350
F90
  3
AMG
350
ED2
  3
AMGSNAPSETTINGS
350
FD1
  3
DWGPROPS
350
73F0
  3
MAPISURF_MODULE
350
F5E
  0
DICTIONARY
  5
1002
330
2
100
AcDbDictionary
280
     1
281
     1
  3
ACAD_LAYERFILTERS
360
1004
  3
ACAD_LAYERSTATES
360
1B79
  3
ACLYDICTIONARY
360
1003
  3
AMLAYER_GROUPCOLORS
360
16D2
  0
DICTIONARY
  5
9C9
330
A
100
AcDbDictionary
280
     1
281
     1
  3
ACAD_INDEX
360
124F
  3
ACAD_LAYOUTSELFREF
360
A64
  3
ACAD_SORTENTS
360
1711
  0
DICTIONARY
  5
9CB
330
B
100
AcDbDictionary
280
     1
281
     1
  3
ACAD_LAYOUTSELFREF
360
A65
  0
DICTIONARY
  5
ECA
102
{ACAD_REACTORS
330
19
102
}
330
19
100
AcDbDictionary
281
     1
  0
DICTIONARY
  5
1A
102
{ACAD_REACTORS
330
19
102
}
330
19
100
AcDbDictionary
281
     1
  0
DICTIONARY
  5
1E
102
{ACAD_REACTORS
330
19
102
}
330
19
100
AcDbDictionary
281
     1
  3
Model
350
A68
  3
配置1
350
A69
  0
DICTIONARY
  5
EC9
102
{ACAD_REACTORS
330
19
102
}
330
19
100
AcDbDictionary
281
     1
  0
DICTIONARY
  5
1B
102
{ACAD_REACTORS
330
19
102
}
330
19
100
AcDbDictionary
281
     1
  3
STANDARD
350
1C
  0
DICTIONARY
  5
22
102
{ACAD_REACTORS
330
19
102
}
330
19
100
AcDbDictionary
281
     1
  0
ACDBDICTIONARYWDFLT
  5
1F
102
{ACAD_REACTORS
330
19
102
}
330
19
100
AcDbDictionary
281
     1
  3
Normal
350
1D
100
AcDbDictionaryWithDefault
340
1D
  0
DICTIONARY
  5
ECB
102
{ACAD_REACTORS
330
19
102
}
330
19
100
AcDbDictionary
281
     1
  3
Standard
350
ECC
  0
WIPEOUTVARIABLES
  5
23
330
19
100
AcDbWipeoutVariables
 70
     1
  0
XRECORD
  5
28D5
102
{ACAD_REACTORS
330
19
102
}
330
19
100
AcDbXrecord
280
     1
 90
   990106
  3

 60
     0
 61
     0
 62
     4
 63
     4
 64
     1
 65
     0
 66
     0
 67
     3
 68
     0
 69
     0
 70
     0
 71
     0
 72
     0
 40
0.0
170
     2
340
3FEC
  0
DICTIONARY
  5
73F1
102
{ACAD_REACTORS
330
19
102
}
330
19
100
AcDbDictionary
281
     1
  0
DICTIONARY
  5
1257
102
{ACAD_REACTORS
330
19
102
}
330
19
100
AcDbDictionary
281
     1
  3
CTABLESTYLE
350
1258
  3
DIMASSOC
350
73ED
  3
INDEXCTL
350
73EC
  3
PROJECTNAME
350
73EE
  0
DICTIONARY
  5
F90
102
{ACAD_REACTORS
330
19
102
}
330
19
100
AcDbDictionary
281
     1
  3
AcmStdDictionary
350
F9E
  3
AMDTSECTSYM_ARROWCOLOR
350
FBC
  0
DICTIONARY
  5
ED2
102
{ACAD_REACTORS
330
19
102
}
330
19
100
AcDbDictionary
281
     1
  3
AcMgSettings
350
ED3
  0
DICTIONARY
  5
FD1
102
{ACAD_REACTORS
330
19
102
}
330
19
100
AcDbDictionary
281
     1
  3
DIMENSION
350
FD6
  3
FEA
350
FD5
  3
HATCH (1)
350
FD2
  3
HATCH (2)
350
FD3
  3
SIMPLE WELD
350
FD7
  3
SYMBOLS
350
FD4
  0
XRECORD
  5
73F0
102
{ACAD_REACTORS
330
19
102
}
330
19
100
AcDbXrecord
280
     1
  1
DWGPROPS COOKIE
  2

  3

  4

  6

  7

  8

  9

300
AmdtFileType=84
301
=
302
=
303
=
304
=
305
=
306
=
307
=
308
=
309
=
 40
0.3423752546296296
 41
2452359.824870255
 42
2455323.678438067
  1

 90
        1
  0
DICTIONARY
  5
1004
102
{ACAD_REACTORS
330
1002
102
}
330
1002
100
AcDbDictionary
281
     1
  0
DICTIONARY
  5
1B79
102
{ACAD_REACTORS
330
1002
102
}
330
1002
100
AcDbDictionary
281
     1
  0
DICTIONARY
  5
1003
102
{ACAD_REACTORS
330
1002
102
}
330
1002
100
AcDbDictionary
281
     1
1001
ACAD
1000
<All
  0
DICTIONARY
  5
16D2
102
{ACAD_REACTORS
330
1002
102
}
330
1002
100
AcDbDictionary
280
     1
281
     1
  0
DICTIONARY
  5
124F
102
{ACAD_REACTORS
330
9C9
102
}
330
9C9
100
AcDbDictionary
281
     1
  3
*A1
350
1250
  0
XRECORD
  5
A64
102
{ACAD_REACTORS
330
9C9
102
}
330
9C9
100
AcDbXrecord
280
     1
340
A
  0
SORTENTSTABLE
  5
1711
102
{ACAD_REACTORS
330
9C9
102
}
330
9C9
100
AcDbSortentsTable
330
A
331
6F58
  5
6F74
331
6F03
  5
6F09
331
6999
  5
699A
331
697A
  5
697B
331
695B
  5
695C
331
693C
  5
693D
331
6925
  5
6926
331
6906
  5
6907
331
68E7
  5
68E8
331
68C8
  5
68C9
331
68B1
  5
68B2
331
6892
  5
6893
331
6873
  5
6874
331
6A44
  5
6A45
331
6854
  5
6855
331
683D
  5
683D
331
681E
  5
681E
331
67FF
  5
67FF
331
7003
  5
7057
331
4F10
  5
4F11
331
1C64
  5
1C68
331
6F23
  5
6F58
331
699A
  5
699B
331
697B
  5
697C
331
695C
  5
695D
331
693D
  5
693E
331
6926
  5
6927
331
6907
  5
6908
331
68E8
  5
68E9
331
68C9
  5
68CA
331
68B2
  5
68B3
331
6893
  5
6894
331
6874
  5
6875
331
6A45
  5
6A46
331
6855
  5
6856
331
683E
  5
683E
331
681F
  5
681F
331
6800
  5
6800
331
4F11
  5
4FDC
331
1C84
  5
1C85
331
699B
  5
699C
331
697C
  5
697D
331
695D
  5
695E
331
693E
  5
693F
331
6927
  5
6928
331
6908
  5
6909
331
68E9
  5
68EA
331
68CA
  5
68CB
331
68B3
  5
68B4
331
6894
  5
6895
331
6875
  5
6876
331
6A46
  5
6A47
331
6856
  5
6857
331
683F
  5
683F
331
6820
  5
6820
331
6801
  5
6801
331
1C85
  5
1C86
331
699C
  5
699D
331
697D
  5
697E
331
695E
  5
695F
331
693F
  5
6940
331
6928
  5
6929
331
6909
  5
690A
331
68EA
  5
68EB
331
68CB
  5
68CC
331
68B4
  5
68B5
331
6895
  5
6896
331
6876
  5
6877
331
6A47
  5
6A48
331
6857
  5
6858
331
6840
  5
6840
331
6821
  5
6821
331
6802
  5
6802
331
1C86
  5
1C8A
331
6C18
  5
6C40
331
699D
  5
69B6
331
697E
  5
697F
331
695F
  5
6960
331
6940
  5
6941
331
6929
  5
692A
331
690A
  5
690B
331
68EB
  5
68EC
331
68CC
  5
68CD
331
68B5
  5
68B6
331
6896
  5
6897
331
6877
  5
6878
331
6858
  5
6859
331
6841
  5
6841
331
6822
  5
6822
331
6803
  5
6803
331
28D6
  5
2907
331
1C68
  5
1C6C
331
697F
  5
6980
331
6960
  5
6961
331
6941
  5
6942
331
692A
  5
692B
331
690B
  5
690C
331
68EC
  5
68ED
331
68CD
  5
68CE
331
68B6
  5
68B7
331
6897
  5
6898
331
6878
  5
6879
331
6859
  5
685A
331
6842
  5
6842
331
6823
  5
6823
331
6804
  5
6804
331
709B
  5
70C3
331
28D7
  5
2945
331
69D5
  5
69E9
331
69B6
  5
69BF
331
6980
  5
6981
331
6961
  5
6962
331
6942
  5
6943
331
692B
  5
692C
331
690C
  5
690D
331
68ED
  5
68EE
331
68CE
  5
68CF
331
68B7
  5
68B8
331
6898
  5
6899
331
6879
  5
687A
331
685A
  5
685B
331
6843
  5
6843
331
6824
  5
6824
331
6805
  5
6805
331
6D22
  5
6D4E
331
6981
  5
6982
331
6962
  5
6963
331
6943
  5
6944
331
692C
  5
692D
331
690D
  5
690E
331
68EE
  5
68EF
331
68CF
  5
68D0
331
68B8
  5
68B9
331
6899
  5
689A
331
687A
  5
687B
331
685B
  5
685C
331
6844
  5
6844
331
6825
  5
6825
331
6806
  5
6806
331
1C8A
  5
1C8B
331
6C90
  5
6CC0
331
6982
  5
6983
331
6963
  5
6964
331
6944
  5
6945
331
692D
  5
692E
331
690E
  5
690F
331
68EF
  5
68F0
331
68D0
  5
68D1
331
68B9
  5
68BA
331
689A
  5
689B
331
687B
  5
687C
331
685C
  5
685D
331
6845
  5
6845
331
6826
  5
6826
331
6807
  5
6807
331
1C8B
  5
1C8C
331
1C6C
  5
1C6D
331
6983
  5
6984
331
6964
  5
6965
331
6945
  5
6946
331
692E
  5
692F
331
690F
  5
6910
331
68F0
  5
68F1
331
68D1
  5
68D2
331
68BA
  5
68BB
331
689B
  5
689C
331
687C
  5
687D
331
685D
  5
685E
331
6846
  5
6847
331
6827
  5
6827
331
6808
  5
6808
331
70F4
  5
711C
331
1C8C
  5
1C8D
331
1C6D
  5
1C71
331
6984
  5
6985
331
6965
  5
6966
331
6946
  5
6947
331
692F
  5
6930
331
6910
  5
6911
331
68F1
  5
68F2
331
68D2
  5
68D3
331
68BB
  5
68BC
331
689C
  5
689D
331
687D
  5
687E
331
685E
  5
685F
331
6847
  5
6848
331
6828
  5
6828
331
6809
  5
6809
331
1C18
  5
1C19
331
1C8D
  5
1C8E
331
6985
  5
6986
331
6966
  5
6967
331
6947
  5
6948
331
6930
  5
6931
331
6911
  5
6912
331
68F2
  5
68F3
331
68D3
  5
68D4
331
68BC
  5
68BD
331
689D
  5
689E
331
687E
  5
687F
331
685F
  5
6860
331
6829
  5
6829
331
680A
  5
680A
331
1C38
  5
1C39
331
1C19
  5
1C1A
331
1C8E
  5
1C8F
331
6D7C
  5
6DA8
331
6CF1
  5
6D22
331
6986
  5
6987
331
6967
  5
6968
331
6948
  5
6949
331
6931
  5
6932
331
6912
  5
6913
331
68F3
  5
68F4
331
68D4
  5
68D5
331
68BD
  5
68BE
331
689E
  5
689F
331
687F
  5
6880
331
6860
  5
6861
331
682A
  5
682A
331
680B
  5
680B
331
1C39
  5
1C3A
331
1C1A
  5
1C1B
331
1C8F
  5
1C90
331
6C40
  5
6C68
331
6A1A
  5
6A23
331
6987
  5
6988
331
6968
  5
6969
331
6949
  5
694A
331
6932
  5
6933
331
6913
  5
6914
331
68F4
  5
68F5
331
68D5
  5
68D6
331
68BE
  5
68BF
331
689F
  5
68A0
331
6880
  5
6881
331
6861
  5
6862
331
682B
  5
682B
331
680C
  5
680C
331
1C3A
  5
1C3B
331
1C1B
  5
1C1C
331
6988
  5
6989
331
6969
  5
696A
331
694A
  5
694B
331
6933
  5
6934
331
6914
  5
6915
331
68F5
  5
68F6
331
68D6
  5
68D7
331
68BF
  5
68C0
331
68A0
  5
68A1
331
6881
  5
6882
331
6BEC
  5
6C18
331
6862
  5
6863
331
682C
  5
682C
331
680D
  5
680D
331
714E
  5
7208
331
1C3B
  5
1C3C
331
1C1C
  5
1C1D
331
69BF
  5
69D5
331
6989
  5
698A
331
696A
  5
696B
331
694B
  5
694C
331
6934
  5
6935
331
6915
  5
6916
331
68F6
  5
68F7
331
68D7
  5
68D8
331
68A1
  5
68A2
331
6882
  5
6883
331
6863
  5
6864
331
682D
  5
682D
331
680E
  5
680E
331
1C3C
  5
1C3D
331
1C1D
  5
1C1E
331
6F13
  5
6F23
331
6E9F
  5
6EDB
331
698A
  5
698B
331
696B
  5
696C
331
694C
  5
694D
331
6935
  5
6936
331
6916
  5
6917
331
68F7
  5
68F8
331
68D8
  5
68D9
331
68A2
  5
68A3
331
6883
  5
6884
331
6864
  5
6865
331
682E
  5
682E
331
680F
  5
680F
331
1C3D
  5
1C3E
331
1C1E
  5
1C1F
331
698B
  5
698C
331
696C
  5
696D
331
694D
  5
694E
331
6936
  5
6937
331
6917
  5
6918
331
68F8
  5
68F9
331
68D9
  5
68DA
331
68A3
  5
68A4
331
6884
  5
6885
331
6865
  5
6866
331
682F
  5
682F
331
1C3E
  5
1C3F
331
1C1F
  5
1C20
331
698C
  5
698D
331
696D
  5
696E
331
694E
  5
694F
331
6937
  5
6938
331
6918
  5
6919
331
68F9
  5
68FA
331
68DA
  5
68DB
331
68A4
  5
68A5
331
6885
  5
6886
331
6866
  5
6867
331
1C3F
  5
1C40
331
1C20
  5
1C21
331
6A01
  5
6A1A
331
698D
  5
698E
331
696E
  5
696F
331
694F
  5
6950
331
6919
  5
691A
331
68FA
  5
68FB
331
68DB
  5
68DC
331
68A5
  5
68A6
331
6886
  5
6887
331
6867
  5
6868
331
1C40
  5
1C41
331
1C21
  5
1C22
331
6D4E
  5
6D7C
331
698E
  5
698F
331
696F
  5
6970
331
6950
  5
6951
331
691A
  5
691B
331
68FB
  5
68FC
331
68DC
  5
68DD
331
68A6
  5
68A7
331
6887
  5
6888
331
1C41
  5
1C42
331
1C22
  5
1C23
331
698F
  5
6990
331
6970
  5
6971
331
6951
  5
6952
331
691B
  5
691C
331
68FC
  5
68FD
331
68DD
  5
68DE
331
68A7
  5
68A8
331
1C42
  5
1C43
331
1C23
  5
1C24
331
6A23
  5
6A24
331
6990
  5
6991
331
6971
  5
6972
331
6952
  5
6953
331
691C
  5
691D
331
68FD
  5
68FE
331
68DE
  5
68DF
331
1C43
  5
1C44
331
1C24
  5
1C25
331
6A24
  5
6A25
331
6991
  5
6992
331
6972
  5
6973
331
6953
  5
6954
331
691D
  5
691E
331
68FE
  5
68FF
331
68DF
  5
68E0
331
1C44
  5
1C45
331
1C25
  5
1C26
331
6A25
  5
6A26
331
6992
  5
6993
331
6973
  5
6974
331
6954
  5
6955
331
691E
  5
691F
331
68FF
  5
6900
331
1C45
  5
1C46
331
1C26
  5
1C27
331
6DA8
  5
6E65
331
6A26
  5
6A27
331
6993
  5
6994
331
6974
  5
6975
331
6955
  5
6956
331
691F
  5
6920
331
1C46
  5
1C47
331
1C27
  5
1C28
331
6A27
  5
6A28
331
69E9
  5
69EA
331
6994
  5
6995
331
6975
  5
6976
331
6956
  5
6957
331
1C47
  5
1C48
331
1C28
  5
1C29
331
69EA
  5
69EB
331
6995
  5
6996
331
6976
  5
6977
331
6957
  5
6958
331
1C48
  5
1C49
331
1C29
  5
1C2A
331
69EB
  5
6A01
331
6996
  5
6997
331
6977
  5
6978
331
1C49
  5
1C4A
331
1C2A
  5
1C2B
331
6997
  5
6998
331
1C4A
  5
1C4B
331
1C2B
  5
1C2C
331
1C4B
  5
1C4C
331
1C2C
  5
1C2D
331
1C4C
  5
1C4D
331
1C2D
  5
1C2E
331
1C4D
  5
1C4E
331
1C2E
  5
1C2F
331
1C4E
  5
1C4F
331
1C2F
  5
1C30
331
1C4F
  5
1C50
331
1C30
  5
1C31
331
1C11
  5
1C12
331
1C31
  5
1C32
331
1C12
  5
1C13
331
6A28
  5
6A29
331
1C32
  5
1C33
331
1C13
  5
1C14
331
6A48
  5
6A49
331
6A29
  5
6A2A
331
1C33
  5
1C34
331
1C14
  5
1C15
331
6A49
  5
6A4A
331
6A2A
  5
6A3E
331
1C34
  5
1C35
331
1C15
  5
1C16
331
6A4A
  5
6A4B
331
1C16
  5
1C17
331
1C35
  5
1C36
331
6A4B
  5
6A4C
331
1C36
  5
1C37
331
1C17
  5
1C18
331
6A4C
  5
6A4D
331
1C37
  5
1C38
331
6A4D
  5
6A4E
331
6A4E
  5
6A4F
331
6A4F
  5
6A50
331
1C50
  5
1C51
331
6A50
  5
6A51
331
1C51
  5
1C52
331
6A51
  5
6A52
331
1C90
  5
1C91
331
1C71
  5
1C72
331
1C52
  5
1C53
331
6A52
  5
6A53
331
7208
  5
722F
331
1C91
  5
1C92
331
1C72
  5
1C73
331
1C53
  5
1C54
331
6A53
  5
6A54
331
1C92
  5
1C93
331
1C73
  5
1C74
331
1C54
  5
1C55
331
6A54
  5
6A55
331
1C74
  5
1C75
331
1C55
  5
1C56
331
1C93
  5
1C94
331
6BB1
  5
6BEC
331
6B92
  5
6BB1
331
6A55
  5
6A56
331
6810
  5
6810
331
333B
  5
333B
331
1C94
  5
1C95
331
1C75
  5
1C76
331
1C56
  5
1C57
331
4412
  5
4412
331
6A56
  5
6A57
331
6830
  5
6830
331
6811
  5
6811
331
711C
  5
714E
331
333C
  5
333C
331
1C95
  5
1C96
331
1C76
  5
1C77
331
1C57
  5
1C58
331
6A57
  5
6A58
331
6848
  5
6849
331
6831
  5
6831
331
6812
  5
6812
331
708A
  5
709B
331
1C96
  5
1C97
331
1C77
  5
1C78
331
1C58
  5
1C59
331
6E65
  5
6E9F
331
6868
  5
6869
331
6A58
  5
6A59
331
6849
  5
684A
331
6832
  5
6832
331
6813
  5
6813
331
1C97
  5
1C98
331
1C78
  5
1C7C
331
1C59
  5
1C5A
331
6888
  5
6889
331
6869
  5
686A
331
6A59
  5
6A5A
331
684A
  5
684B
331
6833
  5
6833
331
6814
  5
6814
331
67F5
  5
67F5
331
1C98
  5
1C99
331
1C5A
  5
1C5B
331
6EDB
  5
6EF9
331
6C68
  5
6C90
331
68A8
  5
68A9
331
6889
  5
688A
331
686A
  5
686B
331
6A5A
  5
6A5B
331
684B
  5
684C
331
6834
  5
6834
331
6815
  5
6815
331
67F6
  5
67F6
331
70C3
  5
70F4
331
1C99
  5
1C9A
331
1C5B
  5
1C5C
331
68C0
  5
68C1
331
68A9
  5
68AA
331
688A
  5
688B
331
686B
  5
686C
331
6A5B
  5
6A5C
331
684C
  5
684D
331
6835
  5
6835
331
6816
  5
6816
331
67F7
  5
67F7
331
1C9A
  5
1C9B
331
1C5C
  5
1C5D
331
68E0
  5
68E1
331
68C1
  5
68C2
331
68AA
  5
68AB
331
688B
  5
688C
331
686C
  5
686D
331
6A5C
  5
6A5D
331
684D
  5
684E
331
6836
  5
6836
331
6817
  5
6817
331
67F8
  5
67F8
331
1C7C
  5
1C80
331
1C5D
  5
1C5E
331
1C9B
  5
2171
331
6CC0
  5
6CF1
331
6900
  5
6901
331
68E1
  5
68E2
331
68C2
  5
68C3
331
68AB
  5
68AC
331
688C
  5
688D
331
686D
  5
686E
331
6A5D
  5
6A5E
331
684E
  5
684F
331
6A3E
  5
6A3F
331
6837
  5
6837
331
6818
  5
6818
331
67F9
  5
67F9
331
1C5E
  5
1C5F
331
3FEB
  5
3FEB
331
6920
  5
6921
331
6901
  5
6902
331
68E2
  5
68E3
331
68C3
  5
68C4
331
68AC
  5
68AD
331
688D
  5
688E
331
686E
  5
686F
331
6A5E
  5
6A5F
331
684F
  5
6850
331
6A3F
  5
6A40
331
6838
  5
6838
331
6819
  5
6819
331
67FA
  5
67FA
331
3FEC
  5
3FEC
331
1C5F
  5
1C60
331
6938
  5
6939
331
6921
  5
6922
331
6902
  5
6903
331
68E3
  5
68E4
331
68C4
  5
68C5
331
68AD
  5
68AE
331
688E
  5
688F
331
686F
  5
6870
331
6A5F
  5
6A60
331
6850
  5
6851
331
6A40
  5
6A41
331
6839
  5
6839
331
681A
  5
681A
331
67FB
  5
67FB
331
4F0C
  5
4F0D
331
1C60
  5
1C61
331
6F74
  5
7003
331
6958
  5
6959
331
6939
  5
693A
331
6922
  5
6923
331
6903
  5
6904
331
68E4
  5
68E5
331
68C5
  5
68C6
331
68AE
  5
68AF
331
688F
  5
6890
331
6870
  5
6871
331
6A60
  5
6B92
331
6851
  5
6852
331
6A41
  5
6A42
331
683A
  5
683A
331
681B
  5
681B
331
67FC
  5
67FC
331
4F0D
  5
4F0E
331
1C80
  5
1C84
331
1C61
  5
1C62
331
6978
  5
6979
331
6959
  5
695A
331
693A
  5
693B
331
6923
  5
6924
331
6904
  5
6905
331
68E5
  5
68E6
331
68C6
  5
68C7
331
68AF
  5
68B0
331
6890
  5
6891
331
6871
  5
6872
331
6A42
  5
6A43
331
6852
  5
6853
331
683B
  5
683B
331
681C
  5
681C
331
67FD
  5
67FD
331
4F0E
  5
4F0F
331
1C62
  5
1C63
331
6998
  5
6999
331
6979
  5
697A
331
695A
  5
695B
331
693B
  5
693C
331
6924
  5
6925
331
6905
  5
6906
331
68E6
  5
68E7
331
68C7
  5
68C8
331
68B0
  5
68B1
331
6891
  5
6892
331
6872
  5
6873
331
6A43
  5
6A44
331
6853
  5
6854
331
683C
  5
683C
331
681D
  5
681D
331
722F
  5
6846
331
67FE
  5
67FE
331
7057
  5
708A
331
4F0F
  5
4F10
331
1C63
  5
1C64
  0
XRECORD
  5
A65
102
{ACAD_REACTORS
330
9CB
102
}
330
9CB
100
AcDbXrecord
280
     1
340
B
  0
LAYOUT
  5
A68
102
{ACAD_XDICTIONARY
360
73F2
102
}
102
{ACAD_REACTORS
330
1E
102
}
330
1E
100
AcDbPlotSettings
  1

  2
自動 設計一 上的 HP DeskJet 930C/932C/935C
  4

  6

 40
0.0
 41
0.0
 42
0.0
 43
0.0
 44
0.0
 45
0.0
 46
0.0
 47
0.0
 48
0.0
 49
0.0
140
0.0
141
0.0
142
1.0
143
1.0
 70
  1712
 72
     0
 73
     0
 74
     0
  7

 75
     0
147
1.0
148
0.0
149
0.0
100
AcDbLayout
  1
Model
 70
     1
 71
     0
 10
0.0
 20
0.0
 11
12.0
 21
9.0
 12
0.0
 22
0.0
 32
0.0
 14
0.0
 24
0.0
 34
0.0
 15
0.0
 25
0.0
 35
0.0
146
0.0
 13
0.0
 23
0.0
 33
0.0
 16
1.0
 26
0.0
 36
0.0
 17
0.0
 27
1.0
 37
0.0
 76
     0
330
A
  0
LAYOUT
  5
A69
102
{ACAD_XDICTIONARY
360
73F4
102
}
102
{ACAD_REACTORS
330
1E
102
}
330
1E
100
AcDbPlotSettings
  1

  2
自動 設計一 上的 HP DeskJet 930C/932C/935C
  4

  6

 40
0.0
 41
0.0
 42
0.0
 43
0.0
 44
0.0
 45
0.0
 46
0.0
 47
0.0
 48
0.0
 49
0.0
140
0.0
141
0.0
142
1.0
143
1.0
 70
   688
 72
     0
 73
     0
 74
     5
  7

 75
    16
147
1.0
148
0.0
149
0.0
100
AcDbLayout
  1
配置1
 70
     1
 71
     1
 10
0.0
 20
0.0
 11
12.0
 21
9.0
 12
0.0
 22
0.0
 32
0.0
 14
1.000000000000000E+20
 24
1.000000000000000E+20
 34
1.000000000000000E+20
 15
-1.000000000000000E+20
 25
-1.000000000000000E+20
 35
-1.000000000000000E+20
146
0.0
 13
0.0
 23
0.0
 33
0.0
 16
1.0
 26
0.0
 36
0.0
 17
0.0
 27
1.0
 37
0.0
 76
     0
330
B
  0
MLINESTYLE
  5
1C
102
{ACAD_REACTORS
330
1B
102
}
330
1B
100
AcDbMlineStyle
  2
STANDARD
 70
     0
  3

 62
     0
 51
90.00000000000019
 52
90.00000000000019
 71
     2
 49
0.5
 62
   256
  6
BYLAYER
 49
-0.5
 62
   256
  6
BYLAYER
  0
ACDBPLACEHOLDER
  5
1D
102
{ACAD_REACTORS
330
1F
102
}
330
1F
  0
TABLESTYLE
  5
ECC
102
{ACAD_REACTORS
330
ECB
102
}
330
ECB
100
AcDbTableStyle
  3
Standard
 70
     0
 71
     0
 40
0.06
 41
0.06
280
     0
281
     0
  7
STANDARD
140
0.18
170
     2
 62
     0
 63
     7
283
     0
274
    -2
284
     1
 64
     0
275
    -2
285
     1
 65
     0
276
    -2
286
     1
 66
     0
277
    -2
287
     1
 67
     0
278
    -2
288
     1
 68
     0
279
    -2
289
     1
 69
     0
  7
STANDARD
140
0.25
170
     5
 62
     0
 63
     7
283
     0
274
    -2
284
     1
 64
     0
275
    -2
285
     1
 65
     0
276
    -2
286
     1
 66
     0
277
    -2
287
     1
 67
     0
278
    -2
288
     1
 68
     0
279
    -2
289
     1
 69
     0
  7
STANDARD
140
0.18
170
     5
 62
     0
 63
     7
283
     0
274
    -2
284
     1
 64
     0
275
    -2
285
     1
 65
     0
276
    -2
286
     1
 66
     0
277
    -2
287
     1
 67
     0
278
    -2
288
     1
 68
     0
279
    -2
289
     1
 69
     0
  0
DICTIONARYVAR
  5
1258
102
{ACAD_REACTORS
330
1257
102
}
330
1257
100
DictionaryVariables
280
     0
  1
STANDARD
  0
DICTIONARYVAR
  5
73ED
102
{ACAD_REACTORS
330
1257
102
}
330
1257
100
DictionaryVariables
280
     0
  1
1
  0
DICTIONARYVAR
  5
73EC
102
{ACAD_REACTORS
330
1257
102
}
330
1257
100
DictionaryVariables
280
     0
  1
1
  0
DICTIONARYVAR
  5
73EE
102
{ACAD_REACTORS
330
1257
102
}
330
1257
100
DictionaryVariables
280
     0
  1

  0
DICTIONARY
  5
F9E
102
{ACAD_REACTORS
330
F90
102
}
330
F90
100
AcDbDictionary
281
     1
  0
XRECORD
  5
FBC
102
{ACAD_REACTORS
330
F90
102
}
330
F90
100
AcDbXrecord
280
     1
 90
-1023410169
  0
DICTIONARY
  5
ED3
102
{ACAD_REACTORS
330
ED2
102
}
330
ED2
100
AcDbDictionary
281
     1
  3
DWGSETTINGS
350
ED4
  3
Shaft
350
1093
  3
TRANSSETTINGS
350
ED8
  0
ACAMGFILTERDAT
  5
FD6
102
{ACAD_REACTORS
330
FD1
102
}
330
FD1
100
AcAmgFilterDat
 70
    15
  1
DIMENSION,AMDT_*_DIM
  2
*
  3
*
  4
*
  5
*
290
     1
  0
ACAMGFILTERDAT
  5
FD5
102
{ACAD_REACTORS
330
FD1
102
}
330
FD1
100
AcAmgFilterDat
 70
    15
  1
*
  2
AM_FEA-AM_*
  3
*
  4
*
  5
*
290
     1
  0
ACAMGFILTERDAT
  5
FD2
102
{ACAD_REACTORS
330
FD1
102
}
330
FD1
100
AcAmgFilterDat
 70
    15
  1
HATCH
  2
*
  3
*
  4
*
  5
*
290
     1
  0
ACAMGFILTERDAT
  5
FD3
102
{ACAD_REACTORS
330
FD1
102
}
330
FD1
100
AcAmgFilterDat
 70
    15
  1
LINE
  2
8,8N,*-8,*-8N,AM_8,AM_8N,*-AM_8,*-AM_8N
  3
*
  4
*
  5
INSERT,STDPART2D
290
     1
  0
ACAMGFILTERDAT
  5
FD7
102
{ACAD_REACTORS
330
FD1
102
}
330
FD1
100
AcAmgFilterDat
 70
    15
  1
ARC
  2
AM_5
  3
*
  4
2
  5
INSERT
290
     0
  0
ACAMGFILTERDAT
  5
FD4
102
{ACAD_REACTORS
330
FD1
102
}
330
FD1
100
AcAmgFilterDat
 70
    15
  1
ACMFCFRAME,ACMDATUMTARGET,ACMDATUMID,ACMWELDSYM,ACMSURFSYM,ACMFEATID,ACMPARTREF,ACMBALLOON,AMDTEDGESYM,AMGSCREWCALCTABLE
  2
*
  3
*
  4
*
  5
*
290
     1
  0
LAYER_INDEX
  5
1250
102
{ACAD_REACTORS
330
124F
102
}
330
124F
100
AcDbIndex
 40
2455323.678438067
100
AcDbLayerIndex
  8
0
360
1251
 90
      453
  8
CENTER
360
1252
 90
       24
  8
DIM
360
1253
 90
        9
  8
Defpoints
360
1254
 90
        0
  8
AM_5
360
1255
 90
       39
  8
LOGO
360
191C
 90
      117
  0
DICTIONARY
  5
73F2
330
A68
100
AcDbDictionary
280
     1
281
     1
  3
ACAD_XREC_ROUNDTRIP
360
73F3
  0
DICTIONARY
  5
73F4
330
A69
100
AcDbDictionary
280
     1
281
     1
  3
ACAD_XREC_ROUNDTRIP
360
73F5
  0
IDBUFFER
  5
1251
330
0
100
AcDbIdBuffer
330
1C11
330
1C9C
330
1C9D
330
1C9E
330
67F5
330
67F6
330
67F7
330
67F8
330
67F9
330
67FA
330
67FB
330
67FC
330
67FD
330
67FE
330
67FF
330
6800
330
6801
330
6802
330
6803
330
6804
330
6805
330
6806
330
6807
330
6808
330
6809
330
680A
330
680B
330
680C
330
680D
330
680E
330
680F
330
6810
330
6811
330
6812
330
6813
330
6814
330
6815
330
6816
330
6817
330
6818
330
6819
330
681A
330
681B
330
681C
330
681D
330
681E
330
681F
330
6820
330
6821
330
6822
330
6823
330
6824
330
6825
330
6826
330
6827
330
6828
330
6829
330
682A
330
682B
330
682C
330
682D
330
682E
330
682F
330
6830
330
6831
330
6832
330
6833
330
6834
330
6835
330
6836
330
6837
330
6838
330
6839
330
683A
330
683B
330
683C
330
683D
330
683E
330
683F
330
6840
330
6841
330
6842
330
6843
330
6844
330
6846
330
6847
330
6848
330
6849
330
684A
330
684B
330
684C
330
684D
330
684E
330
684F
330
6850
330
6851
330
6852
330
6854
330
6855
330
6856
330
6857
330
6859
330
685A
330
685B
330
685C
330
685D
330
685E
330
685F
330
6860
330
6861
330
6862
330
6863
330
6864
330
6865
330
6866
330
6867
330
6868
330
6869
330
686A
330
686B
330
686C
330
686D
330
686E
330
686F
330
6870
330
6871
330
6872
330
6873
330
6874
330
6875
330
6876
330
6877
330
6878
330
6879
330
687A
330
687B
330
687C
330
687D
330
687E
330
687F
330
6880
330
6881
330
6882
330
6883
330
6884
330
6885
330
6886
330
6887
330
6888
330
6889
330
688A
330
688B
330
688C
330
688D
330
688E
330
688F
330
6890
330
6891
330
6892
330
6893
330
6894
330
6895
330
6896
330
6897
330
6898
330
6899
330
689A
330
689B
330
689C
330
689D
330
689E
330
689F
330
68A0
330
68A1
330
68A2
330
68A3
330
68A4
330
68A5
330
68A6
330
68A7
330
68A8
330
68A9
330
68AA
330
68AB
330
68AC
330
68AD
330
68AE
330
68AF
330
68B0
330
68B1
330
68B2
330
68B3
330
68B4
330
68B5
330
68B6
330
68B7
330
68B8
330
68B9
330
68BA
330
68BB
330
68BC
330
68BD
330
68BE
330
68BF
330
68C0
330
68C1
330
68C2
330
68C3
330
68C4
330
68C5
330
68C6
330
68C7
330
68C8
330
68C9
330
68CA
330
68CB
330
68CC
330
68CD
330
68CE
330
68CF
330
68D0
330
68D1
330
68D2
330
68D3
330
68D4
330
68D5
330
68D6
330
68D7
330
68D8
330
68D9
330
68DA
330
68DB
330
68DC
330
68DD
330
68DE
330
68DF
330
68E0
330
68E1
330
68E2
330
68E3
330
68E4
330
68E5
330
68E6
330
68E7
330
68E8
330
68E9
330
68EA
330
68EB
330
68EC
330
68ED
330
68EE
330
68EF
330
68F0
330
68F1
330
68F2
330
68F3
330
68F4
330
68F5
330
68F6
330
68F7
330
68F8
330
68F9
330
68FA
330
68FB
330
68FC
330
68FD
330
68FE
330
68FF
330
6900
330
6901
330
6902
330
6903
330
6904
330
6905
330
6906
330
6907
330
6908
330
6909
330
690A
330
690B
330
690C
330
690D
330
690E
330
690F
330
6911
330
6912
330
6913
330
6914
330
6915
330
6916
330
6917
330
6918
330
6919
330
691A
330
691B
330
691C
330
691D
330
691E
330
691F
330
6920
330
6921
330
6922
330
6923
330
6924
330
6925
330
6926
330
6927
330
6928
330
6929
330
692A
330
692B
330
692C
330
692D
330
692E
330
692F
330
6930
330
6931
330
6932
330
6933
330
6934
330
6935
330
6936
330
6937
330
6938
330
6939
330
693A
330
693B
330
693C
330
693D
330
693E
330
693F
330
6940
330
6941
330
6942
330
6943
330
6944
330
6945
330
6946
330
6947
330
6948
330
6949
330
694A
330
694E
330
6950
330
6952
330
6958
330
6959
330
6961
330
6965
330
6969
330
696D
330
696E
330
696F
330
6970
330
6971
330
6972
330
6973
330
6974
330
6975
330
6976
330
6977
330
6978
330
6979
330
697A
330
697B
330
697C
330
697D
330
697E
330
697F
330
6980
330
6981
330
6982
330
6983
330
6984
330
6985
330
6986
330
6987
330
6988
330
6989
330
698A
330
698B
330
698C
330
698D
330
698E
330
698F
330
6990
330
6991
330
6992
330
6993
330
6994
330
6995
330
6996
330
6997
330
6998
330
6999
330
699A
330
699B
330
699C
330
699D
330
69B6
330
69BF
330
69D5
330
69E9
330
69EA
330
69EB
330
6A01
330
6A1A
330
6A23
330
6A24
330
6A25
330
6A26
330
6A27
330
6A28
330
6A29
330
6A2A
330
6A3E
330
6A3F
330
6A40
330
6A41
330
6A42
330
6A43
330
6A44
330
6A45
330
6A46
330
6A47
330
6A48
330
6A49
330
6A4A
330
6A4B
330
6A4C
330
6A4D
330
6A4E
330
6A4F
330
6A50
330
6A51
330
6A52
330
6A53
330
6A54
330
6A55
330
6A56
330
6A57
330
6A58
330
6A59
330
6A5A
330
6A5B
330
6A5C
330
6A5D
330
6A5E
330
6A5F
330
6A60
330
6F03
330
6F13
330
722F
  0
IDBUFFER
  5
1252
330
0
100
AcDbIdBuffer
330
4F0C
330
4F0D
330
4F0E
330
6845
330
694B
330
694C
330
694D
330
6953
330
6954
330
6955
330
6956
330
6957
330
695A
330
695B
330
695C
330
695D
330
695F
330
6960
330
6963
330
6964
330
6967
330
6968
330
696B
330
696C
  0
IDBUFFER
  5
1253
330
0
100
AcDbIdBuffer
330
6853
330
6858
330
6910
330
694F
330
6951
330
695E
330
6962
330
6966
330
696A
  0
IDBUFFER
  5
1254
330
0
100
AcDbIdBuffer
  0
IDBUFFER
  5
1255
330
0
100
AcDbIdBuffer
330
28D6
330
28D7
330
333B
330
333C
330
3FEB
330
3FEC
330
4412
330
4F0F
330
4F10
330
4F11
330
6B92
330
6BB1
330
6BEC
330
6C18
330
6C40
330
6C68
330
6C90
330
6CC0
330
6CF1
330
6D22
330
6D4E
330
6D7C
330
6DA8
330
6E65
330
6E9F
330
6EDB
330
6F23
330
6F58
330
6F74
330
7003
330
7057
330
708A
330
709B
330
70C3
330
70F4
330
711C
330
714E
330
7208
330
7246
  0
IDBUFFER
  5
191C
330
0
100
AcDbIdBuffer
330
1C12
330
1C13
330
1C14
330
1C15
330
1C16
330
1C17
330
1C18
330
1C19
330
1C1A
330
1C1B
330
1C1C
330
1C1D
330
1C1E
330
1C1F
330
1C20
330
1C21
330
1C22
330
1C23
330
1C24
330
1C25
330
1C26
330
1C27
330
1C28
330
1C29
330
1C2A
330
1C2B
330
1C2C
330
1C2D
330
1C2E
330
1C2F
330
1C30
330
1C31
330
1C32
330
1C33
330
1C34
330
1C35
330
1C36
330
1C37
330
1C38
330
1C39
330
1C3A
330
1C3B
330
1C3C
330
1C3D
330
1C3E
330
1C3F
330
1C40
330
1C41
330
1C42
330
1C43
330
1C44
330
1C45
330
1C46
330
1C47
330
1C48
330
1C49
330
1C4A
330
1C4B
330
1C4C
330
1C4D
330
1C4E
330
1C4F
330
1C50
330
1C51
330
1C52
330
1C53
330
1C54
330
1C55
330
1C56
330
1C57
330
1C58
330
1C59
330
1C5A
330
1C5B
330
1C5C
330
1C5D
330
1C5E
330
1C5F
330
1C60
330
1C61
330
1C62
330
1C63
330
1C64
330
1C68
330
1C6C
330
1C6D
330
1C71
330
1C72
330
1C73
330
1C74
330
1C75
330
1C76
330
1C77
330
1C78
330
1C7C
330
1C80
330
1C84
330
1C85
330
1C86
330
1C8A
330
1C8B
330
1C8C
330
1C8D
330
1C8E
330
1C8F
330
1C90
330
1C91
330
1C92
330
1C93
330
1C94
330
1C95
330
1C96
330
1C97
330
1C98
330
1C99
330
1C9A
330
1C9B
  0
XRECORD
  5
73F3
102
{ACAD_REACTORS
330
73F2
102
}
330
73F2
100
AcDbXrecord
280
     1
102
SHADEPLOT
 70
     0
102
SHADEPLOTRESLEVEL
 70
     2
102
SHADEPLOTCUSTOMDPI
 70
   300
  0
XRECORD
  5
73F5
102
{ACAD_REACTORS
330
73F4
102
}
330
73F4
100
AcDbXrecord
280
     1
102
SHADEPLOT
 70
     0
102
SHADEPLOTRESLEVEL
 70
     2
102
SHADEPLOTCUSTOMDPI
 70
   300
  0
ENDSEC
  0
EOF
