  0
SECTION
  2
HEADER
  9
$ACADVER
  1
AC1015
  9
$ACADMAINTVER
 70
    20
  9
$DWGCODEPAGE
  3
ANSI_950
  9
$INSBASE
 10
0.0
 20
0.0
 30
0.0
  9
$EXTMIN
 10
2350.019498948252
 20
1184.236100361184
 30
-0.0139210642058743
  9
$EXTMAX
 10
2710.237537446432
 20
1526.962804021903
 30
235.9138668825029
  9
$LIMMIN
 10
0.0
 20
0.0
  9
$LIMMAX
 10
420.0
 20
297.0
  9
$ORTHOMODE
 70
     1
  9
$REGENMODE
 70
     1
  9
$FILLMODE
 70
     1
  9
$QTEXTMODE
 70
     0
  9
$MIRRTEXT
 70
     1
  9
$LTSCALE
 40
1.0
  9
$ATTMODE
 70
     1
  9
$TEXTSIZE
 40
3.0
  9
$TRACEWID
 40
1.0
  9
$TEXTSTYLE
  7
CHINESET
  9
$CLAYER
  8
0
  9
$CELTYPE
  6
ByLayer
  9
$CECOLOR
 62
   256
  9
$CELTSCALE
 40
1.0
  9
$DISPSILH
 70
     0
  9
$DIMSCALE
 40
1.0
  9
$DIMASZ
 40
3.0
  9
$DIMEXO
 40
1.0
  9
$DIMDLI
 40
7.0
  9
$DIMRND
 40
0.0
  9
$DIMDLE
 40
0.0
  9
$DIMEXE
 40
1.5
  9
$DIMTP
 40
0.1
  9
$DIMTM
 40
0.1
  9
$DIMTXT
 40
3.0
  9
$DIMCEN
 40
0.0
  9
$DIMTSZ
 40
0.0
  9
$DIMTOL
 70
     0
  9
$DIMLIM
 70
     0
  9
$DIMTIH
 70
     0
  9
$DIMTOH
 70
     0
  9
$DIMSE1
 70
     0
  9
$DIMSE2
 70
     0
  9
$DIMTAD
 70
     1
  9
$DIMZIN
 70
     8
  9
$DIMBLK
  1

  9
$DIMASO
 70
     1
  9
$DIMSHO
 70
     1
  9
$DIMPOST
  1

  9
$DIMAPOST
  1
"
  9
$DIMALT
 70
     0
  9
$DIMALTD
 70
     2
  9
$DIMALTF
 40
0.0393701
  9
$DIMLFAC
 40
1.0
  9
$DIMTOFL
 70
     1
  9
$DIMTVP
 40
0.0
  9
$DIMTIX
 70
     0
  9
$DIMSOXD
 70
     0
  9
$DIMSAH
 70
     0
  9
$DIMBLK1
  1

  9
$DIMBLK2
  1

  9
$DIMSTYLE
  2
AM_ISO
  9
$DIMCLRD
 70
   256
  9
$DIMCLRE
 70
   256
  9
$DIMCLRT
 70
   256
  9
$DIMTFAC
 40
0.71
  9
$DIMGAP
 40
1.0
  9
$DIMJUST
 70
     0
  9
$DIMSD1
 70
     0
  9
$DIMSD2
 70
     0
  9
$DIMTOLJ
 70
     0
  9
$DIMTZIN
 70
     8
  9
$DIMALTZ
 70
     0
  9
$DIMALTTZ
 70
     0
  9
$DIMUPT
 70
     0
  9
$DIMDEC
 70
     2
  9
$DIMTDEC
 70
     8
  9
$DIMALTU
 70
     2
  9
$DIMALTTD
 70
     2
  9
$DIMTXSTY
  7
STANDARD
  9
$DIMAUNIT
 70
     0
  9
$DIMADEC
 70
     0
  9
$DIMALTRND
 40
0.0
  9
$DIMAZIN
 70
     2
  9
$DIMDSEP
 70
    46
  9
$DIMATFIT
 70
     3
  9
$DIMFRAC
 70
     0
  9
$DIMLDRBLK
  1

  9
$DIMLUNIT
 70
     2
  9
$DIMLWD
 70
    -1
  9
$DIMLWE
 70
    -1
  9
$DIMTMOVE
 70
     0
  9
$LUNITS
 70
     2
  9
$LUPREC
 70
     2
  9
$SKETCHINC
 40
1.0
  9
$FILLETRAD
 40
2.5
  9
$AUNITS
 70
     0
  9
$AUPREC
 70
     0
  9
$MENU
  1
.
  9
$ELEVATION
 40
0.0
  9
$PELEVATION
 40
0.0
  9
$THICKNESS
 40
0.0
  9
$LIMCHECK
 70
     0
  9
$CHAMFERA
 40
2.5
  9
$CHAMFERB
 40
2.5
  9
$CHAMFERC
 40
20.0
  9
$CHAMFERD
 40
0.0
  9
$SKPOLY
 70
     0
  9
$TDCREATE
 40
2453696.549700336
  9
$TDUCREATE
 40
2453696.216367002
  9
$TDUPDATE
 40
2453696.630465856
  9
$TDUUPDATE
 40
2453696.297132523
  9
$TDINDWG
 40
0.0796580208
  9
$TDUSRTIMER
 40
0.0796580208
  9
$USRTIMER
 70
     1
  9
$ANGBASE
 50
0.0
  9
$ANGDIR
 70
     0
  9
$PDMODE
 70
     0
  9
$PDSIZE
 40
0.0
  9
$PLINEWID
 40
0.0
  9
$SPLFRAME
 70
     0
  9
$SPLINETYPE
 70
     6
  9
$SPLINESEGS
 70
     8
  9
$HANDSEED
  5
32B8
  9
$SURFTAB1
 70
     6
  9
$SURFTAB2
 70
     6
  9
$SURFTYPE
 70
     6
  9
$SURFU
 70
     6
  9
$SURFV
 70
     6
  9
$UCSBASE
  2

  9
$UCSNAME
  2

  9
$UCSORG
 10
0.0
 20
0.0
 30
0.0
  9
$UCSXDIR
 10
1.0
 20
0.0
 30
0.0
  9
$UCSYDIR
 10
0.0
 20
1.0
 30
0.0
  9
$UCSORTHOREF
  2

  9
$UCSORTHOVIEW
 70
     0
  9
$UCSORGTOP
 10
0.0
 20
0.0
 30
0.0
  9
$UCSORGBOTTOM
 10
0.0
 20
0.0
 30
0.0
  9
$UCSORGLEFT
 10
0.0
 20
0.0
 30
0.0
  9
$UCSORGRIGHT
 10
0.0
 20
0.0
 30
0.0
  9
$UCSORGFRONT
 10
0.0
 20
0.0
 30
0.0
  9
$UCSORGBACK
 10
0.0
 20
0.0
 30
0.0
  9
$PUCSBASE
  2

  9
$PUCSNAME
  2

  9
$PUCSORG
 10
0.0
 20
0.0
 30
0.0
  9
$PUCSXDIR
 10
1.0
 20
0.0
 30
0.0
  9
$PUCSYDIR
 10
0.0
 20
1.0
 30
0.0
  9
$PUCSORTHOREF
  2

  9
$PUCSORTHOVIEW
 70
     0
  9
$PUCSORGTOP
 10
0.0
 20
0.0
 30
0.0
  9
$PUCSORGBOTTOM
 10
0.0
 20
0.0
 30
0.0
  9
$PUCSORGLEFT
 10
0.0
 20
0.0
 30
0.0
  9
$PUCSORGRIGHT
 10
0.0
 20
0.0
 30
0.0
  9
$PUCSORGFRONT
 10
0.0
 20
0.0
 30
0.0
  9
$PUCSORGBACK
 10
0.0
 20
0.0
 30
0.0
  9
$USERI1
 70
     0
  9
$USERI2
 70
     0
  9
$USERI3
 70
     0
  9
$USERI4
 70
     0
  9
$USERI5
 70
     0
  9
$USERR1
 40
0.0
  9
$USERR2
 40
0.0
  9
$USERR3
 40
0.0
  9
$USERR4
 40
0.0
  9
$USERR5
 40
0.0
  9
$WORLDVIEW
 70
     1
  9
$SHADEDGE
 70
     3
  9
$SHADEDIF
 70
    70
  9
$TILEMODE
 70
     1
  9
$MAXACTVP
 70
    64
  9
$PINSBASE
 10
0.0
 20
0.0
 30
0.0
  9
$PLIMCHECK
 70
     0
  9
$PEXTMIN
 10
1.000000000000000E+20
 20
1.000000000000000E+20
 30
1.000000000000000E+20
  9
$PEXTMAX
 10
-1.000000000000000E+20
 20
-1.000000000000000E+20
 30
-1.000000000000000E+20
  9
$PLIMMIN
 10
0.0
 20
0.0
  9
$PLIMMAX
 10
420.0
 20
297.0
  9
$UNITMODE
 70
     0
  9
$VISRETAIN
 70
     1
  9
$PLINEGEN
 70
     0
  9
$PSLTSCALE
 70
     1
  9
$TREEDEPTH
 70
  3020
  9
$CMLSTYLE
  2
Standard
  9
$CMLJUST
 70
     0
  9
$CMLSCALE
 40
20.0
  9
$PROXYGRAPHICS
 70
     1
  9
$MEASUREMENT
 70
     1
  9
$CELWEIGHT
370
    -1
  9
$ENDCAPS
280
     0
  9
$JOINSTYLE
280
     0
  9
$LWDISPLAY
290
     0
  9
$INSUNITS
 70
     4
  9
$HYPERLINKBASE
  1

  9
$STYLESHEET
  1
彩色出圖.ctb
  9
$XEDIT
290
     1
  9
$CEPSNTYPE
380
     0
  9
$PSTYLEMODE
290
     1
  9
$FINGERPRINTGUID
  2
{E56C8895-30D3-4116-AE32-4553F16A924E}
  9
$VERSIONGUID
  2
{F2501E7E-A47B-4639-91BB-302DD985472A}
  9
$EXTNAMES
290
     1
  9
$PSVPSCALE
 40
0.0
  9
$OLESTARTUP
290
     0
  0
ENDSEC
  0
SECTION
  2
CLASSES
  0
CLASS
  1
ACDBDICTIONARYWDFLT
  2
AcDbDictionaryWithDefault
  3
ObjectDBX Classes
 90
        0
280
     0
281
     0
  0
CLASS
  1
ACDBPLACEHOLDER
  2
AcDbPlaceHolder
  3
ObjectDBX Classes
 90
        0
280
     0
281
     0
  0
CLASS
  1
LAYOUT
  2
AcDbLayout
  3
ObjectDBX Classes
 90
        0
280
     0
281
     0
  0
CLASS
  1
ACME_DOCUMENT
  2
AcMeDbDoc
  3
AcMeServices
 90
        0
280
     0
281
     0
  0
CLASS
  1
AMGSETTINGSOBJ
  2
AmgSettingsObj
  3
"AcadM|Product Description: AutoCAD Mechanical 2000|Company: Autodesk"
 90
        0
280
     0
281
     0
  0
CLASS
  1
ACMESCOPE
  2
AcMeScope
  3
AcMeServices
 90
        0
280
     0
281
     0
  0
CLASS
  1
ACMECOMMANDHISTORY
  2
AcMeCommandHistory
  3
AcMeServices
 90
        0
280
     0
281
     0
  0
CLASS
  1
ACIMSYSVARMAN
  2
AcImSysVarManager
  3
AcMeServices
 90
        0
280
     0
281
     0
  0
CLASS
  1
ACIMREALSYSVAR
  2
AcImRealSysVar
  3
AcMeServices
 90
        0
280
     0
281
     0
  0
CLASS
  1
ACIMINTSYSVAR
  2
AcImIntSysVar
  3
AcMeServices
 90
        0
280
     0
281
     0
  0
CLASS
  1
ACMEDRAWINGMAN
  2
AcMeDrawingMan
  3
AcMeServices
 90
        0
280
     0
281
     0
  0
CLASS
  1
ACMEVIEW
  2
AcMeView
  3
AcMeServices
 90
        0
280
     0
281
     0
  0
CLASS
  1
ACDBENTITYCACHE
  2
AcMeEntityCache
  3
AcMeServices
 90
        0
280
     0
281
     0
  0
CLASS
  1
GSMANAGER
  2
AcMeGSManager
  3
AcMeServices
 90
        0
280
     0
281
     0
  0
CLASS
  1
AMDTINTERNALREACTOR
  2
AmdtInternalReactor
  3
AcMeServices
 90
        0
280
     0
281
     0
  0
CLASS
  1
ACMESTATEMGR
  2
AcMeStateMgr
  3
AcMeServices
 90
        0
280
     0
281
     0
  0
CLASS
  1
ACGREFMASTER
  2
AcGrefMaster
  3
AcAttribServices
 90
        0
280
     0
281
     0
  0
CLASS
  1
ACME_DATABASE
  2
AcMeDbDatabase
  3
AcMeServices
 90
        0
280
     0
281
     0
  0
CLASS
  1
ACRFINSADJUSTERMGR
  2
AcRfInsAdjusterMgr
  3
AcMeServices
 90
        0
280
     0
281
     0
  0
CLASS
  1
ACGREFACADMASTER
  2
AcGrefacadMaster
  3
AcGrefServices
 90
        0
280
     0
281
     0
  0
CLASS
  1
AMIMASTER
  2
AmiMaster
  3
AmiServices
 90
        0
280
     0
281
     0
  0
CLASS
  1
ACMDATADICTIONARY
  2
AcmDataDictionary
  3
"AcmSymBB|Product Description: AutoCAD Mechanical 2004 DX|Company: Autodesk"
 90
        0
280
     0
281
     0
  0
CLASS
  1
ACMDATAENTRYBLOCK
  2
AcmDataEntryBlock
  3
"AcmSymBB|Product Description: AutoCAD Mechanical 2004 DX|Company: Autodesk"
 90
        0
280
     0
281
     0
  0
CLASS
  1
ACIMSTRSYSVAR
  2
AcImStrSysVar
  3
AcMeServices
 90
        0
280
     0
281
     0
  0
CLASS
  1
ACMSTANDARDISO
  2
AcmStandardISO
  3
"Amdt_StdImp|Product Description: AutoCAD Mechanical 2004 DX|Company: Autodesk"
 90
        0
280
     0
281
     0
  0
CLASS
  1
AMGOBJPROPCFG
  2
AmgObjPropCfg
  3
"AmgLay|Product Description: AutoCAD Mechanical 2000|Company: Autodesk"
 90
        1
280
     0
281
     0
  0
CLASS
  1
AMDTEDGESTANDARDISO
  2
AmdtEdgeStdISO
  3
"Amdt_StdImp|Product Description: AutoCAD Mechanical 2004 DX|Company: Autodesk"
 90
        0
280
     0
281
     0
  0
CLASS
  1
ACMSURFSTANDARDISO
  2
AcmSurfTextStdISO
  3
"Amdt_StdImp|Product Description: AutoCAD Mechanical 2004 DX|Company: Autodesk"
 90
        0
280
     0
281
     0
  0
CLASS
  1
ACMFCFSTANDARDISO
  2
AcmFCFStdISO
  3
"Amdt_StdImp|Product Description: AutoCAD Mechanical 2004 DX|Company: Autodesk"
 90
        0
280
     0
281
     0
  0
CLASS
  1
ACMWELDSTANDARDISO
  2
AcmWeldingStdISO
  3
"Amdt_StdImp|Product Description: AutoCAD Mechanical 2004 DX|Company: Autodesk"
 90
        0
280
     0
281
     0
  0
CLASS
  1
ACMIDSTANDARDISO
  2
AcmIdStdISO
  3
"Amdt_StdImp|Product Description: AutoCAD Mechanical 2004 DX|Company: Autodesk"
 90
        0
280
     0
281
     0
  0
CLASS
  1
ACMDATUMSTANDARDISO
  2
AcmDatumStdISO
  3
"Amdt_StdImp|Product Description: AutoCAD Mechanical 2004 DX|Company: Autodesk"
 90
        0
280
     0
281
     0
  0
CLASS
  1
ACMBOMSTANDARDISO
  2
AcmBOMStdISO
  3
"Amdt_StdImp|Product Description: AutoCAD Mechanical 2004 DX|Company: Autodesk"
 90
        0
280
     0
281
     0
  0
CLASS
  1
ACMDETAILSTANDARDISO
  2
AmdtDetailSymStdISO
  3
"Amdt_StdImp|Product Description: AutoCAD Mechanical 2004 DX|Company: Autodesk"
 90
        0
280
     0
281
     0
  0
CLASS
  1
ACMSECTIONSTANDARDISO
  2
AmdtSectionSymStdISO
  3
"Amdt_StdImp|Product Description: AutoCAD Mechanical 2004 DX|Company: Autodesk"
 90
        0
280
     0
281
     0
  0
CLASS
  1
ACMCENTERLINESTANDARDISO
  2
AmdtCenterLineStdISO
  3
"Amdt_StdImp|Product Description: AutoCAD Mechanical 2004 DX|Company: Autodesk"
 90
        0
280
     0
281
     0
  0
CLASS
  1
ACMNOTESTANDARDISO
  2
AmdtNoteStdISO
  3
"Amdt_StdImp|Product Description: AutoCAD Mechanical 2004 DX|Company: Autodesk"
 90
        0
280
     0
281
     0
  0
CLASS
  1
ACAMGLAYSTD
  2
AcAmgLayStd
  3
"AcAmgLayStd|Product Description: AutoCAD Mechanical 2000|Company: Autodesk"
 90
        0
280
     0
281
     0
  0
CLASS
  1
ACAMGDIMSTD
  2
AcAmgDimStd
  3
"AcAmgDimStd|Product Description: AutoCAD Mechanical 2000|Company: Autodesk"
 90
        0
280
     0
281
     0
  0
CLASS
  1
ACAMGHOLECHARTSTDISO
  2
AcAmgHoleChartStdISO
  3
ACMSYMBB_MODULE_NAME
 90
        0
280
     0
281
     0
  0
CLASS
  1
ACAMGTITLESTD
  2
AcAmgTitleStd
  3
"TITLEAPP"
 90
        0
280
     0
281
     0
  0
CLASS
  1
LAYER_INDEX
  2
AcDbLayerIndex
  3
ObjectDBX Classes
 90
    32768
280
     0
281
     0
  0
CLASS
  1
IDBUFFER
  2
AcDbIdBuffer
  3
ObjectDBX Classes
 90
    32768
280
     0
281
     0
  0
CLASS
  1
DICTIONARYVAR
  2
AcDbDictionaryVar
  3
ObjectDBX Classes
 90
        0
280
     0
281
     0
  0
CLASS
  1
AM_DRAWING_MGR
  2
AcDmDwgMgr
  3
AcMechDwgViewMgmt
 90
        0
280
     0
281
     0
  0
CLASS
  1
AM_DWG_DOCUMENT
  2
AcDmDwgDocument
  3
AcMechDwgViewMgmt
 90
        0
280
     0
281
     0
  0
CLASS
  1
AM_DWG_SHEET
  2
AcDmSheet
  3
AcMechDwgViewMgmt
 90
        0
280
     0
281
     0
  0
CLASS
  1
AM_VIEWDIMPARMAP
  2
AcDmViewDimParMap
  3
AcMechDwgViewMgmt
 90
        0
280
     0
281
     0
  0
CLASS
  1
AM_DWGMGR_NAME
  2
AcDmDwgMgrName
  3
AcMechDwgViewMgmt
 90
        0
280
     0
281
     0
  0
CLASS
  1
AMDTMENUSTATEMGR
  2
AmdtMenuStateMgr
  3
McadcomServices
 90
        0
280
     0
281
     0
  0
CLASS
  1
AMDTMCOMMENUSTATE
  2
AmdtMcomMenuState
  3
McadcomServices
 90
        0
280
     0
281
     0
  0
CLASS
  1
MAPIAMMOUDLE
  2
MApiAmModule
  3
MApiAmServices
 90
        0
280
     0
281
     0
  0
CLASS
  1
AMDTADMENUSTATE
  2
AmdtAdMenuState
  3
DesignerServices
 90
        0
280
     0
281
     0
  0
CLASS
  1
ADAPPL
  2
AcAdAppl
  3
DesignerServices
 90
        0
280
     0
281
     0
  0
CLASS
  1
DEPMGR
  2
AcAdDepMgr
  3
DesignerServices
 90
        0
280
     0
281
     0
  0
CLASS
  1
PARAMMGR
  2
AcAdParamMgr
  3
DesignerServices
 90
        0
280
     0
281
     0
  0
CLASS
  1
PARAMSCOPE
  2
AcAdParamScope
  3
DesignerServices
 90
        0
280
     0
281
     0
  0
CLASS
  1
NAMEDAPPL
  2
AcAdNamedAppl
  3
DesignerServices
 90
        0
280
     0
281
     0
  0
CLASS
  1
AMDTDMMENUSTATE
  2
AmdtDmMenuState
  3
AcMechDwgViewMgmt
 90
        0
280
     0
281
     0
  0
CLASS
  1
AMDTAMMENUSTATE
  2
AmdtAmMenuState
  3
DesignerAssemblies
 90
        0
280
     0
281
     0
  0
CLASS
  1
ACAMPROJECT
  2
AcAmProject
  3
DesignerAssemblies
 90
        0
280
     0
281
     0
  0
CLASS
  1
ACAMGRCOMPDEF
  2
AcAmGrCompDef
  3
DesignerAssemblies
 90
        0
280
     0
281
     0
  0
CLASS
  1
ACCMCONTEXT
  2
AcCmContext
  3
DesignerAssemblies
 90
        0
280
     0
281
     0
  0
CLASS
  1
ACAMCOMPDEF
  2
AcAmCompDef
  3
DesignerAssemblies
 90
        0
280
     0
281
     0
  0
CLASS
  1
ACAMCOMPDEFMGR
  2
AcAmCompDefMgr
  3
DesignerAssemblies
 90
        0
280
     0
281
     0
  0
CLASS
  1
AMCONTEXTMGR
  2
AcAmContextMgr
  3
DesignerAssemblies
 90
        0
280
     0
281
     0
  0
CLASS
  1
ACAMCONTEXTMODELER
  2
AcAmContextModeler
  3
DesignerAssemblies
 90
        0
280
     0
281
     0
  0
CLASS
  1
ACMTHREADLINESTANDARDISO
  2
AmdtThreadLineStdISO
  3
"Amdt_StdImp|Product Description: AutoCAD Mechanical 2004 DX|Company: Autodesk"
 90
        0
280
     0
281
     0
  0
CLASS
  1
CATALOGSTATE
  2
AcAmCatalogState
  3
DesignerAssemblies
 90
        0
280
     0
281
     0
  0
CLASS
  1
ACAMGRCOMPDEFSET
  2
AcAmGrCompDefSet
  3
DesignerAssemblies
 90
        0
280
     0
281
     0
  0
CLASS
  1
AMDTBROWSERDBTAB
  2
AmdtBrowserDbTab
  3
McadcomServices
 90
        0
280
     0
281
     0
  0
CLASS
  1
CBROWSERAPPOBJECT
  2
CBrowserAppObject
  3
McadcomServices
 90
        0
280
     0
281
     0
  0
CLASS
  1
DM_PLACEHOLDER
  2
AcDmSelsetPlaceholder
  3
AcMechDwgViewMgmt
 90
        0
280
     0
281
     0
  0
CLASS
  1
TABLESTYLE
  2
AcDbTableStyle
  3
ObjectDBX Classes
 90
     2047
280
     0
281
     0
  0
CLASS
  1
VAACXREFPANELOBJECT
  2
VaAcXREFPanelObject
  3
VAAC_ADDIN
 90
    32768
280
     0
281
     0
  0
CLASS
  1
VAACIMAGEINVENTORY
  2
VaAcImageInventory
  3
VAAC_ADDIN
 90
    32768
280
     0
281
     0
  0
CLASS
  1
AMDTNOTETEMPLATEDB
  2
AmdtNoteTemplateDB
  3
AMDT_STDIMP_MODULE_NAME
 90
        0
280
     0
281
     0
  0
CLASS
  1
ACMBOM
  2
AcmBom
  3
"AcmSymBB|Product Description: AutoCAD Mechanical 2004 DX|Company: Autodesk"
 90
    32768
280
     0
281
     0
  0
CLASS
  1
AMDTFORMULAUPDATEDISPATCHER
  2
AmdtFormulaUpdateDispatcher
  3
AcMeServices
 90
    32768
280
     0
281
     0
  0
CLASS
  1
ACMPARTLIST
  2
AcmPartList
  3
"AcmSymBB|Product Description: AutoCAD Mechanical 2004 DX|Company: Autodesk"
 90
    33791
280
     0
281
     1
  0
CLASS
  1
ACAMGFILTERDAT
  2
AcAmgFilterDat
  3
"AcadM|Product Description: AutoCAD Mechanical 2000|Company: Autodesk"
 90
        0
280
     0
281
     0
  0
CLASS
  1
DIMASSOC
  2
AcDbDimAssoc
  3
"AcDbDimAssoc|Product Desc:     AcDim ARX App For Dimension|Company:          Autodesk, Inc.|WEB Address:      www.autodesk.com"
 90
    32768
280
     0
281
     0
  0
CLASS
  1
STDPART2D
  2
AmgStdPart
  3
"AmgStdPart|Product Description: AutoCAD Mechanical 2000|Company: Autodesk"
 90
    33791
280
     0
281
     1
  0
CLASS
  1
ACAMSTDPCOMPDEF
  2
AcAmStdpCompDef
  3
DesignerAssemblies
 90
    32768
280
     0
281
     0
  0
CLASS
  1
ACRFATTGENMGR
  2
AcRfAttGeneralMgr
  3
AcAttribServices
 90
        0
280
     0
281
     0
  0
CLASS
  1
ACRFOBJATTMGR
  2
AcRfObjAttGroupMgr
  3
AcAttribServices
 90
    32768
280
     0
281
     0
  0
CLASS
  1
ACRFMCADAPIATTHOLDER
  2
AcRfMCADAPIAttHolder
  3
AcAttribServices
 90
    32768
280
     0
281
     0
  0
CLASS
  1
AMDTSYSATTR
  2
AmdtSystemAttribute
  3
AcAttribServices
 90
    32768
280
     0
281
     0
  0
CLASS
  1
ACAMCOMP
  2
AcAmComp
  3
DesignerAssemblies
 90
    32768
280
     0
281
     0
  0
CLASS
  1
AC_AM_STDP_VIEW_DEF
  2
AcAmStdpViewDef
  3
DesignerAssemblies
 90
    32768
280
     0
281
     0
  0
CLASS
  1
AC_AM_MVD_DEP_MGR
  2
AcAmMVDdepMgr
  3
DesignerAssemblies
 90
        0
280
     0
281
     0
  0
CLASS
  1
AC_AM_MASTER_VIEW_DEF
  2
AcAmMasterViewDef
  3
DesignerAssemblies
 90
        0
280
     0
281
     0
  0
CLASS
  1
AC_AM_DIRTY_NODES
  2
AcAmDirtyNodes
  3
DesignerAssemblies
 90
        0
280
     0
281
     0
  0
CLASS
  1
AC_AM_MAPPER_CACHE
  2
AcAmMapperCache
  3
DesignerAssemblies
 90
        0
280
     0
281
     0
  0
CLASS
  1
ACAMMVDBACKUPOBJECT
  2
AcAmMVDBackupObject
  3
DesignerAssemblies
 90
        0
280
     0
281
     0
  0
CLASS
  1
AC_AM_COMP_VIEW_INST
  2
AcAmCompView
  3
DesignerAssemblies
 90
    32768
280
     0
281
     0
  0
CLASS
  1
AC_AM_2D_XREF_MGR
  2
AcAmXrefMgr2d
  3
DesignerAssemblies
 90
        0
280
     0
281
     0
  0
CLASS
  1
SORTENTSTABLE
  2
AcDbSortentsTable
  3
ObjectDBX Classes
 90
        0
280
     0
281
     0
  0
CLASS
  1
AMDTNOTE
  2
AmdtNote
  3
"AcmSymBB|Product Description: AutoCAD Mechanical 2004 DX|Company: Autodesk"
 90
     1023
280
     0
281
     1
  0
ENDSEC
  0
SECTION
  2
TABLES
  0
TABLE
  2
VPORT
  5
8
330
0
100
AcDbSymbolTable
 70
     3
  0
VPORT
  5
32AF
330
8
100
AcDbSymbolTableRecord
100
AcDbViewportTableRecord
  2
*Active
 70
     0
 10
0.0
 20
0.0
 11
1.0
 21
1.0
 12
2530.258079137484
 22
1355.603256397082
 13
0.0
 23
0.0
 14
2.5
 24
2.5
 15
10.0
 25
10.0
 16
0.0
 26
0.0
 36
1.0
 17
0.0
 27
0.0
 37
0.0
 40
346.4828444566105
 41
1.81766917293233
 42
50.0
 43
0.0
 44
0.0
 50
0.0
 51
0.0
 71
     0
 72
   100
 73
     1
 74
     3
 75
     0
 76
     0
 77
     0
 78
     0
281
     0
 65
     1
110
0.0
120
0.0
130
0.0
111
1.0
121
0.0
131
0.0
112
0.0
122
1.0
132
0.0
 79
     0
146
0.0
  0
ENDTAB
  0
TABLE
  2
LTYPE
  5
5
330
0
100
AcDbSymbolTable
 70
    14
  0
LTYPE
  5
14
330
5
100
AcDbSymbolTableRecord
100
AcDbLinetypeTableRecord
  2
ByBlock
 70
     0
  3

 72
    65
 73
     0
 40
0.0
  0
LTYPE
  5
15
330
5
100
AcDbSymbolTableRecord
100
AcDbLinetypeTableRecord
  2
ByLayer
 70
     0
  3

 72
    65
 73
     0
 40
0.0
  0
LTYPE
  5
16
330
5
100
AcDbSymbolTableRecord
100
AcDbLinetypeTableRecord
  2
Continuous
 70
     0
  3
Solid line
 72
    65
 73
     0
 40
0.0
  0
LTYPE
  5
64
330
5
100
AcDbSymbolTableRecord
100
AcDbLinetypeTableRecord
  2
AM_ISO02W050
 70
     0
  3
__ __ __ __ __ __ __ __ __ __ __ __ __ __ __
 72
    65
 73
     2
 40
7.5
 49
6.0
 74
     0
 49
-1.5
 74
     0
  0
LTYPE
  5
65
330
5
100
AcDbSymbolTableRecord
100
AcDbLinetypeTableRecord
  2
AM_ISO08W050
 70
     0
  3
____ . ____ . ____ . ____ . ____ . ____ . ____
 72
    65
 73
     4
 40
18.0
 49
12.0
 74
     0
 49
-1.5
 74
     0
 49
3.0
 74
     0
 49
-1.5
 74
     0
  0
LTYPE
  5
66
330
5
100
AcDbSymbolTableRecord
100
AcDbLinetypeTableRecord
  2
AM_ISO09W050
 70
     0
  3
_____ . . _____ . . _____ . . ____ .. ____
 72
    65
 73
     6
 40
22.5
 49
12.0
 74
     0
 49
-1.5
 74
     0
 49
3.0
 74
     0
 49
-1.5
 74
     0
 49
3.0
 74
     0
 49
-1.5
 74
     0
  0
LTYPE
  5
67
330
5
100
AcDbSymbolTableRecord
100
AcDbLinetypeTableRecord
  2
Amconstr
 70
     0
  3
_______________________
 72
    65
 73
     2
 40
9999.0
 49
9999.0
 74
     0
 49
0.0
 74
     0
  0
LTYPE
  5
68
330
5
100
AcDbSymbolTableRecord
100
AcDbLinetypeTableRecord
  2
AM_ISO08W050x2
 70
     0
  3
__ . __ . __ . __ . __ . __
 72
    65
 73
     4
 40
9.0
 49
6.0
 74
     0
 49
-0.75
 74
     0
 49
1.5
 74
     0
 49
-0.75
 74
     0
  0
LTYPE
  5
69
330
5
100
AcDbSymbolTableRecord
100
AcDbLinetypeTableRecord
  2
AM_ISO02W050x2
 70
     0
  3
 _ _ _ _ _ _ _ _ _ _ _ _
 72
    65
 73
     2
 40
3.75
 49
3.0
 74
     0
 49
-0.75
 74
     0
  0
LTYPE
  5
6C
330
5
100
AcDbSymbolTableRecord
100
AcDbLinetypeTableRecord
  2
Amzigzag
 70
     0
  3
/\/-/\/-/\/-/\/-/\/-/\/
 72
    65
 73
     2
 40
11.0001
 49
0.0001
 74
     4
 75
   135
340
6B
 46
0.04
 50
0.0
 44
0.0
 45
0.0
 49
-11.0
 74
     0
  0
LTYPE
  5
7A
330
5
100
AcDbSymbolTableRecord
100
AcDbLinetypeTableRecord
  2
ACISOWELD
 70
     0
  3
_ _ _ _ _
 72
    65
 73
     2
 40
2.0
 49
2.0
 74
     0
 49
-1.0
 74
     0
  0
LTYPE
  5
7B
330
5
100
AcDbSymbolTableRecord
100
AcDbLinetypeTableRecord
  2
ACISOTGB
 70
     0
  3
__ . . __ . .
 72
    65
 73
     6
 40
9.0
 49
4.0
 74
     0
 49
-1.0
 74
     0
 49
1.0
 74
     0
 49
-1.0
 74
     0
 49
1.0
 74
     0
 49
-1.0
 74
     0
  0
LTYPE
  5
7C
330
5
100
AcDbSymbolTableRecord
100
AcDbLinetypeTableRecord
  2
ACISOTGL
 70
     0
  3
_ _ _ _ _
 72
    65
 73
     2
 40
3.0
 49
2.0
 74
     0
 49
-1.0
 74
     0
  0
LTYPE
  5
7E
330
5
100
AcDbSymbolTableRecord
100
AcDbLinetypeTableRecord
  2
CENTER
 70
     0
  3
__ . __
 72
    65
 73
     4
 40
7.0
 49
4.0
 74
     0
 49
-1.0
 74
     0
 49
1.0
 74
     0
 49
-1.0
 74
     0
  0
LTYPE
  5
D8
330
5
100
AcDbSymbolTableRecord
100
AcDbLinetypeTableRecord
  2
HIDDEN
 70
     0
  3
Hidden __ __ __ __ __ __ __ __ __ __ __ __ __ _
 72
    65
 73
     2
 40
9.524999999999998
 49
6.349999999999999
 74
     0
 49
-3.174999999999999
 74
     0
  0
LTYPE
  5
D9
330
5
100
AcDbSymbolTableRecord
100
AcDbLinetypeTableRecord
  2
PHANTOM2
 70
     0
  3
Phantom (.5x) ___ _ _ ___ _ _ ___ _ _ ___ _ _
 72
    65
 73
     6
 40
31.75
 49
15.875
 74
     0
 49
-3.174999999999999
 74
     0
 49
3.174999999999999
 74
     0
 49
-3.174999999999999
 74
     0
 49
3.174999999999999
 74
     0
 49
-3.174999999999999
 74
     0
  0
ENDTAB
  0
TABLE
  2
LAYER
  5
2
102
{ACAD_XDICTIONARY
360
3F9
102
}
330
0
100
AcDbSymbolTable
 70
     8
  0
LAYER
  5
10
330
2
100
AcDbSymbolTableRecord
100
AcDbLayerTableRecord
  2
0
 70
     0
 62
     7
  6
Continuous
370
    -3
390
F
  0
LAYER
  5
206
330
2
100
AcDbSymbolTableRecord
100
AcDbLayerTableRecord
  2
Defpoints
 70
     0
 62
     7
  6
Continuous
290
     0
370
    -3
390
F
  0
LAYER
  5
5AE
330
2
100
AcDbSymbolTableRecord
100
AcDbLayerTableRecord
  2
AM_7
 70
     0
 62
     1
  6
CENTER
370
    25
390
F
  0
LAYER
  5
764
330
2
100
AcDbSymbolTableRecord
100
AcDbLayerTableRecord
  2
AM_VIS
 70
     0
 62
     7
  6
Continuous
370
    50
390
F
  0
LAYER
  5
765
330
2
100
AcDbSymbolTableRecord
100
AcDbLayerTableRecord
  2
AM_4
 70
     0
 62
     3
  6
Continuous
370
    25
390
F
  0
LAYER
  5
AD4
330
2
100
AcDbSymbolTableRecord
100
AcDbLayerTableRecord
  2
AM_5
 70
     0
 62
     5
  6
Continuous
370
    50
390
F
  0
LAYER
  5
B72
330
2
100
AcDbSymbolTableRecord
100
AcDbLayerTableRecord
  2
AM_0
 70
     0
 62
     7
  6
Continuous
370
    50
390
F
  0
LAYER
  5
272C
330
2
100
AcDbSymbolTableRecord
100
AcDbLayerTableRecord
  2
LOGO
 70
     0
 62
     7
  6
Continuous
370
    -3
390
F
  0
ENDTAB
  0
TABLE
  2
STYLE
  5
3
330
0
100
AcDbSymbolTable
 70
     6
  0
STYLE
  5
11
330
3
100
AcDbSymbolTableRecord
100
AcDbTextStyleTableRecord
  2
STANDARD
 70
     0
 40
0.0
 41
1.0
 50
0.0
 71
     0
 42
3.0
  3
ISOCP.SHX
  4
CHINESET.SHX
  0
STYLE
  5
6B
330
3
100
AcDbSymbolTableRecord
100
AcDbTextStyleTableRecord
  2

 70
     1
 40
0.0
 41
1.0
 50
0.0
 71
     0
 42
2.5
  3
ltypeshp.shx
  4

  0
STYLE
  5
6D
330
3
100
AcDbSymbolTableRecord
100
AcDbTextStyleTableRecord
  2
ACISOTS
 70
     0
 40
1.0
 41
1.0
 50
0.0
 71
     0
 42
1.0
  3
isocp.shx
  4
chineset.shx
  0
STYLE
  5
79
330
3
100
AcDbSymbolTableRecord
100
AcDbTextStyleTableRecord
  2
ACISOGDT
 70
     0
 40
0.0
 41
1.0
 50
0.0
 71
     0
 42
2.5
  3
amgdt.shx
  4
chineset.shx
  0
STYLE
  5
60C
330
3
100
AcDbSymbolTableRecord
100
AcDbTextStyleTableRecord
  2
CHINESET
 70
     0
 40
0.0
 41
1.0
 50
0.0
 71
     0
 42
3.0
  3
simplex.shx
  4
CHINESET.SHX
  0
ENDTAB
  0
TABLE
  2
VIEW
  5
6
330
0
100
AcDbSymbolTable
 70
     0
  0
ENDTAB
  0
TABLE
  2
UCS
  5
7
330
0
100
AcDbSymbolTable
 70
     0
  0
ENDTAB
  0
TABLE
  2
APPID
  5
9
330
0
100
AcDbSymbolTable
 70
    26
  0
APPID
  5
12
330
9
100
AcDbSymbolTableRecord
100
AcDbRegAppTableRecord
  2
ACAD
 70
     0
  0
APPID
  5
46
330
9
100
AcDbSymbolTableRecord
100
AcDbRegAppTableRecord
  2
MCAD_NO_VIS
 70
     0
  0
APPID
  5
47
330
9
100
AcDbSymbolTableRecord
100
AcDbRegAppTableRecord
  2
ACAD_TEMP_GRAPHIC
 70
     0
  0
APPID
  5
58
330
9
100
AcDbSymbolTableRecord
100
AcDbRegAppTableRecord
  2
ACATTRIBSERVICES
 70
     0
  0
APPID
  5
EE
330
9
100
AcDbSymbolTableRecord
100
AcDbRegAppTableRecord
  2
AD_DRAW
 70
     0
  0
APPID
  5
10C
330
9
100
AcDbSymbolTableRecord
100
AcDbRegAppTableRecord
  2
DESIGNERASSEMBLIES
 70
     0
  0
APPID
  5
111
330
9
100
AcDbSymbolTableRecord
100
AcDbRegAppTableRecord
  2
ACADM_DIM_EDIT
 70
     0
  0
APPID
  5
112
330
9
100
AcDbSymbolTableRecord
100
AcDbRegAppTableRecord
  2
AMDT_DM_ADJ
 70
     0
  0
APPID
  5
22C
330
9
100
AcDbSymbolTableRecord
100
AcDbRegAppTableRecord
  2
ACAD_DSTYLE_DIMTEXT_FILL
 70
     0
  0
APPID
  5
452
330
9
100
AcDbSymbolTableRecord
100
AcDbRegAppTableRecord
  2
GENIUS_GENOENT_13
 70
     0
  0
APPID
  5
453
330
9
100
AcDbSymbolTableRecord
100
AcDbRegAppTableRecord
  2
GENIUS_GENOBJ-N-CRS_13
 70
     0
  0
APPID
  5
454
330
9
100
AcDbSymbolTableRecord
100
AcDbRegAppTableRecord
  2
GENIUS_GENOLIS_13
 70
     0
  0
APPID
  5
455
330
9
100
AcDbSymbolTableRecord
100
AcDbRegAppTableRecord
  2
GENIUS_GENODEF_13
 70
     0
  0
APPID
  5
456
330
9
100
AcDbSymbolTableRecord
100
AcDbRegAppTableRecord
  2
GENIUS_GENOREF_13
 70
     0
  0
APPID
  5
6F3
330
9
100
AcDbSymbolTableRecord
100
AcDbRegAppTableRecord
  2
ACAD_PSEXT
 70
     0
  0
APPID
  5
B79
330
9
100
AcDbSymbolTableRecord
100
AcDbRegAppTableRecord
  2
GEVID1132550052
 70
     0
  0
APPID
  5
B7A
330
9
100
AcDbSymbolTableRecord
100
AcDbRegAppTableRecord
  2
GEVDC
 70
     0
  0
APPID
  5
B7B
330
9
100
AcDbSymbolTableRecord
100
AcDbRegAppTableRecord
  2
GEVRADREF
 70
     0
  0
APPID
  5
B84
330
9
100
AcDbSymbolTableRecord
100
AcDbRegAppTableRecord
  2
AMG_2DHIDE
 70
     0
  0
APPID
  5
B85
330
9
100
AcDbSymbolTableRecord
100
AcDbRegAppTableRecord
  2
AMG_2DSTRUCT_BTR
 70
     0
  0
APPID
  5
B96
330
9
100
AcDbSymbolTableRecord
100
AcDbRegAppTableRecord
  2
ACADM_2DVIEW_IGN_NOTIFY
 70
     0
  0
APPID
  5
F35
330
9
100
AcDbSymbolTableRecord
100
AcDbRegAppTableRecord
  2
GENIUS_GENDIMSH_14
 70
     0
  0
APPID
  5
1269
330
9
100
AcDbSymbolTableRecord
100
AcDbRegAppTableRecord
  2
GENIUS_GENREC_14
 70
     0
  0
APPID
  5
126A
330
9
100
AcDbSymbolTableRecord
100
AcDbRegAppTableRecord
  2
GENIUS_GENOBJ-N-REC_13
 70
     0
  0
APPID
  5
213A
330
9
100
AcDbSymbolTableRecord
100
AcDbRegAppTableRecord
  2
GEVID1132550055
 70
     0
  0
APPID
  5
21C3
330
9
100
AcDbSymbolTableRecord
100
AcDbRegAppTableRecord
  2
GEVID1132550056
 70
     0
  0
ENDTAB
  0
TABLE
  2
DIMSTYLE
  5
A
330
0
100
AcDbSymbolTable
 70
     9
100
AcDbDimStyleTable
 71
     3
340
81
340
8B
340
86
  0
DIMSTYLE
105
81
330
A
100
AcDbSymbolTableRecord
100
AcDbDimStyleTableRecord
  2
AM_ISO
 70
     0
  4
"
 41
3.0
 42
1.0
 43
7.0
 44
1.5
 47
0.1
 48
0.1
 73
     0
 74
     0
 77
     1
 78
     8
 79
     2
140
3.0
141
0.0
143
0.0393701
146
0.71
147
1.0
172
     1
176
   256
177
   256
178
   256
271
     2
272
     2
283
     0
284
     8
340
11
371
    -1
372
    -1
  0
DIMSTYLE
105
82
330
A
100
AcDbSymbolTableRecord
100
AcDbDimStyleTableRecord
  2
AM_ISO$3
 70
     0
  4
"
 41
3.0
 42
1.0
 43
7.0
 44
1.5
 47
0.1
 48
0.1
 73
     0
 77
     1
 78
     8
 79
     2
140
3.0
141
0.0
143
0.0393701
146
0.71
147
1.0
176
   256
177
   256
178
   256
271
     2
272
     2
283
     0
284
     8
288
     1
289
     0
340
11
371
    -1
372
    -1
  0
DIMSTYLE
105
83
330
A
100
AcDbSymbolTableRecord
100
AcDbDimStyleTableRecord
  2
AM_ISO$4
 70
     0
  4
"
 41
3.0
 42
1.0
 43
7.0
 44
1.5
 47
0.1
 48
0.1
 73
     0
 77
     1
 78
     8
 79
     2
140
3.0
141
0.0
143
0.0393701
146
0.71
147
1.0
176
   256
177
   256
178
   256
271
     2
272
     2
283
     0
284
     8
288
     1
289
     0
340
11
371
    -1
372
    -1
  0
DIMSTYLE
105
84
330
A
100
AcDbSymbolTableRecord
100
AcDbDimStyleTableRecord
  2
AM_ISO$6
 70
     0
  4
"
 41
3.0
 42
1.0
 43
7.0
 44
1.5
 47
0.1
 48
0.1
 73
     0
 74
     0
 78
     8
 79
     2
140
3.0
141
0.0
143
0.0393701
146
0.71
147
1.0
172
     1
176
   256
177
   256
178
   256
271
     2
272
     2
283
     0
284
     8
340
11
371
    -1
372
    -1
  0
DIMSTYLE
105
85
330
A
100
AcDbSymbolTableRecord
100
AcDbDimStyleTableRecord
  2
AM_ISO$7
 70
     0
  4
"
 41
3.0
 42
1.0
 43
7.0
 44
1.5
 47
0.1
 48
0.1
 73
     0
 74
     0
 77
     1
 78
     8
 79
     2
140
5.0
141
0.0
143
0.0393701
146
0.71
147
1.0
172
     1
176
   256
177
   256
178
   256
271
     2
272
     2
283
     0
284
     8
340
11
371
    -1
372
    -1
  0
DIMSTYLE
105
86
330
A
100
AcDbSymbolTableRecord
100
AcDbDimStyleTableRecord
  2
AM_ISO$SF
 70
     0
  4
"
 41
2.5
 42
1.0
 43
10.0
 44
1.0
 47
0.1
 48
0.1
 73
     0
 74
     0
 75
     1
 76
     1
 77
     1
 78
     8
 79
     2
140
3.5
141
0.0
143
0.0393701
146
0.71
147
1.5
172
     1
176
   256
177
   256
178
     2
271
     2
272
     3
274
     4
283
     0
284
     8
340
11
371
    -1
372
    -1
  0
DIMSTYLE
105
8B
330
A
100
AcDbSymbolTableRecord
100
AcDbDimStyleTableRecord
  2
AM_ISO$SH
 70
     0
  4
"
 41
2.5
 42
1.0
 43
10.0
 44
1.0
 47
0.1
 48
0.1
 73
     0
 74
     0
 75
     1
 76
     1
 77
     1
 78
     8
 79
     2
140
3.5
141
0.0
143
0.0393701
144
2.0
146
0.71
147
1.5
172
     1
173
     1
176
   256
177
   256
178
     2
271
     2
272
     3
274
     4
283
     0
284
     8
340
11
343
87
371
    -1
372
    -1
  0
DIMSTYLE
105
40B
102
{ACAD_REACTORS
330
B2B
330
B51
330
C49
330
C6F
330
C95
330
CBB
330
CE1
330
D07
330
D2D
330
D53
330
D79
330
DBF
330
E1B
330
E45
330
E6F
330
E95
330
EBF
330
F63
330
F19
330
EE9
102
}
330
A
100
AcDbSymbolTableRecord
100
AcDbDimStyleTableRecord
  2
AM_ISO$0
 70
     0
  4
"
 41
3.0
 42
1.0
 43
7.0
 44
1.5
 47
0.1
 48
0.1
 73
     0
 74
     0
 77
     1
 78
     8
 79
     2
140
3.0
141
0.0
143
0.0393701
146
0.71
147
1.0
172
     1
176
   256
177
   256
178
   256
271
     2
272
     2
283
     0
284
     8
340
11
371
    -1
372
    -1
  0
ENDTAB
  0
TABLE
  2
BLOCK_RECORD
  5
1
330
0
100
AcDbSymbolTable
 70
    31
  0
BLOCK_RECORD
  5
1F
102
{ACAD_XDICTIONARY
360
8F
102
}
330
1
100
AcDbSymbolTableRecord
100
AcDbBlockTableRecord
  2
*Model_Space
340
22
  0
BLOCK_RECORD
  5
1B
330
1
100
AcDbSymbolTableRecord
100
AcDbBlockTableRecord
  2
*Paper_Space
340
1E
  0
BLOCK_RECORD
  5
23
330
1
100
AcDbSymbolTableRecord
100
AcDbBlockTableRecord
  2
*Paper_Space0
340
26
  0
BLOCK_RECORD
  5
87
330
1
100
AcDbSymbolTableRecord
100
AcDbBlockTableRecord
  2
GENAXEH
340
0
  0
BLOCK_RECORD
  5
B2C
330
1
100
AcDbSymbolTableRecord
100
AcDbBlockTableRecord
  2
*D3
340
0
  0
BLOCK_RECORD
  5
B52
330
1
100
AcDbSymbolTableRecord
100
AcDbBlockTableRecord
  2
*D4
340
0
  0
BLOCK_RECORD
  5
B9A
330
1
100
AcDbSymbolTableRecord
100
AcDbBlockTableRecord
  2
*U6
340
0
  0
BLOCK_RECORD
  5
C4A
330
1
100
AcDbSymbolTableRecord
100
AcDbBlockTableRecord
  2
*D7
340
0
  0
BLOCK_RECORD
  5
C70
330
1
100
AcDbSymbolTableRecord
100
AcDbBlockTableRecord
  2
*D8
340
0
  0
BLOCK_RECORD
  5
C96
330
1
100
AcDbSymbolTableRecord
100
AcDbBlockTableRecord
  2
*D9
340
0
  0
BLOCK_RECORD
  5
CBC
330
1
100
AcDbSymbolTableRecord
100
AcDbBlockTableRecord
  2
*D10
340
0
  0
BLOCK_RECORD
  5
CE2
330
1
100
AcDbSymbolTableRecord
100
AcDbBlockTableRecord
  2
*D11
340
0
  0
BLOCK_RECORD
  5
D08
330
1
100
AcDbSymbolTableRecord
100
AcDbBlockTableRecord
  2
*D12
340
0
  0
BLOCK_RECORD
  5
D2E
330
1
100
AcDbSymbolTableRecord
100
AcDbBlockTableRecord
  2
*D13
340
0
  0
BLOCK_RECORD
  5
D54
330
1
100
AcDbSymbolTableRecord
100
AcDbBlockTableRecord
  2
*D14
340
0
  0
BLOCK_RECORD
  5
D7A
330
1
100
AcDbSymbolTableRecord
100
AcDbBlockTableRecord
  2
*D15
340
0
  0
BLOCK_RECORD
  5
DC0
330
1
100
AcDbSymbolTableRecord
100
AcDbBlockTableRecord
  2
*D16
340
0
  0
BLOCK_RECORD
  5
E1C
330
1
100
AcDbSymbolTableRecord
100
AcDbBlockTableRecord
  2
*D17
340
0
  0
BLOCK_RECORD
  5
E46
330
1
100
AcDbSymbolTableRecord
100
AcDbBlockTableRecord
  2
*D18
340
0
  0
BLOCK_RECORD
  5
E70
330
1
100
AcDbSymbolTableRecord
100
AcDbBlockTableRecord
  2
*D19
340
0
  0
BLOCK_RECORD
  5
E96
330
1
100
AcDbSymbolTableRecord
100
AcDbBlockTableRecord
  2
*D20
340
0
  0
BLOCK_RECORD
  5
EC0
330
1
100
AcDbSymbolTableRecord
100
AcDbBlockTableRecord
  2
*D21
340
0
  0
BLOCK_RECORD
  5
EEA
330
1
100
AcDbSymbolTableRecord
100
AcDbBlockTableRecord
  2
*D22
340
0
  0
BLOCK_RECORD
  5
F1A
330
1
100
AcDbSymbolTableRecord
100
AcDbBlockTableRecord
  2
*D23
340
0
  0
BLOCK_RECORD
  5
F64
330
1
100
AcDbSymbolTableRecord
100
AcDbBlockTableRecord
  2
*D24
340
0
  0
BLOCK_RECORD
  5
3285
330
1
100
AcDbSymbolTableRecord
100
AcDbBlockTableRecord
  2
*S26
340
0
  0
BLOCK_RECORD
  5
328D
330
1
100
AcDbSymbolTableRecord
100
AcDbBlockTableRecord
  2
*S27
340
0
  0
BLOCK_RECORD
  5
3295
330
1
100
AcDbSymbolTableRecord
100
AcDbBlockTableRecord
  2
*S28
340
0
  0
BLOCK_RECORD
  5
329D
330
1
100
AcDbSymbolTableRecord
100
AcDbBlockTableRecord
  2
*S29
340
0
  0
BLOCK_RECORD
  5
32A5
330
1
100
AcDbSymbolTableRecord
100
AcDbBlockTableRecord
  2
*S30
340
0
  0
ENDTAB
  0
ENDSEC
  0
SECTION
  2
BLOCKS
  0
BLOCK
  5
20
330
1F
100
AcDbEntity
  8
0
100
AcDbBlockBegin
  2
*Model_Space
 70
     0
 10
0.0
 20
0.0
 30
0.0
  3
*Model_Space
  1

  0
ENDBLK
  5
21
330
1F
100
AcDbEntity
  8
0
100
AcDbBlockEnd
  0
BLOCK
  5
1C
330
1B
100
AcDbEntity
 67
     1
  8
0
100
AcDbBlockBegin
  2
*Paper_Space
 70
     0
 10
0.0
 20
0.0
 30
0.0
  3
*Paper_Space
  1

  0
ENDBLK
  5
1D
330
1B
100
AcDbEntity
 67
     1
  8
0
100
AcDbBlockEnd
  0
BLOCK
  5
24
330
23
100
AcDbEntity
  8
0
100
AcDbBlockBegin
  2
*Paper_Space0
 70
     0
 10
0.0
 20
0.0
 30
0.0
  3
*Paper_Space0
  1

  0
ENDBLK
  5
25
330
23
100
AcDbEntity
  8
0
100
AcDbBlockEnd
  0
BLOCK
  5
89
330
87
100
AcDbEntity
  8
0
100
AcDbBlockBegin
  2
GENAXEH
 70
     0
 10
0.0
 20
0.0
 30
0.0
  3
GENAXEH
  1

  0
LINE
  5
88
330
87
100
AcDbEntity
  8
0
100
AcDbLine
 10
-1.0
 20
0.0
 30
0.0
 11
1.0
 21
0.0
 31
0.0
  0
ENDBLK
  5
8A
330
87
100
AcDbEntity
  8
0
100
AcDbBlockEnd
  0
BLOCK
  5
B36
330
B2C
100
AcDbEntity
  8
0
100
AcDbBlockBegin
  2
*D3
 70
     1
 10
0.0
 20
0.0
 30
0.0
  3
*D3
  1

  0
LINE
  5
3151
330
B2C
100
AcDbEntity
  8
AM_5
100
AcDbLine
 10
2566.812388167245
 20
1451.133749628513
 30
0.0
 11
2601.312389167246
 21
1451.133749628513
 31
0.0
  0
LINE
  5
3152
330
B2C
100
AcDbEntity
  8
AM_5
100
AcDbLine
 10
2566.812388167245
 20
1477.133749628513
 30
0.0
 11
2601.312389167246
 21
1477.133749628513
 31
0.0
  0
LINE
  5
3153
330
B2C
100
AcDbEntity
  8
AM_5
100
AcDbLine
 10
2599.812389167245
 20
1454.133749628513
 30
0.0
 11
2599.812389167245
 21
1474.133749628513
 31
0.0
  0
SOLID
  5
3154
330
B2C
100
AcDbEntity
  8
AM_5
100
AcDbTrace
 10
2599.312389167245
 20
1454.133749628513
 30
0.0
 11
2600.312389167246
 21
1454.133749628513
 31
0.0
 12
2599.812389167245
 22
1451.133749628513
 32
0.0
 13
2599.812389167245
 23
1451.133749628513
 33
0.0
  0
SOLID
  5
3155
330
B2C
100
AcDbEntity
  8
AM_5
100
AcDbTrace
 10
2599.312389167245
 20
1474.133749628513
 30
0.0
 11
2600.312389167246
 21
1474.133749628513
 31
0.0
 12
2599.812389167245
 22
1477.133749628513
 32
0.0
 13
2599.812389167245
 23
1477.133749628513
 33
0.0
  0
MTEXT
  5
3156
330
B2C
100
AcDbEntity
  8
AM_5
100
AcDbMText
 10
2597.312093891654
 20
1464.133749628513
 30
0.0
 40
3.0
 41
0.0
 71
     5
 72
     1
  1
26
 11
0.0000000000000001
 21
1.0
 31
0.0
 73
     1
 44
1.0
1001
ACAD
1000
MTEXTBEGIN
1070
    73
1070
     1
1070
    44
1040
1.0
1070
    74
1070
     0
1000
MTEXTEND
  0
POINT
  5
3157
330
B2C
100
AcDbEntity
  8
Defpoints
 62
     0
100
AcDbPoint
 10
2565.812388167246
 20
1451.133749628513
 30
0.0
  0
POINT
  5
3158
330
B2C
100
AcDbEntity
  8
Defpoints
 62
     0
100
AcDbPoint
 10
2565.812388167246
 20
1477.133749628513
 30
0.0
  0
POINT
  5
3159
330
B2C
100
AcDbEntity
  8
Defpoints
 62
     0
100
AcDbPoint
 10
2599.812389167245
 20
1477.133749628513
 30
0.0
  0
ENDBLK
  5
B37
330
B2C
100
AcDbEntity
  8
0
100
AcDbBlockEnd
  0
BLOCK
  5
B5C
330
B52
100
AcDbEntity
  8
0
100
AcDbBlockBegin
  2
*D4
 70
     1
 10
0.0
 20
0.0
 30
0.0
  3
*D4
  1

  0
LINE
  5
315A
330
B52
100
AcDbEntity
  8
AM_5
100
AcDbLine
 10
2561.812388167246
 20
1446.133749628513
 30
0.0
 11
2561.812388167246
 21
1430.633749628513
 31
0.0
  0
LINE
  5
315B
330
B52
100
AcDbEntity
  8
AM_5
100
AcDbLine
 10
2587.812388167245
 20
1443.133749628513
 30
0.0
 11
2587.812388167245
 21
1430.633749628513
 31
0.0
  0
LINE
  5
315C
330
B52
100
AcDbEntity
  8
AM_5
100
AcDbLine
 10
2564.812388167246
 20
1432.133749628513
 30
0.0
 11
2584.812388167245
 21
1432.133749628513
 31
0.0
  0
SOLID
  5
315D
330
B52
100
AcDbEntity
  8
AM_5
100
AcDbTrace
 10
2564.812388167246
 20
1432.633749628513
 30
0.0
 11
2564.812388167246
 21
1431.633749628513
 31
0.0
 12
2561.812388167246
 22
1432.133749628513
 32
0.0
 13
2561.812388167246
 23
1432.133749628513
 33
0.0
  0
SOLID
  5
315E
330
B52
100
AcDbEntity
  8
AM_5
100
AcDbTrace
 10
2584.812388167245
 20
1432.633749628513
 30
0.0
 11
2584.812388167245
 21
1431.633749628513
 31
0.0
 12
2587.812388167245
 22
1432.133749628513
 32
0.0
 13
2587.812388167245
 23
1432.133749628513
 33
0.0
  0
MTEXT
  5
315F
330
B52
100
AcDbEntity
  8
AM_5
100
AcDbMText
 10
2574.812388167246
 20
1434.634044904103
 30
0.0
 40
3.0
 41
0.0
 71
     5
 72
     1
  1
26
 73
     1
 44
1.0
1001
ACAD
1000
MTEXTBEGIN
1070
    73
1070
     1
1070
    44
1040
1.0
1070
    74
1070
     0
1000
MTEXTEND
  0
POINT
  5
3160
330
B52
100
AcDbEntity
  8
Defpoints
 62
     0
100
AcDbPoint
 10
2561.812388167246
 20
1447.133749628513
 30
0.0
  0
POINT
  5
3161
330
B52
100
AcDbEntity
  8
Defpoints
 62
     0
100
AcDbPoint
 10
2587.812388167245
 20
1444.133749628513
 30
0.0
  0
POINT
  5
3162
330
B52
100
AcDbEntity
  8
Defpoints
 62
     0
100
AcDbPoint
 10
2587.812388167245
 20
1432.133749628513
 30
0.0
  0
ENDBLK
  5
B5D
330
B52
100
AcDbEntity
  8
0
100
AcDbBlockEnd
  0
BLOCK
  5
B9B
330
B9A
100
AcDbEntity
  8
0
100
AcDbBlockBegin
  2
*U6
 70
     1
 10
0.0
 20
0.0
 30
0.0
  3
*U6
  1

  0
ENDBLK
  5
B9C
330
B9A
100
AcDbEntity
  8
0
100
AcDbBlockEnd
  0
BLOCK
  5
C54
330
C4A
100
AcDbEntity
  8
0
100
AcDbBlockBegin
  2
*D7
 70
     1
 10
0.0
 20
0.0
 30
0.0
  3
*D7
  1

  0
LINE
  5
3163
330
C4A
100
AcDbEntity
  8
AM_5
100
AcDbLine
 10
2587.812388167245
 20
1408.382578897572
 30
0.0
 11
2587.812388167245
 21
1420.882578897572
 31
0.0
  0
LINE
  5
3164
330
C4A
100
AcDbEntity
  8
AM_5
100
AcDbLine
 10
2553.812388167246
 20
1404.382578897572
 30
0.0
 11
2553.812388167246
 21
1420.882578897572
 31
0.0
  0
LINE
  5
3165
330
C4A
100
AcDbEntity
  8
AM_5
100
AcDbLine
 10
2584.812388167245
 20
1419.382578897572
 30
0.0
 11
2556.812388167246
 21
1419.382578897572
 31
0.0
  0
SOLID
  5
3166
330
C4A
100
AcDbEntity
  8
AM_5
100
AcDbTrace
 10
2584.812388167245
 20
1419.882578897572
 30
0.0
 11
2584.812388167245
 21
1418.882578897572
 31
0.0
 12
2587.812388167245
 22
1419.382578897572
 32
0.0
 13
2587.812388167245
 23
1419.382578897572
 33
0.0
  0
SOLID
  5
3167
330
C4A
100
AcDbEntity
  8
AM_5
100
AcDbTrace
 10
2556.812388167246
 20
1419.882578897572
 30
0.0
 11
2556.812388167246
 21
1418.882578897572
 31
0.0
 12
2553.812388167246
 22
1419.382578897572
 32
0.0
 13
2553.812388167246
 23
1419.382578897572
 33
0.0
  0
MTEXT
  5
3168
330
C4A
100
AcDbEntity
  8
AM_5
100
AcDbMText
 10
2570.812388167246
 20
1421.882578897572
 30
0.0
 40
3.0
 41
0.0
 71
     5
 72
     1
  1
34
 73
     1
 44
1.0
1001
ACAD
1000
MTEXTBEGIN
1070
    73
1070
     1
1070
    44
1040
1.0
1070
    74
1070
     0
1000
MTEXTEND
  0
POINT
  5
3169
330
C4A
100
AcDbEntity
  8
Defpoints
 62
     0
100
AcDbPoint
 10
2587.812388167245
 20
1407.382578897572
 30
0.0
  0
POINT
  5
316A
330
C4A
100
AcDbEntity
  8
Defpoints
 62
     0
100
AcDbPoint
 10
2553.812388167246
 20
1403.382578897572
 30
0.0
  0
POINT
  5
316B
330
C4A
100
AcDbEntity
  8
Defpoints
 62
     0
100
AcDbPoint
 10
2553.812388167246
 20
1419.382578897572
 30
0.0
  0
ENDBLK
  5
C55
330
C4A
100
AcDbEntity
  8
0
100
AcDbBlockEnd
  0
BLOCK
  5
C7A
330
C70
100
AcDbEntity
  8
0
100
AcDbBlockBegin
  2
*D8
 70
     1
 10
0.0
 20
0.0
 30
0.0
  3
*D8
  1

  0
LINE
  5
316C
330
C70
100
AcDbEntity
  8
AM_5
100
AcDbLine
 10
2558.812388167245
 20
1355.382578897572
 30
0.0
 11
2601.312388167246
 21
1355.382578897572
 31
0.0
  0
LINE
  5
316D
330
C70
100
AcDbEntity
  8
AM_5
100
AcDbLine
 10
2558.812388167245
 20
1399.382578897572
 30
0.0
 11
2601.312388167246
 21
1399.382578897572
 31
0.0
  0
LINE
  5
316E
330
C70
100
AcDbEntity
  8
AM_5
100
AcDbLine
 10
2599.812388167246
 20
1358.382578897572
 30
0.0
 11
2599.812388167246
 21
1396.382578897572
 31
0.0
  0
SOLID
  5
316F
330
C70
100
AcDbEntity
  8
AM_5
100
AcDbTrace
 10
2599.312388167246
 20
1358.382578897572
 30
0.0
 11
2600.312388167246
 21
1358.382578897572
 31
0.0
 12
2599.812388167246
 22
1355.382578897572
 32
0.0
 13
2599.812388167246
 23
1355.382578897572
 33
0.0
  0
SOLID
  5
3170
330
C70
100
AcDbEntity
  8
AM_5
100
AcDbTrace
 10
2599.312388167246
 20
1396.382578897572
 30
0.0
 11
2600.312388167246
 21
1396.382578897572
 31
0.0
 12
2599.812388167246
 22
1399.382578897572
 32
0.0
 13
2599.812388167246
 23
1399.382578897572
 33
0.0
  0
MTEXT
  5
3171
330
C70
100
AcDbEntity
  8
AM_5
100
AcDbMText
 10
2597.312388167245
 20
1377.382578897572
 30
0.0
 40
3.0
 41
0.0
 71
     5
 72
     1
  1
44
 11
0.0000000000000001
 21
1.0
 31
0.0
 73
     1
 44
1.0
1001
ACAD
1000
MTEXTBEGIN
1070
    73
1070
     1
1070
    44
1040
1.0
1070
    74
1070
     0
1000
MTEXTEND
  0
POINT
  5
3172
330
C70
100
AcDbEntity
  8
Defpoints
 62
     0
100
AcDbPoint
 10
2557.812388167246
 20
1355.382578897572
 30
0.0
  0
POINT
  5
3173
330
C70
100
AcDbEntity
  8
Defpoints
 62
     0
100
AcDbPoint
 10
2557.812388167246
 20
1399.382578897572
 30
0.0
  0
POINT
  5
3174
330
C70
100
AcDbEntity
  8
Defpoints
 62
     0
100
AcDbPoint
 10
2599.812388167246
 20
1399.382578897572
 30
0.0
  0
ENDBLK
  5
C7B
330
C70
100
AcDbEntity
  8
0
100
AcDbBlockEnd
  0
BLOCK
  5
CA0
330
C96
100
AcDbEntity
  8
0
100
AcDbBlockBegin
  2
*D9
 70
     1
 10
0.0
 20
0.0
 30
0.0
  3
*D9
  1

  0
LINE
  5
3175
330
C96
100
AcDbEntity
  8
AM_5
100
AcDbLine
 10
2587.812388167245
 20
1346.382578897572
 30
0.0
 11
2587.812388167245
 21
1333.882578897572
 31
0.0
  0
LINE
  5
3176
330
C96
100
AcDbEntity
  8
AM_5
100
AcDbLine
 10
2497.312388167245
 20
1346.382578897572
 30
0.0
 11
2497.312388167245
 21
1333.882578897572
 31
0.0
  0
LINE
  5
3177
330
C96
100
AcDbEntity
  8
AM_5
100
AcDbLine
 10
2584.812388167245
 20
1335.382578897572
 30
0.0
 11
2500.312388167245
 21
1335.382578897572
 31
0.0
  0
SOLID
  5
3178
330
C96
100
AcDbEntity
  8
AM_5
100
AcDbTrace
 10
2584.812388167245
 20
1335.882578897572
 30
0.0
 11
2584.812388167245
 21
1334.882578897572
 31
0.0
 12
2587.812388167245
 22
1335.382578897572
 32
0.0
 13
2587.812388167245
 23
1335.382578897572
 33
0.0
  0
SOLID
  5
3179
330
C96
100
AcDbEntity
  8
AM_5
100
AcDbTrace
 10
2500.312388167245
 20
1335.882578897572
 30
0.0
 11
2500.312388167245
 21
1334.882578897572
 31
0.0
 12
2497.312388167245
 22
1335.382578897572
 32
0.0
 13
2497.312388167245
 23
1335.382578897572
 33
0.0
  0
MTEXT
  5
317A
330
C96
100
AcDbEntity
  8
AM_5
100
AcDbMText
 10
2542.562388167246
 20
1337.882578897572
 30
0.0
 40
3.0
 41
0.0
 71
     5
 72
     1
  1
90.5
 73
     1
 44
1.0
1001
ACAD
1000
MTEXTBEGIN
1070
    73
1070
     1
1070
    44
1040
1.0
1070
    74
1070
     0
1000
MTEXTEND
  0
POINT
  5
317B
330
C96
100
AcDbEntity
  8
Defpoints
 62
     0
100
AcDbPoint
 10
2587.812388167245
 20
1347.382578897572
 30
0.0
  0
POINT
  5
317C
330
C96
100
AcDbEntity
  8
Defpoints
 62
     0
100
AcDbPoint
 10
2497.312388167245
 20
1347.382578897572
 30
0.0
  0
POINT
  5
317D
330
C96
100
AcDbEntity
  8
Defpoints
 62
     0
100
AcDbPoint
 10
2497.312388167245
 20
1335.382578897572
 30
0.0
  0
ENDBLK
  5
CA1
330
C96
100
AcDbEntity
  8
0
100
AcDbBlockEnd
  0
BLOCK
  5
CC6
330
CBC
100
AcDbEntity
  8
0
100
AcDbBlockBegin
  2
*D10
 70
     1
 10
0.0
 20
0.0
 30
0.0
  3
*D10
  1

  0
LINE
  5
317E
330
CBC
100
AcDbEntity
  8
AM_5
100
AcDbLine
 10
2497.312388167245
 20
1346.382578897572
 30
0.0
 11
2497.312388167245
 21
1333.882578897572
 31
0.0
  0
LINE
  5
317F
330
CBC
100
AcDbEntity
  8
AM_5
100
AcDbLine
 10
2467.312388167246
 20
1346.470726157818
 30
0.0
 11
2467.312388167246
 21
1333.882578897572
 31
0.0
  0
LINE
  5
3180
330
CBC
100
AcDbEntity
  8
AM_5
100
AcDbLine
 10
2494.312388167246
 20
1335.382578897572
 30
0.0
 11
2470.312388167246
 21
1335.382578897572
 31
0.0
  0
SOLID
  5
3181
330
CBC
100
AcDbEntity
  8
AM_5
100
AcDbTrace
 10
2494.312388167246
 20
1335.882578897572
 30
0.0
 11
2494.312388167246
 21
1334.882578897572
 31
0.0
 12
2497.312388167245
 22
1335.382578897572
 32
0.0
 13
2497.312388167245
 23
1335.382578897572
 33
0.0
  0
SOLID
  5
3182
330
CBC
100
AcDbEntity
  8
AM_5
100
AcDbTrace
 10
2470.312388167246
 20
1335.882578897572
 30
0.0
 11
2470.312388167246
 21
1334.882578897572
 31
0.0
 12
2467.312388167246
 22
1335.382578897572
 32
0.0
 13
2467.312388167246
 23
1335.382578897572
 33
0.0
  0
MTEXT
  5
3183
330
CBC
100
AcDbEntity
  8
AM_5
100
AcDbMText
 10
2482.312388167246
 20
1337.882578897572
 30
0.0
 40
3.0
 41
0.0
 71
     5
 72
     1
  1
30
 73
     1
 44
1.0
1001
ACAD
1000
MTEXTBEGIN
1070
    73
1070
     1
1070
    44
1040
1.0
1070
    74
1070
     0
1000
MTEXTEND
  0
POINT
  5
3184
330
CBC
100
AcDbEntity
  8
Defpoints
 62
     0
100
AcDbPoint
 10
2497.312388167245
 20
1347.382578897572
 30
0.0
  0
POINT
  5
3185
330
CBC
100
AcDbEntity
  8
Defpoints
 62
     0
100
AcDbPoint
 10
2467.312388167246
 20
1347.470726157818
 30
0.0
  0
POINT
  5
3186
330
CBC
100
AcDbEntity
  8
Defpoints
 62
     0
100
AcDbPoint
 10
2467.312388167246
 20
1335.382578897572
 30
0.0
  0
ENDBLK
  5
CC7
330
CBC
100
AcDbEntity
  8
0
100
AcDbBlockEnd
  0
BLOCK
  5
CEC
330
CE2
100
AcDbEntity
  8
0
100
AcDbBlockBegin
  2
*D11
 70
     1
 10
0.0
 20
0.0
 30
0.0
  3
*D11
  1

  0
LINE
  5
3187
330
CE2
100
AcDbEntity
  8
AM_5
100
AcDbLine
 10
2587.812388167245
 20
1346.382578897572
 30
0.0
 11
2587.812388167245
 21
1326.882578897572
 31
0.0
  0
LINE
  5
3188
330
CE2
100
AcDbEntity
  8
AM_5
100
AcDbLine
 10
2467.312388167246
 20
1346.882578897572
 30
0.0
 11
2467.312388167246
 21
1326.882578897572
 31
0.0
  0
LINE
  5
3189
330
CE2
100
AcDbEntity
  8
AM_5
100
AcDbLine
 10
2584.812388167245
 20
1328.382578897572
 30
0.0
 11
2470.312388167246
 21
1328.382578897572
 31
0.0
  0
SOLID
  5
318A
330
CE2
100
AcDbEntity
  8
AM_5
100
AcDbTrace
 10
2584.812388167245
 20
1328.882578897572
 30
0.0
 11
2584.812388167245
 21
1327.882578897572
 31
0.0
 12
2587.812388167245
 22
1328.382578897572
 32
0.0
 13
2587.812388167245
 23
1328.382578897572
 33
0.0
  0
SOLID
  5
318B
330
CE2
100
AcDbEntity
  8
AM_5
100
AcDbTrace
 10
2470.312388167246
 20
1328.882578897572
 30
0.0
 11
2470.312388167246
 21
1327.882578897572
 31
0.0
 12
2467.312388167246
 22
1328.382578897572
 32
0.0
 13
2467.312388167246
 23
1328.382578897572
 33
0.0
  0
MTEXT
  5
318C
330
CE2
100
AcDbEntity
  8
AM_5
100
AcDbMText
 10
2527.562388167245
 20
1330.882874173163
 30
0.0
 40
3.0
 41
0.0
 71
     5
 72
     1
  1
120.5
 73
     1
 44
1.0
1001
ACAD
1000
MTEXTBEGIN
1070
    73
1070
     1
1070
    44
1040
1.0
1070
    74
1070
     0
1000
MTEXTEND
  0
POINT
  5
318D
330
CE2
100
AcDbEntity
  8
Defpoints
 62
     0
100
AcDbPoint
 10
2587.812388167245
 20
1347.382578897572
 30
0.0
  0
POINT
  5
318E
330
CE2
100
AcDbEntity
  8
Defpoints
 62
     0
100
AcDbPoint
 10
2467.312388167246
 20
1347.882578897572
 30
0.0
  0
POINT
  5
318F
330
CE2
100
AcDbEntity
  8
Defpoints
 62
     0
100
AcDbPoint
 10
2467.312388167246
 20
1328.382578897572
 30
0.0
  0
ENDBLK
  5
CED
330
CE2
100
AcDbEntity
  8
0
100
AcDbBlockEnd
  0
BLOCK
  5
D12
330
D08
100
AcDbEntity
  8
0
100
AcDbBlockBegin
  2
*D12
 70
     1
 10
0.0
 20
0.0
 30
0.0
  3
*D12
  1

  0
LINE
  5
3190
330
D08
100
AcDbEntity
  8
AM_5
100
AcDbLine
 10
2630.187168883458
 20
1346.882578897572
 30
0.0
 11
2630.187168883458
 21
1326.882578897572
 31
0.0
  0
LINE
  5
3191
330
D08
100
AcDbEntity
  8
AM_5
100
AcDbLine
 10
2670.187168883457
 20
1346.882578897572
 30
0.0
 11
2670.187168883457
 21
1326.882578897572
 31
0.0
  0
LINE
  5
3192
330
D08
100
AcDbEntity
  8
AM_5
100
AcDbLine
 10
2633.187168883457
 20
1328.382578897572
 30
0.0
 11
2667.187168883457
 21
1328.382578897572
 31
0.0
  0
SOLID
  5
3193
330
D08
100
AcDbEntity
  8
AM_5
100
AcDbTrace
 10
2633.187168883457
 20
1328.882578897572
 30
0.0
 11
2633.187168883457
 21
1327.882578897572
 31
0.0
 12
2630.187168883458
 22
1328.382578897572
 32
0.0
 13
2630.187168883458
 23
1328.382578897572
 33
0.0
  0
SOLID
  5
3194
330
D08
100
AcDbEntity
  8
AM_5
100
AcDbTrace
 10
2667.187168883457
 20
1328.882578897572
 30
0.0
 11
2667.187168883457
 21
1327.882578897572
 31
0.0
 12
2670.187168883457
 22
1328.382578897572
 32
0.0
 13
2670.187168883457
 23
1328.382578897572
 33
0.0
  0
MTEXT
  5
3195
330
D08
100
AcDbEntity
  8
AM_5
100
AcDbMText
 10
2650.187168883457
 20
1330.882578897572
 30
0.0
 40
3.0
 41
0.0
 71
     5
 72
     1
  1
40
 73
     1
 44
1.0
1001
ACAD
1000
MTEXTBEGIN
1070
    73
1070
     1
1070
    44
1040
1.0
1070
    74
1070
     0
1000
MTEXTEND
  0
POINT
  5
3196
330
D08
100
AcDbEntity
  8
Defpoints
 62
     0
100
AcDbPoint
 10
2630.187168883458
 20
1347.882578897572
 30
0.0
  0
POINT
  5
3197
330
D08
100
AcDbEntity
  8
Defpoints
 62
     0
100
AcDbPoint
 10
2670.187168883457
 20
1347.882578897572
 30
0.0
  0
POINT
  5
3198
330
D08
100
AcDbEntity
  8
Defpoints
 62
     0
100
AcDbPoint
 10
2670.187168883457
 20
1328.382578897572
 30
0.0
  0
ENDBLK
  5
D13
330
D08
100
AcDbEntity
  8
0
100
AcDbBlockEnd
  0
BLOCK
  5
D38
330
D2E
100
AcDbEntity
  8
0
100
AcDbBlockBegin
  2
*D13
 70
     1
 10
0.0
 20
0.0
 30
0.0
  3
*D13
  1

  0
LINE
  5
3199
330
D2E
100
AcDbEntity
  8
AM_5
100
AcDbLine
 10
2638.187168883457
 20
1395.382578897572
 30
0.0
 11
2638.187168883457
 21
1333.882578897572
 31
0.0
  0
LINE
  5
319A
330
D2E
100
AcDbEntity
  8
AM_5
100
AcDbLine
 10
2662.187168883458
 20
1349.382578897572
 30
0.0
 11
2662.187168883458
 21
1333.882578897572
 31
0.0
  0
LINE
  5
319B
330
D2E
100
AcDbEntity
  8
AM_5
100
AcDbLine
 10
2641.187168883457
 20
1335.382578897572
 30
0.0
 11
2659.187168883458
 21
1335.382578897572
 31
0.0
  0
SOLID
  5
319C
330
D2E
100
AcDbEntity
  8
AM_5
100
AcDbTrace
 10
2641.187168883457
 20
1335.882578897572
 30
0.0
 11
2641.187168883457
 21
1334.882578897572
 31
0.0
 12
2638.187168883457
 22
1335.382578897572
 32
0.0
 13
2638.187168883457
 23
1335.382578897572
 33
0.0
  0
SOLID
  5
319D
330
D2E
100
AcDbEntity
  8
AM_5
100
AcDbTrace
 10
2659.187168883458
 20
1335.882578897572
 30
0.0
 11
2659.187168883458
 21
1334.882578897572
 31
0.0
 12
2662.187168883458
 22
1335.382578897572
 32
0.0
 13
2662.187168883458
 23
1335.382578897572
 33
0.0
  0
MTEXT
  5
319E
330
D2E
100
AcDbEntity
  8
AM_5
100
AcDbMText
 10
2650.187168883457
 20
1337.882874173162
 30
0.0
 40
3.0
 41
0.0
 71
     5
 72
     1
  1
24
 73
     1
 44
1.0
1001
ACAD
1000
MTEXTBEGIN
1070
    73
1070
     1
1070
    44
1040
1.0
1070
    74
1070
     0
1000
MTEXTEND
  0
POINT
  5
319F
330
D2E
100
AcDbEntity
  8
Defpoints
 62
     0
100
AcDbPoint
 10
2638.187168883457
 20
1396.382578897572
 30
0.0
  0
POINT
  5
31A0
330
D2E
100
AcDbEntity
  8
Defpoints
 62
     0
100
AcDbPoint
 10
2662.187168883458
 20
1350.382578897572
 30
0.0
  0
POINT
  5
31A1
330
D2E
100
AcDbEntity
  8
Defpoints
 62
     0
100
AcDbPoint
 10
2662.187168883458
 20
1335.382578897572
 30
0.0
  0
ENDBLK
  5
D39
330
D2E
100
AcDbEntity
  8
0
100
AcDbBlockEnd
  0
BLOCK
  5
D5E
330
D54
100
AcDbEntity
  8
0
100
AcDbBlockBegin
  2
*D14
 70
     1
 10
0.0
 20
0.0
 30
0.0
  3
*D14
  1

  0
LINE
  5
31A2
330
D54
100
AcDbEntity
  8
AM_5
100
AcDbLine
 10
2633.187168883457
 20
1400.382578897572
 30
0.0
 11
2616.687168883457
 21
1400.382578897572
 31
0.0
  0
LINE
  5
31A3
330
D54
100
AcDbEntity
  8
AM_5
100
AcDbLine
 10
2657.187168883457
 20
1354.382578897572
 30
0.0
 11
2616.687168883457
 21
1354.382578897572
 31
0.0
  0
LINE
  5
31A4
330
D54
100
AcDbEntity
  8
AM_5
100
AcDbLine
 10
2618.187168883457
 20
1397.382578897572
 30
0.0
 11
2618.187168883457
 21
1357.382578897572
 31
0.0
  0
SOLID
  5
31A5
330
D54
100
AcDbEntity
  8
AM_5
100
AcDbTrace
 10
2617.687168883457
 20
1397.382578897572
 30
0.0
 11
2618.687168883457
 21
1397.382578897572
 31
0.0
 12
2618.187168883457
 22
1400.382578897572
 32
0.0
 13
2618.187168883457
 23
1400.382578897572
 33
0.0
  0
SOLID
  5
31A6
330
D54
100
AcDbEntity
  8
AM_5
100
AcDbTrace
 10
2617.687168883457
 20
1357.382578897572
 30
0.0
 11
2618.687168883457
 21
1357.382578897572
 31
0.0
 12
2618.187168883457
 22
1354.382578897572
 32
0.0
 13
2618.187168883457
 23
1354.382578897572
 33
0.0
  0
MTEXT
  5
31A7
330
D54
100
AcDbEntity
  8
AM_5
100
AcDbMText
 10
2615.687168883457
 20
1377.382578897572
 30
0.0
 40
3.0
 41
0.0
 71
     5
 72
     1
  1
46
 11
0.0000000000000001
 21
1.0
 31
0.0
 73
     1
 44
1.0
1001
ACAD
1000
MTEXTBEGIN
1070
    73
1070
     1
1070
    44
1040
1.0
1070
    74
1070
     0
1000
MTEXTEND
  0
POINT
  5
31A8
330
D54
100
AcDbEntity
  8
Defpoints
 62
     0
100
AcDbPoint
 10
2634.187168883457
 20
1400.382578897572
 30
0.0
  0
POINT
  5
31A9
330
D54
100
AcDbEntity
  8
Defpoints
 62
     0
100
AcDbPoint
 10
2658.187168883457
 20
1354.382578897572
 30
0.0
  0
POINT
  5
31AA
330
D54
100
AcDbEntity
  8
Defpoints
 62
     0
100
AcDbPoint
 10
2618.187168883457
 20
1354.382578897572
 30
0.0
  0
ENDBLK
  5
D5F
330
D54
100
AcDbEntity
  8
0
100
AcDbBlockEnd
  0
BLOCK
  5
D84
330
D7A
100
AcDbEntity
  8
0
100
AcDbBlockBegin
  2
*D15
 70
     1
 10
0.0
 20
0.0
 30
0.0
  3
*D15
  1

  0
LINE
  5
31AB
330
D7A
100
AcDbEntity
  8
AM_5
100
AcDbLine
 10
2629.687168883457
 20
1407.382578897572
 30
0.0
 11
2609.687168883457
 21
1407.382578897572
 31
0.0
  0
LINE
  5
31AC
330
D7A
100
AcDbEntity
  8
AM_5
100
AcDbLine
 10
2629.687168883457
 20
1347.382578897572
 30
0.0
 11
2609.687168883457
 21
1347.382578897572
 31
0.0
  0
LINE
  5
31AD
330
D7A
100
AcDbEntity
  8
AM_5
100
AcDbLine
 10
2611.187168883458
 20
1404.382578897572
 30
0.0
 11
2611.187168883458
 21
1350.382578897572
 31
0.0
  0
SOLID
  5
31AE
330
D7A
100
AcDbEntity
  8
AM_5
100
AcDbTrace
 10
2610.687168883457
 20
1404.382578897572
 30
0.0
 11
2611.687168883457
 21
1404.382578897572
 31
0.0
 12
2611.187168883458
 22
1407.382578897572
 32
0.0
 13
2611.187168883458
 23
1407.382578897572
 33
0.0
  0
SOLID
  5
31AF
330
D7A
100
AcDbEntity
  8
AM_5
100
AcDbTrace
 10
2610.687168883457
 20
1350.382578897572
 30
0.0
 11
2611.687168883457
 21
1350.382578897572
 31
0.0
 12
2611.187168883458
 22
1347.382578897572
 32
0.0
 13
2611.187168883458
 23
1347.382578897572
 33
0.0
  0
MTEXT
  5
31B0
330
D7A
100
AcDbEntity
  8
AM_5
100
AcDbMText
 10
2608.687168883457
 20
1377.382578897572
 30
0.0
 40
3.0
 41
0.0
 71
     5
 72
     1
  1
60
 11
0.0000000000000001
 21
1.0
 31
0.0
 73
     1
 44
1.0
1001
ACAD
1000
MTEXTBEGIN
1070
    73
1070
     1
1070
    44
1040
1.0
1070
    74
1070
     0
1000
MTEXTEND
  0
POINT
  5
31B1
330
D7A
100
AcDbEntity
  8
Defpoints
 62
     0
100
AcDbPoint
 10
2630.687168883457
 20
1407.382578897572
 30
0.0
  0
POINT
  5
31B2
330
D7A
100
AcDbEntity
  8
Defpoints
 62
     0
100
AcDbPoint
 10
2630.687168883457
 20
1347.382578897572
 30
0.0
  0
POINT
  5
31B3
330
D7A
100
AcDbEntity
  8
Defpoints
 62
     0
100
AcDbPoint
 10
2611.187168883458
 20
1347.382578897572
 30
0.0
  0
ENDBLK
  5
D85
330
D7A
100
AcDbEntity
  8
0
100
AcDbBlockEnd
  0
BLOCK
  5
DCA
330
DC0
100
AcDbEntity
  8
0
100
AcDbBlockBegin
  2
*D16
 70
     1
 10
0.0
 20
0.0
 30
0.0
  3
*D16
  1

  0
LINE
  5
31B4
330
DC0
100
AcDbEntity
  8
AM_5
100
AcDbLine
 10
2466.312388167246
 20
1406.882578897572
 30
0.0
 11
2446.812388167245
 21
1406.882578897572
 31
0.0
  0
LINE
  5
31B5
330
DC0
100
AcDbEntity
  8
AM_5
100
AcDbLine
 10
2466.312388167246
 20
1347.882578897572
 30
0.0
 11
2446.812388167245
 21
1347.882578897572
 31
0.0
  0
LINE
  5
31B6
330
DC0
100
AcDbEntity
  8
AM_5
100
AcDbLine
 10
2448.312388167245
 20
1403.882578897572
 30
0.0
 11
2448.312388167245
 21
1350.882578897572
 31
0.0
  0
SOLID
  5
31B7
330
DC0
100
AcDbEntity
  8
AM_5
100
AcDbTrace
 10
2447.812388167246
 20
1403.882578897572
 30
0.0
 11
2448.812388167246
 21
1403.882578897572
 31
0.0
 12
2448.312388167245
 22
1406.882578897572
 32
0.0
 13
2448.312388167245
 23
1406.882578897572
 33
0.0
  0
SOLID
  5
31B8
330
DC0
100
AcDbEntity
  8
AM_5
100
AcDbTrace
 10
2447.812388167246
 20
1350.882578897572
 30
0.0
 11
2448.812388167246
 21
1350.882578897572
 31
0.0
 12
2448.312388167245
 22
1347.882578897572
 32
0.0
 13
2448.312388167245
 23
1347.882578897572
 33
0.0
  0
MTEXT
  5
31B9
330
DC0
100
AcDbEntity
  8
AM_5
100
AcDbMText
 10
2445.362388167245
 20
1377.382578897572
 30
0.0
 40
3.0
 41
0.0
 71
     5
 72
     1
  1
59 (open)
 11
0.0000000000000001
 21
1.0
 31
0.0
 73
     1
 44
1.0
1001
ACAD
1000
MTEXTBEGIN
1070
    73
1070
     1
1070
    44
1040
1.0
1070
    74
1070
     0
1000
MTEXTEND
  0
POINT
  5
31BA
330
DC0
100
AcDbEntity
  8
Defpoints
 62
     0
100
AcDbPoint
 10
2467.312388167246
 20
1406.882578897572
 30
0.0
  0
POINT
  5
31BB
330
DC0
100
AcDbEntity
  8
Defpoints
 62
     0
100
AcDbPoint
 10
2467.312388167246
 20
1347.882578897572
 30
0.0
  0
POINT
  5
31BC
330
DC0
100
AcDbEntity
  8
Defpoints
 62
     0
100
AcDbPoint
 10
2448.312388167245
 20
1347.882578897572
 30
0.0
  0
ENDBLK
  5
DCB
330
DC0
100
AcDbEntity
  8
0
100
AcDbBlockEnd
  0
BLOCK
  5
E28
330
E1C
100
AcDbEntity
  8
0
100
AcDbBlockBegin
  2
*D17
 70
     1
 10
0.0
 20
0.0
 30
0.0
  3
*D17
  1

  0
LINE
  5
31BD
330
E1C
100
AcDbEntity
  8
AM_5
100
AcDbLine
 10
2466.312388167246
 20
1347.882578897572
 30
0.0
 11
2453.812388167246
 21
1347.882578897572
 31
0.0
  0
LINE
  5
31BE
330
E1C
100
AcDbEntity
  8
AM_5
100
AcDbLine
 10
2466.312388167246
 20
1357.882578897572
 30
0.0
 11
2453.812388167246
 21
1357.882578897572
 31
0.0
  0
LINE
  5
31BF
330
E1C
100
AcDbEntity
  8
AM_5
100
AcDbLine
 10
2455.312388167246
 20
1350.882578897572
 30
0.0
 11
2455.312388167246
 21
1354.882578897572
 31
0.0
  0
SOLID
  5
31C0
330
E1C
100
AcDbEntity
  8
AM_5
100
AcDbTrace
 10
2454.812388167246
 20
1350.882578897572
 30
0.0
 11
2455.812388167246
 21
1350.882578897572
 31
0.0
 12
2455.312388167246
 22
1347.882578897572
 32
0.0
 13
2455.312388167246
 23
1347.882578897572
 33
0.0
  0
SOLID
  5
31C1
330
E1C
100
AcDbEntity
  8
AM_5
100
AcDbTrace
 10
2454.812388167246
 20
1354.882578897572
 30
0.0
 11
2455.812388167246
 21
1354.882578897572
 31
0.0
 12
2455.312388167246
 22
1357.882578897572
 32
0.0
 13
2455.312388167246
 23
1357.882578897572
 33
0.0
  0
MTEXT
  5
31C2
330
E1C
100
AcDbEntity
  8
AM_5
100
AcDbMText
 10
2452.812388167245
 20
1352.882578897572
 30
0.0
 40
3.0
 41
0.0
 71
     5
 72
     1
  1
10
 11
0.0000000000000001
 21
1.0
 31
0.0
 73
     1
 44
1.0
1001
ACAD
1000
MTEXTBEGIN
1070
    73
1070
     1
1070
    44
1040
1.0
1070
    74
1070
     0
1000
MTEXTEND
  0
POINT
  5
31C3
330
E1C
100
AcDbEntity
  8
Defpoints
 62
     0
100
AcDbPoint
 10
2467.312388167246
 20
1347.882578897572
 30
0.0
  0
POINT
  5
31C4
330
E1C
100
AcDbEntity
  8
Defpoints
 62
     0
100
AcDbPoint
 10
2467.312388167246
 20
1357.882578897572
 30
0.0
  0
POINT
  5
31C5
330
E1C
100
AcDbEntity
  8
Defpoints
 62
     0
100
AcDbPoint
 10
2455.312388167246
 20
1357.882578897572
 30
0.0
  0
ENDBLK
  5
E29
330
E1C
100
AcDbEntity
  8
0
100
AcDbBlockEnd
  0
BLOCK
  5
E52
330
E46
100
AcDbEntity
  8
0
100
AcDbBlockBegin
  2
*D18
 70
     1
 10
0.0
 20
0.0
 30
0.0
  3
*D18
  1

  0
LINE
  5
31C6
330
E46
100
AcDbEntity
  8
AM_5
100
AcDbLine
 10
2466.312388167246
 20
1396.882578897572
 30
0.0
 11
2453.812388167246
 21
1396.882578897572
 31
0.0
  0
LINE
  5
31C7
330
E46
100
AcDbEntity
  8
AM_5
100
AcDbLine
 10
2466.312388167246
 20
1406.882578897572
 30
0.0
 11
2453.812388167246
 21
1406.882578897572
 31
0.0
  0
LINE
  5
31C8
330
E46
100
AcDbEntity
  8
AM_5
100
AcDbLine
 10
2455.312388167246
 20
1399.882578897572
 30
0.0
 11
2455.312388167246
 21
1403.882578897572
 31
0.0
  0
SOLID
  5
31C9
330
E46
100
AcDbEntity
  8
AM_5
100
AcDbTrace
 10
2454.812388167246
 20
1399.882578897572
 30
0.0
 11
2455.812388167246
 21
1399.882578897572
 31
0.0
 12
2455.312388167246
 22
1396.882578897572
 32
0.0
 13
2455.312388167246
 23
1396.882578897572
 33
0.0
  0
SOLID
  5
31CA
330
E46
100
AcDbEntity
  8
AM_5
100
AcDbTrace
 10
2454.812388167246
 20
1403.882578897572
 30
0.0
 11
2455.812388167246
 21
1403.882578897572
 31
0.0
 12
2455.312388167246
 22
1406.882578897572
 32
0.0
 13
2455.312388167246
 23
1406.882578897572
 33
0.0
  0
MTEXT
  5
31CB
330
E46
100
AcDbEntity
  8
AM_5
100
AcDbMText
 10
2452.812388167246
 20
1401.882578897572
 30
0.0
 40
3.0
 41
0.0
 71
     5
 72
     1
  1
10
 11
0.0000000000000001
 21
1.0
 31
0.0
 73
     1
 44
1.0
1001
ACAD
1000
MTEXTBEGIN
1070
    73
1070
     1
1070
    44
1040
1.0
1070
    74
1070
     0
1000
MTEXTEND
  0
POINT
  5
31CC
330
E46
100
AcDbEntity
  8
Defpoints
 62
     0
100
AcDbPoint
 10
2467.312388167246
 20
1396.882578897572
 30
0.0
  0
POINT
  5
31CD
330
E46
100
AcDbEntity
  8
Defpoints
 62
     0
100
AcDbPoint
 10
2467.312388167246
 20
1406.882578897572
 30
0.0
  0
POINT
  5
31CE
330
E46
100
AcDbEntity
  8
Defpoints
 62
     0
100
AcDbPoint
 10
2455.312388167246
 20
1406.882578897572
 30
0.0
  0
ENDBLK
  5
E53
330
E46
100
AcDbEntity
  8
0
100
AcDbBlockEnd
  0
BLOCK
  5
E7A
330
E70
100
AcDbEntity
  8
0
100
AcDbBlockBegin
  2
*D19
 70
     1
 10
0.0
 20
0.0
 30
0.0
  3
*D19
  1

  0
LINE
  5
31CF
330
E70
100
AcDbEntity
  8
AM_5
100
AcDbLine
 10
2557.312388167245
 20
1267.920644364902
 30
0.0
 11
2601.312388167246
 21
1267.920644364902
 31
0.0
  0
LINE
  5
31D0
330
E70
100
AcDbEntity
  8
AM_5
100
AcDbLine
 10
2581.812388167246
 20
1291.920644364902
 30
0.0
 11
2601.312388167246
 21
1291.920644364902
 31
0.0
  0
LINE
  5
31D1
330
E70
100
AcDbEntity
  8
AM_5
100
AcDbLine
 10
2599.812388167246
 20
1270.920644364902
 30
0.0
 11
2599.812388167246
 21
1288.920644364902
 31
0.0
  0
SOLID
  5
31D2
330
E70
100
AcDbEntity
  8
AM_5
100
AcDbTrace
 10
2599.312388167246
 20
1270.920644364902
 30
0.0
 11
2600.312388167246
 21
1270.920644364902
 31
0.0
 12
2599.812388167246
 22
1267.920644364902
 32
0.0
 13
2599.812388167246
 23
1267.920644364902
 33
0.0
  0
SOLID
  5
31D3
330
E70
100
AcDbEntity
  8
AM_5
100
AcDbTrace
 10
2599.312388167246
 20
1288.920644364902
 30
0.0
 11
2600.312388167246
 21
1288.920644364902
 31
0.0
 12
2599.812388167246
 22
1291.920644364902
 32
0.0
 13
2599.812388167246
 23
1291.920644364902
 33
0.0
  0
MTEXT
  5
31D4
330
E70
100
AcDbEntity
  8
AM_5
100
AcDbMText
 10
2597.312092891655
 20
1279.920644364903
 30
0.0
 40
3.0
 41
0.0
 71
     5
 72
     1
  1
24
 11
0.0000000000000001
 21
1.0
 31
0.0
 73
     1
 44
1.0
1001
ACAD
1000
MTEXTBEGIN
1070
    73
1070
     1
1070
    44
1040
1.0
1070
    74
1070
     0
1000
MTEXTEND
  0
POINT
  5
31D5
330
E70
100
AcDbEntity
  8
Defpoints
 62
     0
100
AcDbPoint
 10
2556.312388167246
 20
1267.920644364902
 30
0.0
  0
POINT
  5
31D6
330
E70
100
AcDbEntity
  8
Defpoints
 62
     0
100
AcDbPoint
 10
2580.812388167246
 20
1291.920644364902
 30
0.0
  0
POINT
  5
31D7
330
E70
100
AcDbEntity
  8
Defpoints
 62
     0
100
AcDbPoint
 10
2599.812388167246
 20
1291.920644364902
 30
0.0
  0
ENDBLK
  5
E7B
330
E70
100
AcDbEntity
  8
0
100
AcDbBlockEnd
  0
BLOCK
  5
EA2
330
E96
100
AcDbEntity
  8
0
100
AcDbBlockBegin
  2
*D20
 70
     1
 10
0.0
 20
0.0
 30
0.0
  3
*D20
  1

  0
LINE
  5
31D8
330
E96
100
AcDbEntity
  8
AM_5
100
AcDbLine
 10
2587.812388167245
 20
1300.920644364903
 30
0.0
 11
2587.812388167245
 21
1310.320644364902
 31
0.0
  0
LINE
  5
31D9
330
E96
100
AcDbEntity
  8
AM_5
100
AcDbLine
 10
2577.312388167245
 20
1296.420644364902
 30
0.0
 11
2577.312388167245
 21
1310.320644364902
 31
0.0
  0
LINE
  5
31DA
330
E96
100
AcDbEntity
  8
AM_5
100
AcDbLine
 10
2584.812388167245
 20
1308.820644364902
 30
0.0
 11
2580.312388167246
 21
1308.820644364902
 31
0.0
  0
SOLID
  5
31DB
330
E96
100
AcDbEntity
  8
AM_5
100
AcDbTrace
 10
2584.812388167245
 20
1309.320644364902
 30
0.0
 11
2584.812388167245
 21
1308.320644364902
 31
0.0
 12
2587.812388167245
 22
1308.820644364902
 32
0.0
 13
2587.812388167245
 23
1308.820644364902
 33
0.0
  0
SOLID
  5
31DC
330
E96
100
AcDbEntity
  8
AM_5
100
AcDbTrace
 10
2580.312388167246
 20
1309.320644364902
 30
0.0
 11
2580.312388167246
 21
1308.320644364902
 31
0.0
 12
2577.312388167245
 22
1308.820644364902
 32
0.0
 13
2577.312388167245
 23
1308.820644364902
 33
0.0
  0
MTEXT
  5
31DD
330
E96
100
AcDbEntity
  8
AM_5
100
AcDbMText
 10
2582.562388167246
 20
1311.320644364903
 30
0.0
 40
3.0
 41
0.0
 71
     5
 72
     1
  1
10.5
 73
     1
 44
1.0
1001
ACAD
1000
MTEXTBEGIN
1070
    73
1070
     1
1070
    44
1040
1.0
1070
    74
1070
     0
1000
MTEXTEND
  0
POINT
  5
31DE
330
E96
100
AcDbEntity
  8
Defpoints
 62
     0
100
AcDbPoint
 10
2587.812388167245
 20
1299.920644364903
 30
0.0
  0
POINT
  5
31DF
330
E96
100
AcDbEntity
  8
Defpoints
 62
     0
100
AcDbPoint
 10
2577.312388167245
 20
1295.420644364902
 30
0.0
  0
POINT
  5
31E0
330
E96
100
AcDbEntity
  8
Defpoints
 62
     0
100
AcDbPoint
 10
2577.312388167245
 20
1308.820644364902
 30
0.0
  0
ENDBLK
  5
EA3
330
E96
100
AcDbEntity
  8
0
100
AcDbBlockEnd
  0
BLOCK
  5
ECA
330
EC0
100
AcDbEntity
  8
0
100
AcDbBlockBegin
  2
*D21
 70
     1
 10
0.0
 20
0.0
 30
0.0
  3
*D21
  1

  0
LINE
  5
31E1
330
EC0
100
AcDbEntity
  8
AM_5
100
AcDbLine
 10
2587.812388167245
 20
1258.920644364902
 30
0.0
 11
2587.812388167245
 21
1246.420644364902
 31
0.0
  0
LINE
  5
31E2
330
EC0
100
AcDbEntity
  8
AM_5
100
AcDbLine
 10
2552.812388167246
 20
1263.420644364902
 30
0.0
 11
2552.812388167246
 21
1246.420644364902
 31
0.0
  0
LINE
  5
31E3
330
EC0
100
AcDbEntity
  8
AM_5
100
AcDbLine
 10
2584.812388167245
 20
1247.920644364902
 30
0.0
 11
2555.812388167245
 21
1247.920644364902
 31
0.0
  0
SOLID
  5
31E4
330
EC0
100
AcDbEntity
  8
AM_5
100
AcDbTrace
 10
2584.812388167245
 20
1248.420644364902
 30
0.0
 11
2584.812388167245
 21
1247.420644364902
 31
0.0
 12
2587.812388167245
 22
1247.920644364902
 32
0.0
 13
2587.812388167245
 23
1247.920644364902
 33
0.0
  0
SOLID
  5
31E5
330
EC0
100
AcDbEntity
  8
AM_5
100
AcDbTrace
 10
2555.812388167245
 20
1248.420644364902
 30
0.0
 11
2555.812388167245
 21
1247.420644364902
 31
0.0
 12
2552.812388167246
 22
1247.920644364902
 32
0.0
 13
2552.812388167246
 23
1247.920644364902
 33
0.0
  0
MTEXT
  5
31E6
330
EC0
100
AcDbEntity
  8
AM_5
100
AcDbMText
 10
2570.312388167245
 20
1250.420644364902
 30
0.0
 40
3.0
 41
0.0
 71
     5
 72
     1
  1
35
 73
     1
 44
1.0
1001
ACAD
1000
MTEXTBEGIN
1070
    73
1070
     1
1070
    44
1040
1.0
1070
    74
1070
     0
1000
MTEXTEND
  0
POINT
  5
31E7
330
EC0
100
AcDbEntity
  8
Defpoints
 62
     0
100
AcDbPoint
 10
2587.812388167245
 20
1259.920644364902
 30
0.0
  0
POINT
  5
31E8
330
EC0
100
AcDbEntity
  8
Defpoints
 62
     0
100
AcDbPoint
 10
2552.812388167246
 20
1264.420644364902
 30
0.0
  0
POINT
  5
31E9
330
EC0
100
AcDbEntity
  8
Defpoints
 62
     0
100
AcDbPoint
 10
2552.812388167246
 20
1247.920644364902
 30
0.0
  0
ENDBLK
  5
ECB
330
EC0
100
AcDbEntity
  8
0
100
AcDbBlockEnd
  0
BLOCK
  5
EF6
330
EEA
100
AcDbEntity
  8
0
100
AcDbBlockBegin
  2
*D22
 70
     1
 10
0.0
 20
0.0
 30
0.0
  3
*D22
  1

  0
LINE
  5
31EA
330
EEA
100
AcDbEntity
  8
AM_5
100
AcDbLine
 10
2467.312388167246
 20
1268.920644364902
 30
0.0
 11
2467.312388167246
 21
1246.420644364902
 31
0.0
  0
LINE
  5
31EB
330
EEA
100
AcDbEntity
  8
AM_5
100
AcDbLine
 10
2474.312388167246
 20
1274.920644364902
 30
0.0
 11
2474.312388167246
 21
1246.420644364902
 31
0.0
  0
LINE
  5
31EC
330
EEA
100
AcDbEntity
  8
AM_5
100
AcDbLine
 10
2464.312388167245
 20
1247.920644364902
 30
0.0
 11
2461.312388167245
 21
1247.920644364902
 31
0.0
  0
LINE
  5
31ED
330
EEA
100
AcDbEntity
  8
AM_5
100
AcDbLine
 10
2477.312388167245
 20
1247.920644364902
 30
0.0
 11
2480.312388167245
 21
1247.920644364902
 31
0.0
  0
LINE
  5
31EE
330
EEA
100
AcDbEntity
  8
AM_5
100
AcDbLine
 10
2467.312388167246
 20
1247.920644364902
 30
0.0
 11
2474.312388167246
 21
1247.920644364902
 31
0.0
  0
SOLID
  5
31EF
330
EEA
100
AcDbEntity
  8
AM_5
100
AcDbTrace
 10
2464.312388167245
 20
1248.420644364902
 30
0.0
 11
2464.312388167245
 21
1247.420644364902
 31
0.0
 12
2467.312388167246
 22
1247.920644364902
 32
0.0
 13
2467.312388167246
 23
1247.920644364902
 33
0.0
  0
SOLID
  5
31F0
330
EEA
100
AcDbEntity
  8
AM_5
100
AcDbTrace
 10
2477.312388167245
 20
1248.420644364902
 30
0.0
 11
2477.312388167245
 21
1247.420644364902
 31
0.0
 12
2474.312388167246
 22
1247.920644364902
 32
0.0
 13
2474.312388167246
 23
1247.920644364902
 33
0.0
  0
MTEXT
  5
31F1
330
EEA
100
AcDbEntity
  8
AM_5
100
AcDbMText
 10
2470.812388167246
 20
1250.420644364902
 30
0.0
 40
3.0
 41
0.0
 71
     5
 72
     1
  1
7
 73
     1
 44
1.0
1001
ACAD
1000
MTEXTBEGIN
1070
    73
1070
     1
1070
    44
1040
1.0
1070
    74
1070
     0
1000
MTEXTEND
  0
POINT
  5
31F2
330
EEA
100
AcDbEntity
  8
Defpoints
 62
     0
100
AcDbPoint
 10
2467.312388167246
 20
1269.920644364902
 30
0.0
  0
POINT
  5
31F3
330
EEA
100
AcDbEntity
  8
Defpoints
 62
     0
100
AcDbPoint
 10
2474.312388167246
 20
1275.920644364902
 30
0.0
  0
POINT
  5
31F4
330
EEA
100
AcDbEntity
  8
Defpoints
 62
     0
100
AcDbPoint
 10
2474.312388167246
 20
1247.920644364902
 30
0.0
  0
ENDBLK
  5
EF7
330
EEA
100
AcDbEntity
  8
0
100
AcDbBlockEnd
  0
BLOCK
  5
F26
330
F1A
100
AcDbEntity
  8
0
100
AcDbBlockBegin
  2
*D23
 70
     1
 10
0.0
 20
0.0
 30
0.0
  3
*D23
  1

  0
LINE
  5
31F5
330
F1A
100
AcDbEntity
  8
AM_5
100
AcDbLine
 10
2474.312388167246
 20
1274.920644364902
 30
0.0
 11
2474.312388167246
 21
1246.420644364902
 31
0.0
  0
LINE
  5
31F6
330
F1A
100
AcDbEntity
  8
AM_5
100
AcDbLine
 10
2489.312388167246
 20
1274.920644364902
 30
0.0
 11
2489.312388167246
 21
1246.420644364902
 31
0.0
  0
LINE
  5
31F7
330
F1A
100
AcDbEntity
  8
AM_5
100
AcDbLine
 10
2477.312388167245
 20
1247.920644364902
 30
0.0
 11
2486.312388167246
 21
1247.920644364902
 31
0.0
  0
SOLID
  5
31F8
330
F1A
100
AcDbEntity
  8
AM_5
100
AcDbTrace
 10
2477.312388167245
 20
1248.420644364902
 30
0.0
 11
2477.312388167245
 21
1247.420644364902
 31
0.0
 12
2474.312388167246
 22
1247.920644364902
 32
0.0
 13
2474.312388167246
 23
1247.920644364902
 33
0.0
  0
SOLID
  5
31F9
330
F1A
100
AcDbEntity
  8
AM_5
100
AcDbTrace
 10
2486.312388167246
 20
1248.420644364902
 30
0.0
 11
2486.312388167246
 21
1247.420644364902
 31
0.0
 12
2489.312388167246
 22
1247.920644364902
 32
0.0
 13
2489.312388167246
 23
1247.920644364902
 33
0.0
  0
MTEXT
  5
31FA
330
F1A
100
AcDbEntity
  8
AM_5
100
AcDbMText
 10
2481.812388167246
 20
1250.420644364902
 30
0.0
 40
3.0
 41
0.0
 71
     5
 72
     1
  1
15
 73
     1
 44
1.0
1001
ACAD
1000
MTEXTBEGIN
1070
    73
1070
     1
1070
    44
1040
1.0
1070
    74
1070
     0
1000
MTEXTEND
  0
POINT
  5
31FB
330
F1A
100
AcDbEntity
  8
Defpoints
 62
     0
100
AcDbPoint
 10
2474.312388167246
 20
1275.920644364902
 30
0.0
  0
POINT
  5
31FC
330
F1A
100
AcDbEntity
  8
Defpoints
 62
     0
100
AcDbPoint
 10
2489.312388167246
 20
1275.920644364902
 30
0.0
  0
POINT
  5
31FD
330
F1A
100
AcDbEntity
  8
Defpoints
 62
     0
100
AcDbPoint
 10
2489.312388167246
 20
1247.920644364902
 30
0.0
  0
ENDBLK
  5
F27
330
F1A
100
AcDbEntity
  8
0
100
AcDbBlockEnd
  0
BLOCK
  5
F70
330
F64
100
AcDbEntity
  8
0
100
AcDbBlockBegin
  2
*D24
 70
     1
 10
0.0
 20
0.0
 30
0.0
  3
*D24
  1

  0
LINE
  5
31FE
330
F64
100
AcDbEntity
  8
AM_5
100
AcDbLine
 10
2466.312388167246
 20
1269.920644364902
 30
0.0
 11
2453.812388167246
 21
1269.920644364902
 31
0.0
  0
LINE
  5
31FF
330
F64
100
AcDbEntity
  8
AM_5
100
AcDbLine
 10
2466.312388167246
 20
1289.920644364902
 30
0.0
 11
2453.812388167246
 21
1289.920644364902
 31
0.0
  0
LINE
  5
3200
330
F64
100
AcDbEntity
  8
AM_5
100
AcDbLine
 10
2455.312388167246
 20
1272.920644364902
 30
0.0
 11
2455.312388167246
 21
1286.920644364902
 31
0.0
  0
SOLID
  5
3201
330
F64
100
AcDbEntity
  8
AM_5
100
AcDbTrace
 10
2454.812388167246
 20
1272.920644364902
 30
0.0
 11
2455.812388167246
 21
1272.920644364902
 31
0.0
 12
2455.312388167246
 22
1269.920644364902
 32
0.0
 13
2455.312388167246
 23
1269.920644364902
 33
0.0
  0
SOLID
  5
3202
330
F64
100
AcDbEntity
  8
AM_5
100
AcDbTrace
 10
2454.812388167246
 20
1286.920644364902
 30
0.0
 11
2455.812388167246
 21
1286.920644364902
 31
0.0
 12
2455.312388167246
 22
1289.920644364902
 32
0.0
 13
2455.312388167246
 23
1289.920644364902
 33
0.0
  0
MTEXT
  5
3203
330
F64
100
AcDbEntity
  8
AM_5
100
AcDbMText
 10
2452.812092891655
 20
1279.920644364902
 30
0.0
 40
3.0
 41
0.0
 71
     5
 72
     1
  1
20
 11
0.0000000000000001
 21
1.0
 31
0.0
 73
     1
 44
1.0
1001
ACAD
1000
MTEXTBEGIN
1070
    73
1070
     1
1070
    44
1040
1.0
1070
    74
1070
     0
1000
MTEXTEND
  0
POINT
  5
3204
330
F64
100
AcDbEntity
  8
Defpoints
 62
     0
100
AcDbPoint
 10
2467.312388167246
 20
1269.920644364902
 30
0.0
  0
POINT
  5
3205
330
F64
100
AcDbEntity
  8
Defpoints
 62
     0
100
AcDbPoint
 10
2467.312388167246
 20
1289.920644364902
 30
0.0
  0
POINT
  5
3206
330
F64
100
AcDbEntity
  8
Defpoints
 62
     0
100
AcDbPoint
 10
2455.312388167246
 20
1289.920644364902
 30
0.0
  0
ENDBLK
  5
F71
330
F64
100
AcDbEntity
  8
0
100
AcDbBlockEnd
  0
BLOCK
  5
328A
330
3285
100
AcDbEntity
  8
0
100
AcDbBlockBegin
  2
*S26
 70
     1
 10
0.0
 20
0.0
 30
0.0
  3
*S26
  1

  0
LINE
  5
3286
330
3285
100
AcDbEntity
  8
AM_5
 62
     5
100
AcDbLine
 10
2527.850308947046
 20
1309.043783010143
 30
0.0
 11
2560.87557297983
 21
1309.043783010143
 31
0.0
  0
LINE
  5
3287
330
3285
100
AcDbEntity
  8
AM_5
 62
     5
100
AcDbLine
 10
2560.87557297983
 20
1309.043783010143
 30
0.0
 11
2573.194972088809
 21
1296.381132899332
 31
0.0
  0
TRACE
  5
3288
330
3285
100
AcDbEntity
  8
AM_5
 62
     5
370
    35
100
AcDbTrace
 10
2572.864703173858
 20
1296.059816702409
 30
0.0
 11
2573.525241003761
 21
1296.702449096255
 31
0.0
 12
2575.635610923959
 22
1293.872491419097
 32
0.0
 13
2575.635610923959
 23
1293.872491419097
 33
0.0
  0
MTEXT
  5
3289
330
3285
100
AcDbEntity
  8
AM_5
 62
     5
100
AcDbMText
 10
2527.850308947046
 20
1307.832850408904
 30
0.0
 40
3.5
 41
0.0
 71
     9
 72
     5
  1

  7
ACISOTS
 73
     1
 44
1.0
1001
ACAD
1000
MTEXTBEGIN
1070
    73
1070
     1
1070
    44
1040
1.0
1070
    74
1070
     0
1000
MTEXTEND
  0
ENDBLK
  5
328B
330
3285
100
AcDbEntity
  8
0
100
AcDbBlockEnd
  0
BLOCK
  5
3292
330
328D
100
AcDbEntity
  8
0
100
AcDbBlockBegin
  2
*S27
 70
     1
 10
0.0
 20
0.0
 30
0.0
  3
*S27
  1

  0
LINE
  5
328E
330
328D
100
AcDbEntity
  8
AM_5
 62
     5
100
AcDbLine
 10
2512.583412107723
 20
1491.714202551441
 30
0.0
 11
2549.097844764268
 21
1491.714202551441
 31
0.0
  0
LINE
  5
328F
330
328D
100
AcDbEntity
  8
AM_5
 62
     5
100
AcDbLine
 10
2549.097844764268
 20
1491.714202551441
 30
0.0
 11
2557.646717278791
 21
1482.045918401464
 31
0.0
  0
TRACE
  5
3290
330
328D
100
AcDbEntity
  8
AM_5
 62
     5
370
    35
100
AcDbTrace
 10
2557.301523804467
 20
1481.74069205943
 30
0.0
 11
2557.991910753115
 21
1482.351144743498
 31
0.0
 12
2559.965141531952
 22
1479.42391363748
 32
0.0
 13
2559.965141531952
 23
1479.42391363748
 33
0.0
  0
MTEXT
  5
3291
330
328D
100
AcDbEntity
  8
AM_5
 62
     5
100
AcDbMText
 10
2512.583412107723
 20
1489.124011606593
 30
0.0
 40
3.5
 41
0.0
 71
     9
 72
     5
  1

  7
ACISOTS
 73
     1
 44
1.0
1001
ACAD
1000
MTEXTBEGIN
1070
    73
1070
     1
1070
    44
1040
1.0
1070
    74
1070
     0
1000
MTEXTEND
  0
ENDBLK
  5
3293
330
328D
100
AcDbEntity
  8
0
100
AcDbBlockEnd
  0
BLOCK
  5
329A
330
3295
100
AcDbEntity
  8
0
100
AcDbBlockBegin
  2
*S28
 70
     1
 10
0.0
 20
0.0
 30
0.0
  3
*S28
  1

  0
LINE
  5
3296
330
3295
100
AcDbEntity
  8
AM_5
 62
     5
100
AcDbLine
 10
2502.815854012359
 20
1414.812615994857
 30
0.0
 11
2539.330286668904
 21
1414.812615994857
 31
0.0
  0
LINE
  5
3297
330
3295
100
AcDbEntity
  8
AM_5
 62
     5
100
AcDbLine
 10
2539.330286668904
 20
1414.812615994857
 30
0.0
 11
2549.484684681216
 21
1404.190188309379
 31
0.0
  0
TRACE
  5
3298
330
3295
100
AcDbEntity
  8
AM_5
 62
     5
370
    35
100
AcDbTrace
 10
2549.151606206319
 20
1403.871785444838
 30
0.0
 11
2549.817763156113
 21
1404.50859117392
 31
0.0
 12
2551.903194559848
 22
1401.660206102532
 32
0.0
 13
2551.903194559848
 23
1401.660206102532
 33
0.0
  0
MTEXT
  5
3299
330
3295
100
AcDbEntity
  8
AM_5
 62
     5
100
AcDbMText
 10
2502.815854012359
 20
1412.222425050009
 30
0.0
 40
3.5
 41
0.0
 71
     9
 72
     5
  1

  7
ACISOTS
 73
     1
 44
1.0
1001
ACAD
1000
MTEXTBEGIN
1070
    73
1070
     1
1070
    44
1040
1.0
1070
    74
1070
     0
1000
MTEXTEND
  0
ENDBLK
  5
329B
330
3295
100
AcDbEntity
  8
0
100
AcDbBlockEnd
  0
BLOCK
  5
32A2
330
329D
100
AcDbEntity
  8
0
100
AcDbBlockBegin
  2
*S29
 70
     1
 10
0.0
 20
0.0
 30
0.0
  3
*S29
  1

  0
LINE
  5
329E
330
329D
100
AcDbEntity
  8
AM_5
 62
     5
100
AcDbLine
 10
2611.020786701975
 20
1415.405623152119
 30
0.0
 11
2647.53521935852
 21
1415.405623152119
 31
0.0
  0
LINE
  5
329F
330
329D
100
AcDbEntity
  8
AM_5
 62
     5
100
AcDbLine
 10
2647.53521935852
 20
1415.405623152119
 30
0.0
 11
2642.254464075334
 21
1405.211107782545
 31
0.0
  0
TRACE
  5
32A0
330
329D
100
AcDbEntity
  8
AM_5
 62
     5
370
    35
100
AcDbTrace
 10
2641.845314500989
 20
1405.423047114432
 30
0.0
 11
2642.66361364968
 21
1404.999168450658
 31
0.0
 12
2640.644625016324
 22
1402.103308206625
 32
0.0
 13
2640.644625016324
 23
1402.103308206625
 33
0.0
  0
MTEXT
  5
32A1
330
329D
100
AcDbEntity
  8
AM_5
 62
     5
100
AcDbMText
 10
2611.020786701975
 20
1412.815432207271
 30
0.0
 40
3.5
 41
0.0
 71
     9
 72
     5
  1

  7
ACISOTS
 73
     1
 44
1.0
1001
ACAD
1000
MTEXTBEGIN
1070
    73
1070
     1
1070
    44
1040
1.0
1070
    74
1070
     0
1000
MTEXTEND
  0
ENDBLK
  5
32A3
330
329D
100
AcDbEntity
  8
0
100
AcDbBlockEnd
  0
BLOCK
  5
32AA
330
32A5
100
AcDbEntity
  8
0
100
AcDbBlockBegin
  2
*S30
 70
     1
 10
0.0
 20
0.0
 30
0.0
  3
*S30
  1

  0
LINE
  5
32A6
330
32A5
100
AcDbEntity
  8
AM_5
 62
     5
100
AcDbLine
 10
2437.882642177596
 20
1297.146375962301
 30
0.0
 11
2474.397074834141
 21
1297.146375962301
 31
0.0
  0
LINE
  5
32A7
330
32A5
100
AcDbEntity
  8
AM_5
 62
     5
100
AcDbLine
 10
2474.397074834141
 20
1297.146375962301
 30
0.0
 11
2485.063712519107
 21
1284.637235045386
 31
0.0
  0
TRACE
  5
32A8
330
32A5
100
AcDbEntity
  8
AM_5
 62
     5
370
    35
100
AcDbTrace
 10
2484.713092147558
 20
1284.338258441547
 30
0.0
 11
2485.414332890655
 21
1284.936211649224
 31
0.0
 12
2487.334665297453
 22
1281.974008904308
 32
0.0
 13
2487.334665297453
 23
1281.974008904308
 33
0.0
  0
MTEXT
  5
32A9
330
32A5
100
AcDbEntity
  8
AM_5
 62
     5
100
AcDbMText
 10
2437.882642177596
 20
1294.556185017453
 30
0.0
 40
3.5
 41
0.0
 71
     9
 72
     5
  1

  7
ACISOTS
 73
     1
 44
1.0
1001
ACAD
1000
MTEXTBEGIN
1070
    73
1070
     1
1070
    44
1040
1.0
1070
    74
1070
     0
1000
MTEXTEND
  0
ENDBLK
  5
32AB
330
32A5
100
AcDbEntity
  8
0
100
AcDbBlockEnd
  0
ENDSEC
  0
SECTION
  2
ENTITIES
  0
DIMENSION
  5
B2B
330
1F
100
AcDbEntity
  8
AM_5
100
AcDbDimension
  2
*D3
 10
2599.812389167245
 20
1477.133749628513
 30
0.0
 11
2597.312093891654
 21
1464.133749628513
 31
0.0
 70
    32
 71
     5
 42
26.0
  3
AM_ISO$0
100
AcDbAlignedDimension
 13
2565.812388167246
 23
1451.133749628513
 33
0.0
 14
2565.812388167246
 24
1477.133749628513
 34
0.0
 50
90.0
100
AcDbRotatedDimension
1001
ACAD
1000
DSTYLE
1002
{
1070
    40
1040
1.0
1070
   144
1040
1.0
1070
   272
1070
     8
1002
}
  0
DIMENSION
  5
B51
330
1F
100
AcDbEntity
  8
AM_5
100
AcDbDimension
  2
*D4
 10
2587.812388167245
 20
1432.133749628513
 30
0.0
 11
2574.812388167246
 21
1434.634044904103
 31
0.0
 70
    32
 71
     5
 42
26.0
  3
AM_ISO$0
100
AcDbAlignedDimension
 13
2561.812388167246
 23
1447.133749628513
 33
0.0
 14
2587.812388167245
 24
1444.133749628513
 34
0.0
100
AcDbRotatedDimension
1001
ACAD
1000
DSTYLE
1002
{
1070
    40
1040
1.0
1070
   144
1040
1.0
1070
   272
1070
     8
1002
}
  0
DIMENSION
  5
C49
330
1F
100
AcDbEntity
  8
AM_5
100
AcDbDimension
  2
*D7
 10
2553.812388167246
 20
1419.382578897572
 30
0.0
 11
2570.812388167246
 21
1421.882578897572
 31
0.0
 70
    32
 71
     5
 42
34.0
  3
AM_ISO$0
100
AcDbAlignedDimension
 13
2587.812388167245
 23
1407.382578897572
 33
0.0
 14
2553.812388167246
 24
1403.382578897572
 34
0.0
100
AcDbRotatedDimension
1001
ACAD
1000
DSTYLE
1002
{
1070
    40
1040
1.0
1070
   144
1040
1.0
1070
   272
1070
     8
1002
}
  0
DIMENSION
  5
C6F
330
1F
100
AcDbEntity
  8
AM_5
100
AcDbDimension
  2
*D8
 10
2599.812388167246
 20
1399.382578897572
 30
0.0
 11
2597.312388167245
 21
1377.382578897572
 31
0.0
 70
    32
 71
     5
 42
44.0
  3
AM_ISO$0
100
AcDbAlignedDimension
 13
2557.812388167246
 23
1355.382578897572
 33
0.0
 14
2557.812388167246
 24
1399.382578897572
 34
0.0
 50
90.0
100
AcDbRotatedDimension
1001
ACAD
1000
DSTYLE
1002
{
1070
    40
1040
1.0
1070
   144
1040
1.0
1070
   272
1070
     8
1002
}
  0
DIMENSION
  5
C95
330
1F
100
AcDbEntity
  8
AM_5
100
AcDbDimension
  2
*D9
 10
2497.312388167245
 20
1335.382578897572
 30
0.0
 11
2542.562388167246
 21
1337.882578897572
 31
0.0
 70
    32
 71
     5
 42
90.5
  3
AM_ISO$0
100
AcDbAlignedDimension
 13
2587.812388167245
 23
1347.382578897572
 33
0.0
 14
2497.312388167245
 24
1347.382578897572
 34
0.0
100
AcDbRotatedDimension
1001
ACAD
1000
DSTYLE
1002
{
1070
    40
1040
1.0
1070
   144
1040
1.0
1070
   272
1070
     8
1002
}
  0
DIMENSION
  5
CBB
330
1F
100
AcDbEntity
  8
AM_5
100
AcDbDimension
  2
*D10
 10
2467.312388167246
 20
1335.382578897572
 30
0.0
 11
2482.312388167246
 21
1337.882578897572
 31
0.0
 70
    32
 71
     5
 42
30.0
  3
AM_ISO$0
100
AcDbAlignedDimension
 13
2497.312388167245
 23
1347.382578897572
 33
0.0
 14
2467.312388167246
 24
1347.470726157818
 34
0.0
100
AcDbRotatedDimension
1001
ACAD
1000
DSTYLE
1002
{
1070
    40
1040
1.0
1070
   144
1040
1.0
1070
   272
1070
     8
1002
}
  0
DIMENSION
  5
CE1
330
1F
100
AcDbEntity
  8
AM_5
100
AcDbDimension
  2
*D11
 10
2467.312388167246
 20
1328.382578897572
 30
0.0
 11
2527.562388167245
 21
1330.882874173163
 31
0.0
 70
    32
 71
     5
 42
120.5
  3
AM_ISO$0
100
AcDbAlignedDimension
 13
2587.812388167245
 23
1347.382578897572
 33
0.0
 14
2467.312388167246
 24
1347.882578897572
 34
0.0
100
AcDbRotatedDimension
1001
ACAD
1000
DSTYLE
1002
{
1070
    40
1040
1.0
1070
   144
1040
1.0
1070
   272
1070
     8
1002
}
  0
DIMENSION
  5
D07
330
1F
100
AcDbEntity
  8
AM_5
100
AcDbDimension
  2
*D12
 10
2670.187168883457
 20
1328.382578897572
 30
0.0
 11
2650.187168883457
 21
1330.882578897572
 31
0.0
 70
    32
 71
     5
 42
40.0
  3
AM_ISO$0
100
AcDbAlignedDimension
 13
2630.187168883458
 23
1347.882578897572
 33
0.0
 14
2670.187168883457
 24
1347.882578897572
 34
0.0
100
AcDbRotatedDimension
1001
ACAD
1000
DSTYLE
1002
{
1070
    40
1040
1.0
1070
   144
1040
1.0
1070
   272
1070
     8
1002
}
  0
DIMENSION
  5
D2D
330
1F
100
AcDbEntity
  8
AM_5
100
AcDbDimension
  2
*D13
 10
2662.187168883458
 20
1335.382578897572
 30
0.0
 11
2650.187168883457
 21
1337.882874173162
 31
0.0
 70
    32
 71
     5
 42
24.0
  3
AM_ISO$0
100
AcDbAlignedDimension
 13
2638.187168883457
 23
1396.382578897572
 33
0.0
 14
2662.187168883458
 24
1350.382578897572
 34
0.0
100
AcDbRotatedDimension
1001
ACAD
1000
DSTYLE
1002
{
1070
    40
1040
1.0
1070
   144
1040
1.0
1070
   272
1070
     8
1002
}
  0
DIMENSION
  5
D53
330
1F
100
AcDbEntity
  8
AM_5
100
AcDbDimension
  2
*D14
 10
2618.187168883457
 20
1354.382578897572
 30
0.0
 11
2615.687168883457
 21
1377.382578897572
 31
0.0
 70
    32
 71
     5
 42
46.0
  3
AM_ISO$0
100
AcDbAlignedDimension
 13
2634.187168883457
 23
1400.382578897572
 33
0.0
 14
2658.187168883457
 24
1354.382578897572
 34
0.0
 50
90.0
100
AcDbRotatedDimension
1001
ACAD
1000
DSTYLE
1002
{
1070
    40
1040
1.0
1070
   144
1040
1.0
1070
   272
1070
     8
1002
}
  0
DIMENSION
  5
D79
330
1F
100
AcDbEntity
  8
AM_5
100
AcDbDimension
  2
*D15
 10
2611.187168883458
 20
1347.382578897572
 30
0.0
 11
2608.687168883457
 21
1377.382578897572
 31
0.0
 70
    32
 71
     5
 42
60.0
  3
AM_ISO$0
100
AcDbAlignedDimension
 13
2630.687168883457
 23
1407.382578897572
 33
0.0
 14
2630.687168883457
 24
1347.382578897572
 34
0.0
 50
90.0
100
AcDbRotatedDimension
1001
ACAD
1000
DSTYLE
1002
{
1070
    40
1040
1.0
1070
   144
1040
1.0
1070
   272
1070
     8
1002
}
  0
DIMENSION
  5
DBF
330
1F
100
AcDbEntity
  8
AM_5
100
AcDbDimension
  2
*D16
 10
2448.312388167245
 20
1347.882578897572
 30
0.0
 11
2445.362388167245
 21
1377.382578897572
 31
0.0
 70
    32
  1
<> (open)
 71
     5
 42
59.0
  3
AM_ISO$0
100
AcDbAlignedDimension
 13
2467.312388167246
 23
1406.882578897572
 33
0.0
 14
2467.312388167246
 24
1347.882578897572
 34
0.0
 50
90.0
100
AcDbRotatedDimension
1001
ACAD
1000
DSTYLE
1002
{
1070
    40
1040
1.0
1070
   144
1040
1.0
1070
   272
1070
     8
1002
}
  0
DIMENSION
  5
E1B
330
1F
100
AcDbEntity
  8
AM_5
100
AcDbDimension
  2
*D17
 10
2455.312388167246
 20
1357.882578897572
 30
0.0
 11
2452.812388167245
 21
1352.882578897572
 31
0.0
 70
    32
 71
     5
 42
10.0
  3
AM_ISO$0
100
AcDbAlignedDimension
 13
2467.312388167246
 23
1347.882578897572
 33
0.0
 14
2467.312388167246
 24
1357.882578897572
 34
0.0
 50
90.0
100
AcDbRotatedDimension
1001
ACAD
1000
DSTYLE
1002
{
1070
    40
1040
1.0
1070
   144
1040
1.0
1070
   272
1070
     8
1002
}
  0
DIMENSION
  5
E45
330
1F
100
AcDbEntity
  8
AM_5
100
AcDbDimension
  2
*D18
 10
2455.312388167246
 20
1406.882578897572
 30
0.0
 11
2455.312388167246
 21
1401.882578897572
 31
0.0
 70
   160
 71
     5
 42
10.0
  3
AM_ISO$0
100
AcDbAlignedDimension
 13
2467.312388167246
 23
1396.882578897572
 33
0.0
 14
2467.312388167246
 24
1406.882578897572
 34
0.0
 50
90.0
100
AcDbRotatedDimension
1001
ACAD
1000
DSTYLE
1002
{
1070
    40
1040
1.0
1070
   144
1040
1.0
1070
   272
1070
     8
1002
}
  0
DIMENSION
  5
E6F
330
1F
100
AcDbEntity
  8
AM_5
100
AcDbDimension
  2
*D19
 10
2599.812388167246
 20
1291.920644364902
 30
0.0
 11
2597.312092891655
 21
1279.920644364903
 31
0.0
 70
    32
 71
     5
 42
24.00000000000023
  3
AM_ISO$0
100
AcDbAlignedDimension
 13
2556.312388167246
 23
1267.920644364902
 33
0.0
 14
2580.812388167246
 24
1291.920644364902
 34
0.0
 50
90.0
100
AcDbRotatedDimension
1001
ACAD
1000
DSTYLE
1002
{
1070
    40
1040
1.0
1070
   144
1040
1.0
1070
   272
1070
     8
1002
}
  0
DIMENSION
  5
E95
330
1F
100
AcDbEntity
  8
AM_5
100
AcDbDimension
  2
*D20
 10
2577.312388167245
 20
1308.820644364902
 30
0.0
 11
2582.562388167246
 21
1311.320644364903
 31
0.0
 70
    32
 71
     5
 42
10.5
  3
AM_ISO$0
100
AcDbAlignedDimension
 13
2587.812388167245
 23
1299.920644364903
 33
0.0
 14
2577.312388167245
 24
1295.420644364902
 34
0.0
100
AcDbRotatedDimension
1001
ACAD
1000
DSTYLE
1002
{
1070
    40
1040
1.0
1070
   144
1040
1.0
1070
   272
1070
     8
1002
}
  0
DIMENSION
  5
EBF
330
1F
100
AcDbEntity
  8
AM_5
100
AcDbDimension
  2
*D21
 10
2552.812388167246
 20
1247.920644364902
 30
0.0
 11
2570.312388167245
 21
1250.420644364902
 31
0.0
 70
    32
 71
     5
 42
35.0
  3
AM_ISO$0
100
AcDbAlignedDimension
 13
2587.812388167245
 23
1259.920644364902
 33
0.0
 14
2552.812388167246
 24
1264.420644364902
 34
0.0
100
AcDbRotatedDimension
1001
ACAD
1000
DSTYLE
1002
{
1070
    40
1040
1.0
1070
   144
1040
1.0
1070
   272
1070
     8
1002
}
  0
DIMENSION
  5
EE9
330
1F
100
AcDbEntity
  8
AM_5
100
AcDbDimension
  2
*D22
 10
2474.312388167246
 20
1247.920644364902
 30
0.0
 11
2470.812388167246
 21
1247.920644364902
 31
0.0
 70
   160
 71
     5
 42
7.0
  3
AM_ISO$0
100
AcDbAlignedDimension
 13
2467.312388167246
 23
1269.920644364902
 33
0.0
 14
2474.312388167246
 24
1275.920644364902
 34
0.0
100
AcDbRotatedDimension
1001
ACAD
1000
DSTYLE
1002
{
1070
   272
1070
     8
1002
}
  0
DIMENSION
  5
F19
330
1F
100
AcDbEntity
  8
AM_5
100
AcDbDimension
  2
*D23
 10
2489.312388167246
 20
1247.920644364902
 30
0.0
 11
2481.812388167246
 21
1250.420644364902
 31
0.0
 70
    32
 71
     5
 42
15.0
  3
AM_ISO$0
100
AcDbAlignedDimension
 13
2474.312388167246
 23
1275.920644364902
 33
0.0
 14
2489.312388167246
 24
1275.920644364902
 34
0.0
100
AcDbRotatedDimension
1001
ACAD
1000
DSTYLE
1002
{
1070
   272
1070
     8
1002
}
  0
DIMENSION
  5
F63
330
1F
100
AcDbEntity
  8
AM_5
100
AcDbDimension
  2
*D24
 10
2455.312388167246
 20
1289.920644364902
 30
0.0
 11
2452.812092891655
 21
1279.920644364902
 31
0.0
 70
    32
 71
     5
 42
20.0
  3
AM_ISO$0
100
AcDbAlignedDimension
 13
2467.312388167246
 23
1269.920644364902
 33
0.0
 14
2467.312388167246
 24
1289.920644364902
 34
0.0
 50
90.0
100
AcDbRotatedDimension
1001
ACAD
1000
DSTYLE
1002
{
1070
    40
1040
1.0
1070
   144
1040
1.0
1070
   272
1070
     8
1002
}
  0
INSERT
  5
1256
330
1F
100
AcDbEntity
  8
AM_5
100
AcDbBlockReference
  2
*S26
 10
0.0
 20
0.0
 30
0.0
  0
TEXT
  5
1257
330
1F
100
AcDbEntity
  8
AM_5
100
AcDbText
 10
2528.418415475385
 20
1310.007070125027
 30
0.0
 40
3.0
  1
2-M5x0.8x5depth
 41
0.8
  7
CHINESET
100
AcDbText
  0
INSERT
  5
1264
330
1F
100
AcDbEntity
  8
AM_5
100
AcDbBlockReference
  2
*S27
 10
0.0
 20
0.0
 30
0.0
  0
TEXT
  5
1265
330
1F
100
AcDbEntity
  8
AM_5
100
AcDbText
 10
2514.957297934151
 20
1493.250612788344
 30
0.0
 40
3.0
  1
2-M6x1.0x10depth
 41
0.8
  7
CHINESET
100
AcDbText
  0
INSERT
  5
240C
330
1F
100
AcDbEntity
  8
AM_5
100
AcDbBlockReference
  2
*S28
 10
0.0
 20
0.0
 30
0.0
  0
TEXT
  5
240D
330
1F
100
AcDbEntity
  8
AM_5
100
AcDbText
 10
2504.601838361177
 20
1416.381067637888
 30
0.0
 40
3.0
  1
2-M6x1.0x10depth
 41
0.8
  7
CHINESET
100
AcDbText
  0
INSERT
  5
240E
330
1F
100
AcDbEntity
  8
AM_5
100
AcDbBlockReference
  2
*S29
 10
0.0
 20
0.0
 30
0.0
  0
TEXT
  5
240F
330
1F
100
AcDbEntity
  8
AM_5
100
AcDbText
 10
2612.806771050792
 20
1416.974074795151
 30
0.0
 40
3.0
  1
2-M6x1.0x10depth
 41
0.8
  7
CHINESET
100
AcDbText
  0
INSERT
  5
24F4
330
1F
100
AcDbEntity
  8
AM_5
100
AcDbBlockReference
  2
*S30
 10
0.0
 20
0.0
 30
0.0
  0
TEXT
  5
24F5
330
1F
100
AcDbEntity
  8
AM_5
100
AcDbText
 10
2439.668626526414
 20
1298.714827605333
 30
0.0
 40
3.0
  1
2-M6x1.0x10depth
 41
0.8
  7
CHINESET
100
AcDbText
  0
TEXT
  5
27C5
330
1F
100
AcDbEntity
  8
LOGO
 62
     7
100
AcDbText
 10
2431.494814919413
 20
1204.543759457585
 30
0.0
 40
4.799304977375564
  1
Order example:
 41
0.8
  7
CHINESET
100
AcDbText
  0
TEXT
  5
27C6
330
1F
100
AcDbEntity
  8
LOGO
 62
     7
100
AcDbText
 10
2432.355849920992
 20
1211.300187156955
 30
0.0
 40
7.198957466063347
  1
訂購代號:
  7
CHINESET
100
AcDbText
  0
LINE
  5
27C7
330
1F
100
AcDbEntity
  8
LOGO
 62
     1
100
AcDbLine
 10
2710.22096850174
 20
1220.312463283353
 30
0.0
 11
2350.22096850174
 21
1220.312463283353
 31
0.0
  0
LINE
  5
27C8
330
1F
100
AcDbEntity
  8
LOGO
 62
     1
100
AcDbLine
 10
2429.409500628437
 20
1184.317675953035
 30
0.0
 11
2429.409500628437
 21
1220.312463283353
 31
0.0
  0
TEXT
  5
27C9
330
1F
100
AcDbEntity
  8
LOGO
  6
Continuous
 62
     5
100
AcDbText
 10
2363.15045791049
 20
1191.388797603206
 30
0.0
 40
5.39921809954751
  1
金器工業股份有限公司
  7
CHINESET
100
AcDbText
  0
TEXT
  5
27CA
330
1F
100
AcDbEntity
  8
LOGO
  6
Continuous
 62
     5
100
AcDbText
 10
2353.233162444245
 20
1185.988521680226
 30
0.0
 40
3.599478733031673
  1
MINDMAN INDUSTRIAL CO., LTD.
 41
0.85
  7
CHINESET
100
AcDbText
  0
LINE
  5
27CB
330
1F
100
AcDbEntity
  8
LOGO
 62
     1
100
AcDbLine
 10
2429.409500628437
 20
1213.113505817289
 30
0.0
 11
2376.617145877305
 21
1213.113505817289
 31
0.0
  0
LINE
  5
27CC
330
1F
100
AcDbEntity
  8
LOGO
 62
     1
100
AcDbLine
 10
2429.409500628437
 20
1205.914548351226
 30
0.0
 11
2376.617145877305
 21
1205.914548351226
 31
0.0
  0
LINE
  5
27CD
330
1F
100
AcDbEntity
  8
LOGO
 62
     1
100
AcDbLine
 10
2429.409500628437
 20
1198.715590885163
 30
0.0
 11
2350.22096850174
 21
1198.715590885163
 31
0.0
  0
LINE
  5
27CE
330
1F
100
AcDbEntity
  8
LOGO
 62
     1
100
AcDbLine
 10
2376.617145877305
 20
1198.715590885163
 30
0.0
 11
2376.617145877305
 21
1220.312463283353
 31
0.0
  0
TEXT
  5
27CF
330
1F
100
AcDbEntity
  8
LOGO
 62
     6
100
AcDbText
 10
2410.812787347402
 20
1200.515330251678
 30
0.0
 40
3.599478733031673
  1
m/m
  7
CHINESET
 72
     1
 11
2417.154726067505
 21
1202.315069618194
 31
0.0
100
AcDbText
 73
     2
  0
TEXT
  5
27D0
330
1F
100
AcDbEntity
  8
LOGO
 62
     6
100
AcDbText
 10
2410.812787347402
 20
1214.913245183805
 30
0.0
 40
3.599478733031673
  1
1 : 1
  7
CHINESET
 72
     1
 11
2417.154726067505
 21
1216.712984550321
 31
0.0
100
AcDbText
 73
     2
  0
LINE
  5
27D1
330
1F
100
AcDbEntity
  8
LOGO
 62
     1
100
AcDbLine
 10
2405.412975741559
 20
1198.715590885163
 30
0.0
 11
2405.412975741559
 21
1220.312463283353
 31
0.0
  0
CIRCLE
  5
27D2
330
1F
100
AcDbEntity
  8
LOGO
  6
Continuous
 62
     6
100
AcDbCircle
 10
2412.07786083145
 20
1209.521726395608
 30
0.0
 40
2.089942074577136
  0
CIRCLE
  5
27D3
330
1F
100
AcDbEntity
  8
LOGO
  6
Continuous
 62
     6
100
AcDbCircle
 10
2412.07786083145
 20
1209.521726395608
 30
0.0
 40
1.224521043598074
  0
LINE
  5
27D4
330
1F
100
AcDbEntity
  8
LOGO
 62
     6
100
AcDbLine
 10
2425.211299334716
 20
1207.43178432103
 30
0.0
 11
2425.211299334716
 21
1211.611668470185
 31
0.0
  0
LINE
  5
27D5
330
1F
100
AcDbEntity
  8
LOGO
 62
     6
100
AcDbLine
 10
2418.659450899316
 20
1208.29720535201
 30
0.0
 11
2418.659450899316
 21
1210.746247439206
 31
0.0
  0
LINE
  5
27D6
330
1F
100
AcDbEntity
  8
LOGO
  6
Continuous
 62
     6
100
AcDbLine
 10
2418.659450899316
 20
1210.746247439206
 30
0.0
 11
2425.211299334716
 21
1211.611668470185
 31
0.0
  0
LINE
  5
27D7
330
1F
100
AcDbEntity
  8
LOGO
  6
Continuous
 62
     6
100
AcDbLine
 10
2418.659450899316
 20
1208.29720535201
 30
0.0
 11
2425.211299334716
 21
1207.43178432103
 31
0.0
  0
LINE
  5
27D8
330
1F
100
AcDbEntity
  8
LOGO
 62
     6
100
AcDbLine
 10
2502.915257958405
 20
1200.515330251679
 30
0.0
 11
2502.915257958405
 21
1187.317241563895
 31
0.0
  0
LINE
  5
27D9
330
1F
100
AcDbEntity
  8
LOGO
 62
     6
100
AcDbLine
 10
2478.918733071527
 20
1200.515330251679
 30
0.0
 11
2478.918733071527
 21
1187.317241563895
 31
0.0
  0
LINE
  5
27DA
330
1F
100
AcDbEntity
  8
LOGO
 62
     6
100
AcDbLine
 10
2502.915257958405
 20
1187.317241563895
 30
0.0
 11
2478.918733071527
 21
1187.317241563895
 31
0.0
  0
LINE
  5
27DB
330
1F
100
AcDbEntity
  8
LOGO
 62
     6
100
AcDbLine
 10
2508.510281763116
 20
1216.712984550321
 30
0.0
 11
2478.918733071527
 21
1216.712984550321
 31
0.0
  0
LINE
  5
27DC
330
1F
100
AcDbEntity
  8
LOGO
 62
     6
100
AcDbLine
 10
2508.510281763116
 20
1205.914548351226
 30
0.0
 11
2478.918733071527
 21
1205.914548351226
 31
0.0
  0
LINE
  5
27DD
330
1F
100
AcDbEntity
  8
LOGO
 62
     6
100
AcDbLine
 10
2478.918733071527
 20
1216.712984550321
 30
0.0
 11
2478.918733071527
 21
1205.914548351226
 31
0.0
  0
LINE
  5
27DE
330
1F
100
AcDbEntity
  8
LOGO
 62
     6
100
AcDbLine
 10
2508.510281763116
 20
1216.712984550321
 30
0.0
 11
2508.510281763116
 21
1205.914548351226
 31
0.0
  0
LINE
  5
27DF
330
1F
100
AcDbEntity
  8
LOGO
 62
     6
100
AcDbLine
 10
2492.169011395792
 20
1205.914548351226
 30
0.0
 11
2492.169011395792
 21
1200.515330251679
 31
0.0
  0
TEXT
  5
27E0
330
1F
100
AcDbEntity
  8
LOGO
  6
Continuous
 62
     7
100
AcDbText
 10
2481.561780610321
 20
1208.168706120474
 30
0.0
 40
6.299999999999999
  1
MCHB
  7
CHINESET
100
AcDbText
  0
LINE
  5
27E1
330
1F
100
AcDbEntity
  8
LOGO
 62
     6
100
AcDbLine
 10
2502.915257958405
 20
1200.515330251679
 30
0.0
 11
2478.918733071527
 21
1200.515330251679
 31
0.0
  0
TEXT
  5
27E2
330
1F
100
AcDbEntity
  8
LOGO
 62
     6
100
AcDbText
 10
2379.585108921908
 20
1214.915016580819
 30
235.9039063680896
 40
3.599478733031673
  1
比例 Scale:
 41
0.9
  7
CHINESET
 72
     4
 11
2391.015060809432
 21
1216.712984550321
 31
235.9039063680896
100
AcDbText
  0
TEXT
  5
27E3
330
1F
100
AcDbEntity
  8
LOGO
 62
     6
100
AcDbText
 10
2379.377817512729
 20
1207.764920149066
 30
235.9039063680896
 40
3.599478733031673
  1
投影  View:
 41
0.9
  7
CHINESET
 72
     4
 11
2391.015060809432
 21
1209.514027084257
 31
235.9039063680896
100
AcDbText
  0
TEXT
  5
27E4
330
1F
100
AcDbEntity
  8
LOGO
 62
     6
100
AcDbText
 10
2379.729730835288
 20
1200.515330251678
 30
235.9039063680896
 40
3.599478733031673
  1
單位  Unit:
 41
0.9
  7
CHINESET
 72
     4
 11
2391.015060809432
 21
1202.315069618194
 31
235.9039063680896
100
AcDbText
  0
TEXT
  5
27E5
330
1F
100
AcDbEntity
  8
LOGO
  6
Continuous
 62
     6
100
AcDbText
 10
2485.439624407479
 20
1189.180123794978
 30
235.9039063680896
 40
2.699999999999999
  1
Model
  7
CHINESET
100
AcDbText
  0
TEXT
  5
27E6
330
1F
100
AcDbEntity
  8
LOGO
 62
     6
100
AcDbText
 10
2485.900489707487
 20
1194.185341903448
 30
235.9039063680896
 40
4.5
  1
型號
  7
CHINESET
100
AcDbText
  0
LWPOLYLINE
  5
27E7
330
1F
100
AcDbEntity
  8
0
 62
     4
100
AcDbPolyline
 90
        4
 70
     1
 43
0.0
 10
2350.22096850174
 20
1220.312463283353
 10
2710.22096850174
 20
1220.312463283353
 10
2710.22096850174
 20
1526.875587544939
 10
2350.22096850174
 20
1526.875587544939
1001
GENIUS_GENREC_14
1002
{
1000
PYDIR
1011
2350.22096850174
1021
1526.875587544939
1031
0.0
1002
}
1002
{
1000
PXDIR
1011
2710.22096850174
1021
1220.312463283353
1031
0.0
1002
}
1002
{
1000
PORI
1011
2350.22096850174
1021
1220.312463283353
1031
0.0
1002
}
1002
{
1000
PINS
1011
2350.22096850174
1021
1220.312463283353
1031
0.0
1002
}
1002
{
1000
PINS2
1011
2710.22096850174
1021
1526.875587544939
1031
0.0
1002
}
1002
{
1000
C
1070
     1
1002
}
1001
GENIUS_GENODEF_13
1002
{
1000
HIER
1070
     0
1002
}
1002
{
1000
MANEDIT
1070
     0
1002
}
1002
{
1000
NOSEL
1070
     0
1002
}
1002
{
1000
BEHIND
1070
     0
1002
}
1002
{
1000
OTHER
1070
     0
1002
}
1002
{
1000
REACTOR
1002
}
1001
GENIUS_GENOBJ-N-REC_13
1002
{
1000
OWNER
1000
GEN
1002
}
  0
SOLID
  5
27E8
330
1F
100
AcDbEntity
  8
LOGO
 62
     5
100
AcDbTrace
 10
2353.9554854545
 20
1204.699211933375
 30
0.0
 11
2355.511805608341
 21
1204.699211933375
 31
0.0
 12
2362.005417284712
 22
1219.457420288764
 32
0.0
 13
2363.561737438553
 23
1219.457420288763
 33
0.0
  0
SOLID
  5
27E9
330
1F
100
AcDbEntity
  8
LOGO
 62
     5
100
AcDbTrace
 10
2356.155800154759
 20
1204.699211933375
 30
0.0
 11
2357.712120308601
 21
1204.699211933375
 31
0.0
 12
2363.561737438553
 22
1218.276763620332
 32
0.0
 13
2362.005417284712
 23
1212.570256389582
 33
0.0
  0
SOLID
  5
27EA
330
1F
100
AcDbEntity
  8
LOGO
 62
     2
100
AcDbTrace
 10
2355.511805608341
 20
1204.699211933375
 30
0.0
 11
2356.155800154759
 21
1204.699211933375
 31
0.0
 12
2363.561737438553
 22
1219.457420288763
 32
0.0
 13
2364.20573198497
 23
1219.457420288763
 33
0.0
  0
SOLID
  5
27EB
330
1F
100
AcDbEntity
  8
LOGO
 62
     5
100
AcDbTrace
 10
2351.46032259144
 20
1199.332590713234
 30
0.0
 11
2351.996984713455
 21
1199.332590713234
 31
0.0
 12
2353.508267019489
 22
1202.015901323304
 32
0.0
 13
2354.044929141502
 23
1202.015901323304
 33
0.0
  0
SOLID
  5
27EC
330
1F
100
AcDbEntity
  8
LOGO
 62
     5
100
AcDbTrace
 10
2353.508267019489
 20
1202.015901323304
 30
0.0
 11
2354.044929141502
 21
1202.015901323304
 31
0.0
 12
2353.508267019489
 22
1199.332590713234
 32
0.0
 13
2354.044929141502
 23
1199.332590713234
 33
0.0
  0
SOLID
  5
27ED
330
1F
100
AcDbEntity
  8
LOGO
 62
     5
100
AcDbTrace
 10
2353.508267019489
 20
1199.332590713234
 30
0.0
 11
2354.044929141502
 21
1199.332590713234
 31
0.0
 12
2355.556211447537
 22
1202.015901323304
 32
0.0
 13
2356.092873569551
 23
1202.015901323304
 33
0.0
  0
SOLID
  5
27EE
330
1F
100
AcDbEntity
  8
LOGO
 62
     5
100
AcDbTrace
 10
2355.556211447537
 20
1202.015901323304
 30
0.0
 11
2356.092873569551
 21
1202.015901323304
 31
0.0
 12
2355.556211447537
 22
1199.332590713234
 32
0.0
 13
2356.092873569551
 23
1199.332590713234
 33
0.0
  0
POLYLINE
  5
27EF
330
1F
100
AcDbEntity
  8
LOGO
 62
     5
100
AcDb2dPolyline
 66
     1
 10
0.0
 20
0.0
 30
0.0
 40
0.5375221574660633
 41
0.5375221574660633
  0
VERTEX
  5
27F0
330
27EF
100
AcDbEntity
  8
LOGO
 62
     5
100
AcDbVertex
100
AcDb2dVertex
 10
2373.544942961194
 20
1200.942577079276
 30
0.0
 42
1.0
  0
VERTEX
  5
27F1
330
27EF
100
AcDbEntity
  8
LOGO
 62
     5
100
AcDbVertex
100
AcDb2dVertex
 10
2371.932376488796
 20
1200.942577079276
 30
0.0
 42
1.0
  0
SEQEND
  5
27F2
330
27EF
100
AcDbEntity
  8
LOGO
 62
     5
  0
POLYLINE
  5
27F3
330
1F
100
AcDbEntity
  8
LOGO
 62
     5
100
AcDb2dPolyline
 66
     1
 10
0.0
 20
0.0
 30
0.0
 70
     1
  0
VERTEX
  5
27F4
330
27F3
100
AcDbEntity
  8
LOGO
 62
     5
100
AcDbVertex
100
AcDb2dVertex
 10
2368.892616961367
 20
1200.674246018269
 30
0.0
 42
1.000000057330635
  0
VERTEX
  5
27F5
330
27F3
100
AcDbEntity
  8
LOGO
 62
     5
100
AcDbVertex
100
AcDb2dVertex
 10
2370.50260332741
 20
1200.674246018269
 30
0.0
 42
1.000000057330635
  0
SEQEND
  5
27F6
330
27F3
100
AcDbEntity
  8
LOGO
 62
     5
  0
CIRCLE
  5
27F7
330
1F
100
AcDbEntity
  8
LOGO
 62
     5
100
AcDbCircle
 10
2369.69761014439
 20
1200.674246018269
 30
0.0
 40
0.8049931830211765
  0
POLYLINE
  5
27F8
330
1F
100
AcDbEntity
  8
LOGO
 62
     5
100
AcDb2dPolyline
 66
     1
 10
0.0
 20
0.0
 30
0.0
 70
     1
 40
0.5375221574660633
 41
0.5375221574660633
  0
VERTEX
  5
27F9
330
27F8
100
AcDbEntity
  8
LOGO
 62
     5
100
AcDbVertex
100
AcDb2dVertex
 10
2368.622565829457
 20
1200.674246018269
 30
0.0
 42
1.0
  0
VERTEX
  5
27FA
330
27F8
100
AcDbEntity
  8
LOGO
 62
     5
100
AcDbVertex
100
AcDb2dVertex
 10
2370.772654459321
 20
1200.674246018269
 30
0.0
 42
1.0
  0
SEQEND
  5
27FB
330
27F8
100
AcDbEntity
  8
LOGO
 62
     5
  0
LINE
  5
27FC
330
1F
100
AcDbEntity
  8
LOGO
 62
     5
100
AcDbLine
 10
2373.811983969023
 20
1199.332590713234
 30
0.0
 11
2373.811983969023
 21
1200.942577079276
 31
0.0
  0
SOLID
  5
27FD
330
1F
100
AcDbEntity
  8
LOGO
 62
     5
100
AcDbTrace
 10
2370.5025496612
 20
1202.015901323304
 30
0.0
 11
2371.039211783214
 21
1202.015901323304
 31
0.0
 12
2370.5025496612
 22
1199.332590713234
 32
0.0
 13
2371.039211783214
 23
1199.332590713234
 33
0.0
  0
SOLID
  5
27FE
330
1F
100
AcDbEntity
  8
LOGO
 62
     5
100
AcDbTrace
 10
2371.665335480966
 20
1199.332590713234
 30
0.0
 11
2372.201997602981
 21
1199.332590713234
 31
0.0
 12
2371.665335480966
 22
1202.015901323304
 32
0.0
 13
2372.201997602981
 23
1202.015901323304
 33
0.0
  0
SOLID
  5
27FF
330
1F
100
AcDbEntity
  8
LOGO
 62
     5
100
AcDbTrace
 10
2373.27532184701
 20
1200.942577079276
 30
0.0
 11
2373.811983969023
 21
1200.942577079276
 31
0.0
 12
2373.27532184701
 22
1199.332590713234
 32
0.0
 13
2373.811983969023
 23
1199.332590713234
 33
0.0
  0
SOLID
  5
2800
330
1F
100
AcDbEntity
  8
LOGO
 62
     5
100
AcDbTrace
 10
2371.611669268764
 20
1218.276763620332
 30
0.0
 11
2370.055349114924
 21
1212.570256389582
 31
0.0
 12
2371.611669268764
 22
1204.699211933375
 32
0.0
 13
2370.055349114924
 23
1204.699211933375
 33
0.0
  0
SOLID
  5
2801
330
1F
100
AcDbEntity
  8
LOGO
 62
     5
100
AcDbTrace
 10
2372.255663815182
 20
1204.699211933375
 30
0.0
 11
2373.811983969023
 21
1204.699211933375
 31
0.0
 12
2372.255663815182
 22
1219.457420288763
 32
0.0
 13
2373.811983969023
 23
1219.457420288764
 33
0.0
  0
SOLID
  5
2802
330
1F
100
AcDbEntity
  8
LOGO
 62
     2
100
AcDbTrace
 10
2371.611669268764
 20
1219.457420288764
 30
0.0
 11
2372.255663815182
 21
1219.457420288763
 31
0.0
 12
2371.611669268764
 22
1204.699211933375
 32
0.0
 13
2372.255663815182
 23
1204.699211933375
 33
0.0
  0
POLYLINE
  5
2803
330
1F
100
AcDbEntity
  8
LOGO
 62
     5
100
AcDb2dPolyline
 66
     1
 10
0.0
 20
0.0
 30
0.0
 40
0.5375221574660633
 41
0.5375221574660633
  0
VERTEX
  5
2804
330
2803
100
AcDbEntity
  8
LOGO
 62
     5
100
AcDbVertex
100
AcDb2dVertex
 10
2365.852750101518
 20
1200.942577079276
 30
0.0
 42
1.0
  0
VERTEX
  5
2805
330
2803
100
AcDbEntity
  8
LOGO
 62
     5
100
AcDbVertex
100
AcDb2dVertex
 10
2364.240183629119
 20
1200.942577079276
 30
0.0
 42
1.0
  0
SEQEND
  5
2806
330
2803
100
AcDbEntity
  8
LOGO
 62
     5
  0
POLYLINE
  5
2807
330
1F
100
AcDbEntity
  8
LOGO
 62
     5
100
AcDb2dPolyline
 66
     1
 10
0.0
 20
0.0
 30
0.0
 40
0.5375221574660633
 41
0.5375221574660633
  0
VERTEX
  5
2808
330
2807
100
AcDbEntity
  8
LOGO
 62
     5
100
AcDbVertex
100
AcDb2dVertex
 10
2367.462736467558
 20
1200.942577079276
 30
0.0
 42
1.0
  0
VERTEX
  5
2809
330
2807
100
AcDbEntity
  8
LOGO
 62
     5
100
AcDbVertex
100
AcDb2dVertex
 10
2365.850169995161
 20
1200.942577079276
 30
0.0
 42
1.0
  0
SEQEND
  5
280A
330
2807
100
AcDbEntity
  8
LOGO
 62
     5
  0
POLYLINE
  5
280B
330
1F
100
AcDbEntity
  8
LOGO
 62
     5
100
AcDb2dPolyline
 66
     1
 10
0.0
 20
0.0
 30
0.0
 40
0.5375221574660633
 41
0.5375221574660633
  0
VERTEX
  5
280C
330
280B
100
AcDbEntity
  8
LOGO
 62
     5
100
AcDbVertex
100
AcDb2dVertex
 10
2359.770543607881
 20
1200.942577079276
 30
0.0
 42
1.0
  0
VERTEX
  5
280D
330
280B
100
AcDbEntity
  8
LOGO
 62
     5
100
AcDbVertex
100
AcDb2dVertex
 10
2358.157977135483
 20
1200.942577079276
 30
0.0
 42
1.0
  0
SEQEND
  5
280E
330
280B
100
AcDbEntity
  8
LOGO
 62
     5
  0
SOLID
  5
280F
330
1F
100
AcDbEntity
  8
LOGO
 62
     5
100
AcDbTrace
 10
2357.890936127655
 20
1202.015901323304
 30
0.0
 11
2358.427598249667
 21
1202.015901323304
 31
0.0
 12
2357.890936127655
 22
1199.332590713234
 32
0.0
 13
2358.427598249667
 23
1199.332590713234
 33
0.0
  0
SOLID
  5
2810
330
1F
100
AcDbEntity
  8
LOGO
 62
     5
100
AcDbTrace
 10
2359.500922493697
 20
1200.942577079276
 30
0.0
 11
2360.037584615712
 21
1200.942577079276
 31
0.0
 12
2359.500922493697
 22
1199.332590713234
 32
0.0
 13
2360.037584615712
 23
1199.332590713234
 33
0.0
  0
POLYLINE
  5
2811
330
1F
100
AcDbEntity
  8
LOGO
 62
     5
100
AcDb2dPolyline
 66
     1
 10
0.0
 20
0.0
 30
0.0
 70
     1
 40
0.5375221574660633
 41
0.5375221574660633
  0
VERTEX
  5
2812
330
2811
100
AcDbEntity
  8
LOGO
 62
     5
100
AcDbVertex
100
AcDb2dVertex
 10
2360.93037296978
 20
1200.674246018269
 30
0.0
 42
1.0
  0
VERTEX
  5
2813
330
2811
100
AcDbEntity
  8
LOGO
 62
     5
100
AcDbVertex
100
AcDb2dVertex
 10
2363.080461599645
 20
1200.674246018269
 30
0.0
 42
1.0
  0
SEQEND
  5
2814
330
2811
100
AcDbEntity
  8
LOGO
 62
     5
  0
SOLID
  5
2815
330
1F
100
AcDbEntity
  8
LOGO
 62
     5
100
AcDbTrace
 10
2362.810356801522
 20
1202.820894506326
 30
0.0
 11
2363.347018923536
 21
1202.820894506326
 31
0.0
 12
2362.810356801522
 22
1199.332590713234
 32
0.0
 13
2363.347018923536
 23
1199.332590713234
 33
0.0
  0
SOLID
  5
2816
330
1F
100
AcDbEntity
  8
LOGO
 62
     5
100
AcDbTrace
 10
2363.973142621291
 20
1202.015901323304
 30
0.0
 11
2364.509804743304
 21
1202.015901323304
 31
0.0
 12
2363.973142621291
 22
1199.332590713234
 32
0.0
 13
2364.509804743304
 23
1199.332590713234
 33
0.0
  0
SOLID
  5
2817
330
1F
100
AcDbEntity
  8
LOGO
 62
     5
100
AcDbTrace
 10
2365.583128987331
 20
1200.942577079276
 30
0.0
 11
2366.119791109346
 21
1200.942577079276
 31
0.0
 12
2365.583128987331
 22
1199.332590713234
 32
0.0
 13
2366.119791109346
 23
1199.332590713234
 33
0.0
  0
SOLID
  5
2818
330
1F
100
AcDbEntity
  8
LOGO
 62
     5
100
AcDbTrace
 10
2367.193115353374
 20
1200.942577079276
 30
0.0
 11
2367.729777475388
 21
1200.942577079276
 31
0.0
 12
2367.193115353374
 22
1199.332590713233
 32
0.0
 13
2367.729777475388
 23
1199.332590713233
 33
0.0
  0
SOLID
  5
2819
330
1F
100
AcDbEntity
  8
LOGO
 62
     5
100
AcDbTrace
 10
2356.728150307887
 20
1202.391564808714
 30
0.0
 11
2357.264812429901
 21
1202.391564808714
 31
0.0
 12
2356.728150307887
 22
1202.820894506326
 32
0.0
 13
2357.264812429901
 23
1202.820894506326
 33
0.0
  0
SOLID
  5
281A
330
1F
100
AcDbEntity
  8
LOGO
 62
     5
100
AcDbTrace
 10
2356.728150307887
 20
1202.015901323304
 30
0.0
 11
2357.264812429901
 21
1202.015901323304
 31
0.0
 12
2356.728150307887
 22
1199.332590713233
 32
0.0
 13
2357.264812429901
 23
1199.332590713234
 33
0.0
  0
SOLID
  5
281B
330
1F
100
AcDbEntity
  8
LOGO
 62
     5
100
AcDbTrace
 10
2362.005417284712
 20
1204.699211933375
 30
0.0
 11
2363.561737438553
 21
1204.699211933375
 31
0.0
 12
2362.005417284712
 22
1212.570256389582
 32
0.0
 13
2363.561737438553
 23
1218.276763620332
 33
0.0
  0
SOLID
  5
281C
330
1F
100
AcDbEntity
  8
LOGO
 62
     5
100
AcDbTrace
 10
2364.20573198497
 20
1219.457420288763
 30
0.0
 11
2365.762052138811
 21
1219.457420288764
 31
0.0
 12
2364.20573198497
 22
1205.879868601805
 32
0.0
 13
2365.762052138811
 23
1211.586375832556
 33
0.0
  0
SOLID
  5
281D
330
1F
100
AcDbEntity
  8
LOGO
 62
     2
100
AcDbTrace
 10
2363.561737438553
 20
1219.457420288763
 30
0.0
 11
2364.20573198497
 21
1219.457420288763
 31
0.0
 12
2363.561737438553
 22
1204.699211933375
 32
0.0
 13
2364.20573198497
 23
1204.699211933375
 33
0.0
  0
SOLID
  5
281E
330
1F
100
AcDbEntity
  8
LOGO
 62
     5
100
AcDbTrace
 10
2364.20573198497
 20
1205.879868601805
 30
0.0
 11
2365.762052138811
 21
1211.586375832556
 31
0.0
 12
2371.611669268764
 22
1219.457420288764
 32
0.0
 13
2370.055349114924
 23
1219.457420288764
 33
0.0
  0
SOLID
  5
281F
330
1F
100
AcDbEntity
  8
LOGO
 62
     5
100
AcDbTrace
 10
2364.20573198497
 20
1204.699211933375
 30
0.0
 11
2365.762052138811
 21
1204.699211933375
 31
0.0
 12
2371.611669268764
 22
1218.276763620332
 32
0.0
 13
2370.055349114924
 23
1212.570256389582
 33
0.0
  0
SOLID
  5
2820
330
1F
100
AcDbEntity
  8
LOGO
 62
     2
100
AcDbTrace
 10
2363.561737438553
 20
1204.699211933375
 30
0.0
 11
2364.20573198497
 21
1204.699211933375
 31
0.0
 12
2371.611669268764
 22
1219.457420288764
 32
0.0
 13
2372.255663815182
 23
1219.457420288763
 33
0.0
  0
TEXT
  5
2821
330
1F
100
AcDbEntity
  8
0
100
AcDbText
 10
2431.861274668633
 20
1186.232584432094
 30
0.0
 40
3.599999999999999
  1
10511214
 41
0.7
  7
CHINESET
 72
     1
 11
2440.201274668633
 21
1186.232584432094
 31
0.0
100
AcDbText
  0
LINE
  5
2822
330
1F
100
AcDbEntity
  8
LOGO
 62
     1
100
AcDbLine
 10
2451.009500628436
 20
1191.516633419099
 30
0.0
 11
2451.009500628437
 21
1184.317675953035
 31
0.0
  0
LINE
  5
2823
330
1F
100
AcDbEntity
  8
LOGO
 62
     1
100
AcDbLine
 10
2451.009500628436
 20
1191.516633419099
 30
0.0
 11
2429.409500628437
 21
1191.516633419099
 31
0.0
  0
LWPOLYLINE
  5
2824
330
1F
100
AcDbEntity
  8
0
 62
     1
100
AcDbPolyline
 90
        4
 70
     1
 43
0.0
 10
2350.22096850174
 20
1220.312463283353
 10
2710.22096850174
 20
1220.312463283353
 10
2710.22096850174
 20
1184.317675953035
 10
2350.22096850174
 20
1184.317675953035
1001
GENIUS_GENREC_14
1002
{
1000
PYDIR
1011
2350.22096850174
1021
1184.317675953035
1031
0.0
1002
}
1002
{
1000
PXDIR
1011
2710.22096850174
1021
1220.312463283353
1031
0.0
1002
}
1002
{
1000
PORI
1011
2350.22096850174
1021
1220.312463283353
1031
0.0
1002
}
1002
{
1000
PINS
1011
2350.22096850174
1021
1220.312463283353
1031
0.0
1002
}
1002
{
1000
PINS2
1011
2710.22096850174
1021
1184.317675953035
1031
0.0
1002
}
1002
{
1000
C
1070
     1
1002
}
1001
GENIUS_GENOBJ-N-REC_13
1002
{
1000
OWNER
1000
GEN
1002
}
1001
GENIUS_GENODEF_13
1002
{
1000
HIER
1070
     0
1002
}
1002
{
1000
MANEDIT
1070
     0
1002
}
1002
{
1000
NOSEL
1070
     0
1002
}
1002
{
1000
BEHIND
1070
     0
1002
}
1002
{
1000
OTHER
1070
     0
1002
}
1002
{
1000
REACTOR
1002
}
  0
LINE
  5
2825
330
1F
100
AcDbEntity
  8
LOGO
  6
Continuous
 62
     7
100
AcDbLine
 10
2509.658244778926
 20
1211.2755166832
 30
0.0
 11
2514.426440187017
 21
1211.2755166832
 31
0.0
  0
LINE
  5
2831
330
1F
100
AcDbEntity
  8
LOGO
 62
     6
100
AcDbLine
 10
2536.890199317772
 20
1200.515330251679
 30
0.0
 11
2536.890199317772
 21
1187.317241563895
 31
0.0
  0
LINE
  5
2832
330
1F
100
AcDbEntity
  8
LOGO
 62
     6
100
AcDbLine
 10
2512.893674430894
 20
1200.515330251679
 30
0.0
 11
2512.893674430894
 21
1187.317241563895
 31
0.0
  0
LINE
  5
2833
330
1F
100
AcDbEntity
  8
LOGO
 62
     6
100
AcDbLine
 10
2536.890199317772
 20
1187.317241563895
 30
0.0
 11
2512.893674430894
 21
1187.317241563895
 31
0.0
  0
LINE
  5
2834
330
1F
100
AcDbEntity
  8
LOGO
 62
     6
100
AcDbLine
 10
2534.680024637104
 20
1216.712984550321
 30
0.0
 11
2516.228234387201
 21
1216.712984550321
 31
0.0
  0
LINE
  5
2835
330
1F
100
AcDbEntity
  8
LOGO
 62
     6
100
AcDbLine
 10
2534.680024637104
 20
1205.914548351226
 30
0.0
 11
2516.228234387201
 21
1205.914548351226
 31
0.0
  0
LINE
  5
2836
330
1F
100
AcDbEntity
  8
LOGO
 62
     6
100
AcDbLine
 10
2516.228234387201
 20
1216.712984550321
 30
0.0
 11
2516.228234387201
 21
1205.914548351226
 31
0.0
  0
LINE
  5
2837
330
1F
100
AcDbEntity
  8
LOGO
 62
     6
100
AcDbLine
 10
2534.680024637104
 20
1216.712984550321
 30
0.0
 11
2534.680024637104
 21
1205.914548351226
 31
0.0
  0
LINE
  5
2838
330
1F
100
AcDbEntity
  8
LOGO
 62
     6
100
AcDbLine
 10
2524.524872797776
 20
1205.914548351226
 30
0.0
 11
2524.524872797776
 21
1200.515330251679
 31
0.0
  0
TEXT
  5
2839
330
1F
100
AcDbEntity
  8
LOGO
  6
Continuous
 62
     7
100
AcDbText
 10
2520.27228806853
 20
1208.168706120474
 30
0.0
 40
6.299999999999999
  1
32
  7
CHINESET
100
AcDbText
  0
LINE
  5
283A
330
1F
100
AcDbEntity
  8
LOGO
 62
     6
100
AcDbLine
 10
2536.890199317772
 20
1200.515330251679
 30
0.0
 11
2512.893674430894
 21
1200.515330251679
 31
0.0
  0
TEXT
  5
2848
330
1F
100
AcDbEntity
  8
LOGO
  6
Continuous
 62
     6
100
AcDbText
 10
2515.248261217141
 20
1189.180123794978
 30
235.9039063680896
 40
2.699999999999999
  1
Tube I.D.
  7
CHINESET
100
AcDbText
  0
TEXT
  5
2849
330
1F
100
AcDbEntity
  8
LOGO
 62
     6
100
AcDbText
 10
2519.008634720396
 20
1194.185341903448
 30
235.9039063680896
 40
4.5
  1
內徑
  7
CHINESET
100
AcDbText
  0
LINE
  5
2AE9
330
1F
100
AcDbEntity
  8
AM_VIS
100
AcDbLine
 10
2497.312388167245
 20
1407.382578897572
 30
0.0
 11
2497.312388167245
 21
1406.882578897572
 31
0.0
  0
LINE
  5
2AEA
330
1F
100
AcDbEntity
  8
AM_VIS
100
AcDbLine
 10
2497.312388167245
 20
1347.382578897572
 30
0.0
 11
2587.812388167245
 21
1347.382578897572
 31
0.0
  0
LINE
  5
2AEB
330
1F
100
AcDbEntity
  8
AM_VIS
100
AcDbLine
 10
2497.312388167245
 20
1347.882578897572
 30
0.0
 11
2497.312388167245
 21
1347.382578897572
 31
0.0
  0
LINE
  5
2AEC
330
1F
100
AcDbEntity
  8
AM_VIS
100
AcDbLine
 10
2497.312388167245
 20
1406.882578897572
 30
0.0
 11
2497.312388167245
 21
1347.882578897572
 31
0.0
  0
LINE
  5
2AED
330
1F
100
AcDbEntity
  8
AM_VIS
100
AcDbLine
 10
2587.812388167245
 20
1407.382578897572
 30
0.0
 11
2497.312388167245
 21
1407.382578897572
 31
0.0
  0
LINE
  5
2AEE
330
1F
100
AcDbEntity
  8
AM_VIS
100
AcDbLine
 10
2587.812388167245
 20
1347.382578897572
 30
0.0
 11
2587.812388167245
 21
1347.882578897572
 31
0.0
  0
LINE
  5
2AEF
330
1F
100
AcDbEntity
  8
AM_VIS
100
AcDbLine
 10
2587.812388167245
 20
1406.882578897572
 30
0.0
 11
2587.812388167245
 21
1347.882578897572
 31
0.0
  0
LINE
  5
2AF0
330
1F
100
AcDbEntity
  8
AM_VIS
100
AcDbLine
 10
2587.812388167245
 20
1406.882578897572
 30
0.0
 11
2587.812388167245
 21
1407.382578897572
 31
0.0
  0
LINE
  5
2AF5
330
1F
100
AcDbEntity
  8
AM_VIS
100
AcDbLine
 10
2467.312388167246
 20
1357.882578897572
 30
0.0
 11
2467.312388167246
 21
1347.882578897572
 31
0.0
  0
LINE
  5
2AF6
330
1F
100
AcDbEntity
  8
AM_VIS
100
AcDbLine
 10
2497.312388167245
 20
1357.882578897572
 30
0.0
 11
2467.312388167246
 21
1357.882578897572
 31
0.0
  0
LINE
  5
2AF7
330
1F
100
AcDbEntity
  8
AM_VIS
100
AcDbLine
 10
2497.312388167245
 20
1347.882578897572
 30
0.0
 11
2467.312388167246
 21
1347.882578897572
 31
0.0
  0
LINE
  5
2AF8
330
1F
100
AcDbEntity
  8
AM_VIS
100
AcDbLine
 10
2467.312388167246
 20
1406.882578897572
 30
0.0
 11
2467.312388167246
 21
1396.882578897572
 31
0.0
  0
LINE
  5
2AF9
330
1F
100
AcDbEntity
  8
AM_VIS
100
AcDbLine
 10
2497.312388167245
 20
1396.882578897572
 30
0.0
 11
2467.312388167246
 21
1396.882578897572
 31
0.0
  0
LINE
  5
2AFA
330
1F
100
AcDbEntity
  8
AM_VIS
100
AcDbLine
 10
2497.312388167245
 20
1406.882578897572
 30
0.0
 11
2467.312388167246
 21
1406.882578897572
 31
0.0
  0
LINE
  5
2AFB
330
1F
100
AcDbEntity
  8
AM_VIS
100
AcDbLine
 10
2587.812388167245
 20
1484.133749628513
 30
0.0
 11
2497.312388167245
 21
1484.133749628513
 31
0.0
  0
LINE
  5
2AFC
330
1F
100
AcDbEntity
  8
AM_VIS
100
AcDbLine
 10
2497.312388167245
 20
1484.133749628513
 30
0.0
 11
2497.312388167245
 21
1483.633749628513
 31
0.0
  0
LINE
  5
2AFD
330
1F
100
AcDbEntity
  8
AM_VIS
100
AcDbLine
 10
2497.312388167245
 20
1444.633749628513
 30
0.0
 11
2497.312388167245
 21
1444.133749628513
 31
0.0
  0
LINE
  5
2AFE
330
1F
100
AcDbEntity
  8
AM_VIS
100
AcDbLine
 10
2544.312388167246
 20
1466.883749628513
 30
0.0
 11
2544.312388167246
 21
1466.383749628513
 31
0.0
  0
LINE
  5
2AFF
330
1F
100
AcDbEntity
  8
AM_VIS
100
AcDbLine
 10
2544.312388167246
 20
1466.383749628513
 30
0.0
 11
2544.312388167246
 21
1466.033749628513
 31
0.0
  0
LINE
  5
2B00
330
1F
100
AcDbEntity
  8
AM_VIS
100
AcDbLine
 10
2544.312388167246
 20
1464.583749628513
 30
0.0
 11
2544.312388167246
 21
1463.683749628513
 31
0.0
  0
LINE
  5
2B01
330
1F
100
AcDbEntity
  8
AM_VIS
100
AcDbLine
 10
2544.312388167246
 20
1462.233749628513
 30
0.0
 11
2544.312388167246
 21
1461.883749628513
 31
0.0
  0
LINE
  5
2B02
330
1F
100
AcDbEntity
  8
AM_VIS
100
AcDbLine
 10
2544.312388167246
 20
1461.883749628513
 30
0.0
 11
2544.312388167246
 21
1461.383749628513
 31
0.0
  0
LINE
  5
2B03
330
1F
100
AcDbEntity
  8
AM_VIS
100
AcDbLine
 10
2497.312388167245
 20
1444.133749628513
 30
0.0
 11
2587.812388167245
 21
1444.133749628513
 31
0.0
  0
LINE
  5
2B04
330
1F
100
AcDbEntity
  8
AM_VIS
100
AcDbLine
 10
2544.312388167246
 20
1473.133749628513
 30
0.0
 11
2544.312388167246
 21
1466.883749628513
 31
0.0
  0
LINE
  5
2B05
330
1F
100
AcDbEntity
  8
AM_VIS
100
AcDbLine
 10
2525.312388167245
 20
1473.133749628513
 30
0.0
 11
2544.312388167246
 21
1473.133749628513
 31
0.0
  0
LINE
  5
2B06
330
1F
100
AcDbEntity
  8
AM_VIS
100
AcDbLine
 10
2525.312388167245
 20
1474.633749628513
 30
0.0
 11
2525.312388167245
 21
1473.133749628513
 31
0.0
  0
LINE
  5
2B07
330
1F
100
AcDbEntity
  8
AM_VIS
100
AcDbLine
 10
2497.312388167245
 20
1474.633749628513
 30
0.0
 11
2525.312388167245
 21
1474.633749628513
 31
0.0
  0
LINE
  5
2B08
330
1F
100
AcDbEntity
  8
AM_VIS
100
AcDbLine
 10
2497.312388167245
 20
1483.633749628513
 30
0.0
 11
2497.312388167245
 21
1474.633749628513
 31
0.0
  0
LINE
  5
2B09
330
1F
100
AcDbEntity
  8
AM_VIS
100
AcDbLine
 10
2587.812388167245
 20
1466.883749628513
 30
0.0
 11
2544.312388167246
 21
1466.883749628513
 31
0.0
  0
LINE
  5
2B0A
330
1F
100
AcDbEntity
  8
AM_VIS
100
AcDbLine
 10
2497.312388167245
 20
1453.633749628513
 30
0.0
 11
2497.312388167245
 21
1444.633749628513
 31
0.0
  0
LINE
  5
2B0B
330
1F
100
AcDbEntity
  8
AM_VIS
100
AcDbLine
 10
2525.312388167245
 20
1453.633749628513
 30
0.0
 11
2497.312388167245
 21
1453.633749628513
 31
0.0
  0
LINE
  5
2B0C
330
1F
100
AcDbEntity
  8
AM_VIS
100
AcDbLine
 10
2525.312388167245
 20
1455.133749628513
 30
0.0
 11
2525.312388167245
 21
1453.633749628513
 31
0.0
  0
LINE
  5
2B0D
330
1F
100
AcDbEntity
  8
AM_VIS
100
AcDbLine
 10
2544.312388167246
 20
1455.133749628513
 30
0.0
 11
2525.312388167245
 21
1455.133749628513
 31
0.0
  0
LINE
  5
2B0E
330
1F
100
AcDbEntity
  8
AM_VIS
100
AcDbLine
 10
2544.312388167246
 20
1461.383749628513
 30
0.0
 11
2544.312388167246
 21
1455.133749628513
 31
0.0
  0
LINE
  5
2B0F
330
1F
100
AcDbEntity
  8
AM_VIS
100
AcDbLine
 10
2544.312388167246
 20
1461.383749628513
 30
0.0
 11
2587.812388167245
 21
1461.383749628513
 31
0.0
  0
LINE
  5
2B10
330
1F
100
AcDbEntity
  8
AM_VIS
100
AcDbLine
 10
2587.812388167245
 20
1444.133749628513
 30
0.0
 11
2587.812388167245
 21
1444.633749628513
 31
0.0
  0
LINE
  5
2B11
330
1F
100
AcDbEntity
  8
AM_VIS
100
AcDbLine
 10
2587.812388167245
 20
1461.383749628513
 30
0.0
 11
2587.812388167245
 21
1444.633749628513
 31
0.0
  0
LINE
  5
2B12
330
1F
100
AcDbEntity
  8
AM_VIS
100
AcDbLine
 10
2587.812388167245
 20
1461.383749628513
 30
0.0
 11
2587.812388167245
 21
1461.883749628513
 31
0.0
  0
LINE
  5
2B13
330
1F
100
AcDbEntity
  8
AM_VIS
100
AcDbLine
 10
2587.812388167245
 20
1462.233749628513
 30
0.0
 11
2587.812388167245
 21
1461.883749628513
 31
0.0
  0
LINE
  5
2B14
330
1F
100
AcDbEntity
  8
AM_VIS
100
AcDbLine
 10
2587.812388167245
 20
1464.583749628513
 30
0.0
 11
2587.812388167245
 21
1463.683749628513
 31
0.0
  0
LINE
  5
2B15
330
1F
100
AcDbEntity
  8
AM_VIS
100
AcDbLine
 10
2587.812388167245
 20
1466.383749628513
 30
0.0
 11
2587.812388167245
 21
1466.033749628513
 31
0.0
  0
LINE
  5
2B16
330
1F
100
AcDbEntity
  8
AM_VIS
100
AcDbLine
 10
2587.812388167245
 20
1466.383749628513
 30
0.0
 11
2587.812388167245
 21
1466.883749628513
 31
0.0
  0
LINE
  5
2B17
330
1F
100
AcDbEntity
  8
AM_VIS
100
AcDbLine
 10
2587.812388167245
 20
1483.633749628513
 30
0.0
 11
2587.812388167245
 21
1466.883749628513
 31
0.0
  0
LINE
  5
2B18
330
1F
100
AcDbEntity
  8
AM_VIS
100
AcDbLine
 10
2587.812388167245
 20
1483.633749628513
 30
0.0
 11
2587.812388167245
 21
1484.133749628513
 31
0.0
  0
LINE
  5
2B19
330
1F
100
AcDbEntity
  8
AM_VIS
100
AcDbLine
 10
2544.312388167246
 20
1465.833749628513
 30
0.0
 11
2544.312388167246
 21
1466.033749628513
 31
0.0
  0
LINE
  5
2B1A
330
1F
100
AcDbEntity
  8
AM_VIS
100
AcDbLine
 10
2544.312388167246
 20
1465.833749628513
 30
0.0
 11
2544.312388167246
 21
1464.583749628513
 31
0.0
  0
LINE
  5
2B1B
330
1F
100
AcDbEntity
  8
AM_VIS
100
AcDbLine
 10
2544.312388167246
 20
1463.683749628513
 30
0.0
 11
2544.312388167246
 21
1462.433749628513
 31
0.0
  0
LINE
  5
2B1C
330
1F
100
AcDbEntity
  8
AM_VIS
100
AcDbLine
 10
2544.312388167246
 20
1462.233749628513
 30
0.0
 11
2544.312388167246
 21
1462.433749628513
 31
0.0
  0
LINE
  5
2B21
330
1F
100
AcDbEntity
  8
AM_VIS
100
AcDbLine
 10
2587.812388167245
 20
1462.433749628513
 30
0.0
 11
2587.812388167245
 21
1462.233749628513
 31
0.0
  0
LINE
  5
2B22
330
1F
100
AcDbEntity
  8
AM_VIS
100
AcDbLine
 10
2587.812388167245
 20
1462.433749628513
 30
0.0
 11
2587.812388167245
 21
1463.683749628513
 31
0.0
  0
LINE
  5
2B23
330
1F
100
AcDbEntity
  8
AM_VIS
100
AcDbLine
 10
2587.812388167245
 20
1464.583749628513
 30
0.0
 11
2587.812388167245
 21
1465.833749628513
 31
0.0
  0
LINE
  5
2B24
330
1F
100
AcDbEntity
  8
AM_VIS
100
AcDbLine
 10
2587.812388167245
 20
1466.033749628513
 30
0.0
 11
2587.812388167245
 21
1465.833749628513
 31
0.0
  0
LINE
  5
2B25
330
1F
100
AcDbEntity
  8
AM_VIS
100
AcDbLine
 10
2542.904929024191
 20
1460.733749628513
 30
0.0
 11
2542.904929024191
 21
1455.633749628513
 31
0.0
  0
LINE
  5
2B26
330
1F
100
AcDbEntity
  8
AM_VIS
100
AcDbLine
 10
2542.904929024191
 20
1460.733749628513
 30
0.0
 11
2540.543687032425
 21
1460.733749628513
 31
0.0
  0
LINE
  5
2B27
330
1F
100
AcDbEntity
  8
AM_VIS
100
AcDbLine
 10
2533.45996105713
 20
1460.633749628513
 30
0.0
 11
2533.45996105713
 21
1455.633749628513
 31
0.0
  0
LINE
  5
2B28
330
1F
100
AcDbEntity
  8
AM_VIS
100
AcDbLine
 10
2539.812388167245
 20
1460.733749628513
 30
0.0
 11
2540.543687032425
 21
1460.733749628513
 31
0.0
  0
LINE
  5
2B29
330
1F
100
AcDbEntity
  8
AM_VIS
100
AcDbLine
 10
2540.543687032425
 20
1460.733749628513
 30
0.0
 11
2540.543687032425
 21
1455.633749628513
 31
0.0
  0
LINE
  5
2B2A
330
1F
100
AcDbEntity
  8
AM_VIS
100
AcDbLine
 10
2535.821203048894
 20
1455.633749628513
 30
0.0
 11
2535.821203048894
 21
1460.633749628513
 31
0.0
  0
LINE
  5
2B2B
330
1F
100
AcDbEntity
  8
AM_VIS
100
AcDbLine
 10
2533.45996105713
 20
1455.633749628513
 30
0.0
 11
2531.812388167246
 21
1455.633749628513
 31
0.0
  0
LINE
  5
2B2C
330
1F
100
AcDbEntity
  8
AM_VIS
100
AcDbLine
 10
2526.812388167245
 20
1455.633749628513
 30
0.0
 11
2522.812388167246
 21
1455.633749628513
 31
0.0
  0
LINE
  5
2B2D
330
1F
100
AcDbEntity
  8
AM_VIS
100
AcDbLine
 10
2535.821203048894
 20
1455.633749628513
 30
0.0
 11
2533.45996105713
 21
1455.633749628513
 31
0.0
  0
LINE
  5
2B2E
330
1F
100
AcDbEntity
  8
AM_VIS
100
AcDbLine
 10
2540.543687032425
 20
1455.633749628513
 30
0.0
 11
2539.812388167245
 21
1455.633749628513
 31
0.0
  0
LINE
  5
2B2F
330
1F
100
AcDbEntity
  8
AM_VIS
100
AcDbLine
 10
2542.904929024191
 20
1455.633749628513
 30
0.0
 11
2540.543687032425
 21
1455.633749628513
 31
0.0
  0
LINE
  5
2B30
330
1F
100
AcDbEntity
  8
AM_VIS
100
AcDbLine
 10
2538.798421212425
 20
1461.133749628513
 30
0.0
 11
2544.112388167246
 21
1461.133749628513
 31
0.0
  0
LINE
  5
2B31
330
1F
100
AcDbEntity
  8
AM_VIS
100
AcDbLine
 10
2544.112388167246
 20
1467.133749628513
 30
0.0
 11
2538.798421212425
 21
1467.133749628513
 31
0.0
  0
LINE
  5
2B32
330
1F
100
AcDbEntity
  8
AM_VIS
100
AcDbLine
 10
2544.112388167246
 20
1456.633749628513
 30
0.0
 11
2544.312388167246
 21
1456.433749628513
 31
0.0
  0
LINE
  5
2B33
330
1F
100
AcDbEntity
  8
AM_VIS
100
AcDbLine
 10
2544.112388167246
 20
1471.633749628513
 30
0.0
 11
2544.312388167246
 21
1471.833749628513
 31
0.0
  0
LINE
  5
2B34
330
1F
100
AcDbEntity
  8
AM_VIS
100
AcDbLine
 10
2544.112388167246
 20
1456.633749628513
 30
0.0
 11
2544.112388167246
 21
1461.133749628513
 31
0.0
  0
LINE
  5
2B35
330
1F
100
AcDbEntity
  8
AM_VIS
100
AcDbLine
 10
2544.112388167246
 20
1461.133749628513
 30
0.0
 11
2544.112388167246
 21
1467.133749628513
 31
0.0
  0
LINE
  5
2B36
330
1F
100
AcDbEntity
  8
AM_VIS
100
AcDbLine
 10
2544.112388167246
 20
1467.133749628513
 30
0.0
 11
2544.112388167246
 21
1471.633749628513
 31
0.0
  0
LINE
  5
2B37
330
1F
100
AcDbEntity
  8
AM_VIS
100
AcDbLine
 10
2502.312388167246
 20
1460.633749628513
 30
0.0
 11
2502.312388167246
 21
1454.133749628513
 31
0.0
  0
LINE
  5
2B38
330
1F
100
AcDbEntity
  8
AM_VIS
100
AcDbLine
 10
2517.812388167246
 20
1460.633749628513
 30
0.0
 11
2517.812388167246
 21
1454.133749628513
 31
0.0
  0
LINE
  5
2B39
330
1F
100
AcDbEntity
  8
AM_VIS
100
AcDbLine
 10
2505.467643589888
 20
1460.633749628513
 30
0.0
 11
2502.312388167246
 21
1460.633749628513
 31
0.0
  0
LINE
  5
2B3A
330
1F
100
AcDbEntity
  8
AM_VIS
100
AcDbLine
 10
2501.812388167246
 20
1460.633749628513
 30
0.0
 11
2502.312388167246
 21
1460.633749628513
 31
0.0
  0
LINE
  5
2B3B
330
1F
100
AcDbEntity
  8
AM_VIS
100
AcDbLine
 10
2522.812388167246
 20
1454.133749628513
 30
0.0
 11
2522.812388167246
 21
1460.633749628513
 31
0.0
  0
LINE
  5
2B3C
330
1F
100
AcDbEntity
  8
AM_VIS
100
AcDbLine
 10
2533.213570588423
 20
1460.633749628513
 30
0.0
 11
2538.798421212425
 21
1460.633749628513
 31
0.0
  0
LINE
  5
2B3D
330
1F
100
AcDbEntity
  8
AM_VIS
100
AcDbLine
 10
2542.904929024191
 20
1467.533749628513
 30
0.0
 11
2542.904929024191
 21
1472.633749628513
 31
0.0
  0
LINE
  5
2B3E
330
1F
100
AcDbEntity
  8
AM_VIS
100
AcDbLine
 10
2538.798421212425
 20
1460.633749628513
 30
0.0
 11
2538.798421212425
 21
1467.533749628513
 31
0.0
  0
LINE
  5
2B3F
330
1F
100
AcDbEntity
  8
AM_VIS
100
AcDbLine
 10
2538.798421212425
 20
1467.533749628513
 30
0.0
 11
2542.904929024191
 21
1467.533749628513
 31
0.0
  0
LINE
  5
2B40
330
1F
100
AcDbEntity
  8
AM_VIS
100
AcDbLine
 10
2542.904929024191
 20
1472.633749628513
 30
0.0
 11
2533.213570588423
 21
1472.633749628513
 31
0.0
  0
LINE
  5
2B41
330
1F
100
AcDbEntity
  8
AM_VIS
100
AcDbLine
 10
2528.121500901833
 20
1460.633749628513
 30
0.0
 11
2505.467643589888
 21
1460.633749628513
 31
0.0
  0
LINE
  5
2B42
330
1F
100
AcDbEntity
  8
AM_VIS
100
AcDbLine
 10
2502.620087390767
 20
1467.633749628513
 30
0.0
 11
2502.620087390767
 21
1460.633749628513
 31
0.0
  0
LINE
  5
2B43
330
1F
100
AcDbEntity
  8
AM_VIS
100
AcDbLine
 10
2522.454520121596
 20
1467.633749628513
 30
0.0
 11
2519.688648681615
 21
1467.633749628513
 31
0.0
  0
LINE
  5
2B44
330
1F
100
AcDbEntity
  8
AM_VIS
100
AcDbLine
 10
2522.454520121596
 20
1472.633749628513
 30
0.0
 11
2522.454520121596
 21
1467.633749628513
 31
0.0
  0
LINE
  5
2B45
330
1F
100
AcDbEntity
  8
AM_VIS
100
AcDbLine
 10
2528.121500901833
 20
1472.633749628513
 30
0.0
 11
2522.454520121596
 21
1472.633749628513
 31
0.0
  0
LINE
  5
2B46
330
1F
100
AcDbEntity
  8
AM_VIS
100
AcDbLine
 10
2528.121500901833
 20
1472.633749628513
 30
0.0
 11
2528.121500901833
 21
1460.633749628513
 31
0.0
  0
LINE
  5
2B47
330
1F
100
AcDbEntity
  8
AM_VIS
100
AcDbLine
 10
2533.213570588423
 20
1472.633749628513
 30
0.0
 11
2528.121500901833
 21
1472.633749628513
 31
0.0
  0
LINE
  5
2B48
330
1F
100
AcDbEntity
  8
AM_VIS
100
AcDbLine
 10
2533.213570588423
 20
1460.633749628513
 30
0.0
 11
2533.213570588423
 21
1472.633749628513
 31
0.0
  0
LINE
  5
2B49
330
1F
100
AcDbEntity
  8
AM_VIS
100
AcDbLine
 10
2528.121500901833
 20
1460.633749628513
 30
0.0
 11
2533.213570588423
 21
1460.633749628513
 31
0.0
  0
LINE
  5
2B4A
330
1F
100
AcDbEntity
  8
AM_VIS
100
AcDbLine
 10
2497.512388167245
 20
1474.633749628513
 30
0.0
 11
2497.512388167245
 21
1474.133749628513
 31
0.0
  0
LINE
  5
2B4B
330
1F
100
AcDbEntity
  8
AM_VIS
100
AcDbLine
 10
2498.012388167246
 20
1474.133749628513
 30
0.0
 11
2498.012388167246
 21
1474.633749628513
 31
0.0
  0
LINE
  5
2B4C
330
1F
100
AcDbEntity
  8
AM_VIS
100
AcDbLine
 10
2517.818973022664
 20
1474.133749628513
 30
0.0
 11
2524.812388167246
 21
1474.133749628513
 31
0.0
  0
LINE
  5
2B4D
330
1F
100
AcDbEntity
  8
AM_VIS
100
AcDbLine
 10
2524.812388167246
 20
1474.633749628513
 30
0.0
 11
2524.812388167246
 21
1474.133749628513
 31
0.0
  0
LINE
  5
2B4E
330
1F
100
AcDbEntity
  8
AM_VIS
100
AcDbLine
 10
2525.312388167245
 20
1474.133749628513
 30
0.0
 11
2524.812388167246
 21
1474.133749628513
 31
0.0
  0
LINE
  5
2B4F
330
1F
100
AcDbEntity
  8
AM_VIS
100
AcDbLine
 10
2497.512388167245
 20
1454.133749628513
 30
0.0
 11
2497.512388167245
 21
1453.633749628513
 31
0.0
  0
LINE
  5
2B50
330
1F
100
AcDbEntity
  8
AM_VIS
100
AcDbLine
 10
2498.012388167246
 20
1453.633749628513
 30
0.0
 11
2498.012388167246
 21
1454.133749628513
 31
0.0
  0
LINE
  5
2B51
330
1F
100
AcDbEntity
  8
AM_VIS
100
AcDbLine
 10
2501.812388167246
 20
1454.133749628513
 30
0.0
 11
2524.812388167246
 21
1454.133749628513
 31
0.0
  0
LINE
  5
2B52
330
1F
100
AcDbEntity
  8
AM_VIS
100
AcDbLine
 10
2524.812388167246
 20
1454.133749628513
 30
0.0
 11
2524.812388167246
 21
1453.633749628513
 31
0.0
  0
LINE
  5
2B53
330
1F
100
AcDbEntity
  8
AM_VIS
100
AcDbLine
 10
2524.812388167246
 20
1454.133749628513
 30
0.0
 11
2525.312388167245
 21
1454.133749628513
 31
0.0
  0
LINE
  5
2B54
330
1F
100
AcDbEntity
  8
AM_VIS
100
AcDbLine
 10
2535.012388167245
 20
1473.033749628513
 30
0.0
 11
2534.812388167245
 21
1472.833749628513
 31
0.0
  0
LINE
  5
2B55
330
1F
100
AcDbEntity
  8
AM_VIS
100
AcDbLine
 10
2539.612388167245
 20
1473.033749628513
 30
0.0
 11
2539.812388167245
 21
1472.833749628513
 31
0.0
  0
LINE
  5
2B56
330
1F
100
AcDbEntity
  8
AM_VIS
100
AcDbLine
 10
2539.812388167245
 20
1455.433749628513
 30
0.0
 11
2539.812388167245
 21
1461.133749628513
 31
0.0
  0
LINE
  5
2B57
330
1F
100
AcDbEntity
  8
AM_VIS
100
AcDbLine
 10
2539.812388167245
 20
1467.133749628513
 30
0.0
 11
2539.812388167245
 21
1467.533749628513
 31
0.0
  0
LINE
  5
2B58
330
1F
100
AcDbEntity
  8
AM_VIS
100
AcDbLine
 10
2539.812388167245
 20
1472.633749628513
 30
0.0
 11
2539.812388167245
 21
1472.833749628513
 31
0.0
  0
LINE
  5
2B59
330
1F
100
AcDbEntity
  8
AM_VIS
100
AcDbLine
 10
2534.812388167245
 20
1455.433749628513
 30
0.0
 11
2534.812388167245
 21
1455.633749628513
 31
0.0
  0
LINE
  5
2B5A
330
1F
100
AcDbEntity
  8
AM_VIS
100
AcDbLine
 10
2534.812388167245
 20
1472.633749628513
 30
0.0
 11
2534.812388167245
 21
1472.833749628513
 31
0.0
  0
LINE
  5
2B5B
330
1F
100
AcDbEntity
  8
AM_VIS
100
AcDbLine
 10
2539.612388167245
 20
1455.233749628513
 30
0.0
 11
2539.812388167245
 21
1455.433749628513
 31
0.0
  0
LINE
  5
2B5C
330
1F
100
AcDbEntity
  8
AM_VIS
100
AcDbLine
 10
2535.012388167245
 20
1455.233749628513
 30
0.0
 11
2534.812388167245
 21
1455.433749628513
 31
0.0
  0
LINE
  5
2B5D
330
1F
100
AcDbEntity
  8
AM_VIS
100
AcDbLine
 10
2535.012388167245
 20
1473.033749628513
 30
0.0
 11
2539.612388167245
 21
1473.033749628513
 31
0.0
  0
LINE
  5
2B5E
330
1F
100
AcDbEntity
  8
AM_VIS
100
AcDbLine
 10
2539.812388167245
 20
1472.833749628513
 30
0.0
 11
2534.812388167245
 21
1472.833749628513
 31
0.0
  0
LINE
  5
2B5F
330
1F
100
AcDbEntity
  8
AM_VIS
100
AcDbLine
 10
2534.812388167245
 20
1455.433749628513
 30
0.0
 11
2539.812388167245
 21
1455.433749628513
 31
0.0
  0
LINE
  5
2B60
330
1F
100
AcDbEntity
  8
AM_VIS
100
AcDbLine
 10
2539.612388167245
 20
1455.233749628513
 30
0.0
 11
2535.012388167245
 21
1455.233749628513
 31
0.0
  0
LINE
  5
2B61
330
1F
100
AcDbEntity
  8
AM_VIS
100
AcDbLine
 10
2517.818973022664
 20
1474.133749628513
 30
0.0
 11
2517.812388167246
 21
1474.133749628513
 31
0.0
  0
LINE
  5
2B62
330
1F
100
AcDbEntity
  8
AM_VIS
100
AcDbLine
 10
2522.812388167246
 20
1472.633749628513
 30
0.0
 11
2522.812388167246
 21
1474.133749628513
 31
0.0
  0
LINE
  5
2B63
330
1F
100
AcDbEntity
  8
AM_VIS
100
AcDbLine
 10
2517.812388167246
 20
1467.633749628513
 30
0.0
 11
2519.688648681615
 21
1467.633749628513
 31
0.0
  0
LINE
  5
2B64
330
1F
100
AcDbEntity
  8
AM_VIS
100
AcDbLine
 10
2501.812388167246
 20
1467.633749628513
 30
0.0
 11
2517.812388167246
 21
1467.633749628513
 31
0.0
  0
LINE
  5
2B65
330
1F
100
AcDbEntity
  8
AM_VIS
100
AcDbLine
 10
2501.812388167246
 20
1454.133749628513
 30
0.0
 11
2501.812388167246
 21
1467.633749628513
 31
0.0
  0
LINE
  5
2B66
330
1F
100
AcDbEntity
  8
AM_VIS
100
AcDbLine
 10
2501.812388167246
 20
1454.133749628513
 30
0.0
 11
2467.312388167246
 21
1454.133749628513
 31
0.0
  0
LINE
  5
2B67
330
1F
100
AcDbEntity
  8
AM_VIS
100
AcDbLine
 10
2467.312388167246
 20
1474.133749628513
 30
0.0
 11
2467.312388167246
 21
1454.133749628513
 31
0.0
  0
LINE
  5
2B68
330
1F
100
AcDbEntity
  8
AM_VIS
100
AcDbLine
 10
2517.812388167246
 20
1474.133749628513
 30
0.0
 11
2467.312388167246
 21
1474.133749628513
 31
0.0
  0
LINE
  5
2B69
330
1F
100
AcDbEntity
  8
AM_VIS
100
AcDbLine
 10
2517.812388167246
 20
1474.133749628513
 30
0.0
 11
2517.812388167246
 21
1467.633749628513
 31
0.0
  0
LINE
  5
2B6E
330
1F
100
AcDbEntity
  8
AM_VIS
100
AcDbLine
 10
2526.812388167245
 20
1473.133749628513
 30
0.0
 11
2526.812388167245
 21
1472.633749628513
 31
0.0
  0
LINE
  5
2B6F
330
1F
100
AcDbEntity
  8
AM_VIS
100
AcDbLine
 10
2526.812388167245
 20
1460.633749628513
 30
0.0
 11
2526.812388167245
 21
1455.133749628513
 31
0.0
  0
LINE
  5
2B70
330
1F
100
AcDbEntity
  8
AM_VIS
100
AcDbLine
 10
2531.812388167246
 20
1473.133749628513
 30
0.0
 11
2531.812388167246
 21
1472.633749628513
 31
0.0
  0
LINE
  5
2B71
330
1F
100
AcDbEntity
  8
AM_VIS
100
AcDbLine
 10
2531.812388167246
 20
1460.633749628513
 30
0.0
 11
2531.812388167246
 21
1455.133749628513
 31
0.0
  0
LINE
  5
2B72
330
1F
100
AcDbEntity
  8
AM_VIS
100
AcDbLine
 10
2525.312388167245
 20
1290.420644364902
 30
0.0
 11
2525.312388167245
 21
1288.920644364902
 31
0.0
  0
LINE
  5
2B73
330
1F
100
AcDbEntity
  8
AM_VIS
100
AcDbLine
 10
2497.312388167245
 20
1290.420644364902
 30
0.0
 11
2525.312388167245
 21
1290.420644364902
 31
0.0
  0
LINE
  5
2B74
330
1F
100
AcDbEntity
  8
AM_VIS
100
AcDbLine
 10
2525.312388167245
 20
1288.920644364902
 30
0.0
 11
2544.312388167246
 21
1288.920644364902
 31
0.0
  0
LINE
  5
2B75
330
1F
100
AcDbEntity
  8
AM_VIS
100
AcDbLine
 10
2497.312388167245
 20
1299.420644364903
 30
0.0
 11
2497.312388167245
 21
1290.420644364903
 31
0.0
  0
LINE
  5
2B76
330
1F
100
AcDbEntity
  8
AM_VIS
100
AcDbLine
 10
2497.312388167245
 20
1269.420644364902
 30
0.0
 11
2497.312388167245
 21
1260.420644364902
 31
0.0
  0
LINE
  5
2B77
330
1F
100
AcDbEntity
  8
AM_VIS
100
AcDbLine
 10
2525.312388167245
 20
1269.420644364902
 30
0.0
 11
2497.312388167245
 21
1269.420644364902
 31
0.0
  0
LINE
  5
2B78
330
1F
100
AcDbEntity
  8
AM_VIS
100
AcDbLine
 10
2525.312388167245
 20
1270.920644364902
 30
0.0
 11
2525.312388167245
 21
1269.420644364902
 31
0.0
  0
LINE
  5
2B79
330
1F
100
AcDbEntity
  8
AM_VIS
100
AcDbLine
 10
2544.312388167246
 20
1270.920644364902
 30
0.0
 11
2525.312388167245
 21
1270.920644364902
 31
0.0
  0
LINE
  5
2B7A
330
1F
100
AcDbEntity
  8
AM_VIS
100
AcDbLine
 10
2497.312388167245
 20
1259.920644364902
 30
0.0
 11
2587.812388167245
 21
1259.920644364902
 31
0.0
  0
LINE
  5
2B7B
330
1F
100
AcDbEntity
  8
AM_VIS
100
AcDbLine
 10
2497.312388167245
 20
1260.420644364902
 30
0.0
 11
2497.312388167245
 21
1259.920644364902
 31
0.0
  0
LINE
  5
2B7C
330
1F
100
AcDbEntity
  8
AM_VIS
100
AcDbLine
 10
2497.312388167245
 20
1299.920644364903
 30
0.0
 11
2497.312388167245
 21
1299.420644364903
 31
0.0
  0
LINE
  5
2B7D
330
1F
100
AcDbEntity
  8
AM_VIS
100
AcDbLine
 10
2587.812388167245
 20
1282.670644364902
 30
0.0
 11
2544.312388167246
 21
1282.670644364902
 31
0.0
  0
LINE
  5
2B7E
330
1F
100
AcDbEntity
  8
AM_VIS
100
AcDbLine
 10
2544.312388167246
 20
1277.170644364902
 30
0.0
 11
2587.812388167245
 21
1277.170644364902
 31
0.0
  0
LINE
  5
2B7F
330
1F
100
AcDbEntity
  8
AM_VIS
100
AcDbLine
 10
2544.312388167246
 20
1277.170644364902
 30
0.0
 11
2544.312388167246
 21
1270.920644364902
 31
0.0
  0
LINE
  5
2B80
330
1F
100
AcDbEntity
  8
AM_VIS
100
AcDbLine
 10
2544.312388167246
 20
1288.920644364902
 30
0.0
 11
2544.312388167246
 21
1282.670644364902
 31
0.0
  0
LINE
  5
2B81
330
1F
100
AcDbEntity
  8
AM_VIS
100
AcDbLine
 10
2544.312388167246
 20
1282.670644364903
 30
0.0
 11
2544.312388167246
 21
1282.170644364903
 31
0.0
  0
LINE
  5
2B82
330
1F
100
AcDbEntity
  8
AM_VIS
100
AcDbLine
 10
2544.312388167246
 20
1282.170644364902
 30
0.0
 11
2544.312388167246
 21
1281.820644364902
 31
0.0
  0
LINE
  5
2B83
330
1F
100
AcDbEntity
  8
AM_VIS
100
AcDbLine
 10
2544.312388167246
 20
1280.370644364902
 30
0.0
 11
2544.312388167246
 21
1279.470644364902
 31
0.0
  0
LINE
  5
2B84
330
1F
100
AcDbEntity
  8
AM_VIS
100
AcDbLine
 10
2544.312388167246
 20
1278.020644364902
 30
0.0
 11
2544.312388167246
 21
1277.670644364902
 31
0.0
  0
LINE
  5
2B85
330
1F
100
AcDbEntity
  8
AM_VIS
100
AcDbLine
 10
2544.312388167246
 20
1277.670644364902
 30
0.0
 11
2544.312388167246
 21
1277.170644364902
 31
0.0
  0
LINE
  5
2B86
330
1F
100
AcDbEntity
  8
AM_VIS
100
AcDbLine
 10
2587.812388167245
 20
1299.920644364903
 30
0.0
 11
2497.312388167245
 21
1299.920644364903
 31
0.0
  0
LINE
  5
2B87
330
1F
100
AcDbEntity
  8
AM_VIS
100
AcDbLine
 10
2587.812388167245
 20
1278.020644364902
 30
0.0
 11
2587.812388167245
 21
1277.670644364902
 31
0.0
  0
LINE
  5
2B88
330
1F
100
AcDbEntity
  8
AM_VIS
100
AcDbLine
 10
2587.812388167245
 20
1280.370644364902
 30
0.0
 11
2587.812388167245
 21
1279.470644364902
 31
0.0
  0
LINE
  5
2B89
330
1F
100
AcDbEntity
  8
AM_VIS
100
AcDbLine
 10
2587.812388167245
 20
1282.170644364902
 30
0.0
 11
2587.812388167245
 21
1281.820644364902
 31
0.0
  0
LINE
  5
2B8A
330
1F
100
AcDbEntity
  8
AM_VIS
100
AcDbLine
 10
2587.812388167245
 20
1282.170644364903
 30
0.0
 11
2587.812388167245
 21
1282.670644364903
 31
0.0
  0
LINE
  5
2B8B
330
1F
100
AcDbEntity
  8
AM_VIS
100
AcDbLine
 10
2587.812388167245
 20
1299.420644364903
 30
0.0
 11
2587.812388167245
 21
1282.670644364903
 31
0.0
  0
LINE
  5
2B8C
330
1F
100
AcDbEntity
  8
AM_VIS
100
AcDbLine
 10
2587.812388167245
 20
1299.420644364903
 30
0.0
 11
2587.812388167245
 21
1299.920644364903
 31
0.0
  0
LINE
  5
2B8D
330
1F
100
AcDbEntity
  8
AM_VIS
100
AcDbLine
 10
2587.812388167245
 20
1259.920644364902
 30
0.0
 11
2587.812388167245
 21
1260.420644364902
 31
0.0
  0
LINE
  5
2B8E
330
1F
100
AcDbEntity
  8
AM_VIS
100
AcDbLine
 10
2587.812388167245
 20
1277.170644364902
 30
0.0
 11
2587.812388167245
 21
1260.420644364902
 31
0.0
  0
LINE
  5
2B8F
330
1F
100
AcDbEntity
  8
AM_VIS
100
AcDbLine
 10
2587.812388167245
 20
1277.170644364902
 30
0.0
 11
2587.812388167245
 21
1277.670644364902
 31
0.0
  0
CIRCLE
  5
2B90
330
1F
100
AcDbEntity
  8
AM_VIS
100
AcDbCircle
 10
2577.312388167245
 20
1291.920644364902
 30
0.0
 40
4.25
  0
CIRCLE
  5
2B97
330
1F
100
AcDbEntity
  8
AM_VIS
100
AcDbCircle
 10
2552.812388167246
 20
1267.920644364902
 30
0.0
 40
4.25
  0
LINE
  5
2B98
330
1F
100
AcDbEntity
  8
AM_VIS
100
AcDbLine
 10
2544.312388167246
 20
1281.620644364902
 30
0.0
 11
2544.312388167246
 21
1281.820644364902
 31
0.0
  0
LINE
  5
2B99
330
1F
100
AcDbEntity
  8
AM_VIS
100
AcDbLine
 10
2544.312388167246
 20
1281.620644364902
 30
0.0
 11
2544.312388167246
 21
1280.370644364902
 31
0.0
  0
LINE
  5
2B9A
330
1F
100
AcDbEntity
  8
AM_VIS
100
AcDbLine
 10
2544.312388167246
 20
1279.470644364902
 30
0.0
 11
2544.312388167246
 21
1278.220644364903
 31
0.0
  0
LINE
  5
2B9B
330
1F
100
AcDbEntity
  8
AM_VIS
100
AcDbLine
 10
2544.312388167246
 20
1278.020644364902
 30
0.0
 11
2544.312388167246
 21
1278.220644364903
 31
0.0
  0
LINE
  5
2B9C
330
1F
100
AcDbEntity
  8
AM_VIS
100
AcDbLine
 10
2587.812388167245
 20
1278.220644364903
 30
0.0
 11
2587.812388167245
 21
1278.020644364902
 31
0.0
  0
LINE
  5
2B9D
330
1F
100
AcDbEntity
  8
AM_VIS
100
AcDbLine
 10
2587.812388167245
 20
1278.220644364903
 30
0.0
 11
2587.812388167245
 21
1279.470644364902
 31
0.0
  0
LINE
  5
2B9E
330
1F
100
AcDbEntity
  8
AM_VIS
100
AcDbLine
 10
2587.812388167245
 20
1280.370644364902
 30
0.0
 11
2587.812388167245
 21
1281.620644364902
 31
0.0
  0
LINE
  5
2B9F
330
1F
100
AcDbEntity
  8
AM_VIS
100
AcDbLine
 10
2587.812388167245
 20
1281.820644364902
 30
0.0
 11
2587.812388167245
 21
1281.620644364902
 31
0.0
  0
LINE
  5
2BA0
330
1F
100
AcDbEntity
  8
AM_VIS
100
AcDbLine
 10
2533.213570588423
 20
1276.420644364902
 30
0.0
 11
2538.798421212425
 21
1276.420644364902
 31
0.0
  0
LINE
  5
2BA1
330
1F
100
AcDbEntity
  8
AM_VIS
100
AcDbLine
 10
2542.904929024191
 20
1283.320644364902
 30
0.0
 11
2542.904929024191
 21
1288.420644364902
 31
0.0
  0
LINE
  5
2BA2
330
1F
100
AcDbEntity
  8
AM_VIS
100
AcDbLine
 10
2538.798421212425
 20
1276.420644364902
 30
0.0
 11
2538.798421212425
 21
1283.320644364902
 31
0.0
  0
LINE
  5
2BA3
330
1F
100
AcDbEntity
  8
AM_VIS
100
AcDbLine
 10
2538.798421212425
 20
1283.320644364902
 30
0.0
 11
2542.904929024191
 21
1283.320644364902
 31
0.0
  0
LINE
  5
2BA4
330
1F
100
AcDbEntity
  8
AM_VIS
100
AcDbLine
 10
2542.904929024191
 20
1288.420644364902
 30
0.0
 11
2533.213570588423
 21
1288.420644364903
 31
0.0
  0
LINE
  5
2BA5
330
1F
100
AcDbEntity
  8
AM_VIS
100
AcDbLine
 10
2528.121500901833
 20
1276.420644364902
 30
0.0
 11
2505.467643589888
 21
1276.420644364902
 31
0.0
  0
LINE
  5
2BA6
330
1F
100
AcDbEntity
  8
AM_VIS
100
AcDbLine
 10
2502.620087390767
 20
1283.420644364903
 30
0.0
 11
2502.620087390767
 21
1276.420644364903
 31
0.0
  0
LINE
  5
2BA7
330
1F
100
AcDbEntity
  8
AM_VIS
100
AcDbLine
 10
2522.454520121596
 20
1283.420644364902
 30
0.0
 11
2519.688648681615
 21
1283.420644364902
 31
0.0
  0
LINE
  5
2BA8
330
1F
100
AcDbEntity
  8
AM_VIS
100
AcDbLine
 10
2522.454520121597
 20
1288.420644364903
 30
0.0
 11
2522.454520121597
 21
1283.420644364903
 31
0.0
  0
LINE
  5
2BA9
330
1F
100
AcDbEntity
  8
AM_VIS
100
AcDbLine
 10
2528.121500901833
 20
1288.420644364902
 30
0.0
 11
2522.454520121597
 21
1288.420644364902
 31
0.0
  0
LINE
  5
2BAA
330
1F
100
AcDbEntity
  8
AM_VIS
100
AcDbLine
 10
2528.121500901833
 20
1288.420644364902
 30
0.0
 11
2528.121500901833
 21
1276.420644364902
 31
0.0
  0
LINE
  5
2BAB
330
1F
100
AcDbEntity
  8
AM_VIS
100
AcDbLine
 10
2533.213570588423
 20
1288.420644364902
 30
0.0
 11
2528.121500901833
 21
1288.420644364903
 31
0.0
  0
LINE
  5
2BAC
330
1F
100
AcDbEntity
  8
AM_VIS
100
AcDbLine
 10
2533.213570588423
 20
1276.420644364902
 30
0.0
 11
2533.213570588423
 21
1288.420644364902
 31
0.0
  0
LINE
  5
2BAD
330
1F
100
AcDbEntity
  8
AM_VIS
100
AcDbLine
 10
2528.121500901833
 20
1276.420644364902
 30
0.0
 11
2533.213570588423
 21
1276.420644364902
 31
0.0
  0
LINE
  5
2BAE
330
1F
100
AcDbEntity
  8
AM_VIS
100
AcDbLine
 10
2544.112388167246
 20
1282.920644364903
 30
0.0
 11
2538.798421212425
 21
1282.920644364903
 31
0.0
  0
LINE
  5
2BAF
330
1F
100
AcDbEntity
  8
AM_VIS
100
AcDbLine
 10
2538.798421212425
 20
1276.920644364903
 30
0.0
 11
2544.112388167246
 21
1276.920644364903
 31
0.0
  0
LINE
  5
2BB0
330
1F
100
AcDbEntity
  8
AM_VIS
100
AcDbLine
 10
2544.112388167246
 20
1272.420644364903
 30
0.0
 11
2544.312388167246
 21
1272.220644364902
 31
0.0
  0
LINE
  5
2BB1
330
1F
100
AcDbEntity
  8
AM_VIS
100
AcDbLine
 10
2544.112388167246
 20
1287.420644364902
 30
0.0
 11
2544.312388167246
 21
1287.620644364903
 31
0.0
  0
LINE
  5
2BB2
330
1F
100
AcDbEntity
  8
AM_VIS
100
AcDbLine
 10
2544.112388167246
 20
1282.920644364903
 30
0.0
 11
2544.112388167246
 21
1287.420644364902
 31
0.0
  0
LINE
  5
2BB3
330
1F
100
AcDbEntity
  8
AM_VIS
100
AcDbLine
 10
2544.112388167246
 20
1276.920644364903
 30
0.0
 11
2544.112388167246
 21
1282.920644364903
 31
0.0
  0
LINE
  5
2BB4
330
1F
100
AcDbEntity
  8
AM_VIS
100
AcDbLine
 10
2544.112388167246
 20
1272.420644364903
 30
0.0
 11
2544.112388167246
 21
1276.920644364903
 31
0.0
  0
LINE
  5
2BB5
330
1F
100
AcDbEntity
  8
AM_VIS
100
AcDbLine
 10
2517.818973022664
 20
1289.920644364902
 30
0.0
 11
2517.812388167246
 21
1289.920644364902
 31
0.0
  0
LINE
  5
2BB6
330
1F
100
AcDbEntity
  8
AM_VIS
100
AcDbLine
 10
2522.812388167246
 20
1288.420644364902
 30
0.0
 11
2522.812388167246
 21
1289.920644364902
 31
0.0
  0
LINE
  5
2BB7
330
1F
100
AcDbEntity
  8
AM_VIS
100
AcDbLine
 10
2517.812388167246
 20
1283.420644364902
 30
0.0
 11
2519.688648681615
 21
1283.420644364902
 31
0.0
  0
LINE
  5
2BB8
330
1F
100
AcDbEntity
  8
AM_VIS
100
AcDbLine
 10
2501.812388167246
 20
1283.420644364902
 30
0.0
 11
2517.812388167246
 21
1283.420644364902
 31
0.0
  0
LINE
  5
2BB9
330
1F
100
AcDbEntity
  8
AM_VIS
100
AcDbLine
 10
2501.812388167246
 20
1269.920644364902
 30
0.0
 11
2501.812388167246
 21
1283.420644364902
 31
0.0
  0
LINE
  5
2BBA
330
1F
100
AcDbEntity
  8
AM_VIS
100
AcDbLine
 10
2501.812388167246
 20
1269.920644364902
 30
0.0
 11
2467.312388167246
 21
1269.920644364902
 31
0.0
  0
LINE
  5
2BBB
330
1F
100
AcDbEntity
  8
AM_VIS
100
AcDbLine
 10
2467.312388167246
 20
1289.920644364902
 30
0.0
 11
2467.312388167246
 21
1269.920644364902
 31
0.0
  0
LINE
  5
2BBC
330
1F
100
AcDbEntity
  8
AM_VIS
100
AcDbLine
 10
2517.812388167246
 20
1289.920644364902
 30
0.0
 11
2467.312388167246
 21
1289.920644364902
 31
0.0
  0
LINE
  5
2BBD
330
1F
100
AcDbEntity
  8
AM_VIS
100
AcDbLine
 10
2517.812388167246
 20
1289.920644364902
 30
0.0
 11
2517.812388167246
 21
1283.420644364902
 31
0.0
  0
LINE
  5
2BC4
330
1F
100
AcDbEntity
  8
AM_VIS
100
AcDbLine
 10
2542.904929024191
 20
1276.520644364903
 30
0.0
 11
2542.904929024191
 21
1271.420644364902
 31
0.0
  0
LINE
  5
2BC5
330
1F
100
AcDbEntity
  8
AM_VIS
100
AcDbLine
 10
2542.904929024191
 20
1276.520644364903
 30
0.0
 11
2540.543687032425
 21
1276.520644364903
 31
0.0
  0
LINE
  5
2BC6
330
1F
100
AcDbEntity
  8
AM_VIS
100
AcDbLine
 10
2533.45996105713
 20
1276.420644364902
 30
0.0
 11
2533.45996105713
 21
1271.420644364902
 31
0.0
  0
LINE
  5
2BC7
330
1F
100
AcDbEntity
  8
AM_VIS
100
AcDbLine
 10
2539.812388167245
 20
1276.520644364903
 30
0.0
 11
2540.543687032425
 21
1276.520644364903
 31
0.0
  0
LINE
  5
2BC8
330
1F
100
AcDbEntity
  8
AM_VIS
100
AcDbLine
 10
2540.543687032425
 20
1276.520644364903
 30
0.0
 11
2540.543687032425
 21
1271.420644364902
 31
0.0
  0
LINE
  5
2BC9
330
1F
100
AcDbEntity
  8
AM_VIS
100
AcDbLine
 10
2535.821203048894
 20
1271.420644364902
 30
0.0
 11
2535.821203048894
 21
1276.420644364903
 31
0.0
  0
LINE
  5
2BCA
330
1F
100
AcDbEntity
  8
AM_VIS
100
AcDbLine
 10
2533.45996105713
 20
1271.420644364902
 30
0.0
 11
2531.812388167246
 21
1271.420644364902
 31
0.0
  0
LINE
  5
2BCB
330
1F
100
AcDbEntity
  8
AM_VIS
100
AcDbLine
 10
2526.812388167245
 20
1271.420644364902
 30
0.0
 11
2522.812388167246
 21
1271.420644364902
 31
0.0
  0
LINE
  5
2BCC
330
1F
100
AcDbEntity
  8
AM_VIS
100
AcDbLine
 10
2535.821203048894
 20
1271.420644364902
 30
0.0
 11
2533.45996105713
 21
1271.420644364902
 31
0.0
  0
LINE
  5
2BCD
330
1F
100
AcDbEntity
  8
AM_VIS
100
AcDbLine
 10
2540.543687032425
 20
1271.420644364902
 30
0.0
 11
2539.812388167245
 21
1271.420644364902
 31
0.0
  0
LINE
  5
2BCE
330
1F
100
AcDbEntity
  8
AM_VIS
100
AcDbLine
 10
2542.904929024191
 20
1271.420644364902
 30
0.0
 11
2540.543687032425
 21
1271.420644364902
 31
0.0
  0
LINE
  5
2BCF
330
1F
100
AcDbEntity
  8
AM_VIS
100
AcDbLine
 10
2497.512388167245
 20
1269.920644364902
 30
0.0
 11
2497.512388167245
 21
1269.420644364902
 31
0.0
  0
LINE
  5
2BD0
330
1F
100
AcDbEntity
  8
AM_VIS
100
AcDbLine
 10
2498.012388167246
 20
1269.420644364902
 30
0.0
 11
2498.012388167246
 21
1269.920644364902
 31
0.0
  0
LINE
  5
2BD1
330
1F
100
AcDbEntity
  8
AM_VIS
100
AcDbLine
 10
2524.812388167246
 20
1269.920644364902
 30
0.0
 11
2524.812388167246
 21
1269.420644364902
 31
0.0
  0
LINE
  5
2BD2
330
1F
100
AcDbEntity
  8
AM_VIS
100
AcDbLine
 10
2524.812388167246
 20
1269.920644364902
 30
0.0
 11
2501.812388167246
 21
1269.920644364902
 31
0.0
  0
LINE
  5
2BD3
330
1F
100
AcDbEntity
  8
AM_VIS
100
AcDbLine
 10
2524.812388167246
 20
1269.920644364902
 30
0.0
 11
2525.312388167245
 21
1269.920644364902
 31
0.0
  0
LINE
  5
2BD4
330
1F
100
AcDbEntity
  8
AM_VIS
100
AcDbLine
 10
2497.512388167245
 20
1290.420644364903
 30
0.0
 11
2497.512388167245
 21
1289.920644364903
 31
0.0
  0
LINE
  5
2BD5
330
1F
100
AcDbEntity
  8
AM_VIS
100
AcDbLine
 10
2524.812388167246
 20
1289.920644364903
 30
0.0
 11
2517.818973022664
 21
1289.920644364903
 31
0.0
  0
LINE
  5
2BD6
330
1F
100
AcDbEntity
  8
AM_VIS
100
AcDbLine
 10
2498.012388167246
 20
1289.920644364903
 30
0.0
 11
2498.012388167246
 21
1290.420644364903
 31
0.0
  0
LINE
  5
2BD7
330
1F
100
AcDbEntity
  8
AM_VIS
100
AcDbLine
 10
2524.812388167246
 20
1290.420644364903
 30
0.0
 11
2524.812388167246
 21
1289.920644364903
 31
0.0
  0
LINE
  5
2BD8
330
1F
100
AcDbEntity
  8
AM_VIS
100
AcDbLine
 10
2525.312388167245
 20
1289.920644364903
 30
0.0
 11
2524.812388167246
 21
1289.920644364903
 31
0.0
  0
LINE
  5
2BD9
330
1F
100
AcDbEntity
  8
AM_VIS
100
AcDbLine
 10
2539.612388167245
 20
1271.020644364903
 30
0.0
 11
2539.812388167245
 21
1271.220644364903
 31
0.0
  0
LINE
  5
2BDA
330
1F
100
AcDbEntity
  8
AM_VIS
100
AcDbLine
 10
2535.012388167245
 20
1271.020644364903
 30
0.0
 11
2534.812388167245
 21
1271.220644364903
 31
0.0
  0
LINE
  5
2BDB
330
1F
100
AcDbEntity
  8
AM_VIS
100
AcDbLine
 10
2534.812388167245
 20
1288.620644364903
 30
0.0
 11
2534.812388167245
 21
1288.420644364902
 31
0.0
  0
LINE
  5
2BDC
330
1F
100
AcDbEntity
  8
AM_VIS
100
AcDbLine
 10
2534.812388167245
 20
1271.420644364902
 30
0.0
 11
2534.812388167245
 21
1271.220644364903
 31
0.0
  0
LINE
  5
2BDD
330
1F
100
AcDbEntity
  8
AM_VIS
100
AcDbLine
 10
2539.812388167245
 20
1288.620644364903
 30
0.0
 11
2539.812388167245
 21
1288.420644364902
 31
0.0
  0
LINE
  5
2BDE
330
1F
100
AcDbEntity
  8
AM_VIS
100
AcDbLine
 10
2539.812388167245
 20
1283.320644364902
 30
0.0
 11
2539.812388167245
 21
1282.920644364903
 31
0.0
  0
LINE
  5
2BDF
330
1F
100
AcDbEntity
  8
AM_VIS
100
AcDbLine
 10
2539.812388167245
 20
1276.920644364903
 30
0.0
 11
2539.812388167245
 21
1271.220644364903
 31
0.0
  0
LINE
  5
2BE0
330
1F
100
AcDbEntity
  8
AM_VIS
100
AcDbLine
 10
2535.012388167245
 20
1288.820644364903
 30
0.0
 11
2534.812388167245
 21
1288.620644364903
 31
0.0
  0
LINE
  5
2BE1
330
1F
100
AcDbEntity
  8
AM_VIS
100
AcDbLine
 10
2539.612388167245
 20
1288.820644364903
 30
0.0
 11
2539.812388167245
 21
1288.620644364903
 31
0.0
  0
LINE
  5
2BE2
330
1F
100
AcDbEntity
  8
AM_VIS
100
AcDbLine
 10
2539.612388167245
 20
1271.020644364903
 30
0.0
 11
2535.012388167245
 21
1271.020644364903
 31
0.0
  0
LINE
  5
2BE3
330
1F
100
AcDbEntity
  8
AM_VIS
100
AcDbLine
 10
2534.812388167245
 20
1271.220644364903
 30
0.0
 11
2539.812388167245
 21
1271.220644364903
 31
0.0
  0
LINE
  5
2BE4
330
1F
100
AcDbEntity
  8
AM_VIS
100
AcDbLine
 10
2539.812388167245
 20
1288.620644364903
 30
0.0
 11
2534.812388167245
 21
1288.620644364903
 31
0.0
  0
LINE
  5
2BE5
330
1F
100
AcDbEntity
  8
AM_VIS
100
AcDbLine
 10
2535.012388167245
 20
1288.820644364903
 30
0.0
 11
2539.612388167245
 21
1288.820644364903
 31
0.0
  0
LINE
  5
2BE6
330
1F
100
AcDbEntity
  8
AM_VIS
100
AcDbLine
 10
2502.312388167246
 20
1276.420644364903
 30
0.0
 11
2502.312388167246
 21
1269.920644364902
 31
0.0
  0
LINE
  5
2BE7
330
1F
100
AcDbEntity
  8
AM_VIS
100
AcDbLine
 10
2517.812388167246
 20
1276.420644364903
 30
0.0
 11
2517.812388167246
 21
1269.920644364902
 31
0.0
  0
LINE
  5
2BE8
330
1F
100
AcDbEntity
  8
AM_VIS
100
AcDbLine
 10
2505.467643589888
 20
1276.420644364903
 30
0.0
 11
2502.312388167246
 21
1276.420644364903
 31
0.0
  0
LINE
  5
2BE9
330
1F
100
AcDbEntity
  8
AM_VIS
100
AcDbLine
 10
2501.812388167246
 20
1276.420644364903
 30
0.0
 11
2502.312388167246
 21
1276.420644364903
 31
0.0
  0
LINE
  5
2BEA
330
1F
100
AcDbEntity
  8
AM_VIS
100
AcDbLine
 10
2522.812388167246
 20
1269.920644364902
 30
0.0
 11
2522.812388167246
 21
1276.420644364903
 31
0.0
  0
LINE
  5
2BEB
330
1F
100
AcDbEntity
  8
AM_VIS
100
AcDbLine
 10
2531.812388167246
 20
1270.920644364902
 30
0.0
 11
2531.812388167246
 21
1276.420644364902
 31
0.0
  0
LINE
  5
2BEC
330
1F
100
AcDbEntity
  8
AM_VIS
100
AcDbLine
 10
2531.812388167246
 20
1288.420644364902
 30
0.0
 11
2531.812388167246
 21
1288.920644364902
 31
0.0
  0
LINE
  5
2BED
330
1F
100
AcDbEntity
  8
AM_VIS
100
AcDbLine
 10
2526.812388167245
 20
1270.920644364902
 30
0.0
 11
2526.812388167245
 21
1276.420644364902
 31
0.0
  0
LINE
  5
2BEE
330
1F
100
AcDbEntity
  8
AM_VIS
100
AcDbLine
 10
2526.812388167245
 20
1288.420644364902
 30
0.0
 11
2526.812388167245
 21
1288.920644364902
 31
0.0
  0
LINE
  5
2BEF
330
1F
100
AcDbEntity
  8
AM_VIS
100
AcDbLine
 10
2652.437168883457
 20
1352.882578897572
 30
0.0
 11
2652.437168883457
 21
1347.882578897572
 31
0.0
  0
LINE
  5
2BF0
330
1F
100
AcDbEntity
  8
AM_VIS
100
AcDbLine
 10
2652.087168883457
 20
1352.882578897572
 30
0.0
 11
2652.437168883457
 21
1352.882578897572
 31
0.0
  0
LINE
  5
2BF1
330
1F
100
AcDbEntity
  8
AM_VIS
100
AcDbLine
 10
2651.887168883457
 20
1353.782578897572
 30
0.0
 11
2651.887168883457
 21
1353.082578897572
 31
0.0
  0
LINE
  5
2BF2
330
1F
100
AcDbEntity
  8
AM_VIS
100
AcDbLine
 10
2652.337168883457
 20
1354.282578897572
 30
0.0
 11
2651.887168883457
 21
1353.782578897572
 31
0.0
  0
LINE
  5
2BF3
330
1F
100
AcDbEntity
  8
AM_VIS
100
AcDbLine
 10
2652.337168883457
 20
1356.382578897572
 30
0.0
 11
2652.337168883457
 21
1354.282578897572
 31
0.0
  0
LINE
  5
2BF4
330
1F
100
AcDbEntity
  8
AM_VIS
100
AcDbLine
 10
2649.737168883457
 20
1358.082578897572
 30
0.0
 11
2650.637168883457
 21
1358.082578897572
 31
0.0
  0
LINE
  5
2BF5
330
1F
100
AcDbEntity
  8
AM_VIS
100
AcDbLine
 10
2648.037168883457
 20
1354.282578897572
 30
0.0
 11
2648.037168883457
 21
1356.382578897572
 31
0.0
  0
LINE
  5
2BF6
330
1F
100
AcDbEntity
  8
AM_VIS
100
AcDbLine
 10
2648.487168883457
 20
1353.782578897572
 30
0.0
 11
2648.037168883457
 21
1354.282578897572
 31
0.0
  0
LINE
  5
2BF7
330
1F
100
AcDbEntity
  8
AM_VIS
100
AcDbLine
 10
2648.487168883457
 20
1353.082578897572
 30
0.0
 11
2648.487168883457
 21
1353.782578897572
 31
0.0
  0
LINE
  5
2BF8
330
1F
100
AcDbEntity
  8
AM_VIS
100
AcDbLine
 10
2647.937168883457
 20
1352.882578897572
 30
0.0
 11
2648.287168883457
 21
1352.882578897572
 31
0.0
  0
LINE
  5
2BF9
330
1F
100
AcDbEntity
  8
AM_VIS
100
AcDbLine
 10
2647.937168883457
 20
1347.882578897572
 30
0.0
 11
2647.937168883457
 21
1352.882578897572
 31
0.0
  0
LINE
  5
2BFA
330
1F
100
AcDbEntity
  8
AM_VIS
100
AcDbLine
 10
2647.937168883457
 20
1347.882578897572
 30
0.0
 11
2647.437168883457
 21
1347.382578897572
 31
0.0
  0
LINE
  5
2BFB
330
1F
100
AcDbEntity
  8
AM_VIS
100
AcDbLine
 10
2630.687168883457
 20
1347.382578897572
 30
0.0
 11
2647.437168883457
 21
1347.382578897572
 31
0.0
  0
LINE
  5
2BFC
330
1F
100
AcDbEntity
  8
AM_VIS
100
AcDbLine
 10
2630.687168883457
 20
1347.382578897572
 30
0.0
 11
2630.187168883458
 21
1347.882578897572
 31
0.0
  0
LINE
  5
2BFD
330
1F
100
AcDbEntity
  8
AM_VIS
100
AcDbLine
 10
2630.187168883458
 20
1406.882578897572
 30
0.0
 11
2630.187168883458
 21
1347.882578897572
 31
0.0
  0
LINE
  5
2BFE
330
1F
100
AcDbEntity
  8
AM_VIS
100
AcDbLine
 10
2630.187168883458
 20
1406.882578897572
 30
0.0
 11
2630.687168883457
 21
1407.382578897572
 31
0.0
  0
LINE
  5
2BFF
330
1F
100
AcDbEntity
  8
AM_VIS
100
AcDbLine
 10
2647.437168883457
 20
1407.382578897572
 30
0.0
 11
2630.687168883457
 21
1407.382578897572
 31
0.0
  0
LINE
  5
2C00
330
1F
100
AcDbEntity
  8
AM_VIS
100
AcDbLine
 10
2647.437168883457
 20
1407.382578897572
 30
0.0
 11
2647.937168883457
 21
1406.882578897572
 31
0.0
  0
LINE
  5
2C01
330
1F
100
AcDbEntity
  8
AM_VIS
100
AcDbLine
 10
2647.937168883457
 20
1401.882578897572
 30
0.0
 11
2647.937168883457
 21
1406.882578897572
 31
0.0
  0
LINE
  5
2C02
330
1F
100
AcDbEntity
  8
AM_VIS
100
AcDbLine
 10
2648.287168883457
 20
1401.882578897572
 30
0.0
 11
2647.937168883457
 21
1401.882578897572
 31
0.0
  0
LINE
  5
2C03
330
1F
100
AcDbEntity
  8
AM_VIS
100
AcDbLine
 10
2648.487168883457
 20
1400.982578897572
 30
0.0
 11
2648.487168883457
 21
1401.682578897572
 31
0.0
  0
LINE
  5
2C04
330
1F
100
AcDbEntity
  8
AM_VIS
100
AcDbLine
 10
2648.037168883457
 20
1400.482578897572
 30
0.0
 11
2648.487168883457
 21
1400.982578897572
 31
0.0
  0
LINE
  5
2C05
330
1F
100
AcDbEntity
  8
AM_VIS
100
AcDbLine
 10
2648.037168883457
 20
1398.382578897572
 30
0.0
 11
2648.037168883457
 21
1400.482578897572
 31
0.0
  0
LINE
  5
2C06
330
1F
100
AcDbEntity
  8
AM_VIS
100
AcDbLine
 10
2650.637168883457
 20
1396.682578897572
 30
0.0
 11
2649.737168883457
 21
1396.682578897572
 31
0.0
  0
LINE
  5
2C07
330
1F
100
AcDbEntity
  8
AM_VIS
100
AcDbLine
 10
2652.337168883457
 20
1400.482578897572
 30
0.0
 11
2652.337168883457
 21
1398.382578897572
 31
0.0
  0
LINE
  5
2C08
330
1F
100
AcDbEntity
  8
AM_VIS
100
AcDbLine
 10
2651.887168883457
 20
1400.982578897572
 30
0.0
 11
2652.337168883457
 21
1400.482578897572
 31
0.0
  0
LINE
  5
2C09
330
1F
100
AcDbEntity
  8
AM_VIS
100
AcDbLine
 10
2651.887168883457
 20
1401.682578897572
 30
0.0
 11
2651.887168883457
 21
1400.982578897572
 31
0.0
  0
LINE
  5
2C0A
330
1F
100
AcDbEntity
  8
AM_VIS
100
AcDbLine
 10
2652.437168883457
 20
1401.882578897572
 30
0.0
 11
2652.087168883457
 21
1401.882578897572
 31
0.0
  0
LINE
  5
2C0B
330
1F
100
AcDbEntity
  8
AM_VIS
100
AcDbLine
 10
2652.437168883457
 20
1406.882578897572
 30
0.0
 11
2652.437168883457
 21
1401.882578897572
 31
0.0
  0
LINE
  5
2C0C
330
1F
100
AcDbEntity
  8
AM_VIS
100
AcDbLine
 10
2652.437168883457
 20
1406.882578897572
 30
0.0
 11
2652.937168883457
 21
1407.382578897572
 31
0.0
  0
LINE
  5
2C0D
330
1F
100
AcDbEntity
  8
AM_VIS
100
AcDbLine
 10
2669.687168883458
 20
1407.382578897572
 30
0.0
 11
2652.937168883457
 21
1407.382578897572
 31
0.0
  0
LINE
  5
2C0E
330
1F
100
AcDbEntity
  8
AM_VIS
100
AcDbLine
 10
2669.687168883458
 20
1407.382578897572
 30
0.0
 11
2670.187168883457
 21
1406.882578897572
 31
0.0
  0
LINE
  5
2C0F
330
1F
100
AcDbEntity
  8
AM_VIS
100
AcDbLine
 10
2670.187168883457
 20
1347.882578897572
 30
0.0
 11
2670.187168883457
 21
1406.882578897572
 31
0.0
  0
LINE
  5
2C10
330
1F
100
AcDbEntity
  8
AM_VIS
100
AcDbLine
 10
2670.187168883457
 20
1347.882578897572
 30
0.0
 11
2669.687168883458
 21
1347.382578897572
 31
0.0
  0
LINE
  5
2C11
330
1F
100
AcDbEntity
  8
AM_VIS
100
AcDbLine
 10
2652.937168883457
 20
1347.382578897572
 30
0.0
 11
2669.687168883458
 21
1347.382578897572
 31
0.0
  0
LINE
  5
2C12
330
1F
100
AcDbEntity
  8
AM_VIS
100
AcDbLine
 10
2652.937168883457
 20
1347.382578897572
 30
0.0
 11
2652.437168883457
 21
1347.882578897572
 31
0.0
  0
CIRCLE
  5
2C13
330
1F
100
AcDbEntity
  8
AM_VIS
100
AcDbCircle
 10
2650.187168883457
 20
1377.382578897572
 30
0.0
 40
17.0
  0
ARC
  5
2C15
330
1F
100
AcDbEntity
  8
AM_VIS
100
AcDbCircle
 10
2652.087168883457
 20
1353.082578897572
 30
0.0
 40
0.2
100
AcDbArc
 50
180.0
 51
270.0
  0
ARC
  5
2C16
330
1F
100
AcDbEntity
  8
AM_VIS
100
AcDbCircle
 10
2650.637168883457
 20
1356.382578897572
 30
0.0
 40
1.699999999999999
100
AcDbArc
 50
0.0
 51
90.0
  0
ARC
  5
2C17
330
1F
100
AcDbEntity
  8
AM_VIS
100
AcDbCircle
 10
2649.737168883457
 20
1356.382578897572
 30
0.0
 40
1.699999999999999
100
AcDbArc
 50
90.0
 51
180.0
  0
ARC
  5
2C18
330
1F
100
AcDbEntity
  8
AM_VIS
100
AcDbCircle
 10
2648.287168883457
 20
1353.082578897572
 30
0.0
 40
0.2
100
AcDbArc
 50
270.0
 51
0.0
  0
ARC
  5
2C19
330
1F
100
AcDbEntity
  8
AM_VIS
100
AcDbCircle
 10
2648.287168883457
 20
1401.682578897572
 30
0.0
 40
0.2
100
AcDbArc
 50
0.0
 51
90.0
  0
ARC
  5
2C1A
330
1F
100
AcDbEntity
  8
AM_VIS
100
AcDbCircle
 10
2649.737168883457
 20
1398.382578897572
 30
0.0
 40
1.7
100
AcDbArc
 50
180.0
 51
270.0
  0
ARC
  5
2C1B
330
1F
100
AcDbEntity
  8
AM_VIS
100
AcDbCircle
 10
2650.637168883457
 20
1398.382578897572
 30
0.0
 40
1.7
100
AcDbArc
 50
270.0
 51
0.0
  0
ARC
  5
2C1C
330
1F
100
AcDbEntity
  8
AM_VIS
100
AcDbCircle
 10
2652.087168883457
 20
1401.682578897572
 30
0.0
 40
0.2
100
AcDbArc
 50
90.0
 51
180.0
  0
LINE
  5
2C20
330
1F
100
AcDbEntity
  8
AM_VIS
100
AcDbLine
 10
2647.937168883457
 20
1347.914829094041
 30
0.0
 11
2652.437168883457
 21
1347.914829094041
 31
0.0
  0
LINE
  5
2C21
330
1F
100
AcDbEntity
  8
AM_VIS
100
AcDbLine
 10
2652.437168883457
 20
1350.3787337811
 30
0.0
 11
2647.937168883457
 21
1350.3787337811
 31
0.0
  0
LINE
  5
2C22
330
1F
100
AcDbEntity
  8
AM_VIS
100
AcDbLine
 10
2652.849021623211
 20
1347.470726157818
 30
0.0
 11
2647.525316143703
 21
1347.470726157818
 31
0.0
  0
LINE
  5
2C23
330
1F
100
AcDbEntity
  8
AM_VIS
100
AcDbLine
 10
2655.298530243221
 20
1391.538082383711
 30
0.0
 11
2655.9654510568
 21
1393.370432259585
 31
0.0
  0
LINE
  5
2C24
330
1F
100
AcDbEntity
  8
AM_VIS
100
AcDbLine
 10
2644.408886710114
 20
1393.370432259585
 30
0.0
 11
2645.075807523694
 21
1391.538082383711
 31
0.0
  0
ARC
  5
2C25
330
1F
100
AcDbEntity
  8
AM_VIS
100
AcDbCircle
 10
2657.647761795185
 20
1390.683032025397
 30
0.0
 40
2.5
100
AcDbArc
 50
159.9999999999985
 51
298.7160998065551
  0
ARC
  5
2C26
330
1F
100
AcDbEntity
  8
AM_VIS
100
AcDbCircle
 10
2642.726575971729
 20
1390.683032025397
 30
0.0
 40
2.5
100
AcDbArc
 50
241.283900193445
 51
20.00000000000148
  0
ARC
  5
2C27
330
1F
100
AcDbEntity
  8
AM_VIS
100
AcDbCircle
 10
2640.324226212499
 20
1386.297976081132
 30
0.0
 40
2.5
100
AcDbArc
 50
61.28390019344496
 51
140.8126401656798
  0
ARC
  5
2C28
330
1F
100
AcDbEntity
  8
AM_VIS
100
AcDbCircle
 10
2650.187168883457
 20
1378.257578897572
 30
0.0
 40
15.225
100
AcDbArc
 50
140.8126401656798
 51
39.18735983432016
  0
ARC
  5
2C29
330
1F
100
AcDbEntity
  8
AM_VIS
100
AcDbCircle
 10
2660.050111554415
 20
1386.297976081132
 30
0.0
 40
2.5
100
AcDbArc
 50
39.18735983432016
 51
118.716099806555
  0
CIRCLE
  5
2C2A
330
1F
100
AcDbEntity
  8
AM_VIS
100
AcDbCircle
 10
2642.726575971729
 20
1390.683032025397
 30
0.0
 40
1.25
  0
CIRCLE
  5
2C2B
330
1F
100
AcDbEntity
  8
AM_VIS
100
AcDbCircle
 10
2657.647761795185
 20
1390.683032025397
 30
0.0
 40
1.25
  0
ARC
  5
2C2C
330
1F
100
AcDbEntity
  8
AM_VIS
100
AcDbCircle
 10
2650.187168883457
 20
1377.382578897572
 30
0.0
 40
16.35
100
AcDbArc
 50
117.1348373583266
 51
121.4437131408669
  0
ARC
  5
2C2D
330
1F
100
AcDbEntity
  8
AM_VIS
100
AcDbCircle
 10
2650.187168883457
 20
1377.382578897572
 30
0.0
 40
16.35
100
AcDbArc
 50
70.13442190665893
 51
109.865578093341
  0
ARC
  5
2C2E
330
1F
100
AcDbEntity
  8
AM_VIS
100
AcDbCircle
 10
2650.187168883457
 20
1377.382578897572
 30
0.0
 40
16.35
100
AcDbArc
 50
58.55628685913306
 51
62.86516264167339
  0
LINE
  5
2C2F
330
1F
100
AcDbEntity
  8
AM_VIS
100
AcDbLine
 10
2652.437168883457
 20
1406.850328701103
 30
0.0
 11
2647.937168883457
 21
1406.850328701103
 31
0.0
  0
LINE
  5
2C30
330
1F
100
AcDbEntity
  8
AM_VIS
100
AcDbLine
 10
2647.937168883457
 20
1404.386424014044
 30
0.0
 11
2652.437168883457
 21
1404.386424014044
 31
0.0
  0
LINE
  5
2C31
330
1F
100
AcDbEntity
  8
AM_VIS
100
AcDbLine
 10
2647.525316143703
 20
1407.294431637326
 30
0.0
 11
2652.849021623211
 21
1407.294431637326
 31
0.0
  0
LINE
  5
2C32
330
1F
100
AcDbEntity
  8
AM_VIS
100
AcDbLine
 10
2382.750692468075
 20
1347.882578897572
 30
0.0
 11
2382.750692468075
 21
1406.882578897572
 31
0.0
  0
LINE
  5
2C33
330
1F
100
AcDbEntity
  8
AM_VIS
100
AcDbLine
 10
2413.250692468075
 20
1347.382578897572
 30
0.0
 11
2411.750692468075
 21
1347.382578897572
 31
0.0
  0
LINE
  5
2C34
330
1F
100
AcDbEntity
  8
AM_VIS
100
AcDbLine
 10
2392.250692468075
 20
1347.382578897572
 30
0.0
 11
2392.250692468075
 21
1407.382578897572
 31
0.0
  0
LINE
  5
2C35
330
1F
100
AcDbEntity
  8
AM_VIS
100
AcDbLine
 10
2411.750692468075
 20
1407.382578897572
 30
0.0
 11
2411.750692468076
 21
1406.882578897572
 31
0.0
  0
LINE
  5
2C36
330
1F
100
AcDbEntity
  8
AM_VIS
100
AcDbLine
 10
2411.750692468075
 20
1347.882578897572
 30
0.0
 11
2411.750692468075
 21
1347.382578897572
 31
0.0
  0
LINE
  5
2C37
330
1F
100
AcDbEntity
  8
AM_VIS
100
AcDbLine
 10
2393.750692468075
 20
1347.382578897572
 30
0.0
 11
2393.750692468075
 21
1347.882578897572
 31
0.0
  0
LINE
  5
2C38
330
1F
100
AcDbEntity
  8
AM_VIS
100
AcDbLine
 10
2393.750692468075
 20
1406.882578897572
 30
0.0
 11
2393.750692468075
 21
1407.382578897572
 31
0.0
  0
LINE
  5
2C39
330
1F
100
AcDbEntity
  8
AM_VIS
100
AcDbLine
 10
2382.750692468075
 20
1406.882578897572
 30
0.0
 11
2383.250692468076
 21
1407.382578897572
 31
0.0
  0
LINE
  5
2C3A
330
1F
100
AcDbEntity
  8
AM_VIS
100
AcDbLine
 10
2422.250692468075
 20
1347.382578897572
 30
0.0
 11
2413.250692468075
 21
1347.382578897572
 31
0.0
  0
LINE
  5
2C3B
330
1F
100
AcDbEntity
  8
AM_VIS
100
AcDbLine
 10
2413.250692468075
 20
1407.382578897572
 30
0.0
 11
2413.250692468075
 21
1347.382578897572
 31
0.0
  0
LINE
  5
2C3C
330
1F
100
AcDbEntity
  8
AM_VIS
100
AcDbLine
 10
2422.250692468075
 20
1407.382578897572
 30
0.0
 11
2422.750692468075
 21
1406.882578897572
 31
0.0
  0
LINE
  5
2C3D
330
1F
100
AcDbEntity
  8
AM_VIS
100
AcDbLine
 10
2392.250692468075
 20
1347.382578897572
 30
0.0
 11
2383.250692468076
 21
1347.382578897572
 31
0.0
  0
LINE
  5
2C3E
330
1F
100
AcDbEntity
  8
AM_VIS
100
AcDbLine
 10
2393.750692468075
 20
1347.382578897572
 30
0.0
 11
2392.250692468075
 21
1347.382578897572
 31
0.0
  0
LINE
  5
2C3F
330
1F
100
AcDbEntity
  8
AM_VIS
100
AcDbLine
 10
2383.250692468076
 20
1347.382578897572
 30
0.0
 11
2382.750692468075
 21
1347.882578897572
 31
0.0
  0
LINE
  5
2C40
330
1F
100
AcDbEntity
  8
AM_VIS
100
AcDbLine
 10
2422.750692468075
 20
1347.882578897572
 30
0.0
 11
2422.250692468075
 21
1347.382578897572
 31
0.0
  0
LINE
  5
2C41
330
1F
100
AcDbEntity
  8
AM_VIS
100
AcDbLine
 10
2400.000692468075
 20
1347.382578897572
 30
0.0
 11
2393.750692468075
 21
1347.382578897572
 31
0.0
  0
LINE
  5
2C42
330
1F
100
AcDbEntity
  8
AM_VIS
100
AcDbLine
 10
2400.000692468075
 20
1407.382578897572
 30
0.0
 11
2400.500692468074
 21
1406.882578897572
 31
0.0
  0
LINE
  5
2C43
330
1F
100
AcDbEntity
  8
AM_VIS
100
AcDbLine
 10
2405.000692468074
 20
1406.882578897572
 30
0.0
 11
2405.500692468076
 21
1407.382578897572
 31
0.0
  0
LINE
  5
2C44
330
1F
100
AcDbEntity
  8
AM_VIS
100
AcDbLine
 10
2411.750692468075
 20
1347.382578897572
 30
0.0
 11
2405.500692468076
 21
1347.382578897572
 31
0.0
  0
LINE
  5
2C45
330
1F
100
AcDbEntity
  8
AM_VIS
100
AcDbLine
 10
2405.500692468076
 20
1347.382578897572
 30
0.0
 11
2405.000692468074
 21
1347.882578897572
 31
0.0
  0
LINE
  5
2C46
330
1F
100
AcDbEntity
  8
AM_VIS
100
AcDbLine
 10
2400.500692468074
 20
1347.882578897572
 30
0.0
 11
2400.000692468075
 21
1347.382578897572
 31
0.0
  0
LINE
  5
2C47
330
1F
100
AcDbEntity
  8
AM_VIS
100
AcDbLine
 10
2422.750692468075
 20
1406.882578897572
 30
0.0
 11
2422.750692468075
 21
1347.882578897572
 31
0.0
  0
LINE
  5
2C48
330
1F
100
AcDbEntity
  8
AM_VIS
100
AcDbLine
 10
2393.750692468075
 20
1407.382578897572
 30
0.0
 11
2400.000692468075
 21
1407.382578897572
 31
0.0
  0
LINE
  5
2C49
330
1F
100
AcDbEntity
  8
AM_VIS
100
AcDbLine
 10
2392.250692468075
 20
1407.382578897572
 30
0.0
 11
2393.750692468075
 21
1407.382578897572
 31
0.0
  0
LINE
  5
2C4A
330
1F
100
AcDbEntity
  8
AM_VIS
100
AcDbLine
 10
2383.250692468076
 20
1407.382578897572
 30
0.0
 11
2392.250692468075
 21
1407.382578897572
 31
0.0
  0
LINE
  5
2C4B
330
1F
100
AcDbEntity
  8
AM_VIS
100
AcDbLine
 10
2413.250692468075
 20
1407.382578897572
 30
0.0
 11
2422.250692468075
 21
1407.382578897572
 31
0.0
  0
LINE
  5
2C4C
330
1F
100
AcDbEntity
  8
AM_VIS
100
AcDbLine
 10
2411.750692468075
 20
1407.382578897572
 30
0.0
 11
2413.250692468075
 21
1407.382578897572
 31
0.0
  0
LINE
  5
2C4D
330
1F
100
AcDbEntity
  8
AM_VIS
100
AcDbLine
 10
2405.500692468076
 20
1407.382578897572
 30
0.0
 11
2411.750692468075
 21
1407.382578897572
 31
0.0
  0
ARC
  5
2C4E
330
1F
100
AcDbEntity
  8
AM_VIS
100
AcDbCircle
 10
2402.750692468075
 20
1377.382578897572
 30
0.0
 40
8.0
100
AcDbArc
 50
106.7096335383336
 51
115.1506634125529
  0
ARC
  5
2C4F
330
1F
100
AcDbEntity
  8
AM_VIS
100
AcDbCircle
 10
2402.750692468075
 20
1377.382578897572
 30
0.0
 40
8.0
100
AcDbArc
 50
64.05552022763131
 51
73.29036646166634
  0
ARC
  5
2C50
330
1F
100
AcDbEntity
  8
AM_VIS
100
AcDbCircle
 10
2402.750692468075
 20
1377.382578897572
 30
0.0
 40
8.0
100
AcDbArc
 50
286.7096335383337
 51
295.150663412553
  0
ARC
  5
2C51
330
1F
100
AcDbEntity
  8
AM_VIS
100
AcDbCircle
 10
2402.750692468075
 20
1377.382578897572
 30
0.0
 40
8.0
100
AcDbArc
 50
244.0555202276313
 51
253.2903664616664
  0
ARC
  5
2C52
330
1F
100
AcDbEntity
  8
AM_VIS
100
AcDbCircle
 10
2402.750692468075
 20
1377.382578897572
 30
0.0
 40
8.3
100
AcDbArc
 50
245.0588752410622
 51
247.3918914506997
  0
ARC
  5
2C53
330
1F
100
AcDbEntity
  8
AM_VIS
100
AcDbCircle
 10
2402.750692468075
 20
1377.382578897572
 30
0.0
 40
8.3
100
AcDbArc
 50
292.6081085493003
 51
294.1821313666417
  0
ARC
  5
2C54
330
1F
100
AcDbEntity
  8
AM_VIS
100
AcDbCircle
 10
2402.750692468075
 20
1377.382578897572
 30
0.0
 40
8.3
100
AcDbArc
 50
65.05887524106215
 51
67.39189145069964
  0
ARC
  5
2C55
330
1F
100
AcDbEntity
  8
AM_VIS
100
AcDbCircle
 10
2402.750692468075
 20
1377.382578897572
 30
0.0
 40
8.3
100
AcDbArc
 50
112.6081085493003
 51
114.1821313666417
  0
LINE
  5
2C56
330
1F
100
AcDbEntity
  8
AM_VIS
100
AcDbLine
 10
2406.150692468076
 20
1369.720385574517
 30
0.0
 11
2399.250692468076
 21
1369.720385574517
 31
0.0
  0
LINE
  5
2C57
330
1F
100
AcDbEntity
  8
AM_VIS
100
AcDbLine
 10
2406.150692468075
 20
1381.526595533345
 30
0.0
 11
2406.150692468076
 21
1369.720385574517
 31
0.0
  0
LINE
  5
2C58
330
1F
100
AcDbEntity
  8
AM_VIS
100
AcDbLine
 10
2406.150692468076
 20
1381.526595533345
 30
0.0
 11
2406.250692468075
 21
1381.526595533345
 31
0.0
  0
LINE
  5
2C59
330
1F
100
AcDbEntity
  8
AM_VIS
100
AcDbLine
 10
2405.750692468075
 20
1372.186426474865
 30
0.0
 11
2405.750692468075
 21
1370.508715355138
 31
0.0
  0
LINE
  5
2C5A
330
1F
100
AcDbEntity
  8
AM_VIS
100
AcDbLine
 10
2405.750692468075
 20
1372.186426474865
 30
0.0
 11
2405.750692468075
 21
1382.578731320278
 31
0.0
  0
LINE
  5
2C5B
330
1F
100
AcDbEntity
  8
AM_VIS
100
AcDbLine
 10
2405.750692468075
 20
1384.256442440006
 30
0.0
 11
2405.750692468075
 21
1382.578731320278
 31
0.0
  0
LINE
  5
2C5C
330
1F
100
AcDbEntity
  8
AM_VIS
100
AcDbLine
 10
2399.750692468075
 20
1384.256442440006
 30
0.0
 11
2399.750692468075
 21
1382.578731320278
 31
0.0
  0
LINE
  5
2C5D
330
1F
100
AcDbEntity
  8
AM_VIS
100
AcDbLine
 10
2399.750692468075
 20
1382.578731320278
 30
0.0
 11
2399.750692468075
 21
1372.186426474865
 31
0.0
  0
LINE
  5
2C5E
330
1F
100
AcDbEntity
  8
AM_VIS
100
AcDbLine
 10
2399.750692468075
 20
1372.186426474865
 30
0.0
 11
2399.750692468075
 21
1370.508715355138
 31
0.0
  0
ARC
  5
2C5F
330
1F
100
AcDbEntity
  8
AM_VIS
100
AcDbCircle
 10
2402.750692468075
 20
1377.382578897572
 30
0.0
 40
6.0
100
AcDbArc
 50
240.0000000000027
 51
299.9999999999973
  0
ARC
  5
2C60
330
1F
100
AcDbEntity
  8
AM_VIS
100
AcDbCircle
 10
2402.750692468075
 20
1377.382578897572
 30
0.0
 40
7.5
100
AcDbArc
 50
62.18186071534478
 51
66.42182152179285
  0
ARC
  5
2C61
330
1F
100
AcDbEntity
  8
AM_VIS
100
AcDbCircle
 10
2402.750692468075
 20
1377.382578897572
 30
0.0
 40
7.5
100
AcDbArc
 50
293.5781784782072
 51
296.9577491392861
  0
ARC
  5
2C62
330
1F
100
AcDbEntity
  8
AM_VIS
100
AcDbCircle
 10
2402.750692468075
 20
1377.382578897572
 30
0.0
 40
6.0
100
AcDbArc
 50
60.00000000000272
 51
119.9999999999973
  0
ARC
  5
2C63
330
1F
100
AcDbEntity
  8
AM_VIS
100
AcDbCircle
 10
2402.750692468075
 20
1377.382578897572
 30
0.0
 40
7.5
100
AcDbArc
 50
66.42182152179285
 51
113.5781784782071
  0
ARC
  5
2C64
330
1F
100
AcDbEntity
  8
AM_VIS
100
AcDbCircle
 10
2402.750692468075
 20
1377.382578897572
 30
0.0
 40
7.5
100
AcDbArc
 50
246.4218215217928
 51
293.5781784782072
  0
ARC
  5
2C65
330
1F
100
AcDbEntity
  8
AM_VIS
100
AcDbCircle
 10
2402.750692468075
 20
1377.382578897572
 30
0.0
 40
7.5
100
AcDbArc
 50
242.1818607153448
 51
246.4218215217928
  0
ARC
  5
2C66
330
1F
100
AcDbEntity
  8
AM_VIS
100
AcDbCircle
 10
2402.750692468075
 20
1377.382578897572
 30
0.0
 40
7.5
100
AcDbArc
 50
113.5781784782071
 51
116.9577491392861
  0
ARC
  5
2C67
330
1F
100
AcDbEntity
  8
AM_VIS
100
AcDbCircle
 10
2402.750692468075
 20
1377.382578897572
 30
0.0
 40
8.0
100
AcDbArc
 50
244.0555202276313
 51
253.2903664616664
  0
ARC
  5
2C68
330
1F
100
AcDbEntity
  8
AM_VIS
100
AcDbCircle
 10
2402.750692468075
 20
1377.382578897572
 30
0.0
 40
8.0
100
AcDbArc
 50
286.7096335383337
 51
295.150663412553
  0
ARC
  5
2C69
330
1F
100
AcDbEntity
  8
AM_VIS
100
AcDbCircle
 10
2402.750692468075
 20
1377.382578897572
 30
0.0
 40
8.0
100
AcDbArc
 50
64.05552022763131
 51
73.29036646166634
  0
ARC
  5
2C6A
330
1F
100
AcDbEntity
  8
AM_VIS
100
AcDbCircle
 10
2402.750692468075
 20
1377.382578897572
 30
0.0
 40
8.0
100
AcDbArc
 50
106.7096335383336
 51
115.1506634125529
  0
LINE
  5
2C6B
330
1F
100
AcDbEntity
  8
AM_VIS
100
AcDbLine
 10
2412.750692468075
 20
1357.470726157818
 30
0.0
 11
2412.750692468075
 21
1347.482578897572
 31
0.0
  0
LINE
  5
2C6C
330
1F
100
AcDbEntity
  8
AM_VIS
100
AcDbLine
 10
2392.750692468075
 20
1347.482578897572
 30
0.0
 11
2392.750692468075
 21
1357.470726157818
 31
0.0
  0
LINE
  5
2C6D
330
1F
100
AcDbEntity
  8
AM_VIS
100
AcDbLine
 10
2412.750692468075
 20
1368.970726157818
 30
0.0
 11
2412.750692468075
 21
1357.470726157818
 31
0.0
  0
LINE
  5
2C6E
330
1F
100
AcDbEntity
  8
AM_VIS
100
AcDbLine
 10
2392.750692468075
 20
1357.470726157818
 30
0.0
 11
2392.750692468075
 21
1368.970726157818
 31
0.0
  0
LINE
  5
2C6F
330
1F
100
AcDbEntity
  8
AM_VIS
100
AcDbLine
 10
2412.750692468075
 20
1368.970726157818
 30
0.0
 11
2392.750692468075
 21
1368.970726157818
 31
0.0
  0
LINE
  5
2C70
330
1F
100
AcDbEntity
  8
AM_VIS
100
AcDbLine
 10
2406.250692468075
 20
1368.970726157818
 30
0.0
 11
2406.250692468075
 21
1385.794431637326
 31
0.0
  0
LINE
  5
2C71
330
1F
100
AcDbEntity
  8
AM_VIS
100
AcDbLine
 10
2392.750692468075
 20
1357.470726157818
 30
0.0
 11
2412.750692468075
 21
1357.470726157818
 31
0.0
  0
LINE
  5
2C72
330
1F
100
AcDbEntity
  8
AM_VIS
100
AcDbLine
 10
2412.750692468075
 20
1347.882578897572
 30
0.0
 11
2392.750692468075
 21
1347.882578897572
 31
0.0
  0
LINE
  5
2C73
330
1F
100
AcDbEntity
  8
AM_VIS
100
AcDbLine
 10
2399.350692468075
 20
1385.044772220626
 30
0.0
 11
2406.250692468075
 21
1385.044772220626
 31
0.0
  0
LINE
  5
2C74
330
1F
100
AcDbEntity
  8
AM_VIS
100
AcDbLine
 10
2399.350692468075
 20
1373.238562261799
 30
0.0
 11
2399.350692468075
 21
1385.044772220626
 31
0.0
  0
LINE
  5
2C75
330
1F
100
AcDbEntity
  8
AM_VIS
100
AcDbLine
 10
2399.350692468075
 20
1373.238562261799
 30
0.0
 11
2399.250692468076
 21
1373.238562261799
 31
0.0
  0
LINE
  5
2C76
330
1F
100
AcDbEntity
  8
AM_VIS
100
AcDbLine
 10
2392.250692468075
 20
1347.482578897572
 30
0.0
 11
2392.750692468075
 21
1347.482578897572
 31
0.0
  0
LINE
  5
2C77
330
1F
100
AcDbEntity
  8
AM_VIS
100
AcDbLine
 10
2392.750692468075
 20
1407.282578897572
 30
0.0
 11
2392.250692468075
 21
1407.282578897572
 31
0.0
  0
LINE
  5
2C78
330
1F
100
AcDbEntity
  8
AM_VIS
100
AcDbLine
 10
2392.750692468075
 20
1368.970726157818
 30
0.0
 11
2392.750692468075
 21
1385.794431637326
 31
0.0
  0
LINE
  5
2C79
330
1F
100
AcDbEntity
  8
AM_VIS
100
AcDbLine
 10
2412.750692468075
 20
1368.970726157818
 30
0.0
 11
2412.750692468075
 21
1385.794431637326
 31
0.0
  0
LINE
  5
2C7A
330
1F
100
AcDbEntity
  8
AM_VIS
100
AcDbLine
 10
2412.750692468075
 20
1347.482578897572
 30
0.0
 11
2413.250692468075
 21
1347.482578897572
 31
0.0
  0
LINE
  5
2C7B
330
1F
100
AcDbEntity
  8
AM_VIS
100
AcDbLine
 10
2413.250692468075
 20
1407.282578897572
 30
0.0
 11
2412.750692468075
 21
1407.282578897572
 31
0.0
  0
LINE
  5
2C7C
330
1F
100
AcDbEntity
  8
AM_VIS
100
AcDbLine
 10
2406.150692468076
 20
1379.882578897572
 30
0.0
 11
2405.750692468075
 21
1379.882578897572
 31
0.0
  0
LINE
  5
2C7D
330
1F
100
AcDbEntity
  8
AM_VIS
100
AcDbLine
 10
2399.750692468075
 20
1379.882578897572
 30
0.0
 11
2399.350692468075
 21
1379.882578897572
 31
0.0
  0
LINE
  5
2C7E
330
1F
100
AcDbEntity
  8
AM_VIS
100
AcDbLine
 10
2406.150692468076
 20
1374.882578897572
 30
0.0
 11
2405.750692468075
 21
1374.882578897572
 31
0.0
  0
LINE
  5
2C7F
330
1F
100
AcDbEntity
  8
AM_VIS
100
AcDbLine
 10
2399.750692468075
 20
1374.882578897572
 30
0.0
 11
2399.350692468075
 21
1374.882578897572
 31
0.0
  0
LINE
  5
2C80
330
1F
100
AcDbEntity
  8
AM_VIS
100
AcDbLine
 10
2392.750692468075
 20
1397.294431637326
 30
0.0
 11
2392.750692468075
 21
1407.282578897572
 31
0.0
  0
LINE
  5
2C81
330
1F
100
AcDbEntity
  8
AM_VIS
100
AcDbLine
 10
2412.750692468075
 20
1407.282578897572
 30
0.0
 11
2412.750692468075
 21
1397.294431637326
 31
0.0
  0
LINE
  5
2C82
330
1F
100
AcDbEntity
  8
AM_VIS
100
AcDbLine
 10
2392.750692468075
 20
1385.794431637326
 30
0.0
 11
2392.750692468075
 21
1397.294431637326
 31
0.0
  0
LINE
  5
2C83
330
1F
100
AcDbEntity
  8
AM_VIS
100
AcDbLine
 10
2412.750692468075
 20
1397.294431637326
 30
0.0
 11
2412.750692468075
 21
1385.794431637326
 31
0.0
  0
LINE
  5
2C84
330
1F
100
AcDbEntity
  8
AM_VIS
100
AcDbLine
 10
2392.750692468075
 20
1385.794431637326
 30
0.0
 11
2412.750692468075
 21
1385.794431637326
 31
0.0
  0
LINE
  5
2C85
330
1F
100
AcDbEntity
  8
AM_VIS
100
AcDbLine
 10
2399.250692468076
 20
1385.794431637326
 30
0.0
 11
2399.250692468076
 21
1368.970726157818
 31
0.0
  0
LINE
  5
2C86
330
1F
100
AcDbEntity
  8
AM_VIS
100
AcDbLine
 10
2412.750692468075
 20
1396.882578897572
 30
0.0
 11
2392.750692468075
 21
1396.882578897572
 31
0.0
  0
LINE
  5
2C87
330
1F
100
AcDbEntity
  8
AM_VIS
100
AcDbLine
 10
2392.750692468075
 20
1406.882578897572
 30
0.0
 11
2412.750692468075
 21
1406.882578897572
 31
0.0
  0
LINE
  5
2C88
330
1F
100
AcDbEntity
  8
AM_VIS
100
AcDbLine
 10
2399.250692468076
 20
1369.382578897572
 30
0.0
 11
2406.250692468075
 21
1369.382578897572
 31
0.0
  0
LINE
  5
2C89
330
1F
100
AcDbEntity
  8
AM_VIS
100
AcDbLine
 10
2399.250692468076
 20
1385.382578897572
 30
0.0
 11
2406.250692468075
 21
1385.382578897572
 31
0.0
  0
ARC
  5
2CA9
330
1F
100
AcDbEntity
  8
AM_4
100
AcDbCircle
 10
2489.312388167246
 20
1279.920644364902
 30
0.0
 40
3.0
100
AcDbArc
 50
260.0
 51
170.0
  0
CIRCLE
  5
2CAA
330
1F
100
AcDbEntity
  8
AM_0
100
AcDbCircle
 10
2489.312388167246
 20
1279.920644364902
 30
0.0
 40
2.45873412263477
  0
LINE
  5
2CAB
330
1F
100
AcDbEntity
  8
AM_7
  6
AM_ISO08W050x2
100
AcDbLine
 10
2485.312388167246
 20
1279.920644364902
 30
0.0
 11
2493.312388167245
 21
1279.920644364902
 31
0.0
  0
LINE
  5
2CAC
330
1F
100
AcDbEntity
  8
AM_7
  6
AM_ISO08W050x2
100
AcDbLine
 10
2489.312388167246
 20
1275.920644364902
 30
0.0
 11
2489.312388167246
 21
1283.920644364902
 31
0.0
  0
ARC
  5
2CAD
330
1F
100
AcDbEntity
  8
AM_4
100
AcDbCircle
 10
2474.312388167246
 20
1279.920644364902
 30
0.0
 40
3.0
100
AcDbArc
 50
260.0
 51
170.0
  0
CIRCLE
  5
2CAE
330
1F
100
AcDbEntity
  8
AM_0
100
AcDbCircle
 10
2474.312388167246
 20
1279.920644364902
 30
0.0
 40
2.45873412263477
  0
LINE
  5
2CAF
330
1F
100
AcDbEntity
  8
AM_7
  6
AM_ISO08W050x2
100
AcDbLine
 10
2470.312388167246
 20
1279.920644364902
 30
0.0
 11
2478.312388167246
 21
1279.920644364902
 31
0.0
  0
LINE
  5
2CB0
330
1F
100
AcDbEntity
  8
AM_7
  6
AM_ISO08W050x2
100
AcDbLine
 10
2474.312388167246
 20
1275.920644364902
 30
0.0
 11
2474.312388167246
 21
1283.920644364902
 31
0.0
  0
ARC
  5
2CB1
330
1F
100
AcDbEntity
  8
AM_4
100
AcDbCircle
 10
2552.812388167246
 20
1267.920644364902
 30
0.0
 40
2.5
100
AcDbArc
 50
260.0
 51
170.0
  0
CIRCLE
  5
2CB2
330
1F
100
AcDbEntity
  8
AM_0
100
AcDbCircle
 10
2552.812388167246
 20
1267.920644364902
 30
0.0
 40
2.066987298107819
  0
LINE
  5
2CB3
330
1F
100
AcDbEntity
  8
AM_7
  6
AM_ISO08W050x2
100
AcDbLine
 10
2549.312388167246
 20
1267.920644364902
 30
0.0
 11
2556.312388167246
 21
1267.920644364902
 31
0.0
  0
LINE
  5
2CB4
330
1F
100
AcDbEntity
  8
AM_7
  6
AM_ISO08W050x2
100
AcDbLine
 10
2552.812388167246
 20
1264.420644364902
 30
0.0
 11
2552.812388167246
 21
1271.420644364902
 31
0.0
  0
ARC
  5
2CB5
330
1F
100
AcDbEntity
  8
AM_4
100
AcDbCircle
 10
2577.312388167245
 20
1291.920644364902
 30
0.0
 40
2.5
100
AcDbArc
 50
260.0
 51
170.0
  0
CIRCLE
  5
2CB6
330
1F
100
AcDbEntity
  8
AM_0
100
AcDbCircle
 10
2577.312388167245
 20
1291.920644364902
 30
0.0
 40
2.066987298107819
  0
LINE
  5
2CB7
330
1F
100
AcDbEntity
  8
AM_7
  6
AM_ISO08W050x2
100
AcDbLine
 10
2573.812388167246
 20
1291.920644364902
 30
0.0
 11
2580.812388167246
 21
1291.920644364902
 31
0.0
  0
LINE
  5
2CB8
330
1F
100
AcDbEntity
  8
AM_7
  6
AM_ISO08W050x2
100
AcDbLine
 10
2577.312388167245
 20
1288.420644364902
 30
0.0
 11
2577.312388167245
 21
1295.420644364902
 31
0.0
  0
ARC
  5
2CB9
330
1F
100
AcDbEntity
  8
AM_4
100
AcDbCircle
 10
2553.812388167246
 20
1355.382578897572
 30
0.0
 40
3.0
100
AcDbArc
 50
260.0
 51
170.0
  0
CIRCLE
  5
2CBA
330
1F
100
AcDbEntity
  8
AM_0
100
AcDbCircle
 10
2553.812388167246
 20
1355.382578897572
 30
0.0
 40
2.45873412263477
  0
LINE
  5
2CBB
330
1F
100
AcDbEntity
  8
AM_7
  6
AM_ISO08W050x2
100
AcDbLine
 10
2549.812388167246
 20
1355.382578897572
 30
0.0
 11
2557.812388167246
 21
1355.382578897572
 31
0.0
  0
LINE
  5
2CBC
330
1F
100
AcDbEntity
  8
AM_7
  6
AM_ISO08W050x2
100
AcDbLine
 10
2553.812388167246
 20
1351.382578897572
 30
0.0
 11
2553.812388167246
 21
1359.382578897572
 31
0.0
  0
ARC
  5
2CBD
330
1F
100
AcDbEntity
  8
AM_4
100
AcDbCircle
 10
2553.812388167246
 20
1399.382578897572
 30
0.0
 40
3.0
100
AcDbArc
 50
260.0
 51
170.0
  0
CIRCLE
  5
2CBE
330
1F
100
AcDbEntity
  8
AM_0
100
AcDbCircle
 10
2553.812388167246
 20
1399.382578897572
 30
0.0
 40
2.45873412263477
  0
LINE
  5
2CBF
330
1F
100
AcDbEntity
  8
AM_7
  6
AM_ISO08W050x2
100
AcDbLine
 10
2549.812388167246
 20
1399.382578897572
 30
0.0
 11
2557.812388167246
 21
1399.382578897572
 31
0.0
  0
LINE
  5
2CC0
330
1F
100
AcDbEntity
  8
AM_7
  6
AM_ISO08W050x2
100
AcDbLine
 10
2553.812388167246
 20
1395.382578897572
 30
0.0
 11
2553.812388167246
 21
1403.382578897572
 31
0.0
  0
ARC
  5
2CC1
330
1F
100
AcDbEntity
  8
AM_4
100
AcDbCircle
 10
2638.187168883457
 20
1400.382578897572
 30
0.0
 40
3.0
100
AcDbArc
 50
260.0
 51
170.0
  0
CIRCLE
  5
2CC2
330
1F
100
AcDbEntity
  8
AM_0
100
AcDbCircle
 10
2638.187168883457
 20
1400.382578897572
 30
0.0
 40
2.45873412263477
  0
LINE
  5
2CC3
330
1F
100
AcDbEntity
  8
AM_7
  6
AM_ISO08W050x2
100
AcDbLine
 10
2634.187168883457
 20
1400.382578897572
 30
0.0
 11
2642.187168883457
 21
1400.382578897572
 31
0.0
  0
LINE
  5
2CC4
330
1F
100
AcDbEntity
  8
AM_7
  6
AM_ISO08W050x2
100
AcDbLine
 10
2638.187168883457
 20
1396.382578897572
 30
0.0
 11
2638.187168883457
 21
1404.382578897572
 31
0.0
  0
ARC
  5
2CC5
330
1F
100
AcDbEntity
  8
AM_4
100
AcDbCircle
 10
2662.187168883458
 20
1354.382578897572
 30
0.0
 40
3.0
100
AcDbArc
 50
260.0
 51
170.0
  0
CIRCLE
  5
2CC6
330
1F
100
AcDbEntity
  8
AM_0
100
AcDbCircle
 10
2662.187168883458
 20
1354.382578897572
 30
0.0
 40
2.45873412263477
  0
LINE
  5
2CC7
330
1F
100
AcDbEntity
  8
AM_7
  6
AM_ISO08W050x2
100
AcDbLine
 10
2658.187168883457
 20
1354.382578897572
 30
0.0
 11
2666.187168883457
 21
1354.382578897572
 31
0.0
  0
LINE
  5
2CC8
330
1F
100
AcDbEntity
  8
AM_7
  6
AM_ISO08W050x2
100
AcDbLine
 10
2662.187168883458
 20
1350.382578897572
 30
0.0
 11
2662.187168883458
 21
1358.382578897572
 31
0.0
  0
ARC
  5
2CC9
330
1F
100
AcDbEntity
  8
AM_4
100
AcDbCircle
 10
2561.812388167246
 20
1451.133749628513
 30
0.0
 40
3.0
100
AcDbArc
 50
260.0
 51
170.0
  0
CIRCLE
  5
2CCA
330
1F
100
AcDbEntity
  8
AM_0
100
AcDbCircle
 10
2561.812388167246
 20
1451.133749628513
 30
0.0
 40
2.45873412263477
  0
LINE
  5
2CCB
330
1F
100
AcDbEntity
  8
AM_7
  6
AM_ISO08W050x2
100
AcDbLine
 10
2557.812388167246
 20
1451.133749628513
 30
0.0
 11
2565.812388167246
 21
1451.133749628513
 31
0.0
  0
LINE
  5
2CCC
330
1F
100
AcDbEntity
  8
AM_7
  6
AM_ISO08W050x2
100
AcDbLine
 10
2561.812388167246
 20
1447.133749628513
 30
0.0
 11
2561.812388167246
 21
1455.133749628513
 31
0.0
  0
ARC
  5
2CCD
330
1F
100
AcDbEntity
  8
AM_4
100
AcDbCircle
 10
2561.812388167246
 20
1477.133749628513
 30
0.0
 40
3.0
100
AcDbArc
 50
260.0
 51
170.0
  0
CIRCLE
  5
2CCE
330
1F
100
AcDbEntity
  8
AM_0
100
AcDbCircle
 10
2561.812388167246
 20
1477.133749628513
 30
0.0
 40
2.45873412263477
  0
LINE
  5
2CCF
330
1F
100
AcDbEntity
  8
AM_7
  6
AM_ISO08W050x2
100
AcDbLine
 10
2557.812388167246
 20
1477.133749628513
 30
0.0
 11
2565.812388167246
 21
1477.133749628513
 31
0.0
  0
LINE
  5
2CD0
330
1F
100
AcDbEntity
  8
AM_7
  6
AM_ISO08W050x2
100
AcDbLine
 10
2561.812388167246
 20
1473.133749628513
 30
0.0
 11
2561.812388167246
 21
1481.133749628513
 31
0.0
  0
ARC
  5
2CD1
330
1F
100
AcDbEntity
  8
AM_4
100
AcDbCircle
 10
2489.312388167246
 20
1464.133749628513
 30
0.0
 40
3.0
100
AcDbArc
 50
260.0
 51
170.0
  0
CIRCLE
  5
2CD2
330
1F
100
AcDbEntity
  8
AM_0
100
AcDbCircle
 10
2489.312388167246
 20
1464.133749628513
 30
0.0
 40
2.45873412263477
  0
LINE
  5
2CD3
330
1F
100
AcDbEntity
  8
AM_7
  6
AM_ISO08W050x2
100
AcDbLine
 10
2485.312388167246
 20
1464.133749628513
 30
0.0
 11
2493.312388167245
 21
1464.133749628513
 31
0.0
  0
LINE
  5
2CD4
330
1F
100
AcDbEntity
  8
AM_7
  6
AM_ISO08W050x2
100
AcDbLine
 10
2489.312388167246
 20
1460.133749628513
 30
0.0
 11
2489.312388167246
 21
1468.133749628513
 31
0.0
  0
ARC
  5
2CD5
330
1F
100
AcDbEntity
  8
AM_4
100
AcDbCircle
 10
2474.312388167246
 20
1464.133749628513
 30
0.0
 40
3.0
100
AcDbArc
 50
260.0
 51
170.0
  0
CIRCLE
  5
2CD6
330
1F
100
AcDbEntity
  8
AM_0
100
AcDbCircle
 10
2474.312388167246
 20
1464.133749628513
 30
0.0
 40
2.45873412263477
  0
LINE
  5
2CD7
330
1F
100
AcDbEntity
  8
AM_7
  6
AM_ISO08W050x2
100
AcDbLine
 10
2470.312388167246
 20
1464.133749628513
 30
0.0
 11
2478.312388167246
 21
1464.133749628513
 31
0.0
  0
LINE
  5
2CD8
330
1F
100
AcDbEntity
  8
AM_7
  6
AM_ISO08W050x2
100
AcDbLine
 10
2474.312388167246
 20
1460.133749628513
 30
0.0
 11
2474.312388167246
 21
1468.133749628513
 31
0.0
  0
LINE
  5
3208
330
1F
100
AcDbEntity
  8
AM_7
  6
AM_ISO08W050x2
100
AcDbLine
 10
2489.312388167246
 20
1346.396137770556
 30
0.0
 11
2489.312388167246
 21
1359.755216261005
 31
0.0
  0
LINE
  5
3209
330
1F
100
AcDbEntity
  8
AM_7
  6
AM_ISO08W050x2
100
AcDbLine
 10
2474.312388167246
 20
1346.396137770556
 30
0.0
 11
2474.312388167246
 21
1359.755216261005
 31
0.0
  0
LINE
  5
320A
330
1F
100
AcDbEntity
  8
AM_7
  6
AM_ISO08W050x2
100
AcDbLine
 10
2489.312388167246
 20
1408.369020024588
 30
0.0
 11
2489.312388167246
 21
1395.009941534139
 31
0.0
  0
LINE
  5
320B
330
1F
100
AcDbEntity
  8
AM_7
  6
AM_ISO08W050x2
100
AcDbLine
 10
2474.312388167246
 20
1408.369020024588
 30
0.0
 11
2474.312388167246
 21
1395.009941534139
 31
0.0
  0
ENDSEC
  0
SECTION
  2
OBJECTS
  0
DICTIONARY
  5
C
330
0
100
AcDbDictionary
281
     1
  3
ACAD_COLOR
350
BE
  3
ACAD_GROUP
350
D
  3
ACAD_LAYOUT
350
1A
  3
ACAD_MATERIAL
350
BD
  3
ACAD_MLINESTYLE
350
17
  3
ACAD_PLOTSETTINGS
350
19
  3
ACAD_PLOTSTYLENAME
350
E
  3
ACAD_TABLESTYLE
350
11A
  3
ACDBHEADERROUNDTRIPXREC
350
32B1
  3
AcDbVariableDictionary
350
94
  3
AcmDictionary
350
5B
  3
AMG
350
41
  3
AMGSNAPSETTINGS
350
1B8
  3
DWGPROPS
350
32B0
  0
DICTIONARY
  5
3F9
330
2
100
AcDbDictionary
280
     1
281
     1
  3
ACAD_LAYERFILTERS
360
5B7
  3
ACAD_LAYERSTATES
360
76B
  3
ACLYDICTIONARY
360
5B6
  3
AMLAYER_GROUPCOLORS
360
B73
  0
DICTIONARY
  5
8F
330
1F
100
AcDbDictionary
280
     1
281
     1
  3
ACAD_SORTENTS
360
BA5
  0
DICTIONARY
  5
BE
102
{ACAD_REACTORS
330
C
102
}
330
C
100
AcDbDictionary
281
     1
  0
DICTIONARY
  5
D
102
{ACAD_REACTORS
330
C
102
}
330
C
100
AcDbDictionary
281
     1
  0
DICTIONARY
  5
1A
102
{ACAD_REACTORS
330
C
102
}
330
C
100
AcDbDictionary
281
     1
  3
Model
350
22
  3
配置1
350
1E
  3
配置2
350
26
  0
DICTIONARY
  5
BD
102
{ACAD_REACTORS
330
C
102
}
330
C
100
AcDbDictionary
281
     1
  0
DICTIONARY
  5
17
102
{ACAD_REACTORS
330
C
102
}
330
C
100
AcDbDictionary
281
     1
  3
Standard
350
18
  0
DICTIONARY
  5
19
102
{ACAD_REACTORS
330
C
102
}
330
C
100
AcDbDictionary
281
     1
  0
ACDBDICTIONARYWDFLT
  5
E
102
{ACAD_REACTORS
330
C
102
}
330
C
100
AcDbDictionary
281
     1
  3
Normal
350
F
100
AcDbDictionaryWithDefault
340
F
  0
DICTIONARY
  5
11A
102
{ACAD_REACTORS
330
C
102
}
330
C
100
AcDbDictionary
281
     1
  3
Standard
350
11B
  0
DICTIONARY
  5
32B1
102
{ACAD_REACTORS
330
C
102
}
330
C
100
AcDbDictionary
281
     1
  0
DICTIONARY
  5
94
102
{ACAD_REACTORS
330
C
102
}
330
C
100
AcDbDictionary
281
     1
  3
CTABLESTYLE
350
138
  3
DIMASSOC
350
96
  3
INDEXCTL
350
95
  3
PROJECTNAME
350
32AE
  0
DICTIONARY
  5
5B
102
{ACAD_REACTORS
330
C
102
}
330
C
100
AcDbDictionary
281
     1
  3
AcmBOM
350
1B5
  3
AcmStdDictionary
350
61
  3
AMDTSECTSYM_ARROWCOLOR
350
123
  0
DICTIONARY
  5
41
102
{ACAD_REACTORS
330
C
102
}
330
C
100
AcDbDictionary
281
     1
  0
DICTIONARY
  5
1B8
102
{ACAD_REACTORS
330
C
102
}
330
C
100
AcDbDictionary
281
     1
  0
XRECORD
  5
32B0
102
{ACAD_REACTORS
330
C
102
}
330
C
100
AcDbXrecord
280
     1
  1
DWGPROPS COOKIE
  2

  3

  4

  6

  7

  8

  9

300
AmdtFileType=84
301
=
302
=
303
=
304
=
305
=
306
=
307
=
308
=
309
=
 40
0.0796578356481482
 41
2453696.549700336
 42
2453696.630465856
  1

 90
        1
  0
DICTIONARY
  5
5B7
102
{ACAD_REACTORS
330
3F9
102
}
330
3F9
100
AcDbDictionary
281
     1
  0
DICTIONARY
  5
76B
102
{ACAD_REACTORS
330
3F9
102
}
330
3F9
100
AcDbDictionary
281
     1
  0
DICTIONARY
  5
5B6
102
{ACAD_REACTORS
330
3F9
102
}
330
3F9
100
AcDbDictionary
281
     1
1001
ACAD
1000
<All
  0
DICTIONARY
  5
B73
102
{ACAD_REACTORS
330
3F9
102
}
330
3F9
100
AcDbDictionary
280
     1
281
     1
  0
SORTENTSTABLE
  5
BA5
102
{ACAD_REACTORS
330
8F
102
}
330
8F
100
AcDbSortentsTable
330
1F
331
EE9
  5
EE9
331
CE1
  5
CE1
331
F63
  5
F63
331
E1B
  5
E1B
331
D79
  5
D79
331
EBF
  5
EBF
331
E6F
  5
E6F
331
E45
  5
E45
331
D53
  5
D53
331
DBF
  5
DBF
331
1264
  5
1264
331
B51
  5
B51
331
F19
  5
F19
331
CBB
  5
CBB
331
C49
  5
C49
331
E95
  5
E95
331
1256
  5
1256
331
D07
  5
D07
331
C6F
  5
C6F
331
C95
  5
C95
331
1265
  5
1265
331
1257
  5
1257
331
B2B
  5
B2B
331
D2D
  5
D2D
  0
LAYOUT
  5
22
102
{ACAD_XDICTIONARY
360
32B4
102
}
102
{ACAD_REACTORS
330
1A
102
}
330
1A
100
AcDbPlotSettings
  1

  2
\\RD\EPSON Stylus C63 Series單色
  4
A4
  6

 40
3.757083177566528
 41
3.757076978683471
 42
3.757080078125
 43
3.757080078125
 44
209.9733276367187
 45
296.9683227539062
 46
0.0
 47
0.0
 48
0.0
 49
0.0
140
0.0
141
0.0
142
1.0
143
0.3405120737814363
 70
 11952
 72
     1
 73
     0
 74
     0
  7
彩色出圖.ctb
 75
     0
147
2.936753428137963
148
-2047.07469463503
149
-1261.649717473083
100
AcDbLayout
  1
Model
 70
     1
 71
     0
 10
0.0
 20
0.0
 11
12.0
 21
9.0
 12
0.0
 22
0.0
 32
0.0
 14
0.0
 24
0.0
 34
0.0
 15
0.0
 25
0.0
 35
0.0
146
0.0
 13
0.0
 23
0.0
 33
0.0
 16
1.0
 26
0.0
 36
0.0
 17
0.0
 27
1.0
 37
0.0
 76
     0
330
1F
1001
ACAD_PSEXT
1000
\\RD\EPSON Stylus C63 Series單色
1000
EPSON Stylus C63 Series
1000
\\RD
1000

1070
     0
  0
LAYOUT
  5
1E
102
{ACAD_XDICTIONARY
360
32B2
102
}
102
{ACAD_REACTORS
330
1A
102
}
330
1A
100
AcDbPlotSettings
  1

  2

  4

  6

 40
0.0
 41
0.0
 42
0.0
 43
0.0
 44
0.0
 45
0.0
 46
0.0
 47
0.0
 48
0.0
 49
0.0
140
0.0
141
0.0
142
1.0
143
1.0
 70
   688
 72
     0
 73
     0
 74
     5
  7
彩色出圖.ctb
 75
    16
147
1.0
148
0.0
149
0.0
100
AcDbLayout
  1
配置1
 70
     1
 71
     1
 10
0.0
 20
0.0
 11
420.0
 21
297.0
 12
0.0
 22
0.0
 32
0.0
 14
1.000000000000000E+20
 24
1.000000000000000E+20
 34
1.000000000000000E+20
 15
-1.000000000000000E+20
 25
-1.000000000000000E+20
 35
-1.000000000000000E+20
146
0.0
 13
0.0
 23
0.0
 33
0.0
 16
1.0
 26
0.0
 36
0.0
 17
0.0
 27
1.0
 37
0.0
 76
     0
330
1B
  0
LAYOUT
  5
26
102
{ACAD_XDICTIONARY
360
32B6
102
}
102
{ACAD_REACTORS
330
1A
102
}
330
1A
100
AcDbPlotSettings
  1

  2

  4

  6

 40
0.0
 41
0.0
 42
0.0
 43
0.0
 44
0.0
 45
0.0
 46
0.0
 47
0.0
 48
0.0
 49
0.0
140
0.0
141
0.0
142
1.0
143
1.0
 70
   688
 72
     0
 73
     0
 74
     5
  7
彩色出圖.ctb
 75
    16
147
1.0
148
0.0
149
0.0
100
AcDbLayout
  1
配置2
 70
     1
 71
     2
 10
0.0
 20
0.0
 11
12.0
 21
9.0
 12
0.0
 22
0.0
 32
0.0
 14
0.0
 24
0.0
 34
0.0
 15
0.0
 25
0.0
 35
0.0
146
0.0
 13
0.0
 23
0.0
 33
0.0
 16
1.0
 26
0.0
 36
0.0
 17
0.0
 27
1.0
 37
0.0
 76
     0
330
23
  0
MLINESTYLE
  5
18
102
{ACAD_REACTORS
330
17
102
}
330
17
100
AcDbMlineStyle
  2
STANDARD
 70
     0
  3

 62
   256
 51
90.0
 52
90.0
 71
     2
 49
0.5
 62
   256
  6
BYLAYER
 49
-0.5
 62
   256
  6
BYLAYER
  0
ACDBPLACEHOLDER
  5
F
102
{ACAD_REACTORS
330
E
102
}
330
E
  0
TABLESTYLE
  5
11B
102
{ACAD_REACTORS
330
11A
102
}
330
11A
100
AcDbTableStyle
  3
Standard
 70
     0
 71
     0
 40
1.5
 41
1.5
280
     0
281
     0
  7
STANDARD
140
4.5
170
     2
 62
     0
 63
     7
283
     0
274
    -2
284
     1
 64
     0
275
    -2
285
     1
 65
     0
276
    -2
286
     1
 66
     0
277
    -2
287
     1
 67
     0
278
    -2
288
     1
 68
     0
279
    -2
289
     1
 69
     0
  7
STANDARD
140
6.0
170
     5
 62
     0
 63
     7
283
     0
274
    -2
284
     1
 64
     0
275
    -2
285
     1
 65
     0
276
    -2
286
     1
 66
     0
277
    -2
287
     1
 67
     0
278
    -2
288
     1
 68
     0
279
    -2
289
     1
 69
     0
  7
STANDARD
140
4.5
170
     5
 62
     0
 63
     7
283
     0
274
    -2
284
     1
 64
     0
275
    -2
285
     1
 65
     0
276
    -2
286
     1
 66
     0
277
    -2
287
     1
 67
     0
278
    -2
288
     1
 68
     0
279
    -2
289
     1
 69
     0
  0
DICTIONARYVAR
  5
138
102
{ACAD_REACTORS
330
94
102
}
330
94
100
DictionaryVariables
280
     0
  1
STANDARD
  0
DICTIONARYVAR
  5
96
102
{ACAD_REACTORS
330
94
102
}
330
94
100
DictionaryVariables
280
     0
  1
2
  0
DICTIONARYVAR
  5
95
102
{ACAD_REACTORS
330
94
102
}
330
94
100
DictionaryVariables
280
     0
  1
0
  0
DICTIONARYVAR
  5
32AE
102
{ACAD_REACTORS
330
94
102
}
330
94
100
DictionaryVariables
280
     0
  1

  0
DICTIONARY
  5
1B5
102
{ACAD_REACTORS
330
5B
102
}
330
5B
100
AcDbDictionary
281
     1
  0
DICTIONARY
  5
61
102
{ACAD_REACTORS
330
5B
102
}
330
5B
100
AcDbDictionary
281
     1
  0
XRECORD
  5
123
102
{ACAD_REACTORS
330
5B
102
}
330
5B
100
AcDbXrecord
280
     1
 90
-1023410169
  0
DICTIONARY
  5
32B4
330
22
100
AcDbDictionary
280
     1
281
     1
  3
ACAD_XREC_ROUNDTRIP
360
32B5
  0
DICTIONARY
  5
32B2
330
1E
100
AcDbDictionary
280
     1
281
     1
  3
ACAD_XREC_ROUNDTRIP
360
32B3
  0
DICTIONARY
  5
32B6
330
26
100
AcDbDictionary
280
     1
281
     1
  3
ACAD_XREC_ROUNDTRIP
360
32B7
  0
XRECORD
  5
32B5
102
{ACAD_REACTORS
330
32B4
102
}
330
32B4
100
AcDbXrecord
280
     1
102
SHADEPLOT
 70
     0
102
SHADEPLOTRESLEVEL
 70
     2
102
SHADEPLOTCUSTOMDPI
 70
   300
  0
XRECORD
  5
32B3
102
{ACAD_REACTORS
330
32B2
102
}
330
32B2
100
AcDbXrecord
280
     1
102
SHADEPLOT
 70
     0
102
SHADEPLOTRESLEVEL
 70
     2
102
SHADEPLOTCUSTOMDPI
 70
   300
  0
XRECORD
  5
32B7
102
{ACAD_REACTORS
330
32B6
102
}
330
32B6
100
AcDbXrecord
280
     1
102
SHADEPLOT
 70
     0
102
SHADEPLOTRESLEVEL
 70
     2
102
SHADEPLOTCUSTOMDPI
 70
   300
  0
ENDSEC
  0
EOF
