  0
SECTION
  2
HEADER
  9
$ACADVER
  1
AC1015
  9
$ACADMAINTVER
 70
    20
  9
$DWGCODEPAGE
  3
ANSI_950
  9
$INSBASE
 10
0.0
 20
0.0
 30
0.0
  9
$EXTMIN
 10
2350.22096850174
 20
1190.316807174755
 30
0.0
  9
$EXTMAX
 10
2650.22096850174
 20
1519.337438743002
 30
196.5865886400747
  9
$LIMMIN
 10
0.0
 20
0.0
  9
$LIMMAX
 10
420.0
 20
297.0
  9
$ORTHOMODE
 70
     1
  9
$REGENMODE
 70
     1
  9
$FILLMODE
 70
     1
  9
$QTEXTMODE
 70
     0
  9
$MIRRTEXT
 70
     1
  9
$LTSCALE
 40
1.0
  9
$ATTMODE
 70
     1
  9
$TEXTSIZE
 40
3.0
  9
$TRACEWID
 40
1.0
  9
$TEXTSTYLE
  7
CHINESET
  9
$CLAYER
  8
0
  9
$CELTYPE
  6
ByLayer
  9
$CECOLOR
 62
   256
  9
$CELTSCALE
 40
1.0
  9
$DISPSILH
 70
     0
  9
$DIMSCALE
 40
1.0
  9
$DIMASZ
 40
3.0
  9
$DIMEXO
 40
1.0
  9
$DIMDLI
 40
7.0
  9
$DIMRND
 40
0.0
  9
$DIMDLE
 40
0.0
  9
$DIMEXE
 40
1.5
  9
$DIMTP
 40
0.1
  9
$DIMTM
 40
0.1
  9
$DIMTXT
 40
3.0
  9
$DIMCEN
 40
0.0
  9
$DIMTSZ
 40
0.0
  9
$DIMTOL
 70
     0
  9
$DIMLIM
 70
     0
  9
$DIMTIH
 70
     0
  9
$DIMTOH
 70
     0
  9
$DIMSE1
 70
     0
  9
$DIMSE2
 70
     0
  9
$DIMTAD
 70
     1
  9
$DIMZIN
 70
     8
  9
$DIMBLK
  1

  9
$DIMASO
 70
     1
  9
$DIMSHO
 70
     1
  9
$DIMPOST
  1

  9
$DIMAPOST
  1
"
  9
$DIMALT
 70
     0
  9
$DIMALTD
 70
     2
  9
$DIMALTF
 40
0.0393701
  9
$DIMLFAC
 40
1.0
  9
$DIMTOFL
 70
     1
  9
$DIMTVP
 40
0.0
  9
$DIMTIX
 70
     0
  9
$DIMSOXD
 70
     0
  9
$DIMSAH
 70
     0
  9
$DIMBLK1
  1

  9
$DIMBLK2
  1

  9
$DIMSTYLE
  2
AM_ISO
  9
$DIMCLRD
 70
   256
  9
$DIMCLRE
 70
   256
  9
$DIMCLRT
 70
   256
  9
$DIMTFAC
 40
0.71
  9
$DIMGAP
 40
1.0
  9
$DIMJUST
 70
     0
  9
$DIMSD1
 70
     0
  9
$DIMSD2
 70
     0
  9
$DIMTOLJ
 70
     0
  9
$DIMTZIN
 70
     8
  9
$DIMALTZ
 70
     0
  9
$DIMALTTZ
 70
     0
  9
$DIMUPT
 70
     0
  9
$DIMDEC
 70
     2
  9
$DIMTDEC
 70
     8
  9
$DIMALTU
 70
     2
  9
$DIMALTTD
 70
     2
  9
$DIMTXSTY
  7
STANDARD
  9
$DIMAUNIT
 70
     0
  9
$DIMADEC
 70
     0
  9
$DIMALTRND
 40
0.0
  9
$DIMAZIN
 70
     2
  9
$DIMDSEP
 70
    46
  9
$DIMATFIT
 70
     3
  9
$DIMFRAC
 70
     0
  9
$DIMLDRBLK
  1

  9
$DIMLUNIT
 70
     2
  9
$DIMLWD
 70
    -1
  9
$DIMLWE
 70
    -1
  9
$DIMTMOVE
 70
     0
  9
$LUNITS
 70
     2
  9
$LUPREC
 70
     2
  9
$SKETCHINC
 40
1.0
  9
$FILLETRAD
 40
2.5
  9
$AUNITS
 70
     0
  9
$AUPREC
 70
     0
  9
$MENU
  1
.
  9
$ELEVATION
 40
0.0
  9
$PELEVATION
 40
0.0
  9
$THICKNESS
 40
0.0
  9
$LIMCHECK
 70
     0
  9
$CHAMFERA
 40
2.5
  9
$CHAMFERB
 40
2.5
  9
$CHAMFERC
 40
20.0
  9
$CHAMFERD
 40
0.0
  9
$SKPOLY
 70
     0
  9
$TDCREATE
 40
2453696.549700336
  9
$TDUCREATE
 40
2453696.216367002
  9
$TDUPDATE
 40
2453696.630948704
  9
$TDUUPDATE
 40
2453696.297615370
  9
$TDINDWG
 40
0.0759700579
  9
$TDUSRTIMER
 40
0.0759700579
  9
$USRTIMER
 70
     1
  9
$ANGBASE
 50
0.0
  9
$ANGDIR
 70
     0
  9
$PDMODE
 70
     0
  9
$PDSIZE
 40
0.0
  9
$PLINEWID
 40
0.0
  9
$SPLFRAME
 70
     0
  9
$SPLINETYPE
 70
     6
  9
$SPLINESEGS
 70
     8
  9
$HANDSEED
  5
29EF
  9
$SURFTAB1
 70
     6
  9
$SURFTAB2
 70
     6
  9
$SURFTYPE
 70
     6
  9
$SURFU
 70
     6
  9
$SURFV
 70
     6
  9
$UCSBASE
  2

  9
$UCSNAME
  2

  9
$UCSORG
 10
0.0
 20
0.0
 30
0.0
  9
$UCSXDIR
 10
1.0
 20
0.0
 30
0.0
  9
$UCSYDIR
 10
0.0
 20
1.0
 30
0.0
  9
$UCSORTHOREF
  2

  9
$UCSORTHOVIEW
 70
     0
  9
$UCSORGTOP
 10
0.0
 20
0.0
 30
0.0
  9
$UCSORGBOTTOM
 10
0.0
 20
0.0
 30
0.0
  9
$UCSORGLEFT
 10
0.0
 20
0.0
 30
0.0
  9
$UCSORGRIGHT
 10
0.0
 20
0.0
 30
0.0
  9
$UCSORGFRONT
 10
0.0
 20
0.0
 30
0.0
  9
$UCSORGBACK
 10
0.0
 20
0.0
 30
0.0
  9
$PUCSBASE
  2

  9
$PUCSNAME
  2

  9
$PUCSORG
 10
0.0
 20
0.0
 30
0.0
  9
$PUCSXDIR
 10
1.0
 20
0.0
 30
0.0
  9
$PUCSYDIR
 10
0.0
 20
1.0
 30
0.0
  9
$PUCSORTHOREF
  2

  9
$PUCSORTHOVIEW
 70
     0
  9
$PUCSORGTOP
 10
0.0
 20
0.0
 30
0.0
  9
$PUCSORGBOTTOM
 10
0.0
 20
0.0
 30
0.0
  9
$PUCSORGLEFT
 10
0.0
 20
0.0
 30
0.0
  9
$PUCSORGRIGHT
 10
0.0
 20
0.0
 30
0.0
  9
$PUCSORGFRONT
 10
0.0
 20
0.0
 30
0.0
  9
$PUCSORGBACK
 10
0.0
 20
0.0
 30
0.0
  9
$USERI1
 70
     0
  9
$USERI2
 70
     0
  9
$USERI3
 70
     0
  9
$USERI4
 70
     0
  9
$USERI5
 70
     0
  9
$USERR1
 40
0.0
  9
$USERR2
 40
0.0
  9
$USERR3
 40
0.0
  9
$USERR4
 40
0.0
  9
$USERR5
 40
0.0
  9
$WORLDVIEW
 70
     1
  9
$SHADEDGE
 70
     3
  9
$SHADEDIF
 70
    70
  9
$TILEMODE
 70
     1
  9
$MAXACTVP
 70
    64
  9
$PINSBASE
 10
0.0
 20
0.0
 30
0.0
  9
$PLIMCHECK
 70
     0
  9
$PEXTMIN
 10
1.000000000000000E+20
 20
1.000000000000000E+20
 30
1.000000000000000E+20
  9
$PEXTMAX
 10
-1.000000000000000E+20
 20
-1.000000000000000E+20
 30
-1.000000000000000E+20
  9
$PLIMMIN
 10
0.0
 20
0.0
  9
$PLIMMAX
 10
420.0
 20
297.0
  9
$UNITMODE
 70
     0
  9
$VISRETAIN
 70
     1
  9
$PLINEGEN
 70
     0
  9
$PSLTSCALE
 70
     1
  9
$TREEDEPTH
 70
  3020
  9
$CMLSTYLE
  2
Standard
  9
$CMLJUST
 70
     0
  9
$CMLSCALE
 40
20.0
  9
$PROXYGRAPHICS
 70
     1
  9
$MEASUREMENT
 70
     1
  9
$CELWEIGHT
370
    -1
  9
$ENDCAPS
280
     0
  9
$JOINSTYLE
280
     0
  9
$LWDISPLAY
290
     0
  9
$INSUNITS
 70
     4
  9
$HYPERLINKBASE
  1

  9
$STYLESHEET
  1
彩色出圖.ctb
  9
$XEDIT
290
     1
  9
$CEPSNTYPE
380
     0
  9
$PSTYLEMODE
290
     1
  9
$FINGERPRINTGUID
  2
{E56C8895-30D3-4116-AE32-4553F16A924E}
  9
$VERSIONGUID
  2
{9D5319CC-16D7-47ED-BE51-0AFA7A52C126}
  9
$EXTNAMES
290
     1
  9
$PSVPSCALE
 40
0.0
  9
$OLESTARTUP
290
     0
  0
ENDSEC
  0
SECTION
  2
CLASSES
  0
CLASS
  1
ACDBDICTIONARYWDFLT
  2
AcDbDictionaryWithDefault
  3
ObjectDBX Classes
 90
        0
280
     0
281
     0
  0
CLASS
  1
ACDBPLACEHOLDER
  2
AcDbPlaceHolder
  3
ObjectDBX Classes
 90
        0
280
     0
281
     0
  0
CLASS
  1
LAYOUT
  2
AcDbLayout
  3
ObjectDBX Classes
 90
        0
280
     0
281
     0
  0
CLASS
  1
ACME_DOCUMENT
  2
AcMeDbDoc
  3
AcMeServices
 90
        0
280
     0
281
     0
  0
CLASS
  1
AMGSETTINGSOBJ
  2
AmgSettingsObj
  3
"AcadM|Product Description: AutoCAD Mechanical 2000|Company: Autodesk"
 90
        0
280
     0
281
     0
  0
CLASS
  1
ACMESCOPE
  2
AcMeScope
  3
AcMeServices
 90
        0
280
     0
281
     0
  0
CLASS
  1
ACMECOMMANDHISTORY
  2
AcMeCommandHistory
  3
AcMeServices
 90
        0
280
     0
281
     0
  0
CLASS
  1
ACIMSYSVARMAN
  2
AcImSysVarManager
  3
AcMeServices
 90
        0
280
     0
281
     0
  0
CLASS
  1
ACIMREALSYSVAR
  2
AcImRealSysVar
  3
AcMeServices
 90
        0
280
     0
281
     0
  0
CLASS
  1
ACIMINTSYSVAR
  2
AcImIntSysVar
  3
AcMeServices
 90
        0
280
     0
281
     0
  0
CLASS
  1
ACMEDRAWINGMAN
  2
AcMeDrawingMan
  3
AcMeServices
 90
        0
280
     0
281
     0
  0
CLASS
  1
ACMEVIEW
  2
AcMeView
  3
AcMeServices
 90
        0
280
     0
281
     0
  0
CLASS
  1
ACDBENTITYCACHE
  2
AcMeEntityCache
  3
AcMeServices
 90
        0
280
     0
281
     0
  0
CLASS
  1
GSMANAGER
  2
AcMeGSManager
  3
AcMeServices
 90
        0
280
     0
281
     0
  0
CLASS
  1
AMDTINTERNALREACTOR
  2
AmdtInternalReactor
  3
AcMeServices
 90
        0
280
     0
281
     0
  0
CLASS
  1
ACMESTATEMGR
  2
AcMeStateMgr
  3
AcMeServices
 90
        0
280
     0
281
     0
  0
CLASS
  1
ACGREFMASTER
  2
AcGrefMaster
  3
AcAttribServices
 90
        0
280
     0
281
     0
  0
CLASS
  1
ACME_DATABASE
  2
AcMeDbDatabase
  3
AcMeServices
 90
        0
280
     0
281
     0
  0
CLASS
  1
ACRFINSADJUSTERMGR
  2
AcRfInsAdjusterMgr
  3
AcMeServices
 90
        0
280
     0
281
     0
  0
CLASS
  1
ACGREFACADMASTER
  2
AcGrefacadMaster
  3
AcGrefServices
 90
        0
280
     0
281
     0
  0
CLASS
  1
AMIMASTER
  2
AmiMaster
  3
AmiServices
 90
        0
280
     0
281
     0
  0
CLASS
  1
ACMDATADICTIONARY
  2
AcmDataDictionary
  3
"AcmSymBB|Product Description: AutoCAD Mechanical 2004 DX|Company: Autodesk"
 90
        0
280
     0
281
     0
  0
CLASS
  1
ACMDATAENTRYBLOCK
  2
AcmDataEntryBlock
  3
"AcmSymBB|Product Description: AutoCAD Mechanical 2004 DX|Company: Autodesk"
 90
        0
280
     0
281
     0
  0
CLASS
  1
ACIMSTRSYSVAR
  2
AcImStrSysVar
  3
AcMeServices
 90
        0
280
     0
281
     0
  0
CLASS
  1
ACMSTANDARDISO
  2
AcmStandardISO
  3
"Amdt_StdImp|Product Description: AutoCAD Mechanical 2004 DX|Company: Autodesk"
 90
        0
280
     0
281
     0
  0
CLASS
  1
AMGOBJPROPCFG
  2
AmgObjPropCfg
  3
"AmgLay|Product Description: AutoCAD Mechanical 2000|Company: Autodesk"
 90
        1
280
     0
281
     0
  0
CLASS
  1
AMDTEDGESTANDARDISO
  2
AmdtEdgeStdISO
  3
"Amdt_StdImp|Product Description: AutoCAD Mechanical 2004 DX|Company: Autodesk"
 90
        0
280
     0
281
     0
  0
CLASS
  1
ACMSURFSTANDARDISO
  2
AcmSurfTextStdISO
  3
"Amdt_StdImp|Product Description: AutoCAD Mechanical 2004 DX|Company: Autodesk"
 90
        0
280
     0
281
     0
  0
CLASS
  1
ACMFCFSTANDARDISO
  2
AcmFCFStdISO
  3
"Amdt_StdImp|Product Description: AutoCAD Mechanical 2004 DX|Company: Autodesk"
 90
        0
280
     0
281
     0
  0
CLASS
  1
ACMWELDSTANDARDISO
  2
AcmWeldingStdISO
  3
"Amdt_StdImp|Product Description: AutoCAD Mechanical 2004 DX|Company: Autodesk"
 90
        0
280
     0
281
     0
  0
CLASS
  1
ACMIDSTANDARDISO
  2
AcmIdStdISO
  3
"Amdt_StdImp|Product Description: AutoCAD Mechanical 2004 DX|Company: Autodesk"
 90
        0
280
     0
281
     0
  0
CLASS
  1
ACMDATUMSTANDARDISO
  2
AcmDatumStdISO
  3
"Amdt_StdImp|Product Description: AutoCAD Mechanical 2004 DX|Company: Autodesk"
 90
        0
280
     0
281
     0
  0
CLASS
  1
ACMBOMSTANDARDISO
  2
AcmBOMStdISO
  3
"Amdt_StdImp|Product Description: AutoCAD Mechanical 2004 DX|Company: Autodesk"
 90
        0
280
     0
281
     0
  0
CLASS
  1
ACMDETAILSTANDARDISO
  2
AmdtDetailSymStdISO
  3
"Amdt_StdImp|Product Description: AutoCAD Mechanical 2004 DX|Company: Autodesk"
 90
        0
280
     0
281
     0
  0
CLASS
  1
ACMSECTIONSTANDARDISO
  2
AmdtSectionSymStdISO
  3
"Amdt_StdImp|Product Description: AutoCAD Mechanical 2004 DX|Company: Autodesk"
 90
        0
280
     0
281
     0
  0
CLASS
  1
ACMCENTERLINESTANDARDISO
  2
AmdtCenterLineStdISO
  3
"Amdt_StdImp|Product Description: AutoCAD Mechanical 2004 DX|Company: Autodesk"
 90
        0
280
     0
281
     0
  0
CLASS
  1
ACMNOTESTANDARDISO
  2
AmdtNoteStdISO
  3
"Amdt_StdImp|Product Description: AutoCAD Mechanical 2004 DX|Company: Autodesk"
 90
        0
280
     0
281
     0
  0
CLASS
  1
ACAMGLAYSTD
  2
AcAmgLayStd
  3
"AcAmgLayStd|Product Description: AutoCAD Mechanical 2000|Company: Autodesk"
 90
        0
280
     0
281
     0
  0
CLASS
  1
ACAMGDIMSTD
  2
AcAmgDimStd
  3
"AcAmgDimStd|Product Description: AutoCAD Mechanical 2000|Company: Autodesk"
 90
        0
280
     0
281
     0
  0
CLASS
  1
ACAMGHOLECHARTSTDISO
  2
AcAmgHoleChartStdISO
  3
ACMSYMBB_MODULE_NAME
 90
        0
280
     0
281
     0
  0
CLASS
  1
ACAMGTITLESTD
  2
AcAmgTitleStd
  3
"TITLEAPP"
 90
        0
280
     0
281
     0
  0
CLASS
  1
LAYER_INDEX
  2
AcDbLayerIndex
  3
ObjectDBX Classes
 90
    32768
280
     0
281
     0
  0
CLASS
  1
IDBUFFER
  2
AcDbIdBuffer
  3
ObjectDBX Classes
 90
    32768
280
     0
281
     0
  0
CLASS
  1
DICTIONARYVAR
  2
AcDbDictionaryVar
  3
ObjectDBX Classes
 90
        0
280
     0
281
     0
  0
CLASS
  1
AM_DRAWING_MGR
  2
AcDmDwgMgr
  3
AcMechDwgViewMgmt
 90
        0
280
     0
281
     0
  0
CLASS
  1
AM_DWG_DOCUMENT
  2
AcDmDwgDocument
  3
AcMechDwgViewMgmt
 90
        0
280
     0
281
     0
  0
CLASS
  1
AM_DWG_SHEET
  2
AcDmSheet
  3
AcMechDwgViewMgmt
 90
        0
280
     0
281
     0
  0
CLASS
  1
AM_VIEWDIMPARMAP
  2
AcDmViewDimParMap
  3
AcMechDwgViewMgmt
 90
        0
280
     0
281
     0
  0
CLASS
  1
AM_DWGMGR_NAME
  2
AcDmDwgMgrName
  3
AcMechDwgViewMgmt
 90
        0
280
     0
281
     0
  0
CLASS
  1
AMDTMENUSTATEMGR
  2
AmdtMenuStateMgr
  3
McadcomServices
 90
        0
280
     0
281
     0
  0
CLASS
  1
AMDTMCOMMENUSTATE
  2
AmdtMcomMenuState
  3
McadcomServices
 90
        0
280
     0
281
     0
  0
CLASS
  1
MAPIAMMOUDLE
  2
MApiAmModule
  3
MApiAmServices
 90
        0
280
     0
281
     0
  0
CLASS
  1
AMDTADMENUSTATE
  2
AmdtAdMenuState
  3
DesignerServices
 90
        0
280
     0
281
     0
  0
CLASS
  1
ADAPPL
  2
AcAdAppl
  3
DesignerServices
 90
        0
280
     0
281
     0
  0
CLASS
  1
DEPMGR
  2
AcAdDepMgr
  3
DesignerServices
 90
        0
280
     0
281
     0
  0
CLASS
  1
PARAMMGR
  2
AcAdParamMgr
  3
DesignerServices
 90
        0
280
     0
281
     0
  0
CLASS
  1
PARAMSCOPE
  2
AcAdParamScope
  3
DesignerServices
 90
        0
280
     0
281
     0
  0
CLASS
  1
NAMEDAPPL
  2
AcAdNamedAppl
  3
DesignerServices
 90
        0
280
     0
281
     0
  0
CLASS
  1
AMDTDMMENUSTATE
  2
AmdtDmMenuState
  3
AcMechDwgViewMgmt
 90
        0
280
     0
281
     0
  0
CLASS
  1
AMDTAMMENUSTATE
  2
AmdtAmMenuState
  3
DesignerAssemblies
 90
        0
280
     0
281
     0
  0
CLASS
  1
ACAMPROJECT
  2
AcAmProject
  3
DesignerAssemblies
 90
        0
280
     0
281
     0
  0
CLASS
  1
ACAMGRCOMPDEF
  2
AcAmGrCompDef
  3
DesignerAssemblies
 90
        0
280
     0
281
     0
  0
CLASS
  1
ACCMCONTEXT
  2
AcCmContext
  3
DesignerAssemblies
 90
        0
280
     0
281
     0
  0
CLASS
  1
ACAMCOMPDEF
  2
AcAmCompDef
  3
DesignerAssemblies
 90
        0
280
     0
281
     0
  0
CLASS
  1
ACAMCOMPDEFMGR
  2
AcAmCompDefMgr
  3
DesignerAssemblies
 90
        0
280
     0
281
     0
  0
CLASS
  1
AMCONTEXTMGR
  2
AcAmContextMgr
  3
DesignerAssemblies
 90
        0
280
     0
281
     0
  0
CLASS
  1
ACAMCONTEXTMODELER
  2
AcAmContextModeler
  3
DesignerAssemblies
 90
        0
280
     0
281
     0
  0
CLASS
  1
ACMTHREADLINESTANDARDISO
  2
AmdtThreadLineStdISO
  3
"Amdt_StdImp|Product Description: AutoCAD Mechanical 2004 DX|Company: Autodesk"
 90
        0
280
     0
281
     0
  0
CLASS
  1
CATALOGSTATE
  2
AcAmCatalogState
  3
DesignerAssemblies
 90
        0
280
     0
281
     0
  0
CLASS
  1
ACAMGRCOMPDEFSET
  2
AcAmGrCompDefSet
  3
DesignerAssemblies
 90
        0
280
     0
281
     0
  0
CLASS
  1
AMDTBROWSERDBTAB
  2
AmdtBrowserDbTab
  3
McadcomServices
 90
        0
280
     0
281
     0
  0
CLASS
  1
CBROWSERAPPOBJECT
  2
CBrowserAppObject
  3
McadcomServices
 90
        0
280
     0
281
     0
  0
CLASS
  1
DM_PLACEHOLDER
  2
AcDmSelsetPlaceholder
  3
AcMechDwgViewMgmt
 90
        0
280
     0
281
     0
  0
CLASS
  1
TABLESTYLE
  2
AcDbTableStyle
  3
ObjectDBX Classes
 90
     2047
280
     0
281
     0
  0
CLASS
  1
VAACXREFPANELOBJECT
  2
VaAcXREFPanelObject
  3
VAAC_ADDIN
 90
    32768
280
     0
281
     0
  0
CLASS
  1
VAACIMAGEINVENTORY
  2
VaAcImageInventory
  3
VAAC_ADDIN
 90
    32768
280
     0
281
     0
  0
CLASS
  1
AMDTNOTETEMPLATEDB
  2
AmdtNoteTemplateDB
  3
AMDT_STDIMP_MODULE_NAME
 90
        0
280
     0
281
     0
  0
CLASS
  1
ACMBOM
  2
AcmBom
  3
"AcmSymBB|Product Description: AutoCAD Mechanical 2004 DX|Company: Autodesk"
 90
    32768
280
     0
281
     0
  0
CLASS
  1
AMDTFORMULAUPDATEDISPATCHER
  2
AmdtFormulaUpdateDispatcher
  3
AcMeServices
 90
    32768
280
     0
281
     0
  0
CLASS
  1
ACMPARTLIST
  2
AcmPartList
  3
"AcmSymBB|Product Description: AutoCAD Mechanical 2004 DX|Company: Autodesk"
 90
    33791
280
     0
281
     1
  0
CLASS
  1
ACAMGFILTERDAT
  2
AcAmgFilterDat
  3
"AcadM|Product Description: AutoCAD Mechanical 2000|Company: Autodesk"
 90
        0
280
     0
281
     0
  0
CLASS
  1
DIMASSOC
  2
AcDbDimAssoc
  3
"AcDbDimAssoc|Product Desc:     AcDim ARX App For Dimension|Company:          Autodesk, Inc.|WEB Address:      www.autodesk.com"
 90
    32768
280
     0
281
     0
  0
CLASS
  1
STDPART2D
  2
AmgStdPart
  3
"AmgStdPart|Product Description: AutoCAD Mechanical 2000|Company: Autodesk"
 90
    33791
280
     0
281
     1
  0
CLASS
  1
ACAMSTDPCOMPDEF
  2
AcAmStdpCompDef
  3
DesignerAssemblies
 90
    32768
280
     0
281
     0
  0
CLASS
  1
ACRFATTGENMGR
  2
AcRfAttGeneralMgr
  3
AcAttribServices
 90
        0
280
     0
281
     0
  0
CLASS
  1
ACRFOBJATTMGR
  2
AcRfObjAttGroupMgr
  3
AcAttribServices
 90
    32768
280
     0
281
     0
  0
CLASS
  1
ACRFMCADAPIATTHOLDER
  2
AcRfMCADAPIAttHolder
  3
AcAttribServices
 90
    32768
280
     0
281
     0
  0
CLASS
  1
AMDTSYSATTR
  2
AmdtSystemAttribute
  3
AcAttribServices
 90
    32768
280
     0
281
     0
  0
CLASS
  1
ACAMCOMP
  2
AcAmComp
  3
DesignerAssemblies
 90
    32768
280
     0
281
     0
  0
CLASS
  1
AC_AM_STDP_VIEW_DEF
  2
AcAmStdpViewDef
  3
DesignerAssemblies
 90
    32768
280
     0
281
     0
  0
CLASS
  1
AC_AM_MVD_DEP_MGR
  2
AcAmMVDdepMgr
  3
DesignerAssemblies
 90
        0
280
     0
281
     0
  0
CLASS
  1
AC_AM_MASTER_VIEW_DEF
  2
AcAmMasterViewDef
  3
DesignerAssemblies
 90
        0
280
     0
281
     0
  0
CLASS
  1
AC_AM_DIRTY_NODES
  2
AcAmDirtyNodes
  3
DesignerAssemblies
 90
        0
280
     0
281
     0
  0
CLASS
  1
AC_AM_MAPPER_CACHE
  2
AcAmMapperCache
  3
DesignerAssemblies
 90
        0
280
     0
281
     0
  0
CLASS
  1
ACAMMVDBACKUPOBJECT
  2
AcAmMVDBackupObject
  3
DesignerAssemblies
 90
        0
280
     0
281
     0
  0
CLASS
  1
AC_AM_COMP_VIEW_INST
  2
AcAmCompView
  3
DesignerAssemblies
 90
    32768
280
     0
281
     0
  0
CLASS
  1
AC_AM_2D_XREF_MGR
  2
AcAmXrefMgr2d
  3
DesignerAssemblies
 90
        0
280
     0
281
     0
  0
CLASS
  1
SORTENTSTABLE
  2
AcDbSortentsTable
  3
ObjectDBX Classes
 90
        0
280
     0
281
     0
  0
CLASS
  1
AMDTNOTE
  2
AmdtNote
  3
"AcmSymBB|Product Description: AutoCAD Mechanical 2004 DX|Company: Autodesk"
 90
     1023
280
     0
281
     1
  0
ENDSEC
  0
SECTION
  2
TABLES
  0
TABLE
  2
VPORT
  5
8
330
0
100
AcDbSymbolTable
 70
     3
  0
VPORT
  5
29E6
330
8
100
AcDbSymbolTableRecord
100
AcDbViewportTableRecord
  2
*Active
 70
     0
 10
0.0
 20
0.0
 11
1.0
 21
1.0
 12
2500.219823376891
 22
1354.822498929558
 13
0.0
 23
0.0
 14
2.5
 24
2.5
 15
10.0
 25
10.0
 16
0.0
 26
0.0
 36
1.0
 17
0.0
 27
0.0
 37
0.0
 40
333.276861309553
 41
1.81766917293233
 42
50.0
 43
0.0
 44
0.0
 50
0.0
 51
0.0
 71
     0
 72
   100
 73
     1
 74
     3
 75
     0
 76
     0
 77
     0
 78
     0
281
     0
 65
     1
110
0.0
120
0.0
130
0.0
111
1.0
121
0.0
131
0.0
112
0.0
122
1.0
132
0.0
 79
     0
146
0.0
  0
ENDTAB
  0
TABLE
  2
LTYPE
  5
5
330
0
100
AcDbSymbolTable
 70
    14
  0
LTYPE
  5
14
330
5
100
AcDbSymbolTableRecord
100
AcDbLinetypeTableRecord
  2
ByBlock
 70
     0
  3

 72
    65
 73
     0
 40
0.0
  0
LTYPE
  5
15
330
5
100
AcDbSymbolTableRecord
100
AcDbLinetypeTableRecord
  2
ByLayer
 70
     0
  3

 72
    65
 73
     0
 40
0.0
  0
LTYPE
  5
16
330
5
100
AcDbSymbolTableRecord
100
AcDbLinetypeTableRecord
  2
Continuous
 70
     0
  3
Solid line
 72
    65
 73
     0
 40
0.0
  0
LTYPE
  5
64
330
5
100
AcDbSymbolTableRecord
100
AcDbLinetypeTableRecord
  2
AM_ISO02W050
 70
     0
  3
__ __ __ __ __ __ __ __ __ __ __ __ __ __ __
 72
    65
 73
     2
 40
7.5
 49
6.0
 74
     0
 49
-1.5
 74
     0
  0
LTYPE
  5
65
330
5
100
AcDbSymbolTableRecord
100
AcDbLinetypeTableRecord
  2
AM_ISO08W050
 70
     0
  3
____ . ____ . ____ . ____ . ____ . ____ . ____
 72
    65
 73
     4
 40
18.0
 49
12.0
 74
     0
 49
-1.5
 74
     0
 49
3.0
 74
     0
 49
-1.5
 74
     0
  0
LTYPE
  5
66
330
5
100
AcDbSymbolTableRecord
100
AcDbLinetypeTableRecord
  2
AM_ISO09W050
 70
     0
  3
_____ . . _____ . . _____ . . ____ .. ____
 72
    65
 73
     6
 40
22.5
 49
12.0
 74
     0
 49
-1.5
 74
     0
 49
3.0
 74
     0
 49
-1.5
 74
     0
 49
3.0
 74
     0
 49
-1.5
 74
     0
  0
LTYPE
  5
67
330
5
100
AcDbSymbolTableRecord
100
AcDbLinetypeTableRecord
  2
Amconstr
 70
     0
  3
_______________________
 72
    65
 73
     2
 40
9999.0
 49
9999.0
 74
     0
 49
0.0
 74
     0
  0
LTYPE
  5
68
330
5
100
AcDbSymbolTableRecord
100
AcDbLinetypeTableRecord
  2
AM_ISO08W050x2
 70
     0
  3
__ . __ . __ . __ . __ . __
 72
    65
 73
     4
 40
9.0
 49
6.0
 74
     0
 49
-0.75
 74
     0
 49
1.5
 74
     0
 49
-0.75
 74
     0
  0
LTYPE
  5
69
330
5
100
AcDbSymbolTableRecord
100
AcDbLinetypeTableRecord
  2
AM_ISO02W050x2
 70
     0
  3
 _ _ _ _ _ _ _ _ _ _ _ _
 72
    65
 73
     2
 40
3.75
 49
3.0
 74
     0
 49
-0.75
 74
     0
  0
LTYPE
  5
6C
330
5
100
AcDbSymbolTableRecord
100
AcDbLinetypeTableRecord
  2
Amzigzag
 70
     0
  3
/\/-/\/-/\/-/\/-/\/-/\/
 72
    65
 73
     2
 40
11.0001
 49
0.0001
 74
     4
 75
   135
340
6B
 46
0.04
 50
0.0
 44
0.0
 45
0.0
 49
-11.0
 74
     0
  0
LTYPE
  5
7A
330
5
100
AcDbSymbolTableRecord
100
AcDbLinetypeTableRecord
  2
ACISOWELD
 70
     0
  3
_ _ _ _ _
 72
    65
 73
     2
 40
2.0
 49
2.0
 74
     0
 49
-1.0
 74
     0
  0
LTYPE
  5
7B
330
5
100
AcDbSymbolTableRecord
100
AcDbLinetypeTableRecord
  2
ACISOTGB
 70
     0
  3
__ . . __ . .
 72
    65
 73
     6
 40
9.0
 49
4.0
 74
     0
 49
-1.0
 74
     0
 49
1.0
 74
     0
 49
-1.0
 74
     0
 49
1.0
 74
     0
 49
-1.0
 74
     0
  0
LTYPE
  5
7C
330
5
100
AcDbSymbolTableRecord
100
AcDbLinetypeTableRecord
  2
ACISOTGL
 70
     0
  3
_ _ _ _ _
 72
    65
 73
     2
 40
3.0
 49
2.0
 74
     0
 49
-1.0
 74
     0
  0
LTYPE
  5
7E
330
5
100
AcDbSymbolTableRecord
100
AcDbLinetypeTableRecord
  2
CENTER
 70
     0
  3
__ . __
 72
    65
 73
     4
 40
7.0
 49
4.0
 74
     0
 49
-1.0
 74
     0
 49
1.0
 74
     0
 49
-1.0
 74
     0
  0
LTYPE
  5
D8
330
5
100
AcDbSymbolTableRecord
100
AcDbLinetypeTableRecord
  2
HIDDEN
 70
     0
  3
Hidden __ __ __ __ __ __ __ __ __ __ __ __ __ _
 72
    65
 73
     2
 40
9.524999999999998
 49
6.349999999999999
 74
     0
 49
-3.174999999999999
 74
     0
  0
LTYPE
  5
D9
330
5
100
AcDbSymbolTableRecord
100
AcDbLinetypeTableRecord
  2
PHANTOM2
 70
     0
  3
Phantom (.5x) ___ _ _ ___ _ _ ___ _ _ ___ _ _
 72
    65
 73
     6
 40
31.75
 49
15.875
 74
     0
 49
-3.174999999999999
 74
     0
 49
3.174999999999999
 74
     0
 49
-3.174999999999999
 74
     0
 49
3.174999999999999
 74
     0
 49
-3.174999999999999
 74
     0
  0
ENDTAB
  0
TABLE
  2
LAYER
  5
2
102
{ACAD_XDICTIONARY
360
3F9
102
}
330
0
100
AcDbSymbolTable
 70
     8
  0
LAYER
  5
10
330
2
100
AcDbSymbolTableRecord
100
AcDbLayerTableRecord
  2
0
 70
     0
 62
     7
  6
Continuous
370
    -3
390
F
  0
LAYER
  5
206
330
2
100
AcDbSymbolTableRecord
100
AcDbLayerTableRecord
  2
Defpoints
 70
     0
 62
     7
  6
Continuous
290
     0
370
    -3
390
F
  0
LAYER
  5
5AE
330
2
100
AcDbSymbolTableRecord
100
AcDbLayerTableRecord
  2
AM_7
 70
     0
 62
     1
  6
CENTER
370
    25
390
F
  0
LAYER
  5
764
330
2
100
AcDbSymbolTableRecord
100
AcDbLayerTableRecord
  2
AM_VIS
 70
     0
 62
     7
  6
Continuous
370
    50
390
F
  0
LAYER
  5
765
330
2
100
AcDbSymbolTableRecord
100
AcDbLayerTableRecord
  2
AM_4
 70
     0
 62
     3
  6
Continuous
370
    25
390
F
  0
LAYER
  5
AD4
330
2
100
AcDbSymbolTableRecord
100
AcDbLayerTableRecord
  2
AM_5
 70
     0
 62
     5
  6
Continuous
370
    50
390
F
  0
LAYER
  5
B72
330
2
100
AcDbSymbolTableRecord
100
AcDbLayerTableRecord
  2
AM_0
 70
     0
 62
     7
  6
Continuous
370
    50
390
F
  0
LAYER
  5
272C
330
2
100
AcDbSymbolTableRecord
100
AcDbLayerTableRecord
  2
LOGO
 70
     0
 62
     7
  6
Continuous
370
    -3
390
F
  0
ENDTAB
  0
TABLE
  2
STYLE
  5
3
330
0
100
AcDbSymbolTable
 70
     6
  0
STYLE
  5
11
330
3
100
AcDbSymbolTableRecord
100
AcDbTextStyleTableRecord
  2
STANDARD
 70
     0
 40
0.0
 41
1.0
 50
0.0
 71
     0
 42
3.0
  3
ISOCP.SHX
  4
CHINESET.SHX
  0
STYLE
  5
6B
330
3
100
AcDbSymbolTableRecord
100
AcDbTextStyleTableRecord
  2

 70
     1
 40
0.0
 41
1.0
 50
0.0
 71
     0
 42
2.5
  3
ltypeshp.shx
  4

  0
STYLE
  5
6D
330
3
100
AcDbSymbolTableRecord
100
AcDbTextStyleTableRecord
  2
ACISOTS
 70
     0
 40
1.0
 41
1.0
 50
0.0
 71
     0
 42
1.0
  3
isocp.shx
  4
chineset.shx
  0
STYLE
  5
79
330
3
100
AcDbSymbolTableRecord
100
AcDbTextStyleTableRecord
  2
ACISOGDT
 70
     0
 40
0.0
 41
1.0
 50
0.0
 71
     0
 42
2.5
  3
amgdt.shx
  4
chineset.shx
  0
STYLE
  5
60C
330
3
100
AcDbSymbolTableRecord
100
AcDbTextStyleTableRecord
  2
CHINESET
 70
     0
 40
0.0
 41
1.0
 50
0.0
 71
     0
 42
3.0
  3
simplex.shx
  4
CHINESET.SHX
  0
ENDTAB
  0
TABLE
  2
VIEW
  5
6
330
0
100
AcDbSymbolTable
 70
     0
  0
ENDTAB
  0
TABLE
  2
UCS
  5
7
330
0
100
AcDbSymbolTable
 70
     0
  0
ENDTAB
  0
TABLE
  2
APPID
  5
9
330
0
100
AcDbSymbolTable
 70
    26
  0
APPID
  5
12
330
9
100
AcDbSymbolTableRecord
100
AcDbRegAppTableRecord
  2
ACAD
 70
     0
  0
APPID
  5
46
330
9
100
AcDbSymbolTableRecord
100
AcDbRegAppTableRecord
  2
MCAD_NO_VIS
 70
     0
  0
APPID
  5
47
330
9
100
AcDbSymbolTableRecord
100
AcDbRegAppTableRecord
  2
ACAD_TEMP_GRAPHIC
 70
     0
  0
APPID
  5
58
330
9
100
AcDbSymbolTableRecord
100
AcDbRegAppTableRecord
  2
ACATTRIBSERVICES
 70
     0
  0
APPID
  5
EE
330
9
100
AcDbSymbolTableRecord
100
AcDbRegAppTableRecord
  2
AD_DRAW
 70
     0
  0
APPID
  5
10C
330
9
100
AcDbSymbolTableRecord
100
AcDbRegAppTableRecord
  2
DESIGNERASSEMBLIES
 70
     0
  0
APPID
  5
111
330
9
100
AcDbSymbolTableRecord
100
AcDbRegAppTableRecord
  2
ACADM_DIM_EDIT
 70
     0
  0
APPID
  5
112
330
9
100
AcDbSymbolTableRecord
100
AcDbRegAppTableRecord
  2
AMDT_DM_ADJ
 70
     0
  0
APPID
  5
22C
330
9
100
AcDbSymbolTableRecord
100
AcDbRegAppTableRecord
  2
ACAD_DSTYLE_DIMTEXT_FILL
 70
     0
  0
APPID
  5
452
330
9
100
AcDbSymbolTableRecord
100
AcDbRegAppTableRecord
  2
GENIUS_GENOENT_13
 70
     0
  0
APPID
  5
453
330
9
100
AcDbSymbolTableRecord
100
AcDbRegAppTableRecord
  2
GENIUS_GENOBJ-N-CRS_13
 70
     0
  0
APPID
  5
454
330
9
100
AcDbSymbolTableRecord
100
AcDbRegAppTableRecord
  2
GENIUS_GENOLIS_13
 70
     0
  0
APPID
  5
455
330
9
100
AcDbSymbolTableRecord
100
AcDbRegAppTableRecord
  2
GENIUS_GENODEF_13
 70
     0
  0
APPID
  5
456
330
9
100
AcDbSymbolTableRecord
100
AcDbRegAppTableRecord
  2
GENIUS_GENOREF_13
 70
     0
  0
APPID
  5
6F3
330
9
100
AcDbSymbolTableRecord
100
AcDbRegAppTableRecord
  2
ACAD_PSEXT
 70
     0
  0
APPID
  5
B79
330
9
100
AcDbSymbolTableRecord
100
AcDbRegAppTableRecord
  2
GEVID1132550052
 70
     0
  0
APPID
  5
B7A
330
9
100
AcDbSymbolTableRecord
100
AcDbRegAppTableRecord
  2
GEVDC
 70
     0
  0
APPID
  5
B7B
330
9
100
AcDbSymbolTableRecord
100
AcDbRegAppTableRecord
  2
GEVRADREF
 70
     0
  0
APPID
  5
B84
330
9
100
AcDbSymbolTableRecord
100
AcDbRegAppTableRecord
  2
AMG_2DHIDE
 70
     0
  0
APPID
  5
B85
330
9
100
AcDbSymbolTableRecord
100
AcDbRegAppTableRecord
  2
AMG_2DSTRUCT_BTR
 70
     0
  0
APPID
  5
B96
330
9
100
AcDbSymbolTableRecord
100
AcDbRegAppTableRecord
  2
ACADM_2DVIEW_IGN_NOTIFY
 70
     0
  0
APPID
  5
F35
330
9
100
AcDbSymbolTableRecord
100
AcDbRegAppTableRecord
  2
GENIUS_GENDIMSH_14
 70
     0
  0
APPID
  5
1269
330
9
100
AcDbSymbolTableRecord
100
AcDbRegAppTableRecord
  2
GENIUS_GENREC_14
 70
     0
  0
APPID
  5
126A
330
9
100
AcDbSymbolTableRecord
100
AcDbRegAppTableRecord
  2
GENIUS_GENOBJ-N-REC_13
 70
     0
  0
APPID
  5
213A
330
9
100
AcDbSymbolTableRecord
100
AcDbRegAppTableRecord
  2
GEVID1132550055
 70
     0
  0
APPID
  5
21C3
330
9
100
AcDbSymbolTableRecord
100
AcDbRegAppTableRecord
  2
GEVID1132550056
 70
     0
  0
ENDTAB
  0
TABLE
  2
DIMSTYLE
  5
A
330
0
100
AcDbSymbolTable
 70
     9
100
AcDbDimStyleTable
 71
     3
340
81
340
8B
340
86
  0
DIMSTYLE
105
81
330
A
100
AcDbSymbolTableRecord
100
AcDbDimStyleTableRecord
  2
AM_ISO
 70
     0
  4
"
 41
3.0
 42
1.0
 43
7.0
 44
1.5
 47
0.1
 48
0.1
 73
     0
 74
     0
 77
     1
 78
     8
 79
     2
140
3.0
141
0.0
143
0.0393701
146
0.71
147
1.0
172
     1
176
   256
177
   256
178
   256
271
     2
272
     2
283
     0
284
     8
340
11
371
    -1
372
    -1
  0
DIMSTYLE
105
82
330
A
100
AcDbSymbolTableRecord
100
AcDbDimStyleTableRecord
  2
AM_ISO$3
 70
     0
  4
"
 41
3.0
 42
1.0
 43
7.0
 44
1.5
 47
0.1
 48
0.1
 73
     0
 77
     1
 78
     8
 79
     2
140
3.0
141
0.0
143
0.0393701
146
0.71
147
1.0
176
   256
177
   256
178
   256
271
     2
272
     2
283
     0
284
     8
288
     1
289
     0
340
11
371
    -1
372
    -1
  0
DIMSTYLE
105
83
330
A
100
AcDbSymbolTableRecord
100
AcDbDimStyleTableRecord
  2
AM_ISO$4
 70
     0
  4
"
 41
3.0
 42
1.0
 43
7.0
 44
1.5
 47
0.1
 48
0.1
 73
     0
 77
     1
 78
     8
 79
     2
140
3.0
141
0.0
143
0.0393701
146
0.71
147
1.0
176
   256
177
   256
178
   256
271
     2
272
     2
283
     0
284
     8
288
     1
289
     0
340
11
371
    -1
372
    -1
  0
DIMSTYLE
105
84
330
A
100
AcDbSymbolTableRecord
100
AcDbDimStyleTableRecord
  2
AM_ISO$6
 70
     0
  4
"
 41
3.0
 42
1.0
 43
7.0
 44
1.5
 47
0.1
 48
0.1
 73
     0
 74
     0
 78
     8
 79
     2
140
3.0
141
0.0
143
0.0393701
146
0.71
147
1.0
172
     1
176
   256
177
   256
178
   256
271
     2
272
     2
283
     0
284
     8
340
11
371
    -1
372
    -1
  0
DIMSTYLE
105
85
330
A
100
AcDbSymbolTableRecord
100
AcDbDimStyleTableRecord
  2
AM_ISO$7
 70
     0
  4
"
 41
3.0
 42
1.0
 43
7.0
 44
1.5
 47
0.1
 48
0.1
 73
     0
 74
     0
 77
     1
 78
     8
 79
     2
140
5.0
141
0.0
143
0.0393701
146
0.71
147
1.0
172
     1
176
   256
177
   256
178
   256
271
     2
272
     2
283
     0
284
     8
340
11
371
    -1
372
    -1
  0
DIMSTYLE
105
86
330
A
100
AcDbSymbolTableRecord
100
AcDbDimStyleTableRecord
  2
AM_ISO$SF
 70
     0
  4
"
 41
2.5
 42
1.0
 43
10.0
 44
1.0
 47
0.1
 48
0.1
 73
     0
 74
     0
 75
     1
 76
     1
 77
     1
 78
     8
 79
     2
140
3.5
141
0.0
143
0.0393701
146
0.71
147
1.5
172
     1
176
   256
177
   256
178
     2
271
     2
272
     3
274
     4
283
     0
284
     8
340
11
371
    -1
372
    -1
  0
DIMSTYLE
105
8B
330
A
100
AcDbSymbolTableRecord
100
AcDbDimStyleTableRecord
  2
AM_ISO$SH
 70
     0
  4
"
 41
2.5
 42
1.0
 43
10.0
 44
1.0
 47
0.1
 48
0.1
 73
     0
 74
     0
 75
     1
 76
     1
 77
     1
 78
     8
 79
     2
140
3.5
141
0.0
143
0.0393701
144
2.0
146
0.71
147
1.5
172
     1
173
     1
176
   256
177
   256
178
     2
271
     2
272
     3
274
     4
283
     0
284
     8
340
11
343
87
371
    -1
372
    -1
  0
DIMSTYLE
105
40B
102
{ACAD_REACTORS
330
B2B
330
B51
330
C49
330
C6F
330
C95
330
CBB
330
CE1
330
D07
330
D2D
330
D53
330
D79
330
DBF
330
E1B
330
E45
330
E6F
330
E95
330
EBF
330
F63
330
F19
330
EE9
102
}
330
A
100
AcDbSymbolTableRecord
100
AcDbDimStyleTableRecord
  2
AM_ISO$0
 70
     0
  4
"
 41
3.0
 42
1.0
 43
7.0
 44
1.5
 47
0.1
 48
0.1
 73
     0
 74
     0
 77
     1
 78
     8
 79
     2
140
3.0
141
0.0
143
0.0393701
146
0.71
147
1.0
172
     1
176
   256
177
   256
178
   256
271
     2
272
     2
283
     0
284
     8
340
11
371
    -1
372
    -1
  0
ENDTAB
  0
TABLE
  2
BLOCK_RECORD
  5
1
330
0
100
AcDbSymbolTable
 70
    31
  0
BLOCK_RECORD
  5
1F
102
{ACAD_XDICTIONARY
360
8F
102
}
330
1
100
AcDbSymbolTableRecord
100
AcDbBlockTableRecord
  2
*Model_Space
340
22
  0
BLOCK_RECORD
  5
1B
330
1
100
AcDbSymbolTableRecord
100
AcDbBlockTableRecord
  2
*Paper_Space
340
1E
  0
BLOCK_RECORD
  5
23
330
1
100
AcDbSymbolTableRecord
100
AcDbBlockTableRecord
  2
*Paper_Space0
340
26
  0
BLOCK_RECORD
  5
87
330
1
100
AcDbSymbolTableRecord
100
AcDbBlockTableRecord
  2
GENAXEH
340
0
  0
BLOCK_RECORD
  5
B2C
330
1
100
AcDbSymbolTableRecord
100
AcDbBlockTableRecord
  2
*D3
340
0
  0
BLOCK_RECORD
  5
B52
330
1
100
AcDbSymbolTableRecord
100
AcDbBlockTableRecord
  2
*D4
340
0
  0
BLOCK_RECORD
  5
B9A
330
1
100
AcDbSymbolTableRecord
100
AcDbBlockTableRecord
  2
*U6
340
0
  0
BLOCK_RECORD
  5
C4A
330
1
100
AcDbSymbolTableRecord
100
AcDbBlockTableRecord
  2
*D7
340
0
  0
BLOCK_RECORD
  5
C70
330
1
100
AcDbSymbolTableRecord
100
AcDbBlockTableRecord
  2
*D8
340
0
  0
BLOCK_RECORD
  5
C96
330
1
100
AcDbSymbolTableRecord
100
AcDbBlockTableRecord
  2
*D9
340
0
  0
BLOCK_RECORD
  5
CBC
330
1
100
AcDbSymbolTableRecord
100
AcDbBlockTableRecord
  2
*D10
340
0
  0
BLOCK_RECORD
  5
CE2
330
1
100
AcDbSymbolTableRecord
100
AcDbBlockTableRecord
  2
*D11
340
0
  0
BLOCK_RECORD
  5
D08
330
1
100
AcDbSymbolTableRecord
100
AcDbBlockTableRecord
  2
*D12
340
0
  0
BLOCK_RECORD
  5
D2E
330
1
100
AcDbSymbolTableRecord
100
AcDbBlockTableRecord
  2
*D13
340
0
  0
BLOCK_RECORD
  5
D54
330
1
100
AcDbSymbolTableRecord
100
AcDbBlockTableRecord
  2
*D14
340
0
  0
BLOCK_RECORD
  5
D7A
330
1
100
AcDbSymbolTableRecord
100
AcDbBlockTableRecord
  2
*D15
340
0
  0
BLOCK_RECORD
  5
DC0
330
1
100
AcDbSymbolTableRecord
100
AcDbBlockTableRecord
  2
*D16
340
0
  0
BLOCK_RECORD
  5
E1C
330
1
100
AcDbSymbolTableRecord
100
AcDbBlockTableRecord
  2
*D17
340
0
  0
BLOCK_RECORD
  5
E46
330
1
100
AcDbSymbolTableRecord
100
AcDbBlockTableRecord
  2
*D18
340
0
  0
BLOCK_RECORD
  5
E70
330
1
100
AcDbSymbolTableRecord
100
AcDbBlockTableRecord
  2
*D19
340
0
  0
BLOCK_RECORD
  5
E96
330
1
100
AcDbSymbolTableRecord
100
AcDbBlockTableRecord
  2
*D20
340
0
  0
BLOCK_RECORD
  5
EC0
330
1
100
AcDbSymbolTableRecord
100
AcDbBlockTableRecord
  2
*D21
340
0
  0
BLOCK_RECORD
  5
EEA
330
1
100
AcDbSymbolTableRecord
100
AcDbBlockTableRecord
  2
*D22
340
0
  0
BLOCK_RECORD
  5
F1A
330
1
100
AcDbSymbolTableRecord
100
AcDbBlockTableRecord
  2
*D23
340
0
  0
BLOCK_RECORD
  5
F64
330
1
100
AcDbSymbolTableRecord
100
AcDbBlockTableRecord
  2
*D24
340
0
  0
BLOCK_RECORD
  5
29BC
330
1
100
AcDbSymbolTableRecord
100
AcDbBlockTableRecord
  2
*S26
340
0
  0
BLOCK_RECORD
  5
29C4
330
1
100
AcDbSymbolTableRecord
100
AcDbBlockTableRecord
  2
*S27
340
0
  0
BLOCK_RECORD
  5
29CC
330
1
100
AcDbSymbolTableRecord
100
AcDbBlockTableRecord
  2
*S28
340
0
  0
BLOCK_RECORD
  5
29D4
330
1
100
AcDbSymbolTableRecord
100
AcDbBlockTableRecord
  2
*S29
340
0
  0
BLOCK_RECORD
  5
29DC
330
1
100
AcDbSymbolTableRecord
100
AcDbBlockTableRecord
  2
*S30
340
0
  0
ENDTAB
  0
ENDSEC
  0
SECTION
  2
BLOCKS
  0
BLOCK
  5
20
330
1F
100
AcDbEntity
  8
0
100
AcDbBlockBegin
  2
*Model_Space
 70
     0
 10
0.0
 20
0.0
 30
0.0
  3
*Model_Space
  1

  0
ENDBLK
  5
21
330
1F
100
AcDbEntity
  8
0
100
AcDbBlockEnd
  0
BLOCK
  5
1C
330
1B
100
AcDbEntity
 67
     1
  8
0
100
AcDbBlockBegin
  2
*Paper_Space
 70
     0
 10
0.0
 20
0.0
 30
0.0
  3
*Paper_Space
  1

  0
ENDBLK
  5
1D
330
1B
100
AcDbEntity
 67
     1
  8
0
100
AcDbBlockEnd
  0
BLOCK
  5
24
330
23
100
AcDbEntity
  8
0
100
AcDbBlockBegin
  2
*Paper_Space0
 70
     0
 10
0.0
 20
0.0
 30
0.0
  3
*Paper_Space0
  1

  0
ENDBLK
  5
25
330
23
100
AcDbEntity
  8
0
100
AcDbBlockEnd
  0
BLOCK
  5
89
330
87
100
AcDbEntity
  8
0
100
AcDbBlockBegin
  2
GENAXEH
 70
     0
 10
0.0
 20
0.0
 30
0.0
  3
GENAXEH
  1

  0
LINE
  5
88
330
87
100
AcDbEntity
  8
0
100
AcDbLine
 10
-1.0
 20
0.0
 30
0.0
 11
1.0
 21
0.0
 31
0.0
  0
ENDBLK
  5
8A
330
87
100
AcDbEntity
  8
0
100
AcDbBlockEnd
  0
BLOCK
  5
B36
330
B2C
100
AcDbEntity
  8
0
100
AcDbBlockBegin
  2
*D3
 70
     1
 10
0.0
 20
0.0
 30
0.0
  3
*D3
  1

  0
LINE
  5
28A4
330
B2C
100
AcDbEntity
  8
AM_5
100
AcDbLine
 10
2531.008082551266
 20
1443.578964471665
 30
0.0
 11
2558.508083551266
 21
1443.578964471665
 31
0.0
  0
LINE
  5
28A5
330
B2C
100
AcDbEntity
  8
AM_5
100
AcDbLine
 10
2531.008082551266
 20
1463.578964471665
 30
0.0
 11
2558.508083551266
 21
1463.578964471665
 31
0.0
  0
LINE
  5
28A6
330
B2C
100
AcDbEntity
  8
AM_5
100
AcDbLine
 10
2557.008083551266
 20
1446.578964471665
 30
0.0
 11
2557.008083551266
 21
1460.578964471665
 31
0.0
  0
SOLID
  5
28A7
330
B2C
100
AcDbEntity
  8
AM_5
100
AcDbTrace
 10
2556.508083551266
 20
1446.578964471665
 30
0.0
 11
2557.508083551266
 21
1446.578964471665
 31
0.0
 12
2557.008083551266
 22
1443.578964471665
 32
0.0
 13
2557.008083551266
 23
1443.578964471665
 33
0.0
  0
SOLID
  5
28A8
330
B2C
100
AcDbEntity
  8
AM_5
100
AcDbTrace
 10
2556.508083551266
 20
1460.578964471665
 30
0.0
 11
2557.508083551266
 21
1460.578964471665
 31
0.0
 12
2557.008083551266
 22
1463.578964471665
 32
0.0
 13
2557.008083551266
 23
1463.578964471665
 33
0.0
  0
MTEXT
  5
28A9
330
B2C
100
AcDbEntity
  8
AM_5
100
AcDbMText
 10
2554.507788275675
 20
1453.578964471665
 30
0.0
 40
3.0
 41
0.0
 71
     5
 72
     1
  1
20
 11
0.0000000000000001
 21
1.0
 31
0.0
 73
     1
 44
1.0
1001
ACAD
1000
MTEXTBEGIN
1070
    73
1070
     1
1070
    44
1040
1.0
1070
    74
1070
     0
1000
MTEXTEND
  0
POINT
  5
28AA
330
B2C
100
AcDbEntity
  8
Defpoints
 62
     0
100
AcDbPoint
 10
2530.008082551266
 20
1443.578964471665
 30
0.0
  0
POINT
  5
28AB
330
B2C
100
AcDbEntity
  8
Defpoints
 62
     0
100
AcDbPoint
 10
2530.008082551266
 20
1463.578964471665
 30
0.0
  0
POINT
  5
28AC
330
B2C
100
AcDbEntity
  8
Defpoints
 62
     0
100
AcDbPoint
 10
2557.008083551266
 20
1463.578964471665
 30
0.0
  0
ENDBLK
  5
B37
330
B2C
100
AcDbEntity
  8
0
100
AcDbBlockEnd
  0
BLOCK
  5
B5C
330
B52
100
AcDbEntity
  8
0
100
AcDbBlockBegin
  2
*D4
 70
     1
 10
0.0
 20
0.0
 30
0.0
  3
*D4
  1

  0
LINE
  5
28AD
330
B52
100
AcDbEntity
  8
AM_5
100
AcDbLine
 10
2526.008082551266
 20
1438.578964471665
 30
0.0
 11
2526.008082551266
 21
1424.078964471665
 31
0.0
  0
LINE
  5
28AE
330
B52
100
AcDbEntity
  8
AM_5
100
AcDbLine
 10
2545.008082551266
 20
1436.578964471665
 30
0.0
 11
2545.008082551266
 21
1424.078964471665
 31
0.0
  0
LINE
  5
28AF
330
B52
100
AcDbEntity
  8
AM_5
100
AcDbLine
 10
2529.008082551266
 20
1425.578964471665
 30
0.0
 11
2542.008082551266
 21
1425.578964471665
 31
0.0
  0
SOLID
  5
28B0
330
B52
100
AcDbEntity
  8
AM_5
100
AcDbTrace
 10
2529.008082551266
 20
1426.078964471665
 30
0.0
 11
2529.008082551266
 21
1425.078964471665
 31
0.0
 12
2526.008082551266
 22
1425.578964471665
 32
0.0
 13
2526.008082551266
 23
1425.578964471665
 33
0.0
  0
SOLID
  5
28B1
330
B52
100
AcDbEntity
  8
AM_5
100
AcDbTrace
 10
2542.008082551266
 20
1426.078964471665
 30
0.0
 11
2542.008082551266
 21
1425.078964471665
 31
0.0
 12
2545.008082551266
 22
1425.578964471665
 32
0.0
 13
2545.008082551266
 23
1425.578964471665
 33
0.0
  0
MTEXT
  5
28B2
330
B52
100
AcDbEntity
  8
AM_5
100
AcDbMText
 10
2535.508082551266
 20
1428.078964471665
 30
0.0
 40
3.0
 41
0.0
 71
     5
 72
     1
  1
19
 73
     1
 44
1.0
1001
ACAD
1000
MTEXTBEGIN
1070
    73
1070
     1
1070
    44
1040
1.0
1070
    74
1070
     0
1000
MTEXTEND
  0
POINT
  5
28B3
330
B52
100
AcDbEntity
  8
Defpoints
 62
     0
100
AcDbPoint
 10
2526.008082551266
 20
1439.578964471665
 30
0.0
  0
POINT
  5
28B4
330
B52
100
AcDbEntity
  8
Defpoints
 62
     0
100
AcDbPoint
 10
2545.008082551266
 20
1437.578964471665
 30
0.0
  0
POINT
  5
28B5
330
B52
100
AcDbEntity
  8
Defpoints
 62
     0
100
AcDbPoint
 10
2545.008082551266
 20
1425.578964471665
 30
0.0
  0
ENDBLK
  5
B5D
330
B52
100
AcDbEntity
  8
0
100
AcDbBlockEnd
  0
BLOCK
  5
B9B
330
B9A
100
AcDbEntity
  8
0
100
AcDbBlockBegin
  2
*U6
 70
     1
 10
0.0
 20
0.0
 30
0.0
  3
*U6
  1

  0
ENDBLK
  5
B9C
330
B9A
100
AcDbEntity
  8
0
100
AcDbBlockEnd
  0
BLOCK
  5
C54
330
C4A
100
AcDbEntity
  8
0
100
AcDbBlockBegin
  2
*D7
 70
     1
 10
0.0
 20
0.0
 30
0.0
  3
*D7
  1

  0
LINE
  5
28B6
330
C4A
100
AcDbEntity
  8
AM_5
100
AcDbLine
 10
2545.008082551266
 20
1398.874265956906
 30
0.0
 11
2545.008082551266
 21
1411.374265956906
 31
0.0
  0
LINE
  5
28B7
330
C4A
100
AcDbEntity
  8
AM_5
100
AcDbLine
 10
2520.008082551266
 20
1394.874265956906
 30
0.0
 11
2520.008082551266
 21
1411.374265956906
 31
0.0
  0
LINE
  5
28B8
330
C4A
100
AcDbEntity
  8
AM_5
100
AcDbLine
 10
2542.008082551266
 20
1409.874265956906
 30
0.0
 11
2523.008082551266
 21
1409.874265956906
 31
0.0
  0
SOLID
  5
28B9
330
C4A
100
AcDbEntity
  8
AM_5
100
AcDbTrace
 10
2542.008082551266
 20
1410.374265956906
 30
0.0
 11
2542.008082551266
 21
1409.374265956906
 31
0.0
 12
2545.008082551266
 22
1409.874265956906
 32
0.0
 13
2545.008082551266
 23
1409.874265956906
 33
0.0
  0
SOLID
  5
28BA
330
C4A
100
AcDbEntity
  8
AM_5
100
AcDbTrace
 10
2523.008082551266
 20
1410.374265956906
 30
0.0
 11
2523.008082551266
 21
1409.374265956906
 31
0.0
 12
2520.008082551266
 22
1409.874265956906
 32
0.0
 13
2520.008082551266
 23
1409.874265956906
 33
0.0
  0
MTEXT
  5
28BB
330
C4A
100
AcDbEntity
  8
AM_5
100
AcDbMText
 10
2532.508082551266
 20
1412.374561232496
 30
0.0
 40
3.0
 41
0.0
 71
     5
 72
     1
  1
25
 73
     1
 44
1.0
1001
ACAD
1000
MTEXTBEGIN
1070
    73
1070
     1
1070
    44
1040
1.0
1070
    74
1070
     0
1000
MTEXTEND
  0
POINT
  5
28BC
330
C4A
100
AcDbEntity
  8
Defpoints
 62
     0
100
AcDbPoint
 10
2545.008082551266
 20
1397.874265956906
 30
0.0
  0
POINT
  5
28BD
330
C4A
100
AcDbEntity
  8
Defpoints
 62
     0
100
AcDbPoint
 10
2520.008082551266
 20
1393.874265956906
 30
0.0
  0
POINT
  5
28BE
330
C4A
100
AcDbEntity
  8
Defpoints
 62
     0
100
AcDbPoint
 10
2520.008082551266
 20
1409.874265956906
 30
0.0
  0
ENDBLK
  5
C55
330
C4A
100
AcDbEntity
  8
0
100
AcDbBlockEnd
  0
BLOCK
  5
C7A
330
C70
100
AcDbEntity
  8
0
100
AcDbBlockBegin
  2
*D8
 70
     1
 10
0.0
 20
0.0
 30
0.0
  3
*D8
  1

  0
LINE
  5
28BF
330
C70
100
AcDbEntity
  8
AM_5
100
AcDbLine
 10
2525.008082551266
 20
1353.874265956906
 30
0.0
 11
2558.508082551266
 21
1353.874265956906
 31
0.0
  0
LINE
  5
28C0
330
C70
100
AcDbEntity
  8
AM_5
100
AcDbLine
 10
2525.008082551266
 20
1389.874265956906
 30
0.0
 11
2558.508082551266
 21
1389.874265956906
 31
0.0
  0
LINE
  5
28C1
330
C70
100
AcDbEntity
  8
AM_5
100
AcDbLine
 10
2557.008082551266
 20
1356.874265956906
 30
0.0
 11
2557.008082551266
 21
1386.874265956906
 31
0.0
  0
SOLID
  5
28C2
330
C70
100
AcDbEntity
  8
AM_5
100
AcDbTrace
 10
2556.508082551266
 20
1356.874265956906
 30
0.0
 11
2557.508082551266
 21
1356.874265956906
 31
0.0
 12
2557.008082551266
 22
1353.874265956906
 32
0.0
 13
2557.008082551266
 23
1353.874265956906
 33
0.0
  0
SOLID
  5
28C3
330
C70
100
AcDbEntity
  8
AM_5
100
AcDbTrace
 10
2556.508082551266
 20
1386.874265956906
 30
0.0
 11
2557.508082551266
 21
1386.874265956906
 31
0.0
 12
2557.008082551266
 22
1389.874265956906
 32
0.0
 13
2557.008082551266
 23
1389.874265956906
 33
0.0
  0
MTEXT
  5
28C4
330
C70
100
AcDbEntity
  8
AM_5
100
AcDbMText
 10
2554.508082551266
 20
1371.874265956906
 30
0.0
 40
3.0
 41
0.0
 71
     5
 72
     1
  1
36
 11
0.0000000000000001
 21
1.0
 31
0.0
 73
     1
 44
1.0
1001
ACAD
1000
MTEXTBEGIN
1070
    73
1070
     1
1070
    44
1040
1.0
1070
    74
1070
     0
1000
MTEXTEND
  0
POINT
  5
28C5
330
C70
100
AcDbEntity
  8
Defpoints
 62
     0
100
AcDbPoint
 10
2524.008082551266
 20
1353.874265956906
 30
0.0
  0
POINT
  5
28C6
330
C70
100
AcDbEntity
  8
Defpoints
 62
     0
100
AcDbPoint
 10
2524.008082551266
 20
1389.874265956906
 30
0.0
  0
POINT
  5
28C7
330
C70
100
AcDbEntity
  8
Defpoints
 62
     0
100
AcDbPoint
 10
2557.008082551266
 20
1389.874265956906
 30
0.0
  0
ENDBLK
  5
C7B
330
C70
100
AcDbEntity
  8
0
100
AcDbBlockEnd
  0
BLOCK
  5
CA0
330
C96
100
AcDbEntity
  8
0
100
AcDbBlockBegin
  2
*D9
 70
     1
 10
0.0
 20
0.0
 30
0.0
  3
*D9
  1

  0
LINE
  5
28C8
330
C96
100
AcDbEntity
  8
AM_5
100
AcDbLine
 10
2545.008082551266
 20
1345.124265956906
 30
0.0
 11
2545.008082551266
 21
1332.374265956906
 31
0.0
  0
LINE
  5
28C9
330
C96
100
AcDbEntity
  8
AM_5
100
AcDbLine
 10
2466.508082551266
 20
1344.874265956906
 30
0.0
 11
2466.508082551266
 21
1332.374265956906
 31
0.0
  0
LINE
  5
28CA
330
C96
100
AcDbEntity
  8
AM_5
100
AcDbLine
 10
2542.008082551266
 20
1333.874265956906
 30
0.0
 11
2469.508082551266
 21
1333.874265956906
 31
0.0
  0
SOLID
  5
28CB
330
C96
100
AcDbEntity
  8
AM_5
100
AcDbTrace
 10
2542.008082551266
 20
1334.374265956906
 30
0.0
 11
2542.008082551266
 21
1333.374265956906
 31
0.0
 12
2545.008082551266
 22
1333.874265956906
 32
0.0
 13
2545.008082551266
 23
1333.874265956906
 33
0.0
  0
SOLID
  5
28CC
330
C96
100
AcDbEntity
  8
AM_5
100
AcDbTrace
 10
2469.508082551266
 20
1334.374265956906
 30
0.0
 11
2469.508082551266
 21
1333.374265956906
 31
0.0
 12
2466.508082551266
 22
1333.874265956906
 32
0.0
 13
2466.508082551266
 23
1333.874265956906
 33
0.0
  0
MTEXT
  5
28CD
330
C96
100
AcDbEntity
  8
AM_5
100
AcDbMText
 10
2505.758082551266
 20
1336.374265956906
 30
0.0
 40
3.0
 41
0.0
 71
     5
 72
     1
  1
78.5
 73
     1
 44
1.0
1001
ACAD
1000
MTEXTBEGIN
1070
    73
1070
     1
1070
    44
1040
1.0
1070
    74
1070
     0
1000
MTEXTEND
  0
POINT
  5
28CE
330
C96
100
AcDbEntity
  8
Defpoints
 62
     0
100
AcDbPoint
 10
2545.008082551266
 20
1346.124265956906
 30
0.0
  0
POINT
  5
28CF
330
C96
100
AcDbEntity
  8
Defpoints
 62
     0
100
AcDbPoint
 10
2466.508082551266
 20
1345.874265956906
 30
0.0
  0
POINT
  5
28D0
330
C96
100
AcDbEntity
  8
Defpoints
 62
     0
100
AcDbPoint
 10
2466.508082551266
 20
1333.874265956906
 30
0.0
  0
ENDBLK
  5
CA1
330
C96
100
AcDbEntity
  8
0
100
AcDbBlockEnd
  0
BLOCK
  5
CC6
330
CBC
100
AcDbEntity
  8
0
100
AcDbBlockBegin
  2
*D10
 70
     1
 10
0.0
 20
0.0
 30
0.0
  3
*D10
  1

  0
LINE
  5
28D1
330
CBC
100
AcDbEntity
  8
AM_5
100
AcDbLine
 10
2466.508082551266
 20
1344.874265956906
 30
0.0
 11
2466.508082551266
 21
1332.374265956906
 31
0.0
  0
LINE
  5
28D2
330
CBC
100
AcDbEntity
  8
AM_5
100
AcDbLine
 10
2442.508082551266
 20
1345.171061576263
 30
0.0
 11
2442.508082551266
 21
1332.374265956906
 31
0.0
  0
LINE
  5
28D3
330
CBC
100
AcDbEntity
  8
AM_5
100
AcDbLine
 10
2463.508082551266
 20
1333.874265956906
 30
0.0
 11
2445.508082551266
 21
1333.874265956906
 31
0.0
  0
SOLID
  5
28D4
330
CBC
100
AcDbEntity
  8
AM_5
100
AcDbTrace
 10
2463.508082551266
 20
1334.374265956906
 30
0.0
 11
2463.508082551266
 21
1333.374265956906
 31
0.0
 12
2466.508082551266
 22
1333.874265956906
 32
0.0
 13
2466.508082551266
 23
1333.874265956906
 33
0.0
  0
SOLID
  5
28D5
330
CBC
100
AcDbEntity
  8
AM_5
100
AcDbTrace
 10
2445.508082551266
 20
1334.374265956906
 30
0.0
 11
2445.508082551266
 21
1333.374265956906
 31
0.0
 12
2442.508082551266
 22
1333.874265956906
 32
0.0
 13
2442.508082551266
 23
1333.874265956906
 33
0.0
  0
MTEXT
  5
28D6
330
CBC
100
AcDbEntity
  8
AM_5
100
AcDbMText
 10
2454.508082551266
 20
1336.374561232496
 30
0.0
 40
3.0
 41
0.0
 71
     5
 72
     1
  1
24
 73
     1
 44
1.0
1001
ACAD
1000
MTEXTBEGIN
1070
    73
1070
     1
1070
    44
1040
1.0
1070
    74
1070
     0
1000
MTEXTEND
  0
POINT
  5
28D7
330
CBC
100
AcDbEntity
  8
Defpoints
 62
     0
100
AcDbPoint
 10
2466.508082551266
 20
1345.874265956906
 30
0.0
  0
POINT
  5
28D8
330
CBC
100
AcDbEntity
  8
Defpoints
 62
     0
100
AcDbPoint
 10
2442.508082551266
 20
1346.171061576263
 30
0.0
  0
POINT
  5
28D9
330
CBC
100
AcDbEntity
  8
Defpoints
 62
     0
100
AcDbPoint
 10
2442.508082551266
 20
1333.874265956906
 30
0.0
  0
ENDBLK
  5
CC7
330
CBC
100
AcDbEntity
  8
0
100
AcDbBlockEnd
  0
BLOCK
  5
CEC
330
CE2
100
AcDbEntity
  8
0
100
AcDbBlockBegin
  2
*D11
 70
     1
 10
0.0
 20
0.0
 30
0.0
  3
*D11
  1

  0
LINE
  5
28DA
330
CE2
100
AcDbEntity
  8
AM_5
100
AcDbLine
 10
2545.008082551266
 20
1345.374265956906
 30
0.0
 11
2545.008082551266
 21
1325.374265956906
 31
0.0
  0
LINE
  5
28DB
330
CE2
100
AcDbEntity
  8
AM_5
100
AcDbLine
 10
2442.508082551266
 20
1345.171061576263
 30
0.0
 11
2442.508082551266
 21
1325.374265956906
 31
0.0
  0
LINE
  5
28DC
330
CE2
100
AcDbEntity
  8
AM_5
100
AcDbLine
 10
2542.008082551266
 20
1326.874265956906
 30
0.0
 11
2445.508082551266
 21
1326.874265956906
 31
0.0
  0
SOLID
  5
28DD
330
CE2
100
AcDbEntity
  8
AM_5
100
AcDbTrace
 10
2542.008082551266
 20
1327.374265956906
 30
0.0
 11
2542.008082551266
 21
1326.374265956906
 31
0.0
 12
2545.008082551266
 22
1326.874265956906
 32
0.0
 13
2545.008082551266
 23
1326.874265956906
 33
0.0
  0
SOLID
  5
28DE
330
CE2
100
AcDbEntity
  8
AM_5
100
AcDbTrace
 10
2445.508082551266
 20
1327.374265956906
 30
0.0
 11
2445.508082551266
 21
1326.374265956906
 31
0.0
 12
2442.508082551266
 22
1326.874265956906
 32
0.0
 13
2442.508082551266
 23
1326.874265956906
 33
0.0
  0
MTEXT
  5
28DF
330
CE2
100
AcDbEntity
  8
AM_5
100
AcDbMText
 10
2493.758082551266
 20
1329.374561232496
 30
0.0
 40
3.0
 41
0.0
 71
     5
 72
     1
  1
102.5
 73
     1
 44
1.0
1001
ACAD
1000
MTEXTBEGIN
1070
    73
1070
     1
1070
    44
1040
1.0
1070
    74
1070
     0
1000
MTEXTEND
  0
POINT
  5
28E0
330
CE2
100
AcDbEntity
  8
Defpoints
 62
     0
100
AcDbPoint
 10
2545.008082551266
 20
1346.374265956906
 30
0.0
  0
POINT
  5
28E1
330
CE2
100
AcDbEntity
  8
Defpoints
 62
     0
100
AcDbPoint
 10
2442.508082551266
 20
1346.171061576263
 30
0.0
  0
POINT
  5
28E2
330
CE2
100
AcDbEntity
  8
Defpoints
 62
     0
100
AcDbPoint
 10
2442.508082551266
 20
1326.874265956906
 30
0.0
  0
ENDBLK
  5
CED
330
CE2
100
AcDbEntity
  8
0
100
AcDbBlockEnd
  0
BLOCK
  5
D12
330
D08
100
AcDbEntity
  8
0
100
AcDbBlockBegin
  2
*D12
 70
     1
 10
0.0
 20
0.0
 30
0.0
  3
*D12
  1

  0
LINE
  5
28E3
330
D08
100
AcDbEntity
  8
AM_5
100
AcDbLine
 10
2590.668695502601
 20
1345.374265956906
 30
0.0
 11
2590.668695502601
 21
1325.374265956906
 31
0.0
  0
LINE
  5
28E4
330
D08
100
AcDbEntity
  8
AM_5
100
AcDbLine
 10
2622.668695502601
 20
1345.374265956906
 30
0.0
 11
2622.668695502601
 21
1325.374265956906
 31
0.0
  0
LINE
  5
28E5
330
D08
100
AcDbEntity
  8
AM_5
100
AcDbLine
 10
2593.668695502601
 20
1326.874265956906
 30
0.0
 11
2619.668695502602
 21
1326.874265956906
 31
0.0
  0
SOLID
  5
28E6
330
D08
100
AcDbEntity
  8
AM_5
100
AcDbTrace
 10
2593.668695502601
 20
1327.374265956906
 30
0.0
 11
2593.668695502601
 21
1326.374265956906
 31
0.0
 12
2590.668695502601
 22
1326.874265956906
 32
0.0
 13
2590.668695502601
 23
1326.874265956906
 33
0.0
  0
SOLID
  5
28E7
330
D08
100
AcDbEntity
  8
AM_5
100
AcDbTrace
 10
2619.668695502602
 20
1327.374265956906
 30
0.0
 11
2619.668695502602
 21
1326.374265956906
 31
0.0
 12
2622.668695502601
 22
1326.874265956906
 32
0.0
 13
2622.668695502601
 23
1326.874265956906
 33
0.0
  0
MTEXT
  5
28E8
330
D08
100
AcDbEntity
  8
AM_5
100
AcDbMText
 10
2606.668695502601
 20
1329.374561232496
 30
0.0
 40
3.0
 41
0.0
 71
     5
 72
     1
  1
32
 73
     1
 44
1.0
1001
ACAD
1000
MTEXTBEGIN
1070
    73
1070
     1
1070
    44
1040
1.0
1070
    74
1070
     0
1000
MTEXTEND
  0
POINT
  5
28E9
330
D08
100
AcDbEntity
  8
Defpoints
 62
     0
100
AcDbPoint
 10
2590.668695502601
 20
1346.374265956906
 30
0.0
  0
POINT
  5
28EA
330
D08
100
AcDbEntity
  8
Defpoints
 62
     0
100
AcDbPoint
 10
2622.668695502601
 20
1346.374265956906
 30
0.0
  0
POINT
  5
28EB
330
D08
100
AcDbEntity
  8
Defpoints
 62
     0
100
AcDbPoint
 10
2622.668695502601
 20
1326.874265956906
 30
0.0
  0
ENDBLK
  5
D13
330
D08
100
AcDbEntity
  8
0
100
AcDbBlockEnd
  0
BLOCK
  5
D38
330
D2E
100
AcDbEntity
  8
0
100
AcDbBlockBegin
  2
*D13
 70
     1
 10
0.0
 20
0.0
 30
0.0
  3
*D13
  1

  0
LINE
  5
28EC
330
D2E
100
AcDbEntity
  8
AM_5
100
AcDbLine
 10
2596.668695502601
 20
1386.874265956906
 30
0.0
 11
2596.668695502601
 21
1332.374265956906
 31
0.0
  0
LINE
  5
28ED
330
D2E
100
AcDbEntity
  8
AM_5
100
AcDbLine
 10
2616.668695502601
 20
1346.874265956906
 30
0.0
 11
2616.668695502601
 21
1332.374265956906
 31
0.0
  0
LINE
  5
28EE
330
D2E
100
AcDbEntity
  8
AM_5
100
AcDbLine
 10
2599.668695502601
 20
1333.874265956906
 30
0.0
 11
2613.668695502601
 21
1333.874265956906
 31
0.0
  0
SOLID
  5
28EF
330
D2E
100
AcDbEntity
  8
AM_5
100
AcDbTrace
 10
2599.668695502601
 20
1334.374265956906
 30
0.0
 11
2599.668695502601
 21
1333.374265956906
 31
0.0
 12
2596.668695502601
 22
1333.874265956906
 32
0.0
 13
2596.668695502601
 23
1333.874265956906
 33
0.0
  0
SOLID
  5
28F0
330
D2E
100
AcDbEntity
  8
AM_5
100
AcDbTrace
 10
2613.668695502601
 20
1334.374265956906
 30
0.0
 11
2613.668695502601
 21
1333.374265956906
 31
0.0
 12
2616.668695502601
 22
1333.874265956906
 32
0.0
 13
2616.668695502601
 23
1333.874265956906
 33
0.0
  0
MTEXT
  5
28F1
330
D2E
100
AcDbEntity
  8
AM_5
100
AcDbMText
 10
2606.668695502601
 20
1336.374561232496
 30
0.0
 40
3.0
 41
0.0
 71
     5
 72
     1
  1
20
 73
     1
 44
1.0
1001
ACAD
1000
MTEXTBEGIN
1070
    73
1070
     1
1070
    44
1040
1.0
1070
    74
1070
     0
1000
MTEXTEND
  0
POINT
  5
28F2
330
D2E
100
AcDbEntity
  8
Defpoints
 62
     0
100
AcDbPoint
 10
2596.668695502601
 20
1387.874265956906
 30
0.0
  0
POINT
  5
28F3
330
D2E
100
AcDbEntity
  8
Defpoints
 62
     0
100
AcDbPoint
 10
2616.668695502601
 20
1347.874265956906
 30
0.0
  0
POINT
  5
28F4
330
D2E
100
AcDbEntity
  8
Defpoints
 62
     0
100
AcDbPoint
 10
2616.668695502601
 20
1333.874265956906
 30
0.0
  0
ENDBLK
  5
D39
330
D2E
100
AcDbEntity
  8
0
100
AcDbBlockEnd
  0
BLOCK
  5
D5E
330
D54
100
AcDbEntity
  8
0
100
AcDbBlockBegin
  2
*D14
 70
     1
 10
0.0
 20
0.0
 30
0.0
  3
*D14
  1

  0
LINE
  5
28F5
330
D54
100
AcDbEntity
  8
AM_5
100
AcDbLine
 10
2591.668695502602
 20
1391.874265956906
 30
0.0
 11
2577.168695502602
 21
1391.874265956906
 31
0.0
  0
LINE
  5
28F6
330
D54
100
AcDbEntity
  8
AM_5
100
AcDbLine
 10
2611.668695502601
 20
1351.874265956906
 30
0.0
 11
2577.168695502602
 21
1351.874265956906
 31
0.0
  0
LINE
  5
28F7
330
D54
100
AcDbEntity
  8
AM_5
100
AcDbLine
 10
2578.668695502602
 20
1388.874265956906
 30
0.0
 11
2578.668695502602
 21
1354.874265956906
 31
0.0
  0
SOLID
  5
28F8
330
D54
100
AcDbEntity
  8
AM_5
100
AcDbTrace
 10
2578.168695502601
 20
1388.874265956906
 30
0.0
 11
2579.168695502601
 21
1388.874265956906
 31
0.0
 12
2578.668695502602
 22
1391.874265956906
 32
0.0
 13
2578.668695502602
 23
1391.874265956906
 33
0.0
  0
SOLID
  5
28F9
330
D54
100
AcDbEntity
  8
AM_5
100
AcDbTrace
 10
2578.168695502601
 20
1354.874265956906
 30
0.0
 11
2579.168695502601
 21
1354.874265956906
 31
0.0
 12
2578.668695502602
 22
1351.874265956906
 32
0.0
 13
2578.668695502602
 23
1351.874265956906
 33
0.0
  0
MTEXT
  5
28FA
330
D54
100
AcDbEntity
  8
AM_5
100
AcDbMText
 10
2576.168695502601
 20
1371.874265956906
 30
0.0
 40
3.0
 41
0.0
 71
     5
 72
     1
  1
40
 11
0.0000000000000001
 21
1.0
 31
0.0
 73
     1
 44
1.0
1001
ACAD
1000
MTEXTBEGIN
1070
    73
1070
     1
1070
    44
1040
1.0
1070
    74
1070
     0
1000
MTEXTEND
  0
POINT
  5
28FB
330
D54
100
AcDbEntity
  8
Defpoints
 62
     0
100
AcDbPoint
 10
2592.668695502601
 20
1391.874265956906
 30
0.0
  0
POINT
  5
28FC
330
D54
100
AcDbEntity
  8
Defpoints
 62
     0
100
AcDbPoint
 10
2612.668695502601
 20
1351.874265956906
 30
0.0
  0
POINT
  5
28FD
330
D54
100
AcDbEntity
  8
Defpoints
 62
     0
100
AcDbPoint
 10
2578.668695502602
 20
1351.874265956906
 30
0.0
  0
ENDBLK
  5
D5F
330
D54
100
AcDbEntity
  8
0
100
AcDbBlockEnd
  0
BLOCK
  5
D84
330
D7A
100
AcDbEntity
  8
0
100
AcDbBlockBegin
  2
*D15
 70
     1
 10
0.0
 20
0.0
 30
0.0
  3
*D15
  1

  0
LINE
  5
28FE
330
D7A
100
AcDbEntity
  8
AM_5
100
AcDbLine
 10
2590.168695502601
 20
1397.874265956906
 30
0.0
 11
2570.168695502601
 21
1397.874265956906
 31
0.0
  0
LINE
  5
28FF
330
D7A
100
AcDbEntity
  8
AM_5
100
AcDbLine
 10
2590.168695502601
 20
1345.874265956906
 30
0.0
 11
2570.168695502601
 21
1345.874265956906
 31
0.0
  0
LINE
  5
2900
330
D7A
100
AcDbEntity
  8
AM_5
100
AcDbLine
 10
2571.668695502602
 20
1394.874265956906
 30
0.0
 11
2571.668695502602
 21
1348.874265956906
 31
0.0
  0
SOLID
  5
2901
330
D7A
100
AcDbEntity
  8
AM_5
100
AcDbTrace
 10
2571.168695502601
 20
1394.874265956906
 30
0.0
 11
2572.168695502601
 21
1394.874265956906
 31
0.0
 12
2571.668695502602
 22
1397.874265956906
 32
0.0
 13
2571.668695502602
 23
1397.874265956906
 33
0.0
  0
SOLID
  5
2902
330
D7A
100
AcDbEntity
  8
AM_5
100
AcDbTrace
 10
2571.168695502601
 20
1348.874265956906
 30
0.0
 11
2572.168695502601
 21
1348.874265956906
 31
0.0
 12
2571.668695502602
 22
1345.874265956906
 32
0.0
 13
2571.668695502602
 23
1345.874265956906
 33
0.0
  0
MTEXT
  5
2903
330
D7A
100
AcDbEntity
  8
AM_5
100
AcDbMText
 10
2569.16840022701
 20
1371.874265956906
 30
0.0
 40
3.0
 41
0.0
 71
     5
 72
     1
  1
52
 11
0.0000000000000001
 21
1.0
 31
0.0
 73
     1
 44
1.0
1001
ACAD
1000
MTEXTBEGIN
1070
    73
1070
     1
1070
    44
1040
1.0
1070
    74
1070
     0
1000
MTEXTEND
  0
POINT
  5
2904
330
D7A
100
AcDbEntity
  8
Defpoints
 62
     0
100
AcDbPoint
 10
2591.168695502601
 20
1397.874265956906
 30
0.0
  0
POINT
  5
2905
330
D7A
100
AcDbEntity
  8
Defpoints
 62
     0
100
AcDbPoint
 10
2591.168695502601
 20
1345.874265956906
 30
0.0
  0
POINT
  5
2906
330
D7A
100
AcDbEntity
  8
Defpoints
 62
     0
100
AcDbPoint
 10
2571.668695502602
 20
1345.874265956906
 30
0.0
  0
ENDBLK
  5
D85
330
D7A
100
AcDbEntity
  8
0
100
AcDbBlockEnd
  0
BLOCK
  5
DCA
330
DC0
100
AcDbEntity
  8
0
100
AcDbBlockBegin
  2
*D16
 70
     1
 10
0.0
 20
0.0
 30
0.0
  3
*D16
  1

  0
LINE
  5
2907
330
DC0
100
AcDbEntity
  8
AM_5
100
AcDbLine
 10
2441.508082551266
 20
1397.374265956906
 30
0.0
 11
2422.008082551266
 21
1397.374265956906
 31
0.0
  0
LINE
  5
2908
330
DC0
100
AcDbEntity
  8
AM_5
100
AcDbLine
 10
2441.508082551266
 20
1346.374265956906
 30
0.0
 11
2422.008082551266
 21
1346.374265956906
 31
0.0
  0
LINE
  5
2909
330
DC0
100
AcDbEntity
  8
AM_5
100
AcDbLine
 10
2423.508082551266
 20
1394.374265956906
 30
0.0
 11
2423.508082551266
 21
1349.374265956906
 31
0.0
  0
SOLID
  5
290A
330
DC0
100
AcDbEntity
  8
AM_5
100
AcDbTrace
 10
2423.008082551266
 20
1394.374265956906
 30
0.0
 11
2424.008082551266
 21
1394.374265956906
 31
0.0
 12
2423.508082551266
 22
1397.374265956906
 32
0.0
 13
2423.508082551266
 23
1397.374265956906
 33
0.0
  0
SOLID
  5
290B
330
DC0
100
AcDbEntity
  8
AM_5
100
AcDbTrace
 10
2423.008082551266
 20
1349.374265956906
 30
0.0
 11
2424.008082551266
 21
1349.374265956906
 31
0.0
 12
2423.508082551266
 22
1346.374265956906
 32
0.0
 13
2423.508082551266
 23
1346.374265956906
 33
0.0
  0
MTEXT
  5
290C
330
DC0
100
AcDbEntity
  8
AM_5
100
AcDbMText
 10
2420.558082551266
 20
1371.874265956906
 30
0.0
 40
3.0
 41
0.0
 71
     5
 72
     1
  1
51 (open)
 11
0.0000000000000001
 21
1.0
 31
0.0
 73
     1
 44
1.0
1001
ACAD
1000
MTEXTBEGIN
1070
    73
1070
     1
1070
    44
1040
1.0
1070
    74
1070
     0
1000
MTEXTEND
  0
POINT
  5
290D
330
DC0
100
AcDbEntity
  8
Defpoints
 62
     0
100
AcDbPoint
 10
2442.508082551266
 20
1397.374265956906
 30
0.0
  0
POINT
  5
290E
330
DC0
100
AcDbEntity
  8
Defpoints
 62
     0
100
AcDbPoint
 10
2442.508082551266
 20
1346.374265956906
 30
0.0
  0
POINT
  5
290F
330
DC0
100
AcDbEntity
  8
Defpoints
 62
     0
100
AcDbPoint
 10
2423.508082551266
 20
1346.374265956906
 30
0.0
  0
ENDBLK
  5
DCB
330
DC0
100
AcDbEntity
  8
0
100
AcDbBlockEnd
  0
BLOCK
  5
E28
330
E1C
100
AcDbEntity
  8
0
100
AcDbBlockBegin
  2
*D17
 70
     1
 10
0.0
 20
0.0
 30
0.0
  3
*D17
  1

  0
LINE
  5
2910
330
E1C
100
AcDbEntity
  8
AM_5
100
AcDbLine
 10
2441.508082551266
 20
1346.374265956906
 30
0.0
 11
2429.008082551266
 21
1346.374265956906
 31
0.0
  0
LINE
  5
2911
330
E1C
100
AcDbEntity
  8
AM_5
100
AcDbLine
 10
2441.508082551266
 20
1354.374265956906
 30
0.0
 11
2429.008082551266
 21
1354.374265956906
 31
0.0
  0
LINE
  5
2912
330
E1C
100
AcDbEntity
  8
AM_5
100
AcDbLine
 10
2430.508082551266
 20
1343.374265956906
 30
0.0
 11
2430.508082551266
 21
1340.374265956906
 31
0.0
  0
LINE
  5
2913
330
E1C
100
AcDbEntity
  8
AM_5
100
AcDbLine
 10
2430.508082551266
 20
1357.374265956906
 30
0.0
 11
2430.508082551266
 21
1360.374265956906
 31
0.0
  0
LINE
  5
2914
330
E1C
100
AcDbEntity
  8
AM_5
100
AcDbLine
 10
2430.508082551266
 20
1346.374265956906
 30
0.0
 11
2430.508082551266
 21
1354.374265956906
 31
0.0
  0
SOLID
  5
2915
330
E1C
100
AcDbEntity
  8
AM_5
100
AcDbTrace
 10
2430.008082551266
 20
1343.374265956906
 30
0.0
 11
2431.008082551266
 21
1343.374265956906
 31
0.0
 12
2430.508082551266
 22
1346.374265956906
 32
0.0
 13
2430.508082551266
 23
1346.374265956906
 33
0.0
  0
SOLID
  5
2916
330
E1C
100
AcDbEntity
  8
AM_5
100
AcDbTrace
 10
2430.008082551266
 20
1357.374265956906
 30
0.0
 11
2431.008082551266
 21
1357.374265956906
 31
0.0
 12
2430.508082551266
 22
1354.374265956906
 32
0.0
 13
2430.508082551266
 23
1354.374265956906
 33
0.0
  0
MTEXT
  5
2917
330
E1C
100
AcDbEntity
  8
AM_5
100
AcDbMText
 10
2428.008082551265
 20
1350.374265956906
 30
0.0
 40
3.0
 41
0.0
 71
     5
 72
     1
  1
8
 11
0.0000000000000001
 21
1.0
 31
0.0
 73
     1
 44
1.0
1001
ACAD
1000
MTEXTBEGIN
1070
    73
1070
     1
1070
    44
1040
1.0
1070
    74
1070
     0
1000
MTEXTEND
  0
POINT
  5
2918
330
E1C
100
AcDbEntity
  8
Defpoints
 62
     0
100
AcDbPoint
 10
2442.508082551266
 20
1346.374265956906
 30
0.0
  0
POINT
  5
2919
330
E1C
100
AcDbEntity
  8
Defpoints
 62
     0
100
AcDbPoint
 10
2442.508082551266
 20
1354.374265956906
 30
0.0
  0
POINT
  5
291A
330
E1C
100
AcDbEntity
  8
Defpoints
 62
     0
100
AcDbPoint
 10
2430.508082551266
 20
1354.374265956906
 30
0.0
  0
ENDBLK
  5
E29
330
E1C
100
AcDbEntity
  8
0
100
AcDbBlockEnd
  0
BLOCK
  5
E52
330
E46
100
AcDbEntity
  8
0
100
AcDbBlockBegin
  2
*D18
 70
     1
 10
0.0
 20
0.0
 30
0.0
  3
*D18
  1

  0
LINE
  5
291B
330
E46
100
AcDbEntity
  8
AM_5
100
AcDbLine
 10
2441.508082551266
 20
1389.374265956906
 30
0.0
 11
2429.008082551267
 21
1389.374265956906
 31
0.0
  0
LINE
  5
291C
330
E46
100
AcDbEntity
  8
AM_5
100
AcDbLine
 10
2441.508082551266
 20
1397.374265956906
 30
0.0
 11
2429.008082551267
 21
1397.374265956906
 31
0.0
  0
LINE
  5
291D
330
E46
100
AcDbEntity
  8
AM_5
100
AcDbLine
 10
2430.508082551267
 20
1392.374265956906
 30
0.0
 11
2430.508082551267
 21
1394.374265956906
 31
0.0
  0
SOLID
  5
291E
330
E46
100
AcDbEntity
  8
AM_5
100
AcDbTrace
 10
2430.008082551267
 20
1392.374265956906
 30
0.0
 11
2431.008082551266
 21
1392.374265956906
 31
0.0
 12
2430.508082551267
 22
1389.374265956906
 32
0.0
 13
2430.508082551267
 23
1389.374265956906
 33
0.0
  0
SOLID
  5
291F
330
E46
100
AcDbEntity
  8
AM_5
100
AcDbTrace
 10
2430.008082551267
 20
1394.374265956906
 30
0.0
 11
2431.008082551266
 21
1394.374265956906
 31
0.0
 12
2430.508082551267
 22
1397.374265956906
 32
0.0
 13
2430.508082551267
 23
1397.374265956906
 33
0.0
  0
MTEXT
  5
2920
330
E46
100
AcDbEntity
  8
AM_5
100
AcDbMText
 10
2428.008082551266
 20
1393.577470337548
 30
0.0
 40
3.0
 41
0.0
 71
     5
 72
     1
  1
8
 11
0.0000000000000001
 21
1.0
 31
0.0
 73
     1
 44
1.0
1001
ACAD
1000
MTEXTBEGIN
1070
    73
1070
     1
1070
    44
1040
1.0
1070
    74
1070
     0
1000
MTEXTEND
  0
POINT
  5
2921
330
E46
100
AcDbEntity
  8
Defpoints
 62
     0
100
AcDbPoint
 10
2442.508082551266
 20
1389.374265956906
 30
0.0
  0
POINT
  5
2922
330
E46
100
AcDbEntity
  8
Defpoints
 62
     0
100
AcDbPoint
 10
2442.508082551266
 20
1397.374265956906
 30
0.0
  0
POINT
  5
2923
330
E46
100
AcDbEntity
  8
Defpoints
 62
     0
100
AcDbPoint
 10
2430.508082551267
 20
1397.374265956906
 30
0.0
  0
ENDBLK
  5
E53
330
E46
100
AcDbEntity
  8
0
100
AcDbBlockEnd
  0
BLOCK
  5
E7A
330
E70
100
AcDbEntity
  8
0
100
AcDbBlockBegin
  2
*D19
 70
     1
 10
0.0
 20
0.0
 30
0.0
  3
*D19
  1

  0
LINE
  5
26F3
330
E70
100
AcDbEntity
  8
AM_5
100
AcDbLine
 10
2520.508082551266
 20
1270.828219281591
 30
0.0
 11
2558.508082551266
 21
1270.828219281591
 31
0.0
  0
LINE
  5
26F4
330
E70
100
AcDbEntity
  8
AM_5
100
AcDbLine
 10
2541.008082551266
 20
1288.828219281591
 30
0.0
 11
2558.508082551266
 21
1288.828219281591
 31
0.0
  0
LINE
  5
26F5
330
E70
100
AcDbEntity
  8
AM_5
100
AcDbLine
 10
2557.008082551266
 20
1273.828219281591
 30
0.0
 11
2557.008082551266
 21
1285.828219281591
 31
0.0
  0
SOLID
  5
26F6
330
E70
100
AcDbEntity
  8
AM_5
100
AcDbTrace
 10
2556.508082551266
 20
1273.828219281591
 30
0.0
 11
2557.508082551266
 21
1273.828219281591
 31
0.0
 12
2557.008082551266
 22
1270.828219281591
 32
0.0
 13
2557.008082551266
 23
1270.828219281591
 33
0.0
  0
SOLID
  5
26F7
330
E70
100
AcDbEntity
  8
AM_5
100
AcDbTrace
 10
2556.508082551266
 20
1285.828219281591
 30
0.0
 11
2557.508082551266
 21
1285.828219281591
 31
0.0
 12
2557.008082551266
 22
1288.828219281591
 32
0.0
 13
2557.008082551266
 23
1288.828219281591
 33
0.0
  0
MTEXT
  5
26F8
330
E70
100
AcDbEntity
  8
AM_5
100
AcDbMText
 10
2554.508082551266
 20
1279.828219281591
 30
0.0
 40
3.0
 41
0.0
 71
     5
 72
     1
  1
18
 11
0.0000000000000001
 21
1.0
 31
0.0
 73
     1
 44
1.0
1001
ACAD
1000
MTEXTBEGIN
1070
    73
1070
     1
1070
    44
1040
1.0
1070
    74
1070
     0
1000
MTEXTEND
  0
POINT
  5
26F9
330
E70
100
AcDbEntity
  8
Defpoints
 62
     0
100
AcDbPoint
 10
2519.508082551266
 20
1270.828219281591
 30
0.0
  0
POINT
  5
26FA
330
E70
100
AcDbEntity
  8
Defpoints
 62
     0
100
AcDbPoint
 10
2540.008082551266
 20
1288.828219281591
 30
0.0
  0
POINT
  5
26FB
330
E70
100
AcDbEntity
  8
Defpoints
 62
     0
100
AcDbPoint
 10
2557.008082551266
 20
1288.828219281591
 30
0.0
  0
ENDBLK
  5
E7B
330
E70
100
AcDbEntity
  8
0
100
AcDbBlockEnd
  0
BLOCK
  5
EA2
330
E96
100
AcDbEntity
  8
0
100
AcDbBlockBegin
  2
*D20
 70
     1
 10
0.0
 20
0.0
 30
0.0
  3
*D20
  1

  0
LINE
  5
26FC
330
E96
100
AcDbEntity
  8
AM_5
100
AcDbLine
 10
2545.008082551266
 20
1296.828219281591
 30
0.0
 11
2545.008082551266
 21
1309.328219281591
 31
0.0
  0
LINE
  5
26FD
330
E96
100
AcDbEntity
  8
AM_5
100
AcDbLine
 10
2536.508082551266
 20
1293.328219281591
 30
0.0
 11
2536.508082551266
 21
1309.328219281591
 31
0.0
  0
LINE
  5
26FE
330
E96
100
AcDbEntity
  8
AM_5
100
AcDbLine
 10
2542.008082551266
 20
1307.828219281591
 30
0.0
 11
2539.508082551266
 21
1307.828219281591
 31
0.0
  0
SOLID
  5
26FF
330
E96
100
AcDbEntity
  8
AM_5
100
AcDbTrace
 10
2542.008082551266
 20
1308.328219281591
 30
0.0
 11
2542.008082551266
 21
1307.328219281591
 31
0.0
 12
2545.008082551266
 22
1307.828219281591
 32
0.0
 13
2545.008082551266
 23
1307.828219281591
 33
0.0
  0
SOLID
  5
2700
330
E96
100
AcDbEntity
  8
AM_5
100
AcDbTrace
 10
2539.508082551266
 20
1308.328219281591
 30
0.0
 11
2539.508082551266
 21
1307.328219281591
 31
0.0
 12
2536.508082551266
 22
1307.828219281591
 32
0.0
 13
2536.508082551266
 23
1307.828219281591
 33
0.0
  0
MTEXT
  5
2701
330
E96
100
AcDbEntity
  8
AM_5
100
AcDbMText
 10
2540.758082551266
 20
1310.328219281591
 30
0.0
 40
3.0
 41
0.0
 71
     5
 72
     1
  1
8.5
 73
     1
 44
1.0
1001
ACAD
1000
MTEXTBEGIN
1070
    73
1070
     1
1070
    44
1040
1.0
1070
    74
1070
     0
1000
MTEXTEND
  0
POINT
  5
2702
330
E96
100
AcDbEntity
  8
Defpoints
 62
     0
100
AcDbPoint
 10
2545.008082551266
 20
1295.828219281591
 30
0.0
  0
POINT
  5
2703
330
E96
100
AcDbEntity
  8
Defpoints
 62
     0
100
AcDbPoint
 10
2536.508082551266
 20
1292.328219281591
 30
0.0
  0
POINT
  5
2704
330
E96
100
AcDbEntity
  8
Defpoints
 62
     0
100
AcDbPoint
 10
2536.508082551266
 20
1307.828219281591
 30
0.0
  0
ENDBLK
  5
EA3
330
E96
100
AcDbEntity
  8
0
100
AcDbBlockEnd
  0
BLOCK
  5
ECA
330
EC0
100
AcDbEntity
  8
0
100
AcDbBlockBegin
  2
*D21
 70
     1
 10
0.0
 20
0.0
 30
0.0
  3
*D21
  1

  0
LINE
  5
2705
330
EC0
100
AcDbEntity
  8
AM_5
100
AcDbLine
 10
2545.008082551266
 20
1262.828219281591
 30
0.0
 11
2545.008082551266
 21
1250.328219281591
 31
0.0
  0
LINE
  5
2706
330
EC0
100
AcDbEntity
  8
AM_5
100
AcDbLine
 10
2516.008082551266
 20
1266.328219281591
 30
0.0
 11
2516.008082551266
 21
1250.328219281591
 31
0.0
  0
LINE
  5
2707
330
EC0
100
AcDbEntity
  8
AM_5
100
AcDbLine
 10
2542.008082551266
 20
1251.828219281591
 30
0.0
 11
2519.008082551266
 21
1251.828219281591
 31
0.0
  0
SOLID
  5
2708
330
EC0
100
AcDbEntity
  8
AM_5
100
AcDbTrace
 10
2542.008082551266
 20
1252.328219281591
 30
0.0
 11
2542.008082551266
 21
1251.328219281591
 31
0.0
 12
2545.008082551266
 22
1251.828219281591
 32
0.0
 13
2545.008082551266
 23
1251.828219281591
 33
0.0
  0
SOLID
  5
2709
330
EC0
100
AcDbEntity
  8
AM_5
100
AcDbTrace
 10
2519.008082551266
 20
1252.328219281591
 30
0.0
 11
2519.008082551266
 21
1251.328219281591
 31
0.0
 12
2516.008082551266
 22
1251.828219281591
 32
0.0
 13
2516.008082551266
 23
1251.828219281591
 33
0.0
  0
MTEXT
  5
270A
330
EC0
100
AcDbEntity
  8
AM_5
100
AcDbMText
 10
2530.508082551266
 20
1254.328514557181
 30
0.0
 40
3.0
 41
0.0
 71
     5
 72
     1
  1
29
 73
     1
 44
1.0
1001
ACAD
1000
MTEXTBEGIN
1070
    73
1070
     1
1070
    44
1040
1.0
1070
    74
1070
     0
1000
MTEXTEND
  0
POINT
  5
270B
330
EC0
100
AcDbEntity
  8
Defpoints
 62
     0
100
AcDbPoint
 10
2545.008082551266
 20
1263.828219281591
 30
0.0
  0
POINT
  5
270C
330
EC0
100
AcDbEntity
  8
Defpoints
 62
     0
100
AcDbPoint
 10
2516.008082551266
 20
1267.328219281591
 30
0.0
  0
POINT
  5
270D
330
EC0
100
AcDbEntity
  8
Defpoints
 62
     0
100
AcDbPoint
 10
2516.008082551266
 20
1251.828219281591
 30
0.0
  0
ENDBLK
  5
ECB
330
EC0
100
AcDbEntity
  8
0
100
AcDbBlockEnd
  0
BLOCK
  5
EF6
330
EEA
100
AcDbEntity
  8
0
100
AcDbBlockBegin
  2
*D22
 70
     1
 10
0.0
 20
0.0
 30
0.0
  3
*D22
  1

  0
LINE
  5
270E
330
EEA
100
AcDbEntity
  8
AM_5
100
AcDbLine
 10
2442.508082551266
 20
1271.828219281591
 30
0.0
 11
2442.508082551266
 21
1250.328219281591
 31
0.0
  0
LINE
  5
270F
330
EEA
100
AcDbEntity
  8
AM_5
100
AcDbLine
 10
2447.508082551266
 20
1274.828219281591
 30
0.0
 11
2447.508082551266
 21
1250.328219281591
 31
0.0
  0
LINE
  5
2710
330
EEA
100
AcDbEntity
  8
AM_5
100
AcDbLine
 10
2439.508082551266
 20
1251.828219281591
 30
0.0
 11
2436.508082551266
 21
1251.828219281591
 31
0.0
  0
LINE
  5
2711
330
EEA
100
AcDbEntity
  8
AM_5
100
AcDbLine
 10
2450.508082551266
 20
1251.828219281591
 30
0.0
 11
2453.508082551266
 21
1251.828219281591
 31
0.0
  0
LINE
  5
2712
330
EEA
100
AcDbEntity
  8
AM_5
100
AcDbLine
 10
2442.508082551266
 20
1251.828219281591
 30
0.0
 11
2447.508082551266
 21
1251.828219281591
 31
0.0
  0
SOLID
  5
2713
330
EEA
100
AcDbEntity
  8
AM_5
100
AcDbTrace
 10
2439.508082551266
 20
1252.328219281591
 30
0.0
 11
2439.508082551266
 21
1251.328219281591
 31
0.0
 12
2442.508082551266
 22
1251.828219281591
 32
0.0
 13
2442.508082551266
 23
1251.828219281591
 33
0.0
  0
SOLID
  5
2714
330
EEA
100
AcDbEntity
  8
AM_5
100
AcDbTrace
 10
2450.508082551266
 20
1252.328219281591
 30
0.0
 11
2450.508082551266
 21
1251.328219281591
 31
0.0
 12
2447.508082551266
 22
1251.828219281591
 32
0.0
 13
2447.508082551266
 23
1251.828219281591
 33
0.0
  0
MTEXT
  5
2715
330
EEA
100
AcDbEntity
  8
AM_5
100
AcDbMText
 10
2445.008082551266
 20
1254.328219281591
 30
0.0
 40
3.0
 41
0.0
 71
     5
 72
     1
  1
5
 73
     1
 44
1.0
1001
ACAD
1000
MTEXTBEGIN
1070
    73
1070
     1
1070
    44
1040
1.0
1070
    74
1070
     0
1000
MTEXTEND
  0
POINT
  5
2716
330
EEA
100
AcDbEntity
  8
Defpoints
 62
     0
100
AcDbPoint
 10
2442.508082551266
 20
1272.828219281591
 30
0.0
  0
POINT
  5
2717
330
EEA
100
AcDbEntity
  8
Defpoints
 62
     0
100
AcDbPoint
 10
2447.508082551266
 20
1275.828219281591
 30
0.0
  0
POINT
  5
2718
330
EEA
100
AcDbEntity
  8
Defpoints
 62
     0
100
AcDbPoint
 10
2447.508082551266
 20
1251.828219281591
 30
0.0
  0
ENDBLK
  5
EF7
330
EEA
100
AcDbEntity
  8
0
100
AcDbBlockEnd
  0
BLOCK
  5
F26
330
F1A
100
AcDbEntity
  8
0
100
AcDbBlockBegin
  2
*D23
 70
     1
 10
0.0
 20
0.0
 30
0.0
  3
*D23
  1

  0
LINE
  5
2719
330
F1A
100
AcDbEntity
  8
AM_5
100
AcDbLine
 10
2447.508082551266
 20
1274.828219281591
 30
0.0
 11
2447.508082551266
 21
1250.328219281591
 31
0.0
  0
LINE
  5
271A
330
F1A
100
AcDbEntity
  8
AM_5
100
AcDbLine
 10
2459.508082551266
 20
1274.828219281591
 30
0.0
 11
2459.508082551266
 21
1250.328219281591
 31
0.0
  0
LINE
  5
271B
330
F1A
100
AcDbEntity
  8
AM_5
100
AcDbLine
 10
2450.508082551266
 20
1251.828219281591
 30
0.0
 11
2456.508082551266
 21
1251.828219281591
 31
0.0
  0
SOLID
  5
271C
330
F1A
100
AcDbEntity
  8
AM_5
100
AcDbTrace
 10
2450.508082551266
 20
1252.328219281591
 30
0.0
 11
2450.508082551266
 21
1251.328219281591
 31
0.0
 12
2447.508082551266
 22
1251.828219281591
 32
0.0
 13
2447.508082551266
 23
1251.828219281591
 33
0.0
  0
SOLID
  5
271D
330
F1A
100
AcDbEntity
  8
AM_5
100
AcDbTrace
 10
2456.508082551266
 20
1252.328219281591
 30
0.0
 11
2456.508082551266
 21
1251.328219281591
 31
0.0
 12
2459.508082551266
 22
1251.828219281591
 32
0.0
 13
2459.508082551266
 23
1251.828219281591
 33
0.0
  0
MTEXT
  5
271E
330
F1A
100
AcDbEntity
  8
AM_5
100
AcDbMText
 10
2453.508082551266
 20
1254.328514557181
 30
0.0
 40
3.0
 41
0.0
 71
     5
 72
     1
  1
12
 73
     1
 44
1.0
1001
ACAD
1000
MTEXTBEGIN
1070
    73
1070
     1
1070
    44
1040
1.0
1070
    74
1070
     0
1000
MTEXTEND
  0
POINT
  5
271F
330
F1A
100
AcDbEntity
  8
Defpoints
 62
     0
100
AcDbPoint
 10
2447.508082551266
 20
1275.828219281591
 30
0.0
  0
POINT
  5
2720
330
F1A
100
AcDbEntity
  8
Defpoints
 62
     0
100
AcDbPoint
 10
2459.508082551266
 20
1275.828219281591
 30
0.0
  0
POINT
  5
2721
330
F1A
100
AcDbEntity
  8
Defpoints
 62
     0
100
AcDbPoint
 10
2459.508082551266
 20
1251.828219281591
 30
0.0
  0
ENDBLK
  5
F27
330
F1A
100
AcDbEntity
  8
0
100
AcDbBlockEnd
  0
BLOCK
  5
F70
330
F64
100
AcDbEntity
  8
0
100
AcDbBlockBegin
  2
*D24
 70
     1
 10
0.0
 20
0.0
 30
0.0
  3
*D24
  1

  0
LINE
  5
2722
330
F64
100
AcDbEntity
  8
AM_5
100
AcDbLine
 10
2441.508082551266
 20
1272.828219281591
 30
0.0
 11
2429.008082551266
 21
1272.828219281591
 31
0.0
  0
LINE
  5
2723
330
F64
100
AcDbEntity
  8
AM_5
100
AcDbLine
 10
2441.508082551266
 20
1286.828219281591
 30
0.0
 11
2429.008082551266
 21
1286.828219281591
 31
0.0
  0
LINE
  5
2724
330
F64
100
AcDbEntity
  8
AM_5
100
AcDbLine
 10
2430.508082551266
 20
1275.828219281591
 30
0.0
 11
2430.508082551266
 21
1283.828219281591
 31
0.0
  0
SOLID
  5
2725
330
F64
100
AcDbEntity
  8
AM_5
100
AcDbTrace
 10
2430.008082551266
 20
1275.828219281591
 30
0.0
 11
2431.008082551266
 21
1275.828219281591
 31
0.0
 12
2430.508082551266
 22
1272.828219281591
 32
0.0
 13
2430.508082551266
 23
1272.828219281591
 33
0.0
  0
SOLID
  5
2726
330
F64
100
AcDbEntity
  8
AM_5
100
AcDbTrace
 10
2430.008082551266
 20
1283.828219281591
 30
0.0
 11
2431.008082551266
 21
1283.828219281591
 31
0.0
 12
2430.508082551266
 22
1286.828219281591
 32
0.0
 13
2430.508082551266
 23
1286.828219281591
 33
0.0
  0
MTEXT
  5
2727
330
F64
100
AcDbEntity
  8
AM_5
100
AcDbMText
 10
2428.008082551265
 20
1279.828219281591
 30
0.0
 40
3.0
 41
0.0
 71
     5
 72
     1
  1
14
 11
0.0000000000000001
 21
1.0
 31
0.0
 73
     1
 44
1.0
1001
ACAD
1000
MTEXTBEGIN
1070
    73
1070
     1
1070
    44
1040
1.0
1070
    74
1070
     0
1000
MTEXTEND
  0
POINT
  5
2728
330
F64
100
AcDbEntity
  8
Defpoints
 62
     0
100
AcDbPoint
 10
2442.508082551266
 20
1272.828219281591
 30
0.0
  0
POINT
  5
2729
330
F64
100
AcDbEntity
  8
Defpoints
 62
     0
100
AcDbPoint
 10
2442.508082551266
 20
1286.828219281591
 30
0.0
  0
POINT
  5
272A
330
F64
100
AcDbEntity
  8
Defpoints
 62
     0
100
AcDbPoint
 10
2430.508082551266
 20
1286.828219281591
 30
0.0
  0
ENDBLK
  5
F71
330
F64
100
AcDbEntity
  8
0
100
AcDbBlockEnd
  0
BLOCK
  5
29C1
330
29BC
100
AcDbEntity
  8
0
100
AcDbBlockBegin
  2
*S26
 70
     1
 10
0.0
 20
0.0
 30
0.0
  3
*S26
  1

  0
LINE
  5
29BD
330
29BC
100
AcDbEntity
  8
AM_5
 62
     5
100
AcDbLine
 10
2489.053763460237
 20
1305.260427963141
 30
0.0
 11
2522.079027493021
 21
1305.260427963141
 31
0.0
  0
LINE
  5
29BE
330
29BC
100
AcDbEntity
  8
AM_5
 62
     5
100
AcDbLine
 10
2522.079027493021
 20
1305.260427963141
 30
0.0
 11
2532.340699929544
 21
1293.329374709904
 31
0.0
  0
TRACE
  5
29BF
330
29BC
100
AcDbEntity
  8
AM_5
 62
     5
370
    35
100
AcDbTrace
 10
2531.991354512246
 20
1293.028909347507
 30
0.0
 11
2532.690045346842
 21
1293.629840072301
 31
0.0
 12
2534.622960951886
 22
1290.675832807861
 32
0.0
 13
2534.622960951886
 23
1290.675832807861
 33
0.0
  0
MTEXT
  5
29C0
330
29BC
100
AcDbEntity
  8
AM_5
 62
     5
100
AcDbMText
 10
2489.053763460237
 20
1304.049495361901
 30
0.0
 40
3.5
 41
0.0
 71
     9
 72
     5
  1

  7
ACISOTS
 73
     1
 44
1.0
1001
ACAD
1000
MTEXTBEGIN
1070
    73
1070
     1
1070
    44
1040
1.0
1070
    74
1070
     0
1000
MTEXTEND
  0
ENDBLK
  5
29C2
330
29BC
100
AcDbEntity
  8
0
100
AcDbBlockEnd
  0
BLOCK
  5
29C9
330
29C4
100
AcDbEntity
  8
0
100
AcDbBlockBegin
  2
*S27
 70
     1
 10
0.0
 20
0.0
 30
0.0
  3
*S27
  1

  0
LINE
  5
29C5
330
29C4
100
AcDbEntity
  8
AM_5
 62
     5
100
AcDbLine
 10
2476.414437583029
 20
1478.154228599897
 30
0.0
 11
2512.928870239574
 21
1478.154228599897
 31
0.0
  0
LINE
  5
29C6
330
29C4
100
AcDbEntity
  8
AM_5
 62
     5
100
AcDbLine
 10
2512.928870239574
 20
1478.154228599897
 30
0.0
 11
2521.445189364293
 21
1468.8410343927
 31
0.0
  0
TRACE
  5
29C7
330
29C4
100
AcDbEntity
  8
AM_5
 62
     5
370
    35
100
AcDbTrace
 10
2521.1051431224
 20
1468.530083901526
 30
0.0
 11
2521.785235606187
 21
1469.151984883874
 31
0.0
 12
2523.807092847022
 22
1466.258126740794
 32
0.0
 13
2523.807092847022
 23
1466.258126740794
 33
0.0
  0
MTEXT
  5
29C8
330
29C4
100
AcDbEntity
  8
AM_5
 62
     5
100
AcDbMText
 10
2476.414437583029
 20
1475.564037655049
 30
0.0
 40
3.5
 41
0.0
 71
     9
 72
     5
  1

  7
ACISOTS
 73
     1
 44
1.0
1001
ACAD
1000
MTEXTBEGIN
1070
    73
1070
     1
1070
    44
1040
1.0
1070
    74
1070
     0
1000
MTEXTEND
  0
ENDBLK
  5
29CA
330
29C4
100
AcDbEntity
  8
0
100
AcDbBlockEnd
  0
BLOCK
  5
29D1
330
29CC
100
AcDbEntity
  8
0
100
AcDbBlockBegin
  2
*S28
 70
     1
 10
0.0
 20
0.0
 30
0.0
  3
*S28
  1

  0
LINE
  5
29CD
330
29CC
100
AcDbEntity
  8
AM_5
 62
     5
100
AcDbLine
 10
2470.532017328562
 20
1407.433100549197
 30
0.0
 11
2507.046449985106
 21
1407.433100549197
 31
0.0
  0
LINE
  5
29CE
330
29CC
100
AcDbEntity
  8
AM_5
 62
     5
100
AcDbLine
 10
2507.046449985106
 20
1407.433100549197
 30
0.0
 11
2516.069410421988
 21
1395.131780104338
 31
0.0
  0
TRACE
  5
29CF
330
29CC
100
AcDbEntity
  8
AM_5
 62
     5
370
    35
100
AcDbTrace
 10
2515.697860808195
 20
1394.85925021776
 30
0.0
 11
2516.44096003578
 21
1395.404309990915
 31
0.0
 12
2518.139480438036
 22
1392.309580584697
 32
0.0
 13
2518.139480438036
 23
1392.309580584697
 33
0.0
  0
MTEXT
  5
29D0
330
29CC
100
AcDbEntity
  8
AM_5
 62
     5
100
AcDbMText
 10
2470.532017328562
 20
1404.842909604349
 30
0.0
 40
3.5
 41
0.0
 71
     9
 72
     5
  1

  7
ACISOTS
 73
     1
 44
1.0
1001
ACAD
1000
MTEXTBEGIN
1070
    73
1070
     1
1070
    44
1040
1.0
1070
    74
1070
     0
1000
MTEXTEND
  0
ENDBLK
  5
29D2
330
29CC
100
AcDbEntity
  8
0
100
AcDbBlockEnd
  0
BLOCK
  5
29D9
330
29D4
100
AcDbEntity
  8
0
100
AcDbBlockBegin
  2
*S29
 70
     1
 10
0.0
 20
0.0
 30
0.0
  3
*S29
  1

  0
LINE
  5
29D5
330
29D4
100
AcDbEntity
  8
AM_5
 62
     5
100
AcDbLine
 10
2567.290767947977
 20
1408.574783981089
 30
0.0
 11
2603.805200604521
 21
1408.574783981089
 31
0.0
  0
LINE
  5
29D6
330
29D4
100
AcDbEntity
  8
AM_5
 62
     5
100
AcDbLine
 10
2603.805200604521
 20
1408.574783981089
 30
0.0
 11
2600.297788747317
 21
1397.514533307349
 31
0.0
  0
TRACE
  5
29D7
330
29D4
100
AcDbEntity
  8
AM_5
 62
     5
370
    35
100
AcDbTrace
 10
2599.858561326107
 20
1397.653820517975
 30
0.0
 11
2600.737016168528
 21
1397.375246096723
 31
0.0
 12
2599.239797339638
 22
1394.178269801378
 32
0.0
 13
2599.239797339638
 23
1394.178269801378
 33
0.0
  0
MTEXT
  5
29D8
330
29D4
100
AcDbEntity
  8
AM_5
 62
     5
100
AcDbMText
 10
2567.290767947977
 20
1405.984593036241
 30
0.0
 40
3.5
 41
0.0
 71
     9
 72
     5
  1

  7
ACISOTS
 73
     1
 44
1.0
1001
ACAD
1000
MTEXTBEGIN
1070
    73
1070
     1
1070
    44
1040
1.0
1070
    74
1070
     0
1000
MTEXTEND
  0
ENDBLK
  5
29DA
330
29D4
100
AcDbEntity
  8
0
100
AcDbBlockEnd
  0
BLOCK
  5
29E1
330
29DC
100
AcDbEntity
  8
0
100
AcDbBlockBegin
  2
*S30
 70
     1
 10
0.0
 20
0.0
 30
0.0
  3
*S30
  1

  0
LINE
  5
29DD
330
29DC
100
AcDbEntity
  8
AM_5
 62
     5
100
AcDbLine
 10
2410.487401724559
 20
1295.673283072742
 30
0.0
 11
2447.001834381103
 21
1295.673283072742
 31
0.0
  0
LINE
  5
29DE
330
29DC
100
AcDbEntity
  8
AM_5
 62
     5
100
AcDbLine
 10
2447.001834381103
 20
1295.673283072742
 30
0.0
 11
2455.344173589692
 21
1284.806717233282
 31
0.0
  0
TRACE
  5
29DF
330
29DC
100
AcDbEntity
  8
AM_5
 62
     5
370
    35
100
AcDbTrace
 10
2454.978676370491
 20
1284.5261224412
 30
0.0
 11
2455.709670808893
 21
1285.087312025364
 31
0.0
 12
2457.47550264517
 22
1282.030490214958
 32
0.0
 13
2457.47550264517
 23
1282.030490214958
 33
0.0
  0
MTEXT
  5
29E0
330
29DC
100
AcDbEntity
  8
AM_5
 62
     5
100
AcDbMText
 10
2410.487401724559
 20
1293.083092127894
 30
0.0
 40
3.5
 41
0.0
 71
     9
 72
     5
  1

  7
ACISOTS
 73
     1
 44
1.0
1001
ACAD
1000
MTEXTBEGIN
1070
    73
1070
     1
1070
    44
1040
1.0
1070
    74
1070
     0
1000
MTEXTEND
  0
ENDBLK
  5
29E2
330
29DC
100
AcDbEntity
  8
0
100
AcDbBlockEnd
  0
ENDSEC
  0
SECTION
  2
ENTITIES
  0
DIMENSION
  5
B2B
330
1F
100
AcDbEntity
  8
AM_5
100
AcDbDimension
  2
*D3
 10
2557.008083551266
 20
1463.578964471665
 30
0.0
 11
2554.507788275675
 21
1453.578964471665
 31
0.0
 70
    32
 71
     5
 42
20.0
  3
AM_ISO$0
100
AcDbAlignedDimension
 13
2530.008082551266
 23
1443.578964471665
 33
0.0
 14
2530.008082551266
 24
1463.578964471665
 34
0.0
 50
90.0
100
AcDbRotatedDimension
1001
ACAD
1000
DSTYLE
1002
{
1070
    40
1040
1.0
1070
   144
1040
1.0
1070
   272
1070
     8
1002
}
  0
DIMENSION
  5
B51
330
1F
100
AcDbEntity
  8
AM_5
100
AcDbDimension
  2
*D4
 10
2545.008082551266
 20
1425.578964471665
 30
0.0
 11
2535.508082551266
 21
1428.078964471665
 31
0.0
 70
    32
 71
     5
 42
19.0
  3
AM_ISO$0
100
AcDbAlignedDimension
 13
2526.008082551266
 23
1439.578964471665
 33
0.0
 14
2545.008082551266
 24
1437.578964471665
 34
0.0
100
AcDbRotatedDimension
1001
ACAD
1000
DSTYLE
1002
{
1070
    40
1040
1.0
1070
   144
1040
1.0
1070
   272
1070
     8
1002
}
  0
DIMENSION
  5
C49
330
1F
100
AcDbEntity
  8
AM_5
100
AcDbDimension
  2
*D7
 10
2520.008082551266
 20
1409.874265956906
 30
0.0
 11
2532.508082551266
 21
1412.374561232496
 31
0.0
 70
    32
 71
     5
 42
25.0
  3
AM_ISO$0
100
AcDbAlignedDimension
 13
2545.008082551266
 23
1397.874265956906
 33
0.0
 14
2520.008082551266
 24
1393.874265956906
 34
0.0
100
AcDbRotatedDimension
1001
ACAD
1000
DSTYLE
1002
{
1070
    40
1040
1.0
1070
   144
1040
1.0
1070
   272
1070
     8
1002
}
  0
DIMENSION
  5
C6F
330
1F
100
AcDbEntity
  8
AM_5
100
AcDbDimension
  2
*D8
 10
2557.008082551266
 20
1389.874265956906
 30
0.0
 11
2554.508082551266
 21
1371.874265956906
 31
0.0
 70
    32
 71
     5
 42
36.0
  3
AM_ISO$0
100
AcDbAlignedDimension
 13
2524.008082551266
 23
1353.874265956906
 33
0.0
 14
2524.008082551266
 24
1389.874265956906
 34
0.0
 50
90.0
100
AcDbRotatedDimension
1001
ACAD
1000
DSTYLE
1002
{
1070
    40
1040
1.0
1070
   144
1040
1.0
1070
   272
1070
     8
1002
}
  0
DIMENSION
  5
C95
330
1F
100
AcDbEntity
  8
AM_5
100
AcDbDimension
  2
*D9
 10
2466.508082551266
 20
1333.874265956906
 30
0.0
 11
2505.758082551266
 21
1336.374265956906
 31
0.0
 70
    32
 71
     5
 42
78.5
  3
AM_ISO$0
100
AcDbAlignedDimension
 13
2545.008082551266
 23
1346.124265956906
 33
0.0
 14
2466.508082551266
 24
1345.874265956906
 34
0.0
100
AcDbRotatedDimension
1001
ACAD
1000
DSTYLE
1002
{
1070
    40
1040
1.0
1070
   144
1040
1.0
1070
   272
1070
     8
1002
}
  0
DIMENSION
  5
CBB
330
1F
100
AcDbEntity
  8
AM_5
100
AcDbDimension
  2
*D10
 10
2442.508082551266
 20
1333.874265956906
 30
0.0
 11
2454.508082551266
 21
1336.374561232496
 31
0.0
 70
    32
 71
     5
 42
24.0
  3
AM_ISO$0
100
AcDbAlignedDimension
 13
2466.508082551266
 23
1345.874265956906
 33
0.0
 14
2442.508082551266
 24
1346.171061576263
 34
0.0
100
AcDbRotatedDimension
1001
ACAD
1000
DSTYLE
1002
{
1070
    40
1040
1.0
1070
   144
1040
1.0
1070
   272
1070
     8
1002
}
  0
DIMENSION
  5
CE1
330
1F
100
AcDbEntity
  8
AM_5
100
AcDbDimension
  2
*D11
 10
2442.508082551266
 20
1326.874265956906
 30
0.0
 11
2493.758082551266
 21
1329.374561232496
 31
0.0
 70
    32
 71
     5
 42
102.5
  3
AM_ISO$0
100
AcDbAlignedDimension
 13
2545.008082551266
 23
1346.374265956906
 33
0.0
 14
2442.508082551266
 24
1346.171061576263
 34
0.0
100
AcDbRotatedDimension
1001
ACAD
1000
DSTYLE
1002
{
1070
    40
1040
1.0
1070
   144
1040
1.0
1070
   272
1070
     8
1002
}
  0
DIMENSION
  5
D07
330
1F
100
AcDbEntity
  8
AM_5
100
AcDbDimension
  2
*D12
 10
2622.668695502601
 20
1326.874265956906
 30
0.0
 11
2606.668695502601
 21
1329.374561232496
 31
0.0
 70
    32
 71
     5
 42
32.0
  3
AM_ISO$0
100
AcDbAlignedDimension
 13
2590.668695502601
 23
1346.374265956906
 33
0.0
 14
2622.668695502601
 24
1346.374265956906
 34
0.0
100
AcDbRotatedDimension
1001
ACAD
1000
DSTYLE
1002
{
1070
    40
1040
1.0
1070
   144
1040
1.0
1070
   272
1070
     8
1002
}
  0
DIMENSION
  5
D2D
330
1F
100
AcDbEntity
  8
AM_5
100
AcDbDimension
  2
*D13
 10
2616.668695502601
 20
1333.874265956906
 30
0.0
 11
2606.668695502601
 21
1336.374561232496
 31
0.0
 70
    32
 71
     5
 42
20.0
  3
AM_ISO$0
100
AcDbAlignedDimension
 13
2596.668695502601
 23
1387.874265956906
 33
0.0
 14
2616.668695502601
 24
1347.874265956906
 34
0.0
100
AcDbRotatedDimension
1001
ACAD
1000
DSTYLE
1002
{
1070
    40
1040
1.0
1070
   144
1040
1.0
1070
   272
1070
     8
1002
}
  0
DIMENSION
  5
D53
330
1F
100
AcDbEntity
  8
AM_5
100
AcDbDimension
  2
*D14
 10
2578.668695502602
 20
1351.874265956906
 30
0.0
 11
2576.168695502601
 21
1371.874265956906
 31
0.0
 70
    32
 71
     5
 42
40.0
  3
AM_ISO$0
100
AcDbAlignedDimension
 13
2592.668695502601
 23
1391.874265956906
 33
0.0
 14
2612.668695502601
 24
1351.874265956906
 34
0.0
 50
90.0
100
AcDbRotatedDimension
1001
ACAD
1000
DSTYLE
1002
{
1070
    40
1040
1.0
1070
   144
1040
1.0
1070
   272
1070
     8
1002
}
  0
DIMENSION
  5
D79
330
1F
100
AcDbEntity
  8
AM_5
100
AcDbDimension
  2
*D15
 10
2571.668695502602
 20
1345.874265956906
 30
0.0
 11
2569.16840022701
 21
1371.874265956906
 31
0.0
 70
    32
 71
     5
 42
52.0
  3
AM_ISO$0
100
AcDbAlignedDimension
 13
2591.168695502601
 23
1397.874265956906
 33
0.0
 14
2591.168695502601
 24
1345.874265956906
 34
0.0
 50
90.0
100
AcDbRotatedDimension
1001
ACAD
1000
DSTYLE
1002
{
1070
    40
1040
1.0
1070
   144
1040
1.0
1070
   272
1070
     8
1002
}
  0
DIMENSION
  5
DBF
330
1F
100
AcDbEntity
  8
AM_5
100
AcDbDimension
  2
*D16
 10
2423.508082551266
 20
1346.374265956906
 30
0.0
 11
2420.558082551266
 21
1371.874265956906
 31
0.0
 70
    32
  1
<> (open)
 71
     5
 42
51.0
  3
AM_ISO$0
100
AcDbAlignedDimension
 13
2442.508082551266
 23
1397.374265956906
 33
0.0
 14
2442.508082551266
 24
1346.374265956906
 34
0.0
 50
90.0
100
AcDbRotatedDimension
1001
ACAD
1000
DSTYLE
1002
{
1070
    40
1040
1.0
1070
   144
1040
1.0
1070
   272
1070
     8
1002
}
  0
DIMENSION
  5
E1B
330
1F
100
AcDbEntity
  8
AM_5
100
AcDbDimension
  2
*D17
 10
2430.508082551266
 20
1354.374265956906
 30
0.0
 11
2428.008082551265
 21
1350.374265956906
 31
0.0
 70
    32
 71
     5
 42
8.0
  3
AM_ISO$0
100
AcDbAlignedDimension
 13
2442.508082551266
 23
1346.374265956906
 33
0.0
 14
2442.508082551266
 24
1354.374265956906
 34
0.0
 50
90.0
100
AcDbRotatedDimension
1001
ACAD
1000
DSTYLE
1002
{
1070
    40
1040
1.0
1070
   144
1040
1.0
1070
   272
1070
     8
1002
}
  0
DIMENSION
  5
E45
330
1F
100
AcDbEntity
  8
AM_5
100
AcDbDimension
  2
*D18
 10
2430.508082551267
 20
1397.374265956906
 30
0.0
 11
2430.508082551266
 21
1393.577470337548
 31
0.0
 70
   160
 71
     5
 42
8.0
  3
AM_ISO$0
100
AcDbAlignedDimension
 13
2442.508082551266
 23
1389.374265956906
 33
0.0
 14
2442.508082551266
 24
1397.374265956906
 34
0.0
 50
90.0
100
AcDbRotatedDimension
1001
ACAD
1000
DSTYLE
1002
{
1070
    40
1040
1.0
1070
   144
1040
1.0
1070
   272
1070
     8
1002
}
  0
DIMENSION
  5
E6F
330
1F
100
AcDbEntity
  8
AM_5
100
AcDbDimension
  2
*D19
 10
2557.008082551266
 20
1288.828219281591
 30
0.0
 11
2554.508082551266
 21
1279.828219281591
 31
0.0
 70
    32
 71
     5
 42
18.0
  3
AM_ISO$0
100
AcDbAlignedDimension
 13
2519.508082551266
 23
1270.828219281591
 33
0.0
 14
2540.008082551266
 24
1288.828219281591
 34
0.0
 50
90.0
100
AcDbRotatedDimension
1001
ACAD
1000
DSTYLE
1002
{
1070
    40
1040
1.0
1070
   144
1040
1.0
1070
   272
1070
     8
1002
}
  0
DIMENSION
  5
E95
330
1F
100
AcDbEntity
  8
AM_5
100
AcDbDimension
  2
*D20
 10
2536.508082551266
 20
1307.828219281591
 30
0.0
 11
2540.758082551266
 21
1310.328219281591
 31
0.0
 70
    32
 71
     5
 42
8.5
  3
AM_ISO$0
100
AcDbAlignedDimension
 13
2545.008082551266
 23
1295.828219281591
 33
0.0
 14
2536.508082551266
 24
1292.328219281591
 34
0.0
100
AcDbRotatedDimension
1001
ACAD
1000
DSTYLE
1002
{
1070
    40
1040
1.0
1070
   144
1040
1.0
1070
   272
1070
     8
1002
}
  0
DIMENSION
  5
EBF
330
1F
100
AcDbEntity
  8
AM_5
100
AcDbDimension
  2
*D21
 10
2516.008082551266
 20
1251.828219281591
 30
0.0
 11
2530.508082551266
 21
1254.328514557181
 31
0.0
 70
    32
 71
     5
 42
29.0
  3
AM_ISO$0
100
AcDbAlignedDimension
 13
2545.008082551266
 23
1263.828219281591
 33
0.0
 14
2516.008082551266
 24
1267.328219281591
 34
0.0
100
AcDbRotatedDimension
1001
ACAD
1000
DSTYLE
1002
{
1070
    40
1040
1.0
1070
   144
1040
1.0
1070
   272
1070
     8
1002
}
  0
DIMENSION
  5
EE9
330
1F
100
AcDbEntity
  8
AM_5
100
AcDbDimension
  2
*D22
 10
2447.508082551266
 20
1251.828219281591
 30
0.0
 11
2445.008082551266
 21
1251.828219281591
 31
0.0
 70
   160
 71
     5
 42
5.0
  3
AM_ISO$0
100
AcDbAlignedDimension
 13
2442.508082551266
 23
1272.828219281591
 33
0.0
 14
2447.508082551266
 24
1275.828219281591
 34
0.0
100
AcDbRotatedDimension
1001
ACAD
1000
DSTYLE
1002
{
1070
   272
1070
     8
1002
}
  0
DIMENSION
  5
F19
330
1F
100
AcDbEntity
  8
AM_5
100
AcDbDimension
  2
*D23
 10
2459.508082551266
 20
1251.828219281591
 30
0.0
 11
2453.508082551266
 21
1254.328514557181
 31
0.0
 70
    32
 71
     5
 42
12.0
  3
AM_ISO$0
100
AcDbAlignedDimension
 13
2447.508082551266
 23
1275.828219281591
 33
0.0
 14
2459.508082551266
 24
1275.828219281591
 34
0.0
100
AcDbRotatedDimension
1001
ACAD
1000
DSTYLE
1002
{
1070
   272
1070
     8
1002
}
  0
DIMENSION
  5
F63
330
1F
100
AcDbEntity
  8
AM_5
100
AcDbDimension
  2
*D24
 10
2430.508082551266
 20
1286.828219281591
 30
0.0
 11
2428.008082551265
 21
1279.828219281591
 31
0.0
 70
    32
 71
     5
 42
14.0
  3
AM_ISO$0
100
AcDbAlignedDimension
 13
2442.508082551266
 23
1272.828219281591
 33
0.0
 14
2442.508082551266
 24
1286.828219281591
 34
0.0
 50
90.0
100
AcDbRotatedDimension
1001
ACAD
1000
DSTYLE
1002
{
1070
    40
1040
1.0
1070
   144
1040
1.0
1070
   272
1070
     8
1002
}
  0
INSERT
  5
1256
330
1F
100
AcDbEntity
  8
AM_5
100
AcDbBlockReference
  2
*S26
 10
0.0
 20
0.0
 30
0.0
  0
TEXT
  5
1257
330
1F
100
AcDbEntity
  8
AM_5
100
AcDbText
 10
2489.621869988576
 20
1306.223715078025
 30
0.0
 40
3.0
  1
2-M5x0.8x5depth
 41
0.8
  7
CHINESET
100
AcDbText
  0
INSERT
  5
1264
330
1F
100
AcDbEntity
  8
AM_5
100
AcDbBlockReference
  2
*S27
 10
0.0
 20
0.0
 30
0.0
  0
TEXT
  5
1265
330
1F
100
AcDbEntity
  8
AM_5
100
AcDbText
 10
2478.200421931846
 20
1479.722680242929
 30
0.0
 40
3.0
  1
2-M6x1.0x10depth
 41
0.8
  7
CHINESET
100
AcDbText
  0
LINE
  5
1F78
330
1F
100
AcDbEntity
  8
AM_VIS
100
AcDbLine
 10
2545.008082551266
 20
1450.828964471665
 30
0.0
 11
2545.008082551266
 21
1451.328964471665
 31
0.0
  0
LINE
  5
1F79
330
1F
100
AcDbEntity
  8
AM_VIS
100
AcDbLine
 10
2545.008082551266
 20
1451.878964471665
 30
0.0
 11
2545.008082551266
 21
1451.328964471665
 31
0.0
  0
LINE
  5
1F7A
330
1F
100
AcDbEntity
  8
AM_VIS
100
AcDbLine
 10
2545.008082551266
 20
1454.028964471665
 30
0.0
 11
2545.008082551266
 21
1453.128964471665
 31
0.0
  0
LINE
  5
1F7B
330
1F
100
AcDbEntity
  8
AM_VIS
100
AcDbLine
 10
2545.008082551266
 20
1455.828964471665
 30
0.0
 11
2545.008082551266
 21
1455.278964471665
 31
0.0
  0
LINE
  5
1F7C
330
1F
100
AcDbEntity
  8
AM_VIS
100
AcDbLine
 10
2545.008082551266
 20
1455.828964471665
 30
0.0
 11
2545.008082551266
 21
1456.328964471665
 31
0.0
  0
LINE
  5
1F7D
330
1F
100
AcDbEntity
  8
AM_VIS
100
AcDbLine
 10
2545.008082551266
 20
1469.078964471665
 30
0.0
 11
2545.008082551266
 21
1456.328964471665
 31
0.0
  0
LINE
  5
1F7E
330
1F
100
AcDbEntity
  8
AM_VIS
100
AcDbLine
 10
2545.008082551266
 20
1469.078964471665
 30
0.0
 11
2545.008082551266
 21
1469.578964471665
 31
0.0
  0
LINE
  5
1F7F
330
1F
100
AcDbEntity
  8
AM_VIS
100
AcDbLine
 10
2508.008082551266
 20
1460.078964471665
 30
0.0
 11
2508.008082551266
 21
1456.328964471665
 31
0.0
  0
LINE
  5
1F80
330
1F
100
AcDbEntity
  8
AM_VIS
100
AcDbLine
 10
2508.008082551266
 20
1456.328964471665
 30
0.0
 11
2508.008082551266
 21
1455.828964471665
 31
0.0
  0
LINE
  5
1F81
330
1F
100
AcDbEntity
  8
AM_VIS
100
AcDbLine
 10
2508.008082551266
 20
1455.828964471665
 30
0.0
 11
2508.008082551266
 21
1455.278964471665
 31
0.0
  0
LINE
  5
1F82
330
1F
100
AcDbEntity
  8
AM_VIS
100
AcDbLine
 10
2508.008082551266
 20
1454.028964471665
 30
0.0
 11
2508.008082551266
 21
1453.128964471665
 31
0.0
  0
LINE
  5
1F83
330
1F
100
AcDbEntity
  8
AM_VIS
100
AcDbLine
 10
2508.008082551266
 20
1451.878964471665
 30
0.0
 11
2508.008082551266
 21
1451.328964471665
 31
0.0
  0
LINE
  5
1F84
330
1F
100
AcDbEntity
  8
AM_VIS
100
AcDbLine
 10
2508.008082551266
 20
1451.328964471665
 30
0.0
 11
2508.008082551266
 21
1450.828964471665
 31
0.0
  0
LINE
  5
1F85
330
1F
100
AcDbEntity
  8
AM_VIS
100
AcDbLine
 10
2508.008082551266
 20
1450.828964471665
 30
0.0
 11
2508.008082551266
 21
1447.078964471665
 31
0.0
  0
LINE
  5
1F86
330
1F
100
AcDbEntity
  8
AM_VIS
100
AcDbLine
 10
2508.008082551266
 20
1447.078964471665
 30
0.0
 11
2491.008082551266
 21
1447.078964471665
 31
0.0
  0
LINE
  5
1F87
330
1F
100
AcDbEntity
  8
AM_VIS
100
AcDbLine
 10
2491.008082551266
 20
1460.078964471665
 30
0.0
 11
2508.008082551266
 21
1460.078964471665
 31
0.0
  0
LINE
  5
1F88
330
1F
100
AcDbEntity
  8
AM_VIS
100
AcDbLine
 10
2491.008082551266
 20
1461.078964471665
 30
0.0
 11
2491.008082551266
 21
1460.078964471665
 31
0.0
  0
LINE
  5
1F8B
330
1F
100
AcDbEntity
  8
AM_VIS
100
AcDbLine
 10
2545.008082551266
 20
1451.878964471665
 30
0.0
 11
2545.008082551266
 21
1453.128964471665
 31
0.0
  0
LINE
  5
1F8C
330
1F
100
AcDbEntity
  8
AM_VIS
100
AcDbLine
 10
2545.008082551266
 20
1454.028964471665
 30
0.0
 11
2545.008082551266
 21
1455.278964471665
 31
0.0
  0
LINE
  5
1F8D
330
1F
100
AcDbEntity
  8
AM_VIS
100
AcDbLine
 10
2508.008082551266
 20
1455.278964471665
 30
0.0
 11
2508.008082551266
 21
1454.028964471665
 31
0.0
  0
LINE
  5
1F8E
330
1F
100
AcDbEntity
  8
AM_VIS
100
AcDbLine
 10
2508.008082551266
 20
1453.128964471665
 30
0.0
 11
2508.008082551266
 21
1451.878964471665
 31
0.0
  0
LINE
  5
1F8F
330
1F
100
AcDbEntity
  8
AM_VIS
100
AcDbLine
 10
2503.192662989668
 20
1451.578964471665
 30
0.0
 11
2508.008082551266
 21
1451.578964471665
 31
0.0
  0
LINE
  5
1F90
330
1F
100
AcDbEntity
  8
AM_VIS
100
AcDbLine
 10
2508.008082551266
 20
1455.578964471665
 30
0.0
 11
2503.192662989668
 21
1455.578964471665
 31
0.0
  0
LINE
  5
1F91
330
1F
100
AcDbEntity
  8
AM_VIS
100
AcDbLine
 10
2500.217172612314
 20
1447.578964471665
 30
0.0
 11
2498.338409943109
 21
1447.578964471665
 31
0.0
  0
LINE
  5
1F92
330
1F
100
AcDbEntity
  8
AM_VIS
100
AcDbLine
 10
2498.338409943109
 20
1447.578964471665
 30
0.0
 11
2498.338409943109
 21
1451.378964471665
 31
0.0
  0
LINE
  5
1F93
330
1F
100
AcDbEntity
  8
AM_VIS
100
AcDbLine
 10
2498.338409943109
 20
1447.578964471665
 30
0.0
 11
2497.008082551266
 21
1447.578964471665
 31
0.0
  0
LINE
  5
1F94
330
1F
100
AcDbEntity
  8
AM_VIS
100
AcDbLine
 10
2492.008082551266
 20
1447.578964471665
 30
0.0
 11
2489.508082551266
 21
1447.578964471665
 31
0.0
  0
LINE
  5
1F95
330
1F
100
AcDbEntity
  8
AM_VIS
100
AcDbLine
 10
2488.223621422774
 20
1451.278964471665
 30
0.0
 11
2488.223621422774
 21
1451.578964471664
 31
0.0
  0
LINE
  5
1F96
330
1F
100
AcDbEntity
  8
AM_VIS
100
AcDbLine
 10
2506.792841954533
 20
1447.578964471665
 30
0.0
 11
2504.914079285327
 21
1447.578964471665
 31
0.0
  0
LINE
  5
1F97
330
1F
100
AcDbEntity
  8
AM_VIS
100
AcDbLine
 10
2500.217172612314
 20
1451.378964471665
 30
0.0
 11
2498.338409943109
 21
1451.378964471665
 31
0.0
  0
LINE
  5
1F98
330
1F
100
AcDbEntity
  8
AM_VIS
100
AcDbLine
 10
2498.338409943109
 20
1451.378964471665
 30
0.0
 11
2497.008082551266
 21
1451.378964471665
 31
0.0
  0
LINE
  5
1F99
330
1F
100
AcDbEntity
  8
AM_VIS
100
AcDbLine
 10
2506.792841954533
 20
1451.378964471665
 30
0.0
 11
2504.914079285327
 21
1451.378964471665
 31
0.0
  0
LINE
  5
1F9A
330
1F
100
AcDbEntity
  8
AM_VIS
100
AcDbLine
 10
2500.217172612314
 20
1447.578964471665
 30
0.0
 11
2500.217172612314
 21
1451.378964471665
 31
0.0
  0
LINE
  5
1F9B
330
1F
100
AcDbEntity
  8
AM_VIS
100
AcDbLine
 10
2504.914079285327
 20
1451.378964471665
 30
0.0
 11
2504.914079285327
 21
1447.578964471665
 31
0.0
  0
LINE
  5
1F9C
330
1F
100
AcDbEntity
  8
AM_VIS
100
AcDbLine
 10
2504.914079285327
 20
1447.578964471665
 30
0.0
 11
2504.308082551266
 21
1447.578964471665
 31
0.0
  0
LINE
  5
1F9D
330
1F
100
AcDbEntity
  8
AM_VIS
100
AcDbLine
 10
2504.308082551266
 20
1451.378964471665
 30
0.0
 11
2504.914079285327
 21
1451.378964471665
 31
0.0
  0
LINE
  5
1F9E
330
1F
100
AcDbEntity
  8
AM_VIS
100
AcDbLine
 10
2506.792841954533
 20
1447.578964471665
 30
0.0
 11
2506.792841954533
 21
1451.378964471665
 31
0.0
  0
LINE
  5
1F9F
330
1F
100
AcDbEntity
  8
AM_VIS
100
AcDbLine
 10
2477.008082551266
 20
1451.278964471665
 30
0.0
 11
2477.008082551266
 21
1451.578964471664
 31
0.0
  0
LINE
  5
1FA0
330
1F
100
AcDbEntity
  8
AM_VIS
100
AcDbLine
 10
2472.008082551266
 20
1451.278964471665
 30
0.0
 11
2472.008082551266
 21
1451.578964471664
 31
0.0
  0
LINE
  5
1FA1
330
1F
100
AcDbEntity
  8
AM_VIS
100
AcDbLine
 10
2471.008082551266
 20
1451.278964471665
 30
0.0
 11
2471.008082551266
 21
1446.578964471665
 31
0.0
  0
LINE
  5
1FA2
330
1F
100
AcDbEntity
  8
AM_VIS
100
AcDbLine
 10
2485.508082551266
 20
1451.278964471665
 30
0.0
 11
2471.008082551266
 21
1451.278964471665
 31
0.0
  0
LINE
  5
1FA3
330
1F
100
AcDbEntity
  8
AM_VIS
100
AcDbLine
 10
2471.008082551266
 20
1451.278964471665
 30
0.0
 11
2470.508082551266
 21
1451.278964471665
 31
0.0
  0
LINE
  5
1FA4
330
1F
100
AcDbEntity
  8
AM_VIS
100
AcDbLine
 10
2485.508082551266
 20
1451.278964471665
 30
0.0
 11
2485.508082551266
 21
1446.578964471665
 31
0.0
  0
LINE
  5
1FA5
330
1F
100
AcDbEntity
  8
AM_VIS
100
AcDbLine
 10
2489.508082551266
 20
1451.278964471665
 30
0.0
 11
2485.508082551266
 21
1451.278964471665
 31
0.0
  0
LINE
  5
1FA6
330
1F
100
AcDbEntity
  8
AM_VIS
100
AcDbLine
 10
2489.508082551266
 20
1446.578964471665
 30
0.0
 11
2489.508082551266
 21
1451.278964471665
 31
0.0
  0
LINE
  5
1FA7
330
1F
100
AcDbEntity
  8
AM_VIS
100
AcDbLine
 10
2488.223621422774
 20
1459.578964471664
 30
0.0
 11
2493.390218763089
 21
1459.578964471664
 31
0.0
  0
LINE
  5
1FA8
330
1F
100
AcDbEntity
  8
AM_VIS
100
AcDbLine
 10
2471.314757399925
 20
1455.578964471665
 30
0.0
 11
2471.314757399925
 21
1451.578964471664
 31
0.0
  0
LINE
  5
1FA9
330
1F
100
AcDbEntity
  8
AM_VIS
100
AcDbLine
 10
2488.223621422774
 20
1455.578964471665
 30
0.0
 11
2471.314757399925
 21
1455.578964471665
 31
0.0
  0
LINE
  5
1FAA
330
1F
100
AcDbEntity
  8
AM_VIS
100
AcDbLine
 10
2488.223621422774
 20
1459.578964471664
 30
0.0
 11
2488.223621422774
 21
1455.578964471665
 31
0.0
  0
LINE
  5
1FAB
330
1F
100
AcDbEntity
  8
AM_VIS
100
AcDbLine
 10
2471.314757399925
 20
1451.578964471664
 30
0.0
 11
2493.390218763089
 21
1451.578964471664
 31
0.0
  0
LINE
  5
1FAC
330
1F
100
AcDbEntity
  8
AM_VIS
100
AcDbLine
 10
2497.878113089154
 20
1459.578964471664
 30
0.0
 11
2506.792841954533
 21
1459.578964471664
 31
0.0
  0
LINE
  5
1FAD
330
1F
100
AcDbEntity
  8
AM_VIS
100
AcDbLine
 10
2506.792841954533
 20
1459.578964471664
 30
0.0
 11
2506.792841954533
 21
1455.778964471664
 31
0.0
  0
LINE
  5
1FAE
330
1F
100
AcDbEntity
  8
AM_VIS
100
AcDbLine
 10
2503.192662989668
 20
1455.778964471664
 30
0.0
 11
2506.792841954533
 21
1455.778964471664
 31
0.0
  0
LINE
  5
1FAF
330
1F
100
AcDbEntity
  8
AM_VIS
100
AcDbLine
 10
2503.192662989668
 20
1451.578964471664
 30
0.0
 11
2503.192662989668
 21
1455.778964471664
 31
0.0
  0
LINE
  5
1FB0
330
1F
100
AcDbEntity
  8
AM_VIS
100
AcDbLine
 10
2497.878113089154
 20
1451.578964471664
 30
0.0
 11
2503.192662989668
 21
1451.578964471664
 31
0.0
  0
LINE
  5
1FB1
330
1F
100
AcDbEntity
  8
AM_VIS
100
AcDbLine
 10
2493.390218763089
 20
1459.578964471664
 30
0.0
 11
2493.390218763089
 21
1451.578964471664
 31
0.0
  0
LINE
  5
1FB2
330
1F
100
AcDbEntity
  8
AM_VIS
100
AcDbLine
 10
2497.878113089154
 20
1459.578964471664
 30
0.0
 11
2493.390218763089
 21
1459.578964471664
 31
0.0
  0
LINE
  5
1FB3
330
1F
100
AcDbEntity
  8
AM_VIS
100
AcDbLine
 10
2497.878113089154
 20
1451.578964471664
 30
0.0
 11
2497.878113089154
 21
1459.578964471664
 31
0.0
  0
LINE
  5
1FB4
330
1F
100
AcDbEntity
  8
AM_VIS
100
AcDbLine
 10
2493.390218763089
 20
1451.578964471664
 30
0.0
 11
2497.878113089154
 21
1451.578964471664
 31
0.0
  0
LINE
  5
1FB5
330
1F
100
AcDbEntity
  8
AM_VIS
100
AcDbLine
 10
2504.108082551267
 20
1447.178964471665
 30
0.0
 11
2504.308082551266
 21
1447.378964471664
 31
0.0
  0
LINE
  5
1FB6
330
1F
100
AcDbEntity
  8
AM_VIS
100
AcDbLine
 10
2499.508082551266
 20
1447.178964471665
 30
0.0
 11
2499.308082551266
 21
1447.378964471664
 31
0.0
  0
LINE
  5
1FB7
330
1F
100
AcDbEntity
  8
AM_VIS
100
AcDbLine
 10
2499.308082551266
 20
1459.778964471665
 30
0.0
 11
2499.308082551266
 21
1459.578964471664
 31
0.0
  0
LINE
  5
1FB8
330
1F
100
AcDbEntity
  8
AM_VIS
100
AcDbLine
 10
2499.308082551266
 20
1451.578964471664
 30
0.0
 11
2499.308082551266
 21
1451.378964471665
 31
0.0
  0
LINE
  5
1FB9
330
1F
100
AcDbEntity
  8
AM_VIS
100
AcDbLine
 10
2499.308082551266
 20
1447.578964471665
 30
0.0
 11
2499.308082551266
 21
1447.378964471664
 31
0.0
  0
LINE
  5
1FBA
330
1F
100
AcDbEntity
  8
AM_VIS
100
AcDbLine
 10
2504.308082551266
 20
1459.778964471665
 30
0.0
 11
2504.308082551266
 21
1459.578964471664
 31
0.0
  0
LINE
  5
1FBB
330
1F
100
AcDbEntity
  8
AM_VIS
100
AcDbLine
 10
2504.308082551266
 20
1455.778964471664
 30
0.0
 11
2504.308082551266
 21
1455.578964471665
 31
0.0
  0
LINE
  5
1FBC
330
1F
100
AcDbEntity
  8
AM_VIS
100
AcDbLine
 10
2504.308082551266
 20
1451.578964471665
 30
0.0
 11
2504.308082551266
 21
1447.378964471664
 31
0.0
  0
LINE
  5
1FBD
330
1F
100
AcDbEntity
  8
AM_VIS
100
AcDbLine
 10
2499.508082551266
 20
1459.978964471664
 30
0.0
 11
2499.308082551266
 21
1459.778964471665
 31
0.0
  0
LINE
  5
1FBE
330
1F
100
AcDbEntity
  8
AM_VIS
100
AcDbLine
 10
2504.108082551267
 20
1459.978964471664
 30
0.0
 11
2504.308082551266
 21
1459.778964471665
 31
0.0
  0
LINE
  5
1FBF
330
1F
100
AcDbEntity
  8
AM_VIS
100
AcDbLine
 10
2504.108082551267
 20
1447.178964471665
 30
0.0
 11
2499.508082551266
 21
1447.178964471665
 31
0.0
  0
LINE
  5
1FC0
330
1F
100
AcDbEntity
  8
AM_VIS
100
AcDbLine
 10
2499.308082551266
 20
1447.378964471664
 30
0.0
 11
2504.308082551266
 21
1447.378964471664
 31
0.0
  0
LINE
  5
1FC1
330
1F
100
AcDbEntity
  8
AM_VIS
100
AcDbLine
 10
2504.308082551266
 20
1459.778964471665
 30
0.0
 11
2499.308082551266
 21
1459.778964471665
 31
0.0
  0
LINE
  5
1FC2
330
1F
100
AcDbEntity
  8
AM_VIS
100
AcDbLine
 10
2499.508082551266
 20
1459.978964471664
 30
0.0
 11
2504.108082551266
 21
1459.978964471664
 31
0.0
  0
LINE
  5
1FC3
330
1F
100
AcDbEntity
  8
AM_VIS
100
AcDbLine
 10
2472.008082551266
 20
1455.878964471665
 30
0.0
 11
2472.008082551266
 21
1455.578964471665
 31
0.0
  0
LINE
  5
1FC4
330
1F
100
AcDbEntity
  8
AM_VIS
100
AcDbLine
 10
2477.008082551266
 20
1455.878964471665
 30
0.0
 11
2477.008082551266
 21
1455.578964471665
 31
0.0
  0
LINE
  5
1FC5
330
1F
100
AcDbEntity
  8
AM_VIS
100
AcDbLine
 10
2489.508082551266
 20
1459.578964471664
 30
0.0
 11
2489.508082551266
 21
1460.578964471665
 31
0.0
  0
LINE
  5
1FC6
330
1F
100
AcDbEntity
  8
AM_VIS
100
AcDbLine
 10
2485.508082551266
 20
1455.878964471665
 30
0.0
 11
2488.223621422774
 21
1455.878964471665
 31
0.0
  0
LINE
  5
1FC7
330
1F
100
AcDbEntity
  8
AM_VIS
100
AcDbLine
 10
2470.508082551266
 20
1455.878964471665
 30
0.0
 11
2485.508082551266
 21
1455.878964471665
 31
0.0
  0
LINE
  5
1FC8
330
1F
100
AcDbEntity
  8
AM_VIS
100
AcDbLine
 10
2470.508082551266
 20
1446.578964471665
 30
0.0
 11
2470.508082551266
 21
1455.878964471665
 31
0.0
  0
LINE
  5
1FC9
330
1F
100
AcDbEntity
  8
AM_VIS
100
AcDbLine
 10
2466.810506013277
 20
1446.578964471665
 30
0.0
 11
2442.508082551266
 21
1446.578964471665
 31
0.0
  0
LINE
  5
1FCA
330
1F
100
AcDbEntity
  8
AM_VIS
100
AcDbLine
 10
2442.508082551266
 20
1460.578964471665
 30
0.0
 11
2442.508082551266
 21
1446.578964471665
 31
0.0
  0
LINE
  5
1FCB
330
1F
100
AcDbEntity
  8
AM_VIS
100
AcDbLine
 10
2466.810506013277
 20
1460.578964471665
 30
0.0
 11
2442.508082551266
 21
1460.578964471665
 31
0.0
  0
LINE
  5
1FCC
330
1F
100
AcDbEntity
  8
AM_VIS
100
AcDbLine
 10
2485.508082551266
 20
1460.578964471665
 30
0.0
 11
2485.508082551266
 21
1455.878964471665
 31
0.0
  0
LINE
  5
1FD1
330
1F
100
AcDbEntity
  8
AM_VIS
100
AcDbLine
 10
2492.008082551266
 20
1460.078964471665
 30
0.0
 11
2492.008082551266
 21
1459.578964471664
 31
0.0
  0
LINE
  5
1FD2
330
1F
100
AcDbEntity
  8
AM_VIS
100
AcDbLine
 10
2492.008082551266
 20
1451.578964471664
 30
0.0
 11
2492.008082551266
 21
1447.078964471665
 31
0.0
  0
LINE
  5
1FD3
330
1F
100
AcDbEntity
  8
AM_VIS
100
AcDbLine
 10
2497.008082551266
 20
1460.078964471665
 30
0.0
 11
2497.008082551266
 21
1459.578964471664
 31
0.0
  0
LINE
  5
1FD4
330
1F
100
AcDbEntity
  8
AM_VIS
100
AcDbLine
 10
2497.008082551266
 20
1451.578964471664
 30
0.0
 11
2497.008082551266
 21
1447.078964471665
 31
0.0
  0
LINE
  5
1FD5
330
1F
100
AcDbEntity
  8
AM_VIS
100
AcDbLine
 10
2479.008082551266
 20
1455.878964471665
 30
0.0
 11
2479.008082551266
 21
1455.578964471665
 31
0.0
  0
LINE
  5
1FD6
330
1F
100
AcDbEntity
  8
AM_VIS
100
AcDbLine
 10
2479.008082551266
 20
1451.578964471664
 30
0.0
 11
2479.008082551266
 21
1451.278964471665
 31
0.0
  0
LINE
  5
1FD7
330
1F
100
AcDbEntity
  8
AM_VIS
100
AcDbLine
 10
2484.008082551266
 20
1455.878964471665
 30
0.0
 11
2484.008082551266
 21
1455.578964471665
 31
0.0
  0
LINE
  5
1FD8
330
1F
100
AcDbEntity
  8
AM_VIS
100
AcDbLine
 10
2484.008082551266
 20
1451.578964471664
 30
0.0
 11
2484.008082551266
 21
1451.278964471665
 31
0.0
  0
LINE
  5
1FD9
330
1F
100
AcDbEntity
  8
AM_VIS
100
AcDbLine
 10
2466.708082551266
 20
1461.078964471665
 30
0.0
 11
2466.708082551266
 21
1460.578964471665
 31
0.0
  0
LINE
  5
1FDA
330
1F
100
AcDbEntity
  8
AM_VIS
100
AcDbLine
 10
2467.208082551267
 20
1460.578964471665
 30
0.0
 11
2490.508082551266
 21
1460.578964471665
 31
0.0
  0
LINE
  5
1FDB
330
1F
100
AcDbEntity
  8
AM_VIS
100
AcDbLine
 10
2467.208082551267
 20
1460.578964471665
 30
0.0
 11
2466.810506013277
 21
1460.578964471665
 31
0.0
  0
LINE
  5
1FDC
330
1F
100
AcDbEntity
  8
AM_VIS
100
AcDbLine
 10
2491.008082551266
 20
1460.578964471665
 30
0.0
 11
2490.508082551266
 21
1460.578964471665
 31
0.0
  0
LINE
  5
1FDD
330
1F
100
AcDbEntity
  8
AM_VIS
100
AcDbLine
 10
2466.708082551266
 20
1446.578964471665
 30
0.0
 11
2466.708082551266
 21
1446.078964471665
 31
0.0
  0
LINE
  5
1FDE
330
1F
100
AcDbEntity
  8
AM_VIS
100
AcDbLine
 10
2467.208082551267
 20
1446.578964471665
 30
0.0
 11
2490.508082551266
 21
1446.578964471665
 31
0.0
  0
LINE
  5
1FDF
330
1F
100
AcDbEntity
  8
AM_VIS
100
AcDbLine
 10
2466.810506013277
 20
1446.578964471665
 30
0.0
 11
2467.208082551267
 21
1446.578964471665
 31
0.0
  0
LINE
  5
1FE0
330
1F
100
AcDbEntity
  8
AM_VIS
100
AcDbLine
 10
2490.508082551266
 20
1446.578964471665
 30
0.0
 11
2491.008082551266
 21
1446.578964471665
 31
0.0
  0
LINE
  5
1FE3
330
1F
100
AcDbEntity
  8
AM_VIS
100
AcDbLine
 10
2466.508082551266
 20
1263.828219281591
 30
0.0
 11
2545.008082551266
 21
1263.828219281591
 31
0.0
  0
LINE
  5
1FE4
330
1F
100
AcDbEntity
  8
AM_VIS
100
AcDbLine
 10
2466.508082551266
 20
1264.328219281591
 30
0.0
 11
2466.508082551266
 21
1263.828219281591
 31
0.0
  0
LINE
  5
1FE5
330
1F
100
AcDbEntity
  8
AM_VIS
100
AcDbLine
 10
2545.008082551266
 20
1295.828219281591
 30
0.0
 11
2466.508082551266
 21
1295.828219281591
 31
0.0
  0
LINE
  5
1FE6
330
1F
100
AcDbEntity
  8
AM_VIS
100
AcDbLine
 10
2466.508082551266
 20
1295.828219281591
 30
0.0
 11
2466.508082551266
 21
1295.328219281591
 31
0.0
  0
LINE
  5
1FE8
330
1F
100
AcDbEntity
  8
AM_VIS
100
AcDbLine
 10
2466.508082551266
 20
1272.328219281591
 30
0.0
 11
2466.508082551266
 21
1264.328219281591
 31
0.0
  0
LINE
  5
1FE9
330
1F
100
AcDbEntity
  8
AM_VIS
100
AcDbLine
 10
2491.008082551266
 20
1272.328219281591
 30
0.0
 11
2466.508082551266
 21
1272.328219281591
 31
0.0
  0
LINE
  5
1FEA
330
1F
100
AcDbEntity
  8
AM_VIS
100
AcDbLine
 10
2491.008082551266
 20
1273.328219281591
 30
0.0
 11
2491.008082551266
 21
1272.328219281591
 31
0.0
  0
LINE
  5
1FEB
330
1F
100
AcDbEntity
  8
AM_VIS
100
AcDbLine
 10
2508.008082551266
 20
1273.328219281591
 30
0.0
 11
2491.008082551266
 21
1273.328219281591
 31
0.0
  0
LINE
  5
1FED
330
1F
100
AcDbEntity
  8
AM_VIS
100
AcDbLine
 10
2508.008082551266
 20
1277.078219281591
 30
0.0
 11
2545.008082551266
 21
1277.078219281591
 31
0.0
  0
LINE
  5
1FEE
330
1F
100
AcDbEntity
  8
AM_VIS
100
AcDbLine
 10
2491.008082551266
 20
1286.328219281591
 30
0.0
 11
2508.008082551266
 21
1286.328219281591
 31
0.0
  0
LINE
  5
1FEF
330
1F
100
AcDbEntity
  8
AM_VIS
100
AcDbLine
 10
2466.508082551266
 20
1287.328219281591
 30
0.0
 11
2491.008082551266
 21
1287.328219281591
 31
0.0
  0
LINE
  5
1FF0
330
1F
100
AcDbEntity
  8
AM_VIS
100
AcDbLine
 10
2466.508082551266
 20
1295.328219281591
 30
0.0
 11
2466.508082551266
 21
1287.328219281591
 31
0.0
  0
LINE
  5
1FF3
330
1F
100
AcDbEntity
  8
AM_VIS
100
AcDbLine
 10
2545.008082551266
 20
1282.578219281591
 30
0.0
 11
2508.008082551266
 21
1282.578219281591
 31
0.0
  0
LINE
  5
1FF4
330
1F
100
AcDbEntity
  8
AM_VIS
100
AcDbLine
 10
2545.008082551266
 20
1295.328219281591
 30
0.0
 11
2545.008082551266
 21
1282.578219281591
 31
0.0
  0
LINE
  5
1FF5
330
1F
100
AcDbEntity
  8
AM_VIS
100
AcDbLine
 10
2545.008082551266
 20
1295.328219281591
 30
0.0
 11
2545.008082551266
 21
1295.828219281591
 31
0.0
  0
LINE
  5
1FF6
330
1F
100
AcDbEntity
  8
AM_VIS
100
AcDbLine
 10
2545.008082551266
 20
1263.828219281591
 30
0.0
 11
2545.008082551266
 21
1264.328219281591
 31
0.0
  0
LINE
  5
1FF7
330
1F
100
AcDbEntity
  8
AM_VIS
100
AcDbLine
 10
2545.008082551266
 20
1277.078219281591
 30
0.0
 11
2545.008082551266
 21
1264.328219281591
 31
0.0
  0
LINE
  5
1FF8
330
1F
100
AcDbEntity
  8
AM_VIS
100
AcDbLine
 10
2545.008082551266
 20
1277.078219281591
 30
0.0
 11
2545.008082551266
 21
1277.578219281591
 31
0.0
  0
LINE
  5
1FF9
330
1F
100
AcDbEntity
  8
AM_VIS
100
AcDbLine
 10
2545.008082551266
 20
1278.128219281591
 30
0.0
 11
2545.008082551266
 21
1277.578219281591
 31
0.0
  0
LINE
  5
1FFA
330
1F
100
AcDbEntity
  8
AM_VIS
100
AcDbLine
 10
2545.008082551266
 20
1280.278219281591
 30
0.0
 11
2545.008082551266
 21
1279.378219281591
 31
0.0
  0
LINE
  5
1FFB
330
1F
100
AcDbEntity
  8
AM_VIS
100
AcDbLine
 10
2545.008082551266
 20
1282.078219281591
 30
0.0
 11
2545.008082551266
 21
1281.528219281591
 31
0.0
  0
LINE
  5
1FFC
330
1F
100
AcDbEntity
  8
AM_VIS
100
AcDbLine
 10
2545.008082551266
 20
1282.078219281591
 30
0.0
 11
2545.008082551266
 21
1282.578219281591
 31
0.0
  0
LINE
  5
1FFD
330
1F
100
AcDbEntity
  8
AM_VIS
100
AcDbLine
 10
2508.008082551266
 20
1286.328219281591
 30
0.0
 11
2508.008082551266
 21
1282.578219281591
 31
0.0
  0
LINE
  5
1FFE
330
1F
100
AcDbEntity
  8
AM_VIS
100
AcDbLine
 10
2508.008082551266
 20
1282.578219281591
 30
0.0
 11
2508.008082551266
 21
1282.078219281591
 31
0.0
  0
LINE
  5
1FFF
330
1F
100
AcDbEntity
  8
AM_VIS
100
AcDbLine
 10
2508.008082551266
 20
1282.078219281591
 30
0.0
 11
2508.008082551266
 21
1281.528219281591
 31
0.0
  0
LINE
  5
2000
330
1F
100
AcDbEntity
  8
AM_VIS
100
AcDbLine
 10
2508.008082551266
 20
1280.278219281591
 30
0.0
 11
2508.008082551266
 21
1279.378219281591
 31
0.0
  0
LINE
  5
2001
330
1F
100
AcDbEntity
  8
AM_VIS
100
AcDbLine
 10
2508.008082551266
 20
1278.128219281591
 30
0.0
 11
2508.008082551266
 21
1277.578219281591
 31
0.0
  0
LINE
  5
2002
330
1F
100
AcDbEntity
  8
AM_VIS
100
AcDbLine
 10
2508.008082551266
 20
1277.578219281591
 30
0.0
 11
2508.008082551266
 21
1277.078219281591
 31
0.0
  0
LINE
  5
2003
330
1F
100
AcDbEntity
  8
AM_VIS
100
AcDbLine
 10
2508.008082551266
 20
1277.078219281591
 30
0.0
 11
2508.008082551266
 21
1273.328219281591
 31
0.0
  0
LINE
  5
2004
330
1F
100
AcDbEntity
  8
AM_VIS
100
AcDbLine
 10
2491.008082551266
 20
1287.328219281591
 30
0.0
 11
2491.008082551266
 21
1286.328219281591
 31
0.0
  0
CIRCLE
  5
2009
330
1F
100
AcDbEntity
  8
AM_VIS
100
AcDbCircle
 10
2516.008082551266
 20
1270.828219281591
 30
0.0
 40
4.25
  0
CIRCLE
  5
200A
330
1F
100
AcDbEntity
  8
AM_VIS
100
AcDbCircle
 10
2536.508082551266
 20
1288.828219281591
 30
0.0
 40
4.25
  0
LINE
  5
200B
330
1F
100
AcDbEntity
  8
AM_VIS
100
AcDbLine
 10
2545.008082551266
 20
1278.128219281591
 30
0.0
 11
2545.008082551266
 21
1279.378219281591
 31
0.0
  0
LINE
  5
200C
330
1F
100
AcDbEntity
  8
AM_VIS
100
AcDbLine
 10
2545.008082551266
 20
1280.278219281591
 30
0.0
 11
2545.008082551266
 21
1281.528219281591
 31
0.0
  0
LINE
  5
200D
330
1F
100
AcDbEntity
  8
AM_VIS
100
AcDbLine
 10
2508.008082551266
 20
1281.528219281591
 30
0.0
 11
2508.008082551266
 21
1280.278219281591
 31
0.0
  0
LINE
  5
200E
330
1F
100
AcDbEntity
  8
AM_VIS
100
AcDbLine
 10
2508.008082551266
 20
1279.378219281591
 30
0.0
 11
2508.008082551266
 21
1278.128219281591
 31
0.0
  0
LINE
  5
2010
330
1F
100
AcDbEntity
  8
AM_VIS
100
AcDbLine
 10
2508.008082551266
 20
1281.828219281591
 30
0.0
 11
2503.192662989668
 21
1281.828219281591
 31
0.0
  0
LINE
  5
2011
330
1F
100
AcDbEntity
  8
AM_VIS
100
AcDbLine
 10
2503.192662989668
 20
1277.828219281591
 30
0.0
 11
2508.008082551266
 21
1277.828219281591
 31
0.0
  0
LINE
  5
2012
330
1F
100
AcDbEntity
  8
AM_VIS
100
AcDbLine
 10
2488.223621422774
 20
1285.828219281591
 30
0.0
 11
2493.390218763089
 21
1285.828219281591
 31
0.0
  0
LINE
  5
2013
330
1F
100
AcDbEntity
  8
AM_VIS
100
AcDbLine
 10
2471.314757399925
 20
1281.828219281591
 30
0.0
 11
2471.314757399925
 21
1277.828219281591
 31
0.0
  0
LINE
  5
2014
330
1F
100
AcDbEntity
  8
AM_VIS
100
AcDbLine
 10
2488.223621422774
 20
1281.828219281591
 30
0.0
 11
2471.314757399925
 21
1281.828219281591
 31
0.0
  0
LINE
  5
2015
330
1F
100
AcDbEntity
  8
AM_VIS
100
AcDbLine
 10
2488.223621422774
 20
1285.828219281591
 30
0.0
 11
2488.223621422774
 21
1281.828219281591
 31
0.0
  0
LINE
  5
2016
330
1F
100
AcDbEntity
  8
AM_VIS
100
AcDbLine
 10
2471.314757399925
 20
1277.828219281591
 30
0.0
 11
2493.390218763089
 21
1277.828219281591
 31
0.0
  0
LINE
  5
2017
330
1F
100
AcDbEntity
  8
AM_VIS
100
AcDbLine
 10
2497.878113089154
 20
1285.828219281591
 30
0.0
 11
2506.792841954533
 21
1285.828219281591
 31
0.0
  0
LINE
  5
2018
330
1F
100
AcDbEntity
  8
AM_VIS
100
AcDbLine
 10
2506.792841954533
 20
1285.828219281591
 30
0.0
 11
2506.792841954533
 21
1282.028219281591
 31
0.0
  0
LINE
  5
2019
330
1F
100
AcDbEntity
  8
AM_VIS
100
AcDbLine
 10
2503.192662989668
 20
1282.028219281591
 30
0.0
 11
2506.792841954533
 21
1282.028219281591
 31
0.0
  0
LINE
  5
201A
330
1F
100
AcDbEntity
  8
AM_VIS
100
AcDbLine
 10
2503.192662989668
 20
1277.828219281591
 30
0.0
 11
2503.192662989668
 21
1282.028219281591
 31
0.0
  0
LINE
  5
201B
330
1F
100
AcDbEntity
  8
AM_VIS
100
AcDbLine
 10
2497.878113089154
 20
1277.828219281591
 30
0.0
 11
2503.192662989668
 21
1277.828219281591
 31
0.0
  0
LINE
  5
201C
330
1F
100
AcDbEntity
  8
AM_VIS
100
AcDbLine
 10
2493.390218763089
 20
1285.828219281591
 30
0.0
 11
2493.390218763089
 21
1277.828219281591
 31
0.0
  0
LINE
  5
201D
330
1F
100
AcDbEntity
  8
AM_VIS
100
AcDbLine
 10
2497.878113089154
 20
1285.828219281591
 30
0.0
 11
2493.390218763089
 21
1285.828219281591
 31
0.0
  0
LINE
  5
201E
330
1F
100
AcDbEntity
  8
AM_VIS
100
AcDbLine
 10
2497.878113089154
 20
1277.828219281591
 30
0.0
 11
2497.878113089154
 21
1285.828219281591
 31
0.0
  0
LINE
  5
201F
330
1F
100
AcDbEntity
  8
AM_VIS
100
AcDbLine
 10
2493.390218763089
 20
1277.828219281591
 30
0.0
 11
2497.878113089154
 21
1277.828219281591
 31
0.0
  0
LINE
  5
2020
330
1F
100
AcDbEntity
  8
AM_VIS
100
AcDbLine
 10
2472.008082551266
 20
1282.128219281591
 30
0.0
 11
2472.008082551266
 21
1281.828219281591
 31
0.0
  0
LINE
  5
2021
330
1F
100
AcDbEntity
  8
AM_VIS
100
AcDbLine
 10
2477.008082551266
 20
1282.128219281591
 30
0.0
 11
2477.008082551266
 21
1281.828219281591
 31
0.0
  0
LINE
  5
2022
330
1F
100
AcDbEntity
  8
AM_VIS
100
AcDbLine
 10
2489.508082551266
 20
1285.828219281591
 30
0.0
 11
2489.508082551266
 21
1286.828219281591
 31
0.0
  0
LINE
  5
2023
330
1F
100
AcDbEntity
  8
AM_VIS
100
AcDbLine
 10
2485.508082551266
 20
1282.128219281591
 30
0.0
 11
2488.223621422774
 21
1282.128219281591
 31
0.0
  0
LINE
  5
2024
330
1F
100
AcDbEntity
  8
AM_VIS
100
AcDbLine
 10
2470.508082551266
 20
1282.128219281591
 30
0.0
 11
2485.508082551266
 21
1282.128219281591
 31
0.0
  0
LINE
  5
2025
330
1F
100
AcDbEntity
  8
AM_VIS
100
AcDbLine
 10
2470.508082551266
 20
1272.828219281591
 30
0.0
 11
2470.508082551266
 21
1282.128219281591
 31
0.0
  0
LINE
  5
2026
330
1F
100
AcDbEntity
  8
AM_VIS
100
AcDbLine
 10
2466.810506013277
 20
1272.828219281591
 30
0.0
 11
2442.508082551266
 21
1272.828219281591
 31
0.0
  0
LINE
  5
2027
330
1F
100
AcDbEntity
  8
AM_VIS
100
AcDbLine
 10
2442.508082551266
 20
1286.828219281591
 30
0.0
 11
2442.508082551266
 21
1272.828219281591
 31
0.0
  0
LINE
  5
2028
330
1F
100
AcDbEntity
  8
AM_VIS
100
AcDbLine
 10
2466.810506013277
 20
1286.828219281591
 30
0.0
 11
2442.508082551266
 21
1286.828219281591
 31
0.0
  0
LINE
  5
2029
330
1F
100
AcDbEntity
  8
AM_VIS
100
AcDbLine
 10
2485.508082551266
 20
1286.828219281591
 30
0.0
 11
2485.508082551266
 21
1282.128219281591
 31
0.0
  0
LINE
  5
202E
330
1F
100
AcDbEntity
  8
AM_VIS
100
AcDbLine
 10
2500.217172612314
 20
1273.828219281591
 30
0.0
 11
2498.338409943109
 21
1273.828219281591
 31
0.0
  0
LINE
  5
202F
330
1F
100
AcDbEntity
  8
AM_VIS
100
AcDbLine
 10
2498.338409943109
 20
1273.828219281591
 30
0.0
 11
2498.338409943109
 21
1277.628219281591
 31
0.0
  0
LINE
  5
2030
330
1F
100
AcDbEntity
  8
AM_VIS
100
AcDbLine
 10
2498.338409943109
 20
1273.828219281591
 30
0.0
 11
2497.008082551266
 21
1273.828219281591
 31
0.0
  0
LINE
  5
2031
330
1F
100
AcDbEntity
  8
AM_VIS
100
AcDbLine
 10
2492.008082551266
 20
1273.828219281591
 30
0.0
 11
2489.508082551266
 21
1273.828219281591
 31
0.0
  0
LINE
  5
2032
330
1F
100
AcDbEntity
  8
AM_VIS
100
AcDbLine
 10
2488.223621422774
 20
1277.528219281591
 30
0.0
 11
2488.223621422774
 21
1277.828219281591
 31
0.0
  0
LINE
  5
2033
330
1F
100
AcDbEntity
  8
AM_VIS
100
AcDbLine
 10
2506.792841954533
 20
1273.828219281591
 30
0.0
 11
2504.914079285328
 21
1273.828219281591
 31
0.0
  0
LINE
  5
2034
330
1F
100
AcDbEntity
  8
AM_VIS
100
AcDbLine
 10
2500.217172612314
 20
1277.628219281591
 30
0.0
 11
2498.338409943109
 21
1277.628219281591
 31
0.0
  0
LINE
  5
2035
330
1F
100
AcDbEntity
  8
AM_VIS
100
AcDbLine
 10
2498.338409943109
 20
1277.628219281591
 30
0.0
 11
2497.008082551266
 21
1277.628219281591
 31
0.0
  0
LINE
  5
2036
330
1F
100
AcDbEntity
  8
AM_VIS
100
AcDbLine
 10
2506.792841954533
 20
1277.628219281591
 30
0.0
 11
2504.914079285328
 21
1277.628219281591
 31
0.0
  0
LINE
  5
2037
330
1F
100
AcDbEntity
  8
AM_VIS
100
AcDbLine
 10
2500.217172612314
 20
1273.828219281591
 30
0.0
 11
2500.217172612314
 21
1277.628219281591
 31
0.0
  0
LINE
  5
2038
330
1F
100
AcDbEntity
  8
AM_VIS
100
AcDbLine
 10
2504.914079285328
 20
1277.628219281591
 30
0.0
 11
2504.914079285328
 21
1273.828219281591
 31
0.0
  0
LINE
  5
2039
330
1F
100
AcDbEntity
  8
AM_VIS
100
AcDbLine
 10
2504.914079285328
 20
1273.828219281591
 30
0.0
 11
2504.308082551266
 21
1273.828219281591
 31
0.0
  0
LINE
  5
203A
330
1F
100
AcDbEntity
  8
AM_VIS
100
AcDbLine
 10
2504.308082551266
 20
1277.628219281591
 30
0.0
 11
2504.914079285327
 21
1277.628219281591
 31
0.0
  0
LINE
  5
203B
330
1F
100
AcDbEntity
  8
AM_VIS
100
AcDbLine
 10
2506.792841954533
 20
1273.828219281591
 30
0.0
 11
2506.792841954533
 21
1277.628219281591
 31
0.0
  0
LINE
  5
203C
330
1F
100
AcDbEntity
  8
AM_VIS
100
AcDbLine
 10
2499.508082551266
 20
1286.228219281591
 30
0.0
 11
2499.308082551266
 21
1286.028219281591
 31
0.0
  0
LINE
  5
203D
330
1F
100
AcDbEntity
  8
AM_VIS
100
AcDbLine
 10
2504.108082551267
 20
1286.228219281591
 30
0.0
 11
2504.308082551266
 21
1286.028219281591
 31
0.0
  0
LINE
  5
203E
330
1F
100
AcDbEntity
  8
AM_VIS
100
AcDbLine
 10
2504.308082551266
 20
1273.628219281591
 30
0.0
 11
2504.308082551266
 21
1277.828219281591
 31
0.0
  0
LINE
  5
203F
330
1F
100
AcDbEntity
  8
AM_VIS
100
AcDbLine
 10
2504.308082551266
 20
1281.828219281591
 30
0.0
 11
2504.308082551266
 21
1282.028219281591
 31
0.0
  0
LINE
  5
2040
330
1F
100
AcDbEntity
  8
AM_VIS
100
AcDbLine
 10
2504.308082551266
 20
1285.828219281591
 30
0.0
 11
2504.308082551266
 21
1286.028219281591
 31
0.0
  0
LINE
  5
2041
330
1F
100
AcDbEntity
  8
AM_VIS
100
AcDbLine
 10
2499.308082551266
 20
1273.628219281591
 30
0.0
 11
2499.308082551266
 21
1273.828219281591
 31
0.0
  0
LINE
  5
2042
330
1F
100
AcDbEntity
  8
AM_VIS
100
AcDbLine
 10
2499.308082551266
 20
1277.628219281591
 30
0.0
 11
2499.308082551266
 21
1277.828219281591
 31
0.0
  0
LINE
  5
2043
330
1F
100
AcDbEntity
  8
AM_VIS
100
AcDbLine
 10
2499.308082551266
 20
1285.828219281591
 30
0.0
 11
2499.308082551266
 21
1286.028219281591
 31
0.0
  0
LINE
  5
2044
330
1F
100
AcDbEntity
  8
AM_VIS
100
AcDbLine
 10
2504.108082551267
 20
1273.428219281591
 30
0.0
 11
2504.308082551266
 21
1273.628219281591
 31
0.0
  0
LINE
  5
2045
330
1F
100
AcDbEntity
  8
AM_VIS
100
AcDbLine
 10
2499.508082551266
 20
1273.428219281591
 30
0.0
 11
2499.308082551266
 21
1273.628219281591
 31
0.0
  0
LINE
  5
2046
330
1F
100
AcDbEntity
  8
AM_VIS
100
AcDbLine
 10
2499.508082551266
 20
1286.228219281591
 30
0.0
 11
2504.108082551266
 21
1286.228219281591
 31
0.0
  0
LINE
  5
2047
330
1F
100
AcDbEntity
  8
AM_VIS
100
AcDbLine
 10
2504.308082551266
 20
1286.028219281591
 30
0.0
 11
2499.308082551266
 21
1286.028219281591
 31
0.0
  0
LINE
  5
2048
330
1F
100
AcDbEntity
  8
AM_VIS
100
AcDbLine
 10
2499.308082551266
 20
1273.628219281591
 30
0.0
 11
2504.308082551266
 21
1273.628219281591
 31
0.0
  0
LINE
  5
2049
330
1F
100
AcDbEntity
  8
AM_VIS
100
AcDbLine
 10
2504.108082551266
 20
1273.428219281591
 30
0.0
 11
2499.508082551266
 21
1273.428219281591
 31
0.0
  0
LINE
  5
204A
330
1F
100
AcDbEntity
  8
AM_VIS
100
AcDbLine
 10
2477.008082551266
 20
1277.528219281591
 30
0.0
 11
2477.008082551266
 21
1277.828219281591
 31
0.0
  0
LINE
  5
204B
330
1F
100
AcDbEntity
  8
AM_VIS
100
AcDbLine
 10
2472.008082551266
 20
1277.528219281591
 30
0.0
 11
2472.008082551266
 21
1277.828219281591
 31
0.0
  0
LINE
  5
204C
330
1F
100
AcDbEntity
  8
AM_VIS
100
AcDbLine
 10
2471.008082551266
 20
1277.528219281591
 30
0.0
 11
2471.008082551266
 21
1272.828219281591
 31
0.0
  0
LINE
  5
204D
330
1F
100
AcDbEntity
  8
AM_VIS
100
AcDbLine
 10
2485.508082551266
 20
1277.528219281591
 30
0.0
 11
2471.008082551266
 21
1277.528219281591
 31
0.0
  0
LINE
  5
204E
330
1F
100
AcDbEntity
  8
AM_VIS
100
AcDbLine
 10
2471.008082551266
 20
1277.528219281591
 30
0.0
 11
2470.508082551266
 21
1277.528219281591
 31
0.0
  0
LINE
  5
204F
330
1F
100
AcDbEntity
  8
AM_VIS
100
AcDbLine
 10
2485.508082551266
 20
1277.528219281591
 30
0.0
 11
2485.508082551266
 21
1272.828219281591
 31
0.0
  0
LINE
  5
2050
330
1F
100
AcDbEntity
  8
AM_VIS
100
AcDbLine
 10
2489.508082551266
 20
1277.528219281591
 30
0.0
 11
2485.508082551266
 21
1277.528219281591
 31
0.0
  0
LINE
  5
2051
330
1F
100
AcDbEntity
  8
AM_VIS
100
AcDbLine
 10
2489.508082551266
 20
1272.828219281591
 30
0.0
 11
2489.508082551266
 21
1277.528219281591
 31
0.0
  0
LINE
  5
2052
330
1F
100
AcDbEntity
  8
AM_VIS
100
AcDbLine
 10
2497.008082551266
 20
1273.328219281591
 30
0.0
 11
2497.008082551266
 21
1277.828219281591
 31
0.0
  0
LINE
  5
2053
330
1F
100
AcDbEntity
  8
AM_VIS
100
AcDbLine
 10
2497.008082551266
 20
1285.828219281591
 30
0.0
 11
2497.008082551266
 21
1286.328219281591
 31
0.0
  0
LINE
  5
2054
330
1F
100
AcDbEntity
  8
AM_VIS
100
AcDbLine
 10
2492.008082551266
 20
1273.328219281591
 30
0.0
 11
2492.008082551266
 21
1277.828219281591
 31
0.0
  0
LINE
  5
2055
330
1F
100
AcDbEntity
  8
AM_VIS
100
AcDbLine
 10
2492.008082551266
 20
1285.828219281591
 30
0.0
 11
2492.008082551266
 21
1286.328219281591
 31
0.0
  0
LINE
  5
2056
330
1F
100
AcDbEntity
  8
AM_VIS
100
AcDbLine
 10
2484.008082551266
 20
1277.528219281591
 30
0.0
 11
2484.008082551266
 21
1277.828219281591
 31
0.0
  0
LINE
  5
2057
330
1F
100
AcDbEntity
  8
AM_VIS
100
AcDbLine
 10
2484.008082551266
 20
1281.828219281591
 30
0.0
 11
2484.008082551266
 21
1282.128219281591
 31
0.0
  0
LINE
  5
2058
330
1F
100
AcDbEntity
  8
AM_VIS
100
AcDbLine
 10
2479.008082551266
 20
1277.528219281591
 30
0.0
 11
2479.008082551266
 21
1277.828219281591
 31
0.0
  0
LINE
  5
2059
330
1F
100
AcDbEntity
  8
AM_VIS
100
AcDbLine
 10
2479.008082551266
 20
1281.828219281591
 30
0.0
 11
2479.008082551266
 21
1282.128219281591
 31
0.0
  0
LINE
  5
205A
330
1F
100
AcDbEntity
  8
AM_VIS
100
AcDbLine
 10
2466.708082551266
 20
1272.828219281591
 30
0.0
 11
2466.708082551266
 21
1272.328219281591
 31
0.0
  0
LINE
  5
205B
330
1F
100
AcDbEntity
  8
AM_VIS
100
AcDbLine
 10
2490.508082551266
 20
1272.828219281591
 30
0.0
 11
2467.208082551267
 21
1272.828219281591
 31
0.0
  0
LINE
  5
205C
330
1F
100
AcDbEntity
  8
AM_VIS
100
AcDbLine
 10
2490.508082551266
 20
1272.828219281591
 30
0.0
 11
2491.008082551266
 21
1272.828219281591
 31
0.0
  0
LINE
  5
205D
330
1F
100
AcDbEntity
  8
AM_VIS
100
AcDbLine
 10
2466.810506013277
 20
1272.828219281591
 30
0.0
 11
2467.208082551267
 21
1272.828219281591
 31
0.0
  0
LINE
  5
205E
330
1F
100
AcDbEntity
  8
AM_VIS
100
AcDbLine
 10
2466.708082551266
 20
1287.328219281591
 30
0.0
 11
2466.708082551266
 21
1286.828219281591
 31
0.0
  0
LINE
  5
205F
330
1F
100
AcDbEntity
  8
AM_VIS
100
AcDbLine
 10
2490.508082551266
 20
1286.828219281591
 30
0.0
 11
2467.208082551267
 21
1286.828219281591
 31
0.0
  0
LINE
  5
2060
330
1F
100
AcDbEntity
  8
AM_VIS
100
AcDbLine
 10
2467.208082551267
 20
1286.828219281591
 30
0.0
 11
2466.810506013277
 21
1286.828219281591
 31
0.0
  0
LINE
  5
2061
330
1F
100
AcDbEntity
  8
AM_VIS
100
AcDbLine
 10
2491.008082551266
 20
1286.828219281591
 30
0.0
 11
2490.508082551266
 21
1286.828219281591
 31
0.0
  0
LINE
  5
2062
330
1F
100
AcDbEntity
  8
AM_VIS
100
AcDbLine
 10
2591.168695502601
 20
1345.874265956906
 30
0.0
 11
2603.918695502601
 21
1345.874265956906
 31
0.0
  0
LINE
  5
2063
330
1F
100
AcDbEntity
  8
AM_VIS
100
AcDbLine
 10
2591.168695502601
 20
1345.874265956906
 30
0.0
 11
2590.668695502601
 21
1346.374265956906
 31
0.0
  0
LINE
  5
2064
330
1F
100
AcDbEntity
  8
AM_VIS
100
AcDbLine
 10
2590.668695502601
 20
1397.374265956906
 30
0.0
 11
2590.668695502601
 21
1346.374265956906
 31
0.0
  0
LINE
  5
2065
330
1F
100
AcDbEntity
  8
AM_VIS
100
AcDbLine
 10
2590.668695502601
 20
1397.374265956906
 30
0.0
 11
2591.168695502601
 21
1397.874265956906
 31
0.0
  0
LINE
  5
2066
330
1F
100
AcDbEntity
  8
AM_VIS
100
AcDbLine
 10
2603.918695502601
 20
1397.874265956906
 30
0.0
 11
2591.168695502601
 21
1397.874265956906
 31
0.0
  0
LINE
  5
2067
330
1F
100
AcDbEntity
  8
AM_VIS
100
AcDbLine
 10
2603.918695502601
 20
1397.874265956906
 30
0.0
 11
2604.418695502602
 21
1397.374265956906
 31
0.0
  0
LINE
  5
2068
330
1F
100
AcDbEntity
  8
AM_VIS
100
AcDbLine
 10
2604.418695502602
 20
1392.874265956906
 30
0.0
 11
2604.418695502602
 21
1397.374265956906
 31
0.0
  0
LINE
  5
2069
330
1F
100
AcDbEntity
  8
AM_VIS
100
AcDbLine
 10
2604.968695502602
 20
1392.874265956906
 30
0.0
 11
2604.418695502602
 21
1392.874265956906
 31
0.0
  0
LINE
  5
206A
330
1F
100
AcDbEntity
  8
AM_VIS
100
AcDbLine
 10
2604.968695502602
 20
1391.874265956906
 30
0.0
 11
2604.968695502602
 21
1392.874265956906
 31
0.0
  0
LINE
  5
206B
330
1F
100
AcDbEntity
  8
AM_VIS
100
AcDbLine
 10
2604.518695502601
 20
1391.374265956906
 30
0.0
 11
2604.968695502602
 21
1391.874265956906
 31
0.0
  0
LINE
  5
206C
330
1F
100
AcDbEntity
  8
AM_VIS
100
AcDbLine
 10
2604.518695502601
 20
1389.274265956906
 30
0.0
 11
2604.518695502601
 21
1391.374265956906
 31
0.0
  0
LINE
  5
206D
330
1F
100
AcDbEntity
  8
AM_VIS
100
AcDbLine
 10
2607.118695502602
 20
1387.574265956906
 30
0.0
 11
2606.218695502601
 21
1387.574265956906
 31
0.0
  0
LINE
  5
206E
330
1F
100
AcDbEntity
  8
AM_VIS
100
AcDbLine
 10
2608.818695502602
 20
1391.374265956906
 30
0.0
 11
2608.818695502602
 21
1389.274265956906
 31
0.0
  0
LINE
  5
206F
330
1F
100
AcDbEntity
  8
AM_VIS
100
AcDbLine
 10
2608.368695502602
 20
1391.874265956906
 30
0.0
 11
2608.818695502602
 21
1391.374265956906
 31
0.0
  0
LINE
  5
2070
330
1F
100
AcDbEntity
  8
AM_VIS
100
AcDbLine
 10
2608.368695502602
 20
1392.874265956906
 30
0.0
 11
2608.368695502602
 21
1391.874265956906
 31
0.0
  0
LINE
  5
2071
330
1F
100
AcDbEntity
  8
AM_VIS
100
AcDbLine
 10
2608.918695502601
 20
1392.874265956906
 30
0.0
 11
2608.368695502602
 21
1392.874265956906
 31
0.0
  0
LINE
  5
2072
330
1F
100
AcDbEntity
  8
AM_VIS
100
AcDbLine
 10
2608.918695502601
 20
1397.374265956906
 30
0.0
 11
2608.918695502601
 21
1392.874265956906
 31
0.0
  0
LINE
  5
2073
330
1F
100
AcDbEntity
  8
AM_VIS
100
AcDbLine
 10
2608.918695502601
 20
1397.374265956906
 30
0.0
 11
2609.418695502601
 21
1397.874265956906
 31
0.0
  0
LINE
  5
2074
330
1F
100
AcDbEntity
  8
AM_VIS
100
AcDbLine
 10
2622.168695502602
 20
1397.874265956906
 30
0.0
 11
2609.418695502601
 21
1397.874265956906
 31
0.0
  0
LINE
  5
2075
330
1F
100
AcDbEntity
  8
AM_VIS
100
AcDbLine
 10
2622.168695502602
 20
1397.874265956906
 30
0.0
 11
2622.668695502601
 21
1397.374265956906
 31
0.0
  0
LINE
  5
2076
330
1F
100
AcDbEntity
  8
AM_VIS
100
AcDbLine
 10
2622.668695502601
 20
1346.374265956906
 30
0.0
 11
2622.668695502601
 21
1397.374265956906
 31
0.0
  0
LINE
  5
2077
330
1F
100
AcDbEntity
  8
AM_VIS
100
AcDbLine
 10
2622.668695502601
 20
1346.374265956906
 30
0.0
 11
2622.168695502602
 21
1345.874265956906
 31
0.0
  0
LINE
  5
2078
330
1F
100
AcDbEntity
  8
AM_VIS
100
AcDbLine
 10
2609.418695502601
 20
1345.874265956906
 30
0.0
 11
2622.168695502602
 21
1345.874265956906
 31
0.0
  0
LINE
  5
2079
330
1F
100
AcDbEntity
  8
AM_VIS
100
AcDbLine
 10
2609.418695502601
 20
1345.874265956906
 30
0.0
 11
2608.918695502601
 21
1346.374265956906
 31
0.0
  0
LINE
  5
207A
330
1F
100
AcDbEntity
  8
AM_VIS
100
AcDbLine
 10
2608.918695502601
 20
1350.874265956906
 30
0.0
 11
2608.918695502601
 21
1346.374265956906
 31
0.0
  0
LINE
  5
207B
330
1F
100
AcDbEntity
  8
AM_VIS
100
AcDbLine
 10
2608.368695502602
 20
1350.874265956906
 30
0.0
 11
2608.918695502601
 21
1350.874265956906
 31
0.0
  0
LINE
  5
207C
330
1F
100
AcDbEntity
  8
AM_VIS
100
AcDbLine
 10
2608.368695502602
 20
1351.874265956906
 30
0.0
 11
2608.368695502602
 21
1350.874265956906
 31
0.0
  0
LINE
  5
207D
330
1F
100
AcDbEntity
  8
AM_VIS
100
AcDbLine
 10
2608.818695502602
 20
1352.374265956906
 30
0.0
 11
2608.368695502602
 21
1351.874265956906
 31
0.0
  0
LINE
  5
207E
330
1F
100
AcDbEntity
  8
AM_VIS
100
AcDbLine
 10
2608.818695502602
 20
1354.474265956906
 30
0.0
 11
2608.818695502602
 21
1352.374265956906
 31
0.0
  0
LINE
  5
207F
330
1F
100
AcDbEntity
  8
AM_VIS
100
AcDbLine
 10
2606.218695502601
 20
1356.174265956906
 30
0.0
 11
2607.118695502602
 21
1356.174265956906
 31
0.0
  0
LINE
  5
2080
330
1F
100
AcDbEntity
  8
AM_VIS
100
AcDbLine
 10
2604.518695502601
 20
1352.374265956906
 30
0.0
 11
2604.518695502601
 21
1354.474265956906
 31
0.0
  0
LINE
  5
2081
330
1F
100
AcDbEntity
  8
AM_VIS
100
AcDbLine
 10
2604.968695502602
 20
1351.874265956906
 30
0.0
 11
2604.518695502601
 21
1352.374265956906
 31
0.0
  0
LINE
  5
2082
330
1F
100
AcDbEntity
  8
AM_VIS
100
AcDbLine
 10
2604.968695502602
 20
1350.874265956906
 30
0.0
 11
2604.968695502602
 21
1351.874265956906
 31
0.0
  0
LINE
  5
2083
330
1F
100
AcDbEntity
  8
AM_VIS
100
AcDbLine
 10
2604.418695502602
 20
1350.874265956906
 30
0.0
 11
2604.968695502602
 21
1350.874265956906
 31
0.0
  0
LINE
  5
2084
330
1F
100
AcDbEntity
  8
AM_VIS
100
AcDbLine
 10
2604.418695502602
 20
1346.374265956906
 30
0.0
 11
2604.418695502602
 21
1350.874265956906
 31
0.0
  0
LINE
  5
2085
330
1F
100
AcDbEntity
  8
AM_VIS
100
AcDbLine
 10
2604.418695502602
 20
1346.374265956906
 30
0.0
 11
2603.918695502601
 21
1345.874265956906
 31
0.0
  0
ARC
  5
2088
330
1F
100
AcDbEntity
  8
AM_VIS
100
AcDbCircle
 10
2606.218695502601
 20
1389.274265956906
 30
0.0
 40
1.7
100
AcDbArc
 50
180.0
 51
270.0
  0
ARC
  5
2089
330
1F
100
AcDbEntity
  8
AM_VIS
100
AcDbCircle
 10
2607.118695502602
 20
1389.274265956906
 30
0.0
 40
1.7
100
AcDbArc
 50
270.0
 51
0.0
  0
ARC
  5
208A
330
1F
100
AcDbEntity
  8
AM_VIS
100
AcDbCircle
 10
2607.118695502602
 20
1354.474265956906
 30
0.0
 40
1.699999999999999
100
AcDbArc
 50
0.0
 51
90.0
  0
ARC
  5
208B
330
1F
100
AcDbEntity
  8
AM_VIS
100
AcDbCircle
 10
2606.218695502601
 20
1354.474265956906
 30
0.0
 40
1.7
100
AcDbArc
 50
90.0
 51
180.0
  0
CIRCLE
  5
208C
330
1F
100
AcDbEntity
  8
AM_VIS
100
AcDbCircle
 10
2606.668695502601
 20
1371.874265956906
 30
0.0
 40
13.5
  0
ARC
  5
208D
330
1F
100
AcDbEntity
  8
AM_VIS
100
AcDbCircle
 10
2606.668695502601
 20
1371.874265956906
 30
0.0
 40
13.3
100
AcDbArc
 50
117.1890911171713
 51
121.0787688003909
  0
ARC
  5
208E
330
1F
100
AcDbEntity
  8
AM_VIS
100
AcDbCircle
 10
2606.668695502601
 20
1371.874265956906
 30
0.0
 40
13.3
100
AcDbArc
 50
58.92123119960903
 51
62.81090888282872
  0
LINE
  5
208F
330
1F
100
AcDbEntity
  8
AM_VIS
100
AcDbLine
 10
2608.668695502601
 20
1347.982878778314
 30
0.0
 11
2608.668695502601
 21
1350.874265956906
 31
0.0
  0
LINE
  5
2090
330
1F
100
AcDbEntity
  8
AM_VIS
100
AcDbLine
 10
2608.668695502601
 20
1352.207599290239
 30
0.0
 11
2608.668695502601
 21
1355.172477959094
 31
0.0
  0
LINE
  5
2091
330
1F
100
AcDbEntity
  8
AM_VIS
100
AcDbLine
 10
2603.939533307855
 20
1345.89510376216
 30
0.0
 11
2608.668695502601
 21
1345.89510376216
 31
0.0
  0
LINE
  5
2092
330
1F
100
AcDbEntity
  8
AM_VIS
100
AcDbLine
 10
2608.668695502601
 20
1347.982878778314
 30
0.0
 11
2604.418695502602
 21
1347.982878778314
 31
0.0
  0
LINE
  5
2093
330
1F
100
AcDbEntity
  8
AM_VIS
100
AcDbLine
 10
2608.668695502601
 20
1345.89510376216
 30
0.0
 11
2608.668695502601
 21
1347.982878778314
 31
0.0
  0
LINE
  5
2094
330
1F
100
AcDbEntity
  8
AM_VIS
100
AcDbLine
 10
2604.629310566479
 20
1388.671061576263
 30
0.0
 11
2604.668695502601
 21
1388.671061576263
 31
0.0
  0
LINE
  5
2095
330
1F
100
AcDbEntity
  8
AM_VIS
100
AcDbLine
 10
2609.121899883244
 20
1346.171061576263
 30
0.0
 11
2608.668695502601
 21
1346.171061576263
 31
0.0
  0
LINE
  5
2096
330
1F
100
AcDbEntity
  8
AM_VIS
100
AcDbLine
 10
2610.826284160762
 20
1383.389508676065
 30
0.0
 11
2611.256270298702
 21
1384.570885880735
 31
0.0
  0
LINE
  5
2097
330
1F
100
AcDbEntity
  8
AM_VIS
100
AcDbLine
 10
2602.081120706501
 20
1384.570885880735
 30
0.0
 11
2602.511106844442
 21
1383.389508676065
 31
0.0
  0
ARC
  5
2098
330
1F
100
AcDbEntity
  8
AM_VIS
100
AcDbCircle
 10
2612.705669402333
 20
1382.705468389413
 30
0.0
 40
2.0
100
AcDbArc
 50
159.9999999999985
 51
300.5727873458067
  0
ARC
  5
2099
330
1F
100
AcDbEntity
  8
AM_VIS
100
AcDbCircle
 10
2600.63172160287
 20
1382.705468389413
 30
0.0
 40
2.0
100
AcDbArc
 50
239.4272126541933
 51
20.00000000000148
  0
ARC
  5
209A
330
1F
100
AcDbEntity
  8
AM_VIS
100
AcDbCircle
 10
2598.597191408591
 20
1379.261533592038
 30
0.0
 40
2.0
100
AcDbArc
 50
59.42721265419332
 51
140.5692433935315
  0
ARC
  5
209B
330
1F
100
AcDbEntity
  8
AM_VIS
100
AcDbCircle
 10
2606.668695502601
 20
1372.624265956906
 30
0.0
 40
12.45
100
AcDbArc
 50
140.5692433935315
 51
39.43075660646849
  0
ARC
  5
209C
330
1F
100
AcDbEntity
  8
AM_VIS
100
AcDbCircle
 10
2614.740199596612
 20
1379.261533592038
 30
0.0
 40
2.0
100
AcDbArc
 50
39.43075660646849
 51
120.5727873458067
  0
CIRCLE
  5
209D
330
1F
100
AcDbEntity
  8
AM_VIS
100
AcDbCircle
 10
2600.63172160287
 20
1382.705468389413
 30
0.0
 40
1.0
  0
CIRCLE
  5
209E
330
1F
100
AcDbEntity
  8
AM_VIS
100
AcDbCircle
 10
2612.705669402333
 20
1382.705468389413
 30
0.0
 40
1.0
  0
LINE
  5
209F
330
1F
100
AcDbEntity
  8
AM_VIS
100
AcDbLine
 10
2604.668695502601
 20
1395.765653135497
 30
0.0
 11
2604.668695502601
 21
1392.874265956906
 31
0.0
  0
LINE
  5
20A0
330
1F
100
AcDbEntity
  8
AM_VIS
100
AcDbLine
 10
2604.668695502601
 20
1391.540932623572
 30
0.0
 11
2604.668695502601
 21
1388.576053954718
 31
0.0
  0
LINE
  5
20A1
330
1F
100
AcDbEntity
  8
AM_VIS
100
AcDbLine
 10
2609.397857697347
 20
1397.853428151652
 30
0.0
 11
2604.668695502601
 21
1397.853428151652
 31
0.0
  0
LINE
  5
20A2
330
1F
100
AcDbEntity
  8
AM_VIS
100
AcDbLine
 10
2604.668695502601
 20
1395.765653135497
 30
0.0
 11
2608.918695502601
 21
1395.765653135497
 31
0.0
  0
LINE
  5
20A3
330
1F
100
AcDbEntity
  8
AM_VIS
100
AcDbLine
 10
2604.668695502601
 20
1397.853428151652
 30
0.0
 11
2604.668695502601
 21
1395.765653135497
 31
0.0
  0
LINE
  5
20A4
330
1F
100
AcDbEntity
  8
AM_VIS
100
AcDbLine
 10
2608.708080438724
 20
1355.077470337548
 30
0.0
 11
2608.668695502601
 21
1355.077470337548
 31
0.0
  0
LINE
  5
20A5
330
1F
100
AcDbEntity
  8
AM_VIS
100
AcDbLine
 10
2604.215491121959
 20
1397.577470337548
 30
0.0
 11
2604.668695502601
 21
1397.577470337548
 31
0.0
  0
LINE
  5
20A6
330
1F
100
AcDbEntity
  8
AM_VIS
100
AcDbLine
 10
2608.818695502602
 20
1354.374265956906
 30
0.0
 11
2608.668695502601
 21
1354.374265956906
 31
0.0
  0
LINE
  5
20A7
330
1F
100
AcDbEntity
  8
AM_VIS
100
AcDbLine
 10
2608.918695502601
 20
1349.374265956906
 30
0.0
 11
2608.668695502601
 21
1349.374265956906
 31
0.0
  0
LINE
  5
20A8
330
1F
100
AcDbEntity
  8
AM_VIS
100
AcDbLine
 10
2604.668695502601
 20
1394.374265956906
 30
0.0
 11
2604.418695502602
 21
1394.374265956906
 31
0.0
  0
LINE
  5
20A9
330
1F
100
AcDbEntity
  8
AM_VIS
100
AcDbLine
 10
2604.668695502601
 20
1389.374265956906
 30
0.0
 11
2604.518695502601
 21
1389.374265956906
 31
0.0
  0
LINE
  5
20AA
330
1F
100
AcDbEntity
  8
AM_VIS
100
AcDbLine
 10
2378.507567716662
 20
1346.374265956906
 30
0.0
 11
2378.507567716662
 21
1345.874265956906
 31
0.0
  0
LINE
  5
20AB
330
1F
100
AcDbEntity
  8
AM_VIS
100
AcDbLine
 10
2392.507567716663
 20
1397.874265956906
 30
0.0
 11
2392.507567716663
 21
1345.874265956906
 31
0.0
  0
LINE
  5
20AC
330
1F
100
AcDbEntity
  8
AM_VIS
100
AcDbLine
 10
2400.507567716662
 20
1397.874265956906
 30
0.0
 11
2401.007567716663
 21
1397.374265956906
 31
0.0
  0
LINE
  5
20AD
330
1F
100
AcDbEntity
  8
AM_VIS
100
AcDbLine
 10
2392.507567716663
 20
1397.874265956906
 30
0.0
 11
2400.507567716662
 21
1397.874265956906
 31
0.0
  0
LINE
  5
20AE
330
1F
100
AcDbEntity
  8
AM_VIS
100
AcDbLine
 10
2391.507567716662
 20
1397.874265956906
 30
0.0
 11
2392.507567716663
 21
1397.874265956906
 31
0.0
  0
LINE
  5
20AF
330
1F
100
AcDbEntity
  8
AM_VIS
100
AcDbLine
 10
2369.007567716662
 20
1397.374265956906
 30
0.0
 11
2369.507567716663
 21
1397.874265956906
 31
0.0
  0
LINE
  5
20B0
330
1F
100
AcDbEntity
  8
AM_VIS
100
AcDbLine
 10
2369.507567716663
 20
1397.874265956906
 30
0.0
 11
2377.507567716662
 21
1397.874265956906
 31
0.0
  0
LINE
  5
20B1
330
1F
100
AcDbEntity
  8
AM_VIS
100
AcDbLine
 10
2377.507567716662
 20
1345.874265956906
 30
0.0
 11
2377.507567716662
 21
1397.874265956906
 31
0.0
  0
LINE
  5
20B2
330
1F
100
AcDbEntity
  8
AM_VIS
100
AcDbLine
 10
2369.007567716662
 20
1346.374265956906
 30
0.0
 11
2369.007567716662
 21
1397.374265956906
 31
0.0
  0
LINE
  5
20B3
330
1F
100
AcDbEntity
  8
AM_VIS
100
AcDbLine
 10
2369.507567716663
 20
1345.874265956906
 30
0.0
 11
2369.007567716662
 21
1346.374265956906
 31
0.0
  0
LINE
  5
20B4
330
1F
100
AcDbEntity
  8
AM_VIS
100
AcDbLine
 10
2401.007567716663
 20
1397.374265956906
 30
0.0
 11
2401.007567716663
 21
1346.374265956906
 31
0.0
  0
LINE
  5
20B5
330
1F
100
AcDbEntity
  8
AM_VIS
100
AcDbLine
 10
2401.007567716663
 20
1346.374265956906
 30
0.0
 11
2400.507567716662
 21
1345.874265956906
 31
0.0
  0
LINE
  5
20B6
330
1F
100
AcDbEntity
  8
AM_VIS
100
AcDbLine
 10
2377.507567716662
 20
1345.874265956906
 30
0.0
 11
2369.507567716663
 21
1345.874265956906
 31
0.0
  0
LINE
  5
20B7
330
1F
100
AcDbEntity
  8
AM_VIS
100
AcDbLine
 10
2378.507567716662
 20
1345.874265956906
 30
0.0
 11
2377.507567716662
 21
1345.874265956906
 31
0.0
  0
LINE
  5
20B8
330
1F
100
AcDbEntity
  8
AM_VIS
100
AcDbLine
 10
2400.507567716662
 20
1345.874265956906
 30
0.0
 11
2392.507567716663
 21
1345.874265956906
 31
0.0
  0
LINE
  5
20B9
330
1F
100
AcDbEntity
  8
AM_VIS
100
AcDbLine
 10
2378.507567716662
 20
1397.874265956906
 30
0.0
 11
2382.257567716663
 21
1397.874265956906
 31
0.0
  0
LINE
  5
20BA
330
1F
100
AcDbEntity
  8
AM_VIS
100
AcDbLine
 10
2382.257567716663
 20
1397.874265956906
 30
0.0
 11
2382.278405521916
 21
1397.853428151652
 31
0.0
  0
LINE
  5
20BB
330
1F
100
AcDbEntity
  8
AM_VIS
100
AcDbLine
 10
2387.257567716662
 20
1397.374265956906
 30
0.0
 11
2387.757567716663
 21
1397.874265956906
 31
0.0
  0
LINE
  5
20BC
330
1F
100
AcDbEntity
  8
AM_VIS
100
AcDbLine
 10
2387.757567716663
 20
1397.874265956906
 30
0.0
 11
2391.507567716662
 21
1397.874265956906
 31
0.0
  0
LINE
  5
20BD
330
1F
100
AcDbEntity
  8
AM_VIS
100
AcDbLine
 10
2391.507567716662
 20
1345.874265956906
 30
0.0
 11
2387.757567716663
 21
1345.874265956906
 31
0.0
  0
LINE
  5
20BE
330
1F
100
AcDbEntity
  8
AM_VIS
100
AcDbLine
 10
2387.757567716663
 20
1345.874265956906
 30
0.0
 11
2387.736729911408
 21
1345.89510376216
 31
0.0
  0
LINE
  5
20BF
330
1F
100
AcDbEntity
  8
AM_VIS
100
AcDbLine
 10
2382.757567716662
 20
1346.374265956906
 30
0.0
 11
2382.257567716663
 21
1345.874265956906
 31
0.0
  0
LINE
  5
20C0
330
1F
100
AcDbEntity
  8
AM_VIS
100
AcDbLine
 10
2382.257567716663
 20
1345.874265956906
 30
0.0
 11
2378.507567716662
 21
1345.874265956906
 31
0.0
  0
LINE
  5
20C1
330
1F
100
AcDbEntity
  8
AM_VIS
100
AcDbLine
 10
2392.507567716663
 20
1345.874265956906
 30
0.0
 11
2391.507567716662
 21
1345.874265956906
 31
0.0
  0
LINE
  5
20C2
330
1F
100
AcDbEntity
  8
AM_VIS
100
AcDbLine
 10
2391.507567716662
 20
1345.874265956906
 30
0.0
 11
2391.507567716662
 21
1346.374265956906
 31
0.0
  0
LINE
  5
20C3
330
1F
100
AcDbEntity
  8
AM_VIS
100
AcDbLine
 10
2391.507567716662
 20
1397.374265956906
 30
0.0
 11
2391.507567716662
 21
1397.874265956906
 31
0.0
  0
LINE
  5
20C4
330
1F
100
AcDbEntity
  8
AM_VIS
100
AcDbLine
 10
2377.507567716662
 20
1397.874265956906
 30
0.0
 11
2378.507567716662
 21
1397.874265956906
 31
0.0
  0
LINE
  5
20C5
330
1F
100
AcDbEntity
  8
AM_VIS
100
AcDbLine
 10
2378.507567716662
 20
1397.874265956906
 30
0.0
 11
2378.507567716662
 21
1397.374265956906
 31
0.0
  0
ARC
  5
20C6
330
1F
100
AcDbEntity
  8
AM_VIS
100
AcDbCircle
 10
2385.007567716662
 20
1371.874265956906
 30
0.0
 40
6.0
100
AcDbArc
 50
70.52877936549982
 51
109.4712206345001
  0
ARC
  5
20C7
330
1F
100
AcDbEntity
  8
AM_VIS
100
AcDbCircle
 10
2385.007567716662
 20
1371.874265956906
 30
0.0
 40
6.0
100
AcDbArc
 50
250.5287793654998
 51
289.4712206345002
  0
ARC
  5
20C8
330
1F
100
AcDbEntity
  8
AM_VIS
100
AcDbCircle
 10
2385.007567716662
 20
1371.874265956906
 30
0.0
 40
6.299999999999998
100
AcDbArc
 50
251.4905950184682
 51
262.4310694385845
  0
ARC
  5
20C9
330
1F
100
AcDbEntity
  8
AM_VIS
100
AcDbCircle
 10
2385.007567716662
 20
1371.874265956906
 30
0.0
 40
6.299999999999998
100
AcDbArc
 50
277.5689305614155
 51
288.5094049815318
  0
ARC
  5
20CA
330
1F
100
AcDbEntity
  8
AM_VIS
100
AcDbCircle
 10
2385.007567716662
 20
1371.874265956906
 30
0.0
 40
6.299999999999998
100
AcDbArc
 50
71.4905950184682
 51
82.43106943858451
  0
ARC
  5
20CB
330
1F
100
AcDbEntity
  8
AM_VIS
100
AcDbCircle
 10
2385.007567716662
 20
1371.874265956906
 30
0.0
 40
6.299999999999998
100
AcDbArc
 50
97.56893056141549
 51
108.5094049815318
  0
LINE
  5
20CC
330
1F
100
AcDbEntity
  8
AM_VIS
100
AcDbLine
 10
2387.007567716663
 20
1368.410164341768
 30
0.0
 11
2387.007567716663
 21
1366.750790573926
 31
0.0
  0
LINE
  5
20CD
330
1F
100
AcDbEntity
  8
AM_VIS
100
AcDbLine
 10
2387.007567716663
 20
1376.997741339885
 30
0.0
 11
2387.007567716663
 21
1375.338367572043
 31
0.0
  0
LINE
  5
20CE
330
1F
100
AcDbEntity
  8
AM_VIS
100
AcDbLine
 10
2383.007567716663
 20
1376.997741339885
 30
0.0
 11
2383.007567716663
 21
1375.338367572043
 31
0.0
  0
LINE
  5
20CF
330
1F
100
AcDbEntity
  8
AM_VIS
100
AcDbLine
 10
2383.007567716663
 20
1368.410164341768
 30
0.0
 11
2383.007567716663
 21
1366.750790573926
 31
0.0
  0
ARC
  5
20D0
330
1F
100
AcDbEntity
  8
AM_VIS
100
AcDbCircle
 10
2385.007567716662
 20
1371.874265956906
 30
0.0
 40
4.0
100
AcDbArc
 50
240.0000000000027
 51
299.9999999999973
  0
ARC
  5
20D1
330
1F
100
AcDbEntity
  8
AM_VIS
100
AcDbCircle
 10
2385.007567716662
 20
1371.874265956906
 30
0.0
 40
4.0
100
AcDbArc
 50
60.00000000000272
 51
119.9999999999973
  0
ARC
  5
20D2
330
1F
100
AcDbEntity
  8
AM_VIS
100
AcDbCircle
 10
2385.007567716662
 20
1371.874265956906
 30
0.0
 40
5.5
100
AcDbArc
 50
68.67631373649671
 51
111.3236862635033
  0
ARC
  5
20D3
330
1F
100
AcDbEntity
  8
AM_VIS
100
AcDbCircle
 10
2385.007567716662
 20
1371.874265956906
 30
0.0
 40
5.5
100
AcDbArc
 50
248.6763137364967
 51
291.3236862635033
  0
LINE
  5
20D4
330
1F
100
AcDbEntity
  8
AM_VIS
100
AcDbLine
 10
2391.007567716663
 20
1346.374265956906
 30
0.0
 11
2391.007567716663
 21
1345.89510376216
 31
0.0
  0
LINE
  5
20D5
330
1F
100
AcDbEntity
  8
AM_VIS
100
AcDbLine
 10
2387.007567716663
 20
1365.629157148826
 30
0.0
 11
2383.007567716663
 21
1365.629157148826
 31
0.0
  0
LINE
  5
20D6
330
1F
100
AcDbEntity
  8
AM_VIS
100
AcDbLine
 10
2383.007567716663
 20
1346.374265956906
 30
0.0
 11
2383.007567716663
 21
1345.89510376216
 31
0.0
  0
LINE
  5
20D7
330
1F
100
AcDbEntity
  8
AM_VIS
100
AcDbLine
 10
2391.007567716663
 20
1345.89510376216
 30
0.0
 11
2383.007567716663
 21
1345.89510376216
 31
0.0
  0
LINE
  5
20D8
330
1F
100
AcDbEntity
  8
AM_VIS
100
AcDbLine
 10
2392.007567716663
 20
1354.171061576263
 30
0.0
 11
2392.007567716663
 21
1346.171061576263
 31
0.0
  0
LINE
  5
20D9
330
1F
100
AcDbEntity
  8
AM_VIS
100
AcDbLine
 10
2378.007567716663
 20
1346.171061576263
 30
0.0
 11
2378.007567716663
 21
1354.171061576263
 31
0.0
  0
LINE
  5
20DA
330
1F
100
AcDbEntity
  8
AM_VIS
100
AcDbLine
 10
2392.007567716663
 20
1364.671061576263
 30
0.0
 11
2392.007567716663
 21
1354.171061576263
 31
0.0
  0
LINE
  5
20DB
330
1F
100
AcDbEntity
  8
AM_VIS
100
AcDbLine
 10
2378.007567716663
 20
1354.171061576263
 30
0.0
 11
2378.007567716663
 21
1364.671061576263
 31
0.0
  0
LINE
  5
20DC
330
1F
100
AcDbEntity
  8
AM_VIS
100
AcDbLine
 10
2392.007567716663
 20
1364.671061576263
 30
0.0
 11
2378.007567716663
 21
1364.671061576263
 31
0.0
  0
LINE
  5
20DD
330
1F
100
AcDbEntity
  8
AM_VIS
100
AcDbLine
 10
2387.007567716663
 20
1379.077470337548
 30
0.0
 11
2387.007567716663
 21
1364.671061576263
 31
0.0
  0
LINE
  5
20DE
330
1F
100
AcDbEntity
  8
AM_VIS
100
AcDbLine
 10
2378.007567716663
 20
1354.374265956906
 30
0.0
 11
2392.007567716663
 21
1354.374265956906
 31
0.0
  0
LINE
  5
20DF
330
1F
100
AcDbEntity
  8
AM_VIS
100
AcDbLine
 10
2392.007567716663
 20
1346.374265956906
 30
0.0
 11
2378.007567716663
 21
1346.374265956906
 31
0.0
  0
LINE
  5
20E0
330
1F
100
AcDbEntity
  8
AM_VIS
100
AcDbLine
 10
2379.007567716662
 20
1397.374265956906
 30
0.0
 11
2379.007567716662
 21
1397.853428151652
 31
0.0
  0
LINE
  5
20E1
330
1F
100
AcDbEntity
  8
AM_VIS
100
AcDbLine
 10
2383.007567716663
 20
1378.119374764986
 30
0.0
 11
2387.007567716663
 21
1378.119374764986
 31
0.0
  0
LINE
  5
20E2
330
1F
100
AcDbEntity
  8
AM_VIS
100
AcDbLine
 10
2387.007567716663
 20
1397.374265956906
 30
0.0
 11
2387.007567716663
 21
1397.853428151652
 31
0.0
  0
LINE
  5
20E3
330
1F
100
AcDbEntity
  8
AM_VIS
100
AcDbLine
 10
2379.007567716662
 20
1397.853428151652
 30
0.0
 11
2387.007567716663
 21
1397.853428151652
 31
0.0
  0
LINE
  5
20E4
330
1F
100
AcDbEntity
  8
AM_VIS
100
AcDbLine
 10
2378.007567716663
 20
1389.577470337548
 30
0.0
 11
2378.007567716663
 21
1397.577470337548
 31
0.0
  0
LINE
  5
20E5
330
1F
100
AcDbEntity
  8
AM_VIS
100
AcDbLine
 10
2392.007567716663
 20
1397.577470337548
 30
0.0
 11
2392.007567716663
 21
1389.577470337548
 31
0.0
  0
LINE
  5
20E6
330
1F
100
AcDbEntity
  8
AM_VIS
100
AcDbLine
 10
2378.007567716663
 20
1379.077470337548
 30
0.0
 11
2378.007567716663
 21
1389.577470337548
 31
0.0
  0
LINE
  5
20E7
330
1F
100
AcDbEntity
  8
AM_VIS
100
AcDbLine
 10
2392.007567716663
 20
1389.577470337548
 30
0.0
 11
2392.007567716663
 21
1379.077470337548
 31
0.0
  0
LINE
  5
20E8
330
1F
100
AcDbEntity
  8
AM_VIS
100
AcDbLine
 10
2378.007567716663
 20
1379.077470337548
 30
0.0
 11
2392.007567716663
 21
1379.077470337548
 31
0.0
  0
LINE
  5
20E9
330
1F
100
AcDbEntity
  8
AM_VIS
100
AcDbLine
 10
2383.007567716663
 20
1364.671061576263
 30
0.0
 11
2383.007567716663
 21
1379.077470337548
 31
0.0
  0
LINE
  5
20EA
330
1F
100
AcDbEntity
  8
AM_VIS
100
AcDbLine
 10
2392.007567716663
 20
1389.374265956906
 30
0.0
 11
2378.007567716663
 21
1389.374265956906
 31
0.0
  0
LINE
  5
20EB
330
1F
100
AcDbEntity
  8
AM_VIS
100
AcDbLine
 10
2378.007567716663
 20
1397.374265956906
 30
0.0
 11
2392.007567716663
 21
1397.374265956906
 31
0.0
  0
LINE
  5
20EC
330
1F
100
AcDbEntity
  8
AM_VIS
100
AcDbLine
 10
2383.007567716663
 20
1365.374265956906
 30
0.0
 11
2387.007567716663
 21
1365.374265956906
 31
0.0
  0
LINE
  5
20ED
330
1F
100
AcDbEntity
  8
AM_VIS
100
AcDbLine
 10
2383.007567716663
 20
1378.374265956906
 30
0.0
 11
2387.007567716663
 21
1378.374265956906
 31
0.0
  0
LINE
  5
20EE
330
1F
100
AcDbEntity
  8
AM_VIS
100
AcDbLine
 10
2377.507567716662
 20
1345.974265956906
 30
0.0
 11
2378.007567716663
 21
1345.974265956906
 31
0.0
  0
LINE
  5
20EF
330
1F
100
AcDbEntity
  8
AM_VIS
100
AcDbLine
 10
2378.007567716663
 20
1397.774265956906
 30
0.0
 11
2377.507567716662
 21
1397.774265956906
 31
0.0
  0
LINE
  5
20F0
330
1F
100
AcDbEntity
  8
AM_VIS
100
AcDbLine
 10
2378.007567716663
 20
1364.671061576263
 30
0.0
 11
2378.007567716663
 21
1379.077470337548
 31
0.0
  0
LINE
  5
20F1
330
1F
100
AcDbEntity
  8
AM_VIS
100
AcDbLine
 10
2378.007567716663
 20
1346.171061576263
 30
0.0
 11
2378.007567716663
 21
1345.974265956906
 31
0.0
  0
LINE
  5
20F2
330
1F
100
AcDbEntity
  8
AM_VIS
100
AcDbLine
 10
2378.007567716663
 20
1397.774265956906
 30
0.0
 11
2378.007567716663
 21
1397.577470337548
 31
0.0
  0
LINE
  5
20F3
330
1F
100
AcDbEntity
  8
AM_VIS
100
AcDbLine
 10
2392.007567716663
 20
1364.671061576263
 30
0.0
 11
2392.007567716663
 21
1379.077470337548
 31
0.0
  0
LINE
  5
20F4
330
1F
100
AcDbEntity
  8
AM_VIS
100
AcDbLine
 10
2392.007567716663
 20
1345.974265956906
 30
0.0
 11
2392.507567716663
 21
1345.974265956906
 31
0.0
  0
LINE
  5
20F5
330
1F
100
AcDbEntity
  8
AM_VIS
100
AcDbLine
 10
2392.507567716663
 20
1397.774265956906
 30
0.0
 11
2392.007567716663
 21
1397.774265956906
 31
0.0
  0
LINE
  5
20F6
330
1F
100
AcDbEntity
  8
AM_VIS
100
AcDbLine
 10
2392.007567716663
 20
1345.974265956906
 30
0.0
 11
2392.007567716663
 21
1346.171061576263
 31
0.0
  0
LINE
  5
20F7
330
1F
100
AcDbEntity
  8
AM_VIS
100
AcDbLine
 10
2392.007567716663
 20
1397.577470337548
 30
0.0
 11
2392.007567716663
 21
1397.774265956906
 31
0.0
  0
LINE
  5
2104
330
1F
100
AcDbEntity
  8
AM_VIS
100
AcDbLine
 10
2466.508082551266
 20
1397.874265956906
 30
0.0
 11
2466.508082551266
 21
1397.374265956906
 31
0.0
  0
LINE
  5
2105
330
1F
100
AcDbEntity
  8
AM_VIS
100
AcDbLine
 10
2545.008082551266
 20
1397.874265956906
 30
0.0
 11
2466.508082551266
 21
1397.874265956906
 31
0.0
  0
LINE
  5
2106
330
1F
100
AcDbEntity
  8
AM_VIS
100
AcDbLine
 10
2466.508082551266
 20
1397.374265956906
 30
0.0
 11
2466.508082551266
 21
1346.374265956906
 31
0.0
  0
LINE
  5
2107
330
1F
100
AcDbEntity
  8
AM_VIS
100
AcDbLine
 10
2466.508082551266
 20
1346.374265956906
 30
0.0
 11
2466.508082551266
 21
1345.874265956906
 31
0.0
  0
LINE
  5
2108
330
1F
100
AcDbEntity
  8
AM_VIS
100
AcDbLine
 10
2466.508082551266
 20
1345.874265956906
 30
0.0
 11
2545.008082551266
 21
1345.874265956906
 31
0.0
  0
LINE
  5
2109
330
1F
100
AcDbEntity
  8
AM_VIS
100
AcDbLine
 10
2545.008082551266
 20
1345.874265956906
 30
0.0
 11
2545.008082551266
 21
1346.374265956906
 31
0.0
  0
LINE
  5
210A
330
1F
100
AcDbEntity
  8
AM_VIS
100
AcDbLine
 10
2545.008082551266
 20
1397.374265956906
 30
0.0
 11
2545.008082551266
 21
1346.374265956906
 31
0.0
  0
LINE
  5
210B
330
1F
100
AcDbEntity
  8
AM_VIS
100
AcDbLine
 10
2545.008082551266
 20
1397.374265956906
 30
0.0
 11
2545.008082551266
 21
1397.874265956906
 31
0.0
  0
LINE
  5
210E
330
1F
100
AcDbEntity
  8
AM_VIS
100
AcDbLine
 10
2442.508082551266
 20
1354.374265956906
 30
0.0
 11
2442.508082551266
 21
1346.374265956906
 31
0.0
  0
LINE
  5
210F
330
1F
100
AcDbEntity
  8
AM_VIS
100
AcDbLine
 10
2466.508082551266
 20
1354.374265956906
 30
0.0
 11
2442.508082551266
 21
1354.374265956906
 31
0.0
  0
LINE
  5
2110
330
1F
100
AcDbEntity
  8
AM_VIS
100
AcDbLine
 10
2466.508082551266
 20
1346.374265956906
 30
0.0
 11
2442.508082551266
 21
1346.374265956906
 31
0.0
  0
LINE
  5
2111
330
1F
100
AcDbEntity
  8
AM_VIS
100
AcDbLine
 10
2442.508082551266
 20
1397.374265956906
 30
0.0
 11
2442.508082551266
 21
1389.374265956906
 31
0.0
  0
LINE
  5
2112
330
1F
100
AcDbEntity
  8
AM_VIS
100
AcDbLine
 10
2466.508082551266
 20
1389.374265956906
 30
0.0
 11
2442.508082551266
 21
1389.374265956906
 31
0.0
  0
LINE
  5
2113
330
1F
100
AcDbEntity
  8
AM_VIS
100
AcDbLine
 10
2466.508082551266
 20
1397.374265956906
 30
0.0
 11
2442.508082551266
 21
1397.374265956906
 31
0.0
  0
LINE
  5
2114
330
1F
100
AcDbEntity
  8
AM_VIS
100
AcDbLine
 10
2466.508082551266
 20
1438.078964471665
 30
0.0
 11
2466.508082551266
 21
1437.578964471665
 31
0.0
  0
LINE
  5
2115
330
1F
100
AcDbEntity
  8
AM_VIS
100
AcDbLine
 10
2466.508082551266
 20
1446.078964471665
 30
0.0
 11
2466.508082551266
 21
1438.078964471665
 31
0.0
  0
LINE
  5
2116
330
1F
100
AcDbEntity
  8
AM_VIS
100
AcDbLine
 10
2491.008082551266
 20
1446.078964471665
 30
0.0
 11
2466.508082551266
 21
1446.078964471665
 31
0.0
  0
LINE
  5
2117
330
1F
100
AcDbEntity
  8
AM_VIS
100
AcDbLine
 10
2491.008082551266
 20
1447.078964471665
 30
0.0
 11
2491.008082551266
 21
1446.078964471665
 31
0.0
  0
LINE
  5
2118
330
1F
100
AcDbEntity
  8
AM_VIS
100
AcDbLine
 10
2508.008082551266
 20
1450.828964471665
 30
0.0
 11
2545.008082551266
 21
1450.828964471665
 31
0.0
  0
LINE
  5
2119
330
1F
100
AcDbEntity
  8
AM_VIS
100
AcDbLine
 10
2466.508082551266
 20
1461.078964471665
 30
0.0
 11
2491.008082551266
 21
1461.078964471665
 31
0.0
  0
LINE
  5
211A
330
1F
100
AcDbEntity
  8
AM_VIS
100
AcDbLine
 10
2545.008082551266
 20
1456.328964471665
 30
0.0
 11
2508.008082551266
 21
1456.328964471665
 31
0.0
  0
LINE
  5
211B
330
1F
100
AcDbEntity
  8
AM_VIS
100
AcDbLine
 10
2466.508082551266
 20
1469.578964471665
 30
0.0
 11
2466.508082551266
 21
1469.078964471665
 31
0.0
  0
LINE
  5
211C
330
1F
100
AcDbEntity
  8
AM_VIS
100
AcDbLine
 10
2466.508082551266
 20
1469.078964471665
 30
0.0
 11
2466.508082551266
 21
1461.078964471665
 31
0.0
  0
LINE
  5
211D
330
1F
100
AcDbEntity
  8
AM_VIS
100
AcDbLine
 10
2545.008082551266
 20
1469.578964471665
 30
0.0
 11
2466.508082551266
 21
1469.578964471665
 31
0.0
  0
LINE
  5
211E
330
1F
100
AcDbEntity
  8
AM_VIS
100
AcDbLine
 10
2466.508082551266
 20
1437.578964471665
 30
0.0
 11
2545.008082551266
 21
1437.578964471665
 31
0.0
  0
LINE
  5
211F
330
1F
100
AcDbEntity
  8
AM_VIS
100
AcDbLine
 10
2545.008082551266
 20
1437.578964471665
 30
0.0
 11
2545.008082551266
 21
1438.078964471665
 31
0.0
  0
LINE
  5
2120
330
1F
100
AcDbEntity
  8
AM_VIS
100
AcDbLine
 10
2545.008082551266
 20
1450.828964471665
 30
0.0
 11
2545.008082551266
 21
1438.078964471665
 31
0.0
  0
ARC
  5
2154
330
1F
100
AcDbEntity
  8
AM_4
100
AcDbCircle
 10
2459.508082551266
 20
1279.828219281591
 30
0.0
 40
3.0
100
AcDbArc
 50
260.0
 51
170.0
  0
CIRCLE
  5
2155
330
1F
100
AcDbEntity
  8
AM_0
100
AcDbCircle
 10
2459.508082551266
 20
1279.828219281591
 30
0.0
 40
2.45873412263477
  0
LINE
  5
2156
330
1F
100
AcDbEntity
  8
AM_7
  6
AM_ISO08W050x2
100
AcDbLine
 10
2455.508082551266
 20
1279.828219281591
 30
0.0
 11
2463.508082551266
 21
1279.828219281591
 31
0.0
  0
LINE
  5
2157
330
1F
100
AcDbEntity
  8
AM_7
  6
AM_ISO08W050x2
100
AcDbLine
 10
2459.508082551266
 20
1275.828219281591
 30
0.0
 11
2459.508082551266
 21
1283.828219281591
 31
0.0
  0
LINE
  5
220A
330
1F
100
AcDbEntity
  8
AM_7
  6
AM_ISO08W050x2
100
AcDbLine
 10
2447.508082551266
 20
1344.960548406979
 30
0.0
 11
2447.508082551266
 21
1355.739689264334
 31
0.0
  0
LINE
  5
220B
330
1F
100
AcDbEntity
  8
AM_7
  6
AM_ISO08W050x2
100
AcDbLine
 10
2459.508082551266
 20
1344.960548406979
 30
0.0
 11
2459.508082551266
 21
1355.739689264334
 31
0.0
  0
LINE
  5
220C
330
1F
100
AcDbEntity
  8
AM_7
  6
AM_ISO08W050x2
100
AcDbLine
 10
2447.508082551266
 20
1398.787983506833
 30
0.0
 11
2447.508082551266
 21
1388.008842649477
 31
0.0
  0
LINE
  5
220D
330
1F
100
AcDbEntity
  8
AM_7
  6
AM_ISO08W050x2
100
AcDbLine
 10
2459.508082551266
 20
1398.787983506833
 30
0.0
 11
2459.508082551266
 21
1388.008842649477
 31
0.0
  0
ARC
  5
2255
330
1F
100
AcDbEntity
  8
AM_4
100
AcDbCircle
 10
2447.508082551266
 20
1279.828219281591
 30
0.0
 40
3.0
100
AcDbArc
 50
260.0
 51
170.0
  0
CIRCLE
  5
2256
330
1F
100
AcDbEntity
  8
AM_0
100
AcDbCircle
 10
2447.508082551266
 20
1279.828219281591
 30
0.0
 40
2.45873412263477
  0
LINE
  5
2257
330
1F
100
AcDbEntity
  8
AM_7
  6
AM_ISO08W050x2
100
AcDbLine
 10
2443.508082551266
 20
1279.828219281591
 30
0.0
 11
2451.508082551266
 21
1279.828219281591
 31
0.0
  0
LINE
  5
2258
330
1F
100
AcDbEntity
  8
AM_7
  6
AM_ISO08W050x2
100
AcDbLine
 10
2447.508082551266
 20
1275.828219281591
 30
0.0
 11
2447.508082551266
 21
1283.828219281591
 31
0.0
  0
ARC
  5
2259
330
1F
100
AcDbEntity
  8
AM_4
100
AcDbCircle
 10
2516.008082551266
 20
1270.828219281591
 30
0.0
 40
2.5
100
AcDbArc
 50
260.0
 51
170.0
  0
CIRCLE
  5
225A
330
1F
100
AcDbEntity
  8
AM_0
100
AcDbCircle
 10
2516.008082551266
 20
1270.828219281591
 30
0.0
 40
2.066987298107819
  0
LINE
  5
225B
330
1F
100
AcDbEntity
  8
AM_7
  6
AM_ISO08W050x2
100
AcDbLine
 10
2512.508082551266
 20
1270.828219281591
 30
0.0
 11
2519.508082551266
 21
1270.828219281591
 31
0.0
  0
LINE
  5
225C
330
1F
100
AcDbEntity
  8
AM_7
  6
AM_ISO08W050x2
100
AcDbLine
 10
2516.008082551266
 20
1267.328219281591
 30
0.0
 11
2516.008082551266
 21
1274.328219281591
 31
0.0
  0
ARC
  5
225D
330
1F
100
AcDbEntity
  8
AM_4
100
AcDbCircle
 10
2536.508082551266
 20
1288.828219281591
 30
0.0
 40
2.5
100
AcDbArc
 50
260.0
 51
170.0
  0
CIRCLE
  5
225E
330
1F
100
AcDbEntity
  8
AM_0
100
AcDbCircle
 10
2536.508082551266
 20
1288.828219281591
 30
0.0
 40
2.066987298107819
  0
LINE
  5
225F
330
1F
100
AcDbEntity
  8
AM_7
  6
AM_ISO08W050x2
100
AcDbLine
 10
2533.008082551266
 20
1288.828219281591
 30
0.0
 11
2540.008082551266
 21
1288.828219281591
 31
0.0
  0
LINE
  5
2260
330
1F
100
AcDbEntity
  8
AM_7
  6
AM_ISO08W050x2
100
AcDbLine
 10
2536.508082551266
 20
1285.328219281591
 30
0.0
 11
2536.508082551266
 21
1292.328219281591
 31
0.0
  0
ARC
  5
226A
330
1F
100
AcDbEntity
  8
AM_4
100
AcDbCircle
 10
2520.008082551266
 20
1389.874265956906
 30
0.0
 40
3.0
100
AcDbArc
 50
260.0
 51
170.0
  0
CIRCLE
  5
226B
330
1F
100
AcDbEntity
  8
AM_0
100
AcDbCircle
 10
2520.008082551266
 20
1389.874265956906
 30
0.0
 40
2.45873412263477
  0
LINE
  5
226C
330
1F
100
AcDbEntity
  8
AM_7
  6
AM_ISO08W050x2
100
AcDbLine
 10
2516.008082551266
 20
1389.874265956906
 30
0.0
 11
2524.008082551266
 21
1389.874265956906
 31
0.0
  0
LINE
  5
226D
330
1F
100
AcDbEntity
  8
AM_7
  6
AM_ISO08W050x2
100
AcDbLine
 10
2520.008082551266
 20
1385.874265956906
 30
0.0
 11
2520.008082551266
 21
1393.874265956906
 31
0.0
  0
ARC
  5
226E
330
1F
100
AcDbEntity
  8
AM_4
100
AcDbCircle
 10
2520.008082551266
 20
1353.874265956906
 30
0.0
 40
3.0
100
AcDbArc
 50
260.0
 51
170.0
  0
CIRCLE
  5
226F
330
1F
100
AcDbEntity
  8
AM_0
100
AcDbCircle
 10
2520.008082551266
 20
1353.874265956906
 30
0.0
 40
2.45873412263477
  0
LINE
  5
2270
330
1F
100
AcDbEntity
  8
AM_7
  6
AM_ISO08W050x2
100
AcDbLine
 10
2516.008082551266
 20
1353.874265956906
 30
0.0
 11
2524.008082551266
 21
1353.874265956906
 31
0.0
  0
LINE
  5
2271
330
1F
100
AcDbEntity
  8
AM_7
  6
AM_ISO08W050x2
100
AcDbLine
 10
2520.008082551266
 20
1349.874265956906
 30
0.0
 11
2520.008082551266
 21
1357.874265956906
 31
0.0
  0
ARC
  5
2272
330
1F
100
AcDbEntity
  8
AM_4
100
AcDbCircle
 10
2616.668695502601
 20
1351.874265956906
 30
0.0
 40
3.0
100
AcDbArc
 50
260.0
 51
170.0
  0
CIRCLE
  5
2273
330
1F
100
AcDbEntity
  8
AM_0
100
AcDbCircle
 10
2616.668695502601
 20
1351.874265956906
 30
0.0
 40
2.45873412263477
  0
LINE
  5
2274
330
1F
100
AcDbEntity
  8
AM_7
  6
AM_ISO08W050x2
100
AcDbLine
 10
2612.668695502601
 20
1351.874265956906
 30
0.0
 11
2620.668695502601
 21
1351.874265956906
 31
0.0
  0
LINE
  5
2275
330
1F
100
AcDbEntity
  8
AM_7
  6
AM_ISO08W050x2
100
AcDbLine
 10
2616.668695502601
 20
1347.874265956906
 30
0.0
 11
2616.668695502601
 21
1355.874265956906
 31
0.0
  0
ARC
  5
2276
330
1F
100
AcDbEntity
  8
AM_4
100
AcDbCircle
 10
2596.668695502601
 20
1391.874265956906
 30
0.0
 40
3.0
100
AcDbArc
 50
260.0
 51
170.0
  0
CIRCLE
  5
2277
330
1F
100
AcDbEntity
  8
AM_0
100
AcDbCircle
 10
2596.668695502601
 20
1391.874265956906
 30
0.0
 40
2.45873412263477
  0
LINE
  5
2278
330
1F
100
AcDbEntity
  8
AM_7
  6
AM_ISO08W050x2
100
AcDbLine
 10
2592.668695502601
 20
1391.874265956906
 30
0.0
 11
2600.668695502601
 21
1391.874265956906
 31
0.0
  0
LINE
  5
2279
330
1F
100
AcDbEntity
  8
AM_7
  6
AM_ISO08W050x2
100
AcDbLine
 10
2596.668695502601
 20
1387.874265956906
 30
0.0
 11
2596.668695502601
 21
1395.874265956906
 31
0.0
  0
ARC
  5
227A
330
1F
100
AcDbEntity
  8
AM_4
100
AcDbCircle
 10
2526.008082551266
 20
1443.578964471665
 30
0.0
 40
3.0
100
AcDbArc
 50
260.0
 51
170.0
  0
CIRCLE
  5
227B
330
1F
100
AcDbEntity
  8
AM_0
100
AcDbCircle
 10
2526.008082551266
 20
1443.578964471665
 30
0.0
 40
2.45873412263477
  0
LINE
  5
227C
330
1F
100
AcDbEntity
  8
AM_7
  6
AM_ISO08W050x2
100
AcDbLine
 10
2522.008082551266
 20
1443.578964471665
 30
0.0
 11
2530.008082551266
 21
1443.578964471665
 31
0.0
  0
LINE
  5
227D
330
1F
100
AcDbEntity
  8
AM_7
  6
AM_ISO08W050x2
100
AcDbLine
 10
2526.008082551266
 20
1439.578964471665
 30
0.0
 11
2526.008082551266
 21
1447.578964471665
 31
0.0
  0
ARC
  5
227E
330
1F
100
AcDbEntity
  8
AM_4
100
AcDbCircle
 10
2526.008082551266
 20
1463.578964471665
 30
0.0
 40
3.0
100
AcDbArc
 50
260.0
 51
170.0
  0
CIRCLE
  5
227F
330
1F
100
AcDbEntity
  8
AM_0
100
AcDbCircle
 10
2526.008082551266
 20
1463.578964471665
 30
0.0
 40
2.45873412263477
  0
LINE
  5
2280
330
1F
100
AcDbEntity
  8
AM_7
  6
AM_ISO08W050x2
100
AcDbLine
 10
2522.008082551266
 20
1463.578964471665
 30
0.0
 11
2530.008082551266
 21
1463.578964471665
 31
0.0
  0
LINE
  5
2281
330
1F
100
AcDbEntity
  8
AM_7
  6
AM_ISO08W050x2
100
AcDbLine
 10
2526.008082551266
 20
1459.578964471665
 30
0.0
 11
2526.008082551266
 21
1467.578964471665
 31
0.0
  0
ARC
  5
2282
330
1F
100
AcDbEntity
  8
AM_4
100
AcDbCircle
 10
2459.508082551266
 20
1453.578964471665
 30
0.0
 40
3.0
100
AcDbArc
 50
260.0
 51
170.0
  0
CIRCLE
  5
2283
330
1F
100
AcDbEntity
  8
AM_0
100
AcDbCircle
 10
2459.508082551266
 20
1453.578964471665
 30
0.0
 40
2.45873412263477
  0
LINE
  5
2284
330
1F
100
AcDbEntity
  8
AM_7
  6
AM_ISO08W050x2
100
AcDbLine
 10
2455.508082551266
 20
1453.578964471665
 30
0.0
 11
2463.508082551266
 21
1453.578964471665
 31
0.0
  0
LINE
  5
2285
330
1F
100
AcDbEntity
  8
AM_7
  6
AM_ISO08W050x2
100
AcDbLine
 10
2459.508082551266
 20
1449.578964471665
 30
0.0
 11
2459.508082551266
 21
1457.578964471665
 31
0.0
  0
ARC
  5
2286
330
1F
100
AcDbEntity
  8
AM_4
100
AcDbCircle
 10
2447.508082551266
 20
1453.578964471665
 30
0.0
 40
3.0
100
AcDbArc
 50
260.0
 51
170.0
  0
CIRCLE
  5
2287
330
1F
100
AcDbEntity
  8
AM_0
100
AcDbCircle
 10
2447.508082551266
 20
1453.578964471665
 30
0.0
 40
2.45873412263477
  0
LINE
  5
2288
330
1F
100
AcDbEntity
  8
AM_7
  6
AM_ISO08W050x2
100
AcDbLine
 10
2443.508082551266
 20
1453.578964471665
 30
0.0
 11
2451.508082551266
 21
1453.578964471665
 31
0.0
  0
LINE
  5
2289
330
1F
100
AcDbEntity
  8
AM_7
  6
AM_ISO08W050x2
100
AcDbLine
 10
2447.508082551266
 20
1449.578964471665
 30
0.0
 11
2447.508082551266
 21
1457.578964471665
 31
0.0
  0
INSERT
  5
240C
330
1F
100
AcDbEntity
  8
AM_5
100
AcDbBlockReference
  2
*S28
 10
0.0
 20
0.0
 30
0.0
  0
TEXT
  5
240D
330
1F
100
AcDbEntity
  8
AM_5
100
AcDbText
 10
2472.318001677379
 20
1409.001552192228
 30
0.0
 40
3.0
  1
2-M6x1.0x10depth
 41
0.8
  7
CHINESET
100
AcDbText
  0
INSERT
  5
240E
330
1F
100
AcDbEntity
  8
AM_5
100
AcDbBlockReference
  2
*S29
 10
0.0
 20
0.0
 30
0.0
  0
TEXT
  5
240F
330
1F
100
AcDbEntity
  8
AM_5
100
AcDbText
 10
2569.076752296794
 20
1410.143235624121
 30
0.0
 40
3.0
  1
2-M6x1.0x10depth
 41
0.8
  7
CHINESET
100
AcDbText
  0
INSERT
  5
24F4
330
1F
100
AcDbEntity
  8
AM_5
100
AcDbBlockReference
  2
*S30
 10
0.0
 20
0.0
 30
0.0
  0
TEXT
  5
24F5
330
1F
100
AcDbEntity
  8
AM_5
100
AcDbText
 10
2412.273386073375
 20
1297.241734715774
 30
0.0
 40
3.0
  1
2-M6x1.0x10depth
 41
0.8
  7
CHINESET
100
AcDbText
  0
TEXT
  5
27C5
330
1F
100
AcDbEntity
  8
LOGO
 62
     7
100
AcDbText
 10
2417.949173849801
 20
1207.17187676188
 30
0.0
 40
3.999420814479637
  1
Order example:
 41
0.8
  7
CHINESET
100
AcDbText
  0
TEXT
  5
27C6
330
1F
100
AcDbEntity
  8
LOGO
 62
     7
100
AcDbText
 10
2418.666703017783
 20
1212.802233178021
 30
0.0
 40
5.999131221719456
  1
訂購代號:
  7
CHINESET
100
AcDbText
  0
LINE
  5
27C7
330
1F
100
AcDbEntity
  8
LOGO
 62
     1
100
AcDbLine
 10
2650.22096850174
 20
1220.312463283353
 30
0.0
 11
2350.22096850174
 21
1220.312463283353
 31
0.0
  0
LINE
  5
27C8
330
1F
100
AcDbEntity
  8
LOGO
 62
     1
100
AcDbLine
 10
2416.211411940655
 20
1190.316807174755
 30
0.0
 11
2416.211411940655
 21
1220.312463283353
 31
0.0
  0
TEXT
  5
27C9
330
1F
100
AcDbEntity
  8
LOGO
  6
Continuous
 62
     5
100
AcDbText
 10
2360.995543009031
 20
1196.209408549897
 30
0.0
 40
4.499348416289592
  1
金器工業股份有限公司
  7
CHINESET
100
AcDbText
  0
TEXT
  5
27CA
330
1F
100
AcDbEntity
  8
LOGO
  6
Continuous
 62
     5
100
AcDbText
 10
2352.731130120494
 20
1191.70917861408
 30
0.0
 40
2.999565610859728
  1
MINDMAN INDUSTRIAL CO., LTD.
 41
0.85
  7
CHINESET
100
AcDbText
  0
LINE
  5
27CB
330
1F
100
AcDbEntity
  8
LOGO
 62
     1
100
AcDbLine
 10
2416.211411940655
 20
1214.313332061633
 30
0.0
 11
2372.217782981378
 21
1214.313332061633
 31
0.0
  0
LINE
  5
27CC
330
1F
100
AcDbEntity
  8
LOGO
 62
     1
100
AcDbLine
 10
2416.211411940655
 20
1208.314200839914
 30
0.0
 11
2372.217782981378
 21
1208.314200839914
 31
0.0
  0
LINE
  5
27CD
330
1F
100
AcDbEntity
  8
LOGO
 62
     1
100
AcDbLine
 10
2416.211411940655
 20
1202.315069618195
 30
0.0
 11
2350.22096850174
 21
1202.315069618195
 31
0.0
  0
LINE
  5
27CE
330
1F
100
AcDbEntity
  8
LOGO
 62
     1
100
AcDbLine
 10
2372.217782981378
 20
1202.315069618195
 30
0.0
 11
2372.217782981378
 21
1220.312463283353
 31
0.0
  0
TEXT
  5
27CF
330
1F
100
AcDbEntity
  8
LOGO
 62
     6
100
AcDbText
 10
2400.714150873125
 20
1203.814852423624
 30
0.0
 40
2.999565610859728
  1
m/m
  7
CHINESET
 72
     1
 11
2405.999099806544
 21
1205.314635229054
 31
0.0
100
AcDbText
 73
     2
  0
TEXT
  5
27D0
330
1F
100
AcDbEntity
  8
LOGO
 62
     6
100
AcDbText
 10
2400.714150873125
 20
1215.813114867063
 30
0.0
 40
2.999565610859728
  1
1 : 1
  7
CHINESET
 72
     1
 11
2405.999099806544
 21
1217.312897672493
 31
0.0
100
AcDbText
 73
     2
  0
LINE
  5
27D1
330
1F
100
AcDbEntity
  8
LOGO
 62
     1
100
AcDbLine
 10
2396.214307868256
 20
1202.315069618195
 30
0.0
 11
2396.214307868256
 21
1220.312463283353
 31
0.0
  0
CIRCLE
  5
27D2
330
1F
100
AcDbEntity
  8
LOGO
  6
Continuous
 62
     6
100
AcDbCircle
 10
2401.768378776498
 20
1211.320182543565
 30
0.0
 40
1.741618395480947
  0
CIRCLE
  5
27D3
330
1F
100
AcDbEntity
  8
LOGO
  6
Continuous
 62
     6
100
AcDbCircle
 10
2401.768378776498
 20
1211.320182543565
 30
0.0
 40
1.020434202998395
  0
LINE
  5
27D4
330
1F
100
AcDbEntity
  8
LOGO
 62
     6
100
AcDbLine
 10
2412.712910862553
 20
1209.578564148084
 30
0.0
 11
2412.712910862553
 21
1213.061800939047
 31
0.0
  0
LINE
  5
27D5
330
1F
100
AcDbEntity
  8
LOGO
 62
     6
100
AcDbLine
 10
2407.253037166387
 20
1210.299748340567
 30
0.0
 11
2407.253037166387
 21
1212.340616746564
 31
0.0
  0
LINE
  5
27D6
330
1F
100
AcDbEntity
  8
LOGO
  6
Continuous
 62
     6
100
AcDbLine
 10
2407.253037166387
 20
1212.340616746564
 30
0.0
 11
2412.712910862553
 21
1213.061800939047
 31
0.0
  0
LINE
  5
27D7
330
1F
100
AcDbEntity
  8
LOGO
  6
Continuous
 62
     6
100
AcDbLine
 10
2407.253037166387
 20
1210.299748340567
 30
0.0
 11
2412.712910862553
 21
1209.578564148084
 31
0.0
  0
LINE
  5
27D8
330
1F
100
AcDbEntity
  8
LOGO
 62
     6
100
AcDbLine
 10
2477.466209715628
 20
1203.814852423624
 30
0.0
 11
2477.466209715628
 21
1192.816445183805
 31
0.0
  0
LINE
  5
27D9
330
1F
100
AcDbEntity
  8
LOGO
 62
     6
100
AcDbLine
 10
2457.469105643229
 20
1203.814852423624
 30
0.0
 11
2457.469105643229
 21
1192.816445183805
 31
0.0
  0
LINE
  5
27DA
330
1F
100
AcDbEntity
  8
LOGO
 62
     6
100
AcDbLine
 10
2477.466209715628
 20
1192.816445183805
 30
0.0
 11
2457.469105643229
 21
1192.816445183805
 31
0.0
  0
LINE
  5
27DB
330
1F
100
AcDbEntity
  8
LOGO
 62
     6
100
AcDbLine
 10
2482.128729552887
 20
1217.312897672493
 30
0.0
 11
2457.469105643229
 21
1217.312897672493
 31
0.0
  0
LINE
  5
27DC
330
1F
100
AcDbEntity
  8
LOGO
 62
     6
100
AcDbLine
 10
2482.128729552887
 20
1208.314200839914
 30
0.0
 11
2457.469105643229
 21
1208.314200839914
 31
0.0
  0
LINE
  5
27DD
330
1F
100
AcDbEntity
  8
LOGO
 62
     6
100
AcDbLine
 10
2457.469105643229
 20
1217.312897672493
 30
0.0
 11
2457.469105643229
 21
1208.314200839914
 31
0.0
  0
LINE
  5
27DE
330
1F
100
AcDbEntity
  8
LOGO
 62
     6
100
AcDbLine
 10
2482.128729552887
 20
1217.312897672493
 30
0.0
 11
2482.128729552887
 21
1208.314200839914
 31
0.0
  0
LINE
  5
27DF
330
1F
100
AcDbEntity
  8
LOGO
 62
     6
100
AcDbLine
 10
2468.511004246784
 20
1208.314200839914
 30
0.0
 11
2468.511004246784
 21
1203.814852423624
 31
0.0
  0
TEXT
  5
27E0
330
1F
100
AcDbEntity
  8
LOGO
  6
Continuous
 62
     7
100
AcDbText
 10
2459.671645258891
 20
1210.192665647621
 30
0.0
 40
5.25
  1
MCHB
  7
CHINESET
100
AcDbText
  0
LINE
  5
27E1
330
1F
100
AcDbEntity
  8
LOGO
 62
     6
100
AcDbLine
 10
2477.466209715628
 20
1203.814852423624
 30
0.0
 11
2457.469105643229
 21
1203.814852423624
 31
0.0
  0
TEXT
  5
27E2
330
1F
100
AcDbEntity
  8
LOGO
 62
     6
100
AcDbText
 10
2374.691085518547
 20
1215.814591031241
 30
196.5865886400747
 40
2.999565610859728
  1
比例 Scale:
 41
0.9
  7
CHINESET
 72
     4
 11
2384.216045424817
 21
1217.312897672493
 31
196.5865886400747
100
AcDbText
  0
TEXT
  5
27E3
330
1F
100
AcDbEntity
  8
LOGO
 62
     6
100
AcDbText
 10
2374.518342677564
 20
1209.856177338114
 30
196.5865886400747
 40
2.999565610859728
  1
投影  View:
 41
0.9
  7
CHINESET
 72
     4
 11
2384.216045424817
 21
1211.313766450773
 31
196.5865886400747
100
AcDbText
  0
TEXT
  5
27E4
330
1F
100
AcDbEntity
  8
LOGO
 62
     6
100
AcDbText
 10
2374.811603779697
 20
1203.814852423624
 30
196.5865886400747
 40
2.999565610859728
  1
單位  Unit:
 41
0.9
  7
CHINESET
 72
     4
 11
2384.216045424817
 21
1205.314635229054
 31
196.5865886400747
100
AcDbText
  0
TEXT
  5
27E5
330
1F
100
AcDbEntity
  8
LOGO
  6
Continuous
 62
     6
100
AcDbText
 10
2462.903181756522
 20
1194.368847043041
 30
196.5865886400747
 40
2.25
  1
Model
  7
CHINESET
100
AcDbText
  0
TEXT
  5
27E6
330
1F
100
AcDbEntity
  8
LOGO
 62
     6
100
AcDbText
 10
2463.287236173195
 20
1198.539862133432
 30
196.5865886400747
 40
3.75
  1
型號
  7
CHINESET
100
AcDbText
  0
LWPOLYLINE
  5
27E7
330
1F
100
AcDbEntity
  8
0
 62
     4
100
AcDbPolyline
 90
        4
 70
     1
 43
0.0
 10
2350.22096850174
 20
1220.312463283353
 10
2650.22096850174
 20
1220.312463283353
 10
2650.22096850174
 20
1519.337438743002
 10
2350.22096850174
 20
1519.337438743002
1001
GENIUS_GENREC_14
1002
{
1000
PYDIR
1011
2350.22096850174
1021
1519.337438743002
1031
0.0
1002
}
1002
{
1000
PXDIR
1011
2650.22096850174
1021
1220.312463283353
1031
0.0
1002
}
1002
{
1000
PORI
1011
2350.22096850174
1021
1220.312463283353
1031
0.0
1002
}
1002
{
1000
PINS
1011
2350.22096850174
1021
1220.312463283353
1031
0.0
1002
}
1002
{
1000
PINS2
1011
2650.22096850174
1021
1519.337438743002
1031
0.0
1002
}
1002
{
1000
C
1070
     1
1002
}
1001
GENIUS_GENODEF_13
1002
{
1000
HIER
1070
     0
1002
}
1002
{
1000
MANEDIT
1070
     0
1002
}
1002
{
1000
NOSEL
1070
     0
1002
}
1002
{
1000
BEHIND
1070
     0
1002
}
1002
{
1000
OTHER
1070
     0
1002
}
1002
{
1000
REACTOR
1002
}
1001
GENIUS_GENOBJ-N-REC_13
1002
{
1000
OWNER
1000
GEN
1002
}
  0
SOLID
  5
27E8
330
1F
100
AcDbEntity
  8
LOGO
 62
     5
100
AcDbTrace
 10
2353.333065962374
 20
1207.301420491704
 30
0.0
 11
2354.629999423907
 21
1207.301420491704
 31
0.0
 12
2360.04134248755
 22
1219.599927454529
 32
0.0
 13
2361.338275949084
 23
1219.599927454528
 33
0.0
  0
SOLID
  5
27E9
330
1F
100
AcDbEntity
  8
LOGO
 62
     5
100
AcDbTrace
 10
2355.166661545923
 20
1207.301420491704
 30
0.0
 11
2356.463595007457
 21
1207.301420491704
 31
0.0
 12
2361.338275949084
 22
1218.616046897502
 32
0.0
 13
2360.04134248755
 23
1213.86062420521
 33
0.0
  0
SOLID
  5
27EA
330
1F
100
AcDbEntity
  8
LOGO
 62
     2
100
AcDbTrace
 10
2354.629999423907
 20
1207.301420491704
 30
0.0
 11
2355.166661545923
 21
1207.301420491704
 31
0.0
 12
2361.338275949084
 22
1219.599927454528
 32
0.0
 13
2361.874938071099
 23
1219.599927454528
 33
0.0
  0
SOLID
  5
27EB
330
1F
100
AcDbEntity
  8
LOGO
 62
     5
100
AcDbTrace
 10
2351.253763576491
 20
1202.829236141587
 30
0.0
 11
2351.700982011503
 21
1202.829236141587
 31
0.0
 12
2352.960383933197
 22
1205.065328316646
 32
0.0
 13
2353.407602368208
 23
1205.065328316646
 33
0.0
  0
SOLID
  5
27EC
330
1F
100
AcDbEntity
  8
LOGO
 62
     5
100
AcDbTrace
 10
2352.960383933197
 20
1205.065328316646
 30
0.0
 11
2353.407602368208
 21
1205.065328316646
 31
0.0
 12
2352.960383933197
 22
1202.829236141587
 32
0.0
 13
2353.407602368208
 23
1202.829236141587
 33
0.0
  0
SOLID
  5
27ED
330
1F
100
AcDbEntity
  8
LOGO
 62
     5
100
AcDbTrace
 10
2352.960383933197
 20
1202.829236141587
 30
0.0
 11
2353.407602368208
 21
1202.829236141587
 31
0.0
 12
2354.667004289904
 22
1205.065328316646
 32
0.0
 13
2355.114222724916
 23
1205.065328316646
 33
0.0
  0
SOLID
  5
27EE
330
1F
100
AcDbEntity
  8
LOGO
 62
     5
100
AcDbTrace
 10
2354.667004289904
 20
1205.065328316646
 30
0.0
 11
2355.114222724916
 21
1205.065328316646
 31
0.0
 12
2354.667004289904
 22
1202.829236141587
 32
0.0
 13
2355.114222724916
 23
1202.829236141587
 33
0.0
  0
POLYLINE
  5
27EF
330
1F
100
AcDbEntity
  8
LOGO
 62
     5
100
AcDb2dPolyline
 66
     1
 10
0.0
 20
0.0
 30
0.0
 40
0.4479351312217194
 41
0.4479351312217194
  0
VERTEX
  5
27F0
330
27EF
100
AcDbEntity
  8
LOGO
 62
     5
100
AcDbVertex
100
AcDb2dVertex
 10
2369.657613884619
 20
1204.170891446622
 30
0.0
 42
1.0
  0
VERTEX
  5
27F1
330
27EF
100
AcDbEntity
  8
LOGO
 62
     5
100
AcDbVertex
100
AcDb2dVertex
 10
2368.313808490953
 20
1204.170891446622
 30
0.0
 42
1.0
  0
SEQEND
  5
27F2
330
27EF
100
AcDbEntity
  8
LOGO
 62
     5
  0
POLYLINE
  5
27F3
330
1F
100
AcDbEntity
  8
LOGO
 62
     5
100
AcDb2dPolyline
 66
     1
 10
0.0
 20
0.0
 30
0.0
 70
     1
  0
VERTEX
  5
27F4
330
27F3
100
AcDbEntity
  8
LOGO
 62
     5
100
AcDbVertex
100
AcDb2dVertex
 10
2365.780675551429
 20
1203.947282229116
 30
0.0
 42
1.000000057330635
  0
VERTEX
  5
27F5
330
27F3
100
AcDbEntity
  8
LOGO
 62
     5
100
AcDbVertex
100
AcDb2dVertex
 10
2367.122330856465
 20
1203.947282229116
 30
0.0
 42
1.000000057330635
  0
SEQEND
  5
27F6
330
27F3
100
AcDbEntity
  8
LOGO
 62
     5
  0
CIRCLE
  5
27F7
330
1F
100
AcDbEntity
  8
LOGO
 62
     5
100
AcDbCircle
 10
2366.451503203948
 20
1203.947282229116
 30
0.0
 40
0.6708276525176471
  0
POLYLINE
  5
27F8
330
1F
100
AcDbEntity
  8
LOGO
 62
     5
100
AcDb2dPolyline
 66
     1
 10
0.0
 20
0.0
 30
0.0
 70
     1
 40
0.4479351312217194
 41
0.4479351312217194
  0
VERTEX
  5
27F9
330
27F8
100
AcDbEntity
  8
LOGO
 62
     5
100
AcDbVertex
100
AcDb2dVertex
 10
2365.555632941504
 20
1203.947282229116
 30
0.0
 42
1.0
  0
VERTEX
  5
27FA
330
27F8
100
AcDbEntity
  8
LOGO
 62
     5
100
AcDbVertex
100
AcDb2dVertex
 10
2367.347373466391
 20
1203.947282229116
 30
0.0
 42
1.0
  0
SEQEND
  5
27FB
330
27F8
100
AcDbEntity
  8
LOGO
 62
     5
  0
LINE
  5
27FC
330
1F
100
AcDbEntity
  8
LOGO
 62
     5
100
AcDbLine
 10
2369.880148057809
 20
1202.829236141587
 30
0.0
 11
2369.880148057809
 21
1204.170891446622
 31
0.0
  0
SOLID
  5
27FD
330
1F
100
AcDbEntity
  8
LOGO
 62
     5
100
AcDbTrace
 10
2367.122286134623
 20
1205.065328316646
 30
0.0
 11
2367.569504569634
 21
1205.065328316646
 31
0.0
 12
2367.122286134623
 22
1202.829236141587
 32
0.0
 13
2367.569504569634
 23
1202.829236141587
 33
0.0
  0
SOLID
  5
27FE
330
1F
100
AcDbEntity
  8
LOGO
 62
     5
100
AcDbTrace
 10
2368.091274317762
 20
1202.829236141587
 30
0.0
 11
2368.538492752774
 21
1202.829236141587
 31
0.0
 12
2368.091274317762
 22
1205.065328316646
 32
0.0
 13
2368.538492752774
 23
1205.065328316646
 33
0.0
  0
SOLID
  5
27FF
330
1F
100
AcDbEntity
  8
LOGO
 62
     5
100
AcDbTrace
 10
2369.432929622798
 20
1204.170891446622
 30
0.0
 11
2369.880148057809
 21
1204.170891446622
 31
0.0
 12
2369.432929622798
 22
1202.829236141587
 32
0.0
 13
2369.880148057809
 23
1202.829236141587
 33
0.0
  0
SOLID
  5
2800
330
1F
100
AcDbEntity
  8
LOGO
 62
     5
100
AcDbTrace
 10
2368.046552474261
 20
1218.616046897502
 30
0.0
 11
2366.749619012727
 21
1213.86062420521
 31
0.0
 12
2368.046552474261
 22
1207.301420491704
 32
0.0
 13
2366.749619012727
 23
1207.301420491704
 33
0.0
  0
SOLID
  5
2801
330
1F
100
AcDbEntity
  8
LOGO
 62
     5
100
AcDbTrace
 10
2368.583214596275
 20
1207.301420491704
 30
0.0
 11
2369.880148057809
 21
1207.301420491704
 31
0.0
 12
2368.583214596275
 22
1219.599927454528
 32
0.0
 13
2369.880148057809
 23
1219.599927454529
 33
0.0
  0
SOLID
  5
2802
330
1F
100
AcDbEntity
  8
LOGO
 62
     2
100
AcDbTrace
 10
2368.046552474261
 20
1219.599927454529
 30
0.0
 11
2368.583214596275
 21
1219.599927454528
 31
0.0
 12
2368.046552474261
 22
1207.301420491704
 32
0.0
 13
2368.583214596275
 23
1207.301420491704
 33
0.0
  0
POLYLINE
  5
2803
330
1F
100
AcDbEntity
  8
LOGO
 62
     5
100
AcDb2dPolyline
 66
     1
 10
0.0
 20
0.0
 30
0.0
 40
0.4479351312217194
 41
0.4479351312217194
  0
VERTEX
  5
2804
330
2803
100
AcDbEntity
  8
LOGO
 62
     5
100
AcDbVertex
100
AcDb2dVertex
 10
2363.247453168221
 20
1204.170891446622
 30
0.0
 42
1.0
  0
VERTEX
  5
2805
330
2803
100
AcDbEntity
  8
LOGO
 62
     5
100
AcDbVertex
100
AcDb2dVertex
 10
2361.903647774556
 20
1204.170891446622
 30
0.0
 42
1.0
  0
SEQEND
  5
2806
330
2803
100
AcDbEntity
  8
LOGO
 62
     5
  0
POLYLINE
  5
2807
330
1F
100
AcDbEntity
  8
LOGO
 62
     5
100
AcDb2dPolyline
 66
     1
 10
0.0
 20
0.0
 30
0.0
 40
0.4479351312217194
 41
0.4479351312217194
  0
VERTEX
  5
2808
330
2807
100
AcDbEntity
  8
LOGO
 62
     5
100
AcDbVertex
100
AcDb2dVertex
 10
2364.589108473255
 20
1204.170891446622
 30
0.0
 42
1.0
  0
VERTEX
  5
2809
330
2807
100
AcDbEntity
  8
LOGO
 62
     5
100
AcDbVertex
100
AcDb2dVertex
 10
2363.24530307959
 20
1204.170891446622
 30
0.0
 42
1.0
  0
SEQEND
  5
280A
330
2807
100
AcDbEntity
  8
LOGO
 62
     5
  0
POLYLINE
  5
280B
330
1F
100
AcDbEntity
  8
LOGO
 62
     5
100
AcDb2dPolyline
 66
     1
 10
0.0
 20
0.0
 30
0.0
 40
0.4479351312217194
 41
0.4479351312217194
  0
VERTEX
  5
280C
330
280B
100
AcDbEntity
  8
LOGO
 62
     5
100
AcDbVertex
100
AcDb2dVertex
 10
2358.178947756857
 20
1204.170891446622
 30
0.0
 42
1.0
  0
VERTEX
  5
280D
330
280B
100
AcDbEntity
  8
LOGO
 62
     5
100
AcDbVertex
100
AcDb2dVertex
 10
2356.835142363193
 20
1204.170891446622
 30
0.0
 42
1.0
  0
SEQEND
  5
280E
330
280B
100
AcDbEntity
  8
LOGO
 62
     5
  0
SOLID
  5
280F
330
1F
100
AcDbEntity
  8
LOGO
 62
     5
100
AcDbTrace
 10
2356.612608190002
 20
1205.065328316646
 30
0.0
 11
2357.059826625013
 21
1205.065328316646
 31
0.0
 12
2356.612608190002
 22
1202.829236141587
 32
0.0
 13
2357.059826625013
 23
1202.829236141587
 33
0.0
  0
SOLID
  5
2810
330
1F
100
AcDbEntity
  8
LOGO
 62
     5
100
AcDbTrace
 10
2357.954263495038
 20
1204.170891446622
 30
0.0
 11
2358.40148193005
 21
1204.170891446622
 31
0.0
 12
2357.954263495038
 22
1202.829236141587
 32
0.0
 13
2358.40148193005
 23
1202.829236141587
 33
0.0
  0
POLYLINE
  5
2811
330
1F
100
AcDbEntity
  8
LOGO
 62
     5
100
AcDb2dPolyline
 66
     1
 10
0.0
 20
0.0
 30
0.0
 70
     1
 40
0.4479351312217194
 41
0.4479351312217194
  0
VERTEX
  5
2812
330
2811
100
AcDbEntity
  8
LOGO
 62
     5
100
AcDbVertex
100
AcDb2dVertex
 10
2359.145472225106
 20
1203.947282229116
 30
0.0
 42
1.0
  0
VERTEX
  5
2813
330
2811
100
AcDbEntity
  8
LOGO
 62
     5
100
AcDbVertex
100
AcDb2dVertex
 10
2360.937212749994
 20
1203.947282229116
 30
0.0
 42
1.0
  0
SEQEND
  5
2814
330
2811
100
AcDbEntity
  8
LOGO
 62
     5
  0
SOLID
  5
2815
330
1F
100
AcDbEntity
  8
LOGO
 62
     5
100
AcDbTrace
 10
2360.712125418225
 20
1205.736155969164
 30
0.0
 11
2361.159343853236
 21
1205.736155969164
 31
0.0
 12
2360.712125418225
 22
1202.829236141587
 32
0.0
 13
2361.159343853236
 23
1202.829236141587
 33
0.0
  0
SOLID
  5
2816
330
1F
100
AcDbEntity
  8
LOGO
 62
     5
100
AcDbTrace
 10
2361.681113601366
 20
1205.065328316646
 30
0.0
 11
2362.128332036377
 21
1205.065328316646
 31
0.0
 12
2361.681113601366
 22
1202.829236141587
 32
0.0
 13
2362.128332036377
 23
1202.829236141587
 33
0.0
  0
SOLID
  5
2817
330
1F
100
AcDbEntity
  8
LOGO
 62
     5
100
AcDbTrace
 10
2363.0227689064
 20
1204.170891446622
 30
0.0
 11
2363.469987341412
 21
1204.170891446622
 31
0.0
 12
2363.0227689064
 22
1202.829236141587
 32
0.0
 13
2363.469987341412
 23
1202.829236141587
 33
0.0
  0
SOLID
  5
2818
330
1F
100
AcDbEntity
  8
LOGO
 62
     5
100
AcDbTrace
 10
2364.364424211435
 20
1204.170891446622
 30
0.0
 11
2364.811642646447
 21
1204.170891446622
 31
0.0
 12
2364.364424211435
 22
1202.829236141587
 32
0.0
 13
2364.811642646447
 23
1202.829236141587
 33
0.0
  0
SOLID
  5
2819
330
1F
100
AcDbEntity
  8
LOGO
 62
     5
100
AcDbTrace
 10
2355.643620006862
 20
1205.378381221154
 30
0.0
 11
2356.090838441875
 21
1205.378381221154
 31
0.0
 12
2355.643620006862
 22
1205.736155969164
 32
0.0
 13
2356.090838441875
 23
1205.736155969164
 33
0.0
  0
SOLID
  5
281A
330
1F
100
AcDbEntity
  8
LOGO
 62
     5
100
AcDbTrace
 10
2355.643620006862
 20
1205.065328316646
 30
0.0
 11
2356.090838441875
 21
1205.065328316646
 31
0.0
 12
2355.643620006862
 22
1202.829236141587
 32
0.0
 13
2356.090838441875
 23
1202.829236141587
 33
0.0
  0
SOLID
  5
281B
330
1F
100
AcDbEntity
  8
LOGO
 62
     5
100
AcDbTrace
 10
2360.04134248755
 20
1207.301420491704
 30
0.0
 11
2361.338275949084
 21
1207.301420491704
 31
0.0
 12
2360.04134248755
 22
1213.86062420521
 32
0.0
 13
2361.338275949084
 23
1218.616046897502
 33
0.0
  0
SOLID
  5
281C
330
1F
100
AcDbEntity
  8
LOGO
 62
     5
100
AcDbTrace
 10
2361.874938071099
 20
1219.599927454528
 30
0.0
 11
2363.171871532633
 21
1219.599927454529
 31
0.0
 12
2361.874938071099
 22
1208.28530104873
 32
0.0
 13
2363.171871532633
 23
1213.040723741022
 33
0.0
  0
SOLID
  5
281D
330
1F
100
AcDbEntity
  8
LOGO
 62
     2
100
AcDbTrace
 10
2361.338275949084
 20
1219.599927454528
 30
0.0
 11
2361.874938071099
 21
1219.599927454528
 31
0.0
 12
2361.338275949084
 22
1207.301420491704
 32
0.0
 13
2361.874938071099
 23
1207.301420491704
 33
0.0
  0
SOLID
  5
281E
330
1F
100
AcDbEntity
  8
LOGO
 62
     5
100
AcDbTrace
 10
2361.874938071099
 20
1208.28530104873
 30
0.0
 11
2363.171871532633
 21
1213.040723741022
 31
0.0
 12
2368.046552474261
 22
1219.599927454529
 32
0.0
 13
2366.749619012727
 23
1219.599927454529
 33
0.0
  0
SOLID
  5
281F
330
1F
100
AcDbEntity
  8
LOGO
 62
     5
100
AcDbTrace
 10
2361.874938071099
 20
1207.301420491704
 30
0.0
 11
2363.171871532633
 21
1207.301420491704
 31
0.0
 12
2368.046552474261
 22
1218.616046897502
 32
0.0
 13
2366.749619012727
 23
1213.86062420521
 33
0.0
  0
SOLID
  5
2820
330
1F
100
AcDbEntity
  8
LOGO
 62
     2
100
AcDbTrace
 10
2361.338275949084
 20
1207.301420491704
 30
0.0
 11
2361.874938071099
 21
1207.301420491704
 31
0.0
 12
2368.046552474261
 22
1219.599927454529
 32
0.0
 13
2368.583214596275
 23
1219.599927454528
 33
0.0
  0
TEXT
  5
2821
330
1F
100
AcDbEntity
  8
0
100
AcDbText
 10
2418.304556974151
 20
1191.912564240637
 30
0.0
 40
3.0
  1
10511213
 41
0.7
  7
CHINESET
 72
     1
 11
2425.204556974151
 21
1191.912564240637
 31
0.0
100
AcDbText
  0
LINE
  5
2822
330
1F
100
AcDbEntity
  8
LOGO
 62
     1
100
AcDbLine
 10
2434.211411940653
 20
1196.315938396475
 30
0.0
 11
2434.211411940654
 21
1190.316807174755
 31
0.0
  0
LINE
  5
2823
330
1F
100
AcDbEntity
  8
LOGO
 62
     1
100
AcDbLine
 10
2434.211411940653
 20
1196.315938396475
 30
0.0
 11
2416.211411940655
 21
1196.315938396475
 31
0.0
  0
LWPOLYLINE
  5
2824
330
1F
100
AcDbEntity
  8
0
 62
     1
100
AcDbPolyline
 90
        4
 70
     1
 43
0.0
 10
2350.22096850174
 20
1220.312463283353
 10
2650.22096850174
 20
1220.312463283353
 10
2650.22096850174
 20
1190.316807174755
 10
2350.22096850174
 20
1190.316807174755
1001
GENIUS_GENREC_14
1002
{
1000
PYDIR
1011
2350.22096850174
1021
1190.316807174755
1031
0.0
1002
}
1002
{
1000
PXDIR
1011
2650.22096850174
1021
1220.312463283353
1031
0.0
1002
}
1002
{
1000
PORI
1011
2350.22096850174
1021
1220.312463283353
1031
0.0
1002
}
1002
{
1000
PINS
1011
2350.22096850174
1021
1220.312463283353
1031
0.0
1002
}
1002
{
1000
PINS2
1011
2650.22096850174
1021
1190.316807174755
1031
0.0
1002
}
1002
{
1000
C
1070
     1
1002
}
1001
GENIUS_GENOBJ-N-REC_13
1002
{
1000
OWNER
1000
GEN
1002
}
1001
GENIUS_GENODEF_13
1002
{
1000
HIER
1070
     0
1002
}
1002
{
1000
MANEDIT
1070
     0
1002
}
1002
{
1000
NOSEL
1070
     0
1002
}
1002
{
1000
BEHIND
1070
     0
1002
}
1002
{
1000
OTHER
1070
     0
1002
}
1002
{
1000
REACTOR
1002
}
  0
LINE
  5
2825
330
1F
100
AcDbEntity
  8
LOGO
  6
Continuous
 62
     7
100
AcDbLine
 10
2483.085365399395
 20
1212.781674449892
 30
0.0
 11
2487.058861572804
 21
1212.781674449892
 31
0.0
  0
LINE
  5
2831
330
1F
100
AcDbEntity
  8
LOGO
 62
     6
100
AcDbLine
 10
2505.778660848433
 20
1203.814852423624
 30
0.0
 11
2505.778660848433
 21
1192.816445183805
 31
0.0
  0
LINE
  5
2832
330
1F
100
AcDbEntity
  8
LOGO
 62
     6
100
AcDbLine
 10
2485.781556776035
 20
1203.814852423624
 30
0.0
 11
2485.781556776035
 21
1192.816445183805
 31
0.0
  0
LINE
  5
2833
330
1F
100
AcDbEntity
  8
LOGO
 62
     6
100
AcDbLine
 10
2505.778660848433
 20
1192.816445183805
 30
0.0
 11
2485.781556776035
 21
1192.816445183805
 31
0.0
  0
LINE
  5
2834
330
1F
100
AcDbEntity
  8
LOGO
 62
     6
100
AcDbLine
 10
2503.936848614543
 20
1217.312897672493
 30
0.0
 11
2488.560356739624
 21
1217.312897672493
 31
0.0
  0
LINE
  5
2835
330
1F
100
AcDbEntity
  8
LOGO
 62
     6
100
AcDbLine
 10
2503.936848614543
 20
1208.314200839914
 30
0.0
 11
2488.560356739624
 21
1208.314200839914
 31
0.0
  0
LINE
  5
2836
330
1F
100
AcDbEntity
  8
LOGO
 62
     6
100
AcDbLine
 10
2488.560356739624
 20
1217.312897672493
 30
0.0
 11
2488.560356739624
 21
1208.314200839914
 31
0.0
  0
LINE
  5
2837
330
1F
100
AcDbEntity
  8
LOGO
 62
     6
100
AcDbLine
 10
2503.936848614543
 20
1217.312897672493
 30
0.0
 11
2503.936848614543
 21
1208.314200839914
 31
0.0
  0
LINE
  5
2838
330
1F
100
AcDbEntity
  8
LOGO
 62
     6
100
AcDbLine
 10
2495.47422208177
 20
1208.314200839914
 30
0.0
 11
2495.47422208177
 21
1203.814852423624
 31
0.0
  0
TEXT
  5
2839
330
1F
100
AcDbEntity
  8
LOGO
  6
Continuous
 62
     7
100
AcDbText
 10
2491.930401474065
 20
1210.192665647621
 30
0.0
 40
5.25
  1
25
  7
CHINESET
100
AcDbText
  0
LINE
  5
283A
330
1F
100
AcDbEntity
  8
LOGO
 62
     6
100
AcDbLine
 10
2505.778660848433
 20
1203.814852423624
 30
0.0
 11
2485.781556776035
 21
1203.814852423624
 31
0.0
  0
TEXT
  5
2848
330
1F
100
AcDbEntity
  8
LOGO
  6
Continuous
 62
     6
100
AcDbText
 10
2487.743712431241
 20
1194.368847043041
 30
196.5865886400747
 40
2.25
  1
Tube I.D.
  7
CHINESET
100
AcDbText
  0
TEXT
  5
2849
330
1F
100
AcDbEntity
  8
LOGO
 62
     6
100
AcDbText
 10
2490.877357017287
 20
1198.539862133432
 30
196.5865886400747
 40
3.75
  1
內徑
  7
CHINESET
100
AcDbText
  0
ENDSEC
  0
SECTION
  2
OBJECTS
  0
DICTIONARY
  5
C
330
0
100
AcDbDictionary
281
     1
  3
ACAD_COLOR
350
BE
  3
ACAD_GROUP
350
D
  3
ACAD_LAYOUT
350
1A
  3
ACAD_MATERIAL
350
BD
  3
ACAD_MLINESTYLE
350
17
  3
ACAD_PLOTSETTINGS
350
19
  3
ACAD_PLOTSTYLENAME
350
E
  3
ACAD_TABLESTYLE
350
11A
  3
ACDBHEADERROUNDTRIPXREC
350
29E8
  3
AcDbVariableDictionary
350
94
  3
AcmDictionary
350
5B
  3
AMG
350
41
  3
AMGSNAPSETTINGS
350
1B8
  3
DWGPROPS
350
29E7
  0
DICTIONARY
  5
3F9
330
2
100
AcDbDictionary
280
     1
281
     1
  3
ACAD_LAYERFILTERS
360
5B7
  3
ACAD_LAYERSTATES
360
76B
  3
ACLYDICTIONARY
360
5B6
  3
AMLAYER_GROUPCOLORS
360
B73
  0
DICTIONARY
  5
8F
330
1F
100
AcDbDictionary
280
     1
281
     1
  3
ACAD_SORTENTS
360
BA5
  0
DICTIONARY
  5
BE
102
{ACAD_REACTORS
330
C
102
}
330
C
100
AcDbDictionary
281
     1
  0
DICTIONARY
  5
D
102
{ACAD_REACTORS
330
C
102
}
330
C
100
AcDbDictionary
281
     1
  0
DICTIONARY
  5
1A
102
{ACAD_REACTORS
330
C
102
}
330
C
100
AcDbDictionary
281
     1
  3
Model
350
22
  3
配置1
350
1E
  3
配置2
350
26
  0
DICTIONARY
  5
BD
102
{ACAD_REACTORS
330
C
102
}
330
C
100
AcDbDictionary
281
     1
  0
DICTIONARY
  5
17
102
{ACAD_REACTORS
330
C
102
}
330
C
100
AcDbDictionary
281
     1
  3
Standard
350
18
  0
DICTIONARY
  5
19
102
{ACAD_REACTORS
330
C
102
}
330
C
100
AcDbDictionary
281
     1
  0
ACDBDICTIONARYWDFLT
  5
E
102
{ACAD_REACTORS
330
C
102
}
330
C
100
AcDbDictionary
281
     1
  3
Normal
350
F
100
AcDbDictionaryWithDefault
340
F
  0
DICTIONARY
  5
11A
102
{ACAD_REACTORS
330
C
102
}
330
C
100
AcDbDictionary
281
     1
  3
Standard
350
11B
  0
DICTIONARY
  5
29E8
102
{ACAD_REACTORS
330
C
102
}
330
C
100
AcDbDictionary
281
     1
  0
DICTIONARY
  5
94
102
{ACAD_REACTORS
330
C
102
}
330
C
100
AcDbDictionary
281
     1
  3
CTABLESTYLE
350
138
  3
DIMASSOC
350
96
  3
INDEXCTL
350
95
  3
PROJECTNAME
350
29E5
  0
DICTIONARY
  5
5B
102
{ACAD_REACTORS
330
C
102
}
330
C
100
AcDbDictionary
281
     1
  3
AcmBOM
350
1B5
  3
AcmStdDictionary
350
61
  3
AMDTSECTSYM_ARROWCOLOR
350
123
  0
DICTIONARY
  5
41
102
{ACAD_REACTORS
330
C
102
}
330
C
100
AcDbDictionary
281
     1
  0
DICTIONARY
  5
1B8
102
{ACAD_REACTORS
330
C
102
}
330
C
100
AcDbDictionary
281
     1
  0
XRECORD
  5
29E7
102
{ACAD_REACTORS
330
C
102
}
330
C
100
AcDbXrecord
280
     1
  1
DWGPROPS COOKIE
  2

  3

  4

  6

  7

  8

  9

300
AmdtFileType=84
301
=
302
=
303
=
304
=
305
=
306
=
307
=
308
=
309
=
 40
0.0759698842592593
 41
2453696.549700336
 42
2453696.630948704
  1

 90
        1
  0
DICTIONARY
  5
5B7
102
{ACAD_REACTORS
330
3F9
102
}
330
3F9
100
AcDbDictionary
281
     1
  0
DICTIONARY
  5
76B
102
{ACAD_REACTORS
330
3F9
102
}
330
3F9
100
AcDbDictionary
281
     1
  0
DICTIONARY
  5
5B6
102
{ACAD_REACTORS
330
3F9
102
}
330
3F9
100
AcDbDictionary
281
     1
1001
ACAD
1000
<All
  0
DICTIONARY
  5
B73
102
{ACAD_REACTORS
330
3F9
102
}
330
3F9
100
AcDbDictionary
280
     1
281
     1
  0
SORTENTSTABLE
  5
BA5
102
{ACAD_REACTORS
330
8F
102
}
330
8F
100
AcDbSortentsTable
330
1F
331
20B2
  5
20B2
331
2073
  5
2073
331
20E9
  5
20E9
331
20BA
  5
20BA
331
207B
  5
207B
331
20F1
  5
20F1
331
2083
  5
2083
331
20C2
  5
20C2
331
2109
  5
2109
331
208B
  5
208B
331
20CA
  5
20CA
331
C6F
  5
C6F
331
1F81
  5
1F81
331
1FC0
  5
1FC0
331
1FFF
  5
1FFF
331
1FC8
  5
1FC8
331
203E
  5
203E
331
1F91
  5
1F91
331
2046
  5
2046
331
204E
  5
204E
331
1FD8
  5
1FD8
331
1F99
  5
1F99
331
2056
  5
2056
331
2017
  5
2017
331
20D2
  5
20D2
331
2093
  5
2093
331
2111
  5
2111
331
209B
  5
209B
331
20DA
  5
20DA
331
2119
  5
2119
331
20A3
  5
20A3
331
20E2
  5
20E2
331
20AB
  5
20AB
331
B51
  5
B51
331
1FA1
  5
1FA1
331
1FE0
  5
1FE0
331
201F
  5
201F
331
1FA9
  5
1FA9
331
1FE8
  5
1FE8
331
205E
  5
205E
331
1FF0
  5
1FF0
331
1F7A
  5
1F7A
331
1FB1
  5
1FB1
331
2027
  5
2027
331
2066
  5
2066
331
206E
  5
206E
331
1FB9
  5
1FB9
331
202F
  5
202F
331
2037
  5
2037
331
2074
  5
2074
331
20B3
  5
20B3
331
20EA
  5
20EA
331
20F2
  5
20F2
331
207C
  5
207C
331
20BB
  5
20BB
331
20C3
  5
20C3
331
2084
  5
2084
331
210A
  5
210A
331
20CB
  5
20CB
331
208C
  5
208C
331
D07
  5
D07
331
1FC1
  5
1FC1
331
1F82
  5
1F82
331
1FF8
  5
1FF8
331
203F
  5
203F
331
1FC9
  5
1FC9
331
E45
  5
E45
331
F63
  5
F63
331
2000
  5
2000
331
2047
  5
2047
331
1F92
  5
1F92
331
1FD1
  5
1FD1
331
2010
  5
2010
331
1F9A
  5
1F9A
331
1FD9
  5
1FD9
331
204F
  5
204F
331
2057
  5
2057
331
2112
  5
2112
331
2094
  5
2094
331
20D3
  5
20D3
331
211A
  5
211A
331
209C
  5
209C
331
20DB
  5
20DB
331
20E3
  5
20E3
331
20A4
  5
20A4
331
20AC
  5
20AC
331
C49
  5
C49
331
2018
  5
2018
331
1FA2
  5
1FA2
331
205F
  5
205F
331
1FAA
  5
1FAA
331
1FE9
  5
1FE9
331
2020
  5
2020
331
2028
  5
2028
331
1FB2
  5
1FB2
331
E95
  5
E95
331
1F7B
  5
1F7B
331
2067
  5
2067
331
2030
  5
2030
331
1FBA
  5
1FBA
331
206F
  5
206F
331
20B4
  5
20B4
331
2075
  5
2075
331
20EB
  5
20EB
331
207D
  5
207D
331
20BC
  5
20BC
331
20F3
  5
20F3
331
2085
  5
2085
331
20C4
  5
20C4
331
210B
  5
210B
331
208D
  5
208D
331
20CC
  5
20CC
331
B2B
  5
B2B
331
2038
  5
2038
331
1F83
  5
1F83
331
1FC2
  5
1FC2
331
1FF9
  5
1FF9
331
1FCA
  5
1FCA
331
1F8B
  5
1F8B
331
2001
  5
2001
331
2040
  5
2040
331
1FD2
  5
1FD2
331
1F93
  5
1F93
331
2009
  5
2009
331
2048
  5
2048
331
2050
  5
2050
331
1FDA
  5
1FDA
331
1F9B
  5
1F9B
331
2011
  5
2011
331
20D4
  5
20D4
331
2095
  5
2095
331
2113
  5
2113
331
211B
  5
211B
331
209D
  5
209D
331
20DC
  5
20DC
331
20A5
  5
20A5
331
20E4
  5
20E4
331
20AD
  5
20AD
331
2019
  5
2019
331
1FA3
  5
1FA3
331
1264
  5
1264
331
DBF
  5
DBF
331
2058
  5
2058
331
2021
  5
2021
331
1FAB
  5
1FAB
331
1FEA
  5
1FEA
331
2060
  5
2060
331
2029
  5
2029
331
1F7C
  5
1F7C
331
1FB3
  5
1FB3
331
2068
  5
2068
331
1FBB
  5
1FBB
331
2031
  5
2031
331
2076
  5
2076
331
20B5
  5
20B5
331
20EC
  5
20EC
331
20BD
  5
20BD
331
207E
  5
207E
331
20F4
  5
20F4
331
20C5
  5
20C5
331
2104
  5
2104
331
208E
  5
208E
331
20CD
  5
20CD
331
CE1
  5
CE1
331
2039
  5
2039
331
1FC3
  5
1FC3
331
1F84
  5
1F84
331
1FFA
  5
1FFA
331
2041
  5
2041
331
1FCB
  5
1FCB
331
1F8C
  5
1F8C
331
2002
  5
2002
331
2049
  5
2049
331
1F94
  5
1F94
331
1FD3
  5
1FD3
331
200A
  5
200A
331
1FDB
  5
1FDB
331
1F9C
  5
1F9C
331
E6F
  5
E6F
331
2012
  5
2012
331
2051
  5
2051
331
2114
  5
2114
331
2096
  5
2096
331
20D5
  5
20D5
331
211C
  5
211C
331
209E
  5
209E
331
20DD
  5
20DD
331
20E5
  5
20E5
331
20A6
  5
20A6
331
20AE
  5
20AE
331
1FE3
  5
1FE3
331
1265
  5
1265
331
1FA4
  5
1FA4
331
201A
  5
201A
331
2059
  5
2059
331
2061
  5
2061
331
1FAC
  5
1FAC
331
1FEB
  5
1FEB
331
2022
  5
2022
331
2069
  5
2069
331
1F7D
  5
1F7D
331
1FB4
  5
1FB4
331
1FF3
  5
1FF3
331
2032
  5
2032
331
1FBC
  5
1FBC
331
2154
  5
2154
331
20B6
  5
20B6
331
2077
  5
2077
331
20ED
  5
20ED
331
207F
  5
207F
331
20BE
  5
20BE
331
20F5
  5
20F5
331
2105
  5
2105
331
20C6
  5
20C6
331
20CE
  5
20CE
331
208F
  5
208F
331
203A
  5
203A
331
1F85
  5
1F85
331
1FC4
  5
1FC4
331
1FFB
  5
1FFB
331
1FCC
  5
1FCC
331
EBF
  5
EBF
331
D79
  5
D79
331
1F8D
  5
1F8D
331
2003
  5
2003
331
2042
  5
2042
331
204A
  5
204A
331
1FD4
  5
1FD4
331
1F95
  5
1F95
331
200B
  5
200B
331
2052
  5
2052
331
1FDC
  5
1FDC
331
1256
  5
1256
331
1F9D
  5
1F9D
331
2013
  5
2013
331
20D6
  5
20D6
331
2097
  5
2097
331
2115
  5
2115
331
211D
  5
211D
331
209F
  5
209F
331
20DE
  5
20DE
331
20A7
  5
20A7
331
20E6
  5
20E6
331
20AF
  5
20AF
331
CBB
  5
CBB
331
201B
  5
201B
331
1FA5
  5
1FA5
331
1FE4
  5
1FE4
331
205A
  5
205A
331
2023
  5
2023
331
1FAD
  5
1FAD
331
2062
  5
2062
331
1FF4
  5
1FF4
331
1F7E
  5
1F7E
331
1FB5
  5
1FB5
331
206A
  5
206A
331
1FBD
  5
1FBD
331
2033
  5
2033
331
2070
  5
2070
331
2155
  5
2155
331
2078
  5
2078
331
20B7
  5
20B7
331
20EE
  5
20EE
331
20BF
  5
20BF
331
2080
  5
2080
331
20F6
  5
20F6
331
20C7
  5
20C7
331
2088
  5
2088
331
2106
  5
2106
331
210E
  5
210E
331
20CF
  5
20CF
331
203B
  5
203B
331
1FC5
  5
1FC5
331
1F86
  5
1F86
331
1FFC
  5
1FFC
331
2043
  5
2043
331
1F8E
  5
1F8E
331
2004
  5
2004
331
204B
  5
204B
331
1F96
  5
1F96
331
1FD5
  5
1FD5
331
200C
  5
200C
331
1FDD
  5
1FDD
331
1F9E
  5
1F9E
331
1257
  5
1257
331
2014
  5
2014
331
2053
  5
2053
331
2090
  5
2090
331
2116
  5
2116
331
2098
  5
2098
331
20D7
  5
20D7
331
20DF
  5
20DF
331
20A0
  5
20A0
331
211E
  5
211E
331
20E7
  5
20E7
331
20A8
  5
20A8
331
205B
  5
205B
331
1FE5
  5
1FE5
331
1FA6
  5
1FA6
331
201C
  5
201C
331
2063
  5
2063
331
1FAE
  5
1FAE
331
1FED
  5
1FED
331
2024
  5
2024
331
206B
  5
206B
331
1F7F
  5
1F7F
331
1FB6
  5
1FB6
331
1FF5
  5
1FF5
331
2034
  5
2034
331
1FBE
  5
1FBE
331
20B0
  5
20B0
331
2071
  5
2071
331
2156
  5
2156
331
20B8
  5
20B8
331
2079
  5
2079
331
20EF
  5
20EF
331
2081
  5
2081
331
20C0
  5
20C0
331
20F7
  5
20F7
331
2107
  5
2107
331
2089
  5
2089
331
20C8
  5
20C8
331
210F
  5
210F
331
D53
  5
D53
331
1FFD
  5
1FFD
331
1F87
  5
1F87
331
1FC6
  5
1FC6
331
203C
  5
203C
331
1F8F
  5
1F8F
331
2044
  5
2044
331
204C
  5
204C
331
1FD6
  5
1FD6
331
1F97
  5
1F97
331
200D
  5
200D
331
2054
  5
2054
331
1F9F
  5
1F9F
331
1FDE
  5
1FDE
331
2015
  5
2015
331
20D0
  5
20D0
331
2091
  5
2091
331
20D8
  5
20D8
331
2099
  5
2099
331
2117
  5
2117
331
211F
  5
211F
331
20A1
  5
20A1
331
20E0
  5
20E0
331
20A9
  5
20A9
331
C95
  5
C95
331
EE9
  5
EE9
331
201D
  5
201D
331
1FA7
  5
1FA7
331
1FE6
  5
1FE6
331
205C
  5
205C
331
1FEE
  5
1FEE
331
F19
  5
F19
331
1F78
  5
1F78
331
1FAF
  5
1FAF
331
2025
  5
2025
331
2064
  5
2064
331
206C
  5
206C
331
1FF6
  5
1FF6
331
E1B
  5
E1B
331
1FB7
  5
1FB7
331
1FBF
  5
1FBF
331
2035
  5
2035
331
2072
  5
2072
331
20B1
  5
20B1
331
20E8
  5
20E8
331
20F0
  5
20F0
331
207A
  5
207A
331
20B9
  5
20B9
331
2157
  5
2157
331
20C1
  5
20C1
331
2082
  5
2082
331
20C9
  5
20C9
331
208A
  5
208A
331
2108
  5
2108
331
1F80
  5
1F80
331
203D
  5
203D
331
1FC7
  5
1FC7
331
1F88
  5
1F88
331
1FFE
  5
1FFE
331
1F90
  5
1F90
331
2045
  5
2045
331
200E
  5
200E
331
1F98
  5
1F98
331
1FD7
  5
1FD7
331
204D
  5
204D
331
1FDF
  5
1FDF
331
2016
  5
2016
331
2055
  5
2055
331
2110
  5
2110
331
2092
  5
2092
331
20D1
  5
20D1
331
2118
  5
2118
331
209A
  5
209A
331
20D9
  5
20D9
331
20E1
  5
20E1
331
20A2
  5
20A2
331
2120
  5
2120
331
20AA
  5
20AA
331
D2D
  5
D2D
331
1FA0
  5
1FA0
331
205D
  5
205D
331
1FA8
  5
1FA8
331
201E
  5
201E
331
2065
  5
2065
331
1FB0
  5
1FB0
331
1F79
  5
1F79
331
1FEF
  5
1FEF
331
2026
  5
2026
331
202E
  5
202E
331
1FB8
  5
1FB8
331
1FF7
  5
1FF7
331
206D
  5
206D
331
2036
  5
2036
  0
LAYOUT
  5
22
102
{ACAD_XDICTIONARY
360
29EB
102
}
102
{ACAD_REACTORS
330
1A
102
}
330
1A
100
AcDbPlotSettings
  1

  2
\\RD\EPSON Stylus C63 Series單色
  4
A4
  6

 40
3.757083177566528
 41
3.757076978683471
 42
3.757080078125
 43
3.757080078125
 44
209.9733276367187
 45
296.9683227539062
 46
0.0
 47
0.0
 48
0.0
 49
0.0
140
0.0
141
0.0
142
1.0
143
0.3405120737814363
 70
 11952
 72
     1
 73
     0
 74
     0
  7
單色出圖.ctb
 75
     0
147
2.936753428137963
148
-2047.07469463503
149
-1261.649717473083
100
AcDbLayout
  1
Model
 70
     1
 71
     0
 10
0.0
 20
0.0
 11
12.0
 21
9.0
 12
0.0
 22
0.0
 32
0.0
 14
0.0
 24
0.0
 34
0.0
 15
0.0
 25
0.0
 35
0.0
146
0.0
 13
0.0
 23
0.0
 33
0.0
 16
1.0
 26
0.0
 36
0.0
 17
0.0
 27
1.0
 37
0.0
 76
     0
330
1F
1001
ACAD_PSEXT
1000
\\RD\EPSON Stylus C63 Series單色
1000
EPSON Stylus C63 Series
1000
\\RD
1000

1070
     0
  0
LAYOUT
  5
1E
102
{ACAD_XDICTIONARY
360
29E9
102
}
102
{ACAD_REACTORS
330
1A
102
}
330
1A
100
AcDbPlotSettings
  1

  2

  4

  6

 40
0.0
 41
0.0
 42
0.0
 43
0.0
 44
0.0
 45
0.0
 46
0.0
 47
0.0
 48
0.0
 49
0.0
140
0.0
141
0.0
142
1.0
143
1.0
 70
   688
 72
     0
 73
     0
 74
     5
  7
單色出圖.ctb
 75
    16
147
1.0
148
0.0
149
0.0
100
AcDbLayout
  1
配置1
 70
     1
 71
     1
 10
0.0
 20
0.0
 11
420.0
 21
297.0
 12
0.0
 22
0.0
 32
0.0
 14
1.000000000000000E+20
 24
1.000000000000000E+20
 34
1.000000000000000E+20
 15
-1.000000000000000E+20
 25
-1.000000000000000E+20
 35
-1.000000000000000E+20
146
0.0
 13
0.0
 23
0.0
 33
0.0
 16
1.0
 26
0.0
 36
0.0
 17
0.0
 27
1.0
 37
0.0
 76
     0
330
1B
  0
LAYOUT
  5
26
102
{ACAD_XDICTIONARY
360
29ED
102
}
102
{ACAD_REACTORS
330
1A
102
}
330
1A
100
AcDbPlotSettings
  1

  2

  4

  6

 40
0.0
 41
0.0
 42
0.0
 43
0.0
 44
0.0
 45
0.0
 46
0.0
 47
0.0
 48
0.0
 49
0.0
140
0.0
141
0.0
142
1.0
143
1.0
 70
   688
 72
     0
 73
     0
 74
     5
  7
單色出圖.ctb
 75
    16
147
1.0
148
0.0
149
0.0
100
AcDbLayout
  1
配置2
 70
     1
 71
     2
 10
0.0
 20
0.0
 11
12.0
 21
9.0
 12
0.0
 22
0.0
 32
0.0
 14
0.0
 24
0.0
 34
0.0
 15
0.0
 25
0.0
 35
0.0
146
0.0
 13
0.0
 23
0.0
 33
0.0
 16
1.0
 26
0.0
 36
0.0
 17
0.0
 27
1.0
 37
0.0
 76
     0
330
23
  0
MLINESTYLE
  5
18
102
{ACAD_REACTORS
330
17
102
}
330
17
100
AcDbMlineStyle
  2
STANDARD
 70
     0
  3

 62
   256
 51
90.0
 52
90.0
 71
     2
 49
0.5
 62
   256
  6
BYLAYER
 49
-0.5
 62
   256
  6
BYLAYER
  0
ACDBPLACEHOLDER
  5
F
102
{ACAD_REACTORS
330
E
102
}
330
E
  0
TABLESTYLE
  5
11B
102
{ACAD_REACTORS
330
11A
102
}
330
11A
100
AcDbTableStyle
  3
Standard
 70
     0
 71
     0
 40
1.5
 41
1.5
280
     0
281
     0
  7
STANDARD
140
4.5
170
     2
 62
     0
 63
     7
283
     0
274
    -2
284
     1
 64
     0
275
    -2
285
     1
 65
     0
276
    -2
286
     1
 66
     0
277
    -2
287
     1
 67
     0
278
    -2
288
     1
 68
     0
279
    -2
289
     1
 69
     0
  7
STANDARD
140
6.0
170
     5
 62
     0
 63
     7
283
     0
274
    -2
284
     1
 64
     0
275
    -2
285
     1
 65
     0
276
    -2
286
     1
 66
     0
277
    -2
287
     1
 67
     0
278
    -2
288
     1
 68
     0
279
    -2
289
     1
 69
     0
  7
STANDARD
140
4.5
170
     5
 62
     0
 63
     7
283
     0
274
    -2
284
     1
 64
     0
275
    -2
285
     1
 65
     0
276
    -2
286
     1
 66
     0
277
    -2
287
     1
 67
     0
278
    -2
288
     1
 68
     0
279
    -2
289
     1
 69
     0
  0
DICTIONARYVAR
  5
138
102
{ACAD_REACTORS
330
94
102
}
330
94
100
DictionaryVariables
280
     0
  1
STANDARD
  0
DICTIONARYVAR
  5
96
102
{ACAD_REACTORS
330
94
102
}
330
94
100
DictionaryVariables
280
     0
  1
2
  0
DICTIONARYVAR
  5
95
102
{ACAD_REACTORS
330
94
102
}
330
94
100
DictionaryVariables
280
     0
  1
0
  0
DICTIONARYVAR
  5
29E5
102
{ACAD_REACTORS
330
94
102
}
330
94
100
DictionaryVariables
280
     0
  1

  0
DICTIONARY
  5
1B5
102
{ACAD_REACTORS
330
5B
102
}
330
5B
100
AcDbDictionary
281
     1
  0
DICTIONARY
  5
61
102
{ACAD_REACTORS
330
5B
102
}
330
5B
100
AcDbDictionary
281
     1
  0
XRECORD
  5
123
102
{ACAD_REACTORS
330
5B
102
}
330
5B
100
AcDbXrecord
280
     1
 90
-1023410169
  0
DICTIONARY
  5
29EB
330
22
100
AcDbDictionary
280
     1
281
     1
  3
ACAD_XREC_ROUNDTRIP
360
29EC
  0
DICTIONARY
  5
29E9
330
1E
100
AcDbDictionary
280
     1
281
     1
  3
ACAD_XREC_ROUNDTRIP
360
29EA
  0
DICTIONARY
  5
29ED
330
26
100
AcDbDictionary
280
     1
281
     1
  3
ACAD_XREC_ROUNDTRIP
360
29EE
  0
XRECORD
  5
29EC
102
{ACAD_REACTORS
330
29EB
102
}
330
29EB
100
AcDbXrecord
280
     1
102
SHADEPLOT
 70
     0
102
SHADEPLOTRESLEVEL
 70
     2
102
SHADEPLOTCUSTOMDPI
 70
   300
  0
XRECORD
  5
29EA
102
{ACAD_REACTORS
330
29E9
102
}
330
29E9
100
AcDbXrecord
280
     1
102
SHADEPLOT
 70
     0
102
SHADEPLOTRESLEVEL
 70
     2
102
SHADEPLOTCUSTOMDPI
 70
   300
  0
XRECORD
  5
29EE
102
{ACAD_REACTORS
330
29ED
102
}
330
29ED
100
AcDbXrecord
280
     1
102
SHADEPLOT
 70
     0
102
SHADEPLOTRESLEVEL
 70
     2
102
SHADEPLOTCUSTOMDPI
 70
   300
  0
ENDSEC
  0
EOF
