  0
SECTION
  2
HEADER
  9
$ACADVER
  1
AC1015
  9
$ACADMAINTVER
 70
    20
  9
$DWGCODEPAGE
  3
ANSI_950
  9
$INSBASE
 10
0.0
 20
0.0
 30
0.0
  9
$EXTMIN
 10
2663.678489273867
 20
1254.521041227261
 30
-0.0040801056301234
  9
$EXTMAX
 10
2873.337253286657
 20
1519.751171661936
 30
185.2893706142434
  9
$LIMMIN
 10
0.0
 20
0.0
  9
$LIMMAX
 10
420.0
 20
297.0
  9
$ORTHOMODE
 70
     1
  9
$REGENMODE
 70
     1
  9
$FILLMODE
 70
     1
  9
$QTEXTMODE
 70
     0
  9
$MIRRTEXT
 70
     1
  9
$LTSCALE
 40
1.0
  9
$ATTMODE
 70
     1
  9
$TEXTSIZE
 40
3.0
  9
$TRACEWID
 40
1.0
  9
$TEXTSTYLE
  7
CHINESET
  9
$CLAYER
  8
0
  9
$CELTYPE
  6
ByLayer
  9
$CECOLOR
 62
   256
  9
$CELTSCALE
 40
1.0
  9
$DISPSILH
 70
     0
  9
$DIMSCALE
 40
1.0
  9
$DIMASZ
 40
3.0
  9
$DIMEXO
 40
1.0
  9
$DIMDLI
 40
7.0
  9
$DIMRND
 40
0.0
  9
$DIMDLE
 40
0.0
  9
$DIMEXE
 40
1.5
  9
$DIMTP
 40
0.1
  9
$DIMTM
 40
0.1
  9
$DIMTXT
 40
3.0
  9
$DIMCEN
 40
0.0
  9
$DIMTSZ
 40
0.0
  9
$DIMTOL
 70
     0
  9
$DIMLIM
 70
     0
  9
$DIMTIH
 70
     0
  9
$DIMTOH
 70
     0
  9
$DIMSE1
 70
     0
  9
$DIMSE2
 70
     0
  9
$DIMTAD
 70
     1
  9
$DIMZIN
 70
     8
  9
$DIMBLK
  1

  9
$DIMASO
 70
     1
  9
$DIMSHO
 70
     1
  9
$DIMPOST
  1

  9
$DIMAPOST
  1
"
  9
$DIMALT
 70
     0
  9
$DIMALTD
 70
     2
  9
$DIMALTF
 40
0.0393701
  9
$DIMLFAC
 40
1.0
  9
$DIMTOFL
 70
     1
  9
$DIMTVP
 40
0.0
  9
$DIMTIX
 70
     0
  9
$DIMSOXD
 70
     0
  9
$DIMSAH
 70
     0
  9
$DIMBLK1
  1

  9
$DIMBLK2
  1

  9
$DIMSTYLE
  2
AM_ISO
  9
$DIMCLRD
 70
   256
  9
$DIMCLRE
 70
   256
  9
$DIMCLRT
 70
   256
  9
$DIMTFAC
 40
0.71
  9
$DIMGAP
 40
1.0
  9
$DIMJUST
 70
     0
  9
$DIMSD1
 70
     0
  9
$DIMSD2
 70
     0
  9
$DIMTOLJ
 70
     0
  9
$DIMTZIN
 70
     8
  9
$DIMALTZ
 70
     0
  9
$DIMALTTZ
 70
     0
  9
$DIMUPT
 70
     0
  9
$DIMDEC
 70
     2
  9
$DIMTDEC
 70
     8
  9
$DIMALTU
 70
     2
  9
$DIMALTTD
 70
     2
  9
$DIMTXSTY
  7
STANDARD
  9
$DIMAUNIT
 70
     0
  9
$DIMADEC
 70
     0
  9
$DIMALTRND
 40
0.0
  9
$DIMAZIN
 70
     2
  9
$DIMDSEP
 70
    46
  9
$DIMATFIT
 70
     3
  9
$DIMFRAC
 70
     0
  9
$DIMLDRBLK
  1

  9
$DIMLUNIT
 70
     2
  9
$DIMLWD
 70
    -1
  9
$DIMLWE
 70
    -1
  9
$DIMTMOVE
 70
     0
  9
$LUNITS
 70
     2
  9
$LUPREC
 70
     2
  9
$SKETCHINC
 40
1.0
  9
$FILLETRAD
 40
2.5
  9
$AUNITS
 70
     0
  9
$AUPREC
 70
     0
  9
$MENU
  1
.
  9
$ELEVATION
 40
0.0
  9
$PELEVATION
 40
0.0
  9
$THICKNESS
 40
0.0
  9
$LIMCHECK
 70
     0
  9
$CHAMFERA
 40
2.5
  9
$CHAMFERB
 40
2.5
  9
$CHAMFERC
 40
20.0
  9
$CHAMFERD
 40
0.0
  9
$SKPOLY
 70
     0
  9
$TDCREATE
 40
2453696.549700336
  9
$TDUCREATE
 40
2453696.216367002
  9
$TDUPDATE
 40
2455314.565956725
  9
$TDUUPDATE
 40
2455314.232623391
  9
$TDINDWG
 40
0.0939569907
  9
$TDUSRTIMER
 40
0.0939569907
  9
$USRTIMER
 70
     1
  9
$ANGBASE
 50
0.0
  9
$ANGDIR
 70
     0
  9
$PDMODE
 70
     0
  9
$PDSIZE
 40
0.0
  9
$PLINEWID
 40
0.0
  9
$SPLFRAME
 70
     0
  9
$SPLINETYPE
 70
     6
  9
$SPLINESEGS
 70
     8
  9
$HANDSEED
  5
2CBF
  9
$SURFTAB1
 70
     6
  9
$SURFTAB2
 70
     6
  9
$SURFTYPE
 70
     6
  9
$SURFU
 70
     6
  9
$SURFV
 70
     6
  9
$UCSBASE
  2

  9
$UCSNAME
  2

  9
$UCSORG
 10
0.0
 20
0.0
 30
0.0
  9
$UCSXDIR
 10
1.0
 20
0.0
 30
0.0
  9
$UCSYDIR
 10
0.0
 20
1.0
 30
0.0
  9
$UCSORTHOREF
  2

  9
$UCSORTHOVIEW
 70
     0
  9
$UCSORGTOP
 10
0.0
 20
0.0
 30
0.0
  9
$UCSORGBOTTOM
 10
0.0
 20
0.0
 30
0.0
  9
$UCSORGLEFT
 10
0.0
 20
0.0
 30
0.0
  9
$UCSORGRIGHT
 10
0.0
 20
0.0
 30
0.0
  9
$UCSORGFRONT
 10
0.0
 20
0.0
 30
0.0
  9
$UCSORGBACK
 10
0.0
 20
0.0
 30
0.0
  9
$PUCSBASE
  2

  9
$PUCSNAME
  2

  9
$PUCSORG
 10
0.0
 20
0.0
 30
0.0
  9
$PUCSXDIR
 10
1.0
 20
0.0
 30
0.0
  9
$PUCSYDIR
 10
0.0
 20
1.0
 30
0.0
  9
$PUCSORTHOREF
  2

  9
$PUCSORTHOVIEW
 70
     0
  9
$PUCSORGTOP
 10
0.0
 20
0.0
 30
0.0
  9
$PUCSORGBOTTOM
 10
0.0
 20
0.0
 30
0.0
  9
$PUCSORGLEFT
 10
0.0
 20
0.0
 30
0.0
  9
$PUCSORGRIGHT
 10
0.0
 20
0.0
 30
0.0
  9
$PUCSORGFRONT
 10
0.0
 20
0.0
 30
0.0
  9
$PUCSORGBACK
 10
0.0
 20
0.0
 30
0.0
  9
$USERI1
 70
     0
  9
$USERI2
 70
     0
  9
$USERI3
 70
     0
  9
$USERI4
 70
     0
  9
$USERI5
 70
     0
  9
$USERR1
 40
0.0
  9
$USERR2
 40
0.0
  9
$USERR3
 40
0.0
  9
$USERR4
 40
0.0
  9
$USERR5
 40
0.0
  9
$WORLDVIEW
 70
     1
  9
$SHADEDGE
 70
     3
  9
$SHADEDIF
 70
    70
  9
$TILEMODE
 70
     1
  9
$MAXACTVP
 70
    64
  9
$PINSBASE
 10
0.0
 20
0.0
 30
0.0
  9
$PLIMCHECK
 70
     0
  9
$PEXTMIN
 10
1.000000000000000E+20
 20
1.000000000000000E+20
 30
1.000000000000000E+20
  9
$PEXTMAX
 10
-1.000000000000000E+20
 20
-1.000000000000000E+20
 30
-1.000000000000000E+20
  9
$PLIMMIN
 10
0.0
 20
0.0
  9
$PLIMMAX
 10
420.0
 20
297.0
  9
$UNITMODE
 70
     0
  9
$VISRETAIN
 70
     1
  9
$PLINEGEN
 70
     0
  9
$PSLTSCALE
 70
     1
  9
$TREEDEPTH
 70
  3020
  9
$CMLSTYLE
  2
Standard
  9
$CMLJUST
 70
     0
  9
$CMLSCALE
 40
20.0
  9
$PROXYGRAPHICS
 70
     1
  9
$MEASUREMENT
 70
     1
  9
$CELWEIGHT
370
    -1
  9
$ENDCAPS
280
     0
  9
$JOINSTYLE
280
     0
  9
$LWDISPLAY
290
     0
  9
$INSUNITS
 70
     4
  9
$HYPERLINKBASE
  1

  9
$STYLESHEET
  1
彩色出圖.ctb
  9
$XEDIT
290
     1
  9
$CEPSNTYPE
380
     0
  9
$PSTYLEMODE
290
     1
  9
$FINGERPRINTGUID
  2
{E56C8895-30D3-4116-AE32-4553F16A924E}
  9
$VERSIONGUID
  2
{AF681C2A-4EF5-4B9F-9C63-05CD1AF5896F}
  9
$EXTNAMES
290
     1
  9
$PSVPSCALE
 40
0.0
  9
$OLESTARTUP
290
     0
  0
ENDSEC
  0
SECTION
  2
CLASSES
  0
CLASS
  1
ACDBDICTIONARYWDFLT
  2
AcDbDictionaryWithDefault
  3
ObjectDBX Classes
 90
        0
280
     0
281
     0
  0
CLASS
  1
ACDBPLACEHOLDER
  2
AcDbPlaceHolder
  3
ObjectDBX Classes
 90
        0
280
     0
281
     0
  0
CLASS
  1
LAYOUT
  2
AcDbLayout
  3
ObjectDBX Classes
 90
        0
280
     0
281
     0
  0
CLASS
  1
ACME_DOCUMENT
  2
AcMeDbDoc
  3
AcMeServices
 90
        0
280
     0
281
     0
  0
CLASS
  1
AMGSETTINGSOBJ
  2
AmgSettingsObj
  3
"AcadM|Product Description: AutoCAD Mechanical 2000|Company: Autodesk"
 90
        0
280
     0
281
     0
  0
CLASS
  1
ACMESCOPE
  2
AcMeScope
  3
AcMeServices
 90
        0
280
     0
281
     0
  0
CLASS
  1
ACMECOMMANDHISTORY
  2
AcMeCommandHistory
  3
AcMeServices
 90
        0
280
     0
281
     0
  0
CLASS
  1
ACIMSYSVARMAN
  2
AcImSysVarManager
  3
AcMeServices
 90
        0
280
     0
281
     0
  0
CLASS
  1
ACIMREALSYSVAR
  2
AcImRealSysVar
  3
AcMeServices
 90
        0
280
     0
281
     0
  0
CLASS
  1
ACIMINTSYSVAR
  2
AcImIntSysVar
  3
AcMeServices
 90
        0
280
     0
281
     0
  0
CLASS
  1
ACMEDRAWINGMAN
  2
AcMeDrawingMan
  3
AcMeServices
 90
        0
280
     0
281
     0
  0
CLASS
  1
ACMEVIEW
  2
AcMeView
  3
AcMeServices
 90
        0
280
     0
281
     0
  0
CLASS
  1
ACDBENTITYCACHE
  2
AcMeEntityCache
  3
AcMeServices
 90
        0
280
     0
281
     0
  0
CLASS
  1
GSMANAGER
  2
AcMeGSManager
  3
AcMeServices
 90
        0
280
     0
281
     0
  0
CLASS
  1
AMDTINTERNALREACTOR
  2
AmdtInternalReactor
  3
AcMeServices
 90
        0
280
     0
281
     0
  0
CLASS
  1
ACMESTATEMGR
  2
AcMeStateMgr
  3
AcMeServices
 90
        0
280
     0
281
     0
  0
CLASS
  1
ACGREFMASTER
  2
AcGrefMaster
  3
AcAttribServices
 90
        0
280
     0
281
     0
  0
CLASS
  1
ACME_DATABASE
  2
AcMeDbDatabase
  3
AcMeServices
 90
        0
280
     0
281
     0
  0
CLASS
  1
ACRFINSADJUSTERMGR
  2
AcRfInsAdjusterMgr
  3
AcMeServices
 90
        0
280
     0
281
     0
  0
CLASS
  1
ACGREFACADMASTER
  2
AcGrefacadMaster
  3
AcGrefServices
 90
        0
280
     0
281
     0
  0
CLASS
  1
AMIMASTER
  2
AmiMaster
  3
AmiServices
 90
        0
280
     0
281
     0
  0
CLASS
  1
ACMDATADICTIONARY
  2
AcmDataDictionary
  3
"AcmSymBB|Product Description: AutoCAD Mechanical 2004 DX|Company: Autodesk"
 90
        0
280
     0
281
     0
  0
CLASS
  1
ACMDATAENTRYBLOCK
  2
AcmDataEntryBlock
  3
"AcmSymBB|Product Description: AutoCAD Mechanical 2004 DX|Company: Autodesk"
 90
        0
280
     0
281
     0
  0
CLASS
  1
ACIMSTRSYSVAR
  2
AcImStrSysVar
  3
AcMeServices
 90
        0
280
     0
281
     0
  0
CLASS
  1
ACMSTANDARDISO
  2
AcmStandardISO
  3
"Amdt_StdImp|Product Description: AutoCAD Mechanical 2004 DX|Company: Autodesk"
 90
        0
280
     0
281
     0
  0
CLASS
  1
AMGOBJPROPCFG
  2
AmgObjPropCfg
  3
"AmgLay|Product Description: AutoCAD Mechanical 2000|Company: Autodesk"
 90
        1
280
     0
281
     0
  0
CLASS
  1
AMDTEDGESTANDARDISO
  2
AmdtEdgeStdISO
  3
"Amdt_StdImp|Product Description: AutoCAD Mechanical 2004 DX|Company: Autodesk"
 90
    32768
280
     0
281
     0
  0
CLASS
  1
ACMSURFSTANDARDISO
  2
AcmSurfTextStdISO
  3
"Amdt_StdImp|Product Description: AutoCAD Mechanical 2004 DX|Company: Autodesk"
 90
        0
280
     0
281
     0
  0
CLASS
  1
ACMFCFSTANDARDISO
  2
AcmFCFStdISO
  3
"Amdt_StdImp|Product Description: AutoCAD Mechanical 2004 DX|Company: Autodesk"
 90
        0
280
     0
281
     0
  0
CLASS
  1
ACMWELDSTANDARDISO
  2
AcmWeldingStdISO
  3
"Amdt_StdImp|Product Description: AutoCAD Mechanical 2004 DX|Company: Autodesk"
 90
        0
280
     0
281
     0
  0
CLASS
  1
ACMIDSTANDARDISO
  2
AcmIdStdISO
  3
"Amdt_StdImp|Product Description: AutoCAD Mechanical 2004 DX|Company: Autodesk"
 90
        0
280
     0
281
     0
  0
CLASS
  1
ACMDATUMSTANDARDISO
  2
AcmDatumStdISO
  3
"Amdt_StdImp|Product Description: AutoCAD Mechanical 2004 DX|Company: Autodesk"
 90
        0
280
     0
281
     0
  0
CLASS
  1
ACMBOMSTANDARDISO
  2
AcmBOMStdISO
  3
"Amdt_StdImp|Product Description: AutoCAD Mechanical 2004 DX|Company: Autodesk"
 90
        0
280
     0
281
     0
  0
CLASS
  1
ACMDETAILSTANDARDISO
  2
AmdtDetailSymStdISO
  3
"Amdt_StdImp|Product Description: AutoCAD Mechanical 2004 DX|Company: Autodesk"
 90
        0
280
     0
281
     0
  0
CLASS
  1
ACMSECTIONSTANDARDISO
  2
AmdtSectionSymStdISO
  3
"Amdt_StdImp|Product Description: AutoCAD Mechanical 2004 DX|Company: Autodesk"
 90
        0
280
     0
281
     0
  0
CLASS
  1
ACMCENTERLINESTANDARDISO
  2
AmdtCenterLineStdISO
  3
"Amdt_StdImp|Product Description: AutoCAD Mechanical 2004 DX|Company: Autodesk"
 90
        0
280
     0
281
     0
  0
CLASS
  1
ACMNOTESTANDARDISO
  2
AmdtNoteStdISO
  3
"Amdt_StdImp|Product Description: AutoCAD Mechanical 2004 DX|Company: Autodesk"
 90
        0
280
     0
281
     0
  0
CLASS
  1
ACAMGLAYSTD
  2
AcAmgLayStd
  3
"AcAmgLayStd|Product Description: AutoCAD Mechanical 2000|Company: Autodesk"
 90
        0
280
     0
281
     0
  0
CLASS
  1
ACAMGDIMSTD
  2
AcAmgDimStd
  3
"AcAmgDimStd|Product Description: AutoCAD Mechanical 2000|Company: Autodesk"
 90
        0
280
     0
281
     0
  0
CLASS
  1
ACAMGHOLECHARTSTDISO
  2
AcAmgHoleChartStdISO
  3
ACMSYMBB_MODULE_NAME
 90
        0
280
     0
281
     0
  0
CLASS
  1
ACAMGTITLESTD
  2
AcAmgTitleStd
  3
"TITLEAPP"
 90
        0
280
     0
281
     0
  0
CLASS
  1
LAYER_INDEX
  2
AcDbLayerIndex
  3
ObjectDBX Classes
 90
        0
280
     0
281
     0
  0
CLASS
  1
IDBUFFER
  2
AcDbIdBuffer
  3
ObjectDBX Classes
 90
        0
280
     0
281
     0
  0
CLASS
  1
DICTIONARYVAR
  2
AcDbDictionaryVar
  3
ObjectDBX Classes
 90
        0
280
     0
281
     0
  0
CLASS
  1
AM_DRAWING_MGR
  2
AcDmDwgMgr
  3
AcMechDwgViewMgmt
 90
        0
280
     0
281
     0
  0
CLASS
  1
AM_DWG_DOCUMENT
  2
AcDmDwgDocument
  3
AcMechDwgViewMgmt
 90
        0
280
     0
281
     0
  0
CLASS
  1
AM_DWG_SHEET
  2
AcDmSheet
  3
AcMechDwgViewMgmt
 90
        0
280
     0
281
     0
  0
CLASS
  1
AM_VIEWDIMPARMAP
  2
AcDmViewDimParMap
  3
AcMechDwgViewMgmt
 90
        0
280
     0
281
     0
  0
CLASS
  1
AM_DWGMGR_NAME
  2
AcDmDwgMgrName
  3
AcMechDwgViewMgmt
 90
        0
280
     0
281
     0
  0
CLASS
  1
AMDTMENUSTATEMGR
  2
AmdtMenuStateMgr
  3
McadcomServices
 90
        0
280
     0
281
     0
  0
CLASS
  1
AMDTMCOMMENUSTATE
  2
AmdtMcomMenuState
  3
McadcomServices
 90
        0
280
     0
281
     0
  0
CLASS
  1
MAPIAMMOUDLE
  2
MApiAmModule
  3
MApiAmServices
 90
        0
280
     0
281
     0
  0
CLASS
  1
AMDTADMENUSTATE
  2
AmdtAdMenuState
  3
DesignerServices
 90
        0
280
     0
281
     0
  0
CLASS
  1
ADAPPL
  2
AcAdAppl
  3
DesignerServices
 90
        0
280
     0
281
     0
  0
CLASS
  1
DEPMGR
  2
AcAdDepMgr
  3
DesignerServices
 90
        0
280
     0
281
     0
  0
CLASS
  1
PARAMMGR
  2
AcAdParamMgr
  3
DesignerServices
 90
        0
280
     0
281
     0
  0
CLASS
  1
PARAMSCOPE
  2
AcAdParamScope
  3
DesignerServices
 90
        0
280
     0
281
     0
  0
CLASS
  1
NAMEDAPPL
  2
AcAdNamedAppl
  3
DesignerServices
 90
        0
280
     0
281
     0
  0
CLASS
  1
AMDTDMMENUSTATE
  2
AmdtDmMenuState
  3
AcMechDwgViewMgmt
 90
        0
280
     0
281
     0
  0
CLASS
  1
AMDTAMMENUSTATE
  2
AmdtAmMenuState
  3
DesignerAssemblies
 90
        0
280
     0
281
     0
  0
CLASS
  1
ACAMPROJECT
  2
AcAmProject
  3
DesignerAssemblies
 90
        0
280
     0
281
     0
  0
CLASS
  1
ACAMGRCOMPDEF
  2
AcAmGrCompDef
  3
DesignerAssemblies
 90
        0
280
     0
281
     0
  0
CLASS
  1
ACCMCONTEXT
  2
AcCmContext
  3
DesignerAssemblies
 90
        0
280
     0
281
     0
  0
CLASS
  1
ACAMCOMPDEF
  2
AcAmCompDef
  3
DesignerAssemblies
 90
        0
280
     0
281
     0
  0
CLASS
  1
ACAMCOMPDEFMGR
  2
AcAmCompDefMgr
  3
DesignerAssemblies
 90
        0
280
     0
281
     0
  0
CLASS
  1
AMCONTEXTMGR
  2
AcAmContextMgr
  3
DesignerAssemblies
 90
        0
280
     0
281
     0
  0
CLASS
  1
ACAMCONTEXTMODELER
  2
AcAmContextModeler
  3
DesignerAssemblies
 90
        0
280
     0
281
     0
  0
CLASS
  1
ACMTHREADLINESTANDARDISO
  2
AmdtThreadLineStdISO
  3
"Amdt_StdImp|Product Description: AutoCAD Mechanical 2004 DX|Company: Autodesk"
 90
        0
280
     0
281
     0
  0
CLASS
  1
CATALOGSTATE
  2
AcAmCatalogState
  3
DesignerAssemblies
 90
        0
280
     0
281
     0
  0
CLASS
  1
ACAMGRCOMPDEFSET
  2
AcAmGrCompDefSet
  3
DesignerAssemblies
 90
        0
280
     0
281
     0
  0
CLASS
  1
AMDTBROWSERDBTAB
  2
AmdtBrowserDbTab
  3
McadcomServices
 90
        0
280
     0
281
     0
  0
CLASS
  1
CBROWSERAPPOBJECT
  2
CBrowserAppObject
  3
McadcomServices
 90
        0
280
     0
281
     0
  0
CLASS
  1
DM_PLACEHOLDER
  2
AcDmSelsetPlaceholder
  3
AcMechDwgViewMgmt
 90
        0
280
     0
281
     0
  0
CLASS
  1
TABLESTYLE
  2
AcDbTableStyle
  3
ObjectDBX Classes
 90
     2047
280
     0
281
     0
  0
CLASS
  1
VAACXREFPANELOBJECT
  2
VaAcXREFPanelObject
  3
VAAC_ADDIN
 90
    32768
280
     0
281
     0
  0
CLASS
  1
VAACIMAGEINVENTORY
  2
VaAcImageInventory
  3
VAAC_ADDIN
 90
    32768
280
     0
281
     0
  0
CLASS
  1
AMDTNOTETEMPLATEDB
  2
AmdtNoteTemplateDB
  3
AMDT_STDIMP_MODULE_NAME
 90
        0
280
     0
281
     0
  0
CLASS
  1
ACMBOM
  2
AcmBom
  3
"AcmSymBB|Product Description: AutoCAD Mechanical 2004 DX|Company: Autodesk"
 90
    32768
280
     0
281
     0
  0
CLASS
  1
AMDTFORMULAUPDATEDISPATCHER
  2
AmdtFormulaUpdateDispatcher
  3
AcMeServices
 90
    32768
280
     0
281
     0
  0
CLASS
  1
ACMPARTLIST
  2
AcmPartList
  3
"AcmSymBB|Product Description: AutoCAD Mechanical 2004 DX|Company: Autodesk"
 90
    33791
280
     0
281
     1
  0
CLASS
  1
ACAMGFILTERDAT
  2
AcAmgFilterDat
  3
"AcadM|Product Description: AutoCAD Mechanical 2000|Company: Autodesk"
 90
    32768
280
     0
281
     0
  0
CLASS
  1
DIMASSOC
  2
AcDbDimAssoc
  3
"AcDbDimAssoc|Product Desc:     AcDim ARX App For Dimension|Company:          Autodesk, Inc.|WEB Address:      www.autodesk.com"
 90
        0
280
     0
281
     0
  0
CLASS
  1
STDPART2D
  2
AmgStdPart
  3
"AmgStdPart|Product Description: AutoCAD Mechanical 2000|Company: Autodesk"
 90
    33791
280
     0
281
     1
  0
CLASS
  1
ACAMSTDPCOMPDEF
  2
AcAmStdpCompDef
  3
DesignerAssemblies
 90
    32768
280
     0
281
     0
  0
CLASS
  1
ACRFATTGENMGR
  2
AcRfAttGeneralMgr
  3
AcAttribServices
 90
        0
280
     0
281
     0
  0
CLASS
  1
ACRFOBJATTMGR
  2
AcRfObjAttGroupMgr
  3
AcAttribServices
 90
    32768
280
     0
281
     0
  0
CLASS
  1
ACRFMCADAPIATTHOLDER
  2
AcRfMCADAPIAttHolder
  3
AcAttribServices
 90
    32768
280
     0
281
     0
  0
CLASS
  1
AMDTSYSATTR
  2
AmdtSystemAttribute
  3
AcAttribServices
 90
    32768
280
     0
281
     0
  0
CLASS
  1
ACAMCOMP
  2
AcAmComp
  3
DesignerAssemblies
 90
    32768
280
     0
281
     0
  0
CLASS
  1
AC_AM_STDP_VIEW_DEF
  2
AcAmStdpViewDef
  3
DesignerAssemblies
 90
    32768
280
     0
281
     0
  0
CLASS
  1
AC_AM_MVD_DEP_MGR
  2
AcAmMVDdepMgr
  3
DesignerAssemblies
 90
    32768
280
     0
281
     0
  0
CLASS
  1
AC_AM_MASTER_VIEW_DEF
  2
AcAmMasterViewDef
  3
DesignerAssemblies
 90
    32768
280
     0
281
     0
  0
CLASS
  1
AC_AM_DIRTY_NODES
  2
AcAmDirtyNodes
  3
DesignerAssemblies
 90
    32768
280
     0
281
     0
  0
CLASS
  1
AC_AM_MAPPER_CACHE
  2
AcAmMapperCache
  3
DesignerAssemblies
 90
    32768
280
     0
281
     0
  0
CLASS
  1
ACAMMVDBACKUPOBJECT
  2
AcAmMVDBackupObject
  3
DesignerAssemblies
 90
    32768
280
     0
281
     0
  0
CLASS
  1
AC_AM_COMP_VIEW_INST
  2
AcAmCompView
  3
DesignerAssemblies
 90
    32768
280
     0
281
     0
  0
CLASS
  1
AC_AM_2D_XREF_MGR
  2
AcAmXrefMgr2d
  3
DesignerAssemblies
 90
    32768
280
     0
281
     0
  0
CLASS
  1
SORTENTSTABLE
  2
AcDbSortentsTable
  3
ObjectDBX Classes
 90
        0
280
     0
281
     0
  0
CLASS
  1
AMDTNOTE
  2
AmdtNote
  3
"AcmSymBB|Product Description: AutoCAD Mechanical 2004 DX|Company: Autodesk"
 90
    33791
280
     0
281
     1
  0
CLASS
  1
ASAPP
  2
AcAsAppObject
  3
AutoSurfServices
 90
        0
280
     0
281
     0
  0
CLASS
  1
IM_STATIC_MAN
  2
AcImStaticVarManager
  3
AcMeServices
 90
        0
280
     0
281
     0
  0
CLASS
  1
ACIMDBLSTATICVAR
  2
AcImDblStaticVar
  3
AcMeServices
 90
        0
280
     0
281
     0
  0
CLASS
  1
ACIMSTRSTATICVAR
  2
AcImStrStaticVar
  3
AcMeServices
 90
        0
280
     0
281
     0
  0
CLASS
  1
ACIMINTSTATICVAR
  2
AcImIntStaticVar
  3
AcMeServices
 90
        0
280
     0
281
     0
  0
CLASS
  1
ACASGREFMASTER
  2
AcAsGrefMaster
  3
AutoSurfResolverServices
 90
        0
280
     0
281
     0
  0
CLASS
  1
ACADGREFMODULE
  2
AcAdGrefModule
  3
AdGrefServices
 90
        0
280
     0
281
     0
  0
CLASS
  1
AMDTMAPISURFMOUDULE
  2
AmdtMApiSurfModule
  3
MApiSurfServices
 90
        0
280
     0
281
     0
  0
CLASS
  1
MAPIADMODULE
  2
MApiAdModule
  3
MApiAdServices
 90
        0
280
     0
281
     0
  0
CLASS
  1
AMDTEDGESTANDARDISO13715
  2
AmdtEdgeStdISO13715
  3
"Amdt_StdImp|Product Description: AutoCAD Mechanical 2004 DX|Company: Autodesk"
 90
        0
280
     0
281
     0
  0
ENDSEC
  0
SECTION
  2
TABLES
  0
TABLE
  2
VPORT
  5
8
330
0
100
AcDbSymbolTable
 70
    64
  0
VPORT
  5
2CB6
330
8
100
AcDbSymbolTableRecord
100
AcDbViewportTableRecord
  2
*Active
 70
     0
 10
0.0
 20
0.0
 11
1.0
 21
1.0
 12
531.7602234388678
 22
-120.865006451308
 13
0.0
 23
0.0
 14
2.5
 24
2.5
 15
10.0
 25
10.0
 16
0.0
 26
0.0
 36
1.0
 17
2234.566869049115
 27
1509.058360902676
 37
0.0
 40
300.3887899536436
 41
0.9105263157894738
 42
50.0
 43
0.0
 44
0.0
 50
0.0
 51
0.0
 71
     0
 72
   100
 73
     1
 74
     3
 75
     0
 76
     0
 77
     0
 78
     0
281
     0
 65
     0
110
0.0
120
0.0
130
0.0
111
1.0
121
0.0
131
0.0
112
0.0
122
1.0
132
0.0
 79
     0
146
0.0
  0
ENDTAB
  0
TABLE
  2
LTYPE
  5
5
330
0
100
AcDbSymbolTable
 70
    17
  0
LTYPE
  5
14
330
5
100
AcDbSymbolTableRecord
100
AcDbLinetypeTableRecord
  2
ByBlock
 70
     0
  3

 72
    65
 73
     0
 40
0.0
  0
LTYPE
  5
15
330
5
100
AcDbSymbolTableRecord
100
AcDbLinetypeTableRecord
  2
ByLayer
 70
     0
  3

 72
    65
 73
     0
 40
0.0
  0
LTYPE
  5
16
330
5
100
AcDbSymbolTableRecord
100
AcDbLinetypeTableRecord
  2
Continuous
 70
     0
  3
Solid line
 72
    65
 73
     0
 40
0.0
  0
LTYPE
  5
64
330
5
100
AcDbSymbolTableRecord
100
AcDbLinetypeTableRecord
  2
AM_ISO02W050
 70
     0
  3
__ __ __ __ __ __ __ __ __ __ __ __ __ __ __
 72
    65
 73
     2
 40
7.5
 49
6.0
 74
     0
 49
-1.5
 74
     0
  0
LTYPE
  5
65
330
5
100
AcDbSymbolTableRecord
100
AcDbLinetypeTableRecord
  2
AM_ISO08W050
 70
     0
  3
____ . ____ . ____ . ____ . ____ . ____ . ____
 72
    65
 73
     4
 40
18.0
 49
12.0
 74
     0
 49
-1.5
 74
     0
 49
3.0
 74
     0
 49
-1.5
 74
     0
  0
LTYPE
  5
66
330
5
100
AcDbSymbolTableRecord
100
AcDbLinetypeTableRecord
  2
AM_ISO09W050
 70
     0
  3
_____ . . _____ . . _____ . . ____ .. ____
 72
    65
 73
     6
 40
22.5
 49
12.0
 74
     0
 49
-1.5
 74
     0
 49
3.0
 74
     0
 49
-1.5
 74
     0
 49
3.0
 74
     0
 49
-1.5
 74
     0
  0
LTYPE
  5
67
330
5
100
AcDbSymbolTableRecord
100
AcDbLinetypeTableRecord
  2
Amconstr
 70
     0
  3
_______________________
 72
    65
 73
     2
 40
9999.0
 49
9999.0
 74
     0
 49
0.0
 74
     0
  0
LTYPE
  5
68
330
5
100
AcDbSymbolTableRecord
100
AcDbLinetypeTableRecord
  2
AM_ISO08W050x2
 70
     0
  3
__ . __ . __ . __ . __ . __
 72
    65
 73
     4
 40
9.0
 49
6.0
 74
     0
 49
-0.75
 74
     0
 49
1.5
 74
     0
 49
-0.75
 74
     0
  0
LTYPE
  5
69
330
5
100
AcDbSymbolTableRecord
100
AcDbLinetypeTableRecord
  2
AM_ISO02W050x2
 70
     0
  3
 _ _ _ _ _ _ _ _ _ _ _ _
 72
    65
 73
     2
 40
3.75
 49
3.0
 74
     0
 49
-0.75
 74
     0
  0
LTYPE
  5
6C
330
5
100
AcDbSymbolTableRecord
100
AcDbLinetypeTableRecord
  2
Amzigzag
 70
     0
  3
/\/-/\/-/\/-/\/-/\/-/\/
 72
    65
 73
     2
 40
11.0001
 49
0.0001
 74
     4
 75
   135
340
6B
 46
0.04
 50
0.0
 44
0.0
 45
0.0
 49
-11.0
 74
     0
  0
LTYPE
  5
7A
330
5
100
AcDbSymbolTableRecord
100
AcDbLinetypeTableRecord
  2
ACISOWELD
 70
     0
  3
_ _ _ _ _
 72
    65
 73
     2
 40
2.0
 49
2.0
 74
     0
 49
-1.0
 74
     0
  0
LTYPE
  5
7B
330
5
100
AcDbSymbolTableRecord
100
AcDbLinetypeTableRecord
  2
ACISOTGB
 70
     0
  3
__ . . __ . .
 72
    65
 73
     6
 40
9.0
 49
4.0
 74
     0
 49
-1.0
 74
     0
 49
1.0
 74
     0
 49
-1.0
 74
     0
 49
1.0
 74
     0
 49
-1.0
 74
     0
  0
LTYPE
  5
7C
330
5
100
AcDbSymbolTableRecord
100
AcDbLinetypeTableRecord
  2
ACISOTGL
 70
     0
  3
_ _ _ _ _
 72
    65
 73
     2
 40
3.0
 49
2.0
 74
     0
 49
-1.0
 74
     0
  0
LTYPE
  5
7E
330
5
100
AcDbSymbolTableRecord
100
AcDbLinetypeTableRecord
  2
CENTER
 70
     0
  3
__ . __
 72
    65
 73
     4
 40
7.0
 49
4.0
 74
     0
 49
-1.0
 74
     0
 49
1.0
 74
     0
 49
-1.0
 74
     0
  0
LTYPE
  5
D8
330
5
100
AcDbSymbolTableRecord
100
AcDbLinetypeTableRecord
  2
HIDDEN
 70
     0
  3
Hidden __ __ __ __ __ __ __ __ __ __ __ __ __ _
 72
    65
 73
     2
 40
9.524999999999998
 49
6.349999999999999
 74
     0
 49
-3.174999999999999
 74
     0
  0
LTYPE
  5
D9
330
5
100
AcDbSymbolTableRecord
100
AcDbLinetypeTableRecord
  2
PHANTOM2
 70
     0
  3
Phantom (.5x) ___ _ _ ___ _ _ ___ _ _ ___ _ _
 72
    65
 73
     6
 40
31.75
 49
15.875
 74
     0
 49
-3.174999999999999
 74
     0
 49
3.174999999999999
 74
     0
 49
-3.174999999999999
 74
     0
 49
3.174999999999999
 74
     0
 49
-3.174999999999999
 74
     0
  0
ENDTAB
  0
TABLE
  2
LAYER
  5
2
102
{ACAD_XDICTIONARY
360
3F9
102
}
330
0
100
AcDbSymbolTable
 70
     9
  0
LAYER
  5
10
330
2
100
AcDbSymbolTableRecord
100
AcDbLayerTableRecord
  2
0
 70
     0
 62
     7
  6
Continuous
370
    -3
390
F
  0
LAYER
  5
206
330
2
100
AcDbSymbolTableRecord
100
AcDbLayerTableRecord
  2
Defpoints
 70
     0
 62
     7
  6
Continuous
290
     0
370
    -3
390
F
  0
LAYER
  5
5AE
330
2
100
AcDbSymbolTableRecord
100
AcDbLayerTableRecord
  2
AM_7
 70
     0
 62
     1
  6
CENTER
370
    25
390
F
  0
LAYER
  5
764
330
2
100
AcDbSymbolTableRecord
100
AcDbLayerTableRecord
  2
AM_VIS
 70
     0
 62
     7
  6
Continuous
370
    50
390
F
  0
LAYER
  5
765
330
2
100
AcDbSymbolTableRecord
100
AcDbLayerTableRecord
  2
AM_4
 70
     0
 62
     3
  6
Continuous
370
    25
390
F
  0
LAYER
  5
AD4
330
2
100
AcDbSymbolTableRecord
100
AcDbLayerTableRecord
  2
AM_5
 70
     0
 62
     5
  6
Continuous
370
    50
390
F
  0
LAYER
  5
1268
330
2
100
AcDbSymbolTableRecord
100
AcDbLayerTableRecord
  2
LOGO
 70
     0
 62
     7
  6
Continuous
370
    -3
390
F
  0
LAYER
  5
20CB
330
2
100
AcDbSymbolTableRecord
100
AcDbLayerTableRecord
  2
AM_REFDIM
 70
     0
 62
     4
  6
Continuous
370
    25
390
F
  0
ENDTAB
  0
TABLE
  2
STYLE
  5
3
330
0
100
AcDbSymbolTable
 70
     5
  0
STYLE
  5
11
330
3
100
AcDbSymbolTableRecord
100
AcDbTextStyleTableRecord
  2
STANDARD
 70
     0
 40
0.0
 41
1.0
 50
0.0
 71
     0
 42
3.0
  3
ISOCP.SHX
  4
CHINESET.SHX
  0
STYLE
  5
6B
330
3
100
AcDbSymbolTableRecord
100
AcDbTextStyleTableRecord
  2

 70
     1
 40
0.0
 41
1.0
 50
0.0
 71
     0
 42
2.5
  3
ltypeshp.shx
  4

  0
STYLE
  5
6D
330
3
100
AcDbSymbolTableRecord
100
AcDbTextStyleTableRecord
  2
ACISOTS
 70
     0
 40
1.0
 41
1.0
 50
0.0
 71
     0
 42
1.0
  3
isocp.shx
  4
chineset.shx
  0
STYLE
  5
79
330
3
100
AcDbSymbolTableRecord
100
AcDbTextStyleTableRecord
  2
ACISOGDT
 70
     0
 40
0.0
 41
1.0
 50
0.0
 71
     0
 42
2.5
  3
amgdt.shx
  4
chineset.shx
  0
STYLE
  5
60C
330
3
100
AcDbSymbolTableRecord
100
AcDbTextStyleTableRecord
  2
CHINESET
 70
     0
 40
0.0
 41
1.0
 50
0.0
 71
     0
 42
3.0
  3
simplex.shx
  4
CHINESET.SHX
  0
ENDTAB
  0
TABLE
  2
VIEW
  5
6
330
0
100
AcDbSymbolTable
 70
     0
  0
ENDTAB
  0
TABLE
  2
UCS
  5
7
330
0
100
AcDbSymbolTable
 70
     0
  0
ENDTAB
  0
TABLE
  2
APPID
  5
9
330
0
100
AcDbSymbolTable
 70
    29
  0
APPID
  5
12
330
9
100
AcDbSymbolTableRecord
100
AcDbRegAppTableRecord
  2
ACAD
 70
     0
  0
APPID
  5
46
330
9
100
AcDbSymbolTableRecord
100
AcDbRegAppTableRecord
  2
MCAD_NO_VIS
 70
     0
  0
APPID
  5
47
330
9
100
AcDbSymbolTableRecord
100
AcDbRegAppTableRecord
  2
ACAD_TEMP_GRAPHIC
 70
     0
  0
APPID
  5
58
330
9
100
AcDbSymbolTableRecord
100
AcDbRegAppTableRecord
  2
ACATTRIBSERVICES
 70
     0
  0
APPID
  5
EE
330
9
100
AcDbSymbolTableRecord
100
AcDbRegAppTableRecord
  2
AD_DRAW
 70
     0
  0
APPID
  5
10C
330
9
100
AcDbSymbolTableRecord
100
AcDbRegAppTableRecord
  2
DESIGNERASSEMBLIES
 70
     0
  0
APPID
  5
111
330
9
100
AcDbSymbolTableRecord
100
AcDbRegAppTableRecord
  2
ACADM_DIM_EDIT
 70
     0
  0
APPID
  5
112
330
9
100
AcDbSymbolTableRecord
100
AcDbRegAppTableRecord
  2
AMDT_DM_ADJ
 70
     0
  0
APPID
  5
22C
330
9
100
AcDbSymbolTableRecord
100
AcDbRegAppTableRecord
  2
ACAD_DSTYLE_DIMTEXT_FILL
 70
     0
  0
APPID
  5
452
330
9
100
AcDbSymbolTableRecord
100
AcDbRegAppTableRecord
  2
GENIUS_GENOENT_13
 70
     0
  0
APPID
  5
453
330
9
100
AcDbSymbolTableRecord
100
AcDbRegAppTableRecord
  2
GENIUS_GENOBJ-N-CRS_13
 70
     0
  0
APPID
  5
454
330
9
100
AcDbSymbolTableRecord
100
AcDbRegAppTableRecord
  2
GENIUS_GENOLIS_13
 70
     0
  0
APPID
  5
455
330
9
100
AcDbSymbolTableRecord
100
AcDbRegAppTableRecord
  2
GENIUS_GENODEF_13
 70
     0
  0
APPID
  5
456
330
9
100
AcDbSymbolTableRecord
100
AcDbRegAppTableRecord
  2
GENIUS_GENOREF_13
 70
     0
  0
APPID
  5
6F3
330
9
100
AcDbSymbolTableRecord
100
AcDbRegAppTableRecord
  2
ACAD_PSEXT
 70
     0
  0
APPID
  5
B79
330
9
100
AcDbSymbolTableRecord
100
AcDbRegAppTableRecord
  2
GEVID1132550052
 70
     0
  0
APPID
  5
B7A
330
9
100
AcDbSymbolTableRecord
100
AcDbRegAppTableRecord
  2
GEVDC
 70
     0
  0
APPID
  5
B7B
330
9
100
AcDbSymbolTableRecord
100
AcDbRegAppTableRecord
  2
GEVRADREF
 70
     0
  0
APPID
  5
B84
330
9
100
AcDbSymbolTableRecord
100
AcDbRegAppTableRecord
  2
AMG_2DHIDE
 70
     0
  0
APPID
  5
B85
330
9
100
AcDbSymbolTableRecord
100
AcDbRegAppTableRecord
  2
AMG_2DSTRUCT_BTR
 70
     0
  0
APPID
  5
B96
330
9
100
AcDbSymbolTableRecord
100
AcDbRegAppTableRecord
  2
ACADM_2DVIEW_IGN_NOTIFY
 70
     0
  0
APPID
  5
F35
330
9
100
AcDbSymbolTableRecord
100
AcDbRegAppTableRecord
  2
GENIUS_GENDIMSH_14
 70
     0
  0
APPID
  5
1269
330
9
100
AcDbSymbolTableRecord
100
AcDbRegAppTableRecord
  2
GENIUS_GENREC_14
 70
     0
  0
APPID
  5
126A
330
9
100
AcDbSymbolTableRecord
100
AcDbRegAppTableRecord
  2
GENIUS_GENOBJ-N-REC_13
 70
     0
  0
APPID
  5
1E99
330
9
100
AcDbSymbolTableRecord
100
AcDbRegAppTableRecord
  2
GENIUS_GENDIM_13
 70
     0
  0
APPID
  5
1E9A
330
9
100
AcDbSymbolTableRecord
100
AcDbRegAppTableRecord
  2
GENIUS_GENDTOL_13
 70
     0
  0
APPID
  5
1E9B
330
9
100
AcDbSymbolTableRecord
100
AcDbRegAppTableRecord
  2
GENIUS_GE3DTOL_13
 70
     0
  0
APPID
  5
1F1B
330
9
100
AcDbSymbolTableRecord
100
AcDbRegAppTableRecord
  2
ASURF_PCURVE_APPNAME
 70
     0
  0
APPID
  5
1F20
330
9
100
AcDbSymbolTableRecord
100
AcDbRegAppTableRecord
  2
AMG_3D2D_5.0
 70
     0
  0
ENDTAB
  0
TABLE
  2
DIMSTYLE
  5
A
330
0
100
AcDbSymbolTable
 70
    14
100
AcDbDimStyleTable
 71
     4
340
20CD
340
81
340
8B
340
86
  0
DIMSTYLE
105
81
330
A
100
AcDbSymbolTableRecord
100
AcDbDimStyleTableRecord
  2
AM_ISO
 70
     0
  4
"
 41
3.0
 42
1.0
 43
7.0
 44
1.5
 47
0.1
 48
0.1
 73
     0
 74
     0
 77
     1
 78
     8
 79
     2
140
3.0
141
0.0
143
0.0393701
146
0.71
147
1.0
172
     1
176
   256
177
   256
178
   256
271
     2
272
     2
283
     0
284
     8
340
11
371
    -1
372
    -1
  0
DIMSTYLE
105
82
102
{ACAD_REACTORS
330
273F
330
277C
330
27D3
330
281D
330
2898
102
}
330
A
100
AcDbSymbolTableRecord
100
AcDbDimStyleTableRecord
  2
AM_ISO$3
 70
     0
  4
"
 41
3.0
 42
1.0
 43
7.0
 44
1.5
 47
0.1
 48
0.1
 73
     0
 77
     1
 78
     8
 79
     2
140
3.0
141
0.0
143
0.0393701
146
0.71
147
1.0
176
   256
177
   256
178
   256
271
     2
272
     2
283
     0
284
     8
288
     1
289
     0
340
11
371
    -1
372
    -1
  0
DIMSTYLE
105
83
330
A
100
AcDbSymbolTableRecord
100
AcDbDimStyleTableRecord
  2
AM_ISO$4
 70
     0
  4
"
 41
3.0
 42
1.0
 43
7.0
 44
1.5
 47
0.1
 48
0.1
 73
     0
 77
     1
 78
     8
 79
     2
140
3.0
141
0.0
143
0.0393701
146
0.71
147
1.0
176
   256
177
   256
178
   256
271
     2
272
     2
283
     0
284
     8
288
     1
289
     0
340
11
371
    -1
372
    -1
  0
DIMSTYLE
105
84
330
A
100
AcDbSymbolTableRecord
100
AcDbDimStyleTableRecord
  2
AM_ISO$6
 70
     0
  4
"
 41
3.0
 42
1.0
 43
7.0
 44
1.5
 47
0.1
 48
0.1
 73
     0
 74
     0
 78
     8
 79
     2
140
3.0
141
0.0
143
0.0393701
146
0.71
147
1.0
172
     1
176
   256
177
   256
178
   256
271
     2
272
     2
283
     0
284
     8
340
11
371
    -1
372
    -1
  0
DIMSTYLE
105
85
330
A
100
AcDbSymbolTableRecord
100
AcDbDimStyleTableRecord
  2
AM_ISO$7
 70
     0
  4
"
 41
3.0
 42
1.0
 43
7.0
 44
1.5
 47
0.1
 48
0.1
 73
     0
 74
     0
 77
     1
 78
     8
 79
     2
140
5.0
141
0.0
143
0.0393701
146
0.71
147
1.0
172
     1
176
   256
177
   256
178
   256
271
     2
272
     2
283
     0
284
     8
340
11
371
    -1
372
    -1
  0
DIMSTYLE
105
86
330
A
100
AcDbSymbolTableRecord
100
AcDbDimStyleTableRecord
  2
AM_ISO$SF
 70
     0
  4
"
 41
2.5
 42
1.0
 43
10.0
 44
1.0
 47
0.1
 48
0.1
 73
     0
 74
     0
 75
     1
 76
     1
 77
     1
 78
     8
 79
     2
140
3.5
141
0.0
143
0.0393701
146
0.71
147
1.5
172
     1
176
   256
177
   256
178
     2
271
     2
272
     3
274
     4
283
     0
284
     8
340
11
371
    -1
372
    -1
  0
DIMSTYLE
105
8B
330
A
100
AcDbSymbolTableRecord
100
AcDbDimStyleTableRecord
  2
AM_ISO$SH
 70
     0
  4
"
 41
2.5
 42
1.0
 43
10.0
 44
1.0
 47
0.1
 48
0.1
 73
     0
 74
     0
 75
     1
 76
     1
 77
     1
 78
     8
 79
     2
140
3.5
141
0.0
143
0.0393701
144
2.0
146
0.71
147
1.5
172
     1
173
     1
176
   256
177
   256
178
     2
271
     2
272
     3
274
     4
283
     0
284
     8
340
11
343
87
371
    -1
372
    -1
  0
DIMSTYLE
105
40B
330
A
100
AcDbSymbolTableRecord
100
AcDbDimStyleTableRecord
  2
AM_ISO$0
 70
     0
  4
"
 41
3.0
 42
1.0
 43
7.0
 44
1.5
 47
0.1
 48
0.1
 73
     0
 74
     0
 77
     1
 78
     8
 79
     2
140
3.0
141
0.0
143
0.0393701
146
0.71
147
1.0
172
     1
176
   256
177
   256
178
   256
271
     2
272
     2
283
     0
284
     8
340
11
371
    -1
372
    -1
  0
DIMSTYLE
105
20CD
330
A
100
AcDbSymbolTableRecord
100
AcDbDimStyleTableRecord
  2
AM_ANSI
 70
     0
  4
"
 40
0.6666666666666666
 41
2.5
 42
1.0
 43
10.0
 44
1.0
 47
0.1
 48
0.1
 78
     8
 79
     2
140
3.5
141
0.0
143
0.0393701
146
0.71
147
1.5
176
   256
177
   256
178
     2
271
     2
272
     2
284
     8
340
11
371
    -1
372
    -1
  0
DIMSTYLE
105
20D1
102
{ACAD_REACTORS
330
219D
330
219E
330
219F
330
21A0
330
21A4
330
218C
330
218D
330
218E
330
218F
330
2191
330
2192
330
2193
330
2194
330
2195
330
2196
330
2197
330
2198
330
2199
330
219A
330
218A
330
218B
330
23BD
330
23BF
330
23C0
330
23C1
330
23C2
330
23C4
330
23C5
330
23C6
330
23C7
330
23C9
330
23CB
330
23CC
330
23CD
330
23D0
330
23D1
330
23D2
330
23D3
330
23D7
330
23BE
330
23CA
102
}
330
A
100
AcDbSymbolTableRecord
100
AcDbDimStyleTableRecord
  2
AM_ANSI$0
 70
     0
  4
"
 40
0.6666666666666666
 41
2.5
 42
1.0
 43
10.0
 44
1.0
 47
0.1
 48
0.1
 71
     1
 73
     0
 74
     0
 77
     1
 78
     8
 79
     2
140
3.5
141
0.0
143
0.0393701
146
0.71
147
1.5
176
     5
177
     5
178
     5
271
     2
272
     2
284
     8
340
60C
371
    -1
372
    -1
  0
ENDTAB
  0
TABLE
  2
BLOCK_RECORD
  5
1
330
0
100
AcDbSymbolTable
 70
    89
  0
BLOCK_RECORD
  5
1F
102
{ACAD_XDICTIONARY
360
8F
102
}
330
1
100
AcDbSymbolTableRecord
100
AcDbBlockTableRecord
  2
*Model_Space
340
22
  0
BLOCK_RECORD
  5
1B
330
1
100
AcDbSymbolTableRecord
100
AcDbBlockTableRecord
  2
*Paper_Space
340
1E
  0
BLOCK_RECORD
  5
23
330
1
100
AcDbSymbolTableRecord
100
AcDbBlockTableRecord
  2
*Paper_Space0
340
26
  0
BLOCK_RECORD
  5
87
330
1
100
AcDbSymbolTableRecord
100
AcDbBlockTableRecord
  2
GENAXEH
340
0
  0
BLOCK_RECORD
  5
2534
330
1
100
AcDbSymbolTableRecord
100
AcDbBlockTableRecord
  2
*D57
340
0
  0
BLOCK_RECORD
  5
2540
330
1
100
AcDbSymbolTableRecord
100
AcDbBlockTableRecord
  2
*D58
340
0
  0
BLOCK_RECORD
  5
254D
330
1
100
AcDbSymbolTableRecord
100
AcDbBlockTableRecord
  2
*D59
340
0
  0
BLOCK_RECORD
  5
2559
330
1
100
AcDbSymbolTableRecord
100
AcDbBlockTableRecord
  2
*D60
340
0
  0
BLOCK_RECORD
  5
2565
330
1
100
AcDbSymbolTableRecord
100
AcDbBlockTableRecord
  2
*D61
340
0
  0
BLOCK_RECORD
  5
2571
330
1
100
AcDbSymbolTableRecord
100
AcDbBlockTableRecord
  2
*D62
340
0
  0
BLOCK_RECORD
  5
2586
330
1
100
AcDbSymbolTableRecord
100
AcDbBlockTableRecord
  2
*D64
340
0
  0
BLOCK_RECORD
  5
2592
330
1
100
AcDbSymbolTableRecord
100
AcDbBlockTableRecord
  2
*D65
340
0
  0
BLOCK_RECORD
  5
259E
330
1
100
AcDbSymbolTableRecord
100
AcDbBlockTableRecord
  2
*D66
340
0
  0
BLOCK_RECORD
  5
25AA
330
1
100
AcDbSymbolTableRecord
100
AcDbBlockTableRecord
  2
*D67
340
0
  0
BLOCK_RECORD
  5
25C2
330
1
100
AcDbSymbolTableRecord
100
AcDbBlockTableRecord
  2
*D69
340
0
  0
BLOCK_RECORD
  5
25CE
330
1
100
AcDbSymbolTableRecord
100
AcDbBlockTableRecord
  2
*D70
340
0
  0
BLOCK_RECORD
  5
25DA
330
1
100
AcDbSymbolTableRecord
100
AcDbBlockTableRecord
  2
*D71
340
0
  0
BLOCK_RECORD
  5
25E6
330
1
100
AcDbSymbolTableRecord
100
AcDbBlockTableRecord
  2
*D72
340
0
  0
BLOCK_RECORD
  5
25F2
330
1
100
AcDbSymbolTableRecord
100
AcDbBlockTableRecord
  2
*D73
340
0
  0
BLOCK_RECORD
  5
2610
330
1
100
AcDbSymbolTableRecord
100
AcDbBlockTableRecord
  2
*D76
340
0
  0
BLOCK_RECORD
  5
261C
330
1
100
AcDbSymbolTableRecord
100
AcDbBlockTableRecord
  2
*D77
340
0
  0
BLOCK_RECORD
  5
2628
330
1
100
AcDbSymbolTableRecord
100
AcDbBlockTableRecord
  2
*D78
340
0
  0
BLOCK_RECORD
  5
2634
330
1
100
AcDbSymbolTableRecord
100
AcDbBlockTableRecord
  2
*D79
340
0
  0
BLOCK_RECORD
  5
2652
330
1
100
AcDbSymbolTableRecord
100
AcDbBlockTableRecord
  2
*D82
340
0
  0
BLOCK_RECORD
  5
2740
330
1
100
AcDbSymbolTableRecord
100
AcDbBlockTableRecord
  2
*D83
340
0
  0
BLOCK_RECORD
  5
277D
330
1
100
AcDbSymbolTableRecord
100
AcDbBlockTableRecord
  2
*D84
340
0
  0
BLOCK_RECORD
  5
27D4
330
1
100
AcDbSymbolTableRecord
100
AcDbBlockTableRecord
  2
*D85
340
0
  0
BLOCK_RECORD
  5
281E
330
1
100
AcDbSymbolTableRecord
100
AcDbBlockTableRecord
  2
*D86
340
0
  0
BLOCK_RECORD
  5
2899
330
1
100
AcDbSymbolTableRecord
100
AcDbBlockTableRecord
  2
*D87
340
0
  0
ENDTAB
  0
ENDSEC
  0
SECTION
  2
BLOCKS
  0
BLOCK
  5
20
330
1F
100
AcDbEntity
  8
0
100
AcDbBlockBegin
  2
*Model_Space
 70
     0
 10
0.0
 20
0.0
 30
0.0
  3
*Model_Space
  1

  0
ENDBLK
  5
21
330
1F
100
AcDbEntity
  8
0
100
AcDbBlockEnd
  0
BLOCK
  5
1C
330
1B
100
AcDbEntity
 67
     1
  8
0
100
AcDbBlockBegin
  2
*Paper_Space
 70
     0
 10
0.0
 20
0.0
 30
0.0
  3
*Paper_Space
  1

  0
ENDBLK
  5
1D
330
1B
100
AcDbEntity
 67
     1
  8
0
100
AcDbBlockEnd
  0
BLOCK
  5
24
330
23
100
AcDbEntity
  8
0
100
AcDbBlockBegin
  2
*Paper_Space0
 70
     0
 10
0.0
 20
0.0
 30
0.0
  3
*Paper_Space0
  1

  0
ENDBLK
  5
25
330
23
100
AcDbEntity
  8
0
100
AcDbBlockEnd
  0
BLOCK
  5
89
330
87
100
AcDbEntity
  8
0
100
AcDbBlockBegin
  2
GENAXEH
 70
     0
 10
0.0
 20
0.0
 30
0.0
  3
GENAXEH
  1

  0
LINE
  5
88
330
87
100
AcDbEntity
  8
0
100
AcDbLine
 10
-1.0
 20
0.0
 30
0.0
 11
1.0
 21
0.0
 31
0.0
  0
ENDBLK
  5
8A
330
87
100
AcDbEntity
  8
0
100
AcDbBlockEnd
  0
BLOCK
  5
253E
330
2534
100
AcDbEntity
  8
0
100
AcDbBlockBegin
  2
*D57
 70
     1
 10
0.0
 20
0.0
 30
0.0
  3
*D57
  1

  0
LINE
  5
2C4B
330
2534
100
AcDbEntity
  8
AM_REFDIM
 62
     5
100
AcDbLine
 10
2695.948470756241
 20
1316.594586506918
 30
0.0
 11
2687.948470756241
 21
1316.594586506918
 31
0.0
  0
LINE
  5
2C4C
330
2534
100
AcDbEntity
  8
AM_REFDIM
 62
     5
100
AcDbLine
 10
2695.948470756241
 20
1328.594586506917
 30
0.0
 11
2687.948470756241
 21
1328.594586506917
 31
0.0
  0
LINE
  5
2C4D
330
2534
100
AcDbEntity
  8
AM_REFDIM
 62
     5
100
AcDbLine
 10
2688.615137422908
 20
1318.261253173584
 30
0.0
 11
2688.615137422908
 21
1326.927919840251
 31
0.0
  0
SOLID
  5
2C4E
330
2534
100
AcDbEntity
  8
AM_REFDIM
 62
     5
100
AcDbTrace
 10
2688.33735964513
 20
1318.261253173584
 30
0.0
 11
2688.892915200685
 21
1318.261253173584
 31
0.0
 12
2688.615137422908
 22
1316.594586506918
 32
0.0
 13
2688.615137422908
 23
1316.594586506918
 33
0.0
  0
SOLID
  5
2C4F
330
2534
100
AcDbEntity
  8
AM_REFDIM
 62
     5
100
AcDbTrace
 10
2688.33735964513
 20
1326.927919840251
 30
0.0
 11
2688.892915200685
 21
1326.927919840251
 31
0.0
 12
2688.615137422908
 22
1328.594586506917
 32
0.0
 13
2688.615137422908
 23
1328.594586506917
 33
0.0
  0
MTEXT
  5
2C50
330
2534
100
AcDbEntity
  8
AM_REFDIM
 62
     5
100
AcDbMText
 10
2686.448470756241
 20
1322.594586506918
 30
0.0
 40
2.333333333333333
 41
0.0
 71
     5
 72
     1
  1
\A1;12
  7
CHINESET
 11
0.0000000000000001
 21
1.0
 31
0.0
 73
     1
 44
1.0
1001
ACAD
1000
MTEXTBEGIN
1070
    73
1070
     1
1070
    44
1040
1.0
1070
    74
1070
     0
1000
MTEXTEND
  0
POINT
  5
2C51
330
2534
100
AcDbEntity
  8
Defpoints
 62
     0
100
AcDbPoint
 10
2696.615137422908
 20
1316.594586506918
 30
0.0
  0
POINT
  5
2C52
330
2534
100
AcDbEntity
  8
Defpoints
 62
     0
100
AcDbPoint
 10
2696.615137422908
 20
1328.594586506917
 30
0.0
  0
POINT
  5
2C53
330
2534
100
AcDbEntity
  8
Defpoints
 62
     0
100
AcDbPoint
 10
2688.615137422908
 20
1328.594586506917
 30
0.0
  0
ENDBLK
  5
253F
330
2534
100
AcDbEntity
  8
0
100
AcDbBlockEnd
  0
BLOCK
  5
254B
330
2540
100
AcDbEntity
  8
0
100
AcDbBlockBegin
  2
*D58
 70
     1
 10
0.0
 20
0.0
 30
0.0
  3
*D58
  1

  0
LINE
  5
2C54
330
2540
100
AcDbEntity
  8
AM_REFDIM
 62
     5
100
AcDbLine
 10
2696.615137422908
 20
1315.927919840251
 30
0.0
 11
2696.615137422908
 21
1308.568519840251
 31
0.0
  0
LINE
  5
2C55
330
2540
100
AcDbEntity
  8
AM_REFDIM
 62
     5
100
AcDbLine
 10
2700.615137422908
 20
1319.13391984025
 30
0.0
 11
2700.615137422908
 21
1308.568519840251
 31
0.0
  0
LINE
  5
2C56
330
2540
100
AcDbEntity
  8
AM_REFDIM
 62
     5
100
AcDbLine
 10
2694.948470756241
 20
1309.235186506917
 30
0.0
 11
2693.281804089574
 21
1309.235186506917
 31
0.0
  0
LINE
  5
2C57
330
2540
100
AcDbEntity
  8
AM_REFDIM
 62
     5
100
AcDbLine
 10
2702.281804089575
 20
1309.235186506917
 30
0.0
 11
2703.948470756242
 21
1309.235186506917
 31
0.0
  0
LINE
  5
2C58
330
2540
100
AcDbEntity
  8
AM_REFDIM
 62
     5
100
AcDbLine
 10
2696.615137422908
 20
1309.235186506917
 30
0.0
 11
2700.615137422908
 21
1309.235186506917
 31
0.0
  0
SOLID
  5
2C59
330
2540
100
AcDbEntity
  8
AM_REFDIM
 62
     5
100
AcDbTrace
 10
2694.948470756241
 20
1309.512964284695
 30
0.0
 11
2694.948470756241
 21
1308.95740872914
 31
0.0
 12
2696.615137422908
 22
1309.235186506917
 32
0.0
 13
2696.615137422908
 23
1309.235186506917
 33
0.0
  0
SOLID
  5
2C5A
330
2540
100
AcDbEntity
  8
AM_REFDIM
 62
     5
100
AcDbTrace
 10
2702.281804089575
 20
1309.512964284695
 30
0.0
 11
2702.281804089575
 21
1308.95740872914
 31
0.0
 12
2700.615137422908
 22
1309.235186506917
 32
0.0
 13
2700.615137422908
 23
1309.235186506917
 33
0.0
  0
MTEXT
  5
2C5B
330
2540
100
AcDbEntity
  8
AM_REFDIM
 62
     5
100
AcDbMText
 10
2698.615137422908
 20
1311.401853173584
 30
0.0
 40
2.333333333333333
 41
0.0
 71
     5
 72
     1
  1
\A1;4
  7
CHINESET
 73
     1
 44
1.0
1001
ACAD
1000
MTEXTBEGIN
1070
    73
1070
     1
1070
    44
1040
1.0
1070
    74
1070
     0
1000
MTEXTEND
  0
POINT
  5
2C5C
330
2540
100
AcDbEntity
  8
Defpoints
 62
     0
100
AcDbPoint
 10
2696.615137422908
 20
1316.594586506918
 30
0.0
  0
POINT
  5
2C5D
330
2540
100
AcDbEntity
  8
Defpoints
 62
     0
100
AcDbPoint
 10
2700.615137422908
 20
1319.800586506917
 30
0.0
  0
POINT
  5
2C5E
330
2540
100
AcDbEntity
  8
Defpoints
 62
     0
100
AcDbPoint
 10
2700.615137422908
 20
1309.235186506917
 30
0.0
  0
ENDBLK
  5
254C
330
2540
100
AcDbEntity
  8
0
100
AcDbBlockEnd
  0
BLOCK
  5
2557
330
254D
100
AcDbEntity
  8
0
100
AcDbBlockBegin
  2
*D59
 70
     1
 10
0.0
 20
0.0
 30
0.0
  3
*D59
  1

  0
LINE
  5
2C5F
330
254D
100
AcDbEntity
  8
AM_REFDIM
 62
     5
100
AcDbLine
 10
2700.615137422908
 20
1318.467253173584
 30
0.0
 11
2700.615137422908
 21
1308.568519840251
 31
0.0
  0
LINE
  5
2C60
330
254D
100
AcDbEntity
  8
AM_REFDIM
 62
     5
100
AcDbLine
 10
2710.615137422907
 20
1319.13391984025
 30
0.0
 11
2710.615137422907
 21
1308.568519840251
 31
0.0
  0
LINE
  5
2C61
330
254D
100
AcDbEntity
  8
AM_REFDIM
 62
     5
100
AcDbLine
 10
2702.281804089575
 20
1309.235186506917
 30
0.0
 11
2708.948470756241
 21
1309.235186506917
 31
0.0
  0
SOLID
  5
2C62
330
254D
100
AcDbEntity
  8
AM_REFDIM
 62
     5
100
AcDbTrace
 10
2702.281804089575
 20
1309.512964284695
 30
0.0
 11
2702.281804089575
 21
1308.95740872914
 31
0.0
 12
2700.615137422908
 22
1309.235186506917
 32
0.0
 13
2700.615137422908
 23
1309.235186506917
 33
0.0
  0
SOLID
  5
2C63
330
254D
100
AcDbEntity
  8
AM_REFDIM
 62
     5
100
AcDbTrace
 10
2708.948470756241
 20
1309.512964284695
 30
0.0
 11
2708.948470756241
 21
1308.95740872914
 31
0.0
 12
2710.615137422907
 22
1309.235186506917
 32
0.0
 13
2710.615137422907
 23
1309.235186506917
 33
0.0
  0
MTEXT
  5
2C64
330
254D
100
AcDbEntity
  8
AM_REFDIM
 62
     5
100
AcDbMText
 10
2705.615137422908
 20
1311.401853173584
 30
0.0
 40
2.333333333333333
 41
0.0
 71
     5
 72
     1
  1
\A1;10
  7
CHINESET
 73
     1
 44
1.0
1001
ACAD
1000
MTEXTBEGIN
1070
    73
1070
     1
1070
    44
1040
1.0
1070
    74
1070
     0
1000
MTEXTEND
  0
POINT
  5
2C65
330
254D
100
AcDbEntity
  8
Defpoints
 62
     0
100
AcDbPoint
 10
2700.615137422908
 20
1319.13391984025
 30
0.0
  0
POINT
  5
2C66
330
254D
100
AcDbEntity
  8
Defpoints
 62
     0
100
AcDbPoint
 10
2710.615137422907
 20
1319.800586506917
 30
0.0
  0
POINT
  5
2C67
330
254D
100
AcDbEntity
  8
Defpoints
 62
     0
100
AcDbPoint
 10
2710.615137422907
 20
1309.235186506917
 30
0.0
  0
ENDBLK
  5
2558
330
254D
100
AcDbEntity
  8
0
100
AcDbBlockEnd
  0
BLOCK
  5
2563
330
2559
100
AcDbEntity
  8
0
100
AcDbBlockBegin
  2
*D60
 70
     1
 10
0.0
 20
0.0
 30
0.0
  3
*D60
  1

  0
LINE
  5
2C68
330
2559
100
AcDbEntity
  8
AM_REFDIM
 62
     5
100
AcDbLine
 10
2759.115137422908
 20
1310.420466297456
 30
0.0
 11
2759.115137422908
 21
1300.927919840251
 31
0.0
  0
LINE
  5
2C69
330
2559
100
AcDbEntity
  8
AM_REFDIM
 62
     5
100
AcDbLine
 10
2785.115137422908
 20
1308.927919840251
 30
0.0
 11
2785.115137422908
 21
1300.927919840251
 31
0.0
  0
LINE
  5
2C6A
330
2559
100
AcDbEntity
  8
AM_REFDIM
 62
     5
100
AcDbLine
 10
2760.781804089574
 20
1301.594586506918
 30
0.0
 11
2783.448470756241
 21
1301.594586506918
 31
0.0
  0
SOLID
  5
2C6B
330
2559
100
AcDbEntity
  8
AM_REFDIM
 62
     5
100
AcDbTrace
 10
2760.781804089574
 20
1301.872364284695
 30
0.0
 11
2760.781804089574
 21
1301.31680872914
 31
0.0
 12
2759.115137422908
 22
1301.594586506918
 32
0.0
 13
2759.115137422908
 23
1301.594586506918
 33
0.0
  0
SOLID
  5
2C6C
330
2559
100
AcDbEntity
  8
AM_REFDIM
 62
     5
100
AcDbTrace
 10
2783.448470756241
 20
1301.872364284695
 30
0.0
 11
2783.448470756241
 21
1301.31680872914
 31
0.0
 12
2785.115137422908
 22
1301.594586506918
 32
0.0
 13
2785.115137422908
 23
1301.594586506918
 33
0.0
  0
MTEXT
  5
2C6D
330
2559
100
AcDbEntity
  8
AM_REFDIM
 62
     5
100
AcDbMText
 10
2772.115137422908
 20
1303.761253173584
 30
0.0
 40
2.333333333333333
 41
0.0
 71
     5
 72
     1
  1
\A1;26
  7
CHINESET
 73
     1
 44
1.0
1001
ACAD
1000
MTEXTBEGIN
1070
    73
1070
     1
1070
    44
1040
1.0
1070
    74
1070
     0
1000
MTEXTEND
  0
POINT
  5
2C6E
330
2559
100
AcDbEntity
  8
Defpoints
 62
     0
100
AcDbPoint
 10
2759.115137422908
 20
1311.087132964123
 30
0.0
  0
POINT
  5
2C6F
330
2559
100
AcDbEntity
  8
Defpoints
 62
     0
100
AcDbPoint
 10
2785.115137422908
 20
1309.594586506918
 30
0.0
  0
POINT
  5
2C70
330
2559
100
AcDbEntity
  8
Defpoints
 62
     0
100
AcDbPoint
 10
2785.115137422908
 20
1301.594586506918
 30
0.0
  0
ENDBLK
  5
2564
330
2559
100
AcDbEntity
  8
0
100
AcDbBlockEnd
  0
BLOCK
  5
256F
330
2565
100
AcDbEntity
  8
0
100
AcDbBlockBegin
  2
*D61
 70
     1
 10
0.0
 20
0.0
 30
0.0
  3
*D61
  1

  0
LINE
  5
2C71
330
2565
100
AcDbEntity
  8
AM_REFDIM
 62
     5
100
AcDbLine
 10
2764.789257632369
 20
1316.094586506918
 30
0.0
 11
2796.540925792227
 21
1316.094586506918
 31
0.0
  0
LINE
  5
2C72
330
2565
100
AcDbEntity
  8
AM_REFDIM
 62
     5
100
AcDbLine
 10
2780.281804089574
 20
1329.094586506918
 30
0.0
 11
2796.540925792227
 21
1329.094586506918
 31
0.0
  0
LINE
  5
2C73
330
2565
100
AcDbEntity
  8
AM_REFDIM
 62
     5
100
AcDbLine
 10
2795.87425912556
 20
1317.761253173584
 30
0.0
 11
2795.87425912556
 21
1327.427919840251
 31
0.0
  0
SOLID
  5
2C74
330
2565
100
AcDbEntity
  8
AM_REFDIM
 62
     5
100
AcDbTrace
 10
2795.596481347783
 20
1317.761253173584
 30
0.0
 11
2796.152036903338
 21
1317.761253173584
 31
0.0
 12
2795.87425912556
 22
1316.094586506918
 32
0.0
 13
2795.87425912556
 23
1316.094586506918
 33
0.0
  0
SOLID
  5
2C75
330
2565
100
AcDbEntity
  8
AM_REFDIM
 62
     5
100
AcDbTrace
 10
2795.596481347783
 20
1327.427919840251
 30
0.0
 11
2796.152036903338
 21
1327.427919840251
 31
0.0
 12
2795.87425912556
 22
1329.094586506918
 32
0.0
 13
2795.87425912556
 23
1329.094586506918
 33
0.0
  0
MTEXT
  5
2C76
330
2565
100
AcDbEntity
  8
AM_REFDIM
 62
     5
100
AcDbMText
 10
2793.707592458894
 20
1322.594586506918
 30
0.0
 40
2.333333333333333
 41
0.0
 71
     5
 72
     1
  1
\A1;13
  7
CHINESET
 11
0.0000000000000001
 21
1.0
 31
0.0
 73
     1
 44
1.0
1001
ACAD
1000
MTEXTBEGIN
1070
    73
1070
     1
1070
    44
1040
1.0
1070
    74
1070
     0
1000
MTEXTEND
  0
POINT
  5
2C77
330
2565
100
AcDbEntity
  8
Defpoints
 62
     0
100
AcDbPoint
 10
2764.122590965703
 20
1316.094586506918
 30
0.0
  0
POINT
  5
2C78
330
2565
100
AcDbEntity
  8
Defpoints
 62
     0
100
AcDbPoint
 10
2779.615137422908
 20
1329.094586506918
 30
0.0
  0
POINT
  5
2C79
330
2565
100
AcDbEntity
  8
Defpoints
 62
     0
100
AcDbPoint
 10
2795.87425912556
 20
1329.094586506918
 30
0.0
  0
ENDBLK
  5
2570
330
2565
100
AcDbEntity
  8
0
100
AcDbBlockEnd
  0
BLOCK
  5
257B
330
2571
100
AcDbEntity
  8
0
100
AcDbBlockBegin
  2
*D62
 70
     1
 10
0.0
 20
0.0
 30
0.0
  3
*D62
  1

  0
LINE
  5
2C7A
330
2571
100
AcDbEntity
  8
AM_REFDIM
 62
     5
100
AcDbLine
 10
2777.115137422908
 20
1331.811253173584
 30
0.0
 11
2777.115137422908
 21
1344.261253173584
 31
0.0
  0
LINE
  5
2C7B
330
2571
100
AcDbEntity
  8
AM_REFDIM
 62
     5
100
AcDbLine
 10
2785.115137422908
 20
1336.261253173584
 30
0.0
 11
2785.115137422908
 21
1344.261253173584
 31
0.0
  0
LINE
  5
2C7C
330
2571
100
AcDbEntity
  8
AM_REFDIM
 62
     5
100
AcDbLine
 10
2778.781804089574
 20
1343.594586506918
 30
0.0
 11
2783.448470756241
 21
1343.594586506918
 31
0.0
  0
SOLID
  5
2C7D
330
2571
100
AcDbEntity
  8
AM_REFDIM
 62
     5
100
AcDbTrace
 10
2778.781804089574
 20
1343.872364284695
 30
0.0
 11
2778.781804089574
 21
1343.31680872914
 31
0.0
 12
2777.115137422908
 22
1343.594586506918
 32
0.0
 13
2777.115137422908
 23
1343.594586506918
 33
0.0
  0
SOLID
  5
2C7E
330
2571
100
AcDbEntity
  8
AM_REFDIM
 62
     5
100
AcDbTrace
 10
2783.448470756241
 20
1343.872364284695
 30
0.0
 11
2783.448470756241
 21
1343.31680872914
 31
0.0
 12
2785.115137422908
 22
1343.594586506918
 32
0.0
 13
2785.115137422908
 23
1343.594586506918
 33
0.0
  0
MTEXT
  5
2C7F
330
2571
100
AcDbEntity
  8
AM_REFDIM
 62
     5
100
AcDbMText
 10
2781.115137422908
 20
1345.761253173584
 30
0.0
 40
2.333333333333333
 41
0.0
 71
     5
 72
     1
  1
\A1;8
  7
CHINESET
 73
     1
 44
1.0
1001
ACAD
1000
MTEXTBEGIN
1070
    73
1070
     1
1070
    44
1040
1.0
1070
    74
1070
     0
1000
MTEXTEND
  0
POINT
  5
2C80
330
2571
100
AcDbEntity
  8
Defpoints
 62
     0
100
AcDbPoint
 10
2777.115137422908
 20
1331.144586506918
 30
0.0
  0
POINT
  5
2C81
330
2571
100
AcDbEntity
  8
Defpoints
 62
     0
100
AcDbPoint
 10
2785.115137422908
 20
1335.594586506918
 30
0.0
  0
POINT
  5
2C82
330
2571
100
AcDbEntity
  8
Defpoints
 62
     0
100
AcDbPoint
 10
2785.115137422908
 20
1343.594586506918
 30
0.0
  0
ENDBLK
  5
257C
330
2571
100
AcDbEntity
  8
0
100
AcDbBlockEnd
  0
BLOCK
  5
2590
330
2586
100
AcDbEntity
  8
0
100
AcDbBlockBegin
  2
*D64
 70
     1
 10
0.0
 20
0.0
 30
0.0
  3
*D64
  1

  0
LINE
  5
2B91
330
2586
100
AcDbEntity
  8
AM_REFDIM
 62
     5
100
AcDbLine
 10
2696.615137422908
 20
1377.313718873272
 30
0.0
 11
2696.615137422908
 21
1369.049227980414
 31
0.0
  0
LINE
  5
2B92
330
2586
100
AcDbEntity
  8
AM_REFDIM
 62
     5
100
AcDbLine
 10
2715.615137422908
 20
1377.049227980414
 30
0.0
 11
2715.615137422908
 21
1369.049227980414
 31
0.0
  0
LINE
  5
2B93
330
2586
100
AcDbEntity
  8
AM_REFDIM
 62
     5
100
AcDbLine
 10
2698.281804089574
 20
1369.715894647081
 30
0.0
 11
2713.948470756241
 21
1369.715894647081
 31
0.0
  0
SOLID
  5
2B94
330
2586
100
AcDbEntity
  8
AM_REFDIM
 62
     5
100
AcDbTrace
 10
2698.281804089574
 20
1369.993672424858
 30
0.0
 11
2698.281804089574
 21
1369.438116869303
 31
0.0
 12
2696.615137422908
 22
1369.715894647081
 32
0.0
 13
2696.615137422908
 23
1369.715894647081
 33
0.0
  0
SOLID
  5
2B95
330
2586
100
AcDbEntity
  8
AM_REFDIM
 62
     5
100
AcDbTrace
 10
2713.948470756241
 20
1369.993672424858
 30
0.0
 11
2713.948470756241
 21
1369.438116869303
 31
0.0
 12
2715.615137422908
 22
1369.715894647081
 32
0.0
 13
2715.615137422908
 23
1369.715894647081
 33
0.0
  0
MTEXT
  5
2B96
330
2586
100
AcDbEntity
  8
AM_REFDIM
 62
     5
100
AcDbMText
 10
2706.115137422908
 20
1371.882561313747
 30
0.0
 40
2.333333333333333
 41
0.0
 71
     5
 72
     1
  1
\A1;19
  7
CHINESET
 73
     1
 44
1.0
1001
ACAD
1000
MTEXTBEGIN
1070
    73
1070
     1
1070
    44
1040
1.0
1070
    74
1070
     0
1000
MTEXTEND
  0
POINT
  5
2B97
330
2586
100
AcDbEntity
  8
Defpoints
 62
     0
100
AcDbPoint
 10
2696.615137422908
 20
1377.980385539939
 30
0.0
  0
POINT
  5
2B98
330
2586
100
AcDbEntity
  8
Defpoints
 62
     0
100
AcDbPoint
 10
2715.615137422908
 20
1377.71589464708
 30
0.0
  0
POINT
  5
2B99
330
2586
100
AcDbEntity
  8
Defpoints
 62
     0
100
AcDbPoint
 10
2715.615137422908
 20
1369.715894647081
 30
0.0
  0
ENDBLK
  5
2591
330
2586
100
AcDbEntity
  8
0
100
AcDbBlockEnd
  0
BLOCK
  5
259C
330
2592
100
AcDbEntity
  8
0
100
AcDbBlockBegin
  2
*D65
 70
     1
 10
0.0
 20
0.0
 30
0.0
  3
*D65
  1

  0
LINE
  5
2B9A
330
2592
100
AcDbEntity
  8
AM_REFDIM
 62
     5
100
AcDbLine
 10
2715.615137422908
 20
1377.049227980414
 30
0.0
 11
2715.615137422908
 21
1369.049227980414
 31
0.0
  0
LINE
  5
2B9B
330
2592
100
AcDbEntity
  8
AM_REFDIM
 62
     5
100
AcDbLine
 10
2785.115137422908
 20
1377.049227980414
 30
0.0
 11
2785.115137422908
 21
1369.049227980414
 31
0.0
  0
LINE
  5
2B9C
330
2592
100
AcDbEntity
  8
AM_REFDIM
 62
     5
100
AcDbLine
 10
2717.281804089574
 20
1369.715894647081
 30
0.0
 11
2783.448470756241
 21
1369.715894647081
 31
0.0
  0
SOLID
  5
2B9D
330
2592
100
AcDbEntity
  8
AM_REFDIM
 62
     5
100
AcDbTrace
 10
2717.281804089574
 20
1369.993672424858
 30
0.0
 11
2717.281804089574
 21
1369.438116869303
 31
0.0
 12
2715.615137422908
 22
1369.715894647081
 32
0.0
 13
2715.615137422908
 23
1369.715894647081
 33
0.0
  0
SOLID
  5
2B9E
330
2592
100
AcDbEntity
  8
AM_REFDIM
 62
     5
100
AcDbTrace
 10
2783.448470756241
 20
1369.993672424858
 30
0.0
 11
2783.448470756241
 21
1369.438116869303
 31
0.0
 12
2785.115137422908
 22
1369.715894647081
 32
0.0
 13
2785.115137422908
 23
1369.715894647081
 33
0.0
  0
MTEXT
  5
2B9F
330
2592
100
AcDbEntity
  8
AM_REFDIM
 62
     5
100
AcDbMText
 10
2750.365137422908
 20
1371.882561313747
 30
0.0
 40
2.333333333333333
 41
0.0
 71
     5
 72
     1
  1
\A1;69.5
  7
CHINESET
 73
     1
 44
1.0
1001
ACAD
1000
MTEXTBEGIN
1070
    73
1070
     1
1070
    44
1040
1.0
1070
    74
1070
     0
1000
MTEXTEND
  0
POINT
  5
2BA0
330
2592
100
AcDbEntity
  8
Defpoints
 62
     0
100
AcDbPoint
 10
2715.615137422908
 20
1377.71589464708
 30
0.0
  0
POINT
  5
2BA1
330
2592
100
AcDbEntity
  8
Defpoints
 62
     0
100
AcDbPoint
 10
2785.115137422908
 20
1377.71589464708
 30
0.0
  0
POINT
  5
2BA2
330
2592
100
AcDbEntity
  8
Defpoints
 62
     0
100
AcDbPoint
 10
2785.115137422908
 20
1369.715894647081
 30
0.0
  0
ENDBLK
  5
259D
330
2592
100
AcDbEntity
  8
0
100
AcDbBlockEnd
  0
BLOCK
  5
25A8
330
259E
100
AcDbEntity
  8
0
100
AcDbBlockBegin
  2
*D66
 70
     1
 10
0.0
 20
0.0
 30
0.0
  3
*D66
  1

  0
LINE
  5
2BA3
330
259E
100
AcDbEntity
  8
AM_REFDIM
 62
     5
100
AcDbLine
 10
2696.615137422908
 20
1377.313718873272
 30
0.0
 11
2696.615137422908
 21
1362.382561313747
 31
0.0
  0
LINE
  5
2BA4
330
259E
100
AcDbEntity
  8
AM_REFDIM
 62
     5
100
AcDbLine
 10
2785.115137422908
 20
1377.049227980414
 30
0.0
 11
2785.115137422908
 21
1362.382561313747
 31
0.0
  0
LINE
  5
2BA5
330
259E
100
AcDbEntity
  8
AM_REFDIM
 62
     5
100
AcDbLine
 10
2698.281804089574
 20
1363.049227980414
 30
0.0
 11
2783.448470756241
 21
1363.049227980414
 31
0.0
  0
SOLID
  5
2BA6
330
259E
100
AcDbEntity
  8
AM_REFDIM
 62
     5
100
AcDbTrace
 10
2698.281804089574
 20
1363.327005758192
 30
0.0
 11
2698.281804089574
 21
1362.771450202636
 31
0.0
 12
2696.615137422908
 22
1363.049227980414
 32
0.0
 13
2696.615137422908
 23
1363.049227980414
 33
0.0
  0
SOLID
  5
2BA7
330
259E
100
AcDbEntity
  8
AM_REFDIM
 62
     5
100
AcDbTrace
 10
2783.448470756241
 20
1363.327005758192
 30
0.0
 11
2783.448470756241
 21
1362.771450202636
 31
0.0
 12
2785.115137422908
 22
1363.049227980414
 32
0.0
 13
2785.115137422908
 23
1363.049227980414
 33
0.0
  0
MTEXT
  5
2BA8
330
259E
100
AcDbEntity
  8
AM_REFDIM
 62
     5
100
AcDbMText
 10
2740.865137422908
 20
1365.21589464708
 30
0.0
 40
2.333333333333333
 41
0.0
 71
     5
 72
     1
  1
\A1;88.5
  7
CHINESET
 73
     1
 44
1.0
1001
ACAD
1000
MTEXTBEGIN
1070
    73
1070
     1
1070
    44
1040
1.0
1070
    74
1070
     0
1000
MTEXTEND
  0
POINT
  5
2BA9
330
259E
100
AcDbEntity
  8
Defpoints
 62
     0
100
AcDbPoint
 10
2696.615137422908
 20
1377.980385539939
 30
0.0
  0
POINT
  5
2BAA
330
259E
100
AcDbEntity
  8
Defpoints
 62
     0
100
AcDbPoint
 10
2785.115137422908
 20
1377.71589464708
 30
0.0
  0
POINT
  5
2BAB
330
259E
100
AcDbEntity
  8
Defpoints
 62
     0
100
AcDbPoint
 10
2785.115137422908
 20
1363.049227980414
 30
0.0
  0
ENDBLK
  5
25A9
330
259E
100
AcDbEntity
  8
0
100
AcDbBlockEnd
  0
BLOCK
  5
25B4
330
25AA
100
AcDbEntity
  8
0
100
AcDbBlockBegin
  2
*D67
 70
     1
 10
0.0
 20
0.0
 30
0.0
  3
*D67
  1

  0
LINE
  5
2BAC
330
25AA
100
AcDbEntity
  8
AM_REFDIM
 62
     5
100
AcDbLine
 10
2695.948470756241
 20
1377.980385539939
 30
0.0
 11
2687.948470756241
 21
1377.980385539939
 31
0.0
  0
LINE
  5
2BAD
330
25AA
100
AcDbEntity
  8
AM_REFDIM
 62
     5
100
AcDbLine
 10
2695.948470756241
 20
1383.980385539939
 30
0.0
 11
2687.948470756241
 21
1383.980385539939
 31
0.0
  0
LINE
  5
2BAE
330
25AA
100
AcDbEntity
  8
AM_REFDIM
 62
     5
100
AcDbLine
 10
2688.615137422908
 20
1379.647052206605
 30
0.0
 11
2688.615137422908
 21
1382.313718873272
 31
0.0
  0
SOLID
  5
2BAF
330
25AA
100
AcDbEntity
  8
AM_REFDIM
 62
     5
100
AcDbTrace
 10
2688.33735964513
 20
1379.647052206605
 30
0.0
 11
2688.892915200685
 21
1379.647052206605
 31
0.0
 12
2688.615137422908
 22
1377.980385539939
 32
0.0
 13
2688.615137422908
 23
1377.980385539939
 33
0.0
  0
SOLID
  5
2BB0
330
25AA
100
AcDbEntity
  8
AM_REFDIM
 62
     5
100
AcDbTrace
 10
2688.33735964513
 20
1382.313718873272
 30
0.0
 11
2688.892915200685
 21
1382.313718873272
 31
0.0
 12
2688.615137422908
 22
1383.980385539939
 32
0.0
 13
2688.615137422908
 23
1383.980385539939
 33
0.0
  0
MTEXT
  5
2BB1
330
25AA
100
AcDbEntity
  8
AM_REFDIM
 62
     5
100
AcDbMText
 10
2686.448470756241
 20
1380.980385539939
 30
0.0
 40
2.333333333333333
 41
0.0
 71
     5
 72
     1
  1
\A1;6
  7
CHINESET
 11
0.0000000000000001
 21
1.0
 31
0.0
 73
     1
 44
1.0
1001
ACAD
1000
MTEXTBEGIN
1070
    73
1070
     1
1070
    44
1040
1.0
1070
    74
1070
     0
1000
MTEXTEND
  0
POINT
  5
2BB2
330
25AA
100
AcDbEntity
  8
Defpoints
 62
     0
100
AcDbPoint
 10
2696.615137422908
 20
1377.980385539939
 30
0.0
  0
POINT
  5
2BB3
330
25AA
100
AcDbEntity
  8
Defpoints
 62
     0
100
AcDbPoint
 10
2696.615137422908
 20
1383.980385539939
 30
0.0
  0
POINT
  5
2BB4
330
25AA
100
AcDbEntity
  8
Defpoints
 62
     0
100
AcDbPoint
 10
2688.615137422908
 20
1383.980385539939
 30
0.0
  0
ENDBLK
  5
25B5
330
25AA
100
AcDbEntity
  8
0
100
AcDbBlockEnd
  0
BLOCK
  5
25CC
330
25C2
100
AcDbEntity
  8
0
100
AcDbBlockBegin
  2
*D69
 70
     1
 10
0.0
 20
0.0
 30
0.0
  3
*D69
  1

  0
LINE
  5
2BB5
330
25C2
100
AcDbEntity
  8
AM_REFDIM
 62
     5
100
AcDbLine
 10
2695.948470756241
 20
1416.451403754222
 30
0.0
 11
2687.948470756241
 21
1416.451403754222
 31
0.0
  0
LINE
  5
2BB6
330
25C2
100
AcDbEntity
  8
AM_REFDIM
 62
     5
100
AcDbLine
 10
2695.948470756241
 20
1422.451403754222
 30
0.0
 11
2687.948470756241
 21
1422.451403754222
 31
0.0
  0
LINE
  5
2BB7
330
25C2
100
AcDbEntity
  8
AM_REFDIM
 62
     5
100
AcDbLine
 10
2688.615137422908
 20
1418.118070420889
 30
0.0
 11
2688.615137422908
 21
1420.784737087556
 31
0.0
  0
SOLID
  5
2BB8
330
25C2
100
AcDbEntity
  8
AM_REFDIM
 62
     5
100
AcDbTrace
 10
2688.33735964513
 20
1418.118070420889
 30
0.0
 11
2688.892915200685
 21
1418.118070420889
 31
0.0
 12
2688.615137422908
 22
1416.451403754222
 32
0.0
 13
2688.615137422908
 23
1416.451403754222
 33
0.0
  0
SOLID
  5
2BB9
330
25C2
100
AcDbEntity
  8
AM_REFDIM
 62
     5
100
AcDbTrace
 10
2688.33735964513
 20
1420.784737087556
 30
0.0
 11
2688.892915200685
 21
1420.784737087556
 31
0.0
 12
2688.615137422908
 22
1422.451403754222
 32
0.0
 13
2688.615137422908
 23
1422.451403754222
 33
0.0
  0
MTEXT
  5
2BBA
330
25C2
100
AcDbEntity
  8
AM_REFDIM
 62
     5
100
AcDbMText
 10
2686.448470756241
 20
1419.451403754223
 30
0.0
 40
2.333333333333333
 41
0.0
 71
     5
 72
     1
  1
\A1;6
  7
CHINESET
 11
0.0000000000000001
 21
1.0
 31
0.0
 73
     1
 44
1.0
1001
ACAD
1000
MTEXTBEGIN
1070
    73
1070
     1
1070
    44
1040
1.0
1070
    74
1070
     0
1000
MTEXTEND
  0
POINT
  5
2BBB
330
25C2
100
AcDbEntity
  8
Defpoints
 62
     0
100
AcDbPoint
 10
2696.615137422908
 20
1416.451403754222
 30
0.0
  0
POINT
  5
2BBC
330
25C2
100
AcDbEntity
  8
Defpoints
 62
     0
100
AcDbPoint
 10
2696.615137422908
 20
1422.451403754222
 30
0.0
  0
POINT
  5
2BBD
330
25C2
100
AcDbEntity
  8
Defpoints
 62
     0
100
AcDbPoint
 10
2688.615137422908
 20
1422.451403754222
 30
0.0
  0
ENDBLK
  5
25CD
330
25C2
100
AcDbEntity
  8
0
100
AcDbBlockEnd
  0
BLOCK
  5
25D8
330
25CE
100
AcDbEntity
  8
0
100
AcDbBlockBegin
  2
*D70
 70
     1
 10
0.0
 20
0.0
 30
0.0
  3
*D70
  1

  0
LINE
  5
2BBE
330
25CE
100
AcDbEntity
  8
AM_REFDIM
 62
     5
100
AcDbLine
 10
2695.948470756241
 20
1377.980385539939
 30
0.0
 11
2681.281804089575
 21
1377.980385539939
 31
0.0
  0
LINE
  5
2BBF
330
25CE
100
AcDbEntity
  8
AM_REFDIM
 62
     5
100
AcDbLine
 10
2695.948470756241
 20
1422.451403754222
 30
0.0
 11
2681.281804089575
 21
1422.451403754222
 31
0.0
  0
LINE
  5
2BC0
330
25CE
100
AcDbEntity
  8
AM_REFDIM
 62
     5
100
AcDbLine
 10
2681.948470756241
 20
1379.647052206605
 30
0.0
 11
2681.948470756241
 21
1420.784737087556
 31
0.0
  0
SOLID
  5
2BC1
330
25CE
100
AcDbEntity
  8
AM_REFDIM
 62
     5
100
AcDbTrace
 10
2681.670692978463
 20
1379.647052206605
 30
0.0
 11
2682.226248534019
 21
1379.647052206605
 31
0.0
 12
2681.948470756241
 22
1377.980385539939
 32
0.0
 13
2681.948470756241
 23
1377.980385539939
 33
0.0
  0
SOLID
  5
2BC2
330
25CE
100
AcDbEntity
  8
AM_REFDIM
 62
     5
100
AcDbTrace
 10
2681.670692978463
 20
1420.784737087556
 30
0.0
 11
2682.226248534019
 21
1420.784737087556
 31
0.0
 12
2681.948470756241
 22
1422.451403754222
 32
0.0
 13
2681.948470756241
 23
1422.451403754222
 33
0.0
  0
MTEXT
  5
2BC3
330
25CE
100
AcDbEntity
  8
AM_REFDIM
 62
     5
100
AcDbMText
 10
2679.170692978463
 20
1400.215894647081
 30
0.0
 40
2.333333333333333
 41
0.0
 71
     5
 72
     1
  1
\A1;44(OPEN)
  7
CHINESET
 11
0.0000000000000001
 21
1.0
 31
0.0
 73
     1
 44
1.0
1001
ACAD
1000
MTEXTBEGIN
1070
    73
1070
     1
1070
    44
1040
1.0
1070
    74
1070
     0
1000
MTEXTEND
  0
POINT
  5
2BC4
330
25CE
100
AcDbEntity
  8
Defpoints
 62
     0
100
AcDbPoint
 10
2696.615137422908
 20
1377.980385539939
 30
0.0
  0
POINT
  5
2BC5
330
25CE
100
AcDbEntity
  8
Defpoints
 62
     0
100
AcDbPoint
 10
2696.615137422908
 20
1422.451403754222
 30
0.0
  0
POINT
  5
2BC6
330
25CE
100
AcDbEntity
  8
Defpoints
 62
     0
100
AcDbPoint
 10
2681.948470756241
 20
1422.451403754222
 30
0.0
  0
ENDBLK
  5
25D9
330
25CE
100
AcDbEntity
  8
0
100
AcDbBlockEnd
  0
BLOCK
  5
25E4
330
25DA
100
AcDbEntity
  8
0
100
AcDbBlockBegin
  2
*D71
 70
     1
 10
0.0
 20
0.0
 30
0.0
  3
*D71
  1

  0
LINE
  5
2BC7
330
25DA
100
AcDbEntity
  8
AM_REFDIM
 62
     5
100
AcDbLine
 10
2762.178804089574
 20
1385.21589464708
 30
0.0
 11
2799.719817223505
 21
1385.21589464708
 31
0.0
  0
LINE
  5
2BC8
330
25DA
100
AcDbEntity
  8
AM_REFDIM
 62
     5
100
AcDbLine
 10
2763.715504089574
 20
1415.21589464708
 30
0.0
 11
2799.719817223505
 21
1415.21589464708
 31
0.0
  0
LINE
  5
2BC9
330
25DA
100
AcDbEntity
  8
AM_REFDIM
 62
     5
100
AcDbLine
 10
2799.053150556839
 20
1386.882561313747
 30
0.0
 11
2799.053150556839
 21
1413.549227980414
 31
0.0
  0
SOLID
  5
2BCA
330
25DA
100
AcDbEntity
  8
AM_REFDIM
 62
     5
100
AcDbTrace
 10
2798.775372779061
 20
1386.882561313747
 30
0.0
 11
2799.330928334617
 21
1386.882561313747
 31
0.0
 12
2799.053150556839
 22
1385.21589464708
 32
0.0
 13
2799.053150556839
 23
1385.21589464708
 33
0.0
  0
SOLID
  5
2BCB
330
25DA
100
AcDbEntity
  8
AM_REFDIM
 62
     5
100
AcDbTrace
 10
2798.775372779061
 20
1413.549227980414
 30
0.0
 11
2799.330928334617
 21
1413.549227980414
 31
0.0
 12
2799.053150556839
 22
1415.21589464708
 32
0.0
 13
2799.053150556839
 23
1415.21589464708
 33
0.0
  0
MTEXT
  5
2BCC
330
25DA
100
AcDbEntity
  8
AM_REFDIM
 62
     5
100
AcDbMText
 10
2796.886483890172
 20
1400.215894647081
 30
0.0
 40
2.333333333333333
 41
0.0
 71
     5
 72
     1
  1
\A1;30
  7
CHINESET
 11
0.0000000000000001
 21
1.0
 31
0.0
 73
     1
 44
1.0
1001
ACAD
1000
MTEXTBEGIN
1070
    73
1070
     1
1070
    44
1040
1.0
1070
    74
1070
     0
1000
MTEXTEND
  0
POINT
  5
2BCD
330
25DA
100
AcDbEntity
  8
Defpoints
 62
     0
100
AcDbPoint
 10
2761.512137422908
 20
1385.21589464708
 30
0.0
  0
POINT
  5
2BCE
330
25DA
100
AcDbEntity
  8
Defpoints
 62
     0
100
AcDbPoint
 10
2763.048837422908
 20
1415.21589464708
 30
0.0
  0
POINT
  5
2BCF
330
25DA
100
AcDbEntity
  8
Defpoints
 62
     0
100
AcDbPoint
 10
2799.053150556839
 20
1415.21589464708
 30
0.0
  0
ENDBLK
  5
25E5
330
25DA
100
AcDbEntity
  8
0
100
AcDbBlockEnd
  0
BLOCK
  5
25F0
330
25E6
100
AcDbEntity
  8
0
100
AcDbBlockBegin
  2
*D72
 70
     1
 10
0.0
 20
0.0
 30
0.0
  3
*D72
  1

  0
LINE
  5
2BD0
330
25E6
100
AcDbEntity
  8
AM_REFDIM
 62
     5
100
AcDbLine
 10
2760.115137422908
 20
1418.816261313748
 30
0.0
 11
2760.115137422908
 21
1431.382561313747
 31
0.0
  0
LINE
  5
2BD1
330
25E6
100
AcDbEntity
  8
AM_REFDIM
 62
     5
100
AcDbLine
 10
2785.115137422908
 20
1423.382561313747
 30
0.0
 11
2785.115137422908
 21
1431.382561313747
 31
0.0
  0
LINE
  5
2BD2
330
25E6
100
AcDbEntity
  8
AM_REFDIM
 62
     5
100
AcDbLine
 10
2761.781804089574
 20
1430.715894647081
 30
0.0
 11
2783.448470756241
 21
1430.715894647081
 31
0.0
  0
SOLID
  5
2BD3
330
25E6
100
AcDbEntity
  8
AM_REFDIM
 62
     5
100
AcDbTrace
 10
2761.781804089574
 20
1430.993672424858
 30
0.0
 11
2761.781804089574
 21
1430.438116869303
 31
0.0
 12
2760.115137422908
 22
1430.715894647081
 32
0.0
 13
2760.115137422908
 23
1430.715894647081
 33
0.0
  0
SOLID
  5
2BD4
330
25E6
100
AcDbEntity
  8
AM_REFDIM
 62
     5
100
AcDbTrace
 10
2783.448470756241
 20
1430.993672424858
 30
0.0
 11
2783.448470756241
 21
1430.438116869303
 31
0.0
 12
2785.115137422908
 22
1430.715894647081
 32
0.0
 13
2785.115137422908
 23
1430.715894647081
 33
0.0
  0
MTEXT
  5
2BD5
330
25E6
100
AcDbEntity
  8
AM_REFDIM
 62
     5
100
AcDbMText
 10
2772.615137422908
 20
1432.882561313747
 30
0.0
 40
2.333333333333333
 41
0.0
 71
     5
 72
     1
  1
\A1;25
  7
CHINESET
 73
     1
 44
1.0
1001
ACAD
1000
MTEXTBEGIN
1070
    73
1070
     1
1070
    44
1040
1.0
1070
    74
1070
     0
1000
MTEXTEND
  0
POINT
  5
2BD6
330
25E6
100
AcDbEntity
  8
Defpoints
 62
     0
100
AcDbPoint
 10
2760.115137422908
 20
1418.149594647081
 30
0.0
  0
POINT
  5
2BD7
330
25E6
100
AcDbEntity
  8
Defpoints
 62
     0
100
AcDbPoint
 10
2785.115137422908
 20
1422.715894647081
 30
0.0
  0
POINT
  5
2BD8
330
25E6
100
AcDbEntity
  8
Defpoints
 62
     0
100
AcDbPoint
 10
2785.115137422908
 20
1430.715894647081
 30
0.0
  0
ENDBLK
  5
25F1
330
25E6
100
AcDbEntity
  8
0
100
AcDbBlockEnd
  0
BLOCK
  5
25FC
330
25F2
100
AcDbEntity
  8
0
100
AcDbBlockBegin
  2
*D73
 70
     1
 10
0.0
 20
0.0
 30
0.0
  3
*D73
  1

  0
LINE
  5
2BD9
330
25F2
100
AcDbEntity
  8
AM_REFDIM
 62
     5
100
AcDbLine
 10
2766.115137422908
 20
1456.297640310016
 30
0.0
 11
2766.115137422908
 21
1446.091640310016
 31
0.0
  0
LINE
  5
2BDA
330
25F2
100
AcDbEntity
  8
AM_REFDIM
 62
     5
100
AcDbLine
 10
2785.115137422908
 20
1454.091640310016
 30
0.0
 11
2785.115137422908
 21
1446.091640310016
 31
0.0
  0
LINE
  5
2BDB
330
25F2
100
AcDbEntity
  8
AM_REFDIM
 62
     5
100
AcDbLine
 10
2767.781804089574
 20
1446.758306976682
 30
0.0
 11
2783.448470756241
 21
1446.758306976682
 31
0.0
  0
SOLID
  5
2BDC
330
25F2
100
AcDbEntity
  8
AM_REFDIM
 62
     5
100
AcDbTrace
 10
2767.781804089574
 20
1447.03608475446
 30
0.0
 11
2767.781804089574
 21
1446.480529198905
 31
0.0
 12
2766.115137422908
 22
1446.758306976682
 32
0.0
 13
2766.115137422908
 23
1446.758306976682
 33
0.0
  0
SOLID
  5
2BDD
330
25F2
100
AcDbEntity
  8
AM_REFDIM
 62
     5
100
AcDbTrace
 10
2783.448470756241
 20
1447.03608475446
 30
0.0
 11
2783.448470756241
 21
1446.480529198905
 31
0.0
 12
2785.115137422908
 22
1446.758306976682
 32
0.0
 13
2785.115137422908
 23
1446.758306976682
 33
0.0
  0
MTEXT
  5
2BDE
330
25F2
100
AcDbEntity
  8
AM_REFDIM
 62
     5
100
AcDbMText
 10
2775.615137422908
 20
1448.924973643349
 30
0.0
 40
2.333333333333333
 41
0.0
 71
     5
 72
     1
  1
\A1;19
  7
CHINESET
 73
     1
 44
1.0
1001
ACAD
1000
MTEXTBEGIN
1070
    73
1070
     1
1070
    44
1040
1.0
1070
    74
1070
     0
1000
MTEXTEND
  0
POINT
  5
2BDF
330
25F2
100
AcDbEntity
  8
Defpoints
 62
     0
100
AcDbPoint
 10
2766.115137422908
 20
1456.964306976683
 30
0.0
  0
POINT
  5
2BE0
330
25F2
100
AcDbEntity
  8
Defpoints
 62
     0
100
AcDbPoint
 10
2785.115137422908
 20
1454.758306976683
 30
0.0
  0
POINT
  5
2BE1
330
25F2
100
AcDbEntity
  8
Defpoints
 62
     0
100
AcDbPoint
 10
2785.115137422908
 20
1446.758306976682
 30
0.0
  0
ENDBLK
  5
25FD
330
25F2
100
AcDbEntity
  8
0
100
AcDbBlockEnd
  0
BLOCK
  5
261A
330
2610
100
AcDbEntity
  8
0
100
AcDbBlockBegin
  2
*D76
 70
     1
 10
0.0
 20
0.0
 30
0.0
  3
*D76
  1

  0
LINE
  5
2BE2
330
2610
100
AcDbEntity
  8
AM_REFDIM
 62
     5
100
AcDbLine
 10
2826.545914166048
 20
1414.255227980414
 30
0.0
 11
2826.545914166048
 21
1368.281329457515
 31
0.0
  0
LINE
  5
2BE3
330
2610
100
AcDbEntity
  8
AM_REFDIM
 62
     5
100
AcDbLine
 10
2842.545914166048
 20
1379.255227980414
 30
0.0
 11
2842.545914166048
 21
1368.281329457515
 31
0.0
  0
LINE
  5
2BE4
330
2610
100
AcDbEntity
  8
AM_REFDIM
 62
     5
100
AcDbLine
 10
2828.212580832715
 20
1368.947996124182
 30
0.0
 11
2840.879247499382
 21
1368.947996124182
 31
0.0
  0
SOLID
  5
2BE5
330
2610
100
AcDbEntity
  8
AM_REFDIM
 62
     5
100
AcDbTrace
 10
2828.212580832715
 20
1369.225773901959
 30
0.0
 11
2828.212580832715
 21
1368.670218346404
 31
0.0
 12
2826.545914166048
 22
1368.947996124182
 32
0.0
 13
2826.545914166048
 23
1368.947996124182
 33
0.0
  0
SOLID
  5
2BE6
330
2610
100
AcDbEntity
  8
AM_REFDIM
 62
     5
100
AcDbTrace
 10
2840.879247499382
 20
1369.225773901959
 30
0.0
 11
2840.879247499382
 21
1368.670218346404
 31
0.0
 12
2842.545914166048
 22
1368.947996124182
 32
0.0
 13
2842.545914166048
 23
1368.947996124182
 33
0.0
  0
MTEXT
  5
2BE7
330
2610
100
AcDbEntity
  8
AM_REFDIM
 62
     5
100
AcDbMText
 10
2834.545914166048
 20
1371.114662790848
 30
0.0
 40
2.333333333333333
 41
0.0
 71
     5
 72
     1
  1
\A1;16
  7
CHINESET
 73
     1
 44
1.0
1001
ACAD
1000
MTEXTBEGIN
1070
    73
1070
     1
1070
    44
1040
1.0
1070
    74
1070
     0
1000
MTEXTEND
  0
POINT
  5
2BE8
330
2610
100
AcDbEntity
  8
Defpoints
 62
     0
100
AcDbPoint
 10
2826.545914166048
 20
1414.921894647081
 30
0.0
  0
POINT
  5
2BE9
330
2610
100
AcDbEntity
  8
Defpoints
 62
     0
100
AcDbPoint
 10
2842.545914166048
 20
1379.921894647081
 30
0.0
  0
POINT
  5
2BEA
330
2610
100
AcDbEntity
  8
Defpoints
 62
     0
100
AcDbPoint
 10
2842.545914166048
 20
1368.947996124182
 30
0.0
  0
ENDBLK
  5
261B
330
2610
100
AcDbEntity
  8
0
100
AcDbBlockEnd
  0
BLOCK
  5
2626
330
261C
100
AcDbEntity
  8
0
100
AcDbBlockBegin
  2
*D77
 70
     1
 10
0.0
 20
0.0
 30
0.0
  3
*D77
  1

  0
LINE
  5
2BEB
330
261C
100
AcDbEntity
  8
AM_REFDIM
 62
     5
100
AcDbLine
 10
2821.545914166048
 20
1377.549227980414
 30
0.0
 11
2821.545914166048
 21
1361.614662790848
 31
0.0
  0
LINE
  5
2BEC
330
261C
100
AcDbEntity
  8
AM_REFDIM
 62
     5
100
AcDbLine
 10
2847.545914166048
 20
1377.549227980414
 30
0.0
 11
2847.545914166048
 21
1361.614662790848
 31
0.0
  0
LINE
  5
2BED
330
261C
100
AcDbEntity
  8
AM_REFDIM
 62
     5
100
AcDbLine
 10
2823.212580832715
 20
1362.281329457515
 30
0.0
 11
2845.879247499382
 21
1362.281329457515
 31
0.0
  0
SOLID
  5
2BEE
330
261C
100
AcDbEntity
  8
AM_REFDIM
 62
     5
100
AcDbTrace
 10
2823.212580832715
 20
1362.559107235292
 30
0.0
 11
2823.212580832715
 21
1362.003551679737
 31
0.0
 12
2821.545914166048
 22
1362.281329457515
 32
0.0
 13
2821.545914166048
 23
1362.281329457515
 33
0.0
  0
SOLID
  5
2BEF
330
261C
100
AcDbEntity
  8
AM_REFDIM
 62
     5
100
AcDbTrace
 10
2845.879247499382
 20
1362.559107235292
 30
0.0
 11
2845.879247499382
 21
1362.003551679737
 31
0.0
 12
2847.545914166048
 22
1362.281329457515
 32
0.0
 13
2847.545914166048
 23
1362.281329457515
 33
0.0
  0
MTEXT
  5
2BF0
330
261C
100
AcDbEntity
  8
AM_REFDIM
 62
     5
100
AcDbMText
 10
2834.545914166048
 20
1364.447996124181
 30
0.0
 40
2.333333333333333
 41
0.0
 71
     5
 72
     1
  1
\A1;26
  7
CHINESET
 73
     1
 44
1.0
1001
ACAD
1000
MTEXTBEGIN
1070
    73
1070
     1
1070
    44
1040
1.0
1070
    74
1070
     0
1000
MTEXTEND
  0
POINT
  5
2BF1
330
261C
100
AcDbEntity
  8
Defpoints
 62
     0
100
AcDbPoint
 10
2821.545914166048
 20
1378.215894647081
 30
0.0
  0
POINT
  5
2BF2
330
261C
100
AcDbEntity
  8
Defpoints
 62
     0
100
AcDbPoint
 10
2847.545914166048
 20
1378.215894647081
 30
0.0
  0
POINT
  5
2BF3
330
261C
100
AcDbEntity
  8
Defpoints
 62
     0
100
AcDbPoint
 10
2847.545914166048
 20
1362.281329457515
 30
0.0
  0
ENDBLK
  5
2627
330
261C
100
AcDbEntity
  8
0
100
AcDbBlockEnd
  0
BLOCK
  5
2632
330
2628
100
AcDbEntity
  8
0
100
AcDbBlockBegin
  2
*D78
 70
     1
 10
0.0
 20
0.0
 30
0.0
  3
*D78
  1

  0
LINE
  5
2BF4
330
2628
100
AcDbEntity
  8
AM_REFDIM
 62
     5
100
AcDbLine
 10
2839.085247499382
 20
1382.715894647081
 30
0.0
 11
2816.482247499381
 21
1382.715894647081
 31
0.0
  0
LINE
  5
2BF5
330
2628
100
AcDbEntity
  8
AM_REFDIM
 62
     5
100
AcDbLine
 10
2823.085247499382
 20
1417.71589464708
 30
0.0
 11
2816.482247499381
 21
1417.71589464708
 31
0.0
  0
LINE
  5
2BF6
330
2628
100
AcDbEntity
  8
AM_REFDIM
 62
     5
100
AcDbLine
 10
2817.148914166049
 20
1384.382561313747
 30
0.0
 11
2817.148914166049
 21
1416.049227980414
 31
0.0
  0
SOLID
  5
2BF7
330
2628
100
AcDbEntity
  8
AM_REFDIM
 62
     5
100
AcDbTrace
 10
2816.87113638827
 20
1384.382561313747
 30
0.0
 11
2817.426691943826
 21
1384.382561313747
 31
0.0
 12
2817.148914166049
 22
1382.715894647081
 32
0.0
 13
2817.148914166049
 23
1382.715894647081
 33
0.0
  0
SOLID
  5
2BF8
330
2628
100
AcDbEntity
  8
AM_REFDIM
 62
     5
100
AcDbTrace
 10
2816.87113638827
 20
1416.049227980414
 30
0.0
 11
2817.426691943826
 21
1416.049227980414
 31
0.0
 12
2817.148914166049
 22
1417.71589464708
 32
0.0
 13
2817.148914166049
 23
1417.71589464708
 33
0.0
  0
MTEXT
  5
2BF9
330
2628
100
AcDbEntity
  8
AM_REFDIM
 62
     5
100
AcDbMText
 10
2814.982247499381
 20
1400.215894647081
 30
0.0
 40
2.333333333333333
 41
0.0
 71
     5
 72
     1
  1
\A1;35
  7
CHINESET
 11
0.0000000000000001
 21
1.0
 31
0.0
 73
     1
 44
1.0
1001
ACAD
1000
MTEXTBEGIN
1070
    73
1070
     1
1070
    44
1040
1.0
1070
    74
1070
     0
1000
MTEXTEND
  0
POINT
  5
2BFA
330
2628
100
AcDbEntity
  8
Defpoints
 62
     0
100
AcDbPoint
 10
2839.751914166048
 20
1382.715894647081
 30
0.0
  0
POINT
  5
2BFB
330
2628
100
AcDbEntity
  8
Defpoints
 62
     0
100
AcDbPoint
 10
2823.751914166048
 20
1417.71589464708
 30
0.0
  0
POINT
  5
2BFC
330
2628
100
AcDbEntity
  8
Defpoints
 62
     0
100
AcDbPoint
 10
2817.148914166049
 20
1417.71589464708
 30
0.0
  0
ENDBLK
  5
2633
330
2628
100
AcDbEntity
  8
0
100
AcDbBlockEnd
  0
BLOCK
  5
263E
330
2634
100
AcDbEntity
  8
0
100
AcDbBlockBegin
  2
*D79
 70
     1
 10
0.0
 20
0.0
 30
0.0
  3
*D79
  1

  0
LINE
  5
2BFD
330
2634
100
AcDbEntity
  8
AM_REFDIM
 62
     5
100
AcDbLine
 10
2821.379247499382
 20
1377.71589464708
 30
0.0
 11
2809.815580832716
 21
1377.71589464708
 31
0.0
  0
LINE
  5
2BFE
330
2634
100
AcDbEntity
  8
AM_REFDIM
 62
     5
100
AcDbLine
 10
2821.379247499382
 20
1422.715894647081
 30
0.0
 11
2809.815580832716
 21
1422.715894647081
 31
0.0
  0
LINE
  5
2BFF
330
2634
100
AcDbEntity
  8
AM_REFDIM
 62
     5
100
AcDbLine
 10
2810.482247499382
 20
1379.382561313747
 30
0.0
 11
2810.482247499382
 21
1421.049227980414
 31
0.0
  0
SOLID
  5
2C00
330
2634
100
AcDbEntity
  8
AM_REFDIM
 62
     5
100
AcDbTrace
 10
2810.204469721604
 20
1379.382561313747
 30
0.0
 11
2810.76002527716
 21
1379.382561313747
 31
0.0
 12
2810.482247499382
 22
1377.71589464708
 32
0.0
 13
2810.482247499382
 23
1377.71589464708
 33
0.0
  0
SOLID
  5
2C01
330
2634
100
AcDbEntity
  8
AM_REFDIM
 62
     5
100
AcDbTrace
 10
2810.204469721604
 20
1421.049227980414
 30
0.0
 11
2810.76002527716
 21
1421.049227980414
 31
0.0
 12
2810.482247499382
 22
1422.715894647081
 32
0.0
 13
2810.482247499382
 23
1422.715894647081
 33
0.0
  0
MTEXT
  5
2C02
330
2634
100
AcDbEntity
  8
AM_REFDIM
 62
     5
100
AcDbMText
 10
2808.315580832715
 20
1400.215894647081
 30
0.0
 40
2.333333333333333
 41
0.0
 71
     5
 72
     1
  1
\A1;45
  7
CHINESET
 11
0.0000000000000001
 21
1.0
 31
0.0
 73
     1
 44
1.0
1001
ACAD
1000
MTEXTBEGIN
1070
    73
1070
     1
1070
    44
1040
1.0
1070
    74
1070
     0
1000
MTEXTEND
  0
POINT
  5
2C03
330
2634
100
AcDbEntity
  8
Defpoints
 62
     0
100
AcDbPoint
 10
2822.045914166048
 20
1377.71589464708
 30
0.0
  0
POINT
  5
2C04
330
2634
100
AcDbEntity
  8
Defpoints
 62
     0
100
AcDbPoint
 10
2822.045914166048
 20
1422.715894647081
 30
0.0
  0
POINT
  5
2C05
330
2634
100
AcDbEntity
  8
Defpoints
 62
     0
100
AcDbPoint
 10
2810.482247499382
 20
1422.715894647081
 30
0.0
  0
ENDBLK
  5
263F
330
2634
100
AcDbEntity
  8
0
100
AcDbBlockEnd
  0
BLOCK
  5
265C
330
2652
100
AcDbEntity
  8
0
100
AcDbBlockBegin
  2
*D82
 70
     1
 10
0.0
 20
0.0
 30
0.0
  3
*D82
  1

  0
LINE
  5
2C06
330
2652
100
AcDbEntity
  8
AM_REFDIM
 62
     5
100
AcDbLine
 10
2769.575804089574
 20
1475.758306976683
 30
0.0
 11
2799.613231186239
 21
1475.758306976683
 31
0.0
  0
LINE
  5
2C07
330
2652
100
AcDbEntity
  8
AM_REFDIM
 62
     5
100
AcDbLine
 10
2769.575804089574
 20
1459.758306976683
 30
0.0
 11
2799.613231186239
 21
1459.758306976683
 31
0.0
  0
LINE
  5
2C08
330
2652
100
AcDbEntity
  8
AM_REFDIM
 62
     5
100
AcDbLine
 10
2798.946564519573
 20
1474.091640310016
 30
0.0
 11
2798.946564519573
 21
1461.424973643349
 31
0.0
  0
SOLID
  5
2C09
330
2652
100
AcDbEntity
  8
AM_REFDIM
 62
     5
100
AcDbTrace
 10
2798.668786741794
 20
1474.091640310016
 30
0.0
 11
2799.22434229735
 21
1474.091640310016
 31
0.0
 12
2798.946564519573
 22
1475.758306976683
 32
0.0
 13
2798.946564519573
 23
1475.758306976683
 33
0.0
  0
SOLID
  5
2C0A
330
2652
100
AcDbEntity
  8
AM_REFDIM
 62
     5
100
AcDbTrace
 10
2798.668786741794
 20
1461.424973643349
 30
0.0
 11
2799.22434229735
 21
1461.424973643349
 31
0.0
 12
2798.946564519573
 22
1459.758306976683
 32
0.0
 13
2798.946564519573
 23
1459.758306976683
 33
0.0
  0
MTEXT
  5
2C0B
330
2652
100
AcDbEntity
  8
AM_REFDIM
 62
     5
100
AcDbMText
 10
2796.779897852906
 20
1467.758306976683
 30
0.0
 40
2.333333333333333
 41
0.0
 71
     5
 72
     1
  1
\A1;16
  7
CHINESET
 11
0.0000000000000001
 21
1.0
 31
0.0
 73
     1
 44
1.0
1001
ACAD
1000
MTEXTBEGIN
1070
    73
1070
     1
1070
    44
1040
1.0
1070
    74
1070
     0
1000
MTEXTEND
  0
POINT
  5
2C0C
330
2652
100
AcDbEntity
  8
Defpoints
 62
     0
100
AcDbPoint
 10
2768.909137422908
 20
1475.758306976683
 30
0.0
  0
POINT
  5
2C0D
330
2652
100
AcDbEntity
  8
Defpoints
 62
     0
100
AcDbPoint
 10
2768.909137422908
 20
1459.758306976683
 30
0.0
  0
POINT
  5
2C0E
330
2652
100
AcDbEntity
  8
Defpoints
 62
     0
100
AcDbPoint
 10
2798.946564519573
 20
1459.758306976683
 30
0.0
  0
ENDBLK
  5
265D
330
2652
100
AcDbEntity
  8
0
100
AcDbBlockEnd
  0
BLOCK
  5
2749
330
2740
100
AcDbEntity
  8
0
100
AcDbBlockBegin
  2
*D83
 70
     1
 10
0.0
 20
0.0
 30
0.0
  3
*D83
  1

  0
LINE
  5
2C33
330
2740
100
AcDbEntity
  8
AM_5
100
AcDbLine
 10
2764.132036479303
 20
1480.888347000646
 30
0.0
 11
2761.454318761207
 21
1487.815275814335
 31
0.0
  0
LINE
  5
2C34
330
2740
100
AcDbEntity
  8
AM_5
100
AcDbLine
 10
2761.454318761207
 20
1487.815275814335
 30
0.0
 11
2730.569406598722
 21
1487.815275814335
 31
0.0
  0
SOLID
  5
2C35
330
2740
100
AcDbEntity
  8
AM_5
100
AcDbTrace
 10
2764.598403754208
 20
1481.06862890461
 30
0.0
 11
2763.665669204396
 21
1480.708065096682
 31
0.0
 12
2765.213727903086
 22
1478.090143351211
 32
0.0
 13
2765.213727903086
 23
1478.090143351211
 33
0.0
  0
MTEXT
  5
2C36
330
2740
100
AcDbEntity
  8
AM_5
100
AcDbMText
 10
2745.511862679965
 20
1490.690571089925
 30
0.0
 40
3.0
 41
0.0
 71
     5
 72
     1
  1
2-M5x0.8x8depth
 73
     1
 44
1.0
1001
ACAD
1000
MTEXTBEGIN
1070
    73
1070
     1
1070
    44
1040
1.0
1070
    74
1070
     0
1000
MTEXTEND
  0
POINT
  5
2C37
330
2740
100
AcDbEntity
  8
Defpoints
 62
     0
100
AcDbPoint
 10
2765.213727903086
 20
1478.090143351211
 30
0.0
  0
POINT
  5
2C38
330
2740
100
AcDbEntity
  8
Defpoints
 62
     0
100
AcDbPoint
 10
2767.016546942726
 20
1473.426470602154
 30
0.0
  0
ENDBLK
  5
274A
330
2740
100
AcDbEntity
  8
0
100
AcDbBlockEnd
  0
BLOCK
  5
2786
330
277D
100
AcDbEntity
  8
0
100
AcDbBlockBegin
  2
*D84
 70
     1
 10
0.0
 20
0.0
 30
0.0
  3
*D84
  1

  0
LINE
  5
2C2D
330
277D
100
AcDbEntity
  8
AM_5
100
AcDbLine
 10
2756.216494181423
 20
1419.09540246066
 30
0.0
 11
2745.532858724788
 21
1429.726600204123
 31
0.0
  0
LINE
  5
2C2E
330
277D
100
AcDbEntity
  8
AM_5
100
AcDbLine
 10
2745.532858724788
 20
1429.726600204123
 30
0.0
 11
2714.647946562302
 21
1429.726600204122
 31
0.0
  0
SOLID
  5
2C2F
330
277D
100
AcDbEntity
  8
AM_5
100
AcDbTrace
 10
2756.56917670993
 20
1419.449824573522
 30
0.0
 11
2755.863811652916
 21
1418.740980347797
 31
0.0
 12
2758.343026858597
 22
1416.979307289616
 32
0.0
 13
2758.343026858597
 23
1416.979307289616
 33
0.0
  0
MTEXT
  5
2C30
330
277D
100
AcDbEntity
  8
AM_5
100
AcDbMText
 10
2729.590402643545
 20
1432.601895479713
 30
0.0
 40
3.0
 41
0.0
 71
     5
 72
     1
  1
2-M5x0.8x8depth
 73
     1
 44
1.0
1001
ACAD
1000
MTEXTBEGIN
1070
    73
1070
     1
1070
    44
1040
1.0
1070
    74
1070
     0
1000
MTEXTEND
  0
POINT
  5
2C31
330
277D
100
AcDbEntity
  8
Defpoints
 62
     0
100
AcDbPoint
 10
2758.343026858597
 20
1416.979307289616
 30
0.0
  0
POINT
  5
2C32
330
277D
100
AcDbEntity
  8
Defpoints
 62
     0
100
AcDbPoint
 10
2761.887247987221
 20
1413.452482004543
 30
0.0
  0
ENDBLK
  5
2787
330
277D
100
AcDbEntity
  8
0
100
AcDbBlockEnd
  0
BLOCK
  5
27DD
330
27D4
100
AcDbEntity
  8
0
100
AcDbBlockBegin
  2
*D85
 70
     1
 10
0.0
 20
0.0
 30
0.0
  3
*D85
  1

  0
LINE
  5
2C8F
330
27D4
100
AcDbEntity
  8
AM_5
100
AcDbLine
 10
2773.397457768236
 20
1333.147839272936
 30
0.0
 11
2764.536581913234
 21
1342.808534358243
 31
0.0
  0
LINE
  5
2C90
330
27D4
100
AcDbEntity
  8
AM_5
100
AcDbLine
 10
2764.536581913234
 20
1342.808534358243
 30
0.0
 11
2733.651669750749
 21
1342.808534358243
 31
0.0
  0
SOLID
  5
2C91
330
27D4
100
AcDbEntity
  8
AM_5
100
AcDbTrace
 10
2773.765935292419
 20
1333.485810150633
 30
0.0
 11
2773.028980244052
 21
1332.809868395238
 31
0.0
 12
2775.425283034421
 22
1330.936974127834
 32
0.0
 13
2775.425283034421
 23
1330.936974127834
 33
0.0
  0
MTEXT
  5
2C92
330
27D4
100
AcDbEntity
  8
AM_5
100
AcDbMText
 10
2748.594125831991
 20
1345.683829633834
 30
0.0
 40
3.0
 41
0.0
 71
     5
 72
     1
  1
2-M5x0.8x5depth
 73
     1
 44
1.0
1001
ACAD
1000
MTEXTBEGIN
1070
    73
1070
     1
1070
    44
1040
1.0
1070
    74
1070
     0
1000
MTEXTEND
  0
POINT
  5
2C93
330
27D4
100
AcDbEntity
  8
Defpoints
 62
     0
100
AcDbPoint
 10
2775.425283034421
 20
1330.936974127834
 30
0.0
  0
POINT
  5
2C94
330
27D4
100
AcDbEntity
  8
Defpoints
 62
     0
100
AcDbPoint
 10
2778.804991811395
 20
1327.252198885999
 30
0.0
  0
ENDBLK
  5
27DE
330
27D4
100
AcDbEntity
  8
0
100
AcDbBlockEnd
  0
BLOCK
  5
2824
330
281E
100
AcDbEntity
  8
0
100
AcDbBlockBegin
  2
*D86
 70
     1
 10
0.0
 20
0.0
 30
0.0
  3
*D86
  1

  0
LINE
  5
2C95
330
281E
100
AcDbEntity
  8
AM_5
100
AcDbLine
 10
2708.244993118271
 20
1326.997133039913
 30
0.0
 11
2702.69472177071
 21
1337.306770233981
 31
0.0
  0
LINE
  5
2C96
330
281E
100
AcDbEntity
  8
AM_5
100
AcDbLine
 10
2702.69472177071
 20
1337.306770233981
 30
0.0
 11
2686.018540668347
 21
1337.306770233981
 31
0.0
  0
SOLID
  5
2C97
330
281E
100
AcDbEntity
  8
AM_5
100
AcDbTrace
 10
2708.685247771571
 20
1327.234147470377
 30
0.0
 11
2707.804738464972
 21
1326.760118609449
 31
0.0
 12
2709.667079701053
 22
1324.355605120115
 32
0.0
 13
2709.667079701053
 23
1324.355605120115
 33
0.0
  0
MTEXT
  5
2C98
330
281E
100
AcDbEntity
  8
AM_5
100
AcDbMText
 10
2693.856631219529
 20
1339.807065509572
 30
0.0
 40
3.0
 41
0.0
 71
     5
 72
     1
  1
2-M4x0.7
 73
     1
 44
1.0
1001
ACAD
1000
MTEXTBEGIN
1070
    73
1070
     1
1070
    44
1040
1.0
1070
    74
1070
     0
1000
MTEXTEND
  0
POINT
  5
2C99
330
281E
100
AcDbEntity
  8
Defpoints
 62
     0
100
AcDbPoint
 10
2709.667079701053
 20
1324.355605120115
 30
0.0
  0
POINT
  5
2C9A
330
281E
100
AcDbEntity
  8
Defpoints
 62
     0
100
AcDbPoint
 10
2711.563195144762
 20
1320.833567893721
 30
0.0
  0
ENDBLK
  5
2825
330
281E
100
AcDbEntity
  8
0
100
AcDbBlockEnd
  0
BLOCK
  5
28A2
330
2899
100
AcDbEntity
  8
0
100
AcDbBlockBegin
  2
*D87
 70
     1
 10
0.0
 20
0.0
 30
0.0
  3
*D87
  1

  0
LINE
  5
2C45
330
2899
100
AcDbEntity
  8
AM_5
100
AcDbLine
 10
2829.352826147851
 20
1422.445719710063
 30
0.0
 11
2835.666868565555
 21
1433.085282428667
 31
0.0
  0
LINE
  5
2C46
330
2899
100
AcDbEntity
  8
AM_5
100
AcDbLine
 10
2835.666868565555
 20
1433.085282428667
 30
0.0
 11
2866.55178072804
 21
1433.085282428667
 31
0.0
  0
SOLID
  5
2C47
330
2899
100
AcDbEntity
  8
AM_5
100
AcDbTrace
 10
2828.922842051216
 20
1422.70089352659
 30
0.0
 11
2829.782810244486
 21
1422.190545893536
 31
0.0
 12
2827.821783248686
 22
1419.865815130255
 32
0.0
 13
2827.821783248686
 23
1419.865815130255
 33
0.0
  0
MTEXT
  5
2C48
330
2899
100
AcDbEntity
  8
AM_5
100
AcDbMText
 10
2851.609324646797
 20
1435.960577704258
 30
0.0
 40
3.0
 41
0.0
 71
     5
 72
     1
  1
2-M5x0.8x8depth
 73
     1
 44
1.0
1001
ACAD
1000
MTEXTBEGIN
1070
    73
1070
     1
1070
    44
1040
1.0
1070
    74
1070
     0
1000
MTEXTEND
  0
POINT
  5
2C49
330
2899
100
AcDbEntity
  8
Defpoints
 62
     0
100
AcDbPoint
 10
2827.821783248686
 20
1419.865815130255
 30
0.0
  0
POINT
  5
2C4A
330
2899
100
AcDbEntity
  8
Defpoints
 62
     0
100
AcDbPoint
 10
2825.270045083412
 20
1415.565974163907
 30
0.0
  0
ENDBLK
  5
28A3
330
2899
100
AcDbEntity
  8
0
100
AcDbBlockEnd
  0
ENDSEC
  0
SECTION
  2
ENTITIES
  0
LINE
  5
231E
330
1F
100
AcDbEntity
  8
AM_7
100
AcDbLine
 10
2758.718137422908
 20
1385.21589464708
 30
0.0
 11
2761.512137422908
 21
1385.21589464708
 31
0.0
  0
LINE
  5
231F
330
1F
100
AcDbEntity
  8
AM_7
100
AcDbLine
 10
2760.115137422908
 20
1383.818894647081
 30
0.0
 11
2760.115137422908
 21
1386.612894647081
 31
0.0
  0
LINE
  5
2321
330
1F
100
AcDbEntity
  8
AM_7
100
AcDbLine
 10
2765.474537422908
 20
1385.21589464708
 30
0.0
 11
2764.959137422908
 21
1385.21589464708
 31
0.0
  0
LINE
  5
2324
330
1F
100
AcDbEntity
  8
AM_7
100
AcDbLine
 10
2757.181437422908
 20
1415.21589464708
 30
0.0
 11
2763.048837422908
 21
1415.21589464708
 31
0.0
  0
LINE
  5
2325
330
1F
100
AcDbEntity
  8
AM_7
100
AcDbLine
 10
2760.115137422908
 20
1412.282194647081
 30
0.0
 11
2760.115137422908
 21
1418.149594647081
 31
0.0
  0
CIRCLE
  5
232A
330
1F
100
AcDbEntity
  8
AM_4
  6
HIDDEN
 48
0.2
100
AcDbCircle
 10
2760.115137422908
 20
1385.21589464708
 30
0.0
 40
2.5
  0
CIRCLE
  5
232B
102
{ACAD_REACTORS
330
2789
102
}
330
1F
100
AcDbEntity
  8
AM_4
  6
HIDDEN
 48
0.2
100
AcDbCircle
 10
2760.115137422908
 20
1415.21589464708
 30
0.0
 40
2.5
  0
LINE
  5
232C
330
1F
100
AcDbEntity
  8
AM_7
100
AcDbLine
 10
2760.115137422908
 20
1451.964306976682
 30
0.0
 11
2760.115137422908
 21
1468.852306976682
 31
0.0
  0
LINE
  5
232D
330
1F
100
AcDbEntity
  8
AM_7
100
AcDbLine
 10
2736.821137422908
 20
1457.758306976683
 30
0.0
 11
2742.409137422908
 21
1457.758306976683
 31
0.0
  0
LINE
  5
232E
330
1F
100
AcDbEntity
  8
AM_7
100
AcDbLine
 10
2739.615137422908
 20
1454.964306976683
 30
0.0
 11
2739.615137422908
 21
1460.552306976682
 31
0.0
  0
LINE
  5
2333
330
1F
100
AcDbEntity
  8
AM_7
100
AcDbLine
 10
2736.821137422908
 20
1477.758306976683
 30
0.0
 11
2742.409137422908
 21
1477.758306976683
 31
0.0
  0
LINE
  5
2334
330
1F
100
AcDbEntity
  8
AM_7
100
AcDbLine
 10
2739.615137422908
 20
1474.964306976683
 30
0.0
 11
2739.615137422908
 21
1480.552306976682
 31
0.0
  0
LINE
  5
2339
330
1F
100
AcDbEntity
  8
AM_7
100
AcDbLine
 10
2763.321137422908
 20
1459.758306976683
 30
0.0
 11
2768.909137422908
 21
1459.758306976683
 31
0.0
  0
LINE
  5
233A
330
1F
100
AcDbEntity
  8
AM_7
100
AcDbLine
 10
2766.115137422908
 20
1456.964306976683
 30
0.0
 11
2766.115137422908
 21
1462.552306976682
 31
0.0
  0
LINE
  5
233C
330
1F
100
AcDbEntity
  8
AM_7
100
AcDbLine
 10
2771.474537422908
 20
1459.758306976683
 30
0.0
 11
2770.959137422908
 21
1459.758306976683
 31
0.0
  0
LINE
  5
233D
330
1F
100
AcDbEntity
  8
AM_7
100
AcDbLine
 10
2766.115137422908
 20
1454.914306976682
 30
0.0
 11
2766.115137422908
 21
1454.398906976682
 31
0.0
  0
LINE
  5
233F
330
1F
100
AcDbEntity
  8
AM_7
100
AcDbLine
 10
2763.321137422908
 20
1475.758306976683
 30
0.0
 11
2768.909137422908
 21
1475.758306976683
 31
0.0
  0
LINE
  5
2340
330
1F
100
AcDbEntity
  8
AM_7
100
AcDbLine
 10
2766.115137422908
 20
1472.964306976683
 30
0.0
 11
2766.115137422908
 21
1478.552306976682
 31
0.0
  0
LINE
  5
2342
330
1F
100
AcDbEntity
  8
AM_7
100
AcDbLine
 10
2771.474537422908
 20
1475.758306976683
 30
0.0
 11
2770.959137422908
 21
1475.758306976683
 31
0.0
  0
LINE
  5
2345
330
1F
100
AcDbEntity
  8
AM_7
100
AcDbLine
 10
2753.709137422908
 20
1467.758306976682
 30
0.0
 11
2739.321137422908
 21
1467.758306976682
 31
0.0
  0
LINE
  5
2346
330
1F
100
AcDbEntity
  8
AM_7
100
AcDbLine
 10
2745.615137422908
 20
1475.752306976682
 30
0.0
 11
2745.615137422908
 21
1459.764306976682
 31
0.0
  0
LINE
  5
2347
330
1F
100
AcDbEntity
  8
AM_7
100
AcDbLine
 10
2697.821137422908
 20
1467.758306976683
 30
0.0
 11
2703.409137422907
 21
1467.758306976683
 31
0.0
  0
LINE
  5
2348
330
1F
100
AcDbEntity
  8
AM_7
100
AcDbLine
 10
2700.615137422908
 20
1464.964306976683
 30
0.0
 11
2700.615137422908
 21
1470.552306976683
 31
0.0
  0
LINE
  5
234D
330
1F
100
AcDbEntity
  8
AM_7
100
AcDbLine
 10
2707.821137422908
 20
1467.758306976683
 30
0.0
 11
2713.409137422908
 21
1467.758306976683
 31
0.0
  0
LINE
  5
234E
330
1F
100
AcDbEntity
  8
AM_7
100
AcDbLine
 10
2710.615137422907
 20
1464.964306976683
 30
0.0
 11
2710.615137422907
 21
1470.552306976683
 31
0.0
  0
CIRCLE
  5
2354
330
1F
100
AcDbEntity
  8
AM_4
  6
HIDDEN
 48
0.2
100
AcDbCircle
 10
2739.615137422908
 20
1457.758306976683
 30
0.0
 40
1.5
  0
CIRCLE
  5
2355
330
1F
100
AcDbEntity
  8
AM_4
  6
HIDDEN
 48
0.2
100
AcDbCircle
 10
2739.615137422908
 20
1477.758306976683
 30
0.0
 40
1.5
  0
CIRCLE
  5
2356
330
1F
100
AcDbEntity
  8
AM_4
  6
HIDDEN
 48
0.2
100
AcDbCircle
 10
2766.115137422908
 20
1459.758306976683
 30
0.0
 40
2.5
  0
CIRCLE
  5
2357
102
{ACAD_REACTORS
330
274C
102
}
330
1F
100
AcDbEntity
  8
AM_4
  6
HIDDEN
 48
0.2
100
AcDbCircle
 10
2766.115137422908
 20
1475.758306976683
 30
0.0
 40
2.5
  0
CIRCLE
  5
2358
330
1F
100
AcDbEntity
  8
AM_4
  6
HIDDEN
 48
0.2
100
AcDbCircle
 10
2700.615137422908
 20
1467.758306976683
 30
0.0
 40
2.0
  0
CIRCLE
  5
2359
330
1F
100
AcDbEntity
  8
AM_4
  6
HIDDEN
 48
0.2
100
AcDbCircle
 10
2710.615137422907
 20
1467.758306976683
 30
0.0
 40
2.0
  0
LINE
  5
235A
330
1F
100
AcDbEntity
  8
AM_7
100
AcDbLine
 10
2760.115137422908
 20
1338.388586506918
 30
0.0
 11
2760.115137422908
 21
1321.500586506918
 31
0.0
  0
LINE
  5
235B
330
1F
100
AcDbEntity
  8
AM_7
100
AcDbLine
 10
2754.107683880113
 20
1316.094586506918
 30
0.0
 11
2764.122590965703
 21
1316.094586506918
 31
0.0
  0
LINE
  5
235C
330
1F
100
AcDbEntity
  8
AM_7
100
AcDbLine
 10
2759.115137422908
 20
1311.087132964123
 30
0.0
 11
2759.115137422908
 21
1321.102040049712
 31
0.0
  0
LINE
  5
2360
330
1F
100
AcDbEntity
  8
AM_7
100
AcDbLine
 10
2759.115137422908
 20
1321.453986506918
 30
0.0
 11
2759.115137422908
 21
1323.138586506918
 31
0.0
  0
LINE
  5
2361
330
1F
100
AcDbEntity
  8
AM_7
100
AcDbLine
 10
2736.821137422908
 20
1332.594586506918
 30
0.0
 11
2742.409137422908
 21
1332.594586506918
 31
0.0
  0
LINE
  5
2362
330
1F
100
AcDbEntity
  8
AM_7
100
AcDbLine
 10
2739.615137422908
 20
1329.800586506918
 30
0.0
 11
2739.615137422908
 21
1335.388586506917
 31
0.0
  0
LINE
  5
2367
330
1F
100
AcDbEntity
  8
AM_7
100
AcDbLine
 10
2736.821137422908
 20
1312.594586506917
 30
0.0
 11
2742.409137422908
 21
1312.594586506917
 31
0.0
  0
LINE
  5
2368
330
1F
100
AcDbEntity
  8
AM_7
100
AcDbLine
 10
2739.615137422908
 20
1309.800586506918
 30
0.0
 11
2739.615137422908
 21
1315.388586506917
 31
0.0
  0
LINE
  5
236D
330
1F
100
AcDbEntity
  8
AM_7
100
AcDbLine
 10
2775.718137422908
 20
1329.094586506918
 30
0.0
 11
2778.512137422908
 21
1329.094586506918
 31
0.0
  0
LINE
  5
236E
330
1F
100
AcDbEntity
  8
AM_7
100
AcDbLine
 10
2777.115137422908
 20
1327.697586506918
 30
0.0
 11
2777.115137422908
 21
1330.491586506918
 31
0.0
  0
LINE
  5
2370
330
1F
100
AcDbEntity
  8
AM_7
100
AcDbLine
 10
2782.474537422908
 20
1329.094586506918
 30
0.0
 11
2784.159137422908
 21
1329.094586506918
 31
0.0
  0
LINE
  5
2372
330
1F
100
AcDbEntity
  8
AM_7
100
AcDbLine
 10
2777.115137422908
 20
1334.453986506918
 30
0.0
 11
2777.115137422908
 21
1336.138586506918
 31
0.0
  0
LINE
  5
2376
330
1F
100
AcDbEntity
  8
AM_7
100
AcDbLine
 10
2697.821137422908
 20
1322.594586506917
 30
0.0
 11
2703.409137422907
 21
1322.594586506917
 31
0.0
  0
LINE
  5
2377
330
1F
100
AcDbEntity
  8
AM_7
100
AcDbLine
 10
2700.615137422908
 20
1319.800586506917
 30
0.0
 11
2700.615137422908
 21
1325.388586506917
 31
0.0
  0
LINE
  5
237C
330
1F
100
AcDbEntity
  8
AM_7
100
AcDbLine
 10
2707.821137422908
 20
1322.594586506917
 30
0.0
 11
2713.409137422908
 21
1322.594586506917
 31
0.0
  0
LINE
  5
237D
330
1F
100
AcDbEntity
  8
AM_7
100
AcDbLine
 10
2710.615137422907
 20
1319.800586506917
 30
0.0
 11
2710.615137422907
 21
1325.388586506917
 31
0.0
  0
CIRCLE
  5
2383
330
1F
100
AcDbEntity
  8
AM_4
  6
HIDDEN
 48
0.2
100
AcDbCircle
 10
2759.115137422908
 20
1316.094586506918
 30
0.0
 40
2.5
  0
CIRCLE
  5
2384
330
1F
100
AcDbEntity
  8
AM_4
  6
HIDDEN
 48
0.2
100
AcDbCircle
 10
2739.615137422908
 20
1332.594586506918
 30
0.0
 40
1.5
  0
CIRCLE
  5
2385
330
1F
100
AcDbEntity
  8
AM_4
  6
HIDDEN
 48
0.2
100
AcDbCircle
 10
2739.615137422908
 20
1312.594586506917
 30
0.0
 40
1.5
  0
CIRCLE
  5
2386
102
{ACAD_REACTORS
330
27E0
102
}
330
1F
100
AcDbEntity
  8
AM_4
  6
HIDDEN
 48
0.2
100
AcDbCircle
 10
2777.115137422908
 20
1329.094586506918
 30
0.0
 40
2.5
  0
CIRCLE
  5
2387
330
1F
100
AcDbEntity
  8
AM_4
  6
HIDDEN
 48
0.2
100
AcDbCircle
 10
2700.615137422908
 20
1322.594586506917
 30
0.0
 40
2.0
  0
CIRCLE
  5
2388
102
{ACAD_REACTORS
330
2827
102
}
330
1F
100
AcDbEntity
  8
AM_4
  6
HIDDEN
 48
0.2
100
AcDbCircle
 10
2710.615137422907
 20
1322.594586506917
 30
0.0
 40
2.0
  0
LINE
  5
238F
330
1F
100
AcDbEntity
  8
AM_7
100
AcDbLine
 10
2823.751914166048
 20
1417.71589464708
 30
0.0
 11
2829.339914166048
 21
1417.71589464708
 31
0.0
  0
LINE
  5
2390
330
1F
100
AcDbEntity
  8
AM_7
100
AcDbLine
 10
2826.545914166048
 20
1414.921894647081
 30
0.0
 11
2826.545914166048
 21
1420.509894647081
 31
0.0
  0
LINE
  5
2391
330
1F
100
AcDbEntity
  8
AM_7
100
AcDbLine
 10
2821.701914166048
 20
1417.71589464708
 30
0.0
 11
2821.186514166048
 21
1417.71589464708
 31
0.0
  0
LINE
  5
2393
330
1F
100
AcDbEntity
  8
AM_7
100
AcDbLine
 10
2826.545914166048
 20
1412.871894647081
 30
0.0
 11
2826.545914166048
 21
1412.35649464708
 31
0.0
  0
LINE
  5
2395
330
1F
100
AcDbEntity
  8
AM_7
100
AcDbLine
 10
2839.751914166048
 20
1382.715894647081
 30
0.0
 11
2845.339914166048
 21
1382.715894647081
 31
0.0
  0
LINE
  5
2396
330
1F
100
AcDbEntity
  8
AM_7
100
AcDbLine
 10
2842.545914166048
 20
1379.921894647081
 30
0.0
 11
2842.545914166048
 21
1385.509894647081
 31
0.0
  0
LINE
  5
2397
330
1F
100
AcDbEntity
  8
AM_7
100
AcDbLine
 10
2837.701914166048
 20
1382.715894647081
 30
0.0
 11
2837.186514166048
 21
1382.715894647081
 31
0.0
  0
LINE
  5
2399
330
1F
100
AcDbEntity
  8
AM_7
100
AcDbLine
 10
2842.545914166048
 20
1377.871894647081
 30
0.0
 11
2842.545914166048
 21
1377.35649464708
 31
0.0
  0
CIRCLE
  5
23BB
102
{ACAD_REACTORS
330
28A5
102
}
330
1F
100
AcDbEntity
  8
AM_4
  6
HIDDEN
 48
0.2
100
AcDbCircle
 10
2826.545914166048
 20
1417.71589464708
 30
0.0
 40
2.5
  0
CIRCLE
  5
23BC
330
1F
100
AcDbEntity
  8
AM_4
  6
HIDDEN
 48
0.2
100
AcDbCircle
 10
2842.545914166048
 20
1382.715894647081
 30
0.0
 40
2.5
  0
DIMENSION
  5
23BD
330
1F
100
AcDbEntity
  8
AM_REFDIM
100
AcDbDimension
  2
*D57
 10
2688.615137422908
 20
1328.594586506917
 30
0.0
 11
2686.448470756241
 21
1322.594586506918
 31
0.0
 70
    32
 71
     5
 42
12.0
  3
AM_ANSI$0
100
AcDbAlignedDimension
 13
2696.615137422908
 23
1316.594586506918
 33
0.0
 14
2696.615137422908
 24
1328.594586506917
 34
0.0
 50
90.0
100
AcDbRotatedDimension
1001
ACAD
1000
DSTYLE
1002
{
1070
    71
1070
     0
1070
   272
1070
     8
1002
}
  0
DIMENSION
  5
23BE
330
1F
100
AcDbEntity
  8
AM_REFDIM
100
AcDbDimension
  2
*D58
 10
2700.615137422908
 20
1309.235186506917
 30
0.0
 11
2698.615137422908
 21
1311.401853173584
 31
0.0
 70
    32
 71
     5
 42
4.0
  3
AM_ANSI$0
100
AcDbAlignedDimension
 13
2696.615137422908
 23
1316.594586506918
 33
0.0
 14
2700.615137422908
 24
1319.800586506917
 34
0.0
100
AcDbRotatedDimension
1001
ACAD
1000
DSTYLE
1002
{
1070
   172
1070
     1
1070
    71
1070
     0
1070
   272
1070
     8
1002
}
  0
DIMENSION
  5
23BF
330
1F
100
AcDbEntity
  8
AM_REFDIM
100
AcDbDimension
  2
*D59
 10
2710.615137422907
 20
1309.235186506917
 30
0.0
 11
2705.615137422908
 21
1311.401853173584
 31
0.0
 70
    32
 71
     5
 42
10.0
  3
AM_ANSI$0
100
AcDbAlignedDimension
 13
2700.615137422908
 23
1319.13391984025
 33
0.0
 14
2710.615137422907
 24
1319.800586506917
 34
0.0
100
AcDbRotatedDimension
1001
ACAD
1000
DSTYLE
1002
{
1070
    71
1070
     0
1070
   272
1070
     8
1002
}
  0
DIMENSION
  5
23C0
330
1F
100
AcDbEntity
  8
AM_REFDIM
100
AcDbDimension
  2
*D60
 10
2785.115137422908
 20
1301.594586506918
 30
0.0
 11
2772.115137422908
 21
1303.761253173584
 31
0.0
 70
    32
 71
     5
 42
26.0
  3
AM_ANSI$0
100
AcDbAlignedDimension
 13
2759.115137422908
 23
1311.087132964123
 33
0.0
 14
2785.115137422908
 24
1309.594586506918
 34
0.0
100
AcDbRotatedDimension
1001
ACAD
1000
DSTYLE
1002
{
1070
    71
1070
     0
1070
   272
1070
     8
1002
}
  0
DIMENSION
  5
23C1
330
1F
100
AcDbEntity
  8
AM_REFDIM
100
AcDbDimension
  2
*D61
 10
2795.87425912556
 20
1329.094586506918
 30
0.0
 11
2793.707592458894
 21
1322.594586506918
 31
0.0
 70
    32
 71
     5
 42
13.0
  3
AM_ANSI$0
100
AcDbAlignedDimension
 13
2764.122590965703
 23
1316.094586506918
 33
0.0
 14
2779.615137422908
 24
1329.094586506918
 34
0.0
 50
90.0
100
AcDbRotatedDimension
1001
ACAD
1000
DSTYLE
1002
{
1070
    71
1070
     0
1070
   272
1070
     8
1002
}
  0
DIMENSION
  5
23C2
330
1F
100
AcDbEntity
  8
AM_REFDIM
100
AcDbDimension
  2
*D62
 10
2785.115137422908
 20
1343.594586506918
 30
0.0
 11
2781.115137422908
 21
1345.761253173584
 31
0.0
 70
    32
 71
     5
 42
8.0
  3
AM_ANSI$0
100
AcDbAlignedDimension
 13
2777.115137422908
 23
1331.144586506918
 33
0.0
 14
2785.115137422908
 24
1335.594586506918
 34
0.0
100
AcDbRotatedDimension
1001
ACAD
1000
DSTYLE
1002
{
1070
    71
1070
     0
1070
   272
1070
     8
1002
}
  0
DIMENSION
  5
23C4
330
1F
100
AcDbEntity
  8
AM_REFDIM
100
AcDbDimension
  2
*D64
 10
2715.615137422908
 20
1369.715894647081
 30
0.0
 11
2706.115137422908
 21
1371.882561313747
 31
0.0
 70
    32
 71
     5
 42
19.0
  3
AM_ANSI$0
100
AcDbAlignedDimension
 13
2696.615137422908
 23
1377.980385539939
 33
0.0
 14
2715.615137422908
 24
1377.71589464708
 34
0.0
100
AcDbRotatedDimension
1001
ACAD
1000
DSTYLE
1002
{
1070
    71
1070
     0
1070
   272
1070
     8
1002
}
  0
DIMENSION
  5
23C5
330
1F
100
AcDbEntity
  8
AM_REFDIM
100
AcDbDimension
  2
*D65
 10
2785.115137422908
 20
1369.715894647081
 30
0.0
 11
2750.365137422908
 21
1371.882561313747
 31
0.0
 70
    32
 71
     5
 42
69.5
  3
AM_ANSI$0
100
AcDbAlignedDimension
 13
2715.615137422908
 23
1377.71589464708
 33
0.0
 14
2785.115137422908
 24
1377.71589464708
 34
0.0
100
AcDbRotatedDimension
1001
ACAD
1000
DSTYLE
1002
{
1070
    71
1070
     0
1070
   272
1070
     8
1002
}
  0
DIMENSION
  5
23C6
330
1F
100
AcDbEntity
  8
AM_REFDIM
100
AcDbDimension
  2
*D66
 10
2785.115137422908
 20
1363.049227980414
 30
0.0
 11
2740.865137422908
 21
1365.21589464708
 31
0.0
 70
    32
 71
     5
 42
88.49999999999999
  3
AM_ANSI$0
100
AcDbAlignedDimension
 13
2696.615137422908
 23
1377.980385539939
 33
0.0
 14
2785.115137422908
 24
1377.71589464708
 34
0.0
100
AcDbRotatedDimension
1001
ACAD
1000
DSTYLE
1002
{
1070
    71
1070
     0
1070
   272
1070
     8
1002
}
  0
DIMENSION
  5
23C7
330
1F
100
AcDbEntity
  8
AM_REFDIM
100
AcDbDimension
  2
*D67
 10
2688.615137422908
 20
1383.980385539939
 30
0.0
 11
2686.448470756241
 21
1380.980385539939
 31
0.0
 70
    32
 71
     5
 42
6.0
  3
AM_ANSI$0
100
AcDbAlignedDimension
 13
2696.615137422908
 23
1377.980385539939
 33
0.0
 14
2696.615137422908
 24
1383.980385539939
 34
0.0
 50
90.0
100
AcDbRotatedDimension
1001
ACAD
1000
DSTYLE
1002
{
1070
    71
1070
     0
1070
   272
1070
     8
1002
}
  0
DIMENSION
  5
23C9
330
1F
100
AcDbEntity
  8
AM_REFDIM
100
AcDbDimension
  2
*D69
 10
2688.615137422908
 20
1422.451403754222
 30
0.0
 11
2686.448470756241
 21
1419.451403754223
 31
0.0
 70
    32
 71
     5
 42
6.0
  3
AM_ANSI$0
100
AcDbAlignedDimension
 13
2696.615137422908
 23
1416.451403754222
 33
0.0
 14
2696.615137422908
 24
1422.451403754222
 34
0.0
 50
90.0
100
AcDbRotatedDimension
1001
ACAD
1000
DSTYLE
1002
{
1070
    71
1070
     0
1070
   272
1070
     8
1002
}
  0
DIMENSION
  5
23CA
330
1F
100
AcDbEntity
  8
AM_REFDIM
100
AcDbDimension
  2
*D70
 10
2681.948470756241
 20
1422.451403754222
 30
0.0
 11
2679.170692978463
 21
1400.215894647081
 31
0.0
 70
    32
  1
<>(OPEN)
 71
     5
 42
44.47101821428373
  3
AM_ANSI$0
100
AcDbAlignedDimension
 13
2696.615137422908
 23
1377.980385539939
 33
0.0
 14
2696.615137422908
 24
1422.451403754222
 34
0.0
 50
90.0
100
AcDbRotatedDimension
1001
ACAD
1000
DSTYLE
1002
{
1070
    71
1070
     0
1070
   271
1070
     0
1070
   272
1070
     8
1002
}
  0
DIMENSION
  5
23CB
330
1F
100
AcDbEntity
  8
AM_REFDIM
100
AcDbDimension
  2
*D71
 10
2799.053150556839
 20
1415.21589464708
 30
0.0
 11
2796.886483890172
 21
1400.215894647081
 31
0.0
 70
    32
 71
     5
 42
30.0
  3
AM_ANSI$0
100
AcDbAlignedDimension
 13
2761.512137422908
 23
1385.21589464708
 33
0.0
 14
2763.048837422908
 24
1415.21589464708
 34
0.0
 50
90.0
100
AcDbRotatedDimension
1001
ACAD
1000
DSTYLE
1002
{
1070
    71
1070
     0
1070
   272
1070
     8
1002
}
  0
DIMENSION
  5
23CC
330
1F
100
AcDbEntity
  8
AM_REFDIM
100
AcDbDimension
  2
*D72
 10
2785.115137422908
 20
1430.715894647081
 30
0.0
 11
2772.615137422908
 21
1432.882561313747
 31
0.0
 70
    32
 71
     5
 42
25.0
  3
AM_ANSI$0
100
AcDbAlignedDimension
 13
2760.115137422908
 23
1418.149594647081
 33
0.0
 14
2785.115137422908
 24
1422.715894647081
 34
0.0
100
AcDbRotatedDimension
1001
ACAD
1000
DSTYLE
1002
{
1070
    71
1070
     0
1070
   272
1070
     8
1002
}
  0
DIMENSION
  5
23CD
330
1F
100
AcDbEntity
  8
AM_REFDIM
100
AcDbDimension
  2
*D73
 10
2785.115137422908
 20
1446.758306976682
 30
0.0
 11
2775.615137422908
 21
1448.924973643349
 31
0.0
 70
    32
 71
     5
 42
19.0
  3
AM_ANSI$0
100
AcDbAlignedDimension
 13
2766.115137422908
 23
1456.964306976683
 33
0.0
 14
2785.115137422908
 24
1454.758306976683
 34
0.0
100
AcDbRotatedDimension
1001
ACAD
1000
DSTYLE
1002
{
1070
    71
1070
     0
1070
   272
1070
     8
1002
}
  0
DIMENSION
  5
23D0
330
1F
100
AcDbEntity
  8
AM_REFDIM
100
AcDbDimension
  2
*D76
 10
2842.545914166048
 20
1368.947996124182
 30
0.0
 11
2834.545914166048
 21
1371.114662790848
 31
0.0
 70
    32
 71
     5
 42
16.0
  3
AM_ANSI$0
100
AcDbAlignedDimension
 13
2826.545914166048
 23
1414.921894647081
 33
0.0
 14
2842.545914166048
 24
1379.921894647081
 34
0.0
100
AcDbRotatedDimension
1001
ACAD
1000
DSTYLE
1002
{
1070
    71
1070
     0
1070
   272
1070
     8
1002
}
  0
DIMENSION
  5
23D1
330
1F
100
AcDbEntity
  8
AM_REFDIM
100
AcDbDimension
  2
*D77
 10
2847.545914166048
 20
1362.281329457515
 30
0.0
 11
2834.545914166048
 21
1364.447996124181
 31
0.0
 70
    32
 71
     5
 42
26.0
  3
AM_ANSI$0
100
AcDbAlignedDimension
 13
2821.545914166048
 23
1378.215894647081
 33
0.0
 14
2847.545914166048
 24
1378.215894647081
 34
0.0
100
AcDbRotatedDimension
1001
ACAD
1000
DSTYLE
1002
{
1070
    71
1070
     0
1070
   272
1070
     8
1002
}
  0
DIMENSION
  5
23D2
330
1F
100
AcDbEntity
  8
AM_REFDIM
100
AcDbDimension
  2
*D78
 10
2817.148914166049
 20
1417.71589464708
 30
0.0
 11
2814.982247499381
 21
1400.215894647081
 31
0.0
 70
    32
 71
     5
 42
35.0
  3
AM_ANSI$0
100
AcDbAlignedDimension
 13
2839.751914166048
 23
1382.715894647081
 33
0.0
 14
2823.751914166048
 24
1417.71589464708
 34
0.0
 50
90.0
100
AcDbRotatedDimension
1001
ACAD
1000
DSTYLE
1002
{
1070
    71
1070
     0
1070
   272
1070
     8
1002
}
  0
DIMENSION
  5
23D3
330
1F
100
AcDbEntity
  8
AM_REFDIM
100
AcDbDimension
  2
*D79
 10
2810.482247499382
 20
1422.715894647081
 30
0.0
 11
2808.315580832715
 21
1400.215894647081
 31
0.0
 70
    32
 71
     5
 42
45.0
  3
AM_ANSI$0
100
AcDbAlignedDimension
 13
2822.045914166048
 23
1377.71589464708
 33
0.0
 14
2822.045914166048
 24
1422.715894647081
 34
0.0
 50
90.0
100
AcDbRotatedDimension
1001
ACAD
1000
DSTYLE
1002
{
1070
    71
1070
     0
1070
   272
1070
     8
1002
}
  0
DIMENSION
  5
23D7
330
1F
100
AcDbEntity
  8
AM_REFDIM
100
AcDbDimension
  2
*D82
 10
2798.946564519573
 20
1459.758306976683
 30
0.0
 11
2796.779897852906
 21
1467.758306976683
 31
0.0
 70
    32
 71
     5
 42
16.0
  3
AM_ANSI$0
100
AcDbAlignedDimension
 13
2768.909137422908
 23
1475.758306976683
 33
0.0
 14
2768.909137422908
 24
1459.758306976683
 34
0.0
 50
90.0
100
AcDbRotatedDimension
1001
ACAD
1000
DSTYLE
1002
{
1070
    71
1070
     0
1070
   272
1070
     8
1002
}
  0
LINE
  5
23D8
330
1F
100
AcDbEntity
  8
AM_VIS
100
AcDbLine
 10
2758.71781856166
 20
1416.71589464708
 30
0.0
 11
2761.512456284156
 21
1416.71589464708
 31
0.0
  0
LINE
  5
23D9
330
1F
100
AcDbEntity
  8
AM_VIS
100
AcDbLine
 10
2759.665137422907
 20
1417.21589464708
 30
0.0
 11
2760.565137422908
 21
1417.21589464708
 31
0.0
  0
LINE
  5
23DA
330
1F
100
AcDbEntity
  8
AM_VIS
100
AcDbLine
 10
2759.665137422908
 20
1383.21589464708
 30
0.0
 11
2760.565137422907
 21
1383.21589464708
 31
0.0
  0
LINE
  5
23DB
330
1F
100
AcDbEntity
  8
AM_VIS
100
AcDbLine
 10
2758.154907844517
 20
1385.815894647081
 30
0.0
 11
2762.075367001299
 21
1385.815894647081
 31
0.0
  0
LINE
  5
23DC
330
1F
100
AcDbEntity
  8
AM_VIS
100
AcDbLine
 10
2758.71781856166
 20
1383.71589464708
 30
0.0
 11
2761.512456284156
 21
1383.71589464708
 31
0.0
  0
LINE
  5
23DD
330
1F
100
AcDbEntity
  8
AM_VIS
100
AcDbLine
 10
2762.075367001299
 20
1414.615894647081
 30
0.0
 11
2758.154907844517
 21
1414.615894647081
 31
0.0
  0
LINE
  5
23DE
330
1F
100
AcDbEntity
  8
AM_VIS
100
AcDbLine
 10
2715.615137422908
 20
1377.71589464708
 30
0.0
 11
2785.115137422908
 21
1377.71589464708
 31
0.0
  0
LINE
  5
23DF
330
1F
100
AcDbEntity
  8
AM_VIS
100
AcDbLine
 10
2715.615137422908
 20
1378.215894647081
 30
0.0
 11
2715.615137422908
 21
1377.71589464708
 31
0.0
  0
LINE
  5
23E0
330
1F
100
AcDbEntity
  8
AM_VIS
100
AcDbLine
 10
2785.115137422908
 20
1378.215894647081
 30
0.0
 11
2715.615137422908
 21
1378.215894647081
 31
0.0
  0
LINE
  5
23E1
330
1F
100
AcDbEntity
  8
AM_VIS
100
AcDbLine
 10
2715.615137422908
 20
1422.21589464708
 30
0.0
 11
2715.615137422908
 21
1378.215894647081
 31
0.0
  0
LINE
  5
23E2
330
1F
100
AcDbEntity
  8
AM_VIS
100
AcDbLine
 10
2785.115137422908
 20
1377.71589464708
 30
0.0
 11
2785.115137422908
 21
1378.215894647081
 31
0.0
  0
LINE
  5
23E3
330
1F
100
AcDbEntity
  8
AM_VIS
100
AcDbLine
 10
2785.115137422908
 20
1422.21589464708
 30
0.0
 11
2785.115137422908
 21
1378.215894647081
 31
0.0
  0
LINE
  5
23E4
330
1F
100
AcDbEntity
  8
AM_VIS
100
AcDbLine
 10
2785.115137422908
 20
1422.715894647081
 30
0.0
 11
2715.615137422908
 21
1422.715894647081
 31
0.0
  0
LINE
  5
23E5
330
1F
100
AcDbEntity
  8
AM_VIS
100
AcDbLine
 10
2785.115137422908
 20
1422.21589464708
 30
0.0
 11
2785.115137422908
 21
1422.715894647081
 31
0.0
  0
LINE
  5
23E6
330
1F
100
AcDbEntity
  8
AM_VIS
100
AcDbLine
 10
2715.615137422908
 20
1422.21589464708
 30
0.0
 11
2785.115137422908
 21
1422.21589464708
 31
0.0
  0
LINE
  5
23E7
330
1F
100
AcDbEntity
  8
AM_VIS
100
AcDbLine
 10
2715.615137422908
 20
1422.715894647081
 30
0.0
 11
2715.615137422908
 21
1422.21589464708
 31
0.0
  0
CIRCLE
  5
23EC
330
1F
100
AcDbEntity
  8
AM_VIS
100
AcDbCircle
 10
2760.115137422908
 20
1385.21589464708
 30
0.0
 40
2.049999999999999
  0
CIRCLE
  5
23ED
330
1F
100
AcDbEntity
  8
AM_VIS
100
AcDbCircle
 10
2760.115137422908
 20
1415.21589464708
 30
0.0
 40
2.049999999999999
  0
LINE
  5
23EE
330
1F
100
AcDbEntity
  8
AM_VIS
100
AcDbLine
 10
2696.615137422908
 20
1422.451403754222
 30
0.0
 11
2696.615137422908
 21
1416.451403754222
 31
0.0
  0
LINE
  5
23EF
330
1F
100
AcDbEntity
  8
AM_VIS
100
AcDbLine
 10
2715.615137422908
 20
1416.451403754222
 30
0.0
 11
2696.615137422908
 21
1416.451403754222
 31
0.0
  0
LINE
  5
23F0
330
1F
100
AcDbEntity
  8
AM_VIS
100
AcDbLine
 10
2715.615137422908
 20
1422.451403754222
 30
0.0
 11
2696.615137422908
 21
1422.451403754222
 31
0.0
  0
LINE
  5
23F1
330
1F
100
AcDbEntity
  8
AM_VIS
100
AcDbLine
 10
2696.615137422908
 20
1383.980385539939
 30
0.0
 11
2696.615137422908
 21
1377.980385539938
 31
0.0
  0
LINE
  5
23F2
330
1F
100
AcDbEntity
  8
AM_VIS
100
AcDbLine
 10
2715.615137422908
 20
1383.980385539939
 30
0.0
 11
2696.615137422908
 21
1383.980385539939
 31
0.0
  0
LINE
  5
23F3
330
1F
100
AcDbEntity
  8
AM_VIS
100
AcDbLine
 10
2715.615137422908
 20
1377.980385539939
 30
0.0
 11
2696.615137422908
 21
1377.980385539939
 31
0.0
  0
LINE
  5
23F8
330
1F
100
AcDbEntity
  8
AM_VIS
100
AcDbLine
 10
2785.115137422908
 20
1469.658306976682
 30
0.0
 11
2750.615137422908
 21
1469.658306976682
 31
0.0
  0
LINE
  5
23F9
330
1F
100
AcDbEntity
  8
AM_VIS
100
AcDbLine
 10
2750.615137422908
 20
1469.458306976682
 30
0.0
 11
2785.115137422908
 21
1469.458306976682
 31
0.0
  0
LINE
  5
23FA
330
1F
100
AcDbEntity
  8
AM_VIS
100
AcDbLine
 10
2715.615137422908
 20
1461.258306976683
 30
0.0
 11
2715.615137422908
 21
1455.258306976683
 31
0.0
  0
LINE
  5
23FB
330
1F
100
AcDbEntity
  8
AM_VIS
100
AcDbLine
 10
2785.115137422908
 20
1465.508306976682
 30
0.0
 11
2750.615137422908
 21
1465.508306976682
 31
0.0
  0
LINE
  5
23FC
330
1F
100
AcDbEntity
  8
AM_VIS
100
AcDbLine
 10
2750.615137422908
 20
1465.858306976682
 30
0.0
 11
2785.115137422908
 21
1465.858306976682
 31
0.0
  0
LINE
  5
23FD
330
1F
100
AcDbEntity
  8
AM_VIS
100
AcDbLine
 10
2785.115137422908
 20
1467.308306976683
 30
0.0
 11
2750.615137422908
 21
1467.308306976683
 31
0.0
  0
LINE
  5
23FE
330
1F
100
AcDbEntity
  8
AM_VIS
100
AcDbLine
 10
2750.615137422908
 20
1468.208306976683
 30
0.0
 11
2785.115137422908
 21
1468.208306976683
 31
0.0
  0
LINE
  5
23FF
330
1F
100
AcDbEntity
  8
AM_VIS
100
AcDbLine
 10
2736.115137422908
 20
1461.258306976683
 30
0.0
 11
2715.615137422908
 21
1461.258306976683
 31
0.0
  0
LINE
  5
2400
330
1F
100
AcDbEntity
  8
AM_VIS
100
AcDbLine
 10
2736.115137422908
 20
1462.258306976683
 30
0.0
 11
2736.115137422908
 21
1461.258306976683
 31
0.0
  0
LINE
  5
2401
330
1F
100
AcDbEntity
  8
AM_VIS
100
AcDbLine
 10
2785.115137422908
 20
1466.058306976682
 30
0.0
 11
2750.615137422908
 21
1466.058306976682
 31
0.0
  0
SPLINE
  5
2402
330
1F
100
AcDbEntity
  8
AM_VIS
100
AcDbSpline
210
0.0
220
0.0
230
1.0
 70
     8
 71
     3
 72
    22
 73
    18
 74
     0
 42
0.0000000001
 43
0.0000000001
 40
5.123494290859882
 40
5.123494290859882
 40
5.123494290859882
 40
5.123494290859882
 40
5.20022808029003
 40
5.20022808029003
 40
5.731084455371775
 40
5.731084455371775
 40
5.996512642912647
 40
5.996512642912647
 40
6.26194083045352
 40
6.26194083045352
 40
6.527369017994392
 40
6.527369017994392
 40
6.792797205535265
 40
6.792797205535265
 40
7.323653580617009
 40
7.323653580617009
 40
7.400387370047153
 40
7.400387370047153
 40
7.400387370047153
 40
7.400387370047153
 10
2759.050997504765
 20
1466.058306976682
 30
0.0
 10
2759.071151537186
 20
1466.069586705935
 30
0.0
 10
2759.091301339567
 20
1466.080762577969
 30
0.0
 10
2759.250633154716
 20
1466.168095734106
 30
0.0
 10
2759.412028209949
 20
1466.251370912269
 30
0.0
 10
2759.669415596369
 20
1466.347397794088
 30
0.0
 10
2759.757910433521
 20
1466.374364584914
 30
0.0
 10
2759.936513829441
 20
1466.41120209632
 30
0.0
 10
2760.026661360394
 20
1466.420895009218
 30
0.0
 10
2760.203613485421
 20
1466.420895009218
 30
0.0
 10
2760.293761016375
 20
1466.41120209632
 30
0.0
 10
2760.472364412295
 20
1466.374364584914
 30
0.0
 10
2760.560859249447
 20
1466.347397794088
 30
0.0
 10
2760.818246635867
 20
1466.251370912269
 30
0.0
 10
2760.9796416911
 20
1466.168095734106
 30
0.0
 10
2761.138973506249
 20
1466.080762577969
 30
0.0
 10
2761.15912330863
 20
1466.069586705935
 30
0.0
 10
2761.17927734105
 20
1466.058306976682
 30
0.0
  0
LINE
  5
2403
330
1F
100
AcDbEntity
  8
AM_VIS
100
AcDbLine
 10
2785.115137422908
 20
1465.508306976682
 30
0.0
 11
2785.115137422908
 21
1455.258306976683
 31
0.0
  0
LINE
  5
2404
330
1F
100
AcDbEntity
  8
AM_VIS
100
AcDbLine
 10
2785.115137422908
 20
1465.858306976682
 30
0.0
 11
2785.115137422908
 21
1465.508306976682
 31
0.0
  0
LINE
  5
2405
330
1F
100
AcDbEntity
  8
AM_VIS
100
AcDbLine
 10
2785.115137422908
 20
1468.208306976683
 30
0.0
 11
2785.115137422908
 21
1467.308306976683
 31
0.0
  0
LINE
  5
2406
330
1F
100
AcDbEntity
  8
AM_VIS
100
AcDbLine
 10
2785.115137422908
 20
1470.008306976682
 30
0.0
 11
2785.115137422908
 21
1469.658306976682
 31
0.0
  0
LINE
  5
2407
330
1F
100
AcDbEntity
  8
AM_VIS
100
AcDbLine
 10
2785.115137422908
 20
1455.258306976683
 30
0.0
 11
2715.615137422908
 21
1455.258306976683
 31
0.0
  0
LINE
  5
2408
330
1F
100
AcDbEntity
  8
AM_VIS
100
AcDbLine
 10
2785.115137422908
 20
1454.758306976683
 30
0.0
 11
2785.115137422908
 21
1455.258306976683
 31
0.0
  0
LINE
  5
2409
330
1F
100
AcDbEntity
  8
AM_VIS
100
AcDbLine
 10
2715.615137422908
 20
1454.758306976683
 30
0.0
 11
2785.115137422908
 21
1454.758306976683
 31
0.0
  0
LINE
  5
240A
330
1F
100
AcDbEntity
  8
AM_VIS
100
AcDbLine
 10
2715.615137422908
 20
1455.258306976683
 30
0.0
 11
2715.615137422908
 21
1454.758306976683
 31
0.0
  0
LINE
  5
240B
330
1F
100
AcDbEntity
  8
AM_VIS
100
AcDbLine
 10
2785.115137422908
 20
1480.258306976683
 30
0.0
 11
2785.115137422908
 21
1470.008306976682
 31
0.0
  0
LINE
  5
240C
330
1F
100
AcDbEntity
  8
AM_VIS
100
AcDbLine
 10
2750.615137422908
 20
1470.008306976682
 30
0.0
 11
2785.115137422908
 21
1470.008306976682
 31
0.0
  0
LINE
  5
240D
330
1F
100
AcDbEntity
  8
AM_VIS
100
AcDbLine
 10
2715.615137422908
 20
1474.258306976683
 30
0.0
 11
2736.115137422908
 21
1474.258306976683
 31
0.0
  0
LINE
  5
240E
330
1F
100
AcDbEntity
  8
AM_VIS
100
AcDbLine
 10
2715.615137422908
 20
1480.258306976683
 30
0.0
 11
2715.615137422908
 21
1474.258306976683
 31
0.0
  0
LINE
  5
240F
330
1F
100
AcDbEntity
  8
AM_VIS
100
AcDbLine
 10
2785.115137422908
 20
1480.758306976682
 30
0.0
 11
2715.615137422908
 21
1480.758306976682
 31
0.0
  0
LINE
  5
2410
330
1F
100
AcDbEntity
  8
AM_VIS
100
AcDbLine
 10
2785.115137422908
 20
1480.258306976683
 30
0.0
 11
2785.115137422908
 21
1480.758306976682
 31
0.0
  0
LINE
  5
2411
330
1F
100
AcDbEntity
  8
AM_VIS
100
AcDbLine
 10
2715.615137422908
 20
1480.258306976683
 30
0.0
 11
2785.115137422908
 21
1480.258306976683
 31
0.0
  0
LINE
  5
2412
330
1F
100
AcDbEntity
  8
AM_VIS
100
AcDbLine
 10
2715.615137422908
 20
1480.758306976682
 30
0.0
 11
2715.615137422908
 21
1480.258306976683
 31
0.0
  0
LINE
  5
2413
330
1F
100
AcDbEntity
  8
AM_VIS
100
AcDbLine
 10
2736.115137422908
 20
1473.258306976682
 30
0.0
 11
2750.615137422908
 21
1473.258306976682
 31
0.0
  0
LINE
  5
2414
330
1F
100
AcDbEntity
  8
AM_VIS
100
AcDbLine
 10
2750.615137422908
 20
1473.258306976682
 30
0.0
 11
2750.615137422908
 21
1470.008306976682
 31
0.0
  0
LINE
  5
2415
330
1F
100
AcDbEntity
  8
AM_VIS
100
AcDbLine
 10
2750.615137422908
 20
1470.008306976682
 30
0.0
 11
2750.615137422908
 21
1469.658306976682
 31
0.0
  0
LINE
  5
2416
330
1F
100
AcDbEntity
  8
AM_VIS
100
AcDbLine
 10
2750.615137422908
 20
1468.208306976683
 30
0.0
 11
2750.615137422908
 21
1467.308306976683
 31
0.0
  0
LINE
  5
2417
330
1F
100
AcDbEntity
  8
AM_VIS
100
AcDbLine
 10
2750.615137422908
 20
1465.858306976682
 30
0.0
 11
2750.615137422908
 21
1465.508306976682
 31
0.0
  0
LINE
  5
2418
330
1F
100
AcDbEntity
  8
AM_VIS
100
AcDbLine
 10
2750.615137422908
 20
1465.508306976682
 30
0.0
 11
2750.615137422908
 21
1462.258306976683
 31
0.0
  0
LINE
  5
2419
330
1F
100
AcDbEntity
  8
AM_VIS
100
AcDbLine
 10
2736.115137422908
 20
1474.258306976683
 30
0.0
 11
2736.115137422908
 21
1473.258306976682
 31
0.0
  0
LINE
  5
241A
330
1F
100
AcDbEntity
  8
AM_VIS
100
AcDbLine
 10
2750.615137422908
 20
1462.258306976683
 30
0.0
 11
2736.115137422908
 21
1462.258306976683
 31
0.0
  0
CIRCLE
  5
241B
330
1F
100
AcDbEntity
  8
AM_VIS
100
AcDbCircle
 10
2739.615137422908
 20
1457.758306976683
 30
0.0
 40
1.199999999999999
  0
CIRCLE
  5
241C
330
1F
100
AcDbEntity
  8
AM_VIS
100
AcDbCircle
 10
2766.115137422908
 20
1459.758306976683
 30
0.0
 40
2.049999999999999
  0
LINE
  5
241D
330
1F
100
AcDbEntity
  8
AM_VIS
100
AcDbLine
 10
2785.115137422908
 20
1466.058306976682
 30
0.0
 11
2785.115137422908
 21
1465.858306976682
 31
0.0
  0
LINE
  5
241E
330
1F
100
AcDbEntity
  8
AM_VIS
100
AcDbLine
 10
2785.115137422908
 20
1466.058306976682
 30
0.0
 11
2785.115137422908
 21
1467.308306976683
 31
0.0
  0
LINE
  5
241F
330
1F
100
AcDbEntity
  8
AM_VIS
100
AcDbLine
 10
2785.115137422908
 20
1468.208306976683
 30
0.0
 11
2785.115137422908
 21
1469.458306976682
 31
0.0
  0
LINE
  5
2420
330
1F
100
AcDbEntity
  8
AM_VIS
100
AcDbLine
 10
2785.115137422908
 20
1469.658306976682
 30
0.0
 11
2785.115137422908
 21
1469.458306976682
 31
0.0
  0
CIRCLE
  5
2421
330
1F
100
AcDbEntity
  8
AM_VIS
100
AcDbCircle
 10
2766.115137422908
 20
1475.758306976683
 30
0.0
 40
2.049999999999999
  0
CIRCLE
  5
2422
330
1F
100
AcDbEntity
  8
AM_VIS
100
AcDbCircle
 10
2739.615137422908
 20
1477.758306976683
 30
0.0
 40
1.199999999999999
  0
LINE
  5
2423
330
1F
100
AcDbEntity
  8
AM_VIS
100
AcDbLine
 10
2750.615137422908
 20
1469.458306976682
 30
0.0
 11
2750.615137422908
 21
1469.658306976682
 31
0.0
  0
LINE
  5
2424
330
1F
100
AcDbEntity
  8
AM_VIS
100
AcDbLine
 10
2750.615137422908
 20
1469.458306976682
 30
0.0
 11
2750.615137422908
 21
1468.208306976683
 31
0.0
  0
LINE
  5
2425
330
1F
100
AcDbEntity
  8
AM_VIS
100
AcDbLine
 10
2750.615137422908
 20
1467.308306976683
 30
0.0
 11
2750.615137422908
 21
1466.058306976682
 31
0.0
  0
LINE
  5
2426
330
1F
100
AcDbEntity
  8
AM_VIS
100
AcDbLine
 10
2750.615137422908
 20
1465.858306976682
 30
0.0
 11
2750.615137422908
 21
1466.058306976682
 31
0.0
  0
LINE
  5
2427
330
1F
100
AcDbEntity
  8
AM_VIS
100
AcDbLine
 10
2746.962613279272
 20
1466.158306976682
 30
0.0
 11
2750.615137422908
 21
1466.158306976682
 31
0.0
  0
LINE
  5
2428
330
1F
100
AcDbEntity
  8
AM_VIS
100
AcDbLine
 10
2750.615137422908
 20
1469.358306976682
 30
0.0
 11
2746.962613279272
 21
1469.358306976682
 31
0.0
  0
LINE
  5
2429
330
1F
100
AcDbEntity
  8
AM_VIS
100
AcDbLine
 10
2733.805505350434
 20
1472.758306976683
 30
0.0
 11
2733.805505350434
 21
1469.758306976683
 31
0.0
  0
LINE
  5
242A
330
1F
100
AcDbEntity
  8
AM_VIS
100
AcDbLine
 10
2749.867429315509
 20
1469.658306976683
 30
0.0
 11
2749.867429315509
 21
1472.758306976683
 31
0.0
  0
LINE
  5
242B
330
1F
100
AcDbEntity
  8
AM_VIS
100
AcDbLine
 10
2746.962613279272
 20
1465.758306976683
 30
0.0
 11
2746.962613279272
 21
1469.658306976683
 31
0.0
  0
LINE
  5
242C
330
1F
100
AcDbEntity
  8
AM_VIS
100
AcDbLine
 10
2738.034575756132
 20
1472.758306976683
 30
0.0
 11
2738.034575756132
 21
1465.758306976683
 31
0.0
  0
LINE
  5
242D
330
1F
100
AcDbEntity
  8
AM_VIS
100
AcDbLine
 10
2742.519953459145
 20
1465.758306976683
 30
0.0
 11
2742.519953459145
 21
1472.758306976683
 31
0.0
  0
LINE
  5
242E
330
1F
100
AcDbEntity
  8
AM_VIS
100
AcDbLine
 10
2738.034575756132
 20
1465.758306976683
 30
0.0
 11
2721.410437512188
 21
1465.758306976683
 31
0.0
  0
LINE
  5
242F
330
1F
100
AcDbEntity
  8
AM_VIS
100
AcDbLine
 10
2738.034575756132
 20
1465.758306976683
 30
0.0
 11
2742.519953459145
 21
1465.758306976683
 31
0.0
  0
LINE
  5
2430
330
1F
100
AcDbEntity
  8
AM_VIS
100
AcDbLine
 10
2742.519953459145
 20
1465.758306976683
 30
0.0
 11
2746.962613279272
 21
1465.758306976683
 31
0.0
  0
LINE
  5
2431
330
1F
100
AcDbEntity
  8
AM_VIS
100
AcDbLine
 10
2719.238707286363
 20
1469.758306976683
 30
0.0
 11
2719.238707286363
 21
1465.758306976683
 31
0.0
  0
LINE
  5
2432
330
1F
100
AcDbEntity
  8
AM_VIS
100
AcDbLine
 10
2733.805505350434
 20
1469.758306976683
 30
0.0
 11
2732.205996335161
 21
1469.758306976683
 31
0.0
  0
LINE
  5
2433
330
1F
100
AcDbEntity
  8
AM_VIS
100
AcDbLine
 10
2746.962613279272
 20
1469.658306976683
 30
0.0
 11
2749.867429315509
 21
1469.658306976683
 31
0.0
  0
LINE
  5
2434
330
1F
100
AcDbEntity
  8
AM_VIS
100
AcDbLine
 10
2749.867429315509
 20
1472.758306976683
 30
0.0
 11
2742.519953459145
 21
1472.758306976683
 31
0.0
  0
LINE
  5
2435
330
1F
100
AcDbEntity
  8
AM_VIS
100
AcDbLine
 10
2742.519953459145
 20
1472.758306976683
 30
0.0
 11
2738.034575756132
 21
1472.758306976683
 31
0.0
  0
LINE
  5
2436
330
1F
100
AcDbEntity
  8
AM_VIS
100
AcDbLine
 10
2738.034575756132
 20
1472.758306976683
 30
0.0
 11
2733.805505350434
 21
1472.758306976683
 31
0.0
  0
LINE
  5
2437
330
1F
100
AcDbEntity
  8
AM_VIS
100
AcDbLine
 10
2749.867429315509
 20
1465.858306976683
 30
0.0
 11
2749.867429315509
 21
1462.758306976683
 31
0.0
  0
LINE
  5
2438
330
1F
100
AcDbEntity
  8
AM_VIS
100
AcDbLine
 10
2749.867429315509
 20
1465.858306976683
 30
0.0
 11
2747.987842468532
 21
1465.858306976683
 31
0.0
  0
LINE
  5
2439
330
1F
100
AcDbEntity
  8
AM_VIS
100
AcDbLine
 10
2742.349081927601
 20
1465.758306976683
 30
0.0
 11
2742.349081927601
 21
1462.758306976683
 31
0.0
  0
LINE
  5
243A
330
1F
100
AcDbEntity
  8
AM_VIS
100
AcDbLine
 10
2749.867429315509
 20
1462.758306976683
 30
0.0
 11
2747.987842468532
 21
1462.758306976683
 31
0.0
  0
LINE
  5
243B
330
1F
100
AcDbEntity
  8
AM_VIS
100
AcDbLine
 10
2742.349081927601
 20
1462.758306976683
 30
0.0
 11
2741.615137422908
 21
1462.758306976683
 31
0.0
  0
LINE
  5
243C
330
1F
100
AcDbEntity
  8
AM_VIS
100
AcDbLine
 10
2737.615137422908
 20
1462.758306976683
 30
0.0
 11
2735.115137422908
 21
1462.758306976683
 31
0.0
  0
LINE
  5
243D
330
1F
100
AcDbEntity
  8
AM_VIS
100
AcDbLine
 10
2744.228668774578
 20
1462.758306976683
 30
0.0
 11
2742.349081927601
 21
1462.758306976683
 31
0.0
  0
LINE
  5
243E
330
1F
100
AcDbEntity
  8
AM_VIS
100
AcDbLine
 10
2747.615137422908
 20
1465.858306976683
 30
0.0
 11
2747.987842468532
 21
1465.858306976683
 31
0.0
  0
LINE
  5
243F
330
1F
100
AcDbEntity
  8
AM_VIS
100
AcDbLine
 10
2747.987842468532
 20
1465.858306976683
 30
0.0
 11
2747.987842468532
 21
1462.758306976683
 31
0.0
  0
LINE
  5
2440
330
1F
100
AcDbEntity
  8
AM_VIS
100
AcDbLine
 10
2747.987842468532
 20
1462.758306976683
 30
0.0
 11
2747.615137422908
 21
1462.758306976683
 31
0.0
  0
LINE
  5
2441
330
1F
100
AcDbEntity
  8
AM_VIS
100
AcDbLine
 10
2744.228668774578
 20
1462.758306976683
 30
0.0
 11
2744.228668774578
 21
1465.758306976683
 31
0.0
  0
LINE
  5
2442
330
1F
100
AcDbEntity
  8
AM_VIS
100
AcDbLine
 10
2747.415137422908
 20
1462.358306976682
 30
0.0
 11
2747.615137422908
 21
1462.558306976682
 31
0.0
  0
LINE
  5
2443
330
1F
100
AcDbEntity
  8
AM_VIS
100
AcDbLine
 10
2743.815137422908
 20
1462.358306976682
 30
0.0
 11
2743.615137422908
 21
1462.558306976682
 31
0.0
  0
LINE
  5
2444
330
1F
100
AcDbEntity
  8
AM_VIS
100
AcDbLine
 10
2743.615137422908
 20
1472.958306976682
 30
0.0
 11
2743.615137422908
 21
1472.758306976683
 31
0.0
  0
LINE
  5
2445
330
1F
100
AcDbEntity
  8
AM_VIS
100
AcDbLine
 10
2743.615137422908
 20
1462.758306976683
 30
0.0
 11
2743.615137422908
 21
1462.558306976682
 31
0.0
  0
LINE
  5
2446
330
1F
100
AcDbEntity
  8
AM_VIS
100
AcDbLine
 10
2747.615137422908
 20
1472.958306976682
 30
0.0
 11
2747.615137422908
 21
1472.758306976683
 31
0.0
  0
LINE
  5
2447
330
1F
100
AcDbEntity
  8
AM_VIS
100
AcDbLine
 10
2747.615137422908
 20
1469.658306976683
 30
0.0
 11
2747.615137422908
 21
1469.358306976682
 31
0.0
  0
LINE
  5
2448
330
1F
100
AcDbEntity
  8
AM_VIS
100
AcDbLine
 10
2747.615137422908
 20
1466.158306976682
 30
0.0
 11
2747.615137422908
 21
1462.558306976682
 31
0.0
  0
LINE
  5
2449
330
1F
100
AcDbEntity
  8
AM_VIS
100
AcDbLine
 10
2743.815137422908
 20
1473.158306976682
 30
0.0
 11
2743.615137422908
 21
1472.958306976682
 31
0.0
  0
LINE
  5
244A
330
1F
100
AcDbEntity
  8
AM_VIS
100
AcDbLine
 10
2747.415137422908
 20
1473.158306976682
 30
0.0
 11
2747.615137422908
 21
1472.958306976682
 31
0.0
  0
LINE
  5
244B
330
1F
100
AcDbEntity
  8
AM_VIS
100
AcDbLine
 10
2747.415137422908
 20
1462.358306976682
 30
0.0
 11
2743.815137422908
 21
1462.358306976682
 31
0.0
  0
LINE
  5
244C
330
1F
100
AcDbEntity
  8
AM_VIS
100
AcDbLine
 10
2743.615137422908
 20
1462.558306976682
 30
0.0
 11
2747.615137422908
 21
1462.558306976682
 31
0.0
  0
LINE
  5
244D
330
1F
100
AcDbEntity
  8
AM_VIS
100
AcDbLine
 10
2747.615137422908
 20
1472.958306976682
 30
0.0
 11
2743.615137422908
 21
1472.958306976682
 31
0.0
  0
LINE
  5
244E
330
1F
100
AcDbEntity
  8
AM_VIS
100
AcDbLine
 10
2743.815137422908
 20
1473.158306976682
 30
0.0
 11
2747.415137422908
 21
1473.158306976682
 31
0.0
  0
LINE
  5
244F
330
1F
100
AcDbEntity
  8
AM_VIS
100
AcDbLine
 10
2735.115137422908
 20
1472.758306976683
 30
0.0
 11
2735.115137422908
 21
1473.758306976683
 31
0.0
  0
LINE
  5
2450
330
1F
100
AcDbEntity
  8
AM_VIS
100
AcDbLine
 10
2731.115137422908
 20
1469.758306976683
 30
0.0
 11
2732.205996335161
 21
1469.758306976683
 31
0.0
  0
LINE
  5
2451
330
1F
100
AcDbEntity
  8
AM_VIS
100
AcDbLine
 10
2718.615137422908
 20
1469.758306976683
 30
0.0
 11
2731.115137422908
 21
1469.758306976683
 31
0.0
  0
LINE
  5
2452
330
1F
100
AcDbEntity
  8
AM_VIS
100
AcDbLine
 10
2718.615137422908
 20
1461.758306976683
 30
0.0
 11
2718.615137422908
 21
1469.758306976683
 31
0.0
  0
LINE
  5
2453
330
1F
100
AcDbEntity
  8
AM_VIS
100
AcDbLine
 10
2715.944416990473
 20
1461.758306976683
 30
0.0
 11
2696.615137422908
 21
1461.758306976683
 31
0.0
  0
LINE
  5
2454
330
1F
100
AcDbEntity
  8
AM_VIS
100
AcDbLine
 10
2696.615137422908
 20
1473.758306976683
 30
0.0
 11
2696.615137422908
 21
1461.758306976683
 31
0.0
  0
LINE
  5
2455
330
1F
100
AcDbEntity
  8
AM_VIS
100
AcDbLine
 10
2715.944416990473
 20
1473.758306976683
 30
0.0
 11
2696.615137422908
 21
1473.758306976683
 31
0.0
  0
LINE
  5
2456
330
1F
100
AcDbEntity
  8
AM_VIS
100
AcDbLine
 10
2731.115137422908
 20
1473.758306976683
 30
0.0
 11
2731.115137422908
 21
1469.758306976683
 31
0.0
  0
CIRCLE
  5
2457
330
1F
100
AcDbEntity
  8
AM_VIS
100
AcDbCircle
 10
2700.615137422908
 20
1467.758306976683
 30
0.0
 40
1.625
  0
CIRCLE
  5
245A
330
1F
100
AcDbEntity
  8
AM_VIS
100
AcDbCircle
 10
2710.615137422907
 20
1467.758306976683
 30
0.0
 40
1.625
  0
LINE
  5
245B
330
1F
100
AcDbEntity
  8
AM_VIS
100
AcDbLine
 10
2719.115137422908
 20
1465.758306976683
 30
0.0
 11
2719.115137422908
 21
1461.758306976683
 31
0.0
  0
LINE
  5
245C
330
1F
100
AcDbEntity
  8
AM_VIS
100
AcDbLine
 10
2721.410437512188
 20
1465.758306976683
 30
0.0
 11
2719.115137422908
 21
1465.758306976683
 31
0.0
  0
LINE
  5
245D
330
1F
100
AcDbEntity
  8
AM_VIS
100
AcDbLine
 10
2719.115137422908
 20
1465.758306976683
 30
0.0
 11
2718.615137422908
 21
1465.758306976683
 31
0.0
  0
LINE
  5
245E
330
1F
100
AcDbEntity
  8
AM_VIS
100
AcDbLine
 10
2731.115137422908
 20
1465.758306976683
 30
0.0
 11
2731.115137422908
 21
1461.758306976683
 31
0.0
  0
LINE
  5
245F
330
1F
100
AcDbEntity
  8
AM_VIS
100
AcDbLine
 10
2735.115137422908
 20
1461.758306976683
 30
0.0
 11
2735.115137422908
 21
1465.758306976683
 31
0.0
  0
LINE
  5
2460
330
1F
100
AcDbEntity
  8
AM_VIS
100
AcDbLine
 10
2715.815137422908
 20
1474.258306976683
 30
0.0
 11
2715.815137422908
 21
1473.758306976683
 31
0.0
  0
LINE
  5
2461
330
1F
100
AcDbEntity
  8
AM_VIS
100
AcDbLine
 10
2716.315137422908
 20
1473.758306976683
 30
0.0
 11
2716.315137422908
 21
1474.258306976683
 31
0.0
  0
LINE
  5
2462
330
1F
100
AcDbEntity
  8
AM_VIS
100
AcDbLine
 10
2716.315137422908
 20
1473.758306976683
 30
0.0
 11
2735.615137422908
 21
1473.758306976683
 31
0.0
  0
LINE
  5
2463
330
1F
100
AcDbEntity
  8
AM_VIS
100
AcDbLine
 10
2735.615137422908
 20
1474.258306976683
 30
0.0
 11
2735.615137422908
 21
1473.758306976683
 31
0.0
  0
LINE
  5
2464
330
1F
100
AcDbEntity
  8
AM_VIS
100
AcDbLine
 10
2716.315137422908
 20
1473.758306976683
 30
0.0
 11
2715.944416990473
 21
1473.758306976683
 31
0.0
  0
LINE
  5
2465
330
1F
100
AcDbEntity
  8
AM_VIS
100
AcDbLine
 10
2736.115137422908
 20
1473.758306976683
 30
0.0
 11
2735.615137422908
 21
1473.758306976683
 31
0.0
  0
LINE
  5
2466
330
1F
100
AcDbEntity
  8
AM_VIS
100
AcDbLine
 10
2715.815137422908
 20
1461.758306976683
 30
0.0
 11
2715.815137422908
 21
1461.258306976683
 31
0.0
  0
LINE
  5
2467
330
1F
100
AcDbEntity
  8
AM_VIS
100
AcDbLine
 10
2716.315137422908
 20
1461.258306976683
 30
0.0
 11
2716.315137422908
 21
1461.758306976683
 31
0.0
  0
LINE
  5
2468
330
1F
100
AcDbEntity
  8
AM_VIS
100
AcDbLine
 10
2716.315137422908
 20
1461.758306976683
 30
0.0
 11
2735.615137422908
 21
1461.758306976683
 31
0.0
  0
LINE
  5
2469
330
1F
100
AcDbEntity
  8
AM_VIS
100
AcDbLine
 10
2735.615137422908
 20
1461.758306976683
 30
0.0
 11
2735.615137422908
 21
1461.258306976683
 31
0.0
  0
LINE
  5
246A
330
1F
100
AcDbEntity
  8
AM_VIS
100
AcDbLine
 10
2715.944416990473
 20
1461.758306976683
 30
0.0
 11
2716.315137422908
 21
1461.758306976683
 31
0.0
  0
LINE
  5
246B
330
1F
100
AcDbEntity
  8
AM_VIS
100
AcDbLine
 10
2735.615137422908
 20
1461.758306976683
 30
0.0
 11
2736.115137422908
 21
1461.758306976683
 31
0.0
  0
LINE
  5
246C
330
1F
100
AcDbEntity
  8
AM_VIS
100
AcDbLine
 10
2737.615137422908
 20
1473.258306976682
 30
0.0
 11
2737.615137422908
 21
1472.758306976683
 31
0.0
  0
LINE
  5
246D
330
1F
100
AcDbEntity
  8
AM_VIS
100
AcDbLine
 10
2737.615137422908
 20
1465.758306976683
 30
0.0
 11
2737.615137422908
 21
1462.258306976683
 31
0.0
  0
LINE
  5
246E
330
1F
100
AcDbEntity
  8
AM_VIS
100
AcDbLine
 10
2741.615137422908
 20
1473.258306976682
 30
0.0
 11
2741.615137422908
 21
1472.758306976683
 31
0.0
  0
LINE
  5
246F
330
1F
100
AcDbEntity
  8
AM_VIS
100
AcDbLine
 10
2741.615137422908
 20
1465.758306976683
 30
0.0
 11
2741.615137422908
 21
1462.258306976683
 31
0.0
  0
LINE
  5
2470
330
1F
100
AcDbEntity
  8
AM_VIS
100
AcDbLine
 10
2785.115137422908
 20
1322.144586506917
 30
0.0
 11
2750.615137422908
 21
1322.144586506917
 31
0.0
  0
LINE
  5
2471
330
1F
100
AcDbEntity
  8
AM_VIS
100
AcDbLine
 10
2750.615137422908
 20
1323.044586506918
 30
0.0
 11
2785.115137422908
 21
1323.044586506918
 31
0.0
  0
LINE
  5
2472
330
1F
100
AcDbEntity
  8
AM_VIS
100
AcDbLine
 10
2785.115137422908
 20
1324.494586506918
 30
0.0
 11
2750.615137422908
 21
1324.494586506918
 31
0.0
  0
LINE
  5
2473
330
1F
100
AcDbEntity
  8
AM_VIS
100
AcDbLine
 10
2750.615137422908
 20
1320.694586506918
 30
0.0
 11
2785.115137422908
 21
1320.694586506918
 31
0.0
  0
LINE
  5
2474
330
1F
100
AcDbEntity
  8
AM_VIS
100
AcDbLine
 10
2785.115137422908
 20
1320.894586506918
 30
0.0
 11
2750.615137422908
 21
1320.894586506918
 31
0.0
  0
LINE
  5
2475
330
1F
100
AcDbEntity
  8
AM_VIS
100
AcDbLine
 10
2750.615137422908
 20
1324.294586506918
 30
0.0
 11
2785.115137422908
 21
1324.294586506918
 31
0.0
  0
SPLINE
  5
2476
330
1F
100
AcDbEntity
  8
AM_VIS
100
AcDbSpline
210
0.0
220
0.0
230
1.0
 70
     8
 71
     3
 72
    22
 73
    18
 74
     0
 42
0.0000000001
 43
0.0000000001
 40
5.123494290859748
 40
5.123494290859748
 40
5.123494290859748
 40
5.123494290859748
 40
5.200228080289967
 40
5.200228080289967
 40
5.731084455371704
 40
5.731084455371704
 40
5.996512642912573
 40
5.996512642912573
 40
6.261940830453442
 40
6.261940830453442
 40
6.52736901799431
 40
6.52736901799431
 40
6.792797205535179
 40
6.792797205535179
 40
7.323653580616916
 40
7.323653580616916
 40
7.40038737004716
 40
7.40038737004716
 40
7.40038737004716
 40
7.40038737004716
 10
2761.17927734105
 20
1324.294586506918
 30
0.0
 10
2761.15912330863
 20
1324.283306777666
 30
0.0
 10
2761.138973506249
 20
1324.272130905631
 30
0.0
 10
2760.9796416911
 20
1324.184797749494
 30
0.0
 10
2760.818246635867
 20
1324.101522571331
 30
0.0
 10
2760.560859249447
 20
1324.005495689512
 30
0.0
 10
2760.472364412295
 20
1323.978528898686
 30
0.0
 10
2760.293761016375
 20
1323.94169138728
 30
0.0
 10
2760.203613485421
 20
1323.931998474383
 30
0.0
 10
2760.026661360394
 20
1323.931998474383
 30
0.0
 10
2759.936513829441
 20
1323.94169138728
 30
0.0
 10
2759.757910433521
 20
1323.978528898686
 30
0.0
 10
2759.669415596369
 20
1324.005495689512
 30
0.0
 10
2759.412028209949
 20
1324.101522571331
 30
0.0
 10
2759.250633154716
 20
1324.184797749494
 30
0.0
 10
2759.091301339567
 20
1324.272130905631
 30
0.0
 10
2759.071151537186
 20
1324.283306777666
 30
0.0
 10
2759.050997504765
 20
1324.294586506918
 30
0.0
  0
LINE
  5
2477
330
1F
100
AcDbEntity
  8
AM_VIS
100
AcDbLine
 10
2777.115137422908
 20
1324.844586506918
 30
0.0
 11
2785.115137422908
 21
1324.844586506918
 31
0.0
  0
LINE
  5
2478
330
1F
100
AcDbEntity
  8
AM_VIS
100
AcDbLine
 10
2750.615137422908
 20
1324.844586506918
 30
0.0
 11
2777.115137422908
 21
1324.844586506918
 31
0.0
  0
LINE
  5
2479
330
1F
100
AcDbEntity
  8
AM_VIS
100
AcDbLine
 10
2736.115137422908
 20
1329.094586506918
 30
0.0
 11
2736.115137422908
 21
1328.094586506918
 31
0.0
  0
LINE
  5
247A
330
1F
100
AcDbEntity
  8
AM_VIS
100
AcDbLine
 10
2715.615137422908
 20
1329.094586506918
 30
0.0
 11
2736.115137422908
 21
1329.094586506918
 31
0.0
  0
LINE
  5
247B
330
1F
100
AcDbEntity
  8
AM_VIS
100
AcDbLine
 10
2715.615137422908
 20
1335.094586506918
 30
0.0
 11
2715.615137422908
 21
1329.094586506918
 31
0.0
  0
LINE
  5
247C
330
1F
100
AcDbEntity
  8
AM_VIS
100
AcDbLine
 10
2736.115137422908
 20
1316.094586506918
 30
0.0
 11
2715.615137422908
 21
1316.094586506918
 31
0.0
  0
LINE
  5
247D
330
1F
100
AcDbEntity
  8
AM_VIS
100
AcDbLine
 10
2750.615137422908
 20
1317.094586506917
 30
0.0
 11
2736.115137422908
 21
1317.094586506917
 31
0.0
  0
LINE
  5
247E
330
1F
100
AcDbEntity
  8
AM_VIS
100
AcDbLine
 10
2759.115137422908
 20
1320.344586506918
 30
0.0
 11
2750.615137422908
 21
1320.344586506918
 31
0.0
  0
LINE
  5
247F
330
1F
100
AcDbEntity
  8
AM_VIS
100
AcDbLine
 10
2785.115137422908
 20
1320.344586506918
 30
0.0
 11
2759.115137422908
 21
1320.344586506918
 31
0.0
  0
LINE
  5
2480
330
1F
100
AcDbEntity
  8
AM_VIS
100
AcDbLine
 10
2785.115137422908
 20
1310.094586506918
 30
0.0
 11
2715.615137422908
 21
1310.094586506918
 31
0.0
  0
LINE
  5
2481
330
1F
100
AcDbEntity
  8
AM_VIS
100
AcDbLine
 10
2715.615137422908
 20
1309.594586506918
 30
0.0
 11
2785.115137422908
 21
1309.594586506918
 31
0.0
  0
LINE
  5
2482
330
1F
100
AcDbEntity
  8
AM_VIS
100
AcDbLine
 10
2715.615137422908
 20
1335.094586506918
 30
0.0
 11
2785.115137422908
 21
1335.094586506918
 31
0.0
  0
LINE
  5
2483
330
1F
100
AcDbEntity
  8
AM_VIS
100
AcDbLine
 10
2715.615137422908
 20
1335.594586506918
 30
0.0
 11
2715.615137422908
 21
1335.094586506918
 31
0.0
  0
LINE
  5
2484
330
1F
100
AcDbEntity
  8
AM_VIS
100
AcDbLine
 10
2785.115137422908
 20
1335.594586506918
 30
0.0
 11
2715.615137422908
 21
1335.594586506918
 31
0.0
  0
LINE
  5
2485
330
1F
100
AcDbEntity
  8
AM_VIS
100
AcDbLine
 10
2785.115137422908
 20
1309.594586506918
 30
0.0
 11
2785.115137422908
 21
1310.094586506918
 31
0.0
  0
LINE
  5
2486
330
1F
100
AcDbEntity
  8
AM_VIS
100
AcDbLine
 10
2785.115137422908
 20
1320.344586506918
 30
0.0
 11
2785.115137422908
 21
1310.094586506918
 31
0.0
  0
LINE
  5
2487
330
1F
100
AcDbEntity
  8
AM_VIS
100
AcDbLine
 10
2785.115137422908
 20
1320.694586506918
 30
0.0
 11
2785.115137422908
 21
1320.344586506918
 31
0.0
  0
LINE
  5
2488
330
1F
100
AcDbEntity
  8
AM_VIS
100
AcDbLine
 10
2785.115137422908
 20
1323.044586506918
 30
0.0
 11
2785.115137422908
 21
1322.144586506917
 31
0.0
  0
LINE
  5
2489
330
1F
100
AcDbEntity
  8
AM_VIS
100
AcDbLine
 10
2785.115137422908
 20
1324.844586506918
 30
0.0
 11
2785.115137422908
 21
1324.494586506918
 31
0.0
  0
LINE
  5
248A
330
1F
100
AcDbEntity
  8
AM_VIS
100
AcDbLine
 10
2785.115137422908
 20
1335.094586506918
 30
0.0
 11
2785.115137422908
 21
1324.844586506918
 31
0.0
  0
LINE
  5
248B
330
1F
100
AcDbEntity
  8
AM_VIS
100
AcDbLine
 10
2785.115137422908
 20
1335.094586506918
 30
0.0
 11
2785.115137422908
 21
1335.594586506918
 31
0.0
  0
LINE
  5
248C
330
1F
100
AcDbEntity
  8
AM_VIS
100
AcDbLine
 10
2715.615137422908
 20
1316.094586506918
 30
0.0
 11
2715.615137422908
 21
1310.094586506918
 31
0.0
  0
LINE
  5
248D
330
1F
100
AcDbEntity
  8
AM_VIS
100
AcDbLine
 10
2715.615137422908
 20
1310.094586506918
 30
0.0
 11
2715.615137422908
 21
1309.594586506918
 31
0.0
  0
LINE
  5
248E
330
1F
100
AcDbEntity
  8
AM_VIS
100
AcDbLine
 10
2750.615137422908
 20
1328.094586506918
 30
0.0
 11
2750.615137422908
 21
1324.844586506918
 31
0.0
  0
LINE
  5
248F
330
1F
100
AcDbEntity
  8
AM_VIS
100
AcDbLine
 10
2750.615137422908
 20
1324.844586506918
 30
0.0
 11
2750.615137422908
 21
1324.494586506918
 31
0.0
  0
LINE
  5
2490
330
1F
100
AcDbEntity
  8
AM_VIS
100
AcDbLine
 10
2750.615137422908
 20
1323.044586506918
 30
0.0
 11
2750.615137422908
 21
1322.144586506917
 31
0.0
  0
LINE
  5
2491
330
1F
100
AcDbEntity
  8
AM_VIS
100
AcDbLine
 10
2750.615137422908
 20
1320.694586506918
 30
0.0
 11
2750.615137422908
 21
1320.344586506918
 31
0.0
  0
LINE
  5
2492
330
1F
100
AcDbEntity
  8
AM_VIS
100
AcDbLine
 10
2750.615137422908
 20
1320.344586506918
 30
0.0
 11
2750.615137422908
 21
1317.094586506917
 31
0.0
  0
LINE
  5
2493
330
1F
100
AcDbEntity
  8
AM_VIS
100
AcDbLine
 10
2736.115137422908
 20
1317.094586506917
 30
0.0
 11
2736.115137422908
 21
1316.094586506918
 31
0.0
  0
LINE
  5
2494
330
1F
100
AcDbEntity
  8
AM_VIS
100
AcDbLine
 10
2736.115137422908
 20
1328.094586506918
 30
0.0
 11
2750.615137422908
 21
1328.094586506918
 31
0.0
  0
CIRCLE
  5
2495
330
1F
100
AcDbEntity
  8
AM_VIS
100
AcDbCircle
 10
2759.115137422908
 20
1316.094586506918
 30
0.0
 40
2.049999999999999
  0
CIRCLE
  5
2496
330
1F
100
AcDbEntity
  8
AM_VIS
100
AcDbCircle
 10
2739.615137422908
 20
1332.594586506918
 30
0.0
 40
1.199999999999999
  0
CIRCLE
  5
2497
330
1F
100
AcDbEntity
  8
AM_VIS
100
AcDbCircle
 10
2777.115137422908
 20
1329.094586506918
 30
0.0
 40
4.25
  0
CIRCLE
  5
2498
330
1F
100
AcDbEntity
  8
AM_VIS
100
AcDbCircle
 10
2777.115137422908
 20
1329.094586506918
 30
0.0
 40
2.049999999999999
  0
CIRCLE
  5
2499
330
1F
100
AcDbEntity
  8
AM_VIS
100
AcDbCircle
 10
2759.115137422908
 20
1316.094586506918
 30
0.0
 40
0.75
  0
CIRCLE
  5
249A
330
1F
100
AcDbEntity
  8
AM_VIS
100
AcDbCircle
 10
2777.115137422908
 20
1329.094586506918
 30
0.0
 40
0.75
  0
CIRCLE
  5
249B
330
1F
100
AcDbEntity
  8
AM_VIS
100
AcDbCircle
 10
2759.115137422908
 20
1316.094586506918
 30
0.0
 40
4.25
  0
CIRCLE
  5
249C
330
1F
100
AcDbEntity
  8
AM_VIS
100
AcDbCircle
 10
2739.615137422908
 20
1312.594586506917
 30
0.0
 40
1.199999999999999
  0
LINE
  5
249D
330
1F
100
AcDbEntity
  8
AM_VIS
100
AcDbLine
 10
2785.115137422908
 20
1320.894586506918
 30
0.0
 11
2785.115137422908
 21
1320.694586506918
 31
0.0
  0
LINE
  5
249E
330
1F
100
AcDbEntity
  8
AM_VIS
100
AcDbLine
 10
2785.115137422908
 20
1320.894586506918
 30
0.0
 11
2785.115137422908
 21
1322.144586506917
 31
0.0
  0
LINE
  5
249F
330
1F
100
AcDbEntity
  8
AM_VIS
100
AcDbLine
 10
2785.115137422908
 20
1323.044586506918
 30
0.0
 11
2785.115137422908
 21
1324.294586506918
 31
0.0
  0
LINE
  5
24A0
330
1F
100
AcDbEntity
  8
AM_VIS
100
AcDbLine
 10
2785.115137422908
 20
1324.494586506918
 30
0.0
 11
2785.115137422908
 21
1324.294586506918
 31
0.0
  0
LINE
  5
24A1
330
1F
100
AcDbEntity
  8
AM_VIS
100
AcDbLine
 10
2750.615137422908
 20
1324.294586506918
 30
0.0
 11
2750.615137422908
 21
1324.494586506918
 31
0.0
  0
LINE
  5
24A2
330
1F
100
AcDbEntity
  8
AM_VIS
100
AcDbLine
 10
2750.615137422908
 20
1324.294586506918
 30
0.0
 11
2750.615137422908
 21
1323.044586506918
 31
0.0
  0
LINE
  5
24A3
330
1F
100
AcDbEntity
  8
AM_VIS
100
AcDbLine
 10
2750.615137422908
 20
1322.144586506917
 30
0.0
 11
2750.615137422908
 21
1320.894586506918
 31
0.0
  0
LINE
  5
24A4
330
1F
100
AcDbEntity
  8
AM_VIS
100
AcDbLine
 10
2750.615137422908
 20
1320.694586506918
 30
0.0
 11
2750.615137422908
 21
1320.894586506918
 31
0.0
  0
LINE
  5
24A7
330
1F
100
AcDbEntity
  8
AM_VIS
100
AcDbLine
 10
2750.615137422908
 20
1324.194586506918
 30
0.0
 11
2746.962613279272
 21
1324.194586506918
 31
0.0
  0
LINE
  5
24A8
330
1F
100
AcDbEntity
  8
AM_VIS
100
AcDbLine
 10
2746.962613279272
 20
1320.994586506918
 30
0.0
 11
2750.615137422908
 21
1320.994586506918
 31
0.0
  0
LINE
  5
24A9
330
1F
100
AcDbEntity
  8
AM_VIS
100
AcDbLine
 10
2749.867429315509
 20
1320.694586506917
 30
0.0
 11
2749.867429315509
 21
1317.594586506917
 31
0.0
  0
LINE
  5
24AA
330
1F
100
AcDbEntity
  8
AM_VIS
100
AcDbLine
 10
2749.867429315509
 20
1320.694586506917
 30
0.0
 11
2747.987842468532
 21
1320.694586506917
 31
0.0
  0
LINE
  5
24AB
330
1F
100
AcDbEntity
  8
AM_VIS
100
AcDbLine
 10
2742.349081927601
 20
1320.594586506917
 30
0.0
 11
2742.349081927601
 21
1317.594586506917
 31
0.0
  0
LINE
  5
24AC
330
1F
100
AcDbEntity
  8
AM_VIS
100
AcDbLine
 10
2749.867429315509
 20
1317.594586506917
 30
0.0
 11
2747.987842468532
 21
1317.594586506917
 31
0.0
  0
LINE
  5
24AD
330
1F
100
AcDbEntity
  8
AM_VIS
100
AcDbLine
 10
2742.349081927601
 20
1317.594586506917
 30
0.0
 11
2741.615137422908
 21
1317.594586506917
 31
0.0
  0
LINE
  5
24AE
330
1F
100
AcDbEntity
  8
AM_VIS
100
AcDbLine
 10
2737.615137422908
 20
1317.594586506917
 30
0.0
 11
2735.115137422908
 21
1317.594586506917
 31
0.0
  0
LINE
  5
24AF
330
1F
100
AcDbEntity
  8
AM_VIS
100
AcDbLine
 10
2744.228668774578
 20
1317.594586506917
 30
0.0
 11
2742.349081927601
 21
1317.594586506917
 31
0.0
  0
LINE
  5
24B0
330
1F
100
AcDbEntity
  8
AM_VIS
100
AcDbLine
 10
2747.615137422908
 20
1320.694586506917
 30
0.0
 11
2747.987842468532
 21
1320.694586506917
 31
0.0
  0
LINE
  5
24B1
330
1F
100
AcDbEntity
  8
AM_VIS
100
AcDbLine
 10
2747.987842468532
 20
1320.694586506917
 30
0.0
 11
2747.987842468532
 21
1317.594586506917
 31
0.0
  0
LINE
  5
24B2
330
1F
100
AcDbEntity
  8
AM_VIS
100
AcDbLine
 10
2747.987842468532
 20
1317.594586506917
 30
0.0
 11
2747.615137422908
 21
1317.594586506917
 31
0.0
  0
LINE
  5
24B3
330
1F
100
AcDbEntity
  8
AM_VIS
100
AcDbLine
 10
2744.228668774578
 20
1317.594586506917
 30
0.0
 11
2744.228668774578
 21
1320.594586506917
 31
0.0
  0
LINE
  5
24B4
330
1F
100
AcDbEntity
  8
AM_VIS
100
AcDbLine
 10
2733.805505350434
 20
1327.594586506917
 30
0.0
 11
2733.805505350434
 21
1324.594586506917
 31
0.0
  0
LINE
  5
24B5
330
1F
100
AcDbEntity
  8
AM_VIS
100
AcDbLine
 10
2749.867429315509
 20
1324.494586506917
 30
0.0
 11
2749.867429315509
 21
1327.594586506917
 31
0.0
  0
LINE
  5
24B6
330
1F
100
AcDbEntity
  8
AM_VIS
100
AcDbLine
 10
2746.962613279272
 20
1320.594586506917
 30
0.0
 11
2746.962613279272
 21
1324.494586506917
 31
0.0
  0
LINE
  5
24B7
330
1F
100
AcDbEntity
  8
AM_VIS
100
AcDbLine
 10
2738.034575756132
 20
1327.594586506917
 30
0.0
 11
2738.034575756132
 21
1320.594586506917
 31
0.0
  0
LINE
  5
24B8
330
1F
100
AcDbEntity
  8
AM_VIS
100
AcDbLine
 10
2742.519953459145
 20
1320.594586506917
 30
0.0
 11
2742.519953459145
 21
1327.594586506917
 31
0.0
  0
LINE
  5
24B9
330
1F
100
AcDbEntity
  8
AM_VIS
100
AcDbLine
 10
2738.034575756132
 20
1320.594586506917
 30
0.0
 11
2721.410437512189
 21
1320.594586506917
 31
0.0
  0
LINE
  5
24BA
330
1F
100
AcDbEntity
  8
AM_VIS
100
AcDbLine
 10
2738.034575756132
 20
1320.594586506917
 30
0.0
 11
2742.519953459145
 21
1320.594586506917
 31
0.0
  0
LINE
  5
24BB
330
1F
100
AcDbEntity
  8
AM_VIS
100
AcDbLine
 10
2742.519953459145
 20
1320.594586506917
 30
0.0
 11
2746.962613279272
 21
1320.594586506917
 31
0.0
  0
LINE
  5
24BC
330
1F
100
AcDbEntity
  8
AM_VIS
100
AcDbLine
 10
2719.238707286363
 20
1324.594586506917
 30
0.0
 11
2719.238707286363
 21
1320.594586506917
 31
0.0
  0
LINE
  5
24BD
330
1F
100
AcDbEntity
  8
AM_VIS
100
AcDbLine
 10
2733.805505350434
 20
1324.594586506917
 30
0.0
 11
2732.205996335161
 21
1324.594586506917
 31
0.0
  0
LINE
  5
24BE
330
1F
100
AcDbEntity
  8
AM_VIS
100
AcDbLine
 10
2746.962613279272
 20
1324.494586506917
 30
0.0
 11
2749.867429315509
 21
1324.494586506917
 31
0.0
  0
LINE
  5
24BF
330
1F
100
AcDbEntity
  8
AM_VIS
100
AcDbLine
 10
2749.867429315509
 20
1327.594586506917
 30
0.0
 11
2742.519953459145
 21
1327.594586506917
 31
0.0
  0
LINE
  5
24C0
330
1F
100
AcDbEntity
  8
AM_VIS
100
AcDbLine
 10
2742.519953459145
 20
1327.594586506917
 30
0.0
 11
2738.034575756132
 21
1327.594586506917
 31
0.0
  0
LINE
  5
24C1
330
1F
100
AcDbEntity
  8
AM_VIS
100
AcDbLine
 10
2738.034575756132
 20
1327.594586506917
 30
0.0
 11
2733.805505350434
 21
1327.594586506917
 31
0.0
  0
LINE
  5
24C2
330
1F
100
AcDbEntity
  8
AM_VIS
100
AcDbLine
 10
2743.815137422908
 20
1327.994586506918
 30
0.0
 11
2743.615137422908
 21
1327.794586506918
 31
0.0
  0
LINE
  5
24C3
330
1F
100
AcDbEntity
  8
AM_VIS
100
AcDbLine
 10
2747.415137422908
 20
1327.994586506918
 30
0.0
 11
2747.615137422908
 21
1327.794586506918
 31
0.0
  0
LINE
  5
24C4
330
1F
100
AcDbEntity
  8
AM_VIS
100
AcDbLine
 10
2747.615137422908
 20
1317.394586506918
 30
0.0
 11
2747.615137422908
 21
1320.994586506918
 31
0.0
  0
LINE
  5
24C5
330
1F
100
AcDbEntity
  8
AM_VIS
100
AcDbLine
 10
2747.615137422908
 20
1324.194586506918
 30
0.0
 11
2747.615137422908
 21
1324.494586506917
 31
0.0
  0
LINE
  5
24C6
330
1F
100
AcDbEntity
  8
AM_VIS
100
AcDbLine
 10
2747.615137422908
 20
1327.594586506917
 30
0.0
 11
2747.615137422908
 21
1327.794586506918
 31
0.0
  0
LINE
  5
24C7
330
1F
100
AcDbEntity
  8
AM_VIS
100
AcDbLine
 10
2743.615137422908
 20
1317.394586506918
 30
0.0
 11
2743.615137422908
 21
1317.594586506917
 31
0.0
  0
LINE
  5
24C8
330
1F
100
AcDbEntity
  8
AM_VIS
100
AcDbLine
 10
2743.615137422908
 20
1327.594586506917
 30
0.0
 11
2743.615137422908
 21
1327.794586506918
 31
0.0
  0
LINE
  5
24C9
330
1F
100
AcDbEntity
  8
AM_VIS
100
AcDbLine
 10
2747.415137422908
 20
1317.194586506918
 30
0.0
 11
2747.615137422908
 21
1317.394586506918
 31
0.0
  0
LINE
  5
24CA
330
1F
100
AcDbEntity
  8
AM_VIS
100
AcDbLine
 10
2743.815137422908
 20
1317.194586506918
 30
0.0
 11
2743.615137422908
 21
1317.394586506918
 31
0.0
  0
LINE
  5
24CB
330
1F
100
AcDbEntity
  8
AM_VIS
100
AcDbLine
 10
2743.815137422908
 20
1327.994586506918
 30
0.0
 11
2747.415137422908
 21
1327.994586506918
 31
0.0
  0
LINE
  5
24CC
330
1F
100
AcDbEntity
  8
AM_VIS
100
AcDbLine
 10
2747.615137422908
 20
1327.794586506918
 30
0.0
 11
2743.615137422908
 21
1327.794586506918
 31
0.0
  0
LINE
  5
24CD
330
1F
100
AcDbEntity
  8
AM_VIS
100
AcDbLine
 10
2743.615137422908
 20
1317.394586506918
 30
0.0
 11
2747.615137422908
 21
1317.394586506918
 31
0.0
  0
LINE
  5
24CE
330
1F
100
AcDbEntity
  8
AM_VIS
100
AcDbLine
 10
2747.415137422908
 20
1317.194586506918
 30
0.0
 11
2743.815137422908
 21
1317.194586506918
 31
0.0
  0
LINE
  5
24CF
330
1F
100
AcDbEntity
  8
AM_VIS
100
AcDbLine
 10
2719.115137422908
 20
1320.594586506917
 30
0.0
 11
2719.115137422908
 21
1316.594586506917
 31
0.0
  0
LINE
  5
24D0
330
1F
100
AcDbEntity
  8
AM_VIS
100
AcDbLine
 10
2721.410437512189
 20
1320.594586506917
 30
0.0
 11
2719.115137422908
 21
1320.594586506917
 31
0.0
  0
LINE
  5
24D1
330
1F
100
AcDbEntity
  8
AM_VIS
100
AcDbLine
 10
2719.115137422908
 20
1320.594586506917
 30
0.0
 11
2718.615137422908
 21
1320.594586506917
 31
0.0
  0
LINE
  5
24D2
330
1F
100
AcDbEntity
  8
AM_VIS
100
AcDbLine
 10
2731.115137422908
 20
1320.594586506917
 30
0.0
 11
2731.115137422908
 21
1316.594586506917
 31
0.0
  0
LINE
  5
24D3
330
1F
100
AcDbEntity
  8
AM_VIS
100
AcDbLine
 10
2735.115137422908
 20
1316.594586506917
 30
0.0
 11
2735.115137422908
 21
1320.594586506917
 31
0.0
  0
LINE
  5
24D4
330
1F
100
AcDbEntity
  8
AM_VIS
100
AcDbLine
 10
2735.115137422908
 20
1327.594586506917
 30
0.0
 11
2735.115137422908
 21
1328.594586506917
 31
0.0
  0
LINE
  5
24D5
330
1F
100
AcDbEntity
  8
AM_VIS
100
AcDbLine
 10
2731.115137422908
 20
1324.594586506917
 30
0.0
 11
2732.205996335161
 21
1324.594586506917
 31
0.0
  0
LINE
  5
24D6
330
1F
100
AcDbEntity
  8
AM_VIS
100
AcDbLine
 10
2718.615137422908
 20
1324.594586506917
 30
0.0
 11
2731.115137422908
 21
1324.594586506917
 31
0.0
  0
LINE
  5
24D7
330
1F
100
AcDbEntity
  8
AM_VIS
100
AcDbLine
 10
2718.615137422908
 20
1316.594586506917
 30
0.0
 11
2718.615137422908
 21
1324.594586506917
 31
0.0
  0
LINE
  5
24D8
330
1F
100
AcDbEntity
  8
AM_VIS
100
AcDbLine
 10
2715.944416990473
 20
1316.594586506917
 30
0.0
 11
2696.615137422908
 21
1316.594586506917
 31
0.0
  0
LINE
  5
24D9
330
1F
100
AcDbEntity
  8
AM_VIS
100
AcDbLine
 10
2696.615137422908
 20
1328.594586506917
 30
0.0
 11
2696.615137422908
 21
1316.594586506917
 31
0.0
  0
LINE
  5
24DA
330
1F
100
AcDbEntity
  8
AM_VIS
100
AcDbLine
 10
2715.944416990473
 20
1328.594586506917
 30
0.0
 11
2696.615137422908
 21
1328.594586506917
 31
0.0
  0
LINE
  5
24DB
330
1F
100
AcDbEntity
  8
AM_VIS
100
AcDbLine
 10
2731.115137422908
 20
1328.594586506917
 30
0.0
 11
2731.115137422908
 21
1324.594586506917
 31
0.0
  0
CIRCLE
  5
24DC
330
1F
100
AcDbEntity
  8
AM_VIS
100
AcDbCircle
 10
2700.615137422908
 20
1322.594586506917
 30
0.0
 40
1.625
  0
CIRCLE
  5
24DF
330
1F
100
AcDbEntity
  8
AM_VIS
100
AcDbCircle
 10
2710.615137422907
 20
1322.594586506917
 30
0.0
 40
1.625
  0
LINE
  5
24E0
330
1F
100
AcDbEntity
  8
AM_VIS
100
AcDbLine
 10
2715.815137422908
 20
1316.594586506917
 30
0.0
 11
2715.815137422908
 21
1316.094586506917
 31
0.0
  0
LINE
  5
24E1
330
1F
100
AcDbEntity
  8
AM_VIS
100
AcDbLine
 10
2716.315137422908
 20
1316.094586506917
 30
0.0
 11
2716.315137422908
 21
1316.594586506917
 31
0.0
  0
LINE
  5
24E2
330
1F
100
AcDbEntity
  8
AM_VIS
100
AcDbLine
 10
2735.615137422908
 20
1316.594586506917
 30
0.0
 11
2735.615137422908
 21
1316.094586506917
 31
0.0
  0
LINE
  5
24E3
330
1F
100
AcDbEntity
  8
AM_VIS
100
AcDbLine
 10
2735.615137422908
 20
1316.594586506917
 30
0.0
 11
2716.315137422908
 21
1316.594586506917
 31
0.0
  0
LINE
  5
24E4
330
1F
100
AcDbEntity
  8
AM_VIS
100
AcDbLine
 10
2735.615137422908
 20
1316.594586506917
 30
0.0
 11
2736.115137422908
 21
1316.594586506917
 31
0.0
  0
LINE
  5
24E5
330
1F
100
AcDbEntity
  8
AM_VIS
100
AcDbLine
 10
2715.944416990473
 20
1316.594586506917
 30
0.0
 11
2716.315137422908
 21
1316.594586506917
 31
0.0
  0
LINE
  5
24E6
330
1F
100
AcDbEntity
  8
AM_VIS
100
AcDbLine
 10
2715.815137422908
 20
1329.094586506917
 30
0.0
 11
2715.815137422908
 21
1328.594586506917
 31
0.0
  0
LINE
  5
24E7
330
1F
100
AcDbEntity
  8
AM_VIS
100
AcDbLine
 10
2735.615137422908
 20
1328.594586506917
 30
0.0
 11
2716.315137422908
 21
1328.594586506917
 31
0.0
  0
LINE
  5
24E8
330
1F
100
AcDbEntity
  8
AM_VIS
100
AcDbLine
 10
2716.315137422908
 20
1328.594586506917
 30
0.0
 11
2716.315137422908
 21
1329.094586506917
 31
0.0
  0
LINE
  5
24E9
330
1F
100
AcDbEntity
  8
AM_VIS
100
AcDbLine
 10
2735.615137422908
 20
1329.094586506917
 30
0.0
 11
2735.615137422908
 21
1328.594586506917
 31
0.0
  0
LINE
  5
24EA
330
1F
100
AcDbEntity
  8
AM_VIS
100
AcDbLine
 10
2716.315137422908
 20
1328.594586506917
 30
0.0
 11
2715.944416990473
 21
1328.594586506917
 31
0.0
  0
LINE
  5
24EB
330
1F
100
AcDbEntity
  8
AM_VIS
100
AcDbLine
 10
2736.115137422908
 20
1328.594586506917
 30
0.0
 11
2735.615137422908
 21
1328.594586506917
 31
0.0
  0
LINE
  5
24EC
330
1F
100
AcDbEntity
  8
AM_VIS
100
AcDbLine
 10
2741.615137422908
 20
1317.094586506917
 30
0.0
 11
2741.615137422908
 21
1320.594586506917
 31
0.0
  0
LINE
  5
24ED
330
1F
100
AcDbEntity
  8
AM_VIS
100
AcDbLine
 10
2741.615137422908
 20
1327.594586506917
 30
0.0
 11
2741.615137422908
 21
1328.094586506918
 31
0.0
  0
LINE
  5
24EE
330
1F
100
AcDbEntity
  8
AM_VIS
100
AcDbLine
 10
2737.615137422908
 20
1317.094586506917
 30
0.0
 11
2737.615137422908
 21
1320.594586506917
 31
0.0
  0
LINE
  5
24EF
330
1F
100
AcDbEntity
  8
AM_VIS
100
AcDbLine
 10
2737.615137422908
 20
1327.594586506917
 30
0.0
 11
2737.615137422908
 21
1328.094586506918
 31
0.0
  0
LINE
  5
24F0
330
1F
100
AcDbEntity
  8
AM_VIS
100
AcDbLine
 10
2847.545914166048
 20
1378.215894647081
 30
0.0
 11
2847.545914166048
 21
1422.21589464708
 31
0.0
  0
LINE
  5
24F1
330
1F
100
AcDbEntity
  8
AM_VIS
100
AcDbLine
 10
2847.545914166048
 20
1378.215894647081
 30
0.0
 11
2847.045914166048
 21
1377.71589464708
 31
0.0
  0
LINE
  5
24F2
330
1F
100
AcDbEntity
  8
AM_VIS
100
AcDbLine
 10
2836.795914166048
 20
1377.71589464708
 30
0.0
 11
2847.045914166048
 21
1377.71589464708
 31
0.0
  0
LINE
  5
24F3
330
1F
100
AcDbEntity
  8
AM_VIS
100
AcDbLine
 10
2836.795914166048
 20
1381.71589464708
 30
0.0
 11
2836.795914166048
 21
1377.71589464708
 31
0.0
  0
LINE
  5
24F4
330
1F
100
AcDbEntity
  8
AM_VIS
100
AcDbLine
 10
2836.445914166048
 20
1381.71589464708
 30
0.0
 11
2836.795914166048
 21
1381.71589464708
 31
0.0
  0
LINE
  5
24F5
330
1F
100
AcDbEntity
  8
AM_VIS
100
AcDbLine
 10
2836.245914166048
 20
1383.21589464708
 30
0.0
 11
2836.245914166048
 21
1381.915894647081
 31
0.0
  0
LINE
  5
24F6
330
1F
100
AcDbEntity
  8
AM_VIS
100
AcDbLine
 10
2836.695914166048
 20
1383.71589464708
 30
0.0
 11
2836.245914166048
 21
1383.21589464708
 31
0.0
  0
LINE
  5
24F7
330
1F
100
AcDbEntity
  8
AM_VIS
100
AcDbLine
 10
2836.695914166048
 20
1385.815894647081
 30
0.0
 11
2836.695914166048
 21
1383.71589464708
 31
0.0
  0
LINE
  5
24F8
330
1F
100
AcDbEntity
  8
AM_VIS
100
AcDbLine
 10
2834.095914166049
 20
1387.51589464708
 30
0.0
 11
2834.995914166049
 21
1387.51589464708
 31
0.0
  0
LINE
  5
24F9
330
1F
100
AcDbEntity
  8
AM_VIS
100
AcDbLine
 10
2832.395914166048
 20
1383.71589464708
 30
0.0
 11
2832.395914166048
 21
1385.815894647081
 31
0.0
  0
LINE
  5
24FA
330
1F
100
AcDbEntity
  8
AM_VIS
100
AcDbLine
 10
2832.845914166048
 20
1383.21589464708
 30
0.0
 11
2832.395914166048
 21
1383.71589464708
 31
0.0
  0
LINE
  5
24FB
330
1F
100
AcDbEntity
  8
AM_VIS
100
AcDbLine
 10
2832.845914166048
 20
1381.915894647081
 30
0.0
 11
2832.845914166048
 21
1383.21589464708
 31
0.0
  0
LINE
  5
24FC
330
1F
100
AcDbEntity
  8
AM_VIS
100
AcDbLine
 10
2832.295914166048
 20
1381.71589464708
 30
0.0
 11
2832.645914166048
 21
1381.71589464708
 31
0.0
  0
LINE
  5
24FD
330
1F
100
AcDbEntity
  8
AM_VIS
100
AcDbLine
 10
2832.295914166048
 20
1377.71589464708
 30
0.0
 11
2832.295914166048
 21
1381.71589464708
 31
0.0
  0
LINE
  5
24FE
330
1F
100
AcDbEntity
  8
AM_VIS
100
AcDbLine
 10
2822.045914166048
 20
1377.71589464708
 30
0.0
 11
2832.295914166048
 21
1377.71589464708
 31
0.0
  0
LINE
  5
24FF
330
1F
100
AcDbEntity
  8
AM_VIS
100
AcDbLine
 10
2822.045914166048
 20
1377.71589464708
 30
0.0
 11
2821.545914166048
 21
1378.215894647081
 31
0.0
  0
LINE
  5
2500
330
1F
100
AcDbEntity
  8
AM_VIS
100
AcDbLine
 10
2821.545914166048
 20
1422.21589464708
 30
0.0
 11
2821.545914166048
 21
1378.215894647081
 31
0.0
  0
LINE
  5
2501
330
1F
100
AcDbEntity
  8
AM_VIS
100
AcDbLine
 10
2832.295914166048
 20
1422.715894647081
 30
0.0
 11
2822.045914166048
 21
1422.715894647081
 31
0.0
  0
LINE
  5
2502
330
1F
100
AcDbEntity
  8
AM_VIS
100
AcDbLine
 10
2832.295914166048
 20
1418.71589464708
 30
0.0
 11
2832.295914166048
 21
1422.715894647081
 31
0.0
  0
LINE
  5
2503
330
1F
100
AcDbEntity
  8
AM_VIS
100
AcDbLine
 10
2832.645914166048
 20
1418.71589464708
 30
0.0
 11
2832.295914166048
 21
1418.71589464708
 31
0.0
  0
LINE
  5
2504
330
1F
100
AcDbEntity
  8
AM_VIS
100
AcDbLine
 10
2832.845914166048
 20
1417.21589464708
 30
0.0
 11
2832.845914166048
 21
1418.515894647081
 31
0.0
  0
LINE
  5
2505
330
1F
100
AcDbEntity
  8
AM_VIS
100
AcDbLine
 10
2832.395914166048
 20
1416.71589464708
 30
0.0
 11
2832.845914166048
 21
1417.21589464708
 31
0.0
  0
LINE
  5
2506
330
1F
100
AcDbEntity
  8
AM_VIS
100
AcDbLine
 10
2832.395914166048
 20
1414.615894647081
 30
0.0
 11
2832.395914166048
 21
1416.71589464708
 31
0.0
  0
LINE
  5
2507
330
1F
100
AcDbEntity
  8
AM_VIS
100
AcDbLine
 10
2834.995914166049
 20
1412.91589464708
 30
0.0
 11
2834.095914166049
 21
1412.91589464708
 31
0.0
  0
LINE
  5
2508
330
1F
100
AcDbEntity
  8
AM_VIS
100
AcDbLine
 10
2836.695914166048
 20
1416.71589464708
 30
0.0
 11
2836.695914166048
 21
1414.615894647081
 31
0.0
  0
LINE
  5
2509
330
1F
100
AcDbEntity
  8
AM_VIS
100
AcDbLine
 10
2836.245914166048
 20
1417.21589464708
 30
0.0
 11
2836.695914166048
 21
1416.71589464708
 31
0.0
  0
LINE
  5
250A
330
1F
100
AcDbEntity
  8
AM_VIS
100
AcDbLine
 10
2836.245914166048
 20
1418.515894647081
 30
0.0
 11
2836.245914166048
 21
1417.21589464708
 31
0.0
  0
LINE
  5
250B
330
1F
100
AcDbEntity
  8
AM_VIS
100
AcDbLine
 10
2836.795914166048
 20
1418.71589464708
 30
0.0
 11
2836.445914166048
 21
1418.71589464708
 31
0.0
  0
LINE
  5
250C
330
1F
100
AcDbEntity
  8
AM_VIS
100
AcDbLine
 10
2836.795914166048
 20
1422.715894647081
 30
0.0
 11
2836.795914166048
 21
1418.71589464708
 31
0.0
  0
LINE
  5
250D
330
1F
100
AcDbEntity
  8
AM_VIS
100
AcDbLine
 10
2821.545914166048
 20
1422.21589464708
 30
0.0
 11
2822.045914166048
 21
1422.715894647081
 31
0.0
  0
LINE
  5
250E
330
1F
100
AcDbEntity
  8
AM_VIS
100
AcDbLine
 10
2847.045914166048
 20
1422.715894647081
 30
0.0
 11
2836.795914166048
 21
1422.715894647081
 31
0.0
  0
LINE
  5
250F
330
1F
100
AcDbEntity
  8
AM_VIS
100
AcDbLine
 10
2847.045914166048
 20
1422.715894647081
 30
0.0
 11
2847.545914166048
 21
1422.21589464708
 31
0.0
  0
CIRCLE
  5
2511
330
1F
100
AcDbEntity
  8
AM_VIS
100
AcDbCircle
 10
2826.545914166048
 20
1417.71589464708
 30
0.0
 40
2.049999999999999
  0
CIRCLE
  5
2512
330
1F
100
AcDbEntity
  8
AM_VIS
100
AcDbCircle
 10
2842.545914166048
 20
1382.715894647081
 30
0.0
 40
2.049999999999999
  0
CIRCLE
  5
2513
330
1F
100
AcDbEntity
  8
AM_VIS
100
AcDbCircle
 10
2834.545914166048
 20
1400.215894647081
 30
0.0
 40
11.3
  0
ARC
  5
2514
330
1F
100
AcDbEntity
  8
AM_VIS
100
AcDbCircle
 10
2836.445914166048
 20
1381.915894647081
 30
0.0
 40
0.2
100
AcDbArc
 50
180.0
 51
270.0
  0
ARC
  5
2515
330
1F
100
AcDbEntity
  8
AM_VIS
100
AcDbCircle
 10
2834.995914166049
 20
1385.815894647081
 30
0.0
 40
1.7
100
AcDbArc
 50
0.0
 51
90.0
  0
ARC
  5
2516
330
1F
100
AcDbEntity
  8
AM_VIS
100
AcDbCircle
 10
2834.095914166049
 20
1385.815894647081
 30
0.0
 40
1.699999999999999
100
AcDbArc
 50
90.0
 51
180.0
  0
ARC
  5
2517
330
1F
100
AcDbEntity
  8
AM_VIS
100
AcDbCircle
 10
2832.645914166048
 20
1381.915894647081
 30
0.0
 40
0.2
100
AcDbArc
 50
270.0
 51
0.0
  0
ARC
  5
2518
330
1F
100
AcDbEntity
  8
AM_VIS
100
AcDbCircle
 10
2832.645914166048
 20
1418.515894647081
 30
0.0
 40
0.2
100
AcDbArc
 50
0.0
 51
90.0
  0
ARC
  5
2519
330
1F
100
AcDbEntity
  8
AM_VIS
100
AcDbCircle
 10
2834.095914166049
 20
1414.615894647081
 30
0.0
 40
1.699999999999999
100
AcDbArc
 50
180.0
 51
270.0
  0
ARC
  5
251A
330
1F
100
AcDbEntity
  8
AM_VIS
100
AcDbCircle
 10
2834.995914166049
 20
1414.615894647081
 30
0.0
 40
1.699999999999999
100
AcDbArc
 50
270.0
 51
0.0
  0
ARC
  5
251B
330
1F
100
AcDbEntity
  8
AM_VIS
100
AcDbCircle
 10
2836.445914166048
 20
1418.515894647081
 30
0.0
 40
0.2
100
AcDbArc
 50
90.0
 51
180.0
  0
LINE
  5
251C
330
1F
100
AcDbEntity
  8
AM_VIS
100
AcDbLine
 10
2830.704318355455
 20
1410.84284819116
 30
0.0
 11
2831.408442352672
 21
1408.908283408306
 31
0.0
  0
LINE
  5
251D
330
1F
100
AcDbEntity
  8
AM_VIS
100
AcDbLine
 10
2837.683385979424
 20
1408.908283408307
 30
0.0
 11
2838.387509976643
 21
1410.84284819116
 31
0.0
  0
ARC
  5
251E
330
1F
100
AcDbEntity
  8
AM_VIS
100
AcDbCircle
 10
2829.529057111101
 20
1408.224243121655
 30
0.0
 40
2.0
100
AcDbArc
 50
245.9114741308976
 51
20.00000000000148
  0
ARC
  5
251F
330
1F
100
AcDbEntity
  8
AM_VIS
100
AcDbCircle
 10
2827.896466523988
 20
1404.572579394685
 30
0.0
 40
2.0
100
AcDbArc
 50
65.91147413089763
 51
150.6987630653268
  0
ARC
  5
2520
330
1F
100
AcDbEntity
  8
AM_VIS
100
AcDbCircle
 10
2834.545914166048
 20
1400.84089464708
 30
0.0
 40
9.625
100
AcDbArc
 50
150.6987630653268
 51
29.3012369346731
  0
ARC
  5
2521
330
1F
100
AcDbEntity
  8
AM_VIS
100
AcDbCircle
 10
2841.195361808109
 20
1404.572579394685
 30
0.0
 40
2.0
100
AcDbArc
 50
29.3012369346731
 51
114.0885258691024
  0
ARC
  5
2522
330
1F
100
AcDbEntity
  8
AM_VIS
100
AcDbCircle
 10
2839.562771220996
 20
1408.224243121655
 30
0.0
 40
2.0
100
AcDbArc
 50
159.9999999999985
 51
294.0885258691023
  0
CIRCLE
  5
2523
330
1F
100
AcDbEntity
  8
AM_VIS
100
AcDbCircle
 10
2829.529057111101
 20
1408.224243121655
 30
0.0
 40
1.0
  0
CIRCLE
  5
2524
330
1F
100
AcDbEntity
  8
AM_VIS
100
AcDbCircle
 10
2839.562771220996
 20
1408.224243121655
 30
0.0
 40
1.0
  0
LINE
  5
2526
330
1F
100
AcDbEntity
  8
AM_VIS
100
AcDbLine
 10
2836.795914166048
 20
1422.525526719555
 30
0.0
 11
2832.545914166049
 21
1422.525526719555
 31
0.0
  0
LINE
  5
2527
330
1F
100
AcDbEntity
  8
AM_VIS
100
AcDbLine
 10
2832.545914166049
 20
1420.432350458148
 30
0.0
 11
2836.795914166048
 21
1420.432350458148
 31
0.0
  0
LINE
  5
2528
330
1F
100
AcDbEntity
  8
AM_VIS
100
AcDbLine
 10
2832.545914166049
 20
1422.525526719555
 30
0.0
 11
2832.545914166049
 21
1420.432350458148
 31
0.0
  0
LINE
  5
2529
330
1F
100
AcDbEntity
  8
AM_VIS
100
AcDbLine
 10
2832.545914166049
 20
1420.432350458148
 30
0.0
 11
2832.545914166049
 21
1418.71589464708
 31
0.0
  0
LINE
  5
252A
330
1F
100
AcDbEntity
  8
AM_VIS
100
AcDbLine
 10
2832.545914166049
 20
1416.882561313747
 30
0.0
 11
2832.545914166049
 21
1413.917682644891
 31
0.0
  0
LINE
  5
252B
330
1F
100
AcDbEntity
  8
AM_VIS
100
AcDbLine
 10
2832.295914166048
 20
1377.906262574607
 30
0.0
 11
2836.545914166049
 21
1377.906262574607
 31
0.0
  0
LINE
  5
252C
330
1F
100
AcDbEntity
  8
AM_VIS
100
AcDbLine
 10
2836.545914166049
 20
1379.999438836013
 30
0.0
 11
2832.295914166048
 21
1379.999438836013
 31
0.0
  0
LINE
  5
252D
330
1F
100
AcDbEntity
  8
AM_VIS
100
AcDbLine
 10
2836.545914166049
 20
1377.906262574607
 30
0.0
 11
2836.545914166049
 21
1379.999438836013
 31
0.0
  0
LINE
  5
252E
330
1F
100
AcDbEntity
  8
AM_VIS
100
AcDbLine
 10
2836.545914166049
 20
1379.999438836013
 30
0.0
 11
2836.545914166049
 21
1381.71589464708
 31
0.0
  0
LINE
  5
252F
330
1F
100
AcDbEntity
  8
AM_VIS
100
AcDbLine
 10
2836.545914166049
 20
1383.549227980414
 30
0.0
 11
2836.545914166049
 21
1386.514106649268
 31
0.0
  0
LINE
  5
2530
330
1F
100
AcDbEntity
  8
AM_VIS
100
AcDbLine
 10
2832.295914166048
 20
1422.451403754222
 30
0.0
 11
2832.545914166049
 21
1422.451403754222
 31
0.0
  0
LINE
  5
2531
330
1F
100
AcDbEntity
  8
AM_VIS
100
AcDbLine
 10
2836.795914166048
 20
1377.980385539939
 30
0.0
 11
2836.545914166049
 21
1377.980385539939
 31
0.0
  0
LINE
  5
2532
330
1F
100
AcDbEntity
  8
AM_VIS
100
AcDbLine
 10
2836.695914166048
 20
1385.71589464708
 30
0.0
 11
2836.545914166049
 21
1385.71589464708
 31
0.0
  0
LINE
  5
2533
330
1F
100
AcDbEntity
  8
AM_VIS
100
AcDbLine
 10
2832.545914166049
 20
1414.715894647081
 30
0.0
 11
2832.395914166048
 21
1414.715894647081
 31
0.0
  0
DIMENSION
  5
273F
102
{ACAD_XDICTIONARY
360
274B
102
}
102
{ACAD_REACTORS
330
274C
102
}
330
1F
100
AcDbEntity
  8
AM_5
100
AcDbDimension
  2
*D83
 10
2767.016546942726
 20
1473.426470602154
 30
0.0
 11
2745.511862679965
 21
1487.815275814335
 31
0.0
 70
   163
  1
2-M5x0.8x8depth
 71
     5
 42
4.999999999998635
  3
AM_ISO$3
100
AcDbDiametricDimension
 15
2765.213727903086
 25
1478.090143351211
 35
0.0
 40
0.0
1001
ACAD
1000
DSTYLE
1002
{
1070
   272
1070
     8
1002
}
  0
DIMENSION
  5
277C
102
{ACAD_XDICTIONARY
360
2788
102
}
102
{ACAD_REACTORS
330
2789
102
}
330
1F
100
AcDbEntity
  8
AM_5
100
AcDbDimension
  2
*D84
 10
2761.887247987221
 20
1413.452482004543
 30
0.0
 11
2729.590402643545
 21
1429.726600204122
 31
0.0
 70
   163
  1
2-M5x0.8x8depth
 71
     5
 42
5.000000000002501
  3
AM_ISO$3
100
AcDbDiametricDimension
 15
2758.343026858597
 25
1416.979307289616
 35
0.0
 40
0.0
1001
ACAD
1000
DSTYLE
1002
{
1070
   272
1070
     8
1002
}
  0
DIMENSION
  5
27D3
102
{ACAD_XDICTIONARY
360
27DF
102
}
102
{ACAD_REACTORS
330
27E0
102
}
330
1F
100
AcDbEntity
  8
AM_5
100
AcDbDimension
  2
*D85
 10
2778.804991811395
 20
1327.252198885999
 30
0.0
 11
2748.594125831991
 21
1342.808534358243
 31
0.0
 70
   163
  1
2-M5x0.8x5depth
 71
     5
 42
5.000000000000227
  3
AM_ISO$3
100
AcDbDiametricDimension
 15
2775.425283034421
 25
1330.936974127834
 35
0.0
 40
0.0
1001
ACAD
1000
DSTYLE
1002
{
1070
   272
1070
     8
1002
}
  0
DIMENSION
  5
281D
102
{ACAD_XDICTIONARY
360
2826
102
}
102
{ACAD_REACTORS
330
2827
102
}
330
1F
100
AcDbEntity
  8
AM_5
100
AcDbDimension
  2
*D86
 10
2711.563195144762
 20
1320.833567893721
 30
0.0
 11
2693.856631219529
 21
1337.306770233982
 31
0.0
 70
   163
  1
2-M4x0.7
 71
     5
 42
3.999999999997044
  3
AM_ISO$3
100
AcDbDiametricDimension
 15
2709.667079701053
 25
1324.355605120115
 35
0.0
 40
0.0
1001
ACAD
1000
DSTYLE
1002
{
1070
   272
1070
     8
1002
}
  0
DIMENSION
  5
2898
102
{ACAD_XDICTIONARY
360
28A4
102
}
102
{ACAD_REACTORS
330
28A5
102
}
330
1F
100
AcDbEntity
  8
AM_5
100
AcDbDimension
  2
*D87
 10
2825.270045083412
 20
1415.565974163907
 30
0.0
 11
2851.609324646797
 21
1433.085282428667
 31
0.0
 70
   163
  1
2-M5x0.8x8depth
 71
     5
 42
4.99999999999909
  3
AM_ISO$3
100
AcDbDiametricDimension
 15
2827.821783248686
 25
1419.865815130255
 35
0.0
 40
0.0
1001
ACAD
1000
DSTYLE
1002
{
1070
   272
1070
     8
1002
}
  0
LINE
  5
2AAB
330
1F
100
AcDbEntity
  8
LOGO
 62
     4
100
AcDbLine
 10
2873.296090430783
 20
1282.807153000187
 30
0.0
 11
2663.72001246904
 21
1282.807153000187
 31
0.0
  0
LWPOLYLINE
  5
2AAC
330
1F
100
AcDbEntity
  8
LOGO
 62
     4
100
AcDbPolyline
 90
        4
 70
     1
 43
0.0
 10
2663.720012469039
 20
1282.807153000187
 10
2873.296090430783
 20
1282.807153000187
 10
2873.296090430783
 20
1519.71385930857
 10
2663.720012469039
 20
1519.71385930857
1001
GENIUS_GENREC_14
1002
{
1000
PYDIR
1011
2663.720012469039
1021
1519.71385930857
1031
0.0
1002
}
1002
{
1000
PXDIR
1011
2873.296090430783
1021
1282.807153000187
1031
0.0
1002
}
1002
{
1000
PORI
1011
2663.720012469039
1021
1282.807153000187
1031
0.0
1002
}
1002
{
1000
PINS
1011
2663.720012469039
1021
1282.807153000187
1031
0.0
1002
}
1002
{
1000
PINS2
1011
2873.296090430783
1021
1519.71385930857
1031
0.0
1002
}
1002
{
1000
C
1070
     1
1002
}
1001
GENIUS_GENODEF_13
1002
{
1000
HIER
1070
     0
1002
}
1002
{
1000
MANEDIT
1070
     0
1002
}
1002
{
1000
NOSEL
1070
     0
1002
}
1002
{
1000
BEHIND
1070
     0
1002
}
1002
{
1000
OTHER
1070
     0
1002
}
1002
{
1000
REACTOR
1002
}
1001
GENIUS_GENOBJ-N-REC_13
1002
{
1000
OWNER
1000
GEN
1002
}
  0
LWPOLYLINE
  5
2AAD
330
1F
100
AcDbEntity
  8
LOGO
 62
     4
100
AcDbPolyline
 90
        4
 70
     1
 43
0.0
 10
2663.720012469039
 20
1282.807153000187
 10
2873.296090430783
 20
1282.807153000187
 10
2873.296090430783
 20
1254.536847030956
 10
2663.720012469039
 20
1254.536847030956
1001
GENIUS_GENREC_14
1002
{
1000
PYDIR
1011
2663.720012469039
1021
1254.536847030956
1031
0.0
1002
}
1002
{
1000
PXDIR
1011
2873.296090430783
1021
1282.807153000187
1031
0.0
1002
}
1002
{
1000
PORI
1011
2663.720012469039
1021
1282.807153000187
1031
0.0
1002
}
1002
{
1000
PINS
1011
2663.720012469039
1021
1282.807153000187
1031
0.0
1002
}
1002
{
1000
PINS2
1011
2873.296090430783
1021
1254.536847030956
1031
0.0
1002
}
1002
{
1000
C
1070
     1
1002
}
1001
GENIUS_GENOBJ-N-REC_13
1002
{
1000
OWNER
1000
GEN
1002
}
1001
GENIUS_GENODEF_13
1002
{
1000
HIER
1070
     0
1002
}
1002
{
1000
MANEDIT
1070
     0
1002
}
1002
{
1000
NOSEL
1070
     0
1002
}
1002
{
1000
BEHIND
1070
     0
1002
}
1002
{
1000
OTHER
1070
     0
1002
}
1002
{
1000
REACTOR
1002
}
  0
TEXT
  5
2AAE
330
1F
100
AcDbEntity
  8
LOGO
 62
     7
100
AcDbText
 10
2727.55249144548
 20
1270.42241301543
 30
0.0
 40
3.769374129230767
  1
Order example:
 41
0.8
  7
CHINESET
100
AcDbText
  0
TEXT
  5
2AAF
330
1F
100
AcDbEntity
  8
LOGO
 62
     7
100
AcDbText
 10
2728.22874833572
 20
1275.728911330515
 30
0.0
 40
5.654061193846153
  1
訂購代號：
  7
CHINESET
100
AcDbText
  0
LINE
  5
2AB0
330
1F
100
AcDbEntity
  8
LOGO
 62
     4
100
AcDbLine
 10
2725.914685601347
 20
1254.536847030956
 30
0.0
 11
2725.914685601347
 21
1282.807153000187
 31
0.0
  0
TEXT
  5
2AB1
330
1F
100
AcDbEntity
  8
LOGO
  6
Continuous
100
AcDbText
 10
2673.874833450671
 20
1260.090505975
 30
0.0
 40
4.240545895384615
  1
金器工業股份有限公司
  7
CHINESET
100
AcDbText
  0
TEXT
  5
2AB2
330
1F
100
AcDbEntity
  8
LOGO
  6
Continuous
100
AcDbText
 10
2666.085789591482
 20
1255.849129265091
 30
0.0
 40
2.827030596923076
  1
MINDMAN INDUSTRIAL CO., LTD.
 41
0.85
  7
CHINESET
100
AcDbText
  0
LINE
  5
2AB3
330
1F
100
AcDbEntity
  8
LOGO
 62
     4
100
AcDbLine
 10
2725.914685601347
 20
1277.153091806341
 30
0.0
 11
2684.451570179808
 21
1277.153091806341
 31
0.0
  0
LINE
  5
2AB4
330
1F
100
AcDbEntity
  8
LOGO
 62
     4
100
AcDbLine
 10
2725.914685601347
 20
1271.499030612495
 30
0.0
 11
2684.451570179808
 21
1271.499030612495
 31
0.0
  0
LINE
  5
2AB5
330
1F
100
AcDbEntity
  8
LOGO
 62
     4
100
AcDbLine
 10
2725.914685601347
 20
1265.844969418649
 30
0.0
 11
2663.72001246904
 21
1265.844969418649
 31
0.0
  0
LINE
  5
2AB6
330
1F
100
AcDbEntity
  8
LOGO
 62
     4
100
AcDbLine
 10
2684.451570179808
 20
1265.844969418649
 30
0.0
 11
2684.451570179808
 21
1282.807153000187
 31
0.0
  0
TEXT
  5
2AB7
330
1F
100
AcDbEntity
  8
LOGO
100
AcDbText
 10
2712.789652541192
 20
1267.25848471711
 30
0.0
 40
2.827030596923076
  1
mm
  7
CHINESET
 72
     1
 11
2716.289785661192
 21
1268.672000015572
 31
0.0
100
AcDbText
 73
     2
  0
TEXT
  5
2AB8
330
1F
100
AcDbEntity
  8
LOGO
100
AcDbText
 10
2711.308826990423
 20
1278.566607104802
 30
0.0
 40
2.827030596923076
  1
1 : 1
  7
CHINESET
 72
     1
 11
2716.289785661192
 21
1279.980122403264
 31
0.0
100
AcDbText
 73
     2
  0
LINE
  5
2AB9
330
1F
100
AcDbEntity
  8
LOGO
 62
     4
100
AcDbLine
 10
2707.067814955193
 20
1265.844969418649
 30
0.0
 11
2707.067814955193
 21
1282.807153000187
 31
0.0
  0
TEXT
  5
2ABA
330
1F
100
AcDbEntity
  8
LOGO
100
AcDbText
 10
2686.782608355039
 20
1278.567998360017
 30
185.2789280614976
 40
2.827030596923076
  1
比例 Scale:
 41
0.9
  7
CHINESET
 72
     4
 11
2695.759692567501
 21
1279.980122403264
 31
185.2789280614976
100
AcDbText
  0
TEXT
  5
2ABB
330
1F
100
AcDbEntity
  8
LOGO
100
AcDbText
 10
2686.61980168227
 20
1272.952312622519
 30
185.2789280614976
 40
2.827030596923076
  1
投影  View:
 41
0.9
  7
CHINESET
 72
     4
 11
2695.759692567501
 21
1274.326061209418
 31
185.2789280614976
100
AcDbText
  0
TEXT
  5
2ABC
330
1F
100
AcDbEntity
  8
LOGO
100
AcDbText
 10
2686.896194405808
 20
1267.25848471711
 30
185.2789280614976
 40
2.827030596923076
  1
單位  Unit:
 41
0.9
  7
CHINESET
 72
     4
 11
2695.759692567501
 21
1268.672000015572
 31
185.2789280614976
100
AcDbText
  0
SOLID
  5
2ABD
330
1F
100
AcDbEntity
  8
LOGO
 62
     5
100
AcDbTrace
 10
2666.653102083737
 20
1270.544505389915
 30
0.0
 11
2667.875435932564
 21
1270.544505389915
 31
0.0
 12
2672.975518543185
 22
1282.135602232237
 32
0.0
 13
2674.197852392012
 23
1282.135602232236
 33
0.0
  0
SOLID
  5
2ABE
330
1F
100
AcDbEntity
  8
LOGO
 62
     5
100
AcDbTrace
 10
2668.38122924932
 20
1270.544505389915
 30
0.0
 11
2669.603563098148
 21
1270.544505389915
 31
0.0
 12
2674.197852392012
 22
1281.208314484851
 32
0.0
 13
2672.975518543185
 23
1276.72642370582
 33
0.0
  0
SOLID
  5
2ABF
330
1F
100
AcDbEntity
  8
LOGO
 62
     2
100
AcDbTrace
 10
2667.875435932564
 20
1270.544505389915
 30
0.0
 11
2668.38122924932
 21
1270.544505389915
 31
0.0
 12
2674.197852392012
 22
1282.135602232236
 32
0.0
 13
2674.703645708769
 23
1282.135602232236
 33
0.0
  0
SOLID
  5
2AC0
330
1F
100
AcDbEntity
  8
LOGO
 62
     5
100
AcDbTrace
 10
2664.693401171091
 20
1266.329561083616
 30
0.0
 11
2665.114895601721
 21
1266.329561083616
 31
0.0
 12
2666.301856724879
 22
1268.437033236765
 32
0.0
 13
2666.723351155508
 23
1268.437033236765
 33
0.0
  0
SOLID
  5
2AC1
330
1F
100
AcDbEntity
  8
LOGO
 62
     5
100
AcDbTrace
 10
2666.301856724879
 20
1268.437033236765
 30
0.0
 11
2666.723351155508
 21
1268.437033236765
 31
0.0
 12
2666.301856724879
 22
1266.329561083616
 32
0.0
 13
2666.723351155508
 23
1266.329561083616
 33
0.0
  0
SOLID
  5
2AC2
330
1F
100
AcDbEntity
  8
LOGO
 62
     5
100
AcDbTrace
 10
2666.301856724879
 20
1266.329561083616
 30
0.0
 11
2666.723351155508
 21
1266.329561083616
 31
0.0
 12
2667.910312278668
 22
1268.437033236765
 32
0.0
 13
2668.331806709298
 23
1268.437033236765
 33
0.0
  0
SOLID
  5
2AC3
330
1F
100
AcDbEntity
  8
LOGO
 62
     5
100
AcDbTrace
 10
2667.910312278668
 20
1268.437033236765
 30
0.0
 11
2668.331806709298
 21
1268.437033236765
 31
0.0
 12
2667.910312278668
 22
1266.329561083616
 32
0.0
 13
2668.331806709298
 23
1266.329561083616
 33
0.0
  0
POLYLINE
  5
2AC4
330
1F
100
AcDbEntity
  8
LOGO
 62
     5
100
AcDb2dPolyline
 66
     1
 10
0.0
 20
0.0
 30
0.0
 40
0.4221699024738461
 41
0.4221699024738461
  0
VERTEX
  5
2AC5
330
2AC4
100
AcDbEntity
  8
LOGO
 62
     5
100
AcDbVertex
100
AcDb2dVertex
 10
2682.038662009495
 20
1267.594044375506
 30
0.0
 42
1.0
  0
VERTEX
  5
2AC6
330
2AC4
100
AcDbEntity
  8
LOGO
 62
     5
100
AcDbVertex
100
AcDb2dVertex
 10
2680.772152302073
 20
1267.594044375506
 30
0.0
 42
1.0
  0
SEQEND
  5
2AC7
330
2AC4
100
AcDbEntity
  8
LOGO
 62
     5
  0
POLYLINE
  5
2AC8
330
1F
100
AcDbEntity
  8
LOGO
 62
     5
100
AcDb2dPolyline
 66
     1
 10
0.0
 20
0.0
 30
0.0
 70
     1
  0
VERTEX
  5
2AC9
330
2AC8
100
AcDbEntity
  8
LOGO
 62
     5
100
AcDbVertex
100
AcDb2dVertex
 10
2678.384725169231
 20
1267.383297160191
 30
0.0
 42
1.000000057330635
  0
VERTEX
  5
2ACA
330
2AC8
100
AcDbEntity
  8
LOGO
 62
     5
100
AcDbVertex
100
AcDb2dVertex
 10
2679.649208461121
 20
1267.383297160191
 30
0.0
 42
1.000000057330635
  0
SEQEND
  5
2ACB
330
2AC8
100
AcDbEntity
  8
LOGO
 62
     5
  0
CIRCLE
  5
2ACC
330
1F
100
AcDbEntity
  8
LOGO
 62
     5
100
AcDbCircle
 10
2679.016966815177
 20
1267.383297160191
 30
0.0
 40
0.632241645944832
  0
POLYLINE
  5
2ACD
330
1F
100
AcDbEntity
  8
LOGO
 62
     5
100
AcDb2dPolyline
 66
     1
 10
0.0
 20
0.0
 30
0.0
 70
     1
 40
0.4221699024738461
 41
0.4221699024738461
  0
VERTEX
  5
2ACE
330
2ACD
100
AcDbEntity
  8
LOGO
 62
     5
100
AcDbVertex
100
AcDb2dVertex
 10
2678.172627010229
 20
1267.383297160191
 30
0.0
 42
1.0
  0
VERTEX
  5
2ACF
330
2ACD
100
AcDbEntity
  8
LOGO
 62
     5
100
AcDbVertex
100
AcDb2dVertex
 10
2679.861306620124
 20
1267.383297160191
 30
0.0
 42
1.0
  0
SEQEND
  5
2AD0
330
2ACD
100
AcDbEntity
  8
LOGO
 62
     5
  0
LINE
  5
2AD1
330
1F
100
AcDbEntity
  8
LOGO
100
AcDbLine
 10
2682.248396017043
 20
1266.329561083616
 30
0.0
 11
2682.248396017043
 21
1267.594044375506
 31
0.0
  0
SOLID
  5
2AD2
330
1F
100
AcDbEntity
  8
LOGO
 62
     5
100
AcDbTrace
 10
2679.649166311679
 20
1268.437033236765
 30
0.0
 11
2680.070660742309
 21
1268.437033236765
 31
0.0
 12
2679.649166311679
 22
1266.329561083616
 32
0.0
 13
2680.070660742309
 23
1266.329561083616
 33
0.0
  0
SOLID
  5
2AD3
330
1F
100
AcDbEntity
  8
LOGO
 62
     5
100
AcDbTrace
 10
2680.562418294524
 20
1266.329561083616
 30
0.0
 11
2680.983912725154
 21
1266.329561083616
 31
0.0
 12
2680.562418294524
 22
1268.437033236765
 32
0.0
 13
2680.983912725154
 23
1268.437033236765
 33
0.0
  0
SOLID
  5
2AD4
330
1F
100
AcDbEntity
  8
LOGO
 62
     5
100
AcDbTrace
 10
2681.826901586414
 20
1267.594044375506
 30
0.0
 11
2682.248396017043
 21
1267.594044375506
 31
0.0
 12
2681.826901586414
 22
1266.329561083616
 32
0.0
 13
2682.248396017043
 23
1266.329561083616
 33
0.0
  0
SOLID
  5
2AD5
330
1F
100
AcDbEntity
  8
LOGO
 62
     5
100
AcDbTrace
 10
2680.52026885146
 20
1281.208314484851
 30
0.0
 11
2679.297935002634
 21
1276.72642370582
 31
0.0
 12
2680.52026885146
 22
1270.544505389915
 32
0.0
 13
2679.297935002634
 23
1270.544505389915
 33
0.0
  0
SOLID
  5
2AD6
330
1F
100
AcDbEntity
  8
LOGO
 62
     5
100
AcDbTrace
 10
2681.026062168216
 20
1270.544505389915
 30
0.0
 11
2682.248396017043
 21
1270.544505389915
 31
0.0
 12
2681.026062168216
 22
1282.135602232236
 32
0.0
 13
2682.248396017043
 23
1282.135602232237
 33
0.0
  0
SOLID
  5
2AD7
330
1F
100
AcDbEntity
  8
LOGO
 62
     2
100
AcDbTrace
 10
2680.52026885146
 20
1282.135602232237
 30
0.0
 11
2681.026062168216
 21
1282.135602232236
 31
0.0
 12
2680.52026885146
 22
1270.544505389915
 32
0.0
 13
2681.026062168216
 23
1270.544505389915
 33
0.0
  0
POLYLINE
  5
2AD8
330
1F
100
AcDbEntity
  8
LOGO
 62
     5
100
AcDb2dPolyline
 66
     1
 10
0.0
 20
0.0
 30
0.0
 40
0.4221699024738461
 41
0.4221699024738461
  0
VERTEX
  5
2AD9
330
2AD8
100
AcDbEntity
  8
LOGO
 62
     5
100
AcDbVertex
100
AcDb2dVertex
 10
2675.997213737505
 20
1267.594044375506
 30
0.0
 42
1.0
  0
VERTEX
  5
2ADA
330
2AD8
100
AcDbEntity
  8
LOGO
 62
     5
100
AcDbVertex
100
AcDb2dVertex
 10
2674.730704030082
 20
1267.594044375506
 30
0.0
 42
1.0
  0
SEQEND
  5
2ADB
330
2AD8
100
AcDbEntity
  8
LOGO
 62
     5
  0
POLYLINE
  5
2ADC
330
1F
100
AcDbEntity
  8
LOGO
 62
     5
100
AcDb2dPolyline
 66
     1
 10
0.0
 20
0.0
 30
0.0
 40
0.4221699024738461
 41
0.4221699024738461
  0
VERTEX
  5
2ADD
330
2ADC
100
AcDbEntity
  8
LOGO
 62
     5
100
AcDbVertex
100
AcDb2dVertex
 10
2677.261697029392
 20
1267.594044375506
 30
0.0
 42
1.0
  0
VERTEX
  5
2ADE
330
2ADC
100
AcDbEntity
  8
LOGO
 62
     5
100
AcDbVertex
100
AcDb2dVertex
 10
2675.995187321972
 20
1267.594044375506
 30
0.0
 42
1.0
  0
SEQEND
  5
2ADF
330
2ADC
100
AcDbEntity
  8
LOGO
 62
     5
  0
POLYLINE
  5
2AE0
330
1F
100
AcDbEntity
  8
LOGO
 62
     5
100
AcDb2dPolyline
 66
     1
 10
0.0
 20
0.0
 30
0.0
 40
0.4221699024738461
 41
0.4221699024738461
  0
VERTEX
  5
2AE1
330
2AE0
100
AcDbEntity
  8
LOGO
 62
     5
100
AcDbVertex
100
AcDb2dVertex
 10
2671.220248757402
 20
1267.594044375506
 30
0.0
 42
1.0
  0
VERTEX
  5
2AE2
330
2AE0
100
AcDbEntity
  8
LOGO
 62
     5
100
AcDbVertex
100
AcDb2dVertex
 10
2669.953739049981
 20
1267.594044375506
 30
0.0
 42
1.0
  0
SEQEND
  5
2AE3
330
2AE0
100
AcDbEntity
  8
LOGO
 62
     5
  0
SOLID
  5
2AE4
330
1F
100
AcDbEntity
  8
LOGO
 62
     5
100
AcDbTrace
 10
2669.744005042432
 20
1268.437033236765
 30
0.0
 11
2670.165499473062
 21
1268.437033236765
 31
0.0
 12
2669.744005042432
 22
1266.329561083616
 32
0.0
 13
2670.165499473062
 23
1266.329561083616
 33
0.0
  0
SOLID
  5
2AE5
330
1F
100
AcDbEntity
  8
LOGO
 62
     5
100
AcDbTrace
 10
2671.008488334322
 20
1267.594044375506
 30
0.0
 11
2671.429982764953
 21
1267.594044375506
 31
0.0
 12
2671.008488334322
 22
1266.329561083616
 32
0.0
 13
2671.429982764953
 23
1266.329561083616
 33
0.0
  0
POLYLINE
  5
2AE6
330
1F
100
AcDbEntity
  8
LOGO
 62
     5
100
AcDb2dPolyline
 66
     1
 10
0.0
 20
0.0
 30
0.0
 70
     1
 40
0.4221699024738461
 41
0.4221699024738461
  0
VERTEX
  5
2AE7
330
2AE6
100
AcDbEntity
  8
LOGO
 62
     5
100
AcDbVertex
100
AcDb2dVertex
 10
2672.131178738238
 20
1267.383297160191
 30
0.0
 42
1.0
  0
VERTEX
  5
2AE8
330
2AE6
100
AcDbEntity
  8
LOGO
 62
     5
100
AcDbVertex
100
AcDb2dVertex
 10
2673.819858348133
 20
1267.383297160191
 30
0.0
 42
1.0
  0
SEQEND
  5
2AE9
330
2AE6
100
AcDbEntity
  8
LOGO
 62
     5
  0
SOLID
  5
2AEA
330
1F
100
AcDbEntity
  8
LOGO
 62
     5
100
AcDbTrace
 10
2673.607718039688
 20
1269.069274882711
 30
0.0
 11
2674.029212470318
 21
1269.069274882711
 31
0.0
 12
2673.607718039688
 22
1266.329561083616
 32
0.0
 13
2674.029212470318
 23
1266.329561083616
 33
0.0
  0
SOLID
  5
2AEB
330
1F
100
AcDbEntity
  8
LOGO
 62
     5
100
AcDbTrace
 10
2674.520970022534
 20
1268.437033236765
 30
0.0
 11
2674.942464453164
 21
1268.437033236765
 31
0.0
 12
2674.520970022534
 22
1266.329561083616
 32
0.0
 13
2674.942464453164
 23
1266.329561083616
 33
0.0
  0
SOLID
  5
2AEC
330
1F
100
AcDbEntity
  8
LOGO
 62
     5
100
AcDbTrace
 10
2675.785453314423
 20
1267.594044375506
 30
0.0
 11
2676.206947745053
 21
1267.594044375506
 31
0.0
 12
2675.785453314423
 22
1266.329561083616
 32
0.0
 13
2676.206947745053
 23
1266.329561083616
 33
0.0
  0
SOLID
  5
2AED
330
1F
100
AcDbEntity
  8
LOGO
 62
     5
100
AcDbTrace
 10
2677.049936606313
 20
1267.594044375506
 30
0.0
 11
2677.471431036942
 21
1267.594044375506
 31
0.0
 12
2677.049936606313
 22
1266.329561083616
 32
0.0
 13
2677.471431036942
 23
1266.329561083616
 33
0.0
  0
SOLID
  5
2AEE
330
1F
100
AcDbEntity
  8
LOGO
 62
     5
100
AcDbTrace
 10
2668.830753059586
 20
1268.732079338207
 30
0.0
 11
2669.252247490218
 21
1268.732079338207
 31
0.0
 12
2668.830753059586
 22
1269.069274882711
 32
0.0
 13
2669.252247490218
 23
1269.069274882711
 33
0.0
  0
SOLID
  5
2AEF
330
1F
100
AcDbEntity
  8
LOGO
 62
     5
100
AcDbTrace
 10
2668.830753059586
 20
1268.437033236765
 30
0.0
 11
2669.252247490218
 21
1268.437033236765
 31
0.0
 12
2668.830753059586
 22
1266.329561083616
 32
0.0
 13
2669.252247490218
 23
1266.329561083616
 33
0.0
  0
SOLID
  5
2AF0
330
1F
100
AcDbEntity
  8
LOGO
 62
     5
100
AcDbTrace
 10
2672.975518543185
 20
1270.544505389915
 30
0.0
 11
2674.197852392012
 21
1270.544505389915
 31
0.0
 12
2672.975518543185
 22
1276.72642370582
 32
0.0
 13
2674.197852392012
 23
1281.208314484851
 33
0.0
  0
SOLID
  5
2AF1
330
1F
100
AcDbEntity
  8
LOGO
 62
     5
100
AcDbTrace
 10
2674.703645708769
 20
1282.135602232236
 30
0.0
 11
2675.925979557595
 21
1282.135602232237
 31
0.0
 12
2674.703645708769
 22
1271.4717931373
 32
0.0
 13
2675.925979557595
 23
1275.953683916332
 33
0.0
  0
SOLID
  5
2AF2
330
1F
100
AcDbEntity
  8
LOGO
 62
     2
100
AcDbTrace
 10
2674.197852392012
 20
1282.135602232236
 30
0.0
 11
2674.703645708769
 21
1282.135602232236
 31
0.0
 12
2674.197852392012
 22
1270.544505389915
 32
0.0
 13
2674.703645708769
 23
1270.544505389915
 33
0.0
  0
SOLID
  5
2AF3
330
1F
100
AcDbEntity
  8
LOGO
 62
     5
100
AcDbTrace
 10
2674.703645708769
 20
1271.4717931373
 30
0.0
 11
2675.925979557595
 21
1275.953683916332
 31
0.0
 12
2680.52026885146
 22
1282.135602232237
 32
0.0
 13
2679.297935002634
 23
1282.135602232237
 33
0.0
  0
SOLID
  5
2AF4
330
1F
100
AcDbEntity
  8
LOGO
 62
     5
100
AcDbTrace
 10
2674.703645708769
 20
1270.544505389915
 30
0.0
 11
2675.925979557595
 21
1270.544505389915
 31
0.0
 12
2680.52026885146
 22
1281.208314484851
 32
0.0
 13
2679.297935002634
 23
1276.72642370582
 33
0.0
  0
SOLID
  5
2AF5
330
1F
100
AcDbEntity
  8
LOGO
 62
     2
100
AcDbTrace
 10
2674.197852392012
 20
1270.544505389915
 30
0.0
 11
2674.703645708769
 21
1270.544505389915
 31
0.0
 12
2680.52026885146
 22
1282.135602232237
 32
0.0
 13
2681.026062168216
 23
1282.135602232236
 33
0.0
  0
LINE
  5
2AF6
330
1F
100
AcDbEntity
  8
LOGO
 62
     4
100
AcDbLine
 10
2781.681447605474
 20
1267.258484717111
 30
0.0
 11
2781.681447605474
 21
1256.892705861726
 31
0.0
  0
LINE
  5
2AF7
330
1F
100
AcDbEntity
  8
LOGO
 62
     4
100
AcDbLine
 10
2768.274840473244
 20
1267.258484717111
 30
0.0
 11
2768.274840473244
 21
1256.892705861726
 31
0.0
  0
LINE
  5
2AF8
330
1F
100
AcDbEntity
  8
LOGO
 62
     4
100
AcDbLine
 10
2781.681447605474
 20
1256.892705861726
 30
0.0
 11
2768.274840473244
 21
1256.892705861726
 31
0.0
  0
LINE
  5
2AF9
330
1F
100
AcDbEntity
  8
LOGO
 62
     4
100
AcDbLine
 10
2787.228751468168
 20
1279.980122403264
 30
0.0
 11
2764.79923676215
 21
1279.980122403264
 31
0.0
  0
LINE
  5
2AFA
330
1F
100
AcDbEntity
  8
LOGO
 62
     4
100
AcDbLine
 10
2787.228751468168
 20
1271.499030612495
 30
0.0
 11
2764.79923676215
 21
1271.499030612495
 31
0.0
  0
LINE
  5
2AFB
330
1F
100
AcDbEntity
  8
LOGO
 62
     4
100
AcDbLine
 10
2764.79923676215
 20
1279.980122403264
 30
0.0
 11
2764.79923676215
 21
1271.499030612495
 31
0.0
  0
LINE
  5
2AFC
330
1F
100
AcDbEntity
  8
LOGO
 62
     4
100
AcDbLine
 10
2787.228751468168
 20
1279.980122403264
 30
0.0
 11
2787.228751468168
 21
1271.499030612495
 31
0.0
  0
LINE
  5
2AFD
330
1F
100
AcDbEntity
  8
LOGO
 62
     4
100
AcDbLine
 10
2775.206005358028
 20
1271.499030612495
 30
0.0
 11
2775.206005358028
 21
1267.258484717111
 31
0.0
  0
TEXT
  5
2AFE
330
1F
100
AcDbEntity
  8
LOGO
  6
Continuous
 62
     7
100
AcDbText
 10
2766.306193947562
 20
1273.269446124463
 30
0.0
 40
4.948019999999998
  1
MCHB
  7
CHINESET
100
AcDbText
  0
LINE
  5
2AFF
330
1F
100
AcDbEntity
  8
LOGO
 62
     4
100
AcDbLine
 10
2781.681447605474
 20
1267.258484717111
 30
0.0
 11
2768.274840473244
 21
1267.258484717111
 31
0.0
  0
TEXT
  5
2B00
330
1F
100
AcDbEntity
  8
LOGO
  6
Continuous
100
AcDbText
 10
2772.092990200367
 20
1258.355813566018
 30
185.2789280614976
 40
2.120579999999999
  1
Model
 41
0.8
  7
CHINESET
100
AcDbText
  0
TEXT
  5
2B01
330
1F
100
AcDbEntity
  8
LOGO
100
AcDbText
 10
2771.528560740184
 20
1262.28691186841
 30
185.2789280614976
 40
3.5343
  1
型號
  7
CHINESET
100
AcDbText
  0
LINE
  5
2B02
330
1F
100
AcDbEntity
  8
LOGO
  6
Continuous
 62
     7
100
AcDbLine
 10
2788.130361620785
 20
1275.709535140428
 30
0.0
 11
2791.875302294301
 21
1275.709535140428
 31
0.0
  0
LINE
  5
2B03
330
1F
100
AcDbEntity
  8
LOGO
 62
     4
100
AcDbLine
 10
2809.393234855149
 20
1267.258484717111
 30
0.0
 11
2809.393234855149
 21
1256.892705861726
 31
0.0
  0
LINE
  5
2B04
330
1F
100
AcDbEntity
  8
LOGO
 62
     4
100
AcDbLine
 10
2792.22127697122
 20
1267.258484717111
 30
0.0
 11
2792.22127697122
 21
1256.892705861726
 31
0.0
  0
LINE
  5
2B05
330
1F
100
AcDbEntity
  8
LOGO
 62
     4
100
AcDbLine
 10
2809.393234855149
 20
1256.892705861726
 30
0.0
 11
2792.22127697122
 21
1256.892705861726
 31
0.0
  0
LINE
  5
2B06
330
1F
100
AcDbEntity
  8
LOGO
 62
     4
100
AcDbLine
 10
2808.346734321716
 20
1279.980122403264
 30
0.0
 11
2793.05663366919
 21
1279.980122403264
 31
0.0
  0
LINE
  5
2B07
330
1F
100
AcDbEntity
  8
LOGO
 62
     4
100
AcDbLine
 10
2808.346734321716
 20
1271.499030612495
 30
0.0
 11
2793.05663366919
 21
1271.499030612495
 31
0.0
  0
LINE
  5
2B08
330
1F
100
AcDbEntity
  8
LOGO
 62
     4
100
AcDbLine
 10
2793.05663366919
 20
1279.980122403264
 30
0.0
 11
2793.05663366919
 21
1271.499030612495
 31
0.0
  0
LINE
  5
2B09
330
1F
100
AcDbEntity
  8
LOGO
 62
     4
100
AcDbLine
 10
2808.346734321716
 20
1279.980122403264
 30
0.0
 11
2808.346734321716
 21
1271.499030612495
 31
0.0
  0
LINE
  5
2B0A
330
1F
100
AcDbEntity
  8
LOGO
 62
     4
100
AcDbLine
 10
2801.435840433802
 20
1271.499030612495
 30
0.0
 11
2801.435840433802
 21
1267.258484717111
 31
0.0
  0
TEXT
  5
2B0B
330
1F
100
AcDbEntity
  8
LOGO
  6
Continuous
 62
     7
100
AcDbText
 10
2796.412420488118
 20
1273.269446124463
 30
0.0
 40
4.948019999999998
  1
20
  7
CHINESET
100
AcDbText
  0
LINE
  5
2B0C
330
1F
100
AcDbEntity
  8
LOGO
 62
     4
100
AcDbLine
 10
2809.393234855149
 20
1267.258484717111
 30
0.0
 11
2792.22127697122
 21
1267.258484717111
 31
0.0
  0
TEXT
  5
2B22
330
1F
100
AcDbEntity
  8
LOGO
  6
Continuous
100
AcDbText
 10
2795.535099425984
 20
1258.355813566018
 30
185.2789280614976
 40
2.120579999999999
  1
Tube I.D.
 41
0.8
  7
CHINESET
100
AcDbText
  0
TEXT
  5
2B23
330
1F
100
AcDbEntity
  8
LOGO
100
AcDbText
 10
2797.171104406492
 20
1262.28691186841
 30
185.2789280614976
 40
3.5343
  1
內徑
  7
CHINESET
100
AcDbText
  0
TEXT
  5
2B34
330
1F
100
AcDbEntity
  8
LOGO
100
AcDbText
 10
2726.988927497391
 20
1256.040816150409
 30
0.0
 40
2.82744
  1
31004274
 41
0.7
  7
CHINESET
 72
     1
 11
2734.104651497391
 21
1256.040816150409
 31
0.0
100
AcDbText
  0
LINE
  5
2B35
330
1F
100
AcDbEntity
  8
LOGO
 62
     4
100
AcDbLine
 10
2742.879325601346
 20
1260.190908224803
 30
0.0
 11
2742.879325601347
 21
1254.536847030957
 31
0.0
  0
LINE
  5
2B36
330
1F
100
AcDbEntity
  8
LOGO
 62
     4
100
AcDbLine
 10
2742.879325601346
 20
1260.190908224803
 30
0.0
 11
2725.914685601347
 21
1260.190908224803
 31
0.0
  0
CIRCLE
  5
2B37
330
1F
100
AcDbEntity
  8
LOGO
  6
Continuous
100
AcDbCircle
 10
2712.302415704793
 20
1274.332108248553
 30
0.0
 40
1.641440505372883
  0
CIRCLE
  5
2B38
330
1F
100
AcDbEntity
  8
LOGO
  6
Continuous
100
AcDbCircle
 10
2712.302415704793
 20
1274.332108248553
 30
0.0
 40
0.9617388276419276
  0
LINE
  5
2B39
330
1F
100
AcDbEntity
  8
LOGO
100
AcDbLine
 10
2722.617418305258
 20
1272.690667743179
 30
0.0
 11
2722.617418305258
 21
1275.973548753926
 31
0.0
  0
LINE
  5
2B3A
330
1F
100
AcDbEntity
  8
LOGO
100
AcDbLine
 10
2717.471596544096
 20
1273.370369420911
 30
0.0
 11
2717.471596544096
 21
1275.293847076195
 31
0.0
  0
LINE
  5
2B3B
330
1F
100
AcDbEntity
  8
LOGO
  6
Continuous
100
AcDbLine
 10
2717.471596544096
 20
1275.293847076195
 30
0.0
 11
2722.617418305258
 21
1275.973548753926
 31
0.0
  0
LINE
  5
2B3C
330
1F
100
AcDbEntity
  8
LOGO
  6
Continuous
100
AcDbLine
 10
2717.471596544096
 20
1273.370369420911
 30
0.0
 11
2722.617418305258
 21
1272.690667743179
 31
0.0
  0
LINE
  5
2B3D
330
1F
100
AcDbEntity
  8
LOGO
  6
AM_ISO08W050x2
 48
0.3
100
AcDbLine
 10
2710.0396653895
 20
1274.332108248553
 30
0.0
 11
2714.565166020086
 21
1274.332108248553
 31
0.0
1001
GENIUS_GENOREF_13
1005
2B54
  0
LINE
  5
2B3E
330
1F
100
AcDbEntity
  8
LOGO
  6
AM_ISO08W050x2
 48
0.3
100
AcDbLine
 10
2712.302415704793
 20
1272.06935793326
 30
0.0
 11
2712.302415704793
 21
1276.594858563845
 31
0.0
1001
GENIUS_GENOREF_13
1005
2B53
  0
LINE
  5
2B3F
330
1F
100
AcDbEntity
  8
LOGO
  6
CENTER
 48
0.5
100
AcDbLine
 10
2717.06007383065
 20
1274.332108248553
 30
0.0
 11
2723.135585898724
 21
1274.332108248553
 31
0.0
1001
GENIUS_GENOREF_13
1005
2B52
  0
POINT
  5
2B52
330
1F
100
AcDbEntity
  8
0
 60
     1
100
AcDbPoint
 10
250.794227839951
 20
359.7563135069473
 30
0.0
1001
GENIUS_GENOBJ-N-CRS_13
1002
{
1000
OWNER
1000
GEN
1002
}
1001
GENIUS_GENOLIS_13
1002
{
1000
ENT
1005
0
1005
0
1005
0
1005
2B3F
1002
}
1001
GENIUS_GENOENT_13
1002
{
1000
MYREF
1005
2B52
1002
}
1002
{
1000
GRP
1005
0
1002
}
1001
GENIUS_GENODEF_13
1002
{
1000
HIER
1070
    10
1002
}
1002
{
1000
MANEDIT
1070
     1
1002
}
1002
{
1000
NOSEL
1070
     0
1002
}
1002
{
1000
BEHIND
1070
     0
1002
}
1002
{
1000
OTHER
1070
     0
1002
}
1002
{
1000
REACTOR
1002
}
  0
POINT
  5
2B53
330
1F
100
AcDbEntity
  8
0
 60
     1
100
AcDbPoint
 10
239.4696426170963
 20
368.6318999855836
 30
0.0
1001
GENIUS_GENOBJ-N-CRS_13
1002
{
1000
OWNER
1000
GEN
1002
}
1001
GENIUS_GENOLIS_13
1002
{
1000
ENT
1005
0
1005
0
1005
0
1005
2B3E
1002
}
1001
GENIUS_GENOENT_13
1002
{
1000
MYREF
1005
2B53
1002
}
1002
{
1000
GRP
1005
0
1002
}
1001
GENIUS_GENODEF_13
1002
{
1000
HIER
1070
    10
1002
}
1002
{
1000
MANEDIT
1070
     1
1002
}
1002
{
1000
NOSEL
1070
     0
1002
}
1002
{
1000
BEHIND
1070
     0
1002
}
1002
{
1000
OTHER
1070
     0
1002
}
1002
{
1000
REACTOR
1002
}
  0
POINT
  5
2B54
330
1F
100
AcDbEntity
  8
0
 60
     1
100
AcDbPoint
 10
245.8283163149331
 20
359.7563135069473
 30
0.0
1001
GENIUS_GENOBJ-N-CRS_13
1002
{
1000
OWNER
1000
GEN
1002
}
1001
GENIUS_GENOLIS_13
1002
{
1000
ENT
1005
0
1005
0
1005
0
1005
2B3D
1002
}
1001
GENIUS_GENOENT_13
1002
{
1000
MYREF
1005
2B54
1002
}
1002
{
1000
GRP
1005
0
1002
}
1001
GENIUS_GENODEF_13
1002
{
1000
HIER
1070
    10
1002
}
1002
{
1000
MANEDIT
1070
     1
1002
}
1002
{
1000
NOSEL
1070
     0
1002
}
1002
{
1000
BEHIND
1070
     0
1002
}
1002
{
1000
OTHER
1070
     0
1002
}
1002
{
1000
REACTOR
1002
}
  0
ENDSEC
  0
SECTION
  2
OBJECTS
  0
DICTIONARY
  5
C
330
0
100
AcDbDictionary
281
     1
  3
ACAD_COLOR
350
BE
  3
ACAD_GROUP
350
D
  3
ACAD_LAYOUT
350
1A
  3
ACAD_MATERIAL
350
BD
  3
ACAD_MLINESTYLE
350
17
  3
ACAD_PLOTSETTINGS
350
19
  3
ACAD_PLOTSTYLENAME
350
E
  3
ACAD_TABLESTYLE
350
11A
  3
AcAsAppObject
350
1ED4
  3
ACASGREF_MASTER
350
1F1C
  3
ACDBHEADERROUNDTRIPXREC
350
2CB8
  3
AcDbVariableDictionary
350
94
  3
AcmDictionary
350
5B
  3
AD_GREF_MODULE
350
1F1D
  3
AD_MAPI_MODULE
350
1F36
  3
AMG
350
41
  3
AMGSNAPSETTINGS
350
1B8
  3
DWGPROPS
350
2CB7
  3
MAPISURF_MODULE
350
1F1E
  0
DICTIONARY
  5
3F9
330
2
100
AcDbDictionary
280
     1
281
     1
  3
ACAD_LAYERFILTERS
360
5B7
  3
ACAD_LAYERSTATES
360
76B
  3
ACLYDICTIONARY
360
5B6
  3
AMLAYER_GROUPCOLORS
360
B73
  0
DICTIONARY
  5
8F
330
1F
100
AcDbDictionary
280
     1
281
     1
  3
ACAD_INDEX
360
1F73
  3
ACAD_SORTENTS
360
BA5
  0
DICTIONARY
  5
274B
330
273F
100
AcDbDictionary
280
     1
281
     1
  3
ACAD_DIMASSOC
360
274C
  0
DICTIONARY
  5
2788
330
277C
100
AcDbDictionary
280
     1
281
     1
  3
ACAD_DIMASSOC
360
2789
  0
DICTIONARY
  5
27DF
330
27D3
100
AcDbDictionary
280
     1
281
     1
  3
ACAD_DIMASSOC
360
27E0
  0
DICTIONARY
  5
2826
330
281D
100
AcDbDictionary
280
     1
281
     1
  3
ACAD_DIMASSOC
360
2827
  0
DICTIONARY
  5
28A4
330
2898
100
AcDbDictionary
280
     1
281
     1
  3
ACAD_DIMASSOC
360
28A5
  0
DICTIONARY
  5
BE
102
{ACAD_REACTORS
330
C
102
}
330
C
100
AcDbDictionary
281
     1
  0
DICTIONARY
  5
D
102
{ACAD_REACTORS
330
C
102
}
330
C
100
AcDbDictionary
281
     1
  0
DICTIONARY
  5
1A
102
{ACAD_REACTORS
330
C
102
}
330
C
100
AcDbDictionary
281
     1
  3
Model
350
22
  3
配置1
350
1E
  3
配置2
350
26
  0
DICTIONARY
  5
BD
102
{ACAD_REACTORS
330
C
102
}
330
C
100
AcDbDictionary
281
     1
  0
DICTIONARY
  5
17
102
{ACAD_REACTORS
330
C
102
}
330
C
100
AcDbDictionary
281
     1
  3
Standard
350
18
  0
DICTIONARY
  5
19
102
{ACAD_REACTORS
330
C
102
}
330
C
100
AcDbDictionary
281
     1
  0
ACDBDICTIONARYWDFLT
  5
E
102
{ACAD_REACTORS
330
C
102
}
330
C
100
AcDbDictionary
281
     1
  3
Normal
350
F
100
AcDbDictionaryWithDefault
340
F
  0
DICTIONARY
  5
11A
102
{ACAD_REACTORS
330
C
102
}
330
C
100
AcDbDictionary
281
     1
  3
Standard
350
11B
  0
ACAD_PROXY_OBJECT
  5
1ED4
102
{ACAD_REACTORS
330
C
102
}
330
C
100
AcDbProxyObject
 90
      499
 91
      599
 95
  2555929
 70
     0
 93
       10
310
4040
 94
        0
1001
ACAD
1000
AcRTDxfName
1000
ASAPP
  0
ACAD_PROXY_OBJECT
  5
1F1C
102
{ACAD_REACTORS
330
C
102
}
330
C
100
AcDbProxyObject
 90
      499
 91
      604
 95
  2555929
 70
     0
 93
       34
310
0100004040
 94
        0
1001
ACAD
1000
AcRTDxfName
1000
ACASGREFMASTER
  0
DICTIONARY
  5
2CB8
102
{ACAD_REACTORS
330
C
102
}
330
C
100
AcDbDictionary
281
     1
  0
DICTIONARY
  5
94
102
{ACAD_REACTORS
330
C
102
}
330
C
100
AcDbDictionary
281
     1
  3
CTABLESTYLE
350
138
  3
DIMASSOC
350
96
  3
INDEXCTL
350
95
  3
PROJECTNAME
350
1E8F
  0
DICTIONARY
  5
5B
102
{ACAD_REACTORS
330
C
102
}
330
C
100
AcDbDictionary
281
     1
  3
AcmBOM
350
1B5
  3
AcmStdDictionary
350
61
  3
AMDTSECTSYM_ARROWCOLOR
350
123
  0
ACAD_PROXY_OBJECT
  5
1F1D
102
{ACAD_REACTORS
330
C
102
}
330
C
100
AcDbProxyObject
 90
      499
 91
      605
 95
  2555929
 70
     0
 93
      114
310
000000438080000000000000000000
 94
        0
1001
ACAD
1000
AcRTDxfName
1000
ACADGREFMODULE
  0
ACAD_PROXY_OBJECT
  5
1F36
102
{ACAD_REACTORS
330
C
102
}
330
C
100
AcDbProxyObject
 90
      499
 91
      607
 95
  2555929
 70
     0
 93
       34
310
05000044C5
 94
        0
1001
ACAD
1000
AcRTDxfName
1000
MAPIADMODULE
  0
DICTIONARY
  5
41
102
{ACAD_REACTORS
330
C
102
}
330
C
100
AcDbDictionary
281
     1
  0
DICTIONARY
  5
1B8
102
{ACAD_REACTORS
330
C
102
}
330
C
100
AcDbDictionary
281
     1
  0
XRECORD
  5
2CB7
102
{ACAD_REACTORS
330
C
102
}
330
C
100
AcDbXrecord
280
     1
  1
DWGPROPS COOKIE
  2

  3

  4

  6

  7

  8

  9

300
AmdtFileType=84
301
=
302
=
303
=
304
=
305
=
306
=
307
=
308
=
309
=
 40
0.0939562731481482
 41
2453696.549700336
 42
2455314.565956725
  1

 90
        1
  0
ACAD_PROXY_OBJECT
  5
1F1E
102
{ACAD_REACTORS
330
C
102
}
330
C
100
AcDbProxyObject
 90
      499
 91
      606
 95
  2555929
 70
     0
 93
        8
310
047E
 94
        0
1001
ACAD
1000
AcRTDxfName
1000
AMDTMAPISURFMOUDULE
  0
DICTIONARY
  5
5B7
102
{ACAD_REACTORS
330
3F9
102
}
330
3F9
100
AcDbDictionary
281
     1
  0
DICTIONARY
  5
76B
102
{ACAD_REACTORS
330
3F9
102
}
330
3F9
100
AcDbDictionary
281
     1
  0
DICTIONARY
  5
5B6
102
{ACAD_REACTORS
330
3F9
102
}
330
3F9
100
AcDbDictionary
281
     1
1001
ACAD
1000
<All
  0
DICTIONARY
  5
B73
102
{ACAD_REACTORS
330
3F9
102
}
330
3F9
100
AcDbDictionary
280
     1
281
     1
  0
DICTIONARY
  5
1F73
102
{ACAD_REACTORS
330
8F
102
}
330
8F
100
AcDbDictionary
281
     1
  3
*A1
350
1F74
  0
SORTENTSTABLE
  5
BA5
102
{ACAD_REACTORS
330
8F
102
}
330
8F
100
AcDbSortentsTable
330
1F
  0
DIMASSOC
  5
274C
102
{ACAD_REACTORS
330
274B
102
}
330
274B
100
AcDbDimAssoc
330
273F
 90
        2
 70
     0
 71
     0
  1
AcDbOsnapPointRef
 72
     3
331
2357
 73
     2
 91
        0
 40
0.0
 10
0.0
 20
0.0
 30
0.0
 75
     0
  0
DIMASSOC
  5
2789
102
{ACAD_REACTORS
330
2788
102
}
330
2788
100
AcDbDimAssoc
330
277C
 90
        2
 70
     0
 71
     0
  1
AcDbOsnapPointRef
 72
     3
331
232B
 73
     2
 91
        0
 40
0.0
 10
0.0
 20
0.0
 30
0.0
 75
     0
  0
DIMASSOC
  5
27E0
102
{ACAD_REACTORS
330
27DF
102
}
330
27DF
100
AcDbDimAssoc
330
27D3
 90
        2
 70
     0
 71
     0
  1
AcDbOsnapPointRef
 72
     3
331
2386
 73
     2
 91
        0
 40
0.0
 10
0.0
 20
0.0
 30
0.0
 75
     0
  0
DIMASSOC
  5
2827
102
{ACAD_REACTORS
330
2826
102
}
330
2826
100
AcDbDimAssoc
330
281D
 90
        2
 70
     0
 71
     0
  1
AcDbOsnapPointRef
 72
     3
331
2388
 73
     2
 91
        0
 40
0.0
 10
0.0
 20
0.0
 30
0.0
 75
     0
  0
DIMASSOC
  5
28A5
102
{ACAD_REACTORS
330
28A4
102
}
330
28A4
100
AcDbDimAssoc
330
2898
 90
        2
 70
     0
 71
     0
  1
AcDbOsnapPointRef
 72
     3
331
23BB
 73
     2
 91
        0
 40
0.0
 10
0.0
 20
0.0
 30
0.0
 75
     0
  0
LAYOUT
  5
22
102
{ACAD_XDICTIONARY
360
2CBB
102
}
102
{ACAD_REACTORS
330
1A
102
}
330
1A
100
AcDbPlotSettings
  1

  2
\\RD\EPSON Stylus C63 Series單色
  4
A4
  6

 40
3.757083177566528
 41
3.757076978683471
 42
3.757080078125
 43
3.757080078125
 44
209.9733276367187
 45
296.9683227539062
 46
0.0
 47
0.0
 48
0.0
 49
0.0
140
0.0
141
0.0
142
1.0
143
0.3405120737814363
 70
 11952
 72
     1
 73
     0
 74
     0
  7
單色出圖.ctb
 75
     0
147
2.936753428137963
148
-2047.07469463503
149
-1261.649717473083
100
AcDbLayout
  1
Model
 70
     1
 71
     0
 10
0.0
 20
0.0
 11
12.0
 21
9.0
 12
0.0
 22
0.0
 32
0.0
 14
0.0
 24
0.0
 34
0.0
 15
0.0
 25
0.0
 35
0.0
146
0.0
 13
0.0
 23
0.0
 33
0.0
 16
1.0
 26
0.0
 36
0.0
 17
0.0
 27
1.0
 37
0.0
 76
     0
330
1F
1001
ACAD_PSEXT
1000
\\RD\EPSON Stylus C63 Series單色
1000
EPSON Stylus C63 Series
1000
\\RD
1000

1070
     0
  0
LAYOUT
  5
1E
102
{ACAD_XDICTIONARY
360
2CB9
102
}
102
{ACAD_REACTORS
330
1A
102
}
330
1A
100
AcDbPlotSettings
  1

  2

  4

  6

 40
0.0
 41
0.0
 42
0.0
 43
0.0
 44
0.0
 45
0.0
 46
0.0
 47
0.0
 48
0.0
 49
0.0
140
0.0
141
0.0
142
1.0
143
1.0
 70
   688
 72
     0
 73
     0
 74
     5
  7
單色出圖.ctb
 75
    16
147
1.0
148
0.0
149
0.0
100
AcDbLayout
  1
配置1
 70
     1
 71
     1
 10
0.0
 20
0.0
 11
420.0
 21
297.0
 12
0.0
 22
0.0
 32
0.0
 14
1.000000000000000E+20
 24
1.000000000000000E+20
 34
1.000000000000000E+20
 15
-1.000000000000000E+20
 25
-1.000000000000000E+20
 35
-1.000000000000000E+20
146
0.0
 13
0.0
 23
0.0
 33
0.0
 16
1.0
 26
0.0
 36
0.0
 17
0.0
 27
1.0
 37
0.0
 76
     0
330
1B
  0
LAYOUT
  5
26
102
{ACAD_XDICTIONARY
360
2CBD
102
}
102
{ACAD_REACTORS
330
1A
102
}
330
1A
100
AcDbPlotSettings
  1

  2

  4

  6

 40
0.0
 41
0.0
 42
0.0
 43
0.0
 44
0.0
 45
0.0
 46
0.0
 47
0.0
 48
0.0
 49
0.0
140
0.0
141
0.0
142
1.0
143
1.0
 70
   688
 72
     0
 73
     0
 74
     5
  7
單色出圖.ctb
 75
    16
147
1.0
148
0.0
149
0.0
100
AcDbLayout
  1
配置2
 70
     1
 71
     2
 10
0.0
 20
0.0
 11
12.0
 21
9.0
 12
0.0
 22
0.0
 32
0.0
 14
0.0
 24
0.0
 34
0.0
 15
0.0
 25
0.0
 35
0.0
146
0.0
 13
0.0
 23
0.0
 33
0.0
 16
1.0
 26
0.0
 36
0.0
 17
0.0
 27
1.0
 37
0.0
 76
     0
330
23
  0
MLINESTYLE
  5
18
102
{ACAD_REACTORS
330
17
102
}
330
17
100
AcDbMlineStyle
  2
STANDARD
 70
     0
  3

 62
   256
 51
90.0
 52
90.0
 71
     2
 49
0.5
 62
   256
  6
BYLAYER
 49
-0.5
 62
   256
  6
BYLAYER
  0
ACDBPLACEHOLDER
  5
F
102
{ACAD_REACTORS
330
E
102
}
330
E
  0
TABLESTYLE
  5
11B
102
{ACAD_REACTORS
330
11A
102
}
330
11A
100
AcDbTableStyle
  3
Standard
 70
     0
 71
     0
 40
1.5
 41
1.5
280
     0
281
     0
  7
STANDARD
140
4.5
170
     2
 62
     0
 63
     7
283
     0
274
    -2
284
     1
 64
     0
275
    -2
285
     1
 65
     0
276
    -2
286
     1
 66
     0
277
    -2
287
     1
 67
     0
278
    -2
288
     1
 68
     0
279
    -2
289
     1
 69
     0
  7
STANDARD
140
6.0
170
     5
 62
     0
 63
     7
283
     0
274
    -2
284
     1
 64
     0
275
    -2
285
     1
 65
     0
276
    -2
286
     1
 66
     0
277
    -2
287
     1
 67
     0
278
    -2
288
     1
 68
     0
279
    -2
289
     1
 69
     0
  7
STANDARD
140
4.5
170
     5
 62
     0
 63
     7
283
     0
274
    -2
284
     1
 64
     0
275
    -2
285
     1
 65
     0
276
    -2
286
     1
 66
     0
277
    -2
287
     1
 67
     0
278
    -2
288
     1
 68
     0
279
    -2
289
     1
 69
     0
  0
DICTIONARYVAR
  5
138
102
{ACAD_REACTORS
330
94
102
}
330
94
100
DictionaryVariables
280
     0
  1
STANDARD
  0
DICTIONARYVAR
  5
96
102
{ACAD_REACTORS
330
94
102
}
330
94
100
DictionaryVariables
280
     0
  1
2
  0
DICTIONARYVAR
  5
95
102
{ACAD_REACTORS
330
94
102
}
330
94
100
DictionaryVariables
280
     0
  1
1
  0
DICTIONARYVAR
  5
1E8F
102
{ACAD_REACTORS
330
94
102
}
330
94
100
DictionaryVariables
280
     0
  1

  0
DICTIONARY
  5
1B5
102
{ACAD_REACTORS
330
5B
102
}
330
5B
100
AcDbDictionary
281
     1
  0
DICTIONARY
  5
61
102
{ACAD_REACTORS
330
5B
102
}
330
5B
100
AcDbDictionary
281
     1
  0
XRECORD
  5
123
102
{ACAD_REACTORS
330
5B
102
}
330
5B
100
AcDbXrecord
280
     1
 90
-1023410169
  0
LAYER_INDEX
  5
1F74
102
{ACAD_REACTORS
330
1F73
102
}
330
1F73
100
AcDbIndex
 40
2455314.565956725
100
AcDbLayerIndex
  8
0
360
2CAE
 90
        3
  8
Defpoints
360
2CAF
 90
        0
  8
AM_7
360
2CB0
 90
       47
  8
AM_VIS
360
2CB1
 90
      332
  8
AM_4
360
2CB2
 90
       16
  8
AM_5
360
2CB3
 90
        5
  8
LOGO
360
2CB4
 90
       91
  8
AM_REFDIM
360
2CB5
 90
       20
  0
DICTIONARY
  5
2CBB
330
22
100
AcDbDictionary
280
     1
281
     1
  3
ACAD_XREC_ROUNDTRIP
360
2CBC
  0
DICTIONARY
  5
2CB9
330
1E
100
AcDbDictionary
280
     1
281
     1
  3
ACAD_XREC_ROUNDTRIP
360
2CBA
  0
DICTIONARY
  5
2CBD
330
26
100
AcDbDictionary
280
     1
281
     1
  3
ACAD_XREC_ROUNDTRIP
360
2CBE
  0
IDBUFFER
  5
2CAE
330
0
100
AcDbIdBuffer
330
2B52
330
2B53
330
2B54
  0
IDBUFFER
  5
2CAF
330
0
100
AcDbIdBuffer
  0
IDBUFFER
  5
2CB0
330
0
100
AcDbIdBuffer
330
2342
330
2345
330
2346
330
2347
330
2348
330
234D
330
234E
330
235A
330
235B
330
235C
330
2360
330
2361
330
2362
330
2367
330
2368
330
236D
330
236E
330
2370
330
2372
330
2376
330
2377
330
237C
330
237D
330
238F
330
2390
330
2391
330
2393
330
2395
330
2396
330
2397
330
2399
330
231E
330
231F
330
2321
330
2324
330
2325
330
232C
330
232D
330
232E
330
2333
330
2334
330
2339
330
233A
330
233C
330
233D
330
233F
330
2340
  0
IDBUFFER
  5
2CB1
330
0
100
AcDbIdBuffer
330
24D4
330
24D5
330
24D6
330
24D7
330
24D8
330
24D9
330
24DA
330
24DB
330
24DC
330
24DF
330
24E0
330
24E1
330
24E2
330
24E3
330
24E4
330
24E5
330
24E6
330
24E7
330
24E8
330
24E9
330
24EA
330
24EB
330
24EC
330
24ED
330
24EE
330
24EF
330
24F0
330
24F1
330
24F2
330
24F3
330
24F4
330
24F5
330
24F6
330
24F7
330
24F8
330
24F9
330
24FA
330
24FB
330
24FC
330
24FD
330
24FE
330
24FF
330
2500
330
2501
330
2502
330
2503
330
2504
330
2505
330
2506
330
2507
330
2508
330
2509
330
250A
330
250B
330
250C
330
250D
330
250E
330
250F
330
2511
330
2512
330
2513
330
2514
330
2515
330
2516
330
2517
330
2518
330
2519
330
251A
330
251B
330
251C
330
251D
330
251E
330
251F
330
2520
330
2521
330
2522
330
2523
330
2524
330
2526
330
2527
330
2528
330
2529
330
252A
330
252B
330
252C
330
252D
330
252E
330
252F
330
2530
330
2531
330
2532
330
2533
330
23D8
330
23D9
330
23DA
330
23DB
330
23DC
330
23DD
330
23DE
330
23DF
330
23E0
330
23E1
330
23E2
330
23E3
330
23E4
330
23E5
330
23E6
330
23E7
330
23EC
330
23ED
330
23EE
330
23EF
330
23F0
330
23F1
330
23F2
330
23F3
330
23F8
330
23F9
330
23FA
330
23FB
330
23FC
330
23FD
330
23FE
330
23FF
330
2400
330
2401
330
2402
330
2403
330
2404
330
2405
330
2406
330
2407
330
2408
330
2409
330
240A
330
240B
330
240C
330
240D
330
240E
330
240F
330
2410
330
2411
330
2412
330
2413
330
2414
330
2415
330
2416
330
2417
330
2418
330
2419
330
241A
330
241B
330
241C
330
241D
330
241E
330
241F
330
2420
330
2421
330
2422
330
2423
330
2424
330
2425
330
2426
330
2427
330
2428
330
2429
330
242A
330
242B
330
242C
330
242D
330
242E
330
242F
330
2430
330
2431
330
2432
330
2433
330
2434
330
2435
330
2436
330
2437
330
2438
330
2439
330
243A
330
243B
330
243C
330
243D
330
243E
330
243F
330
2440
330
2441
330
2442
330
2443
330
2444
330
2445
330
2446
330
2447
330
2448
330
2449
330
244A
330
244B
330
244C
330
244D
330
244E
330
244F
330
2450
330
2451
330
2452
330
2453
330
2454
330
2455
330
2456
330
2457
330
245A
330
245B
330
245C
330
245D
330
245E
330
245F
330
2460
330
2461
330
2462
330
2463
330
2464
330
2465
330
2466
330
2467
330
2468
330
2469
330
246A
330
246B
330
246C
330
246D
330
246E
330
246F
330
2470
330
2471
330
2472
330
2473
330
2474
330
2475
330
2476
330
2477
330
2478
330
2479
330
247A
330
247B
330
247C
330
247D
330
247E
330
247F
330
2480
330
2481
330
2482
330
2483
330
2484
330
2485
330
2486
330
2487
330
2488
330
2489
330
248A
330
248B
330
248C
330
248D
330
248E
330
248F
330
2490
330
2491
330
2492
330
2493
330
2494
330
2495
330
2496
330
2497
330
2498
330
2499
330
249A
330
249B
330
249C
330
249D
330
249E
330
249F
330
24A0
330
24A1
330
24A2
330
24A3
330
24A4
330
24A7
330
24A8
330
24A9
330
24AA
330
24AB
330
24AC
330
24AD
330
24AE
330
24AF
330
24B0
330
24B1
330
24B2
330
24B3
330
24B4
330
24B5
330
24B6
330
24B7
330
24B8
330
24B9
330
24BA
330
24BB
330
24BC
330
24BD
330
24BE
330
24BF
330
24C0
330
24C1
330
24C2
330
24C3
330
24C4
330
24C5
330
24C6
330
24C7
330
24C8
330
24C9
330
24CA
330
24CB
330
24CC
330
24CD
330
24CE
330
24CF
330
24D0
330
24D1
330
24D2
330
24D3
  0
IDBUFFER
  5
2CB2
330
0
100
AcDbIdBuffer
330
232A
330
232B
330
2354
330
2355
330
2356
330
2357
330
2358
330
2359
330
2383
330
2384
330
2385
330
2386
330
2387
330
2388
330
23BB
330
23BC
  0
IDBUFFER
  5
2CB3
330
0
100
AcDbIdBuffer
330
273F
330
277C
330
27D3
330
281D
330
2898
  0
IDBUFFER
  5
2CB4
330
0
100
AcDbIdBuffer
330
2AF0
330
2AF1
330
2AF2
330
2AF3
330
2AF4
330
2AF5
330
2AF6
330
2AF7
330
2AF8
330
2AF9
330
2AFA
330
2AFB
330
2AFC
330
2AFD
330
2AFE
330
2AFF
330
2B00
330
2B01
330
2B02
330
2B03
330
2B04
330
2B05
330
2B06
330
2B07
330
2B08
330
2B09
330
2B0A
330
2B0B
330
2B0C
330
2B22
330
2B23
330
2B34
330
2B35
330
2B36
330
2B37
330
2B38
330
2B39
330
2B3A
330
2B3B
330
2B3C
330
2B3D
330
2B3E
330
2B3F
330
2AAB
330
2AAC
330
2AAD
330
2AAE
330
2AAF
330
2AB0
330
2AB1
330
2AB2
330
2AB3
330
2AB4
330
2AB5
330
2AB6
330
2AB7
330
2AB8
330
2AB9
330
2ABA
330
2ABB
330
2ABC
330
2ABD
330
2ABE
330
2ABF
330
2AC0
330
2AC1
330
2AC2
330
2AC3
330
2AC4
330
2AC8
330
2ACC
330
2ACD
330
2AD1
330
2AD2
330
2AD3
330
2AD4
330
2AD5
330
2AD6
330
2AD7
330
2AD8
330
2ADC
330
2AE0
330
2AE4
330
2AE5
330
2AE6
330
2AEA
330
2AEB
330
2AEC
330
2AED
330
2AEE
330
2AEF
  0
IDBUFFER
  5
2CB5
330
0
100
AcDbIdBuffer
330
23D1
330
23D2
330
23D3
330
23D7
330
23BD
330
23BE
330
23BF
330
23C0
330
23C1
330
23C2
330
23C4
330
23C5
330
23C6
330
23C7
330
23C9
330
23CA
330
23CB
330
23CC
330
23CD
330
23D0
  0
XRECORD
  5
2CBC
102
{ACAD_REACTORS
330
2CBB
102
}
330
2CBB
100
AcDbXrecord
280
     1
102
SHADEPLOT
 70
     0
102
SHADEPLOTRESLEVEL
 70
     2
102
SHADEPLOTCUSTOMDPI
 70
   300
  0
XRECORD
  5
2CBA
102
{ACAD_REACTORS
330
2CB9
102
}
330
2CB9
100
AcDbXrecord
280
     1
102
SHADEPLOT
 70
     0
102
SHADEPLOTRESLEVEL
 70
     2
102
SHADEPLOTCUSTOMDPI
 70
   300
  0
XRECORD
  5
2CBE
102
{ACAD_REACTORS
330
2CBD
102
}
330
2CBD
100
AcDbXrecord
280
     1
102
SHADEPLOT
 70
     0
102
SHADEPLOTRESLEVEL
 70
     2
102
SHADEPLOTCUSTOMDPI
 70
   300
  0
ENDSEC
  0
EOF
