  0
SECTION
  2
HEADER
  9
$ACADVER
  1
AC1012
  9
$DWGCODEPAGE
  3
big5
  9
$INSBASE
 10
0.0
 20
0.0
 30
0.0
  9
$EXTMIN
 10
203.1022844169534
 20
100.5162219615989
 30
0.0
  9
$EXTMAX
 10
408.9614401780433
 20
348.680685869078
 30
0.0
  9
$LIMMIN
 10
0.0
 20
0.0
  9
$LIMMAX
 10
420.0
 20
297.0
  9
$ORTHOMODE
 70
     0
  9
$REGENMODE
 70
     1
  9
$FILLMODE
 70
     1
  9
$QTEXTMODE
 70
     0
  9
$MIRRTEXT
 70
     1
  9
$DRAGMODE
 70
     2
  9
$LTSCALE
 40
1.0
  9
$OSMODE
 70
    37
  9
$ATTMODE
 70
     1
  9
$TEXTSIZE
 40
3.0
  9
$TRACEWID
 40
1.0
  9
$TEXTSTYLE
  7
STANDARD
  9
$CLAYER
  8
0
  9
$CELTYPE
  6
BYLAYER
  9
$CECOLOR
 62
   256
  9
$CELTSCALE
 40
1.0
  9
$DELOBJ
 70
     1
  9
$DISPSILH
 70
     0
  9
$DIMSCALE
 40
1.0
  9
$DIMASZ
 40
3.0
  9
$DIMEXO
 40
1.5
  9
$DIMDLI
 40
7.0
  9
$DIMRND
 40
0.0
  9
$DIMDLE
 40
0.0
  9
$DIMEXE
 40
2.0
  9
$DIMTP
 40
0.1
  9
$DIMTM
 40
0.1
  9
$DIMTXT
 40
3.0
  9
$DIMCEN
 40
3.0
  9
$DIMTSZ
 40
0.0
  9
$DIMTOL
 70
     0
  9
$DIMLIM
 70
     0
  9
$DIMTIH
 70
     0
  9
$DIMTOH
 70
     0
  9
$DIMSE1
 70
     0
  9
$DIMSE2
 70
     0
  9
$DIMTAD
 70
     1
  9
$DIMZIN
 70
     8
  9
$DIMBLK
  1

  9
$DIMASO
 70
     1
  9
$DIMSHO
 70
     1
  9
$DIMPOST
  1

  9
$DIMAPOST
  1
"
  9
$DIMALT
 70
     0
  9
$DIMALTD
 70
     2
  9
$DIMALTF
 40
0.0393701
  9
$DIMLFAC
 40
1.0
  9
$DIMTOFL
 70
     1
  9
$DIMTVP
 40
0.0
  9
$DIMTIX
 70
     0
  9
$DIMSOXD
 70
     0
  9
$DIMSAH
 70
     0
  9
$DIMBLK1
  1

  9
$DIMBLK2
  1

  9
$DIMSTYLE
  2
AM_ISO
  9
$DIMCLRD
 70
   256
  9
$DIMCLRE
 70
   256
  9
$DIMCLRT
 70
   256
  9
$DIMTFAC
 40
0.71
  9
$DIMGAP
 40
0.8
  9
$DIMJUST
 70
     0
  9
$DIMSD1
 70
     0
  9
$DIMSD2
 70
     0
  9
$DIMTOLJ
 70
     0
  9
$DIMTZIN
 70
     8
  9
$DIMALTZ
 70
     0
  9
$DIMALTTZ
 70
     0
  9
$DIMFIT
 70
     3
  9
$DIMUPT
 70
     0
  9
$DIMUNIT
 70
     2
  9
$DIMDEC
 70
     2
  9
$DIMTDEC
 70
     2
  9
$DIMALTU
 70
     2
  9
$DIMALTTD
 70
     2
  9
$DIMTXSTY
  7
STANDARD
  9
$DIMAUNIT
 70
     0
  9
$LUNITS
 70
     2
  9
$LUPREC
 70
     2
  9
$SKETCHINC
 40
1.0
  9
$FILLETRAD
 40
0.5
  9
$AUNITS
 70
     0
  9
$AUPREC
 70
     0
  9
$MENU
  1
.
  9
$ELEVATION
 40
0.0
  9
$PELEVATION
 40
0.0
  9
$THICKNESS
 40
0.0
  9
$LIMCHECK
 70
     0
  9
$BLIPMODE
 70
     0
  9
$CHAMFERA
 40
2.5
  9
$CHAMFERB
 40
2.5
  9
$CHAMFERC
 40
20.0
  9
$CHAMFERD
 40
0.0
  9
$SKPOLY
 70
     0
  9
$TDCREATE
 40
2453020.658411643
  9
$TDUPDATE
 40
2453057.493142176
  9
$TDINDWG
 40
0.0026522569
  9
$TDUSRTIMER
 40
0.0026521412
  9
$USRTIMER
 70
     1
  9
$ANGBASE
 50
0.0
  9
$ANGDIR
 70
     0
  9
$PDMODE
 70
     0
  9
$PDSIZE
 40
0.0
  9
$PLINEWID
 40
0.0
  9
$COORDS
 70
     1
  9
$SPLFRAME
 70
     0
  9
$SPLINETYPE
 70
     6
  9
$SPLINESEGS
 70
     8
  9
$ATTDIA
 70
     1
  9
$ATTREQ
 70
     1
  9
$HANDLING
 70
 22529
  9
$HANDSEED
  5
1648
  9
$SURFTAB1
 70
     6
  9
$SURFTAB2
 70
     6
  9
$SURFTYPE
 70
     6
  9
$SURFU
 70
     6
  9
$SURFV
 70
     6
  9
$UCSNAME
  2

  9
$UCSORG
 10
0.0
 20
0.0
 30
0.0
  9
$UCSXDIR
 10
1.0
 20
0.0
 30
0.0
  9
$UCSYDIR
 10
0.0
 20
1.0
 30
0.0
  9
$PUCSNAME
  2

  9
$PUCSORG
 10
0.0
 20
0.0
 30
0.0
  9
$PUCSXDIR
 10
1.0
 20
0.0
 30
0.0
  9
$PUCSYDIR
 10
0.0
 20
1.0
 30
0.0
  9
$USERI1
 70
     0
  9
$USERI2
 70
     0
  9
$USERI3
 70
     0
  9
$USERI4
 70
     0
  9
$USERI5
 70
     0
  9
$USERR1
 40
0.0
  9
$USERR2
 40
0.0
  9
$USERR3
 40
0.0
  9
$USERR4
 40
0.0
  9
$USERR5
 40
0.0
  9
$WORLDVIEW
 70
     1
  9
$SHADEDGE
 70
     3
  9
$SHADEDIF
 70
    70
  9
$TILEMODE
 70
     1
  9
$MAXACTVP
 70
    64
  9
$PINSBASE
 10
0.0
 20
0.0
 30
0.0
  9
$PLIMCHECK
 70
     0
  9
$PEXTMIN
 10
1.000000000000000E+20
 20
1.000000000000000E+20
 30
1.000000000000000E+20
  9
$PEXTMAX
 10
-1.000000000000000E+20
 20
-1.000000000000000E+20
 30
-1.000000000000000E+20
  9
$PLIMMIN
 10
0.0
 20
0.0
  9
$PLIMMAX
 10
420.0
 20
297.0
  9
$UNITMODE
 70
     0
  9
$VISRETAIN
 70
     1
  9
$PLINEGEN
 70
     0
  9
$PSLTSCALE
 70
     1
  9
$TREEDEPTH
 70
  3020
  9
$PICKSTYLE
 70
     1
  9
$CMLSTYLE
  2
STANDARD
  9
$CMLJUST
 70
     0
  9
$CMLSCALE
 40
20.0
  9
$SAVEIMAGES
 70
     1
  0
ENDSEC
  0
SECTION
  2
CLASSES
  0
CLASS
  1
ACDBDICTIONARYWDFLT
  2
AcDbDictionaryWithDefault
  3
AutoCAD 2000
 90
    32768
280
     0
281
     0
  0
CLASS
  1
ACDBPLACEHOLDER
  2
AcDbPlaceHolder
  3
AutoCAD 2000
 90
    32768
280
     0
281
     0
  0
CLASS
  1
LAYOUT
  2
AcDbLayout
  3
AutoCAD 2000
 90
    32768
280
     0
281
     0
  0
CLASS
  1
AMGSETTINGSOBJ
  2
AmgSettingsObj
  3
"AcadM|Product Description: AutoCAD Mechanical 2000|Company: Autodesk"
 90
    32768
280
     0
281
     0
  0
CLASS
  1
ACME_DOCUMENT
  2
AcMeDbDoc
  3
AcMeServices
 90
    32768
280
     0
281
     0
  0
CLASS
  1
ACMESCOPE
  2
AcMeScope
  3
AcMeServices
 90
    32768
280
     0
281
     0
  0
CLASS
  1
ACMECOMMANDHISTORY
  2
AcMeCommandHistory
  3
AcMeServices
 90
    32768
280
     0
281
     0
  0
CLASS
  1
ACIMSYSVARMAN
  2
AcImSysVarManager
  3
AcMeServices
 90
    32768
280
     0
281
     0
  0
CLASS
  1
ACIMREALSYSVAR
  2
AcImRealSysVar
  3
AcMeServices
 90
    32768
280
     0
281
     0
  0
CLASS
  1
ACIMINTSYSVAR
  2
AcImIntSysVar
  3
AcMeServices
 90
    32768
280
     0
281
     0
  0
CLASS
  1
ACMEDRAWINGMAN
  2
AcMeDrawingMan
  3
AcMeServices
 90
    32768
280
     0
281
     0
  0
CLASS
  1
ACMEVIEW
  2
AcMeView
  3
AcMeServices
 90
    32768
280
     0
281
     0
  0
CLASS
  1
ACDBENTITYCACHE
  2
AcMeEntityCache
  3
AcMeServices
 90
    32768
280
     0
281
     0
  0
CLASS
  1
GSMANAGER
  2
AcMeGSManager
  3
AcMeServices
 90
    32768
280
     0
281
     0
  0
CLASS
  1
AMDTINTERNALREACTOR
  2
AmdtInternalReactor
  3
AcMeServices
 90
    32768
280
     0
281
     0
  0
CLASS
  1
ACMESTATEMGR
  2
AcMeStateMgr
  3
AcMeServices
 90
    32768
280
     0
281
     0
  0
CLASS
  1
ACGREFMASTER
  2
AcGrefMaster
  3
AcAttribServices
 90
    32768
280
     0
281
     0
  0
CLASS
  1
ACME_DATABASE
  2
AcMeDbDatabase
  3
AcMeServices
 90
    32768
280
     0
281
     0
  0
CLASS
  1
ACRFINSADJUSTERMGR
  2
AcRfInsAdjusterMgr
  3
AcMeServices
 90
    32768
280
     0
281
     0
  0
CLASS
  1
ACGREFACADMASTER
  2
AcGrefacadMaster
  3
AcGrefServices
 90
    32768
280
     0
281
     0
  0
CLASS
  1
AMIMASTER
  2
AmiMaster
  3
AmiServices
 90
    32768
280
     0
281
     0
  0
CLASS
  1
ACMDATADICTIONARY
  2
AcmDataDictionary
  3
"AcmSymBB|Product Description: AutoCAD Mechanical 2000|Company: Autodesk"
 90
    32768
280
     0
281
     0
  0
CLASS
  1
ACMDATAENTRYBLOCK
  2
AcmDataEntryBlock
  3
"AcmSymBB|Product Description: AutoCAD Mechanical 2000|Company: Autodesk"
 90
    32768
280
     0
281
     0
  0
CLASS
  1
ACIMSTRSYSVAR
  2
AcImStrSysVar
  3
AcMeServices
 90
    32768
280
     0
281
     0
  0
CLASS
  1
ACMSTANDARDISO
  2
AcmStandardISO
  3
"Amdt_StdImp|Product Description: AutoCAD Mechanical 2000|Company: Autodesk"
 90
    32768
280
     0
281
     0
  0
CLASS
  1
AMGOBJPROPCFG
  2
AmgObjPropCfg
  3
"AmgLay|Product Description: AutoCAD Mechanical 2000|Company: Autodesk"
 90
    32769
280
     0
281
     0
  0
CLASS
  1
AMDTEDGESTANDARDISO
  2
AmdtEdgeStdISO
  3
"Amdt_StdImp|Product Description: AutoCAD Mechanical 2000|Company: Autodesk"
 90
    32768
280
     0
281
     0
  0
CLASS
  1
ACMSURFSTANDARDISO
  2
AcmSurfTextStdISO
  3
"Amdt_StdImp|Product Description: AutoCAD Mechanical 2000|Company: Autodesk"
 90
    32768
280
     0
281
     0
  0
CLASS
  1
ACMFCFSTANDARDISO
  2
AcmFCFStdISO
  3
"Amdt_StdImp|Product Description: AutoCAD Mechanical 2000|Company: Autodesk"
 90
    32768
280
     0
281
     0
  0
CLASS
  1
ACMWELDSTANDARDISO
  2
AcmWeldingStdISO
  3
"Amdt_StdImp|Product Description: AutoCAD Mechanical 2000|Company: Autodesk"
 90
    32768
280
     0
281
     0
  0
CLASS
  1
ACMIDSTANDARDISO
  2
AcmIdStdISO
  3
"Amdt_StdImp|Product Description: AutoCAD Mechanical 2000|Company: Autodesk"
 90
    32768
280
     0
281
     0
  0
CLASS
  1
ACMDATUMSTANDARDISO
  2
AcmDatumStdISO
  3
"Amdt_StdImp|Product Description: AutoCAD Mechanical 2000|Company: Autodesk"
 90
    32768
280
     0
281
     0
  0
CLASS
  1
ACMBOMSTANDARDISO
  2
AcmBOMStdISO
  3
"Amdt_StdImp|Product Description: AutoCAD Mechanical 2000|Company: Autodesk"
 90
    32768
280
     0
281
     0
  0
CLASS
  1
ACMDETAILSTANDARDISO
  2
AmdtDetailSymStdISO
  3
"Amdt_StdImp|Product Description: AutoCAD Mechanical 2000|Company: Autodesk"
 90
    32768
280
     0
281
     0
  0
CLASS
  1
ACMSECTIONSTANDARDISO
  2
AmdtSectionSymStdISO
  3
"Amdt_StdImp|Product Description: AutoCAD Mechanical 2000|Company: Autodesk"
 90
    32768
280
     0
281
     0
  0
CLASS
  1
ACMCENTERLINESTANDARDISO
  2
AmdtCenterLineStdISO
  3
"Amdt_StdImp|Product Description: AutoCAD Mechanical 2000|Company: Autodesk"
 90
    32768
280
     0
281
     0
  0
CLASS
  1
ACMNOTESTANDARDISO
  2
AmdtNoteStdISO
  3
"Amdt_StdImp|Product Description: AutoCAD Mechanical 2000|Company: Autodesk"
 90
    32768
280
     0
281
     0
  0
CLASS
  1
ACAMGLAYSTD
  2
AcAmgLayStd
  3
"AcAmgLayStd|Product Description: AutoCAD Mechanical 2000|Company: Autodesk"
 90
    32768
280
     0
281
     0
  0
CLASS
  1
ACAMGDIMSTD
  2
AcAmgDimStd
  3
"AcAmgDimStd|Product Description: AutoCAD Mechanical 2000|Company: Autodesk"
 90
    32768
280
     0
281
     0
  0
CLASS
  1
ACAMGHOLECHARTSTDISO
  2
AcAmgHoleChartStdISO
  3
ACMSYMBB_MODULE_NAME
 90
    32768
280
     0
281
     0
  0
CLASS
  1
ACAMGTITLESTD
  2
AcAmgTitleStd
  3
"TITLEAPP"
 90
    32768
280
     0
281
     0
  0
CLASS
  1
ACAMGFILTERDAT
  2
AcAmgFilterDat
  3
"AcadM|Product Description: AutoCAD Mechanical 2000|Company: Autodesk"
 90
    32768
280
     0
281
     0
  0
CLASS
  1
DIMASSOC
  2
AcDbDimAssoc
  3
"AcDbDimAssoc|Product Desc:     AcDim ARX App For Dimension|Company:          Autodesk, Inc.|WEB Address:      www.autodesk.com"
 90
    32768
280
     0
281
     0
  0
CLASS
  1
LAYER_INDEX
  2
AcDbLayerIndex
  3
AutoCAD 2000
 90
    32768
280
     0
281
     0
  0
CLASS
  1
IDBUFFER
  2
AcDbIdBuffer
  3
AutoCAD 2000
 90
    32768
280
     0
281
     0
  0
CLASS
  1
DICTIONARYVAR
  2
AcDbDictionaryVar
  3
AutoCAD 2000
 90
    32768
280
     0
281
     0
  0
CLASS
  1
AMDTFORMULAUPDATEDISPATCHER
  2
AmdtFormulaUpdateDispatcher
  3
AcMeServices
 90
    32768
280
     0
281
     0
  0
CLASS
  1
AMDTNOTE
  2
AmdtNote
  3
"AcmSymBB|Product Description: AutoCAD Mechanical 2000|Company: Autodesk"
 90
    33791
280
     0
281
     1
  0
CLASS
  1
LONG_TRANSACTION
  2
AcDbLongTransaction
  3
AutoCAD 2000
 90
    32768
280
     0
281
     0
  0
CLASS
  1
LWPOLYLINE
  2
AcDbPolyline
  3
AutoCAD 2000
 90
    32768
280
     0
281
     1
  0
CLASS
  1
HATCH
  2
AcDbHatch
  3
AutoCAD 2000
 90
    32768
280
     0
281
     1
  0
CLASS
  1
XRECORD
  2
AcDbXrecord
  3
AutoCAD 2000
 90
    32768
280
     0
281
     0
  0
ENDSEC
  0
SECTION
  2
TABLES
  0
TABLE
  2
VPORT
  5
8
330
0
100
AcDbSymbolTable
 70
     4
  0
VPORT
  5
1602
330
8
100
AcDbSymbolTableRecord
100
AcDbViewportTableRecord
  2
*ACTIVE
 70
     0
 10
0.0
 20
0.0
 11
1.0
 21
1.0
 12
313.3333322027751
 22
224.5966306938066
 13
0.0
 23
0.0
 14
2.5
 24
2.5
 15
10.0
 25
10.0
 16
0.0
 26
0.0
 36
1.0
 17
0.0
 27
0.0
 37
0.0
 40
250.8319499475168
 41
1.775280898876404
 42
50.0
 43
0.0
 44
0.0
 50
0.0
 51
0.0
 71
     0
 72
   100
 73
     1
 74
     3
 75
     0
 76
     0
 77
     0
 78
     0
  0
ENDTAB
  0
TABLE
  2
LTYPE
  5
5
330
0
100
AcDbSymbolTable
 70
    13
  0
LTYPE
  5
14
330
5
100
AcDbSymbolTableRecord
100
AcDbLinetypeTableRecord
  2
BYBLOCK
 70
     0
  3

 72
    65
 73
     0
 40
0.0
  0
LTYPE
  5
15
330
5
100
AcDbSymbolTableRecord
100
AcDbLinetypeTableRecord
  2
BYLAYER
 70
     0
  3

 72
    65
 73
     0
 40
0.0
  0
LTYPE
  5
16
330
5
100
AcDbSymbolTableRecord
100
AcDbLinetypeTableRecord
  2
CONTINUOUS
 70
     0
  3
Solid line
 72
    65
 73
     0
 40
0.0
  0
LTYPE
  5
4D
330
5
100
AcDbSymbolTableRecord
100
AcDbLinetypeTableRecord
  2
AM_ISO02W050
 70
     0
  3
__ __ __ __ __ __ __ __ __ __ __ __ __ __ __
 72
    65
 73
     2
 40
7.5
 49
6.0
 74
     0
 49
-1.5
 74
     0
  0
LTYPE
  5
4E
330
5
100
AcDbSymbolTableRecord
100
AcDbLinetypeTableRecord
  2
AM_ISO08W050
 70
     0
  3
____ . ____ . ____ . ____ . ____ . ____ . ____
 72
    65
 73
     4
 40
18.0
 49
12.0
 74
     0
 49
-1.5
 74
     0
 49
3.0
 74
     0
 49
-1.5
 74
     0
  0
LTYPE
  5
4F
330
5
100
AcDbSymbolTableRecord
100
AcDbLinetypeTableRecord
  2
AM_ISO09W050
 70
     0
  3
_____ . . _____ . . _____ . . ____ .. ____
 72
    65
 73
     6
 40
22.5
 49
12.0
 74
     0
 49
-1.5
 74
     0
 49
3.0
 74
     0
 49
-1.5
 74
     0
 49
3.0
 74
     0
 49
-1.5
 74
     0
  0
LTYPE
  5
50
330
5
100
AcDbSymbolTableRecord
100
AcDbLinetypeTableRecord
  2
AMCONSTR
 70
     0
  3
_______________________
 72
    65
 73
     2
 40
9999.0
 49
9999.0
 74
     0
 49
0.0
 74
     0
  0
LTYPE
  5
51
330
5
100
AcDbSymbolTableRecord
100
AcDbLinetypeTableRecord
  2
AM_ISO08W050X2
 70
     0
  3
__ . __ . __ . __ . __ . __
 72
    65
 73
     4
 40
9.0
 49
6.0
 74
     0
 49
-0.75
 74
     0
 49
1.5
 74
     0
 49
-0.75
 74
     0
  0
LTYPE
  5
52
330
5
100
AcDbSymbolTableRecord
100
AcDbLinetypeTableRecord
  2
AM_ISO02W050X2
 70
     0
  3
 _ _ _ _ _ _ _ _ _ _ _ _
 72
    65
 73
     2
 40
3.75
 49
3.0
 74
     0
 49
-0.75
 74
     0
  0
LTYPE
  5
55
330
5
100
AcDbSymbolTableRecord
100
AcDbLinetypeTableRecord
  2
AMZIGZAG
 70
     0
  3
/\/-/\/-/\/-/\/-/\/-/\/
 72
    65
 73
     2
 40
11.00009999999999
 49
0.0001
 74
     4
 75
   135
340
54
 46
0.04
 50
0.0
 44
0.0
 45
0.0
 49
-11.0
 74
     0
  0
LTYPE
  5
63
330
5
100
AcDbSymbolTableRecord
100
AcDbLinetypeTableRecord
  2
ACISOWELD
 70
     0
  3
_ _ _ _ _
 72
    65
 73
     2
 40
2.0
 49
2.0
 74
     0
 49
-1.0
 74
     0
  0
LTYPE
  5
64
330
5
100
AcDbSymbolTableRecord
100
AcDbLinetypeTableRecord
  2
ACISOTGB
 70
     0
  3
__ . . __ . .
 72
    65
 73
     6
 40
9.0
 49
4.0
 74
     0
 49
-1.0
 74
     0
 49
1.0
 74
     0
 49
-1.0
 74
     0
 49
1.0
 74
     0
 49
-1.0
 74
     0
  0
LTYPE
  5
65
330
5
100
AcDbSymbolTableRecord
100
AcDbLinetypeTableRecord
  2
ACISOTGL
 70
     0
  3
_ _ _ _ _
 72
    65
 73
     2
 40
3.0
 49
2.0
 74
     0
 49
-1.0
 74
     0
  0
LTYPE
  5
68
330
5
100
AcDbSymbolTableRecord
100
AcDbLinetypeTableRecord
  2
CENTER
 70
     0
  3
__ . __
 72
    65
 73
     4
 40
7.0
 49
4.0
 74
     0
 49
-1.0
 74
     0
 49
1.0
 74
     0
 49
-1.0
 74
     0
  0
LTYPE
  5
E16
330
5
100
AcDbSymbolTableRecord
100
AcDbLinetypeTableRecord
  2
HIDDEN2
 70
     0
  3
Hidden (.5x) _ _ _ _ _ _ _ _ _ _ _ _ _ _ _ _ _
 72
    65
 73
     2
 40
0.1875
 49
0.125
 74
     0
 49
-0.0625
 74
     0
  0
ENDTAB
  0
TABLE
  2
LAYER
  5
2
330
0
100
AcDbSymbolTable
 70
     8
  0
LAYER
  5
10
330
2
100
AcDbSymbolTableRecord
100
AcDbLayerTableRecord
  2
0
 70
     0
 62
     7
  6
CONTINUOUS
  0
LAYER
  5
87
330
2
100
AcDbSymbolTableRecord
100
AcDbLayerTableRecord
  2
AM_5
 70
     0
 62
     5
  6
CONTINUOUS
  0
LAYER
  5
97
330
2
100
AcDbSymbolTableRecord
100
AcDbLayerTableRecord
  2
DEFPOINTS
 70
     0
 62
     7
  6
CONTINUOUS
  0
LAYER
  5
14A
330
2
100
AcDbSymbolTableRecord
100
AcDbLayerTableRecord
  2
AM_7
 70
     0
 62
     1
  6
AM_ISO08W050
  0
LAYER
  5
494
330
2
100
AcDbSymbolTableRecord
100
AcDbLayerTableRecord
  2
AM_VIS
 70
     2
 62
     7
  6
CONTINUOUS
  0
LAYER
  5
E17
330
2
100
AcDbSymbolTableRecord
100
AcDbLayerTableRecord
  2
圖層4
 70
     0
 62
     7
  6
CONTINUOUS
  0
LAYER
  5
E18
330
2
100
AcDbSymbolTableRecord
100
AcDbLayerTableRecord
  2
AM_4
 70
     0
 62
     3
  6
CONTINUOUS
  0
LAYER
  5
E19
330
2
100
AcDbSymbolTableRecord
100
AcDbLayerTableRecord
  2
LOGO
 70
     0
 62
     7
  6
CONTINUOUS
  0
ENDTAB
  0
TABLE
  2
STYLE
  5
3
330
0
100
AcDbSymbolTable
 70
     6
  0
STYLE
  5
11
330
3
100
AcDbSymbolTableRecord
100
AcDbTextStyleTableRecord
  2
STANDARD
 70
     0
 40
0.0
 41
1.0
 50
0.0
 71
     0
 42
3.0
  3
ISOCP.SHX
  4
CHINESET.SHX
  0
STYLE
  5
54
330
3
100
AcDbSymbolTableRecord
100
AcDbTextStyleTableRecord
  2

 70
     1
 40
0.0
 41
1.0
 50
0.0
 71
     0
 42
2.5
  3
ltypeshp.shx
  4

  0
STYLE
  5
56
330
3
100
AcDbSymbolTableRecord
100
AcDbTextStyleTableRecord
  2
ACISOTS
 70
     0
 40
1.0
 41
1.0
 50
0.0
 71
     0
 42
2.5
  3
isocp.shx
  4
chineset.shx
  0
STYLE
  5
62
330
3
100
AcDbSymbolTableRecord
100
AcDbTextStyleTableRecord
  2
ACISOGDT
 70
     0
 40
0.0
 41
1.0
 50
0.0
 71
     0
 42
2.5
  3
amgdt.shx
  4

  0
STYLE
  5
499
330
3
100
AcDbSymbolTableRecord
100
AcDbTextStyleTableRecord
  2
CHINESET
 70
     0
 40
0.0
 41
1.0
 50
0.0
 71
     0
 42
2.5
  3
simplex.shx
  4
CHINESET.shx
  0
STYLE
  5
E1B
330
3
100
AcDbSymbolTableRecord
100
AcDbTextStyleTableRecord
  2
LOGO
 70
     0
 40
0.0
 41
1.0
 50
0.0
 71
     0
 42
5.0
  3
LEI00DP.TTF
  4

1001
ACAD
1000
文鼎中粗隸
1071
    34865
  0
ENDTAB
  0
TABLE
  2
VIEW
  5
6
330
0
100
AcDbSymbolTable
 70
     0
  0
ENDTAB
  0
TABLE
  2
UCS
  5
7
330
0
100
AcDbSymbolTable
 70
     0
  0
ENDTAB
  0
TABLE
  2
APPID
  5
9
330
0
100
AcDbSymbolTable
 70
    11
  0
APPID
  5
12
330
9
100
AcDbSymbolTableRecord
100
AcDbRegAppTableRecord
  2
ACAD
 70
     0
  0
APPID
  5
30
330
9
100
AcDbSymbolTableRecord
100
AcDbRegAppTableRecord
  2
MCAD_NO_VIS
 70
     0
  0
APPID
  5
31
330
9
100
AcDbSymbolTableRecord
100
AcDbRegAppTableRecord
  2
ACAD_TEMP_GRAPHIC
 70
     0
  0
APPID
  5
42
330
9
100
AcDbSymbolTableRecord
100
AcDbRegAppTableRecord
  2
ACATTRIBSERVICES
 70
     0
  0
APPID
  5
E0
330
9
100
AcDbSymbolTableRecord
100
AcDbRegAppTableRecord
  2
GENIUS_GENDTOL_13
 70
     0
  0
APPID
  5
150
330
9
100
AcDbSymbolTableRecord
100
AcDbRegAppTableRecord
  2
GENIUS_GENODEF_13
 70
     0
  0
APPID
  5
151
330
9
100
AcDbSymbolTableRecord
100
AcDbRegAppTableRecord
  2
GENIUS_GENOBJ-N-CRS_13
 70
     0
  0
APPID
  5
152
330
9
100
AcDbSymbolTableRecord
100
AcDbRegAppTableRecord
  2
GENIUS_GENOENT_13
 70
     0
  0
APPID
  5
153
330
9
100
AcDbSymbolTableRecord
100
AcDbRegAppTableRecord
  2
GENIUS_GENOLIS_13
 70
     0
  0
APPID
  5
154
330
9
100
AcDbSymbolTableRecord
100
AcDbRegAppTableRecord
  2
GENIUS_GENOREF_13
 70
     0
  0
APPID
  5
6B1
330
9
100
AcDbSymbolTableRecord
100
AcDbRegAppTableRecord
  2
GENIUS_GENDIMSH_14
 70
     0
  0
ENDTAB
  0
TABLE
  2
DIMSTYLE
  5
A
330
0
100
AcDbSymbolTable
 70
     8
  0
DIMSTYLE
105
6B
330
A
100
AcDbSymbolTableRecord
100
AcDbDimStyleTableRecord
  2
AM_ISO
 70
     0
  3

  4
"
  5

  6

  7

 40
1.0
 41
3.0
 42
1.5
 43
7.0
 44
2.0
 45
0.0
 46
0.0
 47
0.1
 48
0.1
140
3.0
141
3.0
142
0.0
143
0.0393701
144
1.0
145
0.0
146
0.71
147
0.8
 71
     0
 72
     0
 73
     0
 74
     0
 75
     0
 76
     0
 77
     1
 78
     8
170
     0
171
     2
172
     1
173
     0
174
     0
175
     0
176
   256
177
   256
178
   256
270
     2
271
     2
272
     2
273
     2
274
     2
340
11
275
     0
280
     0
281
     0
282
     0
283
     0
284
     8
285
     0
286
     0
287
     3
288
     0
  0
DIMSTYLE
105
6C
330
A
100
AcDbSymbolTableRecord
100
AcDbDimStyleTableRecord
  2
AM_ISO$3
 70
     0
  3

  4
"
  5

  6

  7

 40
1.0
 41
3.0
 42
1.5
 43
7.0
 44
2.0
 45
0.0
 46
0.0
 47
0.1
 48
0.1
140
3.0
141
3.0
142
0.0
143
0.0393701
144
1.0
145
0.0
146
0.71
147
0.8
 71
     0
 72
     0
 73
     0
 74
     1
 75
     0
 76
     0
 77
     1
 78
     8
170
     0
171
     2
172
     0
173
     0
174
     0
175
     0
176
   256
177
   256
178
   256
270
     2
271
     2
272
     2
273
     2
274
     2
340
11
275
     0
280
     0
281
     0
282
     0
283
     0
284
     8
285
     0
286
     0
287
     0
288
     1
  0
DIMSTYLE
105
6D
330
A
100
AcDbSymbolTableRecord
100
AcDbDimStyleTableRecord
  2
AM_ISO$4
 70
     0
  3

  4
"
  5

  6

  7

 40
1.0
 41
3.0
 42
1.5
 43
7.0
 44
2.0
 45
0.0
 46
0.0
 47
0.1
 48
0.1
140
3.0
141
3.0
142
0.0
143
0.0393701
144
1.0
145
0.0
146
0.71
147
0.8
 71
     0
 72
     0
 73
     0
 74
     1
 75
     0
 76
     0
 77
     1
 78
     8
170
     0
171
     2
172
     0
173
     0
174
     0
175
     0
176
   256
177
   256
178
   256
270
     2
271
     2
272
     2
273
     2
274
     2
340
11
275
     0
280
     0
281
     0
282
     0
283
     0
284
     8
285
     0
286
     0
287
     0
288
     1
  0
DIMSTYLE
105
6E
330
A
100
AcDbSymbolTableRecord
100
AcDbDimStyleTableRecord
  2
AM_ISO$6
 70
     0
  3

  4
"
  5

  6

  7

 40
1.0
 41
3.0
 42
1.5
 43
7.0
 44
2.0
 45
0.0
 46
0.0
 47
0.1
 48
0.1
140
3.0
141
3.0
142
0.0
143
0.0393701
144
1.0
145
0.0
146
0.71
147
0.8
 71
     0
 72
     0
 73
     0
 74
     0
 75
     0
 76
     0
 77
     0
 78
     8
170
     0
171
     2
172
     1
173
     0
174
     0
175
     0
176
   256
177
   256
178
   256
270
     2
271
     2
272
     2
273
     2
274
     2
340
11
275
     0
280
     0
281
     0
282
     0
283
     0
284
     8
285
     0
286
     0
287
     3
288
     0
  0
DIMSTYLE
105
6F
330
A
100
AcDbSymbolTableRecord
100
AcDbDimStyleTableRecord
  2
AM_ISO$7
 70
     0
  3

  4
"
  5

  6

  7

 40
1.0
 41
3.0
 42
1.5
 43
7.0
 44
2.0
 45
0.0
 46
0.0
 47
0.1
 48
0.1
140
5.0
141
3.0
142
0.0
143
0.0393701
144
1.0
145
0.0
146
0.71
147
0.8
 71
     0
 72
     0
 73
     0
 74
     0
 75
     0
 76
     0
 77
     1
 78
     8
170
     0
171
     2
172
     1
173
     0
174
     0
175
     0
176
   256
177
   256
178
   256
270
     2
271
     2
272
     2
273
     2
274
     2
340
11
275
     0
280
     0
281
     0
282
     0
283
     0
284
     8
285
     0
286
     0
287
     3
288
     0
  0
DIMSTYLE
105
70
330
A
100
AcDbSymbolTableRecord
100
AcDbDimStyleTableRecord
  2
AM_ISO$SF
 70
     0
  3

  4
"
  5

  6

  7

 40
1.0
 41
2.5
 42
1.0
 43
10.0
 44
1.0
 45
0.0
 46
0.0
 47
0.1
 48
0.1
140
3.5
141
0.0
142
0.0
143
0.0393701
144
1.0
145
0.0
146
0.71
147
1.5
 71
     0
 72
     0
 73
     0
 74
     0
 75
     1
 76
     1
 77
     1
 78
     8
170
     0
171
     2
172
     1
173
     0
174
     0
175
     0
176
   256
177
   256
178
     2
270
     2
271
     2
272
     3
273
     2
274
     4
340
11
275
     0
280
     0
281
     0
282
     0
283
     0
284
     8
285
     0
286
     0
287
     3
288
     0
  0
DIMSTYLE
105
75
330
A
100
AcDbSymbolTableRecord
100
AcDbDimStyleTableRecord
  2
AM_ISO$SH
 70
     0
  3

  4
"
  5

  6
GENAXEH
  7

 40
1.0
 41
2.5
 42
1.0
 43
10.0
 44
1.0
 45
0.0
 46
0.0
 47
0.1
 48
0.1
140
3.5
141
0.0
142
0.0
143
0.0393701
144
2.0
145
0.0
146
0.71
147
1.5
 71
     0
 72
     0
 73
     0
 74
     0
 75
     1
 76
     1
 77
     1
 78
     8
170
     0
171
     2
172
     1
173
     1
174
     0
175
     0
176
   256
177
   256
178
     2
270
     2
271
     2
272
     3
273
     2
274
     4
340
11
275
     0
280
     0
281
     0
282
     0
283
     0
284
     8
285
     0
286
     0
287
     3
288
     0
  0
DIMSTYLE
105
E1D
102
{ACAD_REACTORS
330
124F
330
1250
330
1251
330
1252
330
1253
330
1254
330
1255
330
1256
330
1257
330
1258
330
1259
330
125A
330
125B
330
125C
330
125D
330
125E
330
125F
330
1260
330
1264
102
}
330
A
100
AcDbSymbolTableRecord
100
AcDbDimStyleTableRecord
  2
STANDARD
 70
     0
  3

  4

  5

  6

  7

 40
1.0
 41
3.0
 42
1.5
 43
8.0
 44
1.0
 45
0.0
 46
0.0
 47
0.01
 48
0.01
140
3.5
141
3.0
142
0.0
143
25.4
144
1.0
145
0.0
146
0.6
147
0.8
 71
     0
 72
     0
 73
     0
 74
     0
 75
     0
 76
     0
 77
     1
 78
     8
170
     0
171
     2
172
     1
173
     0
174
     0
175
     0
176
   256
177
   256
178
   256
270
     2
271
     2
272
     2
273
     2
274
     2
340
11
275
     0
280
     0
281
     0
282
     0
283
     0
284
     8
285
     0
286
     0
287
     3
288
     0
  0
ENDTAB
  0
TABLE
  2
BLOCK_RECORD
  5
1
330
0
100
AcDbSymbolTable
 70
    27
  0
BLOCK_RECORD
  5
1F
102
{ACAD_XDICTIONARY
360
159
102
}
330
1
100
AcDbSymbolTableRecord
100
AcDbBlockTableRecord
  2
*MODEL_SPACE
  0
BLOCK_RECORD
  5
1B
102
{ACAD_XDICTIONARY
360
1603
102
}
330
1
100
AcDbSymbolTableRecord
100
AcDbBlockTableRecord
  2
*PAPER_SPACE
  0
BLOCK_RECORD
  5
71
330
1
100
AcDbSymbolTableRecord
100
AcDbBlockTableRecord
  2
GENAXEH
  0
BLOCK_RECORD
  5
6B2
330
1
100
AcDbSymbolTableRecord
100
AcDbBlockTableRecord
  2
GENDOT
  0
BLOCK_RECORD
  5
12F9
330
1
100
AcDbSymbolTableRecord
100
AcDbBlockTableRecord
  2
*D3
  0
BLOCK_RECORD
  5
1305
330
1
100
AcDbSymbolTableRecord
100
AcDbBlockTableRecord
  2
*D4
  0
BLOCK_RECORD
  5
1311
330
1
100
AcDbSymbolTableRecord
100
AcDbBlockTableRecord
  2
*D5
  0
BLOCK_RECORD
  5
131F
330
1
100
AcDbSymbolTableRecord
100
AcDbBlockTableRecord
  2
*D6
  0
BLOCK_RECORD
  5
132D
330
1
100
AcDbSymbolTableRecord
100
AcDbBlockTableRecord
  2
*D7
  0
BLOCK_RECORD
  5
1339
330
1
100
AcDbSymbolTableRecord
100
AcDbBlockTableRecord
  2
*D8
  0
BLOCK_RECORD
  5
1345
330
1
100
AcDbSymbolTableRecord
100
AcDbBlockTableRecord
  2
*D9
  0
BLOCK_RECORD
  5
1351
330
1
100
AcDbSymbolTableRecord
100
AcDbBlockTableRecord
  2
*D10
  0
BLOCK_RECORD
  5
135D
330
1
100
AcDbSymbolTableRecord
100
AcDbBlockTableRecord
  2
*D11
  0
BLOCK_RECORD
  5
1369
330
1
100
AcDbSymbolTableRecord
100
AcDbBlockTableRecord
  2
*D12
  0
BLOCK_RECORD
  5
1375
330
1
100
AcDbSymbolTableRecord
100
AcDbBlockTableRecord
  2
*D13
  0
BLOCK_RECORD
  5
1381
330
1
100
AcDbSymbolTableRecord
100
AcDbBlockTableRecord
  2
*D14
  0
BLOCK_RECORD
  5
138D
330
1
100
AcDbSymbolTableRecord
100
AcDbBlockTableRecord
  2
*D15
  0
BLOCK_RECORD
  5
1399
330
1
100
AcDbSymbolTableRecord
100
AcDbBlockTableRecord
  2
*D16
  0
BLOCK_RECORD
  5
13A5
330
1
100
AcDbSymbolTableRecord
100
AcDbBlockTableRecord
  2
*D17
  0
BLOCK_RECORD
  5
13B3
330
1
100
AcDbSymbolTableRecord
100
AcDbBlockTableRecord
  2
*D18
  0
BLOCK_RECORD
  5
13C1
330
1
100
AcDbSymbolTableRecord
100
AcDbBlockTableRecord
  2
*D19
  0
BLOCK_RECORD
  5
13CD
330
1
100
AcDbSymbolTableRecord
100
AcDbBlockTableRecord
  2
*D20
  0
BLOCK_RECORD
  5
13D9
330
1
100
AcDbSymbolTableRecord
100
AcDbBlockTableRecord
  2
*D21
  0
BLOCK_RECORD
  5
161F
330
1
100
AcDbSymbolTableRecord
100
AcDbBlockTableRecord
  2
*S22
  0
BLOCK_RECORD
  5
1628
330
1
100
AcDbSymbolTableRecord
100
AcDbBlockTableRecord
  2
*S23
  0
BLOCK_RECORD
  5
1630
330
1
100
AcDbSymbolTableRecord
100
AcDbBlockTableRecord
  2
*S24
  0
BLOCK_RECORD
  5
1638
330
1
100
AcDbSymbolTableRecord
100
AcDbBlockTableRecord
  2
*S25
  0
BLOCK_RECORD
  5
1640
330
1
100
AcDbSymbolTableRecord
100
AcDbBlockTableRecord
  2
*S26
  0
ENDTAB
  0
ENDSEC
  0
SECTION
  2
BLOCKS
  0
BLOCK
  5
20
330
1F
100
AcDbEntity
  8
0
100
AcDbBlockBegin
  2
*MODEL_SPACE
 70
     0
 10
0.0
 20
0.0
 30
0.0
  3
*MODEL_SPACE
  1

  0
ENDBLK
  5
21
330
1F
100
AcDbEntity
  8
0
100
AcDbBlockEnd
  0
BLOCK
  5
1C
330
1B
100
AcDbEntity
 67
     1
  8
0
100
AcDbBlockBegin
  2
*PAPER_SPACE
 70
     0
 10
0.0
 20
0.0
 30
0.0
  3
*PAPER_SPACE
  1

  0
ENDBLK
  5
1D
330
1B
100
AcDbEntity
 67
     1
  8
0
100
AcDbBlockEnd
  0
BLOCK
  5
73
330
71
100
AcDbEntity
  8
0
100
AcDbBlockBegin
  2
GENAXEH
 70
     0
 10
0.0
 20
0.0
 30
0.0
  3
GENAXEH
  1

  0
LINE
  5
72
330
71
100
AcDbEntity
  8
0
100
AcDbLine
 10
-1.0
 20
0.0
 30
0.0
 11
1.0
 21
0.0
 31
0.0
  0
ENDBLK
  5
74
330
71
100
AcDbEntity
  8
0
100
AcDbBlockEnd
  0
BLOCK
  5
6B5
330
6B2
100
AcDbEntity
  8
0
100
AcDbBlockBegin
  2
GENDOT
 70
     0
 10
0.0
 20
0.0
 30
0.0
  3
GENDOT
  1

  0
LINE
  5
6B3
330
6B2
100
AcDbEntity
  8
0
100
AcDbLine
 10
0.0
 20
0.0
 30
0.0
 11
-1.0
 21
0.0
 31
0.0
  0
POLYLINE
  5
6B4
330
6B2
100
AcDbEntity
  8
0
100
AcDb2dPolyline
 66
     1
 10
0.0
 20
0.0
 30
0.0
 70
     1
 40
0.25
 41
0.25
  0
VERTEX
  5
1608
330
6B4
100
AcDbEntity
  8
0
100
AcDbVertex
100
AcDb2dVertex
 10
-0.125
 20
0.0
 30
0.0
 42
1.0
  0
VERTEX
  5
1609
330
6B4
100
AcDbEntity
  8
0
100
AcDbVertex
100
AcDb2dVertex
 10
0.125
 20
0.0
 30
0.0
 42
1.0
  0
SEQEND
  5
160A
330
6B4
100
AcDbEntity
  8
0
  0
ENDBLK
  5
6B6
330
6B2
100
AcDbEntity
  8
0
100
AcDbBlockEnd
  0
BLOCK
  5
1303
330
12F9
100
AcDbEntity
  8
0
100
AcDbBlockBegin
  2
*D3
 70
     1
 10
0.0
 20
0.0
 30
0.0
  3
*D3
  1

  0
LINE
  5
14BE
330
12F9
100
AcDbEntity
  8
AM_5
100
AcDbLine
 10
313.7843572672345
 20
161.283551743307
 30
0.0
 11
313.7843572672345
 21
148.783550743307
 31
0.0
  0
LINE
  5
14BF
330
12F9
100
AcDbEntity
  8
AM_5
100
AcDbLine
 10
291.7843572672345
 20
160.433551743307
 30
0.0
 11
291.7843572672345
 21
148.783550743307
 31
0.0
  0
LINE
  5
14C0
330
12F9
100
AcDbEntity
  8
AM_5
100
AcDbLine
 10
310.7843572672345
 20
150.7835507433069
 30
0.0
 11
294.7843572672345
 21
150.7835507433069
 31
0.0
  0
SOLID
  5
14C1
330
12F9
100
AcDbEntity
  8
AM_5
100
AcDbTrace
 10
310.7843572672345
 20
151.2835507433069
 30
0.0
 11
310.7843572672345
 21
150.2835507433069
 31
0.0
 12
313.7843572672345
 22
150.7835507433069
 32
0.0
 13
313.7843572672345
 23
150.7835507433069
 33
0.0
  0
SOLID
  5
14C2
330
12F9
100
AcDbEntity
  8
AM_5
100
AcDbTrace
 10
294.7843572672345
 20
151.2835507433069
 30
0.0
 11
294.7843572672345
 21
150.2835507433069
 31
0.0
 12
291.7843572672345
 22
150.7835507433069
 32
0.0
 13
291.7843572672345
 23
150.7835507433069
 33
0.0
  0
MTEXT
  5
14C3
330
12F9
100
AcDbEntity
  8
AM_5
100
AcDbMText
 10
302.7843572672345
 20
153.3338952314959
 30
0.0
 40
3.5
 41
0.0
 71
     5
 72
     1
  1
22
1001
ACAD
1000
MTEXTBEGIN
1070
    73
1070
     1
1070
    44
1040
1.0
1070
    74
1070
     0
1000
MTEXTEND
  0
POINT
  5
14C4
330
12F9
100
AcDbEntity
  8
DEFPOINTS
 62
     0
100
AcDbPoint
 10
313.7843572672345
 20
162.783551743307
 30
0.0
  0
POINT
  5
14C5
330
12F9
100
AcDbEntity
  8
DEFPOINTS
 62
     0
100
AcDbPoint
 10
291.7843572672345
 20
161.933551743307
 30
0.0
  0
POINT
  5
14C6
330
12F9
100
AcDbEntity
  8
DEFPOINTS
 62
     0
100
AcDbPoint
 10
291.7843572672345
 20
150.7835507433069
 30
0.0
  0
ENDBLK
  5
1304
330
12F9
100
AcDbEntity
  8
0
100
AcDbBlockEnd
  0
BLOCK
  5
130F
330
1305
100
AcDbEntity
  8
0
100
AcDbBlockBegin
  2
*D4
 70
     1
 10
0.0
 20
0.0
 30
0.0
  3
*D4
  1

  0
LINE
  5
1498
330
1305
100
AcDbEntity
  8
AM_5
100
AcDbLine
 10
299.1343572672347
 20
167.783551743307
 30
0.0
 11
327.7843572672345
 21
167.783551743307
 31
0.0
  0
LINE
  5
1499
330
1305
100
AcDbEntity
  8
AM_5
100
AcDbLine
 10
313.6343572672346
 20
179.783551743307
 30
0.0
 11
327.7843572672345
 21
179.783551743307
 31
0.0
  0
LINE
  5
149A
330
1305
100
AcDbEntity
  8
AM_5
100
AcDbLine
 10
325.7843572672345
 20
170.783551743307
 30
0.0
 11
325.7843572672345
 21
176.783551743307
 31
0.0
  0
SOLID
  5
149B
330
1305
100
AcDbEntity
  8
AM_5
100
AcDbTrace
 10
325.2843572672345
 20
170.783551743307
 30
0.0
 11
326.2843572672345
 21
170.783551743307
 31
0.0
 12
325.7843572672345
 22
167.783551743307
 32
0.0
 13
325.7843572672345
 23
167.783551743307
 33
0.0
  0
SOLID
  5
149C
330
1305
100
AcDbEntity
  8
AM_5
100
AcDbTrace
 10
325.2843572672345
 20
176.783551743307
 30
0.0
 11
326.2843572672345
 21
176.783551743307
 31
0.0
 12
325.7843572672345
 22
179.783551743307
 32
0.0
 13
325.7843572672345
 23
179.783551743307
 33
0.0
  0
MTEXT
  5
149D
330
1305
100
AcDbEntity
  8
AM_5
100
AcDbMText
 10
323.2340127790455
 20
173.783551743307
 30
0.0
 40
3.5
 41
0.0
 71
     5
 72
     1
  1
12
 11
0.0000000000000001
 21
1.0
 31
0.0
1001
ACAD
1000
MTEXTBEGIN
1070
    73
1070
     1
1070
    44
1040
1.0
1070
    74
1070
     0
1000
MTEXTEND
  0
POINT
  5
149E
330
1305
100
AcDbEntity
  8
DEFPOINTS
 62
     0
100
AcDbPoint
 10
297.6343572672346
 20
167.783551743307
 30
0.0
  0
POINT
  5
149F
330
1305
100
AcDbEntity
  8
DEFPOINTS
 62
     0
100
AcDbPoint
 10
312.1343572672346
 20
179.783551743307
 30
0.0
  0
POINT
  5
14A0
330
1305
100
AcDbEntity
  8
DEFPOINTS
 62
     0
100
AcDbPoint
 10
325.7843572672345
 20
179.783551743307
 30
0.0
  0
ENDBLK
  5
1310
330
1305
100
AcDbEntity
  8
0
100
AcDbBlockEnd
  0
BLOCK
  5
131D
330
1311
100
AcDbEntity
  8
0
100
AcDbBlockBegin
  2
*D5
 70
     1
 10
0.0
 20
0.0
 30
0.0
  3
*D5
  1

  0
LINE
  5
1513
330
1311
100
AcDbEntity
  8
AM_5
100
AcDbLine
 10
313.7843572672345
 20
186.283551743307
 30
0.0
 11
313.7843572672345
 21
196.3602713351612
 31
0.0
  0
LINE
  5
1514
330
1311
100
AcDbEntity
  8
AM_5
100
AcDbLine
 10
306.2843572672345
 20
187.133551743307
 30
0.0
 11
306.2843572672345
 21
196.3602713351612
 31
0.0
  0
LINE
  5
1515
330
1311
100
AcDbEntity
  8
AM_5
100
AcDbLine
 10
316.7843572672345
 20
194.3602713351612
 30
0.0
 11
319.7843572672345
 21
194.3602713351612
 31
0.0
  0
LINE
  5
1516
330
1311
100
AcDbEntity
  8
AM_5
100
AcDbLine
 10
303.2843572672345
 20
194.3602713351612
 30
0.0
 11
300.2843572672345
 21
194.3602713351612
 31
0.0
  0
LINE
  5
1517
330
1311
100
AcDbEntity
  8
AM_5
100
AcDbLine
 10
313.7843572672345
 20
194.3602713351612
 30
0.0
 11
306.2843572672345
 21
194.3602713351612
 31
0.0
  0
SOLID
  5
1518
330
1311
100
AcDbEntity
  8
AM_5
100
AcDbTrace
 10
316.7843572672345
 20
194.8602713351611
 30
0.0
 11
316.7843572672345
 21
193.8602713351612
 31
0.0
 12
313.7843572672345
 22
194.3602713351612
 32
0.0
 13
313.7843572672345
 23
194.3602713351612
 33
0.0
  0
SOLID
  5
1519
330
1311
100
AcDbEntity
  8
AM_5
100
AcDbTrace
 10
303.2843572672345
 20
194.8602713351611
 30
0.0
 11
303.2843572672345
 21
193.8602713351612
 31
0.0
 12
306.2843572672345
 22
194.3602713351612
 32
0.0
 13
306.2843572672345
 23
194.3602713351612
 33
0.0
  0
MTEXT
  5
151A
330
1311
100
AcDbEntity
  8
AM_5
100
AcDbMText
 10
310.0343572672345
 20
196.9102713351612
 30
0.0
 40
3.5
 41
0.0
 71
     5
 72
     1
  1
7.5
1001
ACAD
1000
MTEXTBEGIN
1070
    73
1070
     1
1070
    44
1040
1.0
1070
    74
1070
     0
1000
MTEXTEND
  0
POINT
  5
151B
330
1311
100
AcDbEntity
  8
DEFPOINTS
 62
     0
100
AcDbPoint
 10
313.7843572672345
 20
184.783551743307
 30
0.0
  0
POINT
  5
151C
330
1311
100
AcDbEntity
  8
DEFPOINTS
 62
     0
100
AcDbPoint
 10
306.2843572672345
 20
185.633551743307
 30
0.0
  0
POINT
  5
151D
330
1311
100
AcDbEntity
  8
DEFPOINTS
 62
     0
100
AcDbPoint
 10
306.2843572672345
 20
194.3602713351612
 30
0.0
  0
ENDBLK
  5
131E
330
1311
100
AcDbEntity
  8
0
100
AcDbBlockEnd
  0
BLOCK
  5
132B
330
131F
100
AcDbEntity
  8
0
100
AcDbBlockBegin
  2
*D6
 70
     1
 10
0.0
 20
0.0
 30
0.0
  3
*D6
  1

  0
LINE
  5
160B
330
131F
100
AcDbEntity
  8
AM_5
100
AcDbLine
 10
240.2843572672345
 20
166.783551743307
 30
0.0
 11
240.2843572672345
 21
154.283551743307
 31
0.0
  0
LINE
  5
160C
330
131F
100
AcDbEntity
  8
AM_5
100
AcDbLine
 10
243.2843572672345
 20
169.433551743307
 30
0.0
 11
243.2843572672345
 21
154.283551743307
 31
0.0
  0
LINE
  5
160D
330
131F
100
AcDbEntity
  8
AM_5
100
AcDbLine
 10
246.2843572672345
 20
156.283551743307
 30
0.0
 11
249.2843572672345
 21
156.283551743307
 31
0.0
  0
LINE
  5
160E
330
131F
100
AcDbEntity
  8
AM_5
100
AcDbLine
 10
237.2843572672345
 20
156.283551743307
 30
0.0
 11
231.139382520404
 21
156.283551743307
 31
0.0
  0
LINE
  5
160F
330
131F
100
AcDbEntity
  8
AM_5
100
AcDbLine
 10
243.2843572672345
 20
156.283551743307
 30
0.0
 11
240.2843572672345
 21
156.283551743307
 31
0.0
  0
INSERT
  5
1610
330
131F
100
AcDbEntity
  8
AM_5
100
AcDbBlockReference
  2
GENDOT
 10
243.2843572672345
 20
156.283551743307
 30
0.0
 41
3.0
 42
3.0
 43
3.0
 50
180.0
  0
SOLID
  5
1611
330
131F
100
AcDbEntity
  8
AM_5
100
AcDbTrace
 10
237.2843572672345
 20
156.783551743307
 30
0.0
 11
237.2843572672345
 21
155.783551743307
 31
0.0
 12
240.2843572672345
 22
156.283551743307
 32
0.0
 13
240.2843572672345
 23
156.283551743307
 33
0.0
  0
MTEXT
  5
1612
330
131F
100
AcDbEntity
  8
AM_5
100
AcDbMText
 10
232.7118698938192
 20
158.833551743307
 30
0.0
 40
3.5
 41
0.0
 71
     5
 72
     1
  1
3
  0
POINT
  5
1613
330
131F
100
AcDbEntity
  8
DEFPOINTS
 62
     0
100
AcDbPoint
 10
240.2843572672345
 20
168.283551743307
 30
0.0
  0
POINT
  5
1614
330
131F
100
AcDbEntity
  8
DEFPOINTS
 62
     0
100
AcDbPoint
 10
243.2843572672345
 20
170.933551743307
 30
0.0
  0
POINT
  5
1615
330
131F
100
AcDbEntity
  8
DEFPOINTS
 62
     0
100
AcDbPoint
 10
243.2843572672345
 20
156.283551743307
 30
0.0
  0
ENDBLK
  5
132C
330
131F
100
AcDbEntity
  8
0
100
AcDbBlockEnd
  0
BLOCK
  5
1337
330
132D
100
AcDbEntity
  8
0
100
AcDbBlockBegin
  2
*D7
 70
     1
 10
0.0
 20
0.0
 30
0.0
  3
*D7
  1

  0
LINE
  5
1616
330
132D
100
AcDbEntity
  8
AM_5
100
AcDbLine
 10
243.2843572672345
 20
169.433551743307
 30
0.0
 11
243.2843572672345
 21
154.283551743307
 31
0.0
  0
LINE
  5
1617
330
132D
100
AcDbEntity
  8
AM_5
100
AcDbLine
 10
251.2843572672345
 20
169.433551743307
 30
0.0
 11
251.2843572672345
 21
154.283551743307
 31
0.0
  0
LINE
  5
1618
330
132D
100
AcDbEntity
  8
AM_5
100
AcDbLine
 10
246.2843572672345
 20
156.283551743307
 30
0.0
 11
248.2843572672345
 21
156.283551743307
 31
0.0
  0
INSERT
  5
1619
330
132D
100
AcDbEntity
  8
AM_5
100
AcDbBlockReference
  2
GENDOT
 10
243.2843572672345
 20
156.283551743307
 30
0.0
 41
3.0
 42
3.0
 43
3.0
 50
180.0
  0
SOLID
  5
161A
330
132D
100
AcDbEntity
  8
AM_5
100
AcDbTrace
 10
248.2843572672345
 20
156.783551743307
 30
0.0
 11
248.2843572672345
 21
155.783551743307
 31
0.0
 12
251.2843572672345
 22
156.283551743307
 32
0.0
 13
251.2843572672345
 23
156.283551743307
 33
0.0
  0
MTEXT
  5
161B
330
132D
100
AcDbEntity
  8
AM_5
100
AcDbMText
 10
247.2843572672345
 20
158.833551743307
 30
0.0
 40
3.5
 41
0.0
 71
     5
 72
     1
  1
8
  0
POINT
  5
161C
330
132D
100
AcDbEntity
  8
DEFPOINTS
 62
     0
100
AcDbPoint
 10
243.2843572672345
 20
170.933551743307
 30
0.0
  0
POINT
  5
161D
330
132D
100
AcDbEntity
  8
DEFPOINTS
 62
     0
100
AcDbPoint
 10
251.2843572672345
 20
170.933551743307
 30
0.0
  0
POINT
  5
161E
330
132D
100
AcDbEntity
  8
DEFPOINTS
 62
     0
100
AcDbPoint
 10
251.2843572672345
 20
156.283551743307
 30
0.0
  0
ENDBLK
  5
1338
330
132D
100
AcDbEntity
  8
0
100
AcDbBlockEnd
  0
BLOCK
  5
1343
330
1339
100
AcDbEntity
  8
0
100
AcDbBlockBegin
  2
*D8
 70
     1
 10
0.0
 20
0.0
 30
0.0
  3
*D8
  1

  0
LINE
  5
14A1
330
1339
100
AcDbEntity
  8
AM_5
100
AcDbLine
 10
238.7843572672345
 20
179.283551743307
 30
0.0
 11
226.2843572672345
 21
179.283551743307
 31
0.0
  0
LINE
  5
14A2
330
1339
100
AcDbEntity
  8
AM_5
100
AcDbLine
 10
238.7843572672345
 20
168.283551743307
 30
0.0
 11
226.2843572672345
 21
168.283551743307
 31
0.0
  0
LINE
  5
14A3
330
1339
100
AcDbEntity
  8
AM_5
100
AcDbLine
 10
228.2843572672345
 20
176.283551743307
 30
0.0
 11
228.2843572672345
 21
171.283551743307
 31
0.0
  0
SOLID
  5
14A4
330
1339
100
AcDbEntity
  8
AM_5
100
AcDbTrace
 10
227.7843572672345
 20
176.283551743307
 30
0.0
 11
228.7843572672345
 21
176.283551743307
 31
0.0
 12
228.2843572672345
 22
179.283551743307
 32
0.0
 13
228.2843572672345
 23
179.283551743307
 33
0.0
  0
SOLID
  5
14A5
330
1339
100
AcDbEntity
  8
AM_5
100
AcDbTrace
 10
227.7843572672345
 20
171.283551743307
 30
0.0
 11
228.7843572672345
 21
171.283551743307
 31
0.0
 12
228.2843572672345
 22
168.283551743307
 32
0.0
 13
228.2843572672345
 23
168.283551743307
 33
0.0
  0
MTEXT
  5
14A6
330
1339
100
AcDbEntity
  8
AM_5
100
AcDbMText
 10
225.7343572672345
 20
173.783551743307
 30
0.0
 40
3.5
 41
0.0
 71
     5
 72
     1
  1
11
 11
0.0000000000000001
 21
1.0
 31
0.0
1001
ACAD
1000
MTEXTBEGIN
1070
    73
1070
     1
1070
    44
1040
1.0
1070
    74
1070
     0
1000
MTEXTEND
  0
POINT
  5
14A7
330
1339
100
AcDbEntity
  8
DEFPOINTS
 62
     0
100
AcDbPoint
 10
240.2843572672345
 20
179.283551743307
 30
0.0
  0
POINT
  5
14A8
330
1339
100
AcDbEntity
  8
DEFPOINTS
 62
     0
100
AcDbPoint
 10
240.2843572672345
 20
168.283551743307
 30
0.0
  0
POINT
  5
14A9
330
1339
100
AcDbEntity
  8
DEFPOINTS
 62
     0
100
AcDbPoint
 10
228.2843572672345
 20
168.283551743307
 30
0.0
  0
ENDBLK
  5
1344
330
1339
100
AcDbEntity
  8
0
100
AcDbBlockEnd
  0
BLOCK
  5
134F
330
1345
100
AcDbEntity
  8
0
100
AcDbBlockBegin
  2
*D9
 70
     1
 10
0.0
 20
0.0
 30
0.0
  3
*D9
  1

  0
LINE
  5
14EB
330
1345
100
AcDbEntity
  8
AM_5
100
AcDbLine
 10
240.2843572672345
 20
231.3437247846445
 30
0.0
 11
240.2843572672345
 21
218.3437247846444
 31
0.0
  0
LINE
  5
14EC
330
1345
100
AcDbEntity
  8
AM_5
100
AcDbLine
 10
255.2843572672345
 20
230.8437247846445
 30
0.0
 11
255.2843572672345
 21
218.3437247846444
 31
0.0
  0
LINE
  5
14ED
330
1345
100
AcDbEntity
  8
AM_5
100
AcDbLine
 10
243.2843572672345
 20
220.3437247846444
 30
0.0
 11
252.2843572672345
 21
220.3437247846444
 31
0.0
  0
SOLID
  5
14EE
330
1345
100
AcDbEntity
  8
AM_5
100
AcDbTrace
 10
243.2843572672345
 20
220.8437247846444
 30
0.0
 11
243.2843572672345
 21
219.8437247846444
 31
0.0
 12
240.2843572672345
 22
220.3437247846444
 32
0.0
 13
240.2843572672345
 23
220.3437247846444
 33
0.0
  0
SOLID
  5
14EF
330
1345
100
AcDbEntity
  8
AM_5
100
AcDbTrace
 10
252.2843572672345
 20
220.8437247846444
 30
0.0
 11
252.2843572672345
 21
219.8437247846444
 31
0.0
 12
255.2843572672345
 22
220.3437247846444
 32
0.0
 13
255.2843572672345
 23
220.3437247846444
 33
0.0
  0
MTEXT
  5
14F0
330
1345
100
AcDbEntity
  8
AM_5
100
AcDbMText
 10
247.7843572672345
 20
222.8937247846444
 30
0.0
 40
3.5
 41
0.0
 71
     5
 72
     1
  1
15
1001
ACAD
1000
MTEXTBEGIN
1070
    73
1070
     1
1070
    44
1040
1.0
1070
    74
1070
     0
1000
MTEXTEND
  0
POINT
  5
14F1
330
1345
100
AcDbEntity
  8
DEFPOINTS
 62
     0
100
AcDbPoint
 10
240.2843572672345
 20
232.8437247846445
 30
0.0
  0
POINT
  5
14F2
330
1345
100
AcDbEntity
  8
DEFPOINTS
 62
     0
100
AcDbPoint
 10
255.2843572672345
 20
232.3437247846445
 30
0.0
  0
POINT
  5
14F3
330
1345
100
AcDbEntity
  8
DEFPOINTS
 62
     0
100
AcDbPoint
 10
255.2843572672345
 20
220.3437247846444
 30
0.0
  0
ENDBLK
  5
1350
330
1345
100
AcDbEntity
  8
0
100
AcDbBlockEnd
  0
BLOCK
  5
135B
330
1351
100
AcDbEntity
  8
0
100
AcDbBlockBegin
  2
*D10
 70
     1
 10
0.0
 20
0.0
 30
0.0
  3
*D10
  1

  0
LINE
  5
14E2
330
1351
100
AcDbEntity
  8
AM_5
100
AcDbLine
 10
255.2843572672345
 20
230.8437247846445
 30
0.0
 11
255.2843572672345
 21
218.3437247846445
 31
0.0
  0
LINE
  5
14E3
330
1351
100
AcDbEntity
  8
AM_5
100
AcDbLine
 10
313.7843572672345
 20
230.8437247846445
 30
0.0
 11
313.7843572672345
 21
218.3437247846445
 31
0.0
  0
LINE
  5
14E4
330
1351
100
AcDbEntity
  8
AM_5
100
AcDbLine
 10
258.2843572672345
 20
220.3437247846445
 30
0.0
 11
310.7843572672345
 21
220.3437247846445
 31
0.0
  0
SOLID
  5
14E5
330
1351
100
AcDbEntity
  8
AM_5
100
AcDbTrace
 10
258.2843572672345
 20
220.8437247846445
 30
0.0
 11
258.2843572672345
 21
219.8437247846445
 31
0.0
 12
255.2843572672345
 22
220.3437247846445
 32
0.0
 13
255.2843572672345
 23
220.3437247846445
 33
0.0
  0
SOLID
  5
14E6
330
1351
100
AcDbEntity
  8
AM_5
100
AcDbTrace
 10
310.7843572672345
 20
220.8437247846445
 30
0.0
 11
310.7843572672345
 21
219.8437247846445
 31
0.0
 12
313.7843572672345
 22
220.3437247846445
 32
0.0
 13
313.7843572672345
 23
220.3437247846445
 33
0.0
  0
MTEXT
  5
14E7
330
1351
100
AcDbEntity
  8
AM_5
100
AcDbMText
 10
284.5343572672345
 20
222.8937247846445
 30
0.0
 40
3.5
 41
0.0
 71
     5
 72
     1
  1
58.5
1001
ACAD
1000
MTEXTBEGIN
1070
    73
1070
     1
1070
    44
1040
1.0
1070
    74
1070
     0
1000
MTEXTEND
  0
POINT
  5
14E8
330
1351
100
AcDbEntity
  8
DEFPOINTS
 62
     0
100
AcDbPoint
 10
255.2843572672345
 20
232.3437247846445
 30
0.0
  0
POINT
  5
14E9
330
1351
100
AcDbEntity
  8
DEFPOINTS
 62
     0
100
AcDbPoint
 10
313.7843572672345
 20
232.3437247846445
 30
0.0
  0
POINT
  5
14EA
330
1351
100
AcDbEntity
  8
DEFPOINTS
 62
     0
100
AcDbPoint
 10
313.7843572672345
 20
220.3437247846445
 30
0.0
  0
ENDBLK
  5
135C
330
1351
100
AcDbEntity
  8
0
100
AcDbBlockEnd
  0
BLOCK
  5
1367
330
135D
100
AcDbEntity
  8
0
100
AcDbBlockBegin
  2
*D11
 70
     1
 10
0.0
 20
0.0
 30
0.0
  3
*D11
  1

  0
LINE
  5
1542
330
135D
100
AcDbEntity
  8
AM_5
100
AcDbLine
 10
360.166890961246
 20
257.5937247846445
 30
0.0
 11
360.166890961246
 21
218.3437247846445
 31
0.0
  0
LINE
  5
1543
330
135D
100
AcDbEntity
  8
AM_5
100
AcDbLine
 10
374.166890961246
 20
231.5937247846445
 30
0.0
 11
374.166890961246
 21
218.3437247846445
 31
0.0
  0
LINE
  5
1544
330
135D
100
AcDbEntity
  8
AM_5
100
AcDbLine
 10
363.166890961246
 20
220.3437247846445
 30
0.0
 11
371.166890961246
 21
220.3437247846445
 31
0.0
  0
SOLID
  5
1545
330
135D
100
AcDbEntity
  8
AM_5
100
AcDbTrace
 10
363.166890961246
 20
220.8437247846445
 30
0.0
 11
363.166890961246
 21
219.8437247846445
 31
0.0
 12
360.166890961246
 22
220.3437247846445
 32
0.0
 13
360.166890961246
 23
220.3437247846445
 33
0.0
  0
SOLID
  5
1546
330
135D
100
AcDbEntity
  8
AM_5
100
AcDbTrace
 10
371.166890961246
 20
220.8437247846445
 30
0.0
 11
371.166890961246
 21
219.8437247846445
 31
0.0
 12
374.166890961246
 22
220.3437247846445
 32
0.0
 13
374.166890961246
 23
220.3437247846445
 33
0.0
  0
MTEXT
  5
1547
330
135D
100
AcDbEntity
  8
AM_5
100
AcDbMText
 10
367.166890961246
 20
222.8937247846445
 30
0.0
 40
3.5
 41
0.0
 71
     5
 72
     1
  1
14
1001
ACAD
1000
MTEXTBEGIN
1070
    73
1070
     1
1070
    44
1040
1.0
1070
    74
1070
     0
1000
MTEXTEND
  0
POINT
  5
1548
330
135D
100
AcDbEntity
  8
DEFPOINTS
 62
     0
100
AcDbPoint
 10
360.166890961246
 20
259.0937247846444
 30
0.0
  0
POINT
  5
1549
330
135D
100
AcDbEntity
  8
DEFPOINTS
 62
     0
100
AcDbPoint
 10
374.166890961246
 20
233.0937247846445
 30
0.0
  0
POINT
  5
154A
330
135D
100
AcDbEntity
  8
DEFPOINTS
 62
     0
100
AcDbPoint
 10
374.166890961246
 20
220.3437247846445
 30
0.0
  0
ENDBLK
  5
1368
330
135D
100
AcDbEntity
  8
0
100
AcDbBlockEnd
  0
BLOCK
  5
1373
330
1369
100
AcDbEntity
  8
0
100
AcDbBlockBegin
  2
*D12
 70
     1
 10
0.0
 20
0.0
 30
0.0
  3
*D12
  1

  0
LINE
  5
1539
330
1369
100
AcDbEntity
  8
AM_5
100
AcDbLine
 10
356.166890961246
 20
231.3437247846445
 30
0.0
 11
356.166890961246
 21
210.3437247846445
 31
0.0
  0
LINE
  5
153A
330
1369
100
AcDbEntity
  8
AM_5
100
AcDbLine
 10
378.166890961246
 20
231.3437247846445
 30
0.0
 11
378.166890961246
 21
210.3437247846445
 31
0.0
  0
LINE
  5
153B
330
1369
100
AcDbEntity
  8
AM_5
100
AcDbLine
 10
359.166890961246
 20
212.3437247846445
 30
0.0
 11
375.166890961246
 21
212.3437247846445
 31
0.0
  0
SOLID
  5
153C
330
1369
100
AcDbEntity
  8
AM_5
100
AcDbTrace
 10
359.166890961246
 20
212.8437247846445
 30
0.0
 11
359.166890961246
 21
211.8437247846445
 31
0.0
 12
356.166890961246
 22
212.3437247846445
 32
0.0
 13
356.166890961246
 23
212.3437247846445
 33
0.0
  0
SOLID
  5
153D
330
1369
100
AcDbEntity
  8
AM_5
100
AcDbTrace
 10
375.166890961246
 20
212.8437247846445
 30
0.0
 11
375.166890961246
 21
211.8437247846445
 31
0.0
 12
378.166890961246
 22
212.3437247846445
 32
0.0
 13
378.166890961246
 23
212.3437247846445
 33
0.0
  0
MTEXT
  5
153E
330
1369
100
AcDbEntity
  8
AM_5
100
AcDbMText
 10
367.166890961246
 20
214.8940692728335
 30
0.0
 40
3.5
 41
0.0
 71
     5
 72
     1
  1
22
1001
ACAD
1000
MTEXTBEGIN
1070
    73
1070
     1
1070
    44
1040
1.0
1070
    74
1070
     0
1000
MTEXTEND
  0
POINT
  5
153F
330
1369
100
AcDbEntity
  8
DEFPOINTS
 62
     0
100
AcDbPoint
 10
356.166890961246
 20
232.8437247846445
 30
0.0
  0
POINT
  5
1540
330
1369
100
AcDbEntity
  8
DEFPOINTS
 62
     0
100
AcDbPoint
 10
378.166890961246
 20
232.8437247846445
 30
0.0
  0
POINT
  5
1541
330
1369
100
AcDbEntity
  8
DEFPOINTS
 62
     0
100
AcDbPoint
 10
378.166890961246
 20
212.3437247846445
 30
0.0
  0
ENDBLK
  5
1374
330
1369
100
AcDbEntity
  8
0
100
AcDbBlockEnd
  0
BLOCK
  5
137F
330
1375
100
AcDbEntity
  8
0
100
AcDbBlockBegin
  2
*D13
 70
     1
 10
0.0
 20
0.0
 30
0.0
  3
*D13
  1

  0
LINE
  5
14D0
330
1375
100
AcDbEntity
  8
AM_5
100
AcDbLine
 10
355.416890961246
 20
262.3437247846445
 30
0.0
 11
342.1668909612461
 21
262.3437247846445
 31
0.0
  0
LINE
  5
14D1
330
1375
100
AcDbEntity
  8
AM_5
100
AcDbLine
 10
369.416890961246
 20
236.3437247846444
 30
0.0
 11
342.1668909612461
 21
236.3437247846444
 31
0.0
  0
LINE
  5
14D2
330
1375
100
AcDbEntity
  8
AM_5
100
AcDbLine
 10
344.1668909612461
 20
259.3437247846444
 30
0.0
 11
344.1668909612461
 21
239.3437247846445
 31
0.0
  0
SOLID
  5
14D3
330
1375
100
AcDbEntity
  8
AM_5
100
AcDbTrace
 10
343.666890961246
 20
259.3437247846444
 30
0.0
 11
344.6668909612461
 21
259.3437247846444
 31
0.0
 12
344.1668909612461
 22
262.3437247846445
 32
0.0
 13
344.1668909612461
 23
262.3437247846445
 33
0.0
  0
SOLID
  5
14D4
330
1375
100
AcDbEntity
  8
AM_5
100
AcDbTrace
 10
343.666890961246
 20
239.3437247846445
 30
0.0
 11
344.6668909612461
 21
239.3437247846445
 31
0.0
 12
344.1668909612461
 22
236.3437247846444
 32
0.0
 13
344.1668909612461
 23
236.3437247846444
 33
0.0
  0
MTEXT
  5
14D5
330
1375
100
AcDbEntity
  8
AM_5
100
AcDbMText
 10
341.6165464730571
 20
249.3437247846445
 30
0.0
 40
3.5
 41
0.0
 71
     5
 72
     1
  1
26
 11
0.0000000000000001
 21
1.0
 31
0.0
1001
ACAD
1000
MTEXTBEGIN
1070
    73
1070
     1
1070
    44
1040
1.0
1070
    74
1070
     0
1000
MTEXTEND
  0
POINT
  5
14D6
330
1375
100
AcDbEntity
  8
DEFPOINTS
 62
     0
100
AcDbPoint
 10
356.916890961246
 20
262.3437247846445
 30
0.0
  0
POINT
  5
14D7
330
1375
100
AcDbEntity
  8
DEFPOINTS
 62
     0
100
AcDbPoint
 10
370.916890961246
 20
236.3437247846444
 30
0.0
  0
POINT
  5
14D8
330
1375
100
AcDbEntity
  8
DEFPOINTS
 62
     0
100
AcDbPoint
 10
344.1668909612461
 20
236.3437247846444
 30
0.0
  0
ENDBLK
  5
1380
330
1375
100
AcDbEntity
  8
0
100
AcDbBlockEnd
  0
BLOCK
  5
138B
330
1381
100
AcDbEntity
  8
0
100
AcDbBlockBegin
  2
*D14
 70
     1
 10
0.0
 20
0.0
 30
0.0
  3
*D14
  1

  0
LINE
  5
14C7
330
1381
100
AcDbEntity
  8
AM_5
100
AcDbLine
 10
355.166890961246
 20
266.3437247846445
 30
0.0
 11
334.1668909612461
 21
266.3437247846445
 31
0.0
  0
LINE
  5
14C8
330
1381
100
AcDbEntity
  8
AM_5
100
AcDbLine
 10
355.166890961246
 20
232.3437247846445
 30
0.0
 11
334.1668909612461
 21
232.3437247846445
 31
0.0
  0
LINE
  5
14C9
330
1381
100
AcDbEntity
  8
AM_5
100
AcDbLine
 10
336.1668909612461
 20
263.3437247846445
 30
0.0
 11
336.1668909612461
 21
235.3437247846445
 31
0.0
  0
SOLID
  5
14CA
330
1381
100
AcDbEntity
  8
AM_5
100
AcDbTrace
 10
335.6668909612461
 20
263.3437247846445
 30
0.0
 11
336.6668909612461
 21
263.3437247846445
 31
0.0
 12
336.1668909612461
 22
266.3437247846445
 32
0.0
 13
336.1668909612461
 23
266.3437247846445
 33
0.0
  0
SOLID
  5
14CB
330
1381
100
AcDbEntity
  8
AM_5
100
AcDbTrace
 10
335.6668909612461
 20
235.3437247846445
 30
0.0
 11
336.6668909612461
 21
235.3437247846445
 31
0.0
 12
336.1668909612461
 22
232.3437247846445
 32
0.0
 13
336.1668909612461
 23
232.3437247846445
 33
0.0
  0
MTEXT
  5
14CC
330
1381
100
AcDbEntity
  8
AM_5
100
AcDbMText
 10
333.616890961246
 20
249.3437247846445
 30
0.0
 40
3.5
 41
0.0
 71
     5
 72
     1
  1
34
 11
0.0000000000000001
 21
1.0
 31
0.0
1001
ACAD
1000
MTEXTBEGIN
1070
    73
1070
     1
1070
    44
1040
1.0
1070
    74
1070
     0
1000
MTEXTEND
  0
POINT
  5
14CD
330
1381
100
AcDbEntity
  8
DEFPOINTS
 62
     0
100
AcDbPoint
 10
356.666890961246
 20
266.3437247846445
 30
0.0
  0
POINT
  5
14CE
330
1381
100
AcDbEntity
  8
DEFPOINTS
 62
     0
100
AcDbPoint
 10
356.666890961246
 20
232.3437247846445
 30
0.0
  0
POINT
  5
14CF
330
1381
100
AcDbEntity
  8
DEFPOINTS
 62
     0
100
AcDbPoint
 10
336.1668909612461
 20
232.3437247846445
 30
0.0
  0
ENDBLK
  5
138C
330
1381
100
AcDbEntity
  8
0
100
AcDbBlockEnd
  0
BLOCK
  5
1397
330
138D
100
AcDbEntity
  8
0
100
AcDbBlockBegin
  2
*D15
 70
     1
 10
0.0
 20
0.0
 30
0.0
  3
*D15
  1

  0
LINE
  5
1527
330
138D
100
AcDbEntity
  8
AM_5
100
AcDbLine
 10
293.0343572672345
 20
261.3437247846444
 30
0.0
 11
326.0504178946334
 21
261.3437247846444
 31
0.0
  0
LINE
  5
1528
330
138D
100
AcDbEntity
  8
AM_5
100
AcDbLine
 10
293.0343572672345
 20
237.3437247846445
 30
0.0
 11
326.0504178946334
 21
237.3437247846444
 31
0.0
  0
LINE
  5
1529
330
138D
100
AcDbEntity
  8
AM_5
100
AcDbLine
 10
324.0504178946334
 20
258.3437247846445
 30
0.0
 11
324.0504178946334
 21
240.3437247846444
 31
0.0
  0
SOLID
  5
152A
330
138D
100
AcDbEntity
  8
AM_5
100
AcDbTrace
 10
323.5504178946334
 20
258.3437247846445
 30
0.0
 11
324.5504178946335
 21
258.3437247846445
 31
0.0
 12
324.0504178946334
 22
261.3437247846444
 32
0.0
 13
324.0504178946334
 23
261.3437247846444
 33
0.0
  0
SOLID
  5
152B
330
138D
100
AcDbEntity
  8
AM_5
100
AcDbTrace
 10
323.5504178946334
 20
240.3437247846444
 30
0.0
 11
324.5504178946335
 21
240.3437247846444
 31
0.0
 12
324.0504178946334
 22
237.3437247846444
 32
0.0
 13
324.0504178946334
 23
237.3437247846444
 33
0.0
  0
MTEXT
  5
152C
330
138D
100
AcDbEntity
  8
AM_5
100
AcDbMText
 10
321.5000734064444
 20
249.3437247846445
 30
0.0
 40
3.5
 41
0.0
 71
     5
 72
     1
  1
24
 11
0.0000000000000001
 21
1.0
 31
0.0
1001
ACAD
1000
MTEXTBEGIN
1070
    73
1070
     1
1070
    44
1040
1.0
1070
    74
1070
     0
1000
MTEXTEND
  0
POINT
  5
152D
330
138D
100
AcDbEntity
  8
DEFPOINTS
 62
     0
100
AcDbPoint
 10
291.5343572672345
 20
261.3437247846444
 30
0.0
  0
POINT
  5
152E
330
138D
100
AcDbEntity
  8
DEFPOINTS
 62
     0
100
AcDbPoint
 10
291.5343572672345
 20
237.3437247846445
 30
0.0
  0
POINT
  5
152F
330
138D
100
AcDbEntity
  8
DEFPOINTS
 62
     0
100
AcDbPoint
 10
324.0504178946334
 20
237.3437247846444
 30
0.0
  0
ENDBLK
  5
1398
330
138D
100
AcDbEntity
  8
0
100
AcDbBlockEnd
  0
BLOCK
  5
13A3
330
1399
100
AcDbEntity
  8
0
100
AcDbBlockBegin
  2
*D16
 70
     1
 10
0.0
 20
0.0
 30
0.0
  3
*D16
  1

  0
LINE
  5
151E
330
1399
100
AcDbEntity
  8
AM_5
100
AcDbLine
 10
313.7843572672345
 20
267.8437247846445
 30
0.0
 11
313.7843572672345
 21
276.7561966967353
 31
0.0
  0
LINE
  5
151F
330
1399
100
AcDbEntity
  8
AM_5
100
AcDbLine
 10
288.2843572672345
 20
266.0937247846445
 30
0.0
 11
288.2843572672345
 21
276.7561966967353
 31
0.0
  0
LINE
  5
1520
330
1399
100
AcDbEntity
  8
AM_5
100
AcDbLine
 10
310.7843572672345
 20
274.7561966967353
 30
0.0
 11
291.2843572672345
 21
274.7561966967353
 31
0.0
  0
SOLID
  5
1521
330
1399
100
AcDbEntity
  8
AM_5
100
AcDbTrace
 10
310.7843572672345
 20
275.2561966967354
 30
0.0
 11
310.7843572672345
 21
274.2561966967353
 31
0.0
 12
313.7843572672345
 22
274.7561966967353
 32
0.0
 13
313.7843572672345
 23
274.7561966967353
 33
0.0
  0
SOLID
  5
1522
330
1399
100
AcDbEntity
  8
AM_5
100
AcDbTrace
 10
291.2843572672345
 20
275.2561966967354
 30
0.0
 11
291.2843572672345
 21
274.2561966967353
 31
0.0
 12
288.2843572672345
 22
274.7561966967353
 32
0.0
 13
288.2843572672345
 23
274.7561966967353
 33
0.0
  0
MTEXT
  5
1523
330
1399
100
AcDbEntity
  8
AM_5
100
AcDbMText
 10
301.0343572672345
 20
277.3065411849243
 30
0.0
 40
3.5
 41
0.0
 71
     5
 72
     1
  1
25.5
1001
ACAD
1000
MTEXTBEGIN
1070
    73
1070
     1
1070
    44
1040
1.0
1070
    74
1070
     0
1000
MTEXTEND
  0
POINT
  5
1524
330
1399
100
AcDbEntity
  8
DEFPOINTS
 62
     0
100
AcDbPoint
 10
313.7843572672345
 20
266.3437247846445
 30
0.0
  0
POINT
  5
1525
330
1399
100
AcDbEntity
  8
DEFPOINTS
 62
     0
100
AcDbPoint
 10
288.2843572672345
 20
264.5937247846445
 30
0.0
  0
POINT
  5
1526
330
1399
100
AcDbEntity
  8
DEFPOINTS
 62
     0
100
AcDbPoint
 10
288.2843572672345
 20
274.7561966967353
 30
0.0
  0
ENDBLK
  5
13A4
330
1399
100
AcDbEntity
  8
0
100
AcDbBlockEnd
  0
BLOCK
  5
13B1
330
13A5
100
AcDbEntity
  8
0
100
AcDbBlockBegin
  2
*D17
 70
     1
 10
0.0
 20
0.0
 30
0.0
  3
*D17
  1

  0
LINE
  5
14F4
330
13A5
100
AcDbEntity
  8
AM_5
100
AcDbLine
 10
238.7843572672345
 20
232.8437247846445
 30
0.0
 11
226.2843572672345
 21
232.8437247846445
 31
0.0
  0
LINE
  5
14F5
330
13A5
100
AcDbEntity
  8
AM_5
100
AcDbLine
 10
238.7843572672345
 20
237.8437247846445
 30
0.0
 11
226.2843572672345
 21
237.8437247846445
 31
0.0
  0
LINE
  5
14F6
330
13A5
100
AcDbEntity
  8
AM_5
100
AcDbLine
 10
228.2843572672345
 20
229.8437247846444
 30
0.0
 11
228.2843572672345
 21
226.8437247846445
 31
0.0
  0
LINE
  5
14F7
330
13A5
100
AcDbEntity
  8
AM_5
100
AcDbLine
 10
228.2843572672345
 20
240.8437247846445
 30
0.0
 11
228.2843572672345
 21
243.8437247846445
 31
0.0
  0
LINE
  5
14F8
330
13A5
100
AcDbEntity
  8
AM_5
100
AcDbLine
 10
228.2843572672345
 20
232.8437247846445
 30
0.0
 11
228.2843572672345
 21
237.8437247846445
 31
0.0
  0
SOLID
  5
14F9
330
13A5
100
AcDbEntity
  8
AM_5
100
AcDbTrace
 10
227.7843572672345
 20
229.8437247846444
 30
0.0
 11
228.7843572672345
 21
229.8437247846444
 31
0.0
 12
228.2843572672345
 22
232.8437247846445
 32
0.0
 13
228.2843572672345
 23
232.8437247846445
 33
0.0
  0
SOLID
  5
14FA
330
13A5
100
AcDbEntity
  8
AM_5
100
AcDbTrace
 10
227.7843572672345
 20
240.8437247846445
 30
0.0
 11
228.7843572672345
 21
240.8437247846445
 31
0.0
 12
228.2843572672345
 22
237.8437247846445
 32
0.0
 13
228.2843572672345
 23
237.8437247846445
 33
0.0
  0
MTEXT
  5
14FB
330
13A5
100
AcDbEntity
  8
AM_5
100
AcDbMText
 10
225.7343572672345
 20
235.3437247846445
 30
0.0
 40
3.5
 41
0.0
 71
     5
 72
     1
  1
5
 11
0.0000000000000001
 21
1.0
 31
0.0
1001
ACAD
1000
MTEXTBEGIN
1070
    73
1070
     1
1070
    44
1040
1.0
1070
    74
1070
     0
1000
MTEXTEND
  0
POINT
  5
14FC
330
13A5
100
AcDbEntity
  8
DEFPOINTS
 62
     0
100
AcDbPoint
 10
240.2843572672345
 20
232.8437247846445
 30
0.0
  0
POINT
  5
14FD
330
13A5
100
AcDbEntity
  8
DEFPOINTS
 62
     0
100
AcDbPoint
 10
240.2843572672345
 20
237.8437247846445
 30
0.0
  0
POINT
  5
14FE
330
13A5
100
AcDbEntity
  8
DEFPOINTS
 62
     0
100
AcDbPoint
 10
228.2843572672345
 20
237.8437247846445
 30
0.0
  0
ENDBLK
  5
13B2
330
13A5
100
AcDbEntity
  8
0
100
AcDbBlockEnd
  0
BLOCK
  5
13BF
330
13B3
100
AcDbEntity
  8
0
100
AcDbBlockBegin
  2
*D18
 70
     1
 10
0.0
 20
0.0
 30
0.0
  3
*D18
  1

  0
LINE
  5
14FF
330
13B3
100
AcDbEntity
  8
AM_5
100
AcDbLine
 10
238.7843572672345
 20
260.8437247846445
 30
0.0
 11
226.2843572672345
 21
260.8437247846445
 31
0.0
  0
LINE
  5
1500
330
13B3
100
AcDbEntity
  8
AM_5
100
AcDbLine
 10
238.7843572672345
 20
265.8437247846445
 30
0.0
 11
226.2843572672345
 21
265.8437247846445
 31
0.0
  0
LINE
  5
1501
330
13B3
100
AcDbEntity
  8
AM_5
100
AcDbLine
 10
228.2843572672345
 20
257.8437247846445
 30
0.0
 11
228.2843572672345
 21
254.8437247846444
 31
0.0
  0
LINE
  5
1502
330
13B3
100
AcDbEntity
  8
AM_5
100
AcDbLine
 10
228.2843572672345
 20
268.8437247846445
 30
0.0
 11
228.2843572672345
 21
271.8437247846444
 31
0.0
  0
LINE
  5
1503
330
13B3
100
AcDbEntity
  8
AM_5
100
AcDbLine
 10
228.2843572672345
 20
260.8437247846445
 30
0.0
 11
228.2843572672345
 21
265.8437247846445
 31
0.0
  0
SOLID
  5
1504
330
13B3
100
AcDbEntity
  8
AM_5
100
AcDbTrace
 10
227.7843572672345
 20
257.8437247846445
 30
0.0
 11
228.7843572672345
 21
257.8437247846445
 31
0.0
 12
228.2843572672345
 22
260.8437247846445
 32
0.0
 13
228.2843572672345
 23
260.8437247846445
 33
0.0
  0
SOLID
  5
1505
330
13B3
100
AcDbEntity
  8
AM_5
100
AcDbTrace
 10
227.7843572672345
 20
268.8437247846445
 30
0.0
 11
228.7843572672345
 21
268.8437247846445
 31
0.0
 12
228.2843572672345
 22
265.8437247846445
 32
0.0
 13
228.2843572672345
 23
265.8437247846445
 33
0.0
  0
MTEXT
  5
1506
330
13B3
100
AcDbEntity
  8
AM_5
100
AcDbMText
 10
225.7343572672345
 20
263.3437247846445
 30
0.0
 40
3.5
 41
0.0
 71
     5
 72
     1
  1
5
 11
0.0000000000000001
 21
1.0
 31
0.0
1001
ACAD
1000
MTEXTBEGIN
1070
    73
1070
     1
1070
    44
1040
1.0
1070
    74
1070
     0
1000
MTEXTEND
  0
POINT
  5
1507
330
13B3
100
AcDbEntity
  8
DEFPOINTS
 62
     0
100
AcDbPoint
 10
240.2843572672345
 20
260.8437247846445
 30
0.0
  0
POINT
  5
1508
330
13B3
100
AcDbEntity
  8
DEFPOINTS
 62
     0
100
AcDbPoint
 10
240.2843572672345
 20
265.8437247846445
 30
0.0
  0
POINT
  5
1509
330
13B3
100
AcDbEntity
  8
DEFPOINTS
 62
     0
100
AcDbPoint
 10
228.2843572672345
 20
265.8437247846445
 30
0.0
  0
ENDBLK
  5
13C0
330
13B3
100
AcDbEntity
  8
0
100
AcDbBlockEnd
  0
BLOCK
  5
13CB
330
13C1
100
AcDbEntity
  8
0
100
AcDbBlockBegin
  2
*D19
 70
     1
 10
0.0
 20
0.0
 30
0.0
  3
*D19
  1

  0
LINE
  5
150A
330
13C1
100
AcDbEntity
  8
AM_5
100
AcDbLine
 10
238.7843572672345
 20
265.8437247846445
 30
0.0
 11
218.2843572672346
 21
265.8437247846445
 31
0.0
  0
LINE
  5
150B
330
13C1
100
AcDbEntity
  8
AM_5
100
AcDbLine
 10
238.7843572672345
 20
232.8437247846445
 30
0.0
 11
218.2843572672346
 21
232.8437247846445
 31
0.0
  0
LINE
  5
150C
330
13C1
100
AcDbEntity
  8
AM_5
100
AcDbLine
 10
220.2843572672346
 20
262.8437247846445
 30
0.0
 11
220.2843572672346
 21
235.8437247846445
 31
0.0
  0
SOLID
  5
150D
330
13C1
100
AcDbEntity
  8
AM_5
100
AcDbTrace
 10
219.7843572672345
 20
262.8437247846445
 30
0.0
 11
220.7843572672345
 21
262.8437247846445
 31
0.0
 12
220.2843572672346
 22
265.8437247846445
 32
0.0
 13
220.2843572672346
 23
265.8437247846445
 33
0.0
  0
SOLID
  5
150E
330
13C1
100
AcDbEntity
  8
AM_5
100
AcDbTrace
 10
219.7843572672345
 20
235.8437247846445
 30
0.0
 11
220.7843572672345
 21
235.8437247846445
 31
0.0
 12
220.2843572672346
 22
232.8437247846445
 32
0.0
 13
220.2843572672346
 23
232.8437247846445
 33
0.0
  0
MTEXT
  5
150F
330
13C1
100
AcDbEntity
  8
AM_5
100
AcDbMText
 10
217.7343572672345
 20
245.8139173663825
 30
0.0
 40
3.5
 41
0.0
 71
     5
 72
     1
  1
33
 11
0.0000000000000001
 21
1.0
 31
0.0
1001
ACAD
1000
MTEXTBEGIN
1070
    73
1070
     1
1070
    44
1040
1.0
1070
    74
1070
     0
1000
MTEXTEND
  0
POINT
  5
1510
330
13C1
100
AcDbEntity
  8
DEFPOINTS
 62
     0
100
AcDbPoint
 10
240.2843572672345
 20
265.8437247846445
 30
0.0
  0
POINT
  5
1511
330
13C1
100
AcDbEntity
  8
DEFPOINTS
 62
     0
100
AcDbPoint
 10
240.2843572672345
 20
232.8437247846445
 30
0.0
  0
POINT
  5
1512
330
13C1
100
AcDbEntity
  8
DEFPOINTS
 62
     0
100
AcDbPoint
 10
220.2843572672346
 20
232.8437247846445
 30
0.0
  0
ENDBLK
  5
13CC
330
13C1
100
AcDbEntity
  8
0
100
AcDbBlockEnd
  0
BLOCK
  5
13D7
330
13CD
100
AcDbEntity
  8
0
100
AcDbBlockBegin
  2
*D20
 70
     1
 10
0.0
 20
0.0
 30
0.0
  3
*D20
  1

  0
LINE
  5
1530
330
13CD
100
AcDbEntity
  8
AM_5
100
AcDbLine
 10
313.7843572672345
 20
301.2592506225029
 30
0.0
 11
313.7843572672345
 21
288.7592506225029
 31
0.0
  0
LINE
  5
1531
330
13CD
100
AcDbEntity
  8
AM_5
100
AcDbLine
 10
292.7843572672345
 20
302.0592506225029
 30
0.0
 11
292.7843572672345
 21
288.7592506225029
 31
0.0
  0
LINE
  5
1532
330
13CD
100
AcDbEntity
  8
AM_5
100
AcDbLine
 10
310.7843572672345
 20
290.7592506225029
 30
0.0
 11
295.7843572672345
 21
290.7592506225029
 31
0.0
  0
SOLID
  5
1533
330
13CD
100
AcDbEntity
  8
AM_5
100
AcDbTrace
 10
310.7843572672345
 20
291.2592506225029
 30
0.0
 11
310.7843572672345
 21
290.2592506225029
 31
0.0
 12
313.7843572672345
 22
290.7592506225029
 32
0.0
 13
313.7843572672345
 23
290.7592506225029
 33
0.0
  0
SOLID
  5
1534
330
13CD
100
AcDbEntity
  8
AM_5
100
AcDbTrace
 10
295.7843572672345
 20
291.2592506225029
 30
0.0
 11
295.7843572672345
 21
290.2592506225029
 31
0.0
 12
292.7843572672345
 22
290.7592506225029
 32
0.0
 13
292.7843572672345
 23
290.7592506225029
 33
0.0
  0
MTEXT
  5
1535
330
13CD
100
AcDbEntity
  8
AM_5
100
AcDbMText
 10
303.2843572672345
 20
293.3095951106918
 30
0.0
 40
3.5
 41
0.0
 71
     5
 72
     1
  1
21
1001
ACAD
1000
MTEXTBEGIN
1070
    73
1070
     1
1070
    44
1040
1.0
1070
    74
1070
     0
1000
MTEXTEND
  0
POINT
  5
1536
330
13CD
100
AcDbEntity
  8
DEFPOINTS
 62
     0
100
AcDbPoint
 10
313.7843572672345
 20
302.7592506225029
 30
0.0
  0
POINT
  5
1537
330
13CD
100
AcDbEntity
  8
DEFPOINTS
 62
     0
100
AcDbPoint
 10
292.7843572672345
 20
303.5592506225029
 30
0.0
  0
POINT
  5
1538
330
13CD
100
AcDbEntity
  8
DEFPOINTS
 62
     0
100
AcDbPoint
 10
292.7843572672345
 20
290.7592506225029
 30
0.0
  0
ENDBLK
  5
13D8
330
13CD
100
AcDbEntity
  8
0
100
AcDbBlockEnd
  0
BLOCK
  5
13E3
330
13D9
100
AcDbEntity
  8
0
100
AcDbBlockBegin
  2
*D21
 70
     1
 10
0.0
 20
0.0
 30
0.0
  3
*D21
  1

  0
LINE
  5
14D9
330
13D9
100
AcDbEntity
  8
AM_5
100
AcDbLine
 10
240.2843572672345
 20
231.3437247846445
 30
0.0
 11
240.2843572672345
 21
211.3437247846445
 31
0.0
  0
LINE
  5
14DA
330
13D9
100
AcDbEntity
  8
AM_5
100
AcDbLine
 10
313.7843572672345
 20
230.8437247846445
 30
0.0
 11
313.7843572672345
 21
211.3437247846445
 31
0.0
  0
LINE
  5
14DB
330
13D9
100
AcDbEntity
  8
AM_5
100
AcDbLine
 10
243.2843572672345
 20
212.3437247846445
 30
0.0
 11
310.7843572672345
 21
212.3437247846445
 31
0.0
  0
SOLID
  5
14DC
330
13D9
100
AcDbEntity
  8
AM_5
100
AcDbTrace
 10
243.2843572672345
 20
212.8437247846445
 30
0.0
 11
243.2843572672345
 21
211.8437247846445
 31
0.0
 12
240.2843572672345
 22
212.3437247846445
 32
0.0
 13
240.2843572672345
 23
212.3437247846445
 33
0.0
  0
SOLID
  5
14DD
330
13D9
100
AcDbEntity
  8
AM_5
100
AcDbTrace
 10
310.7843572672345
 20
212.8437247846445
 30
0.0
 11
310.7843572672345
 21
211.8437247846445
 31
0.0
 12
313.7843572672345
 22
212.3437247846445
 32
0.0
 13
313.7843572672345
 23
212.3437247846445
 33
0.0
  0
MTEXT
  5
14DE
330
13D9
100
AcDbEntity
  8
AM_5
100
AcDbMText
 10
277.0343572672345
 20
214.8937247846445
 30
0.0
 40
3.5
 41
0.0
 71
     5
 72
     1
  1
73.5
1001
ACAD
1000
MTEXTBEGIN
1070
    73
1070
     1
1070
    44
1040
1.0
1070
    74
1070
     0
1000
MTEXTEND
  0
POINT
  5
14DF
330
13D9
100
AcDbEntity
  8
DEFPOINTS
 62
     0
100
AcDbPoint
 10
240.2843572672345
 20
232.8437247846445
 30
0.0
  0
POINT
  5
14E0
330
13D9
100
AcDbEntity
  8
DEFPOINTS
 62
     0
100
AcDbPoint
 10
313.7843572672345
 20
232.3437247846445
 30
0.0
  0
POINT
  5
14E1
330
13D9
100
AcDbEntity
  8
DEFPOINTS
 62
     0
100
AcDbPoint
 10
313.7843572672345
 20
212.3437247846445
 30
0.0
  0
ENDBLK
  5
13E4
330
13D9
100
AcDbEntity
  8
0
100
AcDbBlockEnd
  0
BLOCK
  5
1624
330
161F
100
AcDbEntity
  8
0
100
AcDbBlockBegin
  2
*S22
 70
     1
 10
0.0
 20
0.0
 30
0.0
  3
*S22
  1

  0
LINE
  5
1620
330
161F
100
AcDbEntity
  8
AM_5
100
AcDbLine
 10
259.3973445042625
 20
193.6549687578301
 30
0.0
 11
293.3577751270133
 21
193.6549687578301
 31
0.0
  0
LINE
  5
1621
330
161F
100
AcDbEntity
  8
AM_5
100
AcDbLine
 10
293.3577751270133
 20
193.6549687578301
 30
0.0
 11
300.4735396750398
 21
186.0176017472357
 31
0.0
  0
TRACE
  5
1622
330
161F
100
AcDbEntity
  8
AM_5
100
AcDbTrace
 10
299.8835582042913
 20
185.4679137163055
 30
0.0
 11
301.0635211457884
 21
186.5672897781659
 31
0.0
 12
304.6488348153227
 22
181.5362475443713
 32
0.0
 13
304.6488348153227
 23
181.5362475443713
 33
0.0
  0
MTEXT
  5
1623
330
161F
100
AcDbEntity
  8
AM_5
 62
     2
100
AcDbMText
 10
259.3973445042625
 20
186.8245228544312
 30
0.0
 40
6.125
 41
0.0
 71
     9
 72
     1
  1

  7
ACISOTS
  0
ENDBLK
  5
1625
330
161F
100
AcDbEntity
  8
0
100
AcDbBlockEnd
  0
BLOCK
  5
162D
330
1628
100
AcDbEntity
  8
0
100
AcDbBlockBegin
  2
*S23
 70
     1
 10
0.0
 20
0.0
 30
0.0
  3
*S23
  1

  0
LINE
  5
1629
330
1628
100
AcDbEntity
  8
AM_5
100
AcDbLine
 10
242.3489533806073
 20
274.1172299585591
 30
0.0
 11
278.8335209728736
 21
274.1172299585591
 31
0.0
  0
LINE
  5
162A
330
1628
100
AcDbEntity
  8
AM_5
100
AcDbLine
 10
278.8335209728736
 20
274.1172299585591
 30
0.0
 11
283.377764561216
 21
267.861681208156
 31
0.0
  0
TRACE
  5
162B
330
1628
100
AcDbEntity
  8
AM_5
100
AcDbTrace
 10
282.7253626248899
 20
267.3877542299702
 30
0.0
 11
284.0301664975423
 21
268.3356081863419
 31
0.0
 12
286.9775973709638
 22
262.9061964950464
 32
0.0
 13
286.9775973709638
 23
262.9061964950464
 33
0.0
  0
MTEXT
  5
162C
330
1628
100
AcDbEntity
  8
AM_5
 62
     2
100
AcDbMText
 10
242.3489533806073
 20
272.4001105013809
 30
0.0
 40
6.125
 41
0.0
 71
     9
 72
     1
  1

  7
ACISOTS
  0
ENDBLK
  5
162E
330
1628
100
AcDbEntity
  8
0
100
AcDbBlockEnd
  0
BLOCK
  5
1635
330
1630
100
AcDbEntity
  8
0
100
AcDbBlockBegin
  2
*S24
 70
     1
 10
0.0
 20
0.0
 30
0.0
  3
*S24
  1

  0
LINE
  5
1631
330
1630
100
AcDbEntity
  8
AM_5
100
AcDbLine
 10
404.1664982499419
 20
274.1172299585591
 30
0.0
 11
369.2865987001032
 21
274.1172299585591
 31
0.0
  0
LINE
  5
1632
330
1630
100
AcDbEntity
  8
AM_5
100
AcDbLine
 10
369.2865987001032
 20
274.1172299585591
 30
0.0
 11
365.2437917427051
 21
268.6630413057295
 31
0.0
  0
TRACE
  5
1633
330
1630
100
AcDbEntity
  8
AM_5
100
AcDbTrace
 10
364.5959776430117
 20
269.1432203967081
 30
0.0
 11
365.8916058423985
 21
268.182862214751
 31
0.0
 12
361.5964694212871
 22
263.7424046717475
 32
0.0
 13
361.5964694212871
 23
263.7424046717475
 33
0.0
  0
MTEXT
  5
1634
330
1630
100
AcDbEntity
  8
AM_5
 62
     2
100
AcDbMText
 10
404.1664982499419
 20
272.4001105013809
 30
0.0
 40
6.125
 41
0.0
 71
     9
 72
     1
  1

  7
ACISOTS
210
0.0
220
0.0
230
-1.0
 11
-1.0
 21
0.0
 31
0.0
  0
ENDBLK
  5
1636
330
1630
100
AcDbEntity
  8
0
100
AcDbBlockEnd
  0
BLOCK
  5
163D
330
1638
100
AcDbEntity
  8
0
100
AcDbBlockBegin
  2
*S25
 70
     1
 10
0.0
 20
0.0
 30
0.0
  3
*S25
  1

  0
LINE
  5
1639
330
1638
100
AcDbEntity
  8
AM_5
100
AcDbLine
 10
250.7922838336257
 20
331.2122256580273
 30
0.0
 11
284.4866601317364
 21
331.2122256580273
 31
0.0
  0
LINE
  5
163A
330
1638
100
AcDbEntity
  8
AM_5
100
AcDbLine
 10
284.4866601317364
 20
331.2122256580273
 30
0.0
 11
287.6802925426155
 21
327.1129919533794
 31
0.0
  0
TRACE
  5
163B
330
1638
100
AcDbEntity
  8
AM_5
100
AcDbTrace
 10
287.0441831260782
 20
326.6174116093714
 30
0.0
 11
288.3164019591528
 21
327.6085722973875
 31
0.0
 12
291.4445989955956
 22
322.2812612150154
 32
0.0
 13
291.4445989955956
 23
322.2812612150154
 33
0.0
  0
MTEXT
  5
163C
330
1638
100
AcDbEntity
  8
AM_5
 62
     2
100
AcDbMText
 10
250.7922838336257
 20
329.4951062008491
 30
0.0
 40
6.125
 41
0.0
 71
     9
 72
     1
  1

  7
ACISOTS
  0
ENDBLK
  5
163E
330
1638
100
AcDbEntity
  8
0
100
AcDbBlockEnd
  0
BLOCK
  5
1645
330
1640
100
AcDbEntity
  8
0
100
AcDbBlockBegin
  2
*S26
 70
     1
 10
0.0
 20
0.0
 30
0.0
  3
*S26
  1

  0
LINE
  5
1641
330
1640
100
AcDbEntity
  8
AM_5
100
AcDbLine
 10
219.0319376772943
 20
300.5012915397712
 30
0.0
 11
242.0394826635827
 21
300.5012915397712
 31
0.0
  0
LINE
  5
1642
330
1640
100
AcDbEntity
  8
AM_5
100
AcDbLine
 10
242.0394826635827
 20
300.5012915397712
 30
0.0
 11
246.9304341282712
 21
307.8225668799668
 31
0.0
  0
TRACE
  5
1643
330
1640
100
AcDbEntity
  8
AM_5
100
AcDbTrace
 10
247.6009485268259
 20
307.3746321654096
 30
0.0
 11
246.2599197297166
 21
308.270501594524
 31
0.0
 12
250.3328360937823
 22
312.9156294031532
 32
0.0
 13
250.3328360937823
 23
312.9156294031532
 33
0.0
  0
MTEXT
  5
1644
330
1640
100
AcDbEntity
  8
AM_5
 62
     2
100
AcDbMText
 10
219.0319376772943
 20
298.784172082593
 30
0.0
 40
6.125
 41
0.0
 71
     9
 72
     1
  1

  7
ACISOTS
  0
ENDBLK
  5
1646
330
1640
100
AcDbEntity
  8
0
100
AcDbBlockEnd
  0
ENDSEC
  0
SECTION
  2
ENTITIES
  0
LINE
  5
108F
330
1F
100
AcDbEntity
  8
AM_7
100
AcDbLine
 10
274.2843572672345
 20
161.483551743307
 30
0.0
 11
274.2843572672345
 21
185.683551743307
 31
0.0
  0
LINE
  5
1090
330
1F
100
AcDbEntity
  8
AM_7
100
AcDbLine
 10
306.2843572672345
 20
178.783551743307
 30
0.0
 11
306.2843572672345
 21
180.783551743307
 31
0.0
  0
LINE
  5
1091
330
1F
100
AcDbEntity
  8
AM_VIS
100
AcDbLine
 10
313.7843572672345
 20
176.033551743307
 30
0.0
 11
313.7843572672345
 21
184.283551743307
 31
0.0
  0
LINE
  5
1092
330
1F
100
AcDbEntity
  8
AM_7
100
AcDbLine
 10
288.2843572672345
 20
186.383551743307
 30
0.0
 11
288.2843572672345
 21
171.183551743307
 31
0.0
  0
LINE
  5
1093
330
1F
100
AcDbEntity
  8
AM_4
  6
HIDDEN2
100
AcDbLine
 10
286.2843572672345
 20
184.783551743307
 30
0.0
 11
286.2843572672345
 21
175.9306080181547
 31
0.0
  0
LINE
  5
1094
330
1F
100
AcDbEntity
  8
AM_4
  6
HIDDEN2
100
AcDbLine
 10
290.2843572672345
 20
184.783551743307
 30
0.0
 11
290.2843572672345
 21
175.9306080181547
 31
0.0
  0
CIRCLE
  5
1095
330
1F
100
AcDbEntity
  8
AM_VIS
100
AcDbCircle
 10
306.2843572672345
 20
179.783551743307
 30
0.0
 40
0.75
  0
CIRCLE
  5
1096
330
1F
100
AcDbEntity
  8
AM_VIS
100
AcDbCircle
 10
306.2843572672345
 20
179.783551743307
 30
0.0
 40
2.1
  0
ARC
  5
1097
330
1F
100
AcDbEntity
  8
AM_VIS
100
AcDbCircle
 10
306.2843572672345
 20
179.783551743307
 30
0.0
 40
4.25
100
AcDbArc
 50
298.0724869358549
 51
241.9275130641451
  0
ARC
  5
1098
330
1F
100
AcDbEntity
  8
AM_4
  6
HIDDEN2
100
AcDbCircle
 10
306.2843572672343
 20
179.7835517433071
 30
0.0
 40
2.5
100
AcDbArc
 50
260.0000000000013
 51
169.9999999999997
  0
LINE
  5
1099
330
1F
100
AcDbEntity
  8
AM_7
100
AcDbLine
 10
274.2843572672345
 20
178.933551743307
 30
0.0
 11
274.2843572672345
 21
179.983551743307
 31
0.0
  0
LINE
  5
109A
330
1F
100
AcDbEntity
  8
AM_VIS
100
AcDbLine
 10
255.2843572672345
 20
179.283551743307
 30
0.0
 11
255.2843572672345
 21
184.283551743307
 31
0.0
  0
LINE
  5
109B
330
1F
100
AcDbEntity
  8
AM_VIS
100
AcDbLine
 10
255.2843572672345
 20
179.283551743307
 30
0.0
 11
240.2843572672345
 21
179.283551743307
 31
0.0
  0
LINE
  5
109C
330
1F
100
AcDbEntity
  8
AM_VIS
100
AcDbLine
 10
240.2843572672345
 20
168.283551743307
 30
0.0
 11
255.2843572672345
 21
168.283551743307
 31
0.0
  0
LINE
  5
109D
330
1F
100
AcDbEntity
  8
AM_VIS
100
AcDbLine
 10
240.2843572672345
 20
179.283551743307
 30
0.0
 11
240.2843572672345
 21
168.283551743307
 31
0.0
  0
LINE
  5
109E
330
1F
100
AcDbEntity
  8
AM_7
100
AcDbLine
 10
243.2843572672345
 20
175.583551743307
 30
0.0
 11
243.2843572672345
 21
176.633551743307
 31
0.0
  0
LINE
  5
109F
330
1F
100
AcDbEntity
  8
AM_7
100
AcDbLine
 10
245.0843572672344
 20
173.783551743307
 30
0.0
 11
246.1343572672347
 21
173.783551743307
 31
0.0
  0
LINE
  5
10A0
330
1F
100
AcDbEntity
  8
AM_7
100
AcDbLine
 10
243.2843572672345
 20
170.933551743307
 30
0.0
 11
243.2843572672345
 21
171.983551743307
 31
0.0
  0
LINE
  5
10A1
330
1F
100
AcDbEntity
  8
AM_7
100
AcDbLine
 10
240.4343572672346
 20
173.783551743307
 30
0.0
 11
241.4843572672345
 21
173.783551743307
 31
0.0
  0
LINE
  5
10A2
330
1F
100
AcDbEntity
  8
AM_7
100
AcDbLine
 10
242.2843572672345
 20
173.783551743307
 30
0.0
 11
244.2843572672345
 21
173.783551743307
 31
0.0
  0
CIRCLE
  5
10A3
330
1F
100
AcDbEntity
  8
AM_VIS
100
AcDbCircle
 10
243.2843572672345
 20
173.783551743307
 30
0.0
 40
1.25
  0
LINE
  5
10A4
330
1F
100
AcDbEntity
  8
AM_7
100
AcDbLine
 10
243.2843572672345
 20
172.783551743307
 30
0.0
 11
243.2843572672345
 21
174.783551743307
 31
0.0
  0
LINE
  5
10A5
330
1F
100
AcDbEntity
  8
AM_VIS
100
AcDbLine
 10
313.7843572672345
 20
171.983551743307
 30
0.0
 11
283.2843572672345
 21
171.983551743307
 31
0.0
  0
LINE
  5
10A6
330
1F
100
AcDbEntity
  8
AM_VIS
100
AcDbLine
 10
283.2843572672345
 20
171.783551743307
 30
0.0
 11
313.7843572672345
 21
171.783551743307
 31
0.0
  0
LINE
  5
10A7
330
1F
100
AcDbEntity
  8
AM_VIS
100
AcDbLine
 10
283.2843572672345
 20
175.483551743307
 30
0.0
 11
313.7843572672345
 21
175.483551743307
 31
0.0
  0
LINE
  5
10A8
330
1F
100
AcDbEntity
  8
AM_VIS
100
AcDbLine
 10
313.7843572672345
 20
175.683551743307
 30
0.0
 11
283.2843572672345
 21
175.683551743307
 31
0.0
  0
LINE
  5
10A9
330
1F
100
AcDbEntity
  8
AM_VIS
100
AcDbLine
 10
287.8812443798196
 20
173.333551743307
 30
0.0
 11
283.2843572672345
 21
173.333551743307
 31
0.0
  0
LINE
  5
10AA
330
1F
100
AcDbEntity
  8
AM_VIS
100
AcDbLine
 10
283.2843572672345
 20
174.233551743307
 30
0.0
 11
287.8812443798196
 21
174.233551743307
 31
0.0
  0
LINE
  5
10AB
330
1F
100
AcDbEntity
  8
AM_VIS
100
AcDbLine
 10
283.2843572672345
 20
176.033551743307
 30
0.0
 11
304.2843572672345
 21
176.033551743307
 31
0.0
  0
LINE
  5
10AC
330
1F
100
AcDbEntity
  8
AM_VIS
100
AcDbLine
 10
289.7843572672345
 20
171.533551743307
 30
0.0
 11
283.2843572672345
 21
171.533551743307
 31
0.0
  0
LINE
  5
10AD
330
1F
100
AcDbEntity
  8
AM_VIS
100
AcDbLine
 10
255.2843572672345
 20
162.783551743307
 30
0.0
 11
313.7843572672345
 21
162.783551743307
 31
0.0
  0
LINE
  5
10AE
330
1F
100
AcDbEntity
  8
AM_7
100
AcDbLine
 10
284.8843572672346
 20
173.783551743307
 30
0.0
 11
274.1843572672346
 21
173.783551743307
 31
0.0
  0
LINE
  5
10AF
330
1F
100
AcDbEntity
  8
AM_VIS
100
AcDbLine
 10
255.2843572672345
 20
179.283551743307
 30
0.0
 11
271.7843572672345
 21
179.283551743307
 31
0.0
  0
LINE
  5
10B0
330
1F
100
AcDbEntity
  8
AM_VIS
100
AcDbLine
 10
271.7843572672345
 20
168.283551743307
 30
0.0
 11
255.2843572672345
 21
168.283551743307
 31
0.0
  0
LINE
  5
10B1
330
1F
100
AcDbEntity
  8
AM_VIS
100
AcDbLine
 10
260.2889030974997
 20
171.983551743307
 30
0.0
 11
273.1215283995116
 21
171.983551743307
 31
0.0
  0
LINE
  5
10B2
330
1F
100
AcDbEntity
  8
AM_VIS
100
AcDbLine
 10
257.7843572672345
 20
175.5835517433069
 30
0.0
 11
267.7843572672345
 21
175.5835517433069
 31
0.0
  0
LINE
  5
10B3
330
1F
100
AcDbEntity
  8
AM_VIS
100
AcDbLine
 10
258.2843572672345
 20
171.983551743307
 30
0.0
 11
258.2843572672345
 21
168.283551743307
 31
0.0
  0
LINE
  5
10B4
330
1F
100
AcDbEntity
  8
AM_VIS
100
AcDbLine
 10
257.7843572672345
 20
168.283551743307
 30
0.0
 11
257.7843572672345
 21
175.583551743307
 31
0.0
  0
LINE
  5
10B5
330
1F
100
AcDbEntity
  8
AM_VIS
100
AcDbLine
 10
255.2843572672345
 20
163.283551743307
 30
0.0
 11
255.2843572672345
 21
162.783551743307
 31
0.0
  0
LINE
  5
10B6
330
1F
100
AcDbEntity
  8
AM_VIS
100
AcDbLine
 10
255.2843572672345
 20
163.283551743307
 30
0.0
 11
255.2843572672345
 21
168.283551743307
 31
0.0
  0
LINE
  5
10B7
330
1F
100
AcDbEntity
  8
AM_7
100
AcDbLine
 10
251.2843572672345
 20
175.583551743307
 30
0.0
 11
251.2843572672345
 21
176.633551743307
 31
0.0
  0
LINE
  5
10B8
330
1F
100
AcDbEntity
  8
AM_7
100
AcDbLine
 10
253.0843572672345
 20
173.783551743307
 30
0.0
 11
254.1343572672346
 21
173.783551743307
 31
0.0
  0
LINE
  5
10B9
330
1F
100
AcDbEntity
  8
AM_7
100
AcDbLine
 10
250.2843572672345
 20
173.783551743307
 30
0.0
 11
252.2843572672345
 21
173.783551743307
 31
0.0
  0
LINE
  5
10BA
330
1F
100
AcDbEntity
  8
AM_7
100
AcDbLine
 10
251.2843572672345
 20
170.933551743307
 30
0.0
 11
251.2843572672345
 21
171.983551743307
 31
0.0
  0
CIRCLE
  5
10BB
330
1F
100
AcDbEntity
  8
AM_VIS
100
AcDbCircle
 10
251.2843572672345
 20
173.783551743307
 30
0.0
 40
1.25
  0
LINE
  5
10BC
330
1F
100
AcDbEntity
  8
AM_7
100
AcDbLine
 10
251.2843572672345
 20
172.783551743307
 30
0.0
 11
251.2843572672345
 21
174.783551743307
 31
0.0
  0
LINE
  5
10BD
330
1F
100
AcDbEntity
  8
AM_7
100
AcDbLine
 10
248.4343572672346
 20
173.783551743307
 30
0.0
 11
249.4843572672345
 21
173.783551743307
 31
0.0
  0
LINE
  5
10BE
330
1F
100
AcDbEntity
  8
AM_VIS
100
AcDbLine
 10
260.2889030974995
 20
171.983551743307
 30
0.0
 11
258.2843572672345
 21
171.983551743307
 31
0.0
  0
LINE
  5
10BF
330
1F
100
AcDbEntity
  8
AM_VIS
100
AcDbLine
 10
258.2843572672345
 20
171.983551743307
 30
0.0
 11
257.7843572672345
 21
171.983551743307
 31
0.0
  0
LINE
  5
10C0
330
1F
100
AcDbEntity
  8
AM_VIS
100
AcDbLine
 10
258.6339831478546
 20
175.583551743307
 30
0.0
 11
258.6339831478546
 21
171.983551743307
 31
0.0
  0
LINE
  5
10C1
330
1F
100
AcDbEntity
  8
AM_VIS
100
AcDbLine
 10
282.5447992418512
 20
169.583551743307
 30
0.0
 11
282.5447992418512
 21
172.083551743307
 31
0.0
  0
LINE
  5
10C2
330
1F
100
AcDbEntity
  8
AM_VIS
100
AcDbLine
 10
280.3669329621905
 20
171.9835517433069
 30
0.0
 11
280.3669329621905
 21
169.583551743307
 31
0.0
  0
LINE
  5
10C3
330
1F
100
AcDbEntity
  8
AM_VIS
100
AcDbLine
 10
279.9843572672346
 20
169.583551743307
 30
0.0
 11
279.9843572672346
 21
171.983551743307
 31
0.0
  0
LINE
  5
10C4
330
1F
100
AcDbEntity
  8
AM_VIS
100
AcDbLine
 10
283.2843572672345
 20
171.533551743307
 30
0.0
 11
283.2843572672345
 21
169.283551743307
 31
0.0
  0
LINE
  5
10C5
330
1F
100
AcDbEntity
  8
AM_VIS
100
AcDbLine
 10
277.5262378148068
 20
169.583551743307
 30
0.0
 11
277.5262378148068
 21
171.983551743307
 31
0.0
  0
LINE
  5
10C6
330
1F
100
AcDbEntity
  8
AM_VIS
100
AcDbLine
 10
272.7843572672345
 20
169.2835517433069
 30
0.0
 11
272.7843572672345
 21
171.983551743307
 31
0.0
  0
LINE
  5
10C7
330
1F
100
AcDbEntity
  8
AM_VIS
100
AcDbLine
 10
275.7843572672345
 20
169.283551743307
 30
0.0
 11
275.7843572672345
 21
171.983551743307
 31
0.0
  0
LINE
  5
10C8
330
1F
100
AcDbEntity
  8
AM_7
100
AcDbLine
 10
278.4843572672345
 20
167.983551743307
 30
0.0
 11
278.4843572672345
 21
179.583551743307
 31
0.0
  0
LINE
  5
10C9
330
1F
100
AcDbEntity
  8
AM_VIS
100
AcDbLine
 10
270.2843572672345
 20
168.283551743307
 30
0.0
 11
270.2843572672345
 21
171.983551743307
 31
0.0
  0
LINE
  5
10CA
330
1F
100
AcDbEntity
  8
AM_VIS
100
AcDbLine
 10
267.7843572672345
 20
171.983551743307
 30
0.0
 11
267.7843572672345
 21
168.283551743307
 31
0.0
  0
LINE
  5
10CB
330
1F
100
AcDbEntity
  8
AM_VIS
100
AcDbLine
 10
283.2843572672345
 20
169.283551743307
 30
0.0
 11
271.7843572672345
 21
169.283551743307
 31
0.0
  0
LINE
  5
10CC
330
1F
100
AcDbEntity
  8
AM_7
100
AcDbLine
 10
274.2843572672345
 20
162.933551743307
 30
0.0
 11
274.2843572672345
 21
163.983551743307
 31
0.0
  0
CIRCLE
  5
10CD
330
1F
100
AcDbEntity
  8
AM_VIS
100
AcDbCircle
 10
274.2843572672345
 20
165.783551743307
 30
0.0
 40
1.25
  0
LINE
  5
10CE
330
1F
100
AcDbEntity
  8
AM_7
100
AcDbLine
 10
274.2843572672345
 20
164.783551743307
 30
0.0
 11
274.2843572672345
 21
166.783551743307
 31
0.0
  0
LINE
  5
10CF
330
1F
100
AcDbEntity
  8
AM_7
100
AcDbLine
 10
274.2843572672345
 20
167.583551743307
 30
0.0
 11
274.2843572672345
 21
168.633551743307
 31
0.0
  0
LINE
  5
10D0
330
1F
100
AcDbEntity
  8
AM_7
100
AcDbLine
 10
273.2843572672345
 20
165.783551743307
 30
0.0
 11
275.2843572672345
 21
165.783551743307
 31
0.0
  0
LINE
  5
10D1
330
1F
100
AcDbEntity
  8
AM_VIS
100
AcDbLine
 10
271.7843572672345
 20
169.283551743307
 30
0.0
 11
271.7843572672345
 21
168.283551743307
 31
0.0
  0
LINE
  5
10D2
330
1F
100
AcDbEntity
  8
AM_VIS
100
AcDbLine
 10
272.7843572672345
 20
169.583551743307
 30
0.0
 11
270.2843572672345
 21
169.583551743307
 31
0.0
  0
LINE
  5
10D3
330
1F
100
AcDbEntity
  8
AM_7
100
AcDbLine
 10
271.4343572672346
 20
165.783551743307
 30
0.0
 11
272.4843572672345
 21
165.783551743307
 31
0.0
  0
LINE
  5
10D4
330
1F
100
AcDbEntity
  8
AM_VIS
100
AcDbLine
 10
280.3669329621905
 20
169.5835517433071
 30
0.0
 11
279.9843572672346
 21
169.583551743307
 31
0.0
  0
LINE
  5
10D5
330
1F
100
AcDbEntity
  8
AM_VIS
100
AcDbLine
 10
280.3669329621905
 20
169.583551743307
 30
0.0
 11
282.5447992418512
 21
169.583551743307
 31
0.0
  0
LINE
  5
10D6
330
1F
100
AcDbEntity
  8
AM_VIS
100
AcDbLine
 10
279.7843572672345
 20
169.383551743307
 30
0.0
 11
279.9843572672346
 21
169.583551743307
 31
0.0
  0
LINE
  5
10D7
330
1F
100
AcDbEntity
  8
AM_VIS
100
AcDbLine
 10
275.7843572672345
 20
169.583551743307
 30
0.0
 11
277.5262378148068
 21
169.583551743307
 31
0.0
  0
LINE
  5
10D8
330
1F
100
AcDbEntity
  8
AM_7
100
AcDbLine
 10
276.0843572672345
 20
165.783551743307
 30
0.0
 11
277.1343572672344
 21
165.783551743307
 31
0.0
  0
LINE
  5
10D9
330
1F
100
AcDbEntity
  8
AM_VIS
100
AcDbLine
 10
277.1843572672344
 20
169.383551743307
 30
0.0
 11
276.9843572672346
 21
169.583551743307
 31
0.0
  0
LINE
  5
10DA
330
1F
100
AcDbEntity
  8
AM_VIS
100
AcDbLine
 10
279.7843572672345
 20
169.383551743307
 30
0.0
 11
277.1843572672346
 21
169.383551743307
 31
0.0
  0
LINE
  5
10DB
330
1F
100
AcDbEntity
  8
AM_VIS
100
AcDbLine
 10
277.5262378148068
 20
169.583551743307
 30
0.0
 11
279.9843572672346
 21
169.583551743307
 31
0.0
  0
LINE
  5
10DC
330
1F
100
AcDbEntity
  8
AM_VIS
100
AcDbLine
 10
277.561038146707
 20
177.983551743307
 30
0.0
 11
273.1215283995116
 21
177.983551743307
 31
0.0
  0
LINE
  5
10DD
330
1F
100
AcDbEntity
  8
AM_VIS
100
AcDbLine
 10
273.1215283995116
 20
171.983551743307
 30
0.0
 11
277.561038146707
 21
171.983551743307
 31
0.0
  0
LINE
  5
10DE
330
1F
100
AcDbEntity
  8
AM_VIS
100
AcDbLine
 10
271.7843572672345
 20
178.283551743307
 30
0.0
 11
283.2843572672345
 21
178.283551743307
 31
0.0
  0
LINE
  5
10DF
330
1F
100
AcDbEntity
  8
AM_VIS
100
AcDbLine
 10
272.7843572672345
 20
177.983551743307
 30
0.0
 11
272.7843572672345
 21
178.2835517433069
 31
0.0
  0
LINE
  5
10E0
330
1F
100
AcDbEntity
  8
AM_VIS
100
AcDbLine
 10
273.1215283995116
 20
177.983551743307
 30
0.0
 11
273.1215283995116
 21
171.983551743307
 31
0.0
  0
LINE
  5
10E1
330
1F
100
AcDbEntity
  8
AM_VIS
100
AcDbLine
 10
271.7843572672345
 20
179.283551743307
 30
0.0
 11
271.7843572672345
 21
178.283551743307
 31
0.0
  0
LINE
  5
10E2
330
1F
100
AcDbEntity
  8
AM_VIS
100
AcDbLine
 10
269.2392450314205
 20
175.583551743307
 30
0.0
 11
268.247737047825
 21
175.583551743307
 31
0.0
  0
LINE
  5
10E3
330
1F
100
AcDbEntity
  8
AM_VIS
100
AcDbLine
 10
269.2392450314205
 20
177.983551743307
 30
0.0
 11
269.2392450314205
 21
175.583551743307
 31
0.0
  0
LINE
  5
10E4
330
1F
100
AcDbEntity
  8
AM_VIS
100
AcDbLine
 10
267.7843572672345
 20
175.583551743307
 30
0.0
 11
268.247737047825
 21
175.583551743307
 31
0.0
  0
LINE
  5
10E5
330
1F
100
AcDbEntity
  8
AM_VIS
100
AcDbLine
 10
267.7843572672345
 20
179.283551743307
 30
0.0
 11
267.7843572672345
 21
175.583551743307
 31
0.0
  0
LINE
  5
10E6
330
1F
100
AcDbEntity
  8
AM_VIS
100
AcDbLine
 10
270.2843572672345
 20
177.983551743307
 30
0.0
 11
270.2843572672345
 21
179.2835517433069
 31
0.0
  0
LINE
  5
10E7
330
1F
100
AcDbEntity
  8
AM_VIS
100
AcDbLine
 10
273.1215283995116
 20
177.983551743307
 30
0.0
 11
269.2392450314205
 21
177.983551743307
 31
0.0
  0
LINE
  5
10E8
330
1F
100
AcDbEntity
  8
AM_VIS
100
AcDbLine
 10
283.2843572672345
 20
175.683551743307
 30
0.0
 11
283.2843572672345
 21
176.033551743307
 31
0.0
  0
LINE
  5
10E9
330
1F
100
AcDbEntity
  8
AM_VIS
100
AcDbLine
 10
283.2843572672345
 20
175.483551743307
 30
0.0
 11
283.2843572672345
 21
174.233551743307
 31
0.0
  0
LINE
  5
10EA
330
1F
100
AcDbEntity
  8
AM_VIS
100
AcDbLine
 10
283.2843572672345
 20
175.483551743307
 30
0.0
 11
283.2843572672345
 21
175.683551743307
 31
0.0
  0
LINE
  5
10EB
330
1F
100
AcDbEntity
  8
AM_VIS
100
AcDbLine
 10
282.5447992418512
 20
177.983551743307
 30
0.0
 11
282.5447992418512
 21
175.483551743307
 31
0.0
  0
LINE
  5
10EC
330
1F
100
AcDbEntity
  8
AM_VIS
100
AcDbLine
 10
283.2843572672345
 20
175.283551743307
 30
0.0
 11
280.4548349116294
 21
175.283551743307
 31
0.0
  0
LINE
  5
10ED
330
1F
100
AcDbEntity
  8
AM_VIS
100
AcDbLine
 10
280.4548349116294
 20
175.483551743307
 30
0.0
 11
282.5447992418512
 21
175.4835517433069
 31
0.0
  0
LINE
  5
10EE
330
1F
100
AcDbEntity
  8
AM_VIS
100
AcDbLine
 10
283.2843572672345
 20
178.283551743307
 30
0.0
 11
283.2843572672345
 21
176.033551743307
 31
0.0
  0
LINE
  5
10EF
330
1F
100
AcDbEntity
  8
AM_VIS
100
AcDbLine
 10
279.7843572672345
 20
178.183551743307
 30
0.0
 11
279.9843572672346
 21
177.983551743307
 31
0.0
  0
LINE
  5
10F0
330
1F
100
AcDbEntity
  8
AM_VIS
100
AcDbLine
 10
277.1843572672346
 20
178.183551743307
 30
0.0
 11
276.9843572672346
 21
177.983551743307
 31
0.0
  0
LINE
  5
10F1
330
1F
100
AcDbEntity
  8
AM_VIS
100
AcDbLine
 10
275.7843572672345
 20
177.983551743307
 30
0.0
 11
275.7843572672345
 21
178.2835517433069
 31
0.0
  0
LINE
  5
10F2
330
1F
100
AcDbEntity
  8
AM_VIS
100
AcDbLine
 10
282.5447992418512
 20
177.9835517433069
 30
0.0
 11
277.561038146707
 21
177.983551743307
 31
0.0
  0
LINE
  5
10F3
330
1F
100
AcDbEntity
  8
AM_VIS
100
AcDbLine
 10
277.1843572672346
 20
178.183551743307
 30
0.0
 11
279.7843572672345
 21
178.183551743307
 31
0.0
  0
LINE
  5
10F4
330
1F
100
AcDbEntity
  8
AM_VIS
100
AcDbLine
 10
283.2843572672345
 20
171.533551743307
 30
0.0
 11
283.2843572672345
 21
171.783551743307
 31
0.0
  0
LINE
  5
10F5
330
1F
100
AcDbEntity
  8
AM_VIS
100
AcDbLine
 10
283.2843572672345
 20
171.783551743307
 30
0.0
 11
283.2843572672345
 21
171.983551743307
 31
0.0
  0
LINE
  5
10F6
330
1F
100
AcDbEntity
  8
AM_VIS
100
AcDbLine
 10
283.2843572672345
 20
173.333551743307
 30
0.0
 11
283.2843572672345
 21
171.983551743307
 31
0.0
  0
LINE
  5
10F7
330
1F
100
AcDbEntity
  8
AM_VIS
100
AcDbLine
 10
280.4548349116294
 20
172.283551743307
 30
0.0
 11
283.2843572672345
 21
172.283551743307
 31
0.0
  0
LINE
  5
10F8
330
1F
100
AcDbEntity
  8
AM_VIS
100
AcDbLine
 10
282.5447992418512
 20
172.083551743307
 30
0.0
 11
280.4548349116296
 21
172.083551743307
 31
0.0
  0
LINE
  5
10F9
330
1F
100
AcDbEntity
  8
AM_VIS
100
AcDbLine
 10
277.561038146707
 20
171.983551743307
 30
0.0
 11
280.4548349116294
 21
171.983551743307
 31
0.0
  0
LINE
  5
10FA
330
1F
100
AcDbEntity
  8
AM_VIS
100
AcDbLine
 10
283.2843572672345
 20
174.233551743307
 30
0.0
 11
283.2843572672345
 21
173.333551743307
 31
0.0
  0
LINE
  5
10FB
330
1F
100
AcDbEntity
  8
AM_VIS
100
AcDbLine
 10
277.561038146707
 20
171.983551743307
 30
0.0
 11
277.561038146707
 21
177.983551743307
 31
0.0
  0
LINE
  5
10FC
330
1F
100
AcDbEntity
  8
AM_VIS
100
AcDbLine
 10
280.4548349116294
 20
171.983551743307
 30
0.0
 11
280.4548349116294
 21
175.483551743307
 31
0.0
  0
LINE
  5
10FD
330
1F
100
AcDbEntity
  8
AM_VIS
100
AcDbLine
 10
288.6874701546496
 20
174.233551743307
 30
0.0
 11
313.7843572672345
 21
174.233551743307
 31
0.0
  0
LINE
  5
10FE
330
1F
100
AcDbEntity
  8
AM_VIS
100
AcDbLine
 10
313.7843572672345
 20
173.333551743307
 30
0.0
 11
288.6874701546496
 21
173.333551743307
 31
0.0
  0
LINE
  5
10FF
330
1F
100
AcDbEntity
  8
AM_VIS
100
AcDbLine
 10
313.7843572672345
 20
171.533551743307
 30
0.0
 11
293.7843572672345
 21
171.533551743307
 31
0.0
  0
LINE
  5
1100
330
1F
100
AcDbEntity
  8
AM_7
100
AcDbLine
 10
308.3843572672346
 20
173.783551743307
 30
0.0
 11
289.4843572672346
 21
173.783551743307
 31
0.0
  0
LINE
  5
1101
330
1F
100
AcDbEntity
  8
AM_7
100
AcDbLine
 10
291.7843572672345
 20
169.583551743307
 30
0.0
 11
291.7843572672345
 21
173.633551743307
 31
0.0
  0
CIRCLE
  5
1102
330
1F
100
AcDbEntity
  8
AM_VIS
100
AcDbCircle
 10
291.7843572672345
 20
167.783551743307
 30
0.0
 40
2.1
  0
ARC
  5
1103
330
1F
100
AcDbEntity
  8
AM_VIS
100
AcDbCircle
 10
291.7843572672345
 20
167.783551743307
 30
0.0
 40
4.25
100
AcDbArc
 50
118.0724869358548
 51
61.92751306414512
  0
LINE
  5
1104
330
1F
100
AcDbEntity
  8
AM_7
100
AcDbLine
 10
293.5843572672345
 20
167.783551743307
 30
0.0
 11
297.6343572672346
 21
167.783551743307
 31
0.0
  0
LINE
  5
1105
330
1F
100
AcDbEntity
  8
AM_7
100
AcDbLine
 10
291.7843572672345
 20
166.783551743307
 30
0.0
 11
291.7843572672345
 21
168.783551743307
 31
0.0
  0
CIRCLE
  5
1106
330
1F
100
AcDbEntity
  8
AM_VIS
100
AcDbCircle
 10
291.7843572672345
 20
167.783551743307
 30
0.0
 40
0.75
  0
LINE
  5
1107
330
1F
100
AcDbEntity
  8
AM_7
100
AcDbLine
 10
290.7843572672345
 20
167.783551743307
 30
0.0
 11
292.7843572672345
 21
167.783551743307
 31
0.0
  0
LINE
  5
1108
330
1F
100
AcDbEntity
  8
AM_7
100
AcDbLine
 10
285.9343572672346
 20
167.783551743307
 30
0.0
 11
289.9843572672346
 21
167.783551743307
 31
0.0
  0
LINE
  5
1109
330
1F
100
AcDbEntity
  8
AM_7
100
AcDbLine
 10
291.7843572672345
 20
161.933551743307
 30
0.0
 11
291.7843572672345
 21
165.983551743307
 31
0.0
  0
SPLINE
  5
110A
330
1F
100
AcDbEntity
  8
AM_VIS
100
AcDbSpline
210
0.0
220
0.0
230
1.0
 70
     8
 71
     3
 72
    18
 73
    14
 74
     0
 42
0.0000000001
 43
0.0000000001
 40
6.20716094923045
 40
6.20716094923045
 40
6.20716094923045
 40
6.20716094923045
 40
6.374622753626944
 40
6.374622753626944
 40
6.542084558023439
 40
6.542084558023439
 40
6.877008166816427
 40
6.877008166816427
 40
7.211931775609415
 40
7.211931775609415
 40
7.546855384402403
 40
7.546855384402403
 40
7.879229741459408
 40
7.879229741459408
 40
7.879229741459408
 40
7.879229741459408
 10
287.8812443798196
 20
174.233551743307
 30
0.0
 10
287.8812443798196
 20
174.2893723447725
 30
0.0
 10
287.8705168419705
 20
174.3401252809109
 30
0.0
 10
287.8378094572603
 20
174.4366912155412
 30
0.0
 10
287.8158028902671
 20
174.4824914844359
 30
0.0
 10
287.7403100151514
 20
174.6173748116256
 30
0.0
 10
287.6779121696306
 20
174.7036340861634
 30
0.0
 10
287.5448245006591
 20
174.8754248050688
 30
0.0
 10
287.474290762115
 20
174.9598440780584
 30
0.0
 10
287.3351933554606
 20
175.1222215784494
 30
0.0
 10
287.2665571487227
 20
175.2001029152672
 30
0.0
 10
287.1385747160477
 20
175.3441097684574
 30
0.0
 10
287.0743435817196
 20
175.4156681861395
 30
0.0
 10
287.0133598744614
 20
175.483551743307
 30
0.0
  0
SPLINE
  5
110B
330
1F
100
AcDbEntity
  8
AM_VIS
100
AcDbSpline
210
0.0
220
0.0
230
1.0
 70
     8
 71
     3
 72
    18
 73
    14
 74
     0
 42
0.0000000001
 43
0.0000000001
 40
4.53509215700146
 40
4.53509215700146
 40
4.53509215700146
 40
4.53509215700146
 40
4.867466514058497
 40
4.867466514058497
 40
5.202390122851485
 40
5.202390122851485
 40
5.537313731644474
 40
5.537313731644474
 40
5.872237340437462
 40
5.872237340437462
 40
6.039699144833956
 40
6.039699144833956
 40
6.20716094923045
 40
6.20716094923045
 40
6.20716094923045
 40
6.20716094923045
 10
289.5553546600076
 20
175.483551743307
 30
0.0
 10
289.4943709527495
 20
175.4156681861395
 30
0.0
 10
289.4301398184213
 20
175.3441097684574
 30
0.0
 10
289.3021573857463
 20
175.2001029152672
 30
0.0
 10
289.2335211790084
 20
175.1222215784494
 30
0.0
 10
289.094423772354
 20
174.9598440780584
 30
0.0
 10
289.0238900338101
 20
174.8754248050688
 30
0.0
 10
288.8908023648384
 20
174.7036340861634
 30
0.0
 10
288.8284045193179
 20
174.6173748116256
 30
0.0
 10
288.7529116442019
 20
174.4824914844359
 30
0.0
 10
288.7309050772087
 20
174.4366912155412
 30
0.0
 10
288.6981976924985
 20
174.3401252809109
 30
0.0
 10
288.6874701546496
 20
174.2893723447725
 30
0.0
 10
288.6874701546496
 20
174.233551743307
 30
0.0
  0
LINE
  5
110C
330
1F
100
AcDbEntity
  8
AM_VIS
100
AcDbLine
 10
293.7843572672345
 20
171.533551743307
 30
0.0
 11
289.7843572672345
 21
171.533551743307
 31
0.0
  0
SPLINE
  5
110D
330
1F
100
AcDbEntity
  8
AM_VIS
100
AcDbSpline
210
0.0
220
0.0
230
1.0
 70
     8
 71
     3
 72
    12
 73
     8
 74
     0
 42
0.0000000001
 43
0.0000000001
 40
16.75237192753007
 40
16.75237192753007
 40
16.75237192753007
 40
16.75237192753007
 40
16.91983373192656
 40
16.91983373192656
 40
17.08729553632306
 40
17.08729553632306
 40
17.41445153648163
 40
17.41445153648163
 40
17.41445153648163
 40
17.41445153648163
 10
288.6874701546496
 20
173.333551743307
 30
0.0
 10
288.6874701546496
 20
173.2777311418415
 30
0.0
 10
288.6981976924985
 20
173.2269782057031
 30
0.0
 10
288.7309050772087
 20
173.1304122710727
 30
0.0
 10
288.7529116442019
 20
173.084612002178
 30
0.0
 10
288.8272372897501
 20
172.9518141672606
 30
0.0
 10
288.8879417540095
 20
172.8674944564135
 30
0.0
 10
288.9527240518991
 20
172.783551743307
 30
0.0
  0
SPLINE
  5
110E
330
1F
100
AcDbEntity
  8
AM_VIS
100
AcDbSpline
210
0.0
220
0.0
230
1.0
 70
     8
 71
     3
 72
    14
 73
    10
 74
     0
 42
0.0000000001
 43
0.0000000001
 40
11.89447888049887
 40
11.89447888049887
 40
11.89447888049887
 40
11.89447888049887
 40
11.97448100923568
 40
11.97448100923568
 40
12.56626784651063
 40
12.56626784651063
 40
13.15805468378556
 40
13.15805468378556
 40
13.23805681181601
 40
13.23805681181601
 40
13.23805681181601
 40
13.23805681181601
 10
287.6159904818603
 20
172.7835517435435
 30
0.0
 10
287.6424252263507
 20
172.7756297251532
 30
0.0
 10
287.668863083473
 20
172.7680203215794
 30
0.0
 10
287.8909153691129
 20
172.7070678122804
 30
0.0
 10
288.087094988143
 20
172.6733290614257
 30
0.0
 10
288.481619546326
 20
172.6733290614257
 30
0.0
 10
288.6777991653561
 20
172.7070678122804
 30
0.0
 10
288.8998514507627
 20
172.7680203215153
 30
0.0
 10
288.9262893076418
 20
172.7756297249929
 30
0.0
 10
288.9527240518991
 20
172.783551743307
 30
0.0
  0
SPLINE
  5
110F
330
1F
100
AcDbEntity
  8
AM_VIS
100
AcDbSpline
210
0.0
220
0.0
230
1.0
 70
     8
 71
     3
 72
    12
 73
     8
 74
     0
 42
0.0000000001
 43
0.0000000001
 40
4.922044366629528
 40
4.922044366629528
 40
4.922044366629528
 40
4.922044366629528
 40
5.249200367050367
 40
5.249200367050367
 40
5.416662171446862
 40
5.416662171446862
 40
5.584123975843357
 40
5.584123975843357
 40
5.584123975843357
 40
5.584123975843357
 10
287.6159904824144
 20
172.7835517431054
 30
0.0
 10
287.680799961887
 20
172.8674724517794
 30
0.0
 10
287.7414772446795
 20
172.9518141671902
 30
0.0
 10
287.8158028902671
 20
173.084612002178
 30
0.0
 10
287.8378094572603
 20
173.1304122710727
 30
0.0
 10
287.8705168419705
 20
173.2269782057031
 30
0.0
 10
287.8812443798196
 20
173.2777311418415
 30
0.0
 10
287.8812443798196
 20
173.333551743307
 30
0.0
  0
LINE
  5
1110
330
1F
100
AcDbEntity
  8
AM_VIS
100
AcDbLine
 10
288.9527240518991
 20
172.783551743307
 30
0.0
 11
287.6159904819401
 21
172.783551743307
 31
0.0
  0
LINE
  5
1111
330
1F
100
AcDbEntity
  8
AM_VIS
100
AcDbLine
 10
288.6874701546496
 20
174.233551743307
 30
0.0
 11
288.6874701546496
 21
173.333551743307
 31
0.0
  0
LINE
  5
1112
330
1F
100
AcDbEntity
  8
AM_VIS
100
AcDbLine
 10
287.8812443798196
 20
173.333551743307
 30
0.0
 11
287.8812443798196
 21
174.233551743307
 31
0.0
  0
LINE
  5
1113
330
1F
100
AcDbEntity
  8
AM_VIS
100
AcDbLine
 10
313.7843572672345
 20
163.283551743307
 30
0.0
 11
313.7843572672345
 21
171.533551743307
 31
0.0
  0
LINE
  5
1114
330
1F
100
AcDbEntity
  8
AM_VIS
100
AcDbLine
 10
313.7843572672345
 20
162.783551743307
 30
0.0
 11
313.7843572672345
 21
163.283551743307
 31
0.0
  0
LINE
  5
1115
330
1F
100
AcDbEntity
  8
AM_VIS
100
AcDbLine
 10
308.2843572672345
 20
176.033551743307
 30
0.0
 11
313.7843572672345
 21
176.033551743307
 31
0.0
  0
LINE
  5
1116
330
1F
100
AcDbEntity
  8
AM_7
100
AcDbLine
 10
306.2843572672345
 20
173.933551743307
 30
0.0
 11
306.2843572672345
 21
177.983551743307
 31
0.0
  0
LINE
  5
1117
330
1F
100
AcDbEntity
  8
AM_VIS
100
AcDbLine
 10
304.2843572672345
 20
176.033551743307
 30
0.0
 11
308.2843572672345
 21
176.033551743307
 31
0.0
  0
LINE
  5
1118
330
1F
100
AcDbEntity
  8
AM_VIS
100
AcDbLine
 10
313.7843572672345
 20
176.033551743307
 30
0.0
 11
313.7843572672345
 21
175.683551743307
 31
0.0
  0
LINE
  5
1119
330
1F
100
AcDbEntity
  8
AM_VIS
100
AcDbLine
 10
313.7843572672345
 20
175.683551743307
 30
0.0
 11
313.7843572672345
 21
175.483551743307
 31
0.0
  0
LINE
  5
111A
330
1F
100
AcDbEntity
  8
AM_VIS
100
AcDbLine
 10
313.7843572672345
 20
174.233551743307
 30
0.0
 11
313.7843572672345
 21
175.483551743307
 31
0.0
  0
LINE
  5
111B
330
1F
100
AcDbEntity
  8
AM_VIS
100
AcDbLine
 10
313.7843572672345
 20
171.783551743307
 30
0.0
 11
313.7843572672345
 21
171.533551743307
 31
0.0
  0
LINE
  5
111C
330
1F
100
AcDbEntity
  8
AM_VIS
100
AcDbLine
 10
313.7843572672345
 20
171.983551743307
 30
0.0
 11
313.7843572672345
 21
173.333551743307
 31
0.0
  0
LINE
  5
111D
330
1F
100
AcDbEntity
  8
AM_VIS
100
AcDbLine
 10
313.7843572672345
 20
171.983551743307
 30
0.0
 11
313.7843572672345
 21
171.783551743307
 31
0.0
  0
LINE
  5
111E
330
1F
100
AcDbEntity
  8
AM_VIS
100
AcDbLine
 10
313.7843572672345
 20
174.233551743307
 30
0.0
 11
313.7843572672345
 21
173.333551743307
 31
0.0
  0
LINE
  5
111F
330
1F
100
AcDbEntity
  8
AM_VIS
100
AcDbLine
 10
240.2843572672345
 20
260.8437247846445
 30
0.0
 11
254.7843572672345
 21
260.8437247846445
 31
0.0
  0
LINE
  5
1120
330
1F
100
AcDbEntity
  8
AM_VIS
100
AcDbLine
 10
240.2843572672345
 20
265.8437247846445
 30
0.0
 11
255.2843572672345
 21
265.8437247846445
 31
0.0
  0
LINE
  5
1121
330
1F
100
AcDbEntity
  8
AM_VIS
100
AcDbLine
 10
254.7843572672345
 20
237.8437247846445
 30
0.0
 11
240.2843572672345
 21
237.8437247846445
 31
0.0
  0
LINE
  5
1122
330
1F
100
AcDbEntity
  8
AM_VIS
100
AcDbLine
 10
255.2843572672345
 20
232.8437247846445
 30
0.0
 11
240.2843572672345
 21
232.8437247846445
 31
0.0
  0
LINE
  5
1123
330
1F
100
AcDbEntity
  8
AM_VIS
100
AcDbLine
 10
240.2843572672345
 20
232.8437247846445
 30
0.0
 11
240.2843572672345
 21
237.8437247846445
 31
0.0
  0
LINE
  5
1124
330
1F
100
AcDbEntity
  8
AM_VIS
100
AcDbLine
 10
240.2843572672345
 20
260.8437247846445
 30
0.0
 11
240.2843572672345
 21
265.8437247846445
 31
0.0
  0
LINE
  5
1125
330
1F
100
AcDbEntity
  8
AM_VIS
100
AcDbLine
 10
255.2843572672345
 20
232.8437247846445
 30
0.0
 11
255.2843572672345
 21
265.8437247846445
 31
0.0
  0
LINE
  5
1126
330
1F
100
AcDbEntity
  8
AM_VIS
100
AcDbLine
 10
313.7843572672345
 20
232.8437247846445
 30
0.0
 11
313.7843572672345
 21
265.8437247846445
 31
0.0
  0
LINE
  5
1127
330
1F
100
AcDbEntity
  8
AM_7
100
AcDbLine
 10
265.2843572672345
 20
240.4937247846445
 30
0.0
 11
265.2843572672345
 21
241.7937247846444
 31
0.0
  0
LINE
  5
1128
330
1F
100
AcDbEntity
  8
AM_VIS
100
AcDbLine
 10
254.7843572672345
 20
245.3437247846445
 30
0.0
 11
254.7843572672345
 21
237.8437247846445
 31
0.0
  0
LINE
  5
1129
330
1F
100
AcDbEntity
  8
AM_VIS
100
AcDbLine
 10
313.7843572672345
 20
184.783551743307
 30
0.0
 11
255.2843572672345
 21
184.783551743307
 31
0.0
  0
LINE
  5
112A
330
1F
100
AcDbEntity
  8
AM_VIS
100
AcDbLine
 10
255.2843572672345
 20
232.3437247846445
 30
0.0
 11
313.7843572672345
 21
232.3437247846445
 31
0.0
  0
LINE
  5
112B
330
1F
100
AcDbEntity
  8
AM_VIS
100
AcDbLine
 10
255.2843572672345
 20
184.783551743307
 30
0.0
 11
255.2843572672345
 21
184.283551743307
 31
0.0
  0
LINE
  5
112C
330
1F
100
AcDbEntity
  8
AM_7
100
AcDbLine
 10
274.2843572672345
 20
183.583551743307
 30
0.0
 11
274.2843572672345
 21
184.633551743307
 31
0.0
  0
LINE
  5
112D
330
1F
100
AcDbEntity
  8
AM_7
100
AcDbLine
 10
273.2843572672345
 20
181.783551743307
 30
0.0
 11
275.2843572672345
 21
181.783551743307
 31
0.0
  0
LINE
  5
112E
330
1F
100
AcDbEntity
  8
AM_7
100
AcDbLine
 10
271.4343572672346
 20
181.783551743307
 30
0.0
 11
272.4843572672345
 21
181.783551743307
 31
0.0
  0
CIRCLE
  5
112F
330
1F
100
AcDbEntity
  8
AM_VIS
100
AcDbCircle
 10
274.2843572672345
 20
181.783551743307
 30
0.0
 40
1.25
  0
LINE
  5
1130
330
1F
100
AcDbEntity
  8
AM_7
100
AcDbLine
 10
274.2843572672345
 20
180.783551743307
 30
0.0
 11
274.2843572672345
 21
182.783551743307
 31
0.0
  0
LINE
  5
1131
330
1F
100
AcDbEntity
  8
AM_7
100
AcDbLine
 10
276.0843572672345
 20
181.783551743307
 30
0.0
 11
277.1343572672344
 21
181.783551743307
 31
0.0
  0
LINE
  5
1132
330
1F
100
AcDbEntity
  8
AM_VIS
100
AcDbLine
 10
255.2843572672345
 20
232.8437247846445
 30
0.0
 11
255.2843572672345
 21
232.3437247846445
 31
0.0
  0
CIRCLE
  5
1133
330
1F
100
AcDbEntity
  8
AM_VIS
100
AcDbCircle
 10
274.2843572672345
 20
236.8437247846445
 30
0.0
 40
1.5
  0
LINE
  5
1134
330
1F
100
AcDbEntity
  8
AM_7
100
AcDbLine
 10
274.2843572672345
 20
238.6437247846445
 30
0.0
 11
274.2843572672345
 21
239.9437247846444
 31
0.0
  0
LINE
  5
1135
330
1F
100
AcDbEntity
  8
AM_7
100
AcDbLine
 10
274.2843572672345
 20
235.8437247846445
 30
0.0
 11
274.2843572672345
 21
237.8437247846445
 31
0.0
  0
LINE
  5
1136
330
1F
100
AcDbEntity
  8
AM_7
100
AcDbLine
 10
273.2843572672345
 20
236.8437247846445
 30
0.0
 11
275.2843572672345
 21
236.8437247846445
 31
0.0
  0
LINE
  5
1137
330
1F
100
AcDbEntity
  8
AM_7
100
AcDbLine
 10
274.2843572672345
 20
233.7437247846445
 30
0.0
 11
274.2843572672345
 21
235.0437247846445
 31
0.0
  0
LINE
  5
1138
330
1F
100
AcDbEntity
  8
AM_7
100
AcDbLine
 10
271.1843572672346
 20
236.8437247846445
 30
0.0
 11
272.4843572672345
 21
236.8437247846445
 31
0.0
  0
LINE
  5
1139
330
1F
100
AcDbEntity
  8
AM_7
100
AcDbLine
 10
276.0843572672345
 20
236.8437247846445
 30
0.0
 11
277.3843572672344
 21
236.8437247846445
 31
0.0
  0
LINE
  5
113A
330
1F
100
AcDbEntity
  8
AM_7
100
AcDbLine
 10
300.4343572672346
 20
179.783551743307
 30
0.0
 11
304.4843572672346
 21
179.783551743307
 31
0.0
  0
LINE
  5
113B
330
1F
100
AcDbEntity
  8
AM_7
100
AcDbLine
 10
308.0843572672345
 20
179.783551743307
 30
0.0
 11
312.1343572672346
 21
179.783551743307
 31
0.0
  0
LINE
  5
113C
330
1F
100
AcDbEntity
  8
AM_7
100
AcDbLine
 10
306.2843572672345
 20
181.583551743307
 30
0.0
 11
306.2843572672345
 21
185.633551743307
 31
0.0
  0
LINE
  5
113D
330
1F
100
AcDbEntity
  8
AM_7
100
AcDbLine
 10
305.2843572672345
 20
179.783551743307
 30
0.0
 11
307.2843572672345
 21
179.783551743307
 31
0.0
  0
LINE
  5
113E
330
1F
100
AcDbEntity
  8
AM_VIS
100
AcDbLine
 10
313.7843572672345
 20
184.283551743307
 30
0.0
 11
313.7843572672345
 21
184.783551743307
 31
0.0
  0
LINE
  5
113F
330
1F
100
AcDbEntity
  8
AM_7
100
AcDbLine
 10
288.2843572672345
 20
239.1437247846445
 30
0.0
 11
288.2843572672345
 21
240.5937247846444
 31
0.0
  0
LINE
  5
1140
330
1F
100
AcDbEntity
  8
AM_7
100
AcDbLine
 10
290.0843572672345
 20
237.3437247846445
 30
0.0
 11
291.5343572672345
 21
237.3437247846445
 31
0.0
  0
LINE
  5
1141
330
1F
100
AcDbEntity
  8
AM_7
100
AcDbLine
 10
288.2843572672345
 20
236.3437247846444
 30
0.0
 11
288.2843572672345
 21
238.3437247846444
 31
0.0
  0
LINE
  5
1142
330
1F
100
AcDbEntity
  8
AM_7
100
AcDbLine
 10
285.0343572672345
 20
237.3437247846445
 30
0.0
 11
286.4843572672345
 21
237.3437247846445
 31
0.0
  0
LINE
  5
1143
330
1F
100
AcDbEntity
  8
AM_7
100
AcDbLine
 10
288.2843572672345
 20
234.0937247846444
 30
0.0
 11
288.2843572672345
 21
235.5437247846444
 31
0.0
  0
LINE
  5
1144
330
1F
100
AcDbEntity
  8
AM_7
100
AcDbLine
 10
287.2843572672345
 20
237.3437247846445
 30
0.0
 11
289.2843572672345
 21
237.3437247846445
 31
0.0
  0
CIRCLE
  5
1145
330
1F
100
AcDbEntity
  8
AM_VIS
100
AcDbCircle
 10
288.2843572672345
 20
237.3437247846445
 30
0.0
 40
1.649999999999999
  0
LINE
  5
1146
330
1F
100
AcDbEntity
  8
AM_VIS
100
AcDbLine
 10
313.7843572672345
 20
232.3437247846445
 30
0.0
 11
313.7843572672345
 21
232.8437247846445
 31
0.0
  0
LINE
  5
1147
330
1F
100
AcDbEntity
  8
AM_VIS
100
AcDbLine
 10
313.7843572672345
 20
266.3437247846445
 30
0.0
 11
255.2843572672345
 21
266.3437247846445
 31
0.0
  0
LINE
  5
1148
330
1F
100
AcDbEntity
  8
AM_VIS
100
AcDbLine
 10
254.7843572672345
 20
260.8437247846445
 30
0.0
 11
254.7843572672345
 21
253.3437247846445
 31
0.0
  0
CIRCLE
  5
1149
330
1F
100
AcDbEntity
  8
AM_VIS
100
AcDbCircle
 10
274.2843572672345
 20
261.8437247846445
 30
0.0
 40
1.5
  0
CIRCLE
  5
114A
330
1F
100
AcDbEntity
  8
AM_VIS
100
AcDbCircle
 10
265.2843572672345
 20
255.0937247846444
 30
0.0
 40
1.5
  0
CIRCLE
  5
114B
330
1F
100
AcDbEntity
  8
AM_VIS
100
AcDbCircle
 10
265.2843572672345
 20
243.5937247846445
 30
0.0
 40
1.5
  0
LINE
  5
114C
330
1F
100
AcDbEntity
  8
AM_VIS
100
AcDbLine
 10
255.2843572672345
 20
245.3437247846445
 30
0.0
 11
254.7843572672345
 21
245.3437247846445
 31
0.0
  0
LINE
  5
114D
330
1F
100
AcDbEntity
  8
AM_7
100
AcDbLine
 10
264.2843572672345
 20
243.5937247846445
 30
0.0
 11
266.2843572672345
 21
243.5937247846445
 31
0.0
  0
LINE
  5
114E
330
1F
100
AcDbEntity
  8
AM_7
100
AcDbLine
 10
265.2843572672345
 20
245.3937247846445
 30
0.0
 11
265.2843572672345
 21
246.6937247846444
 31
0.0
  0
LINE
  5
114F
330
1F
100
AcDbEntity
  8
AM_7
100
AcDbLine
 10
262.1843572672346
 20
243.5937247846445
 30
0.0
 11
263.4843572672346
 21
243.5937247846445
 31
0.0
  0
LINE
  5
1150
330
1F
100
AcDbEntity
  8
AM_7
100
AcDbLine
 10
265.2843572672345
 20
242.5937247846444
 30
0.0
 11
265.2843572672345
 21
244.5937247846444
 31
0.0
  0
LINE
  5
1151
330
1F
100
AcDbEntity
  8
AM_VIS
100
AcDbLine
 10
254.7843572672345
 20
253.3437247846445
 30
0.0
 11
255.2843572672345
 21
253.3437247846445
 31
0.0
  0
LINE
  5
1152
330
1F
100
AcDbEntity
  8
AM_7
100
AcDbLine
 10
265.2843572672345
 20
254.0937247846445
 30
0.0
 11
265.2843572672345
 21
256.0937247846445
 31
0.0
  0
LINE
  5
1153
330
1F
100
AcDbEntity
  8
AM_7
100
AcDbLine
 10
265.2843572672345
 20
256.8937247846445
 30
0.0
 11
265.2843572672345
 21
258.1937247846444
 31
0.0
  0
LINE
  5
1154
330
1F
100
AcDbEntity
  8
AM_7
100
AcDbLine
 10
264.2843572672345
 20
255.0937247846444
 30
0.0
 11
266.2843572672345
 21
255.0937247846444
 31
0.0
  0
LINE
  5
1155
330
1F
100
AcDbEntity
  8
AM_7
100
AcDbLine
 10
265.2843572672345
 20
251.9937247846445
 30
0.0
 11
265.2843572672345
 21
253.2937247846445
 31
0.0
  0
LINE
  5
1156
330
1F
100
AcDbEntity
  8
AM_7
100
AcDbLine
 10
262.1843572672346
 20
255.0937247846444
 30
0.0
 11
263.4843572672346
 21
255.0937247846444
 31
0.0
  0
LINE
  5
1157
330
1F
100
AcDbEntity
  8
AM_7
100
AcDbLine
 10
267.0843572672345
 20
243.5937247846445
 30
0.0
 11
268.3843572672346
 21
243.5937247846445
 31
0.0
  0
LINE
  5
1158
330
1F
100
AcDbEntity
  8
AM_7
100
AcDbLine
 10
274.2843572672345
 20
258.7437247846445
 30
0.0
 11
274.2843572672345
 21
260.0437247846445
 31
0.0
  0
LINE
  5
1159
330
1F
100
AcDbEntity
  8
AM_7
100
AcDbLine
 10
267.0843572672345
 20
255.0937247846444
 30
0.0
 11
268.3843572672346
 21
255.0937247846444
 31
0.0
  0
LINE
  5
115A
330
1F
100
AcDbEntity
  8
AM_VIS
100
AcDbLine
 10
255.2843572672345
 20
266.3437247846445
 30
0.0
 11
255.2843572672345
 21
265.8437247846445
 31
0.0
  0
LINE
  5
115B
330
1F
100
AcDbEntity
  8
AM_7
100
AcDbLine
 10
274.2843572672345
 20
260.8437247846445
 30
0.0
 11
274.2843572672345
 21
262.8437247846445
 31
0.0
  0
LINE
  5
115C
330
1F
100
AcDbEntity
  8
AM_7
100
AcDbLine
 10
273.2843572672345
 20
261.8437247846445
 30
0.0
 11
275.2843572672345
 21
261.8437247846445
 31
0.0
  0
LINE
  5
115D
330
1F
100
AcDbEntity
  8
AM_7
100
AcDbLine
 10
274.2843572672345
 20
263.6437247846445
 30
0.0
 11
274.2843572672345
 21
264.9437247846444
 31
0.0
  0
LINE
  5
115E
330
1F
100
AcDbEntity
  8
AM_7
100
AcDbLine
 10
271.1843572672346
 20
261.8437247846445
 30
0.0
 11
272.4843572672345
 21
261.8437247846445
 31
0.0
  0
LINE
  5
115F
330
1F
100
AcDbEntity
  8
AM_7
100
AcDbLine
 10
276.0843572672345
 20
261.8437247846445
 30
0.0
 11
277.3843572672344
 21
261.8437247846445
 31
0.0
  0
LINE
  5
1160
330
1F
100
AcDbEntity
  8
AM_7
100
AcDbLine
 10
288.2843572672345
 20
260.3437247846445
 30
0.0
 11
288.2843572672345
 21
262.3437247846445
 31
0.0
  0
ARC
  5
1161
330
1F
100
AcDbEntity
  8
AM_4
  6
HIDDEN2
100
AcDbCircle
 10
288.2843572672345
 20
261.3437247846444
 30
0.0
 40
2.0
100
AcDbArc
 50
260.0000000000013
 51
169.9999999999997
  0
CIRCLE
  5
1162
330
1F
100
AcDbEntity
  8
AM_VIS
100
AcDbCircle
 10
288.2843572672345
 20
261.3437247846444
 30
0.0
 40
1.649999999999999
  0
LINE
  5
1163
330
1F
100
AcDbEntity
  8
AM_7
100
AcDbLine
 10
288.2843572672345
 20
258.0937247846445
 30
0.0
 11
288.2843572672345
 21
259.5437247846445
 31
0.0
  0
LINE
  5
1164
330
1F
100
AcDbEntity
  8
AM_7
100
AcDbLine
 10
290.0843572672345
 20
261.3437247846444
 30
0.0
 11
291.5343572672345
 21
261.3437247846444
 31
0.0
  0
LINE
  5
1165
330
1F
100
AcDbEntity
  8
AM_7
100
AcDbLine
 10
288.2843572672345
 20
263.1437247846445
 30
0.0
 11
288.2843572672345
 21
264.5937247846445
 31
0.0
  0
LINE
  5
1166
330
1F
100
AcDbEntity
  8
AM_7
100
AcDbLine
 10
285.0343572672345
 20
261.3437247846444
 30
0.0
 11
286.4843572672345
 21
261.3437247846444
 31
0.0
  0
LINE
  5
1167
330
1F
100
AcDbEntity
  8
AM_7
100
AcDbLine
 10
287.2843572672345
 20
261.3437247846444
 30
0.0
 11
289.2843572672345
 21
261.3437247846444
 31
0.0
  0
LINE
  5
1168
330
1F
100
AcDbEntity
  8
AM_VIS
100
AcDbLine
 10
313.7843572672345
 20
265.8437247846445
 30
0.0
 11
313.7843572672345
 21
266.3437247846445
 31
0.0
  0
LINE
  5
1169
330
1F
100
AcDbEntity
  8
AM_VIS
100
AcDbLine
 10
255.2843572672345
 20
319.2592506225029
 30
0.0
 11
240.2843572672345
 21
319.2592506225029
 31
0.0
  0
LINE
  5
116A
330
1F
100
AcDbEntity
  8
AM_VIS
100
AcDbLine
 10
240.2843572672345
 20
308.2592506225029
 30
0.0
 11
255.2843572672345
 21
308.2592506225029
 31
0.0
  0
LINE
  5
116B
330
1F
100
AcDbEntity
  8
AM_VIS
100
AcDbLine
 10
240.2843572672345
 20
319.2592506225029
 30
0.0
 11
240.2843572672345
 21
308.2592506225029
 31
0.0
  0
LINE
  5
116C
330
1F
100
AcDbEntity
  8
AM_7
100
AcDbLine
 10
245.0843572672344
 20
313.7592506225029
 30
0.0
 11
246.1343572672344
 21
313.7592506225029
 31
0.0
  0
LINE
  5
116D
330
1F
100
AcDbEntity
  8
AM_7
100
AcDbLine
 10
243.2843572672345
 20
312.7592506225029
 30
0.0
 11
243.2843572672345
 21
314.7592506225029
 31
0.0
  0
LINE
  5
116E
330
1F
100
AcDbEntity
  8
AM_7
100
AcDbLine
 10
243.2843572672345
 20
315.5592506225029
 30
0.0
 11
243.2843572672345
 21
316.6092506225029
 31
0.0
  0
LINE
  5
116F
330
1F
100
AcDbEntity
  8
AM_7
100
AcDbLine
 10
240.4343572672346
 20
313.7592506225029
 30
0.0
 11
241.4843572672345
 21
313.7592506225029
 31
0.0
  0
LINE
  5
1170
330
1F
100
AcDbEntity
  8
AM_7
100
AcDbLine
 10
243.2843572672345
 20
310.9092506225028
 30
0.0
 11
243.2843572672345
 21
311.9592506225028
 31
0.0
  0
CIRCLE
  5
1171
330
1F
100
AcDbEntity
  8
AM_VIS
100
AcDbCircle
 10
243.2843572672345
 20
313.7592506225029
 30
0.0
 40
1.25
  0
LINE
  5
1172
330
1F
100
AcDbEntity
  8
AM_7
100
AcDbLine
 10
242.2843572672345
 20
313.7592506225029
 30
0.0
 11
244.2843572672345
 21
313.7592506225029
 31
0.0
  0
ARC
  5
1173
330
1F
100
AcDbEntity
  8
AM_4
  6
HIDDEN2
100
AcDbCircle
 10
243.2843572672346
 20
313.7592506225029
 30
0.0
 40
1.5
100
AcDbArc
 50
260.0000000000013
 51
169.9999999999997
  0
LINE
  5
1174
330
1F
100
AcDbEntity
  8
AM_VIS
100
AcDbLine
 10
283.2843572672345
 20
315.4592506225029
 30
0.0
 11
313.7843572672345
 21
315.4592506225029
 31
0.0
  0
LINE
  5
1175
330
1F
100
AcDbEntity
  8
AM_VIS
100
AcDbLine
 10
313.7843572672345
 20
315.6592506225028
 30
0.0
 11
283.2843572672345
 21
315.6592506225028
 31
0.0
  0
LINE
  5
1176
330
1F
100
AcDbEntity
  8
AM_VIS
100
AcDbLine
 10
313.7843572672345
 20
312.0592506225029
 30
0.0
 11
283.2843572672345
 21
312.0592506225029
 31
0.0
  0
LINE
  5
1177
330
1F
100
AcDbEntity
  8
AM_VIS
100
AcDbLine
 10
283.2843572672345
 20
311.8592506225029
 30
0.0
 11
313.7843572672345
 21
311.8592506225029
 31
0.0
  0
LINE
  5
1178
330
1F
100
AcDbEntity
  8
AM_VIS
100
AcDbLine
 10
283.2843572672345
 20
314.2092506225029
 30
0.0
 11
287.8812443798196
 21
314.2092506225029
 31
0.0
  0
LINE
  5
1179
330
1F
100
AcDbEntity
  8
AM_VIS
100
AcDbLine
 10
287.8812443798196
 20
313.3092506225029
 30
0.0
 11
283.2843572672345
 21
313.3092506225029
 31
0.0
  0
LINE
  5
117A
330
1F
100
AcDbEntity
  8
AM_VIS
100
AcDbLine
 10
313.7843572672345
 20
311.5092506225029
 30
0.0
 11
283.2843572672345
 21
311.5092506225029
 31
0.0
  0
LINE
  5
117B
330
1F
100
AcDbEntity
  8
AM_VIS
100
AcDbLine
 10
283.2843572672345
 20
316.0092506225029
 30
0.0
 11
313.7843572672345
 21
316.0092506225029
 31
0.0
  0
LINE
  5
117C
330
1F
100
AcDbEntity
  8
AM_VIS
100
AcDbLine
 10
255.2843572672345
 20
302.7592506225029
 30
0.0
 11
313.7843572672345
 21
302.7592506225029
 31
0.0
  0
LINE
  5
117D
330
1F
100
AcDbEntity
  8
AM_VIS
100
AcDbLine
 10
313.7843572672345
 20
324.7592506225029
 30
0.0
 11
255.2843572672345
 21
324.7592506225029
 31
0.0
  0
LINE
  5
117E
330
1F
100
AcDbEntity
  8
AM_VIS
100
AcDbLine
 10
270.2843572672345
 20
308.2592506225029
 30
0.0
 11
270.2843572672345
 21
311.9592506225028
 31
0.0
  0
LINE
  5
117F
330
1F
100
AcDbEntity
  8
AM_VIS
100
AcDbLine
 10
267.7843572672345
 20
311.9592506225028
 30
0.0
 11
267.7843572672345
 21
308.2592506225029
 31
0.0
  0
LINE
  5
1180
330
1F
100
AcDbEntity
  8
AM_VIS
100
AcDbLine
 10
271.7843572672345
 20
309.2592506225029
 30
0.0
 11
271.7843572672345
 21
308.2592506225029
 31
0.0
  0
LINE
  5
1181
330
1F
100
AcDbEntity
  8
AM_VIS
100
AcDbLine
 10
258.2843572672345
 20
311.9592506225028
 30
0.0
 11
258.2843572672345
 21
308.2592506225029
 31
0.0
  0
LINE
  5
1182
330
1F
100
AcDbEntity
  8
AM_VIS
100
AcDbLine
 10
257.7843572672345
 20
308.2592506225029
 30
0.0
 11
257.7843572672345
 21
315.5592506225029
 31
0.0
  0
LINE
  5
1183
330
1F
100
AcDbEntity
  8
AM_VIS
100
AcDbLine
 10
271.7843572672345
 20
308.2592506225029
 30
0.0
 11
255.2843572672345
 21
308.2592506225029
 31
0.0
  0
LINE
  5
1184
330
1F
100
AcDbEntity
  8
AM_VIS
100
AcDbLine
 10
255.2843572672345
 20
303.2592506225029
 30
0.0
 11
255.2843572672345
 21
302.7592506225029
 31
0.0
  0
LINE
  5
1185
330
1F
100
AcDbEntity
  8
AM_VIS
100
AcDbLine
 10
255.2843572672345
 20
303.2592506225029
 30
0.0
 11
255.2843572672345
 21
308.2592506225029
 31
0.0
  0
ARC
  5
1186
330
1F
100
AcDbEntity
  8
AM_4
  6
HIDDEN2
100
AcDbCircle
 10
274.2843572672345
 20
305.7592506225028
 30
0.0
 40
1.5
100
AcDbArc
 50
279.9999999999986
 51
190.0000000000002
  0
LINE
  5
1187
330
1F
100
AcDbEntity
  8
AM_7
100
AcDbLine
 10
274.2843572672345
 20
304.7592506225029
 30
0.0
 11
274.2843572672345
 21
306.7592506225029
 31
0.0
  0
CIRCLE
  5
1188
330
1F
100
AcDbEntity
  8
AM_VIS
100
AcDbCircle
 10
274.2843572672345
 20
305.7592506225029
 30
0.0
 40
1.149999999999999
  0
LINE
  5
1189
330
1F
100
AcDbEntity
  8
AM_7
100
AcDbLine
 10
273.2843572672345
 20
305.7592506225029
 30
0.0
 11
275.2843572672345
 21
305.7592506225029
 31
0.0
  0
LINE
  5
118A
330
1F
100
AcDbEntity
  8
AM_7
100
AcDbLine
 10
274.2843572672345
 20
303.0092506225029
 30
0.0
 11
274.2843572672345
 21
303.9592506225029
 31
0.0
  0
LINE
  5
118B
330
1F
100
AcDbEntity
  8
AM_7
100
AcDbLine
 10
274.2843572672345
 20
307.5592506225029
 30
0.0
 11
274.2843572672345
 21
308.5092506225029
 31
0.0
  0
LINE
  5
118C
330
1F
100
AcDbEntity
  8
AM_7
100
AcDbLine
 10
271.5343572672345
 20
305.7592506225029
 30
0.0
 11
272.4843572672345
 21
305.7592506225029
 31
0.0
  0
LINE
  5
118D
330
1F
100
AcDbEntity
  8
AM_7
100
AcDbLine
 10
276.0843572672345
 20
305.7592506225029
 30
0.0
 11
277.0343572672345
 21
305.7592506225029
 31
0.0
  0
LINE
  5
118E
330
1F
100
AcDbEntity
  8
AM_VIS
100
AcDbLine
 10
260.2889030974995
 20
311.9592506225028
 30
0.0
 11
273.1215283995118
 21
311.9592506225028
 31
0.0
  0
LINE
  5
118F
330
1F
100
AcDbEntity
  8
AM_VIS
100
AcDbLine
 10
257.7843572672345
 20
315.5592506225028
 30
0.0
 11
267.7843572672345
 21
315.5592506225028
 31
0.0
  0
LINE
  5
1190
330
1F
100
AcDbEntity
  8
AM_VIS
100
AcDbLine
 10
255.2843572672345
 20
319.2592506225029
 30
0.0
 11
271.7843572672345
 21
319.2592506225029
 31
0.0
  0
LINE
  5
1191
330
1F
100
AcDbEntity
  8
AM_7
100
AcDbLine
 10
253.0843572672345
 20
313.7592506225029
 30
0.0
 11
254.1343572672344
 21
313.7592506225029
 31
0.0
  0
LINE
  5
1192
330
1F
100
AcDbEntity
  8
AM_7
100
AcDbLine
 10
250.2843572672345
 20
313.7592506225029
 30
0.0
 11
252.2843572672345
 21
313.7592506225029
 31
0.0
  0
LINE
  5
1193
330
1F
100
AcDbEntity
  8
AM_7
100
AcDbLine
 10
251.2843572672345
 20
312.7592506225029
 30
0.0
 11
251.2843572672345
 21
314.7592506225029
 31
0.0
  0
LINE
  5
1194
330
1F
100
AcDbEntity
  8
AM_7
100
AcDbLine
 10
251.2843572672345
 20
315.5592506225029
 30
0.0
 11
251.2843572672345
 21
316.6092506225029
 31
0.0
  0
LINE
  5
1195
330
1F
100
AcDbEntity
  8
AM_7
100
AcDbLine
 10
251.2843572672345
 20
310.9092506225028
 30
0.0
 11
251.2843572672345
 21
311.9592506225028
 31
0.0
  0
CIRCLE
  5
1196
330
1F
100
AcDbEntity
  8
AM_VIS
100
AcDbCircle
 10
251.2843572672345
 20
313.7592506225029
 30
0.0
 40
1.25
  0
LINE
  5
1197
330
1F
100
AcDbEntity
  8
AM_7
100
AcDbLine
 10
248.4343572672346
 20
313.7592506225029
 30
0.0
 11
249.4843572672345
 21
313.7592506225029
 31
0.0
  0
LINE
  5
1198
330
1F
100
AcDbEntity
  8
AM_VIS
100
AcDbLine
 10
260.2889030974995
 20
311.9592506225028
 30
0.0
 11
258.2843572672345
 21
311.9592506225028
 31
0.0
  0
LINE
  5
1199
330
1F
100
AcDbEntity
  8
AM_VIS
100
AcDbLine
 10
258.2843572672345
 20
311.9592506225028
 30
0.0
 11
257.7843572672345
 21
311.9592506225028
 31
0.0
  0
LINE
  5
119A
330
1F
100
AcDbEntity
  8
AM_VIS
100
AcDbLine
 10
258.6339831478546
 20
315.5592506225028
 30
0.0
 11
258.6339831478546
 21
311.9592506225028
 31
0.0
  0
LINE
  5
119B
330
1F
100
AcDbEntity
  8
AM_VIS
100
AcDbLine
 10
255.2843572672345
 20
324.7592506225029
 30
0.0
 11
255.2843572672345
 21
324.2592506225029
 31
0.0
  0
LINE
  5
119C
330
1F
100
AcDbEntity
  8
AM_VIS
100
AcDbLine
 10
255.2843572672345
 20
319.2592506225029
 30
0.0
 11
255.2843572672345
 21
324.2592506225029
 31
0.0
  0
LINE
  5
119D
330
1F
100
AcDbEntity
  8
AM_7
100
AcDbLine
 10
274.2843572672345
 20
319.0092506225029
 30
0.0
 11
274.2843572672345
 21
319.9592506225028
 31
0.0
  0
LINE
  5
119E
330
1F
100
AcDbEntity
  8
AM_VIS
100
AcDbLine
 10
270.2843572672345
 20
317.9592506225028
 30
0.0
 11
270.2843572672345
 21
319.2592506225029
 31
0.0
  0
LINE
  5
119F
330
1F
100
AcDbEntity
  8
AM_VIS
100
AcDbLine
 10
271.7843572672345
 20
319.2592506225029
 30
0.0
 11
271.7843572672345
 21
318.2592506225029
 31
0.0
  0
LINE
  5
11A0
330
1F
100
AcDbEntity
  8
AM_VIS
100
AcDbLine
 10
267.7843572672345
 20
319.2592506225029
 30
0.0
 11
267.7843572672345
 21
315.5592506225029
 31
0.0
  0
LINE
  5
11A1
330
1F
100
AcDbEntity
  8
AM_VIS
100
AcDbLine
 10
277.561038146707
 20
317.9592506225028
 30
0.0
 11
273.1215283995118
 21
317.9592506225028
 31
0.0
  0
LINE
  5
11A2
330
1F
100
AcDbEntity
  8
AM_VIS
100
AcDbLine
 10
271.7843572672345
 20
318.2592506225029
 30
0.0
 11
283.2843572672345
 21
318.2592506225029
 31
0.0
  0
LINE
  5
11A3
330
1F
100
AcDbEntity
  8
AM_VIS
100
AcDbLine
 10
273.1215283995118
 20
311.9592506225028
 30
0.0
 11
277.561038146707
 21
311.9592506225028
 31
0.0
  0
LINE
  5
11A4
330
1F
100
AcDbEntity
  8
AM_VIS
100
AcDbLine
 10
283.2843572672345
 20
309.2592506225029
 30
0.0
 11
271.7843572672345
 21
309.2592506225029
 31
0.0
  0
LINE
  5
11A5
330
1F
100
AcDbEntity
  8
AM_VIS
100
AcDbLine
 10
272.7843572672345
 20
317.9592506225028
 30
0.0
 11
272.7843572672345
 21
318.2592506225029
 31
0.0
  0
LINE
  5
11A6
330
1F
100
AcDbEntity
  8
AM_VIS
100
AcDbLine
 10
273.1215283995118
 20
317.9592506225028
 30
0.0
 11
269.2392450314207
 21
317.9592506225028
 31
0.0
  0
LINE
  5
11A7
330
1F
100
AcDbEntity
  8
AM_VIS
100
AcDbLine
 10
272.7843572672345
 20
309.2592506225029
 30
0.0
 11
272.7843572672345
 21
311.9592506225028
 31
0.0
  0
LINE
  5
11A8
330
1F
100
AcDbEntity
  8
AM_VIS
100
AcDbLine
 10
269.2392450314207
 20
315.5592506225028
 30
0.0
 11
268.247737047825
 21
315.5592506225028
 31
0.0
  0
LINE
  5
11A9
330
1F
100
AcDbEntity
  8
AM_VIS
100
AcDbLine
 10
267.7843572672345
 20
315.5592506225029
 30
0.0
 11
268.247737047825
 21
315.5592506225029
 31
0.0
  0
LINE
  5
11AA
330
1F
100
AcDbEntity
  8
AM_VIS
100
AcDbLine
 10
272.7843572672345
 20
309.5592506225029
 30
0.0
 11
270.2843572672345
 21
309.5592506225028
 31
0.0
  0
LINE
  5
11AB
330
1F
100
AcDbEntity
  8
AM_VIS
100
AcDbLine
 10
273.1215283995118
 20
317.9592506225028
 30
0.0
 11
273.1215283995118
 21
311.9592506225028
 31
0.0
  0
LINE
  5
11AC
330
1F
100
AcDbEntity
  8
AM_VIS
100
AcDbLine
 10
269.2392450314207
 20
317.9592506225028
 30
0.0
 11
269.2392450314207
 21
315.5592506225028
 31
0.0
  0
LINE
  5
11AD
330
1F
100
AcDbEntity
  8
AM_VIS
100
AcDbLine
 10
279.7843572672345
 20
318.1592506225029
 30
0.0
 11
279.9843572672346
 21
317.9592506225028
 31
0.0
  0
LINE
  5
11AE
330
1F
100
AcDbEntity
  8
AM_VIS
100
AcDbLine
 10
277.1843572672344
 20
318.1592506225029
 30
0.0
 11
276.9843572672346
 21
317.9592506225028
 31
0.0
  0
LINE
  5
11AF
330
1F
100
AcDbEntity
  8
AM_VIS
100
AcDbLine
 10
275.7843572672345
 20
317.9592506225028
 30
0.0
 11
275.7843572672345
 21
318.2592506225029
 31
0.0
  0
LINE
  5
11B0
330
1F
100
AcDbEntity
  8
AM_VIS
100
AcDbLine
 10
282.5447992418512
 20
317.9592506225028
 30
0.0
 11
277.561038146707
 21
317.9592506225028
 31
0.0
  0
LINE
  5
11B1
330
1F
100
AcDbEntity
  8
AM_VIS
100
AcDbLine
 10
277.1843572672346
 20
318.1592506225029
 30
0.0
 11
279.7843572672345
 21
318.1592506225029
 31
0.0
  0
LINE
  5
11B2
330
1F
100
AcDbEntity
  8
AM_VIS
100
AcDbLine
 10
283.2843572672345
 20
315.6592506225028
 30
0.0
 11
283.2843572672345
 21
316.0092506225029
 31
0.0
  0
LINE
  5
11B3
330
1F
100
AcDbEntity
  8
AM_VIS
100
AcDbLine
 10
283.2843572672345
 20
314.2092506225029
 30
0.0
 11
283.2843572672345
 21
313.3092506225028
 31
0.0
  0
LINE
  5
11B4
330
1F
100
AcDbEntity
  8
AM_VIS
100
AcDbLine
 10
283.2843572672345
 20
315.4592506225029
 30
0.0
 11
283.2843572672345
 21
315.6592506225028
 31
0.0
  0
LINE
  5
11B5
330
1F
100
AcDbEntity
  8
AM_VIS
100
AcDbLine
 10
283.2843572672345
 20
315.4592506225029
 30
0.0
 11
283.2843572672345
 21
314.2092506225029
 31
0.0
  0
LINE
  5
11B6
330
1F
100
AcDbEntity
  8
AM_VIS
100
AcDbLine
 10
283.2843572672345
 20
315.2592506225029
 30
0.0
 11
280.4548349116294
 21
315.2592506225029
 31
0.0
  0
LINE
  5
11B7
330
1F
100
AcDbEntity
  8
AM_VIS
100
AcDbLine
 10
280.4548349116294
 20
315.4592506225028
 30
0.0
 11
282.5447992418512
 21
315.4592506225028
 31
0.0
  0
LINE
  5
11B8
330
1F
100
AcDbEntity
  8
AM_VIS
100
AcDbLine
 10
282.5447992418512
 20
309.5592506225029
 30
0.0
 11
282.5447992418512
 21
312.0592506225029
 31
0.0
  0
LINE
  5
11B9
330
1F
100
AcDbEntity
  8
AM_VIS
100
AcDbLine
 10
283.2843572672345
 20
311.5092506225029
 30
0.0
 11
283.2843572672345
 21
311.8592506225029
 31
0.0
  0
LINE
  5
11BA
330
1F
100
AcDbEntity
  8
AM_VIS
100
AcDbLine
 10
283.2843572672345
 20
311.5092506225029
 30
0.0
 11
283.2843572672345
 21
309.2592506225029
 31
0.0
  0
LINE
  5
11BB
330
1F
100
AcDbEntity
  8
AM_VIS
100
AcDbLine
 10
283.2843572672345
 20
311.8592506225029
 30
0.0
 11
283.2843572672345
 21
312.0592506225028
 31
0.0
  0
LINE
  5
11BC
330
1F
100
AcDbEntity
  8
AM_VIS
100
AcDbLine
 10
280.3669329621905
 20
309.5592506225029
 30
0.0
 11
279.9843572672346
 21
309.5592506225029
 31
0.0
  0
LINE
  5
11BD
330
1F
100
AcDbEntity
  8
AM_VIS
100
AcDbLine
 10
280.3669329621905
 20
311.9592506225028
 30
0.0
 11
280.3669329621905
 21
309.5592506225028
 31
0.0
  0
LINE
  5
11BE
330
1F
100
AcDbEntity
  8
AM_VIS
100
AcDbLine
 10
279.9843572672346
 20
311.9592506225028
 30
0.0
 11
279.9843572672346
 21
309.5592506225029
 31
0.0
  0
LINE
  5
11BF
330
1F
100
AcDbEntity
  8
AM_VIS
100
AcDbLine
 10
279.7843572672345
 20
309.3592506225029
 30
0.0
 11
279.9843572672346
 21
309.5592506225028
 31
0.0
  0
LINE
  5
11C0
330
1F
100
AcDbEntity
  8
AM_VIS
100
AcDbLine
 10
280.4548349116294
 20
312.2592506225029
 30
0.0
 11
283.2843572672345
 21
312.2592506225029
 31
0.0
  0
LINE
  5
11C1
330
1F
100
AcDbEntity
  8
AM_VIS
100
AcDbLine
 10
280.3669329621905
 20
309.5592506225029
 30
0.0
 11
282.5447992418512
 21
309.5592506225029
 31
0.0
  0
LINE
  5
11C2
330
1F
100
AcDbEntity
  8
AM_VIS
100
AcDbLine
 10
282.5447992418512
 20
312.0592506225029
 30
0.0
 11
280.4548349116294
 21
312.0592506225029
 31
0.0
  0
LINE
  5
11C3
330
1F
100
AcDbEntity
  8
AM_VIS
100
AcDbLine
 10
280.4548349116294
 20
311.9592506225028
 30
0.0
 11
280.4548349116294
 21
315.4592506225028
 31
0.0
  0
LINE
  5
11C4
330
1F
100
AcDbEntity
  8
AM_VIS
100
AcDbLine
 10
283.2843572672345
 20
313.3092506225029
 30
0.0
 11
283.2843572672345
 21
312.059250622503
 31
0.0
  0
LINE
  5
11C5
330
1F
100
AcDbEntity
  8
AM_VIS
100
AcDbLine
 10
277.5262378148068
 20
309.5592506225028
 30
0.0
 11
277.5262378148068
 21
311.9592506225028
 31
0.0
  0
LINE
  5
11C6
330
1F
100
AcDbEntity
  8
AM_VIS
100
AcDbLine
 10
275.7843572672345
 20
309.5592506225029
 30
0.0
 11
277.5262378148068
 21
309.5592506225029
 31
0.0
  0
LINE
  5
11C7
330
1F
100
AcDbEntity
  8
AM_VIS
100
AcDbLine
 10
277.1843572672346
 20
309.3592506225029
 30
0.0
 11
276.9843572672346
 21
309.5592506225028
 31
0.0
  0
LINE
  5
11C8
330
1F
100
AcDbEntity
  8
AM_VIS
100
AcDbLine
 10
275.7843572672345
 20
309.2592506225029
 30
0.0
 11
275.7843572672345
 21
311.9592506225028
 31
0.0
  0
LINE
  5
11C9
330
1F
100
AcDbEntity
  8
AM_VIS
100
AcDbLine
 10
277.561038146707
 20
311.9592506225028
 30
0.0
 11
280.4548349116294
 21
311.9592506225028
 31
0.0
  0
LINE
  5
11CA
330
1F
100
AcDbEntity
  8
AM_VIS
100
AcDbLine
 10
277.5262378148068
 20
309.5592506225029
 30
0.0
 11
279.9843572672346
 21
309.5592506225029
 31
0.0
  0
LINE
  5
11CB
330
1F
100
AcDbEntity
  8
AM_VIS
100
AcDbLine
 10
279.7843572672345
 20
309.3592506225029
 30
0.0
 11
277.1843572672346
 21
309.3592506225029
 31
0.0
  0
LINE
  5
11CC
330
1F
100
AcDbEntity
  8
AM_VIS
100
AcDbLine
 10
282.5447992418512
 20
317.9592506225028
 30
0.0
 11
282.5447992418512
 21
315.4592506225028
 31
0.0
  0
LINE
  5
11CD
330
1F
100
AcDbEntity
  8
AM_VIS
100
AcDbLine
 10
277.561038146707
 20
311.9592506225028
 30
0.0
 11
277.561038146707
 21
317.9592506225028
 31
0.0
  0
LINE
  5
11CE
330
1F
100
AcDbEntity
  8
AM_VIS
100
AcDbLine
 10
283.2843572672345
 20
318.2592506225029
 30
0.0
 11
283.2843572672345
 21
316.0092506225029
 31
0.0
  0
LINE
  5
11CF
330
1F
100
AcDbEntity
  8
AM_7
100
AcDbLine
 10
274.2843572672345
 20
323.5592506225029
 30
0.0
 11
274.2843572672345
 21
324.5092506225029
 31
0.0
  0
LINE
  5
11D0
330
1F
100
AcDbEntity
  8
AM_7
100
AcDbLine
 10
273.2843572672345
 20
321.7592506225029
 30
0.0
 11
275.2843572672345
 21
321.7592506225029
 31
0.0
  0
CIRCLE
  5
11D1
330
1F
100
AcDbEntity
  8
AM_VIS
100
AcDbCircle
 10
274.2843572672345
 20
321.7592506225029
 30
0.0
 40
1.149999999999999
  0
LINE
  5
11D2
330
1F
100
AcDbEntity
  8
AM_7
100
AcDbLine
 10
274.2843572672345
 20
320.7592506225029
 30
0.0
 11
274.2843572672345
 21
322.7592506225029
 31
0.0
  0
LINE
  5
11D3
330
1F
100
AcDbEntity
  8
AM_7
100
AcDbLine
 10
271.5343572672345
 20
321.7592506225029
 30
0.0
 11
272.4843572672345
 21
321.7592506225029
 31
0.0
  0
LINE
  5
11D4
330
1F
100
AcDbEntity
  8
AM_7
100
AcDbLine
 10
276.0843572672345
 20
321.7592506225029
 30
0.0
 11
277.0343572672345
 21
321.7592506225029
 31
0.0
  0
LINE
  5
11D5
330
1F
100
AcDbEntity
  8
AM_VIS
100
AcDbLine
 10
313.7843572672345
 20
303.2592506225029
 30
0.0
 11
313.7843572672345
 21
311.5092506225029
 31
0.0
  0
LINE
  5
11D6
330
1F
100
AcDbEntity
  8
AM_7
100
AcDbLine
 10
292.7843572672345
 20
308.5592506225029
 30
0.0
 11
292.7843572672345
 21
309.9592506225029
 31
0.0
  0
LINE
  5
11D7
330
1F
100
AcDbEntity
  8
AM_7
100
AcDbLine
 10
288.2843572672345
 20
301.1592506225028
 30
0.0
 11
288.2843572672345
 21
316.3592506225029
 31
0.0
  0
LINE
  5
11D8
330
1F
100
AcDbEntity
  8
AM_4
  6
HIDDEN2
100
AcDbLine
 10
290.2843572672345
 20
302.7592506225029
 30
0.0
 11
290.2843572672345
 21
311.6121943476552
 31
0.0
  0
LINE
  5
11D9
330
1F
100
AcDbEntity
  8
AM_4
  6
HIDDEN2
100
AcDbLine
 10
286.2843572672345
 20
302.7592506225029
 30
0.0
 11
286.2843572672345
 21
311.6121943476552
 31
0.0
  0
LINE
  5
11DA
330
1F
100
AcDbEntity
  8
AM_7
100
AcDbLine
 10
292.7843572672345
 20
305.7592506225029
 30
0.0
 11
292.7843572672345
 21
307.7592506225029
 31
0.0
  0
LINE
  5
11DB
330
1F
100
AcDbEntity
  8
AM_7
100
AcDbLine
 10
289.5843572672345
 20
306.7592506225029
 30
0.0
 11
290.9843572672345
 21
306.7592506225029
 31
0.0
  0
LINE
  5
11DC
330
1F
100
AcDbEntity
  8
AM_7
100
AcDbLine
 10
291.7843572672345
 20
306.7592506225029
 30
0.0
 11
293.7843572672345
 21
306.7592506225029
 31
0.0
  0
LINE
  5
11DD
330
1F
100
AcDbEntity
  8
AM_7
100
AcDbLine
 10
292.7843572672345
 20
303.5592506225029
 30
0.0
 11
292.7843572672345
 21
304.9592506225029
 31
0.0
  0
LINE
  5
11DE
330
1F
100
AcDbEntity
  8
AM_7
100
AcDbLine
 10
294.5843572672345
 20
306.7592506225029
 30
0.0
 11
295.9843572672346
 21
306.7592506225029
 31
0.0
  0
LINE
  5
11DF
330
1F
100
AcDbEntity
  8
AM_VIS
100
AcDbLine
 10
313.7843572672345
 20
302.7592506225029
 30
0.0
 11
313.7843572672345
 21
303.2592506225029
 31
0.0
  0
LINE
  5
11E0
330
1F
100
AcDbEntity
  8
AM_VIS
100
AcDbLine
 10
313.7843572672345
 20
313.3092506225029
 30
0.0
 11
288.6874701546494
 21
313.3092506225029
 31
0.0
  0
LINE
  5
11E1
330
1F
100
AcDbEntity
  8
AM_VIS
100
AcDbLine
 10
288.6874701546494
 20
314.2092506225029
 30
0.0
 11
313.7843572672345
 21
314.2092506225029
 31
0.0
  0
LINE
  5
11E2
330
1F
100
AcDbEntity
  8
AM_7
100
AcDbLine
 10
292.7843572672345
 20
317.5592506225029
 30
0.0
 11
292.7843572672345
 21
318.9592506225029
 31
0.0
  0
LINE
  5
11E3
330
1F
100
AcDbEntity
  8
AM_VIS
100
AcDbLine
 10
287.6159904825699
 20
314.7592506225029
 30
0.0
 11
288.9527240525289
 21
314.7592506225029
 31
0.0
  0
SPLINE
  5
11E4
330
1F
100
AcDbEntity
  8
AM_VIS
100
AcDbSpline
210
0.0
220
0.0
230
1.0
 70
     8
 71
     3
 72
    12
 73
     8
 74
     0
 42
0.0000000001
 43
0.0000000001
 40
5.584123975843409
 40
5.584123975843409
 40
5.584123975843409
 40
5.584123975843409
 40
5.751585780239908
 40
5.751585780239908
 40
5.919047584636407
 40
5.919047584636407
 40
6.246203584794978
 40
6.246203584794978
 40
6.246203584794978
 40
6.246203584794978
 10
287.8812443798196
 20
314.2092506225029
 30
0.0
 10
287.8812443798196
 20
314.2650712239684
 30
0.0
 10
287.8705168419705
 20
314.3158241601068
 30
0.0
 10
287.8378094572603
 20
314.4123900947371
 30
0.0
 10
287.8158028902671
 20
314.4581903636318
 30
0.0
 10
287.7414772447189
 20
314.5909881985493
 30
0.0
 10
287.6807727804596
 20
314.6753079093964
 30
0.0
 10
287.6159904825699
 20
314.7592506225029
 30
0.0
  0
SPLINE
  5
11E5
330
1F
100
AcDbEntity
  8
AM_VIS
100
AcDbSpline
210
0.0
220
0.0
230
1.0
 70
     8
 71
     3
 72
    15
 73
    11
 74
     0
 42
0.0000000001
 43
0.0000000001
 40
24.46074672700949
 40
24.46074672700949
 40
24.46074672700949
 40
24.46074672700949
 40
24.54074885574629
 40
24.54074885574629
 40
25.13253569302123
 40
25.13253569302123
 40
25.13253569302123
 40
25.72432253029617
 40
25.72432253029617
 40
25.80432465832659
 40
25.80432465832659
 40
25.80432465832659
 40
25.80432465832659
 10
288.9527240526088
 20
314.7592506222663
 30
0.0
 10
288.9262893081184
 20
314.7671726406567
 30
0.0
 10
288.899851450996
 20
314.7747820442304
 30
0.0
 10
288.6777991653561
 20
314.8357345535295
 30
0.0
 10
288.481619546326
 20
314.8694733043841
 30
0.0
 10
288.2843572672345
 20
314.8694733043841
 30
0.0
 10
288.087094988143
 20
314.8694733043841
 30
0.0
 10
287.8909153691129
 20
314.8357345535295
 30
0.0
 10
287.6688630837063
 20
314.7747820442944
 30
0.0
 10
287.6424252268273
 20
314.7671726408169
 30
0.0
 10
287.6159904825699
 20
314.7592506225029
 30
0.0
  0
SPLINE
  5
11E6
330
1F
100
AcDbEntity
  8
AM_VIS
100
AcDbSpline
210
0.0
220
0.0
230
1.0
 70
     8
 71
     3
 72
    12
 73
     8
 74
     0
 42
0.0000000001
 43
0.0000000001
 40
16.09029231831638
 40
16.09029231831638
 40
16.09029231831638
 40
16.09029231831638
 40
16.41744831873722
 40
16.41744831873722
 40
16.58491012313372
 40
16.58491012313372
 40
16.75237192753022
 40
16.75237192753022
 40
16.75237192753022
 40
16.75237192753022
 10
288.9527240520546
 20
314.7592506227045
 30
0.0
 10
288.887914572582
 20
314.6753299140304
 30
0.0
 10
288.8272372897897
 20
314.5909881986197
 30
0.0
 10
288.7529116442019
 20
314.4581903636318
 30
0.0
 10
288.7309050772087
 20
314.4123900947371
 30
0.0
 10
288.6981976924985
 20
314.3158241601068
 30
0.0
 10
288.6874701546494
 20
314.2650712239684
 30
0.0
 10
288.6874701546496
 20
314.2092506225029
 30
0.0
  0
LINE
  5
11E7
330
1F
100
AcDbEntity
  8
AM_VIS
100
AcDbLine
 10
287.8812443798196
 20
313.3092506225028
 30
0.0
 11
287.8812443798196
 21
314.2092506225029
 31
0.0
  0
LINE
  5
11E8
330
1F
100
AcDbEntity
  8
AM_VIS
100
AcDbLine
 10
288.6874701546494
 20
314.2092506225029
 30
0.0
 11
288.6874701546494
 21
313.3092506225028
 31
0.0
  0
SPLINE
  5
11E9
330
1F
100
AcDbEntity
  8
AM_VIS
100
AcDbSpline
210
0.0
220
0.0
230
1.0
 70
     8
 71
     3
 72
    18
 73
    14
 74
     0
 42
0.0000000001
 43
0.0000000001
 40
4.535092157001606
 40
4.535092157001606
 40
4.535092157001606
 40
4.535092157001606
 40
4.867466514058594
 40
4.867466514058594
 40
5.202390122851594
 40
5.202390122851594
 40
5.537313731644594
 40
5.537313731644594
 40
5.872237340437595
 40
5.872237340437595
 40
6.039699144834095
 40
6.039699144834095
 40
6.207160949230596
 40
6.207160949230596
 40
6.207160949230596
 40
6.207160949230596
 10
287.0133598744614
 20
312.0592506225029
 30
0.0
 10
287.0743435817196
 20
312.1271341796703
 30
0.0
 10
287.1385747160477
 20
312.1986925973524
 30
0.0
 10
287.2665571487227
 20
312.3426994505426
 30
0.0
 10
287.3351933554606
 20
312.4205807873604
 30
0.0
 10
287.4742907621152
 20
312.5829582877514
 30
0.0
 10
287.5448245006591
 20
312.667377560741
 30
0.0
 10
287.6779121696306
 20
312.8391682796464
 30
0.0
 10
287.7403100151514
 20
312.9254275541842
 30
0.0
 10
287.8158028902671
 20
313.060310881374
 30
0.0
 10
287.8378094572603
 20
313.1061111502686
 30
0.0
 10
287.8705168419705
 20
313.202677084899
 30
0.0
 10
287.8812443798196
 20
313.2534300210374
 30
0.0
 10
287.8812443798194
 20
313.3092506225028
 30
0.0
  0
SPLINE
  5
11EA
330
1F
100
AcDbEntity
  8
AM_VIS
100
AcDbSpline
210
0.0
220
0.0
230
1.0
 70
     8
 71
     3
 72
    18
 73
    14
 74
     0
 42
0.0000000001
 43
0.0000000001
 40
6.207160949230596
 40
6.207160949230596
 40
6.207160949230596
 40
6.207160949230596
 40
6.374622753627096
 40
6.374622753627096
 40
6.542084558023596
 40
6.542084558023596
 40
6.877008166816596
 40
6.877008166816596
 40
7.211931775609597
 40
7.211931775609597
 40
7.546855384402597
 40
7.546855384402597
 40
7.879229741459607
 40
7.879229741459607
 40
7.879229741459607
 40
7.879229741459607
 10
288.6874701546496
 20
313.3092506225028
 30
0.0
 10
288.6874701546494
 20
313.2534300210374
 30
0.0
 10
288.6981976924985
 20
313.202677084899
 30
0.0
 10
288.7309050772087
 20
313.1061111502686
 30
0.0
 10
288.7529116442019
 20
313.060310881374
 30
0.0
 10
288.8284045193177
 20
312.9254275541842
 30
0.0
 10
288.8908023648384
 20
312.8391682796464
 30
0.0
 10
289.0238900338099
 20
312.667377560741
 30
0.0
 10
289.094423772354
 20
312.5829582877514
 30
0.0
 10
289.2335211790084
 20
312.4205807873604
 30
0.0
 10
289.3021573857463
 20
312.3426994505426
 30
0.0
 10
289.4301398184213
 20
312.1986925973524
 30
0.0
 10
289.4943709527495
 20
312.1271341796703
 30
0.0
 10
289.5553546600076
 20
312.0592506225029
 30
0.0
  0
LINE
  5
11EB
330
1F
100
AcDbEntity
  8
AM_7
100
AcDbLine
 10
292.7843572672345
 20
322.5592506225029
 30
0.0
 11
292.7843572672345
 21
323.9592506225029
 31
0.0
  0
LINE
  5
11EC
330
1F
100
AcDbEntity
  8
AM_7
100
AcDbLine
 10
289.5843572672345
 20
320.7592506225029
 30
0.0
 11
290.9843572672345
 21
320.7592506225029
 31
0.0
  0
LINE
  5
11ED
330
1F
100
AcDbEntity
  8
AM_7
100
AcDbLine
 10
291.7843572672345
 20
320.7592506225029
 30
0.0
 11
293.7843572672345
 21
320.7592506225029
 31
0.0
  0
LINE
  5
11EE
330
1F
100
AcDbEntity
  8
AM_7
100
AcDbLine
 10
292.7843572672345
 20
319.7592506225029
 30
0.0
 11
292.7843572672345
 21
321.7592506225029
 31
0.0
  0
LINE
  5
11EF
330
1F
100
AcDbEntity
  8
AM_7
100
AcDbLine
 10
294.5843572672345
 20
320.7592506225029
 30
0.0
 11
295.9843572672346
 21
320.7592506225029
 31
0.0
  0
LINE
  5
11F0
330
1F
100
AcDbEntity
  8
AM_VIS
100
AcDbLine
 10
313.7843572672345
 20
316.0092506225029
 30
0.0
 11
313.7843572672345
 21
324.2592506225029
 31
0.0
  0
LINE
  5
11F1
330
1F
100
AcDbEntity
  8
AM_VIS
100
AcDbLine
 10
313.7843572672345
 20
316.0092506225029
 30
0.0
 11
313.7843572672345
 21
315.6592506225028
 31
0.0
  0
LINE
  5
11F2
330
1F
100
AcDbEntity
  8
AM_VIS
100
AcDbLine
 10
313.7843572672345
 20
314.2092506225029
 30
0.0
 11
313.7843572672345
 21
313.3092506225028
 31
0.0
  0
LINE
  5
11F3
330
1F
100
AcDbEntity
  8
AM_VIS
100
AcDbLine
 10
313.7843572672345
 20
315.6592506225028
 30
0.0
 11
313.7843572672345
 21
315.4592506225029
 31
0.0
  0
LINE
  5
11F4
330
1F
100
AcDbEntity
  8
AM_VIS
100
AcDbLine
 10
313.7843572672345
 20
314.2092506225029
 30
0.0
 11
313.7843572672345
 21
315.4592506225028
 31
0.0
  0
LINE
  5
11F5
330
1F
100
AcDbEntity
  8
AM_VIS
100
AcDbLine
 10
313.7843572672345
 20
311.8592506225029
 30
0.0
 11
313.7843572672345
 21
311.5092506225029
 31
0.0
  0
LINE
  5
11F6
330
1F
100
AcDbEntity
  8
AM_VIS
100
AcDbLine
 10
313.7843572672345
 20
312.0592506225028
 30
0.0
 11
313.7843572672345
 21
311.8592506225029
 31
0.0
  0
LINE
  5
11F7
330
1F
100
AcDbEntity
  8
AM_VIS
100
AcDbLine
 10
313.7843572672345
 20
312.059250622503
 30
0.0
 11
313.7843572672345
 21
313.3092506225029
 31
0.0
  0
LINE
  5
11F8
330
1F
100
AcDbEntity
  8
AM_VIS
100
AcDbLine
 10
313.7843572672345
 20
324.2592506225029
 30
0.0
 11
313.7843572672345
 21
324.7592506225029
 31
0.0
  0
LINE
  5
11F9
330
1F
100
AcDbEntity
  8
AM_7
100
AcDbLine
 10
367.166890961246
 20
238.7437247846445
 30
0.0
 11
367.166890961246
 21
247.5437247846445
 31
0.0
  0
LINE
  5
11FA
330
1F
100
AcDbEntity
  8
AM_VIS
100
AcDbLine
 10
356.166890961246
 20
232.8437247846445
 30
0.0
 11
356.166890961246
 21
265.8437247846445
 31
0.0
  0
LINE
  5
11FB
330
1F
100
AcDbEntity
  8
AM_VIS
100
AcDbLine
 10
378.166890961246
 20
265.8437247846445
 30
0.0
 11
378.166890961246
 21
232.8437247846445
 31
0.0
  0
CIRCLE
  5
11FC
330
1F
100
AcDbEntity
  8
AM_VIS
100
AcDbCircle
 10
367.166890961246
 20
249.3437247846445
 30
0.0
 40
9.3
  0
CIRCLE
  5
11FD
330
1F
100
AcDbEntity
  8
AM_VIS
100
AcDbCircle
 10
367.166890961246
 20
249.3437247846445
 30
0.0
 40
9.0
  0
LINE
  5
11FE
330
1F
100
AcDbEntity
  8
AM_VIS
100
AcDbLine
 10
378.166890961246
 20
232.8437247846445
 30
0.0
 11
377.666890961246
 21
232.3437247846445
 31
0.0
  0
LINE
  5
11FF
330
1F
100
AcDbEntity
  8
AM_VIS
100
AcDbLine
 10
364.916890961246
 20
232.3437247846445
 30
0.0
 11
356.666890961246
 21
232.3437247846445
 31
0.0
  0
LINE
  5
1200
330
1F
100
AcDbEntity
  8
AM_VIS
100
AcDbLine
 10
356.666890961246
 20
232.3437247846445
 30
0.0
 11
356.166890961246
 21
232.8437247846445
 31
0.0
  0
LINE
  5
1201
330
1F
100
AcDbEntity
  8
AM_VIS
100
AcDbLine
 10
368.966890961246
 20
234.6750011014381
 30
0.0
 11
365.4387422761317
 21
234.6750011014381
 31
0.0
  0
LINE
  5
1202
330
1F
100
AcDbEntity
  8
AM_VIS
100
AcDbLine
 10
364.916890961246
 20
232.4862221714048
 30
0.0
 11
368.966890961246
 21
232.4862221714048
 31
0.0
  0
ARC
  5
1203
330
1F
100
AcDbEntity
  8
AM_VIS
100
AcDbCircle
 10
367.6168909612461
 20
237.2437247846444
 30
0.0
 40
1.699999999999999
100
AcDbArc
 50
0.0
 51
90.0
  0
LINE
  5
1204
330
1F
100
AcDbEntity
  8
AM_VIS
100
AcDbLine
 10
366.716890961246
 20
238.9437247846444
 30
0.0
 11
367.6168909612461
 21
238.9437247846444
 31
0.0
  0
ARC
  5
1205
330
1F
100
AcDbEntity
  8
AM_VIS
100
AcDbCircle
 10
365.2668909612459
 20
233.5437247846444
 30
0.0
 40
0.2
100
AcDbArc
 50
270.0
 51
0.0
  0
LINE
  5
1206
330
1F
100
AcDbEntity
  8
AM_VIS
100
AcDbLine
 10
365.466890961246
 20
233.5437247846444
 30
0.0
 11
365.466890961246
 21
234.6437247846445
 31
0.0
  0
LINE
  5
1207
330
1F
100
AcDbEntity
  8
AM_VIS
100
AcDbLine
 10
365.0168909612459
 20
235.1437247846444
 30
0.0
 11
365.0168909612459
 21
237.2437247846444
 31
0.0
  0
LINE
  5
1208
330
1F
100
AcDbEntity
  8
AM_VIS
100
AcDbLine
 10
364.916890961246
 20
232.3437247846445
 30
0.0
 11
364.916890961246
 21
233.3437247846445
 31
0.0
  0
LINE
  5
1209
330
1F
100
AcDbEntity
  8
AM_VIS
100
AcDbLine
 10
364.916890961246
 20
233.3437247846445
 30
0.0
 11
365.2668909612459
 21
233.3437247846445
 31
0.0
  0
LINE
  5
120A
330
1F
100
AcDbEntity
  8
AM_VIS
100
AcDbLine
 10
365.466890961246
 20
234.6437247846444
 30
0.0
 11
365.0168909612459
 21
235.1437247846444
 31
0.0
  0
ARC
  5
120B
330
1F
100
AcDbEntity
  8
AM_VIS
100
AcDbCircle
 10
366.716890961246
 20
237.2437247846444
 30
0.0
 40
1.7
100
AcDbArc
 50
90.0
 51
180.0
  0
LINE
  5
120C
330
1F
100
AcDbEntity
  8
AM_7
100
AcDbLine
 10
374.166890961246
 20
235.3437247846445
 30
0.0
 11
374.166890961246
 21
237.3437247846445
 31
0.0
  0
LINE
  5
120D
330
1F
100
AcDbEntity
  8
AM_7
100
AcDbLine
 10
370.916890961246
 20
236.3437247846444
 30
0.0
 11
372.366890961246
 21
236.3437247846444
 31
0.0
  0
LINE
  5
120E
330
1F
100
AcDbEntity
  8
AM_7
100
AcDbLine
 10
373.166890961246
 20
236.3437247846444
 30
0.0
 11
375.166890961246
 21
236.3437247846444
 31
0.0
  0
CIRCLE
  5
120F
330
1F
100
AcDbEntity
  8
AM_VIS
100
AcDbCircle
 10
374.166890961246
 20
236.3437247846444
 30
0.0
 40
1.649999999999999
  0
LINE
  5
1210
330
1F
100
AcDbEntity
  8
AM_7
100
AcDbLine
 10
374.166890961246
 20
233.0937247846445
 30
0.0
 11
374.166890961246
 21
234.5437247846445
 31
0.0
  0
LINE
  5
1211
330
1F
100
AcDbEntity
  8
AM_7
100
AcDbLine
 10
375.966890961246
 20
236.3437247846444
 30
0.0
 11
377.416890961246
 21
236.3437247846444
 31
0.0
  0
LINE
  5
1212
330
1F
100
AcDbEntity
  8
AM_7
100
AcDbLine
 10
374.166890961246
 20
238.1437247846445
 30
0.0
 11
374.166890961246
 21
239.5937247846445
 31
0.0
  0
LINE
  5
1213
330
1F
100
AcDbEntity
  8
AM_VIS
100
AcDbLine
 10
369.3168909612461
 20
237.2437247846445
 30
0.0
 11
369.3168909612461
 21
235.1437247846445
 31
0.0
  0
LINE
  5
1214
330
1F
100
AcDbEntity
  8
AM_VIS
100
AcDbLine
 10
369.3168909612461
 20
235.1437247846445
 30
0.0
 11
368.966890961246
 21
234.6437247846445
 31
0.0
  0
LINE
  5
1215
330
1F
100
AcDbEntity
  8
AM_VIS
100
AcDbLine
 10
368.966890961246
 20
234.6437247846444
 30
0.0
 11
368.966890961246
 21
234.6750011014381
 31
0.0
  0
LINE
  5
1216
330
1F
100
AcDbEntity
  8
AM_VIS
100
AcDbLine
 10
368.966890961246
 20
234.675001101438
 30
0.0
 11
368.966890961246
 21
238.276923700633
 31
0.0
  0
LINE
  5
1217
330
1F
100
AcDbEntity
  8
AM_VIS
100
AcDbLine
 10
369.3168909612461
 20
235.3437247846444
 30
0.0
 11
368.966890961246
 21
235.3437247846444
 31
0.0
  0
LINE
  5
1218
330
1F
100
AcDbEntity
  8
AM_VIS
100
AcDbLine
 10
369.166890961246
 20
233.3437247846445
 30
0.0
 11
369.416890961246
 21
233.3437247846445
 31
0.0
  0
LINE
  5
1219
330
1F
100
AcDbEntity
  8
AM_VIS
100
AcDbLine
 10
369.416890961246
 20
233.3437247846445
 30
0.0
 11
369.416890961246
 21
232.3437247846445
 31
0.0
  0
ARC
  5
121A
330
1F
100
AcDbEntity
  8
AM_VIS
100
AcDbCircle
 10
369.166890961246
 20
233.5437247846444
 30
0.0
 40
0.2
100
AcDbArc
 50
180.0
 51
270.0
  0
LINE
  5
121B
330
1F
100
AcDbEntity
  8
AM_VIS
100
AcDbLine
 10
368.966890961246
 20
232.4862221714047
 30
0.0
 11
368.966890961246
 21
233.5437247846444
 31
0.0
  0
LINE
  5
121C
330
1F
100
AcDbEntity
  8
AM_VIS
100
AcDbLine
 10
369.416890961246
 20
232.8437247846445
 30
0.0
 11
368.966890961246
 21
232.8437247846445
 31
0.0
  0
LINE
  5
121D
330
1F
100
AcDbEntity
  8
AM_VIS
100
AcDbLine
 10
368.966890961246
 20
234.6437247846444
 30
0.0
 11
368.966890961246
 21
233.5437247846444
 31
0.0
  0
LINE
  5
121E
330
1F
100
AcDbEntity
  8
AM_VIS
100
AcDbLine
 10
377.666890961246
 20
232.3437247846445
 30
0.0
 11
369.416890961246
 21
232.3437247846445
 31
0.0
  0
LINE
  5
121F
330
1F
100
AcDbEntity
  8
AM_VIS
100
AcDbLine
 10
377.666890961246
 20
266.3437247846445
 30
0.0
 11
378.166890961246
 21
265.8437247846445
 31
0.0
  0
LINE
  5
1220
330
1F
100
AcDbEntity
  8
AM_VIS
100
AcDbLine
 10
365.3668909612461
 20
263.9326136735332
 30
0.0
 11
365.3668909612461
 21
260.4105258686559
 31
0.0
  0
ARC
  5
1221
330
1F
100
AcDbEntity
  8
AM_VIS
100
AcDbCircle
 10
367.6168909612461
 20
261.4437247846444
 30
0.0
 40
1.7
100
AcDbArc
 50
270.0
 51
0.0
  0
LINE
  5
1222
330
1F
100
AcDbEntity
  8
AM_7
100
AcDbLine
 10
360.166890961246
 20
259.0937247846444
 30
0.0
 11
360.166890961246
 21
260.5437247846444
 31
0.0
  0
ARC
  5
1223
330
1F
100
AcDbEntity
  8
AM_VIS
100
AcDbCircle
 10
366.716890961246
 20
261.4437247846444
 30
0.0
 40
1.7
100
AcDbArc
 50
180.0
 51
270.0
  0
LINE
  5
1224
330
1F
100
AcDbEntity
  8
AM_7
100
AcDbLine
 10
356.5668909612461
 20
249.3437247846445
 30
0.0
 11
365.3668909612461
 21
249.3437247846445
 31
0.0
  0
LINE
  5
1225
330
1F
100
AcDbEntity
  8
AM_VIS
100
AcDbLine
 10
358.7030620404798
 20
246.2837247846445
 30
0.0
 11
360.2972778717046
 21
246.8600951826305
 31
0.0
  0
LINE
  5
1226
330
1F
100
AcDbEntity
  8
AM_VIS
100
AcDbLine
 10
360.2972778717046
 20
251.8273543866584
 30
0.0
 11
358.7030620404798
 21
252.4037247846445
 31
0.0
  0
ARC
  5
1227
330
1F
100
AcDbEntity
  8
AM_VIS
100
AcDbCircle
 10
366.541890961246
 20
249.3437247846445
 30
0.0
 40
7.625000000000014
100
AcDbArc
 50
244.8582700689092
 51
115.1417299310907
  0
ARC
  5
1228
330
1F
100
AcDbEntity
  8
AM_VIS
100
AcDbCircle
 10
367.166890961246
 20
249.3437247846445
 30
0.0
 40
8.699999999999999
100
AcDbArc
 50
160.12312592992
 51
180.0
  0
ARC
  5
1229
330
1F
100
AcDbEntity
  8
AM_VIS
100
AcDbCircle
 10
367.166890961246
 20
249.3437247846445
 30
0.0
 40
8.699999999999999
100
AcDbArc
 50
180.0
 51
199.8768740700791
  0
LINE
  5
122A
330
1F
100
AcDbEntity
  8
AM_7
100
AcDbLine
 10
367.166890961246
 20
248.3437247846445
 30
0.0
 11
367.166890961246
 21
250.3437247846445
 31
0.0
  0
LINE
  5
122B
330
1F
100
AcDbEntity
  8
AM_7
100
AcDbLine
 10
366.166890961246
 20
249.3437247846445
 30
0.0
 11
368.166890961246
 21
249.3437247846445
 31
0.0
  0
CIRCLE
  5
122C
330
1F
100
AcDbEntity
  8
AM_VIS
100
AcDbCircle
 10
360.8752778717046
 20
245.2613719420413
 30
0.0
 40
0.85
  0
ARC
  5
122D
330
1F
100
AcDbEntity
  8
AM_VIS
100
AcDbCircle
 10
364.0246022258431
 20
243.9800616312935
 30
0.0
 40
1.7
100
AcDbArc
 50
157.8609301158689
 51
244.8582700689092
  0
ARC
  5
122E
330
1F
100
AcDbEntity
  8
AM_VIS
100
AcDbCircle
 10
360.8752778717046
 20
245.2613719420413
 30
0.0
 40
1.7
100
AcDbArc
 50
337.8609301158689
 51
109.8768740700737
  0
LINE
  5
122F
330
1F
100
AcDbEntity
  8
AM_7
100
AcDbLine
 10
368.966890961246
 20
249.3437247846445
 30
0.0
 11
377.7668909612459
 21
249.3437247846445
 31
0.0
  0
LINE
  5
1230
330
1F
100
AcDbEntity
  8
AM_VIS
100
AcDbLine
 10
367.6168909612461
 20
259.7437247846444
 30
0.0
 11
366.716890961246
 21
259.7437247846444
 31
0.0
  0
CIRCLE
  5
1231
330
1F
100
AcDbEntity
  8
AM_VIS
100
AcDbCircle
 10
360.8752778717046
 20
253.4260776272476
 30
0.0
 40
0.85
  0
ARC
  5
1232
330
1F
100
AcDbEntity
  8
AM_VIS
100
AcDbCircle
 10
360.8752778717046
 20
253.4260776272476
 30
0.0
 40
1.7
100
AcDbArc
 50
250.1231259299262
 51
22.13906988413102
  0
LINE
  5
1233
330
1F
100
AcDbEntity
  8
AM_7
100
AcDbLine
 10
367.166890961246
 20
251.1437247846445
 30
0.0
 11
367.166890961246
 21
259.9437247846444
 31
0.0
  0
ARC
  5
1234
330
1F
100
AcDbEntity
  8
AM_VIS
100
AcDbCircle
 10
364.0246022258431
 20
254.7073879379954
 30
0.0
 40
1.7
100
AcDbArc
 50
115.1417299310907
 51
202.139069884131
  0
LINE
  5
1235
330
1F
100
AcDbEntity
  8
AM_7
100
AcDbLine
 10
359.166890961246
 20
262.3437247846445
 30
0.0
 11
361.166890961246
 21
262.3437247846445
 31
0.0
  0
LINE
  5
1236
330
1F
100
AcDbEntity
  8
AM_VIS
100
AcDbLine
 10
356.666890961246
 20
266.3437247846445
 30
0.0
 11
364.916890961246
 21
266.3437247846445
 31
0.0
  0
CIRCLE
  5
1237
330
1F
100
AcDbEntity
  8
AM_VIS
100
AcDbCircle
 10
360.166890961246
 20
262.3437247846445
 30
0.0
 40
1.649999999999999
  0
LINE
  5
1238
330
1F
100
AcDbEntity
  8
AM_VIS
100
AcDbLine
 10
356.166890961246
 20
265.8437247846445
 30
0.0
 11
356.666890961246
 21
266.3437247846445
 31
0.0
  0
LINE
  5
1239
330
1F
100
AcDbEntity
  8
AM_7
100
AcDbLine
 10
356.916890961246
 20
262.3437247846445
 30
0.0
 11
358.3668909612461
 21
262.3437247846445
 31
0.0
  0
LINE
  5
123A
330
1F
100
AcDbEntity
  8
AM_VIS
100
AcDbLine
 10
369.416890961246
 20
266.2012273978841
 30
0.0
 11
365.3668909612461
 21
266.2012273978841
 31
0.0
  0
LINE
  5
123B
330
1F
100
AcDbEntity
  8
AM_VIS
100
AcDbLine
 10
365.4387422761317
 20
264.0124484678508
 30
0.0
 11
368.8950396463603
 21
264.0124484678508
 31
0.0
  0
LINE
  5
123C
330
1F
100
AcDbEntity
  8
AM_VIS
100
AcDbLine
 10
364.916890961246
 20
265.3437247846444
 30
0.0
 11
364.916890961246
 21
266.3437247846445
 31
0.0
  0
LINE
  5
123D
330
1F
100
AcDbEntity
  8
AM_VIS
100
AcDbLine
 10
365.2668909612459
 20
265.3437247846444
 30
0.0
 11
364.916890961246
 21
265.3437247846444
 31
0.0
  0
LINE
  5
123E
330
1F
100
AcDbEntity
  8
AM_VIS
100
AcDbLine
 10
364.916890961246
 20
265.8437247846445
 30
0.0
 11
365.3668909612461
 21
265.8437247846445
 31
0.0
  0
LINE
  5
123F
330
1F
100
AcDbEntity
  8
AM_VIS
100
AcDbLine
 10
365.0168909612459
 20
261.4437247846444
 30
0.0
 11
365.0168909612459
 21
263.5437247846445
 31
0.0
  0
LINE
  5
1240
330
1F
100
AcDbEntity
  8
AM_7
100
AcDbLine
 10
360.166890961246
 20
261.3437247846444
 30
0.0
 11
360.166890961246
 21
263.3437247846444
 31
0.0
  0
LINE
  5
1241
330
1F
100
AcDbEntity
  8
AM_7
100
AcDbLine
 10
361.966890961246
 20
262.3437247846445
 30
0.0
 11
363.416890961246
 21
262.3437247846445
 31
0.0
  0
LINE
  5
1242
330
1F
100
AcDbEntity
  8
AM_VIS
100
AcDbLine
 10
365.0168909612459
 20
263.5437247846445
 30
0.0
 11
365.466890961246
 21
264.0437247846445
 31
0.0
  0
LINE
  5
1243
330
1F
100
AcDbEntity
  8
AM_VIS
100
AcDbLine
 10
365.0168909612459
 20
263.3437247846445
 30
0.0
 11
365.3668909612458
 21
263.3437247846445
 31
0.0
  0
LINE
  5
1244
330
1F
100
AcDbEntity
  8
AM_7
100
AcDbLine
 10
360.166890961246
 20
264.1437247846445
 30
0.0
 11
360.166890961246
 21
265.5937247846444
 31
0.0
  0
LINE
  5
1245
330
1F
100
AcDbEntity
  8
AM_VIS
100
AcDbLine
 10
365.466890961246
 20
264.0437247846445
 30
0.0
 11
365.466890961246
 21
265.1437247846444
 31
0.0
  0
ARC
  5
1246
330
1F
100
AcDbEntity
  8
AM_VIS
100
AcDbCircle
 10
365.2668909612459
 20
265.1437247846445
 30
0.0
 40
0.2
100
AcDbArc
 50
0.0
 51
90.0
  0
LINE
  5
1247
330
1F
100
AcDbEntity
  8
AM_VIS
100
AcDbLine
 10
365.3668909612461
 20
266.2012273978841
 30
0.0
 11
365.3668909612461
 21
265.3169298654014
 31
0.0
  0
LINE
  5
1248
330
1F
100
AcDbEntity
  8
AM_VIS
100
AcDbLine
 10
368.8668909612461
 20
264.0437247846445
 30
0.0
 11
369.3168909612461
 21
263.5437247846445
 31
0.0
  0
LINE
  5
1249
330
1F
100
AcDbEntity
  8
AM_VIS
100
AcDbLine
 10
369.3168909612461
 20
263.5437247846445
 30
0.0
 11
369.3168909612461
 21
261.4437247846444
 31
0.0
  0
LINE
  5
124A
330
1F
100
AcDbEntity
  8
AM_VIS
100
AcDbLine
 10
368.8668909612461
 20
265.1437247846445
 30
0.0
 11
368.8668909612461
 21
264.0437247846445
 31
0.0
  0
LINE
  5
124B
330
1F
100
AcDbEntity
  8
AM_VIS
100
AcDbLine
 10
369.416890961246
 20
266.3437247846445
 30
0.0
 11
377.666890961246
 21
266.3437247846445
 31
0.0
  0
LINE
  5
124C
330
1F
100
AcDbEntity
  8
AM_VIS
100
AcDbLine
 10
369.416890961246
 20
265.3437247846444
 30
0.0
 11
369.0668909612461
 21
265.3437247846444
 31
0.0
  0
LINE
  5
124D
330
1F
100
AcDbEntity
  8
AM_VIS
100
AcDbLine
 10
369.416890961246
 20
266.3437247846445
 30
0.0
 11
369.416890961246
 21
265.3437247846444
 31
0.0
  0
ARC
  5
124E
330
1F
100
AcDbEntity
  8
AM_VIS
100
AcDbCircle
 10
369.0668909612461
 20
265.1437247846445
 30
0.0
 40
0.2
100
AcDbArc
 50
90.0
 51
180.0
  0
DIMENSION
  5
124F
330
1F
100
AcDbEntity
  8
AM_5
100
AcDbDimension
  2
*D3
 10
291.7843572672345
 20
150.7835507433069
 30
0.0
 11
302.7843572672345
 21
153.3338952314959
 31
0.0
 70
    32
  3
STANDARD
100
AcDbAlignedDimension
 13
313.7843572672345
 23
162.783551743307
 33
0.0
 14
291.7843572672345
 24
161.933551743307
 34
0.0
100
AcDbRotatedDimension
1001
ACAD
1000
DSTYLE
1002
{
1070
    44
1040
2.0
1002
}
  0
DIMENSION
  5
1250
330
1F
100
AcDbEntity
  8
AM_5
100
AcDbDimension
  2
*D4
 10
325.7843572672345
 20
179.783551743307
 30
0.0
 11
323.2340127790455
 21
173.783551743307
 31
0.0
 70
    32
  3
STANDARD
100
AcDbAlignedDimension
 13
297.6343572672346
 23
167.783551743307
 33
0.0
 14
312.1343572672346
 24
179.783551743307
 34
0.0
 50
90.0
100
AcDbRotatedDimension
1001
ACAD
1000
DSTYLE
1002
{
1070
    44
1040
2.0
1002
}
  0
DIMENSION
  5
1251
330
1F
100
AcDbEntity
  8
AM_5
100
AcDbDimension
  2
*D5
 10
306.2843572672345
 20
194.3602713351612
 30
0.0
 11
310.0343572672345
 21
196.9102713351612
 31
0.0
 70
    32
  3
STANDARD
100
AcDbAlignedDimension
 13
313.7843572672345
 23
184.783551743307
 33
0.0
 14
306.2843572672345
 24
185.633551743307
 34
0.0
100
AcDbRotatedDimension
1001
ACAD
1000
DSTYLE
1002
{
1070
    44
1040
2.0
1002
}
  0
DIMENSION
  5
1252
330
1F
100
AcDbEntity
  8
AM_5
100
AcDbDimension
  2
*D6
 10
243.2843572672345
 20
156.283551743307
 30
0.0
 11
232.7118698938192
 21
156.283551743307
 31
0.0
 70
   160
  3
STANDARD
100
AcDbAlignedDimension
 13
240.2843572672345
 23
168.283551743307
 33
0.0
 14
243.2843572672345
 24
170.933551743307
 34
0.0
100
AcDbRotatedDimension
1001
ACAD
1000
DSTYLE
1002
{
1070
    44
1040
2.0
1070
   173
1070
     1
1070
   174
1070
     1
1070
     7
1000
GENDOT
1002
}
  0
DIMENSION
  5
1253
330
1F
100
AcDbEntity
  8
AM_5
100
AcDbDimension
  2
*D7
 10
251.2843572672345
 20
156.283551743307
 30
0.0
 11
247.2843572672345
 21
158.833551743307
 31
0.0
 70
    32
  3
STANDARD
100
AcDbAlignedDimension
 13
243.2843572672345
 23
170.933551743307
 33
0.0
 14
251.2843572672345
 24
170.933551743307
 34
0.0
100
AcDbRotatedDimension
1001
ACAD
1000
DSTYLE
1002
{
1070
    44
1040
2.0
1070
   173
1070
     1
1070
   174
1070
     1
1070
     6
1000
GENDOT
1002
}
  0
DIMENSION
  5
1254
330
1F
100
AcDbEntity
  8
AM_5
100
AcDbDimension
  2
*D8
 10
228.2843572672345
 20
168.283551743307
 30
0.0
 11
225.7343572672345
 21
173.783551743307
 31
0.0
 70
    32
  3
STANDARD
100
AcDbAlignedDimension
 13
240.2843572672345
 23
179.283551743307
 33
0.0
 14
240.2843572672345
 24
168.283551743307
 34
0.0
 50
90.0
100
AcDbRotatedDimension
1001
ACAD
1000
DSTYLE
1002
{
1070
    44
1040
2.0
1002
}
  0
DIMENSION
  5
1255
330
1F
100
AcDbEntity
  8
AM_5
100
AcDbDimension
  2
*D9
 10
255.2843572672345
 20
220.3437247846444
 30
0.0
 11
247.7843572672345
 21
222.8937247846444
 31
0.0
 70
    32
  3
STANDARD
100
AcDbAlignedDimension
 13
240.2843572672345
 23
232.8437247846445
 33
0.0
 14
255.2843572672345
 24
232.3437247846445
 34
0.0
100
AcDbRotatedDimension
1001
ACAD
1000
DSTYLE
1002
{
1070
    44
1040
2.0
1002
}
  0
DIMENSION
  5
1256
330
1F
100
AcDbEntity
  8
AM_5
100
AcDbDimension
  2
*D10
 10
313.7843572672345
 20
220.3437247846445
 30
0.0
 11
284.5343572672345
 21
222.8937247846445
 31
0.0
 70
    32
  3
STANDARD
100
AcDbAlignedDimension
 13
255.2843572672345
 23
232.3437247846445
 33
0.0
 14
313.7843572672345
 24
232.3437247846445
 34
0.0
100
AcDbRotatedDimension
1001
ACAD
1000
DSTYLE
1002
{
1070
    44
1040
2.0
1002
}
  0
DIMENSION
  5
1257
330
1F
100
AcDbEntity
  8
AM_5
100
AcDbDimension
  2
*D11
 10
374.166890961246
 20
220.3437247846445
 30
0.0
 11
367.166890961246
 21
222.8937247846445
 31
0.0
 70
    32
  3
STANDARD
100
AcDbAlignedDimension
 13
360.166890961246
 23
259.0937247846444
 33
0.0
 14
374.166890961246
 24
233.0937247846445
 34
0.0
100
AcDbRotatedDimension
1001
ACAD
1000
DSTYLE
1002
{
1070
    44
1040
2.0
1002
}
  0
DIMENSION
  5
1258
330
1F
100
AcDbEntity
  8
AM_5
100
AcDbDimension
  2
*D12
 10
378.166890961246
 20
212.3437247846445
 30
0.0
 11
367.166890961246
 21
214.8940692728335
 31
0.0
 70
    32
  3
STANDARD
100
AcDbAlignedDimension
 13
356.166890961246
 23
232.8437247846445
 33
0.0
 14
378.166890961246
 24
232.8437247846445
 34
0.0
100
AcDbRotatedDimension
1001
ACAD
1000
DSTYLE
1002
{
1070
    44
1040
2.0
1002
}
  0
DIMENSION
  5
1259
330
1F
100
AcDbEntity
  8
AM_5
100
AcDbDimension
  2
*D13
 10
344.1668909612461
 20
236.3437247846444
 30
0.0
 11
344.166890961246
 21
249.3437247846445
 31
0.0
 70
   160
  3
STANDARD
100
AcDbAlignedDimension
 13
356.916890961246
 23
262.3437247846445
 33
0.0
 14
370.916890961246
 24
236.3437247846444
 34
0.0
 50
90.0
100
AcDbRotatedDimension
1001
ACAD
1000
DSTYLE
1002
{
1070
    44
1040
2.0
1002
}
  0
DIMENSION
  5
125A
330
1F
100
AcDbEntity
  8
AM_5
100
AcDbDimension
  2
*D14
 10
336.1668909612461
 20
232.3437247846445
 30
0.0
 11
336.166890961246
 21
249.3437247846445
 31
0.0
 70
   160
  3
STANDARD
100
AcDbAlignedDimension
 13
356.666890961246
 23
266.3437247846445
 33
0.0
 14
356.666890961246
 24
232.3437247846445
 34
0.0
 50
90.0
100
AcDbRotatedDimension
1001
ACAD
1000
DSTYLE
1002
{
1070
    44
1040
2.0
1002
}
  0
DIMENSION
  5
125B
330
1F
100
AcDbEntity
  8
AM_5
100
AcDbDimension
  2
*D15
 10
324.0504178946334
 20
237.3437247846444
 30
0.0
 11
321.5000734064444
 21
249.3437247846445
 31
0.0
 70
    32
  3
STANDARD
100
AcDbAlignedDimension
 13
291.5343572672345
 23
261.3437247846444
 33
0.0
 14
291.5343572672345
 24
237.3437247846445
 34
0.0
 50
90.0
100
AcDbRotatedDimension
1001
ACAD
1000
DSTYLE
1002
{
1070
    44
1040
2.0
1002
}
  0
DIMENSION
  5
125C
330
1F
100
AcDbEntity
  8
AM_5
100
AcDbDimension
  2
*D16
 10
288.2843572672345
 20
274.7561966967353
 30
0.0
 11
301.0343572672345
 21
277.3065411849243
 31
0.0
 70
    32
  3
STANDARD
100
AcDbAlignedDimension
 13
313.7843572672345
 23
266.3437247846445
 33
0.0
 14
288.2843572672345
 24
264.5937247846445
 34
0.0
100
AcDbRotatedDimension
1001
ACAD
1000
DSTYLE
1002
{
1070
    44
1040
2.0
1002
}
  0
DIMENSION
  5
125D
330
1F
100
AcDbEntity
  8
AM_5
100
AcDbDimension
  2
*D17
 10
228.2843572672345
 20
237.8437247846445
 30
0.0
 11
225.7343572672345
 21
235.3437247846445
 31
0.0
 70
    32
  3
STANDARD
100
AcDbAlignedDimension
 13
240.2843572672345
 23
232.8437247846445
 33
0.0
 14
240.2843572672345
 24
237.8437247846445
 34
0.0
 50
90.0
100
AcDbRotatedDimension
1001
ACAD
1000
DSTYLE
1002
{
1070
    44
1040
2.0
1002
}
  0
DIMENSION
  5
125E
330
1F
100
AcDbEntity
  8
AM_5
100
AcDbDimension
  2
*D18
 10
228.2843572672345
 20
265.8437247846445
 30
0.0
 11
225.7343572672345
 21
263.3437247846445
 31
0.0
 70
    32
  3
STANDARD
100
AcDbAlignedDimension
 13
240.2843572672345
 23
260.8437247846445
 33
0.0
 14
240.2843572672345
 24
265.8437247846445
 34
0.0
 50
90.0
100
AcDbRotatedDimension
1001
ACAD
1000
DSTYLE
1002
{
1070
    44
1040
2.0
1002
}
  0
DIMENSION
  5
125F
330
1F
100
AcDbEntity
  8
AM_5
100
AcDbDimension
  2
*D19
 10
220.2843572672346
 20
232.8437247846445
 30
0.0
 11
220.2843572672345
 21
245.8139173663825
 31
0.0
 70
   160
  1
<>
  3
STANDARD
100
AcDbAlignedDimension
 13
240.2843572672345
 23
265.8437247846445
 33
0.0
 14
240.2843572672345
 24
232.8437247846445
 34
0.0
 50
90.0
100
AcDbRotatedDimension
1001
ACAD
1000
DSTYLE
1002
{
1070
    44
1040
2.0
1002
}
  0
DIMENSION
  5
1260
330
1F
100
AcDbEntity
  8
AM_5
100
AcDbDimension
  2
*D20
 10
292.7843572672345
 20
290.7592506225029
 30
0.0
 11
303.2843572672345
 21
293.3095951106918
 31
0.0
 70
    32
  3
STANDARD
100
AcDbAlignedDimension
 13
313.7843572672345
 23
302.7592506225029
 33
0.0
 14
292.7843572672345
 24
303.5592506225029
 34
0.0
100
AcDbRotatedDimension
1001
ACAD
1000
DSTYLE
1002
{
1070
    44
1040
2.0
1002
}
  0
INSERT
  5
1261
330
1F
100
AcDbEntity
  8
AM_5
100
AcDbBlockReference
  2
*S22
 10
0.0
 20
0.0
 30
0.0
  0
TEXT
  5
1262
330
1F
100
AcDbEntity
  8
圖層4
 62
     5
100
AcDbText
 10
259.6243193114362
 20
194.3209835536108
 30
0.0
 40
3.5
  1
2-M5x0.8x5 depth
 41
0.9
100
AcDbText
  0
ARC
  5
1263
330
1F
100
AcDbEntity
  8
AM_4
  6
HIDDEN2
100
AcDbCircle
 10
291.7843572672343
 20
167.783551743307
 30
0.0
 40
2.5
100
AcDbArc
 50
260.0000000000013
 51
169.9999999999997
  0
DIMENSION
  5
1264
330
1F
100
AcDbEntity
  8
AM_5
100
AcDbDimension
  2
*D21
 10
313.7843572672345
 20
212.3437247846445
 30
0.0
 11
277.0343572672345
 21
214.8937247846445
 31
0.0
 70
    32
  3
STANDARD
100
AcDbAlignedDimension
 13
240.2843572672345
 23
232.8437247846445
 33
0.0
 14
313.7843572672345
 24
232.3437247846445
 34
0.0
100
AcDbRotatedDimension
  0
ARC
  5
1265
330
1F
100
AcDbEntity
  8
AM_4
  6
HIDDEN2
100
AcDbCircle
 10
288.2843572672345
 20
237.3437247846445
 30
0.0
 40
2.0
100
AcDbArc
 50
260.0000000000013
 51
169.9999999999997
  0
ARC
  5
1266
330
1F
100
AcDbEntity
  8
AM_4
  6
HIDDEN2
100
AcDbCircle
 10
360.166890961246
 20
262.3437247846445
 30
0.0
 40
2.0
100
AcDbArc
 50
260.0000000000013
 51
169.9999999999997
  0
ARC
  5
1267
330
1F
100
AcDbEntity
  8
AM_4
  6
HIDDEN2
100
AcDbCircle
 10
374.166890961246
 20
236.3437247846444
 30
0.0
 40
2.0
100
AcDbArc
 50
260.0000000000013
 51
169.9999999999997
  0
INSERT
  5
1268
330
1F
100
AcDbEntity
  8
AM_5
100
AcDbBlockReference
  2
*S23
 10
0.0
 20
0.0
 30
0.0
  0
TEXT
  5
1269
330
1F
100
AcDbEntity
  8
圖層4
 62
     5
100
AcDbText
 10
243.2840227528659
 20
274.7832447543398
 30
0.0
 40
3.5
  1
2-M4x0.7x11 depth
 41
0.9
100
AcDbText
  0
TEXT
  5
126A
330
1F
100
AcDbEntity
  8
圖層4
 62
     5
100
AcDbText
 10
369.5496254666645
 20
274.7832447543398
 30
0.0
 40
3.5
  1
2-M4x0.7x7 depth
 41
0.9
100
AcDbText
  0
INSERT
  5
126B
330
1F
100
AcDbEntity
  8
AM_5
100
AcDbBlockReference
  2
*S24
 10
0.0
 20
0.0
 30
0.0
  0
ARC
  5
126C
330
1F
100
AcDbEntity
  8
AM_4
  6
HIDDEN2
100
AcDbCircle
 10
251.2843572672346
 20
313.7592506225029
 30
0.0
 40
1.5
100
AcDbArc
 50
260.0000000000013
 51
169.9999999999997
  0
ARC
  5
126D
330
1F
100
AcDbEntity
  8
AM_4
  6
HIDDEN2
100
AcDbCircle
 10
243.2843572672346
 20
173.783551743307
 30
0.0
 40
1.5
100
AcDbArc
 50
260.0000000000013
 51
169.9999999999997
  0
ARC
  5
126E
330
1F
100
AcDbEntity
  8
AM_4
  6
HIDDEN2
100
AcDbCircle
 10
251.2843572672346
 20
173.783551743307
 30
0.0
 40
1.5
100
AcDbArc
 50
260.0000000000013
 51
169.9999999999997
  0
LINE
  5
126F
330
1F
100
AcDbEntity
  8
AM_7
100
AcDbLine
 10
243.2843572672345
 20
238.6988707333983
 30
0.0
 11
243.2843572672345
 21
232.0091663051367
 31
0.0
  0
LINE
  5
1270
330
1F
100
AcDbEntity
  8
AM_4
  6
HIDDEN2
 48
5.0
100
AcDbLine
 10
244.7843572672345
 20
237.8437247846445
 30
0.0
 11
244.7843572672345
 21
232.8437247846445
 31
0.0
  0
LINE
  5
1271
330
1F
100
AcDbEntity
  8
AM_4
  6
HIDDEN2
 48
5.0
100
AcDbLine
 10
241.7843572672345
 20
237.8437247846445
 30
0.0
 11
241.7843572672345
 21
232.8437247846445
 31
0.0
  0
LINE
  5
1272
330
1F
100
AcDbEntity
  8
AM_7
100
AcDbLine
 10
243.2843572672345
 20
259.9885788358906
 30
0.0
 11
243.2843572672345
 21
266.6782832641522
 31
0.0
  0
LINE
  5
1273
330
1F
100
AcDbEntity
  8
AM_4
  6
HIDDEN2
 48
5.0
100
AcDbLine
 10
241.7843572672345
 20
260.8437247846445
 30
0.0
 11
241.7843572672345
 21
265.8437247846445
 31
0.0
  0
LINE
  5
1274
330
1F
100
AcDbEntity
  8
AM_4
  6
HIDDEN2
 48
5.0
100
AcDbLine
 10
244.7843572672345
 20
260.8437247846445
 30
0.0
 11
244.7843572672345
 21
265.8437247846445
 31
0.0
  0
LINE
  5
1275
330
1F
100
AcDbEntity
  8
AM_7
100
AcDbLine
 10
251.2843572672345
 20
259.9885788358906
 30
0.0
 11
251.2843572672345
 21
266.6782832641522
 31
0.0
  0
LINE
  5
1276
330
1F
100
AcDbEntity
  8
AM_7
100
AcDbLine
 10
251.2843572672345
 20
238.6988707333983
 30
0.0
 11
251.2843572672345
 21
232.0091663051367
 31
0.0
  0
LINE
  5
1277
330
1F
100
AcDbEntity
  8
AM_4
  6
HIDDEN2
 48
5.0
100
AcDbLine
 10
249.7843572672345
 20
237.8437247846445
 30
0.0
 11
249.7843572672345
 21
232.8437247846445
 31
0.0
  0
LINE
  5
1278
330
1F
100
AcDbEntity
  8
AM_4
  6
HIDDEN2
 48
5.0
100
AcDbLine
 10
252.7843572672345
 20
237.8437247846445
 30
0.0
 11
252.7843572672345
 21
232.8437247846445
 31
0.0
  0
LINE
  5
1279
330
1F
100
AcDbEntity
  8
AM_4
  6
HIDDEN2
 48
5.0
100
AcDbLine
 10
252.7843572672345
 20
260.8437247846445
 30
0.0
 11
252.7843572672345
 21
265.8437247846445
 31
0.0
  0
LINE
  5
127A
330
1F
100
AcDbEntity
  8
AM_4
  6
HIDDEN2
 48
5.0
100
AcDbLine
 10
249.7843572672345
 20
260.8437247846445
 30
0.0
 11
249.7843572672345
 21
265.8437247846445
 31
0.0
  0
CIRCLE
  5
127B
330
1F
100
AcDbEntity
  8
AM_VIS
100
AcDbCircle
 10
292.7843572672345
 20
306.7592506225029
 30
0.0
 40
1.649999999999999
  0
ARC
  5
127C
330
1F
100
AcDbEntity
  8
AM_4
  6
HIDDEN2
100
AcDbCircle
 10
292.7843572672345
 20
306.7592506225029
 30
0.0
 40
2.0
100
AcDbArc
 50
260.0000000000013
 51
169.9999999999997
  0
CIRCLE
  5
127D
330
1F
100
AcDbEntity
  8
AM_VIS
100
AcDbCircle
 10
292.7843572672345
 20
320.7592506225029
 30
0.0
 40
1.649999999999999
  0
ARC
  5
127E
330
1F
100
AcDbEntity
  8
AM_4
  6
HIDDEN2
100
AcDbCircle
 10
292.7843572672345
 20
320.7592506225029
 30
0.0
 40
2.0
100
AcDbArc
 50
260.0000000000013
 51
169.9999999999997
  0
TEXT
  5
127F
330
1F
100
AcDbEntity
  8
圖層4
 62
     5
100
AcDbText
 10
251.0560709049309
 20
331.878240453808
 30
0.0
 40
3.5
  1
2-M4x0.7x7 depth
 41
0.9
100
AcDbText
  0
INSERT
  5
1280
330
1F
100
AcDbEntity
  8
AM_5
100
AcDbBlockReference
  2
*S25
 10
0.0
 20
0.0
 30
0.0
  0
TEXT
  5
1281
330
1F
100
AcDbEntity
  8
圖層4
 62
     5
100
AcDbText
 10
218.8754401075379
 20
301.1673063355519
 30
0.0
 40
3.5
  1
2x2-M3x0.5
 41
0.9
100
AcDbText
  0
INSERT
  5
1282
330
1F
100
AcDbEntity
  8
AM_5
100
AcDbBlockReference
  2
*S26
 10
0.0
 20
0.0
 30
0.0
  0
TEXT
  5
1283
330
1F
100
AcDbEntity
  8
圖層4
 62
     5
100
AcDbText
 10
219.4711735984272
 20
248.5511399925984
 30
0.0
 40
3.5
  1
(open)
 50
90.0
 41
0.9
100
AcDbText
  0
TEXT
  5
1284
330
1F
100
AcDbEntity
  8
圖層4
 62
     5
100
AcDbText
 10
224.839245951666
 20
243.7159028396186
 30
0.0
 40
3.5
  1
25(close)
 50
90.0
 41
0.9
100
AcDbText
  0
ARC
  5
1285
330
1F
100
AcDbEntity
  8
AM_4
  6
HIDDEN2
100
AcDbCircle
 10
274.2843572672345
 20
321.7592506225028
 30
0.0
 40
1.5
100
AcDbArc
 50
279.9999999999986
 51
190.0000000000002
  0
ARC
  5
1286
330
1F
100
AcDbEntity
  8
AM_4
  6
HIDDEN2
100
AcDbCircle
 10
274.2843572672345
 20
181.7835517433069
 30
0.0
 40
1.5
100
AcDbArc
 50
279.9999999999986
 51
190.0000000000002
  0
ARC
  5
1287
330
1F
100
AcDbEntity
  8
AM_4
  6
HIDDEN2
100
AcDbCircle
 10
274.2843572672345
 20
165.7835517433069
 30
0.0
 40
1.5
100
AcDbArc
 50
279.9999999999986
 51
190.0000000000002
  0
TEXT
  5
1288
330
1F
100
AcDbEntity
  8
LOGO
  6
CONTINUOUS
 62
     5
100
AcDbText
 10
206.0549433328328
 20
102.3272023256355
 30
0.0
 40
3.901368750093448
  1
MINDMAN INDUSTRIAL CO.,LTD
 41
0.85
  7
CHINESET
100
AcDbText
  0
TEXT
  5
1289
330
1F
100
AcDbEntity
  8
LOGO
  6
CONTINUOUS
 62
     5
100
AcDbText
 10
204.3792682799832
 20
108.1804019943695
 30
0.0
 40
5.852053125140174
  1
金器工業股份有限公司
 41
0.8
  7
LOGO
100
AcDbText
  0
LINE
  5
128A
330
1F
100
AcDbEntity
  8
LOGO
 62
     1
100
AcDbLine
 10
288.9323969190093
 20
116.1216969619727
 30
0.0
 11
203.1022844169534
 21
116.1216969619727
 31
0.0
  0
TEXT
  5
128B
330
1F
100
AcDbEntity
  8
LOGO
 62
     6
100
AcDbText
 10
268.7759683274825
 20
118.0723813370194
 30
0.0
 40
3.901368750093448
  1
m/m
  7
CHINESET
 72
     1
 11
275.6498085062186
 21
120.0230657120661
 31
0.0
100
AcDbText
 73
     2
  0
TEXT
  5
128C
330
1F
100
AcDbEntity
  8
LOGO
 62
     6
100
AcDbText
 10
268.7759683274825
 20
133.6778563373932
 30
0.0
 40
3.901368750093448
  1
1 : 1
  7
CHINESET
 72
     1
 11
275.6498085062186
 21
135.6285407124399
 31
0.0
100
AcDbText
 73
     2
  0
LINE
  5
128D
330
1F
100
AcDbEntity
  8
LOGO
 62
     1
100
AcDbLine
 10
288.9323969190093
 20
123.9244344621596
 30
0.0
 11
231.7123219176387
 21
123.9244344621596
 31
0.0
  0
LINE
  5
128E
330
1F
100
AcDbEntity
  8
LOGO
 62
     1
100
AcDbLine
 10
288.9323969190093
 20
131.7271719623465
 30
0.0
 11
231.7123219176387
 21
131.7271719623465
 31
0.0
  0
LINE
  5
128F
330
1F
100
AcDbEntity
  8
LOGO
  6
CONTINUOUS
 62
     6
100
AcDbLine
 10
277.2807353352728
 20
126.506926054552
 30
0.0
 11
284.3820904583492
 21
125.5689217443858
 31
0.0
  0
LINE
  5
1290
330
1F
100
AcDbEntity
  8
LOGO
  6
CONTINUOUS
 62
     6
100
AcDbLine
 10
277.2807353352728
 20
129.161370482566
 30
0.0
 11
284.3820904583492
 21
130.0993747927322
 31
0.0
  0
LINE
  5
1291
330
1F
100
AcDbEntity
  8
LOGO
 62
     1
100
AcDbLine
 10
408.9614401780433
 20
100.5162219615989
 30
0.0
 11
203.1022844169534
 21
100.5162219615989
 31
0.0
  0
LINE
  5
1292
330
1F
100
AcDbEntity
  8
LOGO
 62
     1
100
AcDbLine
 10
408.9614401780433
 20
139.5299094625334
 30
0.0
 11
203.1022844169534
 21
139.5299094625334
 31
0.0
  0
POLYLINE
  5
1293
330
1F
100
AcDbEntity
  8
0
 62
     4
100
AcDb2dPolyline
 66
     1
 10
0.0
 20
0.0
 30
0.0
 70
     1
  0
VERTEX
  5
1294
330
1293
100
AcDbEntity
  8
0
 62
     4
100
AcDbVertex
100
AcDb2dVertex
 10
203.1022844169534
 20
348.680685869078
 30
0.0
  0
VERTEX
  5
1295
330
1293
100
AcDbEntity
  8
0
 62
     4
100
AcDbVertex
100
AcDb2dVertex
 10
408.9614401780433
 20
348.680685869078
 30
0.0
  0
VERTEX
  5
1296
330
1293
100
AcDbEntity
  8
0
 62
     4
100
AcDbVertex
100
AcDb2dVertex
 10
408.9614401780433
 20
139.5299094625334
 30
0.0
  0
VERTEX
  5
1297
330
1293
100
AcDbEntity
  8
0
 62
     4
100
AcDbVertex
100
AcDb2dVertex
 10
203.1022844169534
 20
139.5299094625334
 30
0.0
  0
SEQEND
  5
1298
330
1293
100
AcDbEntity
  8
0
 62
     4
  0
TEXT
  5
1299
330
1F
100
AcDbEntity
  8
LOGO
 62
     6
100
AcDbText
 10
236.6743752966639
 20
118.0723813370194
 30
0.0
 40
3.901368750093448
  1
單位 Unit:
 41
0.9
  7
CHINESET
 72
     4
 11
247.3177969180126
 21
120.0230657120661
 31
0.0
100
AcDbText
  0
TEXT
  5
129A
330
1F
100
AcDbEntity
  8
LOGO
 62
     6
100
AcDbText
 10
236.2929468340432
 20
125.9299978349623
 30
0.0
 40
3.901368750093448
  1
投影 View:
 41
0.9
  7
CHINESET
 72
     4
 11
247.3177969180126
 21
127.825803212253
 31
0.0
100
AcDbText
  0
TEXT
  5
129B
330
1F
100
AcDbEntity
  8
LOGO
 62
     6
100
AcDbText
 10
234.9292094539881
 20
133.6797763023293
 30
0.0
 40
3.901368750093448
  1
比例 Scale:
 41
0.9
  7
CHINESET
 72
     4
 11
247.3177969180126
 21
135.6285407124399
 31
0.0
100
AcDbText
  0
LINE
  5
129C
330
1F
100
AcDbEntity
  8
LOGO
 62
     1
100
AcDbLine
 10
203.1022844169534
 20
100.5162219615989
 30
0.0
 11
203.1022844169534
 21
139.5299094625334
 31
0.0
  0
POLYLINE
  5
129D
330
1F
100
AcDbEntity
  8
LOGO
 62
     5
100
AcDb2dPolyline
 66
     1
 10
0.0
 20
0.0
 30
0.0
 40
0.5826044000139551
 41
0.5826044000139551
  0
VERTEX
  5
129E
330
129D
100
AcDbEntity
  8
LOGO
 62
     5
100
AcDbVertex
100
AcDb2dVertex
 10
221.790127776304
 20
118.5354615620725
 30
0.0
 42
1.0
  0
VERTEX
  5
129F
330
129D
100
AcDbEntity
  8
LOGO
 62
     5
100
AcDbVertex
100
AcDb2dVertex
 10
220.0423145762621
 20
118.5354615620725
 30
0.0
 42
1.0
  0
SEQEND
  5
12A0
330
129D
100
AcDbEntity
  8
LOGO
 62
     5
  0
POLYLINE
  5
12A1
330
1F
100
AcDbEntity
  8
LOGO
 62
     5
100
AcDb2dPolyline
 66
     1
 10
0.0
 20
0.0
 30
0.0
 40
0.5826044000139551
 41
0.5826044000139551
  0
VERTEX
  5
12A2
330
12A1
100
AcDbEntity
  8
LOGO
 62
     5
100
AcDbVertex
100
AcDb2dVertex
 10
220.0451110773828
 20
118.5354615620725
 30
0.0
 42
1.0
  0
VERTEX
  5
12A3
330
12A1
100
AcDbEntity
  8
LOGO
 62
     5
100
AcDbVertex
100
AcDb2dVertex
 10
218.2972978773407
 20
118.5354615620725
 30
0.0
 42
1.0
  0
SEQEND
  5
12A4
330
12A1
100
AcDbEntity
  8
LOGO
 62
     5
  0
SOLID
  5
12A5
330
1F
100
AcDbEntity
  8
LOGO
 62
     2
100
AcDbTrace
 10
217.5619500776154
 20
122.6071671928902
 30
0.0
 11
218.2599567571847
 21
122.6071671928902
 31
0.0
 12
226.2870335722243
 22
138.6031535996736
 32
0.0
 13
226.9850402517935
 23
138.6031535996725
 33
0.0
  0
SOLID
  5
12A6
330
1F
100
AcDbEntity
  8
LOGO
 62
     5
100
AcDbTrace
 10
218.2599567571847
 20
122.6071671928902
 30
0.0
 11
219.9468062328087
 21
122.6071671928902
 31
0.0
 12
226.2870335722243
 22
137.3234746871304
 32
0.0
 13
224.6001840965999
 23
131.1383599431739
 33
0.0
  0
SOLID
  5
12A7
330
1F
100
AcDbEntity
  8
LOGO
 62
     5
100
AcDbTrace
 10
218.2599567571847
 20
123.8868461054323
 30
0.0
 11
219.9468062328087
 21
130.0719608493888
 31
0.0
 12
226.2870335722243
 22
138.6031535996736
 32
0.0
 13
224.6001840965999
 23
138.6031535996736
 33
0.0
  0
SOLID
  5
12A8
330
1F
100
AcDbEntity
  8
LOGO
 62
     5
100
AcDbTrace
 10
219.7528767103356
 20
118.5354615620725
 30
0.0
 11
220.3345489433091
 21
118.5354615620725
 31
0.0
 12
219.7528767103356
 22
116.7904448631512
 32
0.0
 13
220.3345489433091
 23
116.7904448631512
 33
0.0
  0
SOLID
  5
12A9
330
1F
100
AcDbEntity
  8
LOGO
 62
     2
100
AcDbTrace
 10
208.8368665830062
 20
122.6071671928896
 30
0.0
 11
209.5348732625759
 21
122.6071671928902
 31
0.0
 12
217.5619500776154
 22
138.6031535996725
 32
0.0
 13
218.2599567571847
 23
138.6031535996725
 33
0.0
  0
SOLID
  5
12AA
330
1F
100
AcDbEntity
  8
LOGO
 62
     5
100
AcDbTrace
 10
209.5348732625759
 20
122.6071671928902
 30
0.0
 11
211.2217227382002
 21
122.6071671928902
 31
0.0
 12
217.5619500776154
 22
137.3234746871304
 32
0.0
 13
215.8751006019913
 23
131.1383599431739
 33
0.0
  0
SOLID
  5
12AB
330
1F
100
AcDbEntity
  8
LOGO
 62
     5
100
AcDbTrace
 10
207.1500171073819
 20
122.6071671928902
 30
0.0
 11
208.8368665830062
 21
122.6071671928896
 31
0.0
 12
215.8751006019913
 22
138.6031535996736
 32
0.0
 13
217.5619500776154
 23
138.6031535996725
 33
0.0
  0
SOLID
  5
12AC
330
1F
100
AcDbEntity
  8
LOGO
 62
     5
100
AcDbTrace
 10
204.4455837317934
 20
116.7904448631512
 30
0.0
 11
205.0272559647679
 21
116.7904448631512
 31
0.0
 12
206.6652902465706
 22
119.6988060280204
 32
0.0
 13
207.2469624795441
 23
119.6988060280204
 33
0.0
  0
SOLID
  5
12AD
330
1F
100
AcDbEntity
  8
LOGO
 62
     5
100
AcDbTrace
 10
206.6652902465706
 20
116.7904448631512
 30
0.0
 11
207.2469624795441
 21
116.7904448631512
 31
0.0
 12
208.8849967613486
 22
119.6988060280204
 32
0.0
 13
209.4666689943219
 23
119.6988060280204
 33
0.0
  0
SOLID
  5
12AE
330
1F
100
AcDbEntity
  8
LOGO
 62
     5
100
AcDbTrace
 10
206.6652902465706
 20
119.6988060280204
 30
0.0
 11
207.2469624795441
 21
119.6988060280204
 31
0.0
 12
206.6652902465706
 22
116.7904448631512
 32
0.0
 13
207.2469624795441
 23
116.7904448631512
 33
0.0
  0
SOLID
  5
12AF
330
1F
100
AcDbEntity
  8
LOGO
 62
     5
100
AcDbTrace
 10
208.8849967613486
 20
119.6988060280204
 30
0.0
 11
209.4666689943219
 21
119.6988060280204
 31
0.0
 12
208.8849967613486
 22
116.7904448631512
 32
0.0
 13
209.4666689943219
 23
116.7904448631512
 33
0.0
  0
SOLID
  5
12B0
330
1F
100
AcDbEntity
  8
LOGO
 62
     2
100
AcDbTrace
 10
217.5619500776154
 20
138.6031535996725
 30
0.0
 11
218.2599567571847
 21
138.6031535996725
 31
0.0
 12
217.5619500776154
 22
122.6071671928902
 32
0.0
 13
218.2599567571847
 23
122.6071671928902
 33
0.0
  0
SOLID
  5
12B1
330
1F
100
AcDbEntity
  8
LOGO
 62
     5
100
AcDbTrace
 10
215.8751006019913
 20
122.6071671928902
 30
0.0
 11
217.5619500776154
 21
122.6071671928902
 31
0.0
 12
215.8751006019913
 22
131.1383599431739
 32
0.0
 13
217.5619500776154
 23
137.3234746871304
 33
0.0
  0
SOLID
  5
12B2
330
1F
100
AcDbEntity
  8
LOGO
 62
     5
100
AcDbTrace
 10
218.2599567571847
 20
138.6031535996725
 30
0.0
 11
219.9468062328087
 21
138.6031535996736
 31
0.0
 12
218.2599567571847
 22
123.8868461054323
 32
0.0
 13
219.9468062328087
 23
130.0719608493888
 33
0.0
  0
POLYLINE
  5
12B3
330
1F
100
AcDbEntity
  8
LOGO
 62
     5
100
AcDb2dPolyline
 66
     1
 10
0.0
 20
0.0
 30
0.0
 70
     1
 40
0.5826044000139551
 41
0.5826044000139551
  0
VERTEX
  5
12B4
330
12B3
100
AcDbEntity
  8
LOGO
 62
     5
100
AcDbVertex
100
AcDb2dVertex
 10
214.7098918019629
 20
118.2446254455855
 30
0.0
 42
1.0
  0
VERTEX
  5
12B5
330
12B3
100
AcDbEntity
  8
LOGO
 62
     5
100
AcDbVertex
100
AcDb2dVertex
 10
217.0403094020189
 20
118.2446254455855
 30
0.0
 42
1.0
  0
SEQEND
  5
12B6
330
12B3
100
AcDbEntity
  8
LOGO
 62
     5
  0
SOLID
  5
12B7
330
1F
100
AcDbEntity
  8
LOGO
 62
     5
100
AcDbTrace
 10
210.155226699042
 20
119.6988060280204
 30
0.0
 11
210.736898932017
 21
119.6988060280204
 31
0.0
 12
210.155226699042
 22
116.7904448631501
 32
0.0
 13
210.736898932017
 23
116.7904448631512
 33
0.0
  0
SOLID
  5
12B8
330
1F
100
AcDbEntity
  8
LOGO
 62
     5
100
AcDbTrace
 10
213.1605526251484
 20
118.5354615620725
 30
0.0
 11
213.7422248581227
 21
118.5354615620725
 31
0.0
 12
213.1605526251484
 22
116.7904448631512
 32
0.0
 13
213.7422248581227
 23
116.7904448631512
 33
0.0
  0
SOLID
  5
12B9
330
1F
100
AcDbEntity
  8
LOGO
 62
     5
100
AcDbTrace
 10
211.4155359262272
 20
119.6988060280204
 30
0.0
 11
211.9972081592004
 21
119.6988060280204
 31
0.0
 12
211.4155359262272
 22
116.7904448631512
 32
0.0
 13
211.9972081592004
 23
116.7904448631512
 33
0.0
  0
POLYLINE
  5
12BA
330
1F
100
AcDbEntity
  8
LOGO
 62
     5
100
AcDb2dPolyline
 66
     1
 10
0.0
 20
0.0
 30
0.0
 40
0.5826044000139551
 41
0.5826044000139551
  0
VERTEX
  5
12BB
330
12BA
100
AcDbEntity
  8
LOGO
 62
     5
100
AcDbVertex
100
AcDb2dVertex
 10
213.4527869921955
 20
118.5354615620725
 30
0.0
 42
1.0
  0
VERTEX
  5
12BC
330
12BA
100
AcDbEntity
  8
LOGO
 62
     5
100
AcDbVertex
100
AcDb2dVertex
 10
211.7049737921536
 20
118.5354615620725
 30
0.0
 42
1.0
  0
SEQEND
  5
12BD
330
12BA
100
AcDbEntity
  8
LOGO
 62
     5
  0
SOLID
  5
12BE
330
1F
100
AcDbEntity
  8
LOGO
 62
     5
100
AcDbTrace
 10
210.155226699042
 20
120.1059765911019
 30
0.0
 11
210.736898932017
 21
120.1059765911019
 31
0.0
 12
210.155226699042
 22
120.5713143774816
 32
0.0
 13
210.736898932017
 23
120.5713143774816
 33
0.0
  0
SOLID
  5
12BF
330
1F
100
AcDbEntity
  8
LOGO
 62
     5
100
AcDbTrace
 10
218.0078600114143
 20
119.6988060280204
 30
0.0
 11
218.5895322443879
 21
119.6988060280204
 31
0.0
 12
218.0078600114143
 22
116.7904448631512
 32
0.0
 13
218.5895322443879
 23
116.7904448631512
 33
0.0
  0
SOLID
  5
12C0
330
1F
100
AcDbEntity
  8
LOGO
 62
     5
100
AcDbTrace
 10
216.7475507842293
 20
120.5713143774816
 30
0.0
 11
217.3292230172025
 21
120.5713143774816
 31
0.0
 12
216.7475507842293
 22
116.7904448631512
 32
0.0
 13
217.3292230172025
 23
116.7904448631512
 33
0.0
  0
LINE
  5
12C1
330
1F
100
AcDbEntity
  8
LOGO
 62
     1
100
AcDbLine
 10
231.7123219176387
 20
116.1216969619727
 30
0.0
 11
231.7123219176387
 21
139.5299094625334
 31
0.0
  0
SOLID
  5
12C2
330
1F
100
AcDbEntity
  8
LOGO
 62
     2
100
AcDbTrace
 10
226.2870335722243
 20
138.6031535996736
 30
0.0
 11
226.9850402517935
 21
138.6031535996725
 31
0.0
 12
226.2870335722243
 22
122.6071671928896
 32
0.0
 13
226.9850402517935
 23
122.6071671928896
 33
0.0
  0
SOLID
  5
12C3
330
1F
100
AcDbEntity
  8
LOGO
 62
     5
100
AcDbTrace
 10
226.2870335722243
 20
137.3234746871304
 30
0.0
 11
224.6001840965999
 21
131.1383599431739
 31
0.0
 12
226.2870335722243
 22
122.6071671928896
 32
0.0
 13
224.6001840965999
 23
122.6071671928896
 33
0.0
  0
SOLID
  5
12C4
330
1F
100
AcDbEntity
  8
LOGO
 62
     5
100
AcDbTrace
 10
226.9850402517935
 20
122.6071671928896
 30
0.0
 11
228.6718897274176
 21
122.6071671928896
 31
0.0
 12
226.9850402517935
 22
138.6031535996725
 32
0.0
 13
228.6718897274176
 23
138.6031535996736
 33
0.0
  0
SOLID
  5
12C5
330
1F
100
AcDbEntity
  8
LOGO
 62
     5
100
AcDbTrace
 10
225.0848915683384
 20
119.6988060280204
 30
0.0
 11
225.6665638013119
 21
119.6988060280204
 31
0.0
 12
225.0848915683384
 22
116.7904448631512
 32
0.0
 13
225.6665638013119
 23
116.7904448631512
 33
0.0
  0
POLYLINE
  5
12C6
330
1F
100
AcDbEntity
  8
LOGO
 62
     5
100
AcDb2dPolyline
 66
     1
 10
0.0
 20
0.0
 30
0.0
 70
     1
 40
0.5826044000139551
 41
0.5826044000139551
  0
VERTEX
  5
12C7
330
12C6
100
AcDbEntity
  8
LOGO
 62
     5
100
AcDbVertex
100
AcDb2dVertex
 10
223.0472325860716
 20
118.2446254455855
 30
0.0
 42
1.0
  0
VERTEX
  5
12C8
330
12C6
100
AcDbEntity
  8
LOGO
 62
     5
100
AcDbVertex
100
AcDb2dVertex
 10
225.3776501861274
 20
118.2446254455855
 30
0.0
 42
1.0
  0
SEQEND
  5
12C9
330
12C6
100
AcDbEntity
  8
LOGO
 62
     5
  0
CIRCLE
  5
12CA
330
1F
100
AcDbEntity
  8
LOGO
 62
     5
100
AcDbCircle
 10
224.2124413860999
 20
118.2446254455858
 30
0.0
 40
0.8725083494608993
  0
POLYLINE
  5
12CB
330
1F
100
AcDbEntity
  8
LOGO
 62
     5
100
AcDb2dPolyline
 66
     1
 10
0.0
 20
0.0
 30
0.0
 70
     1
  0
VERTEX
  5
12CC
330
12CB
100
AcDbEntity
  8
LOGO
 62
     5
100
AcDbVertex
100
AcDb2dVertex
 10
223.3399330366388
 20
118.2446254455858
 30
0.0
 42
1.000000057330635
  0
VERTEX
  5
12CD
330
12CB
100
AcDbEntity
  8
LOGO
 62
     5
100
AcDbVertex
100
AcDb2dVertex
 10
225.0849497355609
 20
118.2446254455858
 30
0.0
 42
1.000000057330635
  0
SEQEND
  5
12CE
330
12CB
100
AcDbEntity
  8
LOGO
 62
     5
  0
SOLID
  5
12CF
330
1F
100
AcDbEntity
  8
LOGO
 62
     5
100
AcDbTrace
 10
221.4978934092571
 20
118.5354615620725
 30
0.0
 11
222.0795656422306
 21
118.5354615620725
 31
0.0
 12
221.4978934092571
 22
116.7904448631501
 32
0.0
 13
222.0795656422306
 23
116.7904448631501
 33
0.0
  0
SOLID
  5
12D0
330
1F
100
AcDbEntity
  8
LOGO
 62
     5
100
AcDbTrace
 10
228.0902174944443
 20
118.5354615620725
 30
0.0
 11
228.6718897274176
 21
118.5354615620724
 31
0.0
 12
228.0902174944443
 22
116.7904448631512
 32
0.0
 13
228.6718897274176
 23
116.7904448631512
 33
0.0
  0
SOLID
  5
12D1
330
1F
100
AcDbEntity
  8
LOGO
 62
     5
100
AcDbTrace
 10
226.3452007955219
 20
116.7904448631512
 30
0.0
 11
226.9268730284963
 21
116.7904448631512
 31
0.0
 12
226.3452007955219
 22
119.6988060280204
 32
0.0
 13
226.9268730284963
 23
119.6988060280204
 33
0.0
  0
LINE
  5
12D2
330
1F
100
AcDbEntity
  8
LOGO
 62
     5
100
AcDbLine
 10
228.6718897274176
 20
116.7904448631512
 30
0.0
 11
228.6718897274176
 21
118.5354615620725
 31
0.0
  0
POLYLINE
  5
12D3
330
1F
100
AcDbEntity
  8
LOGO
 62
     5
100
AcDb2dPolyline
 66
     1
 10
0.0
 20
0.0
 30
0.0
 40
0.5826044000139551
 41
0.5826044000139551
  0
VERTEX
  5
12D4
330
12D3
100
AcDbEntity
  8
LOGO
 62
     5
100
AcDbVertex
100
AcDb2dVertex
 10
228.3824518614912
 20
118.5354615620725
 30
0.0
 42
1.0
  0
VERTEX
  5
12D5
330
12D3
100
AcDbEntity
  8
LOGO
 62
     5
100
AcDbVertex
100
AcDb2dVertex
 10
226.6346386614494
 20
118.5354615620725
 30
0.0
 42
1.0
  0
SEQEND
  5
12D6
330
12D3
100
AcDbEntity
  8
LOGO
 62
     5
  0
LINE
  5
12D7
330
1F
100
AcDbEntity
  8
LOGO
 62
     1
100
AcDbLine
 10
262.9232719183862
 20
116.1216969619727
 30
0.0
 11
262.9232719183862
 21
139.5299094625334
 31
0.0
  0
CIRCLE
  5
12D8
330
1F
100
AcDbEntity
  8
LOGO
  6
CONTINUOUS
 62
     6
100
AcDbCircle
 10
270.1471441346739
 20
127.834148268559
 30
0.0
 40
1.327222214006982
  0
CIRCLE
  5
12D9
330
1F
100
AcDbEntity
  8
LOGO
  6
CONTINUOUS
 62
     6
100
AcDbCircle
 10
270.1471441346739
 20
127.834148268559
 30
0.0
 40
2.265226524173206
  0
LINE
  5
12DA
330
1F
100
AcDbEntity
  8
LOGO
 62
     6
100
AcDbLine
 10
277.2807353352729
 20
126.506926054552
 30
0.0
 11
277.2807353352728
 21
129.161370482566
 31
0.0
  0
TEXT
  5
12DB
330
1F
100
AcDbEntity
  8
LOGO
 62
     6
100
AcDbText
 10
352.8892712072731
 20
110.9864307462985
 30
0.0
 40
5.201825000124599
  1
型號
  7
CHINESET
 72
     4
 11
358.1994675615669
 21
113.5207844619104
 31
0.0
100
AcDbText
  0
LINE
  5
12DC
330
1F
100
AcDbEntity
  8
LOGO
 62
     6
100
AcDbLine
 10
371.2040300618784
 20
103.7673625866768
 30
0.0
 11
345.1949050612555
 21
103.7673625866767
 31
0.0
  0
LINE
  5
12DD
330
1F
100
AcDbEntity
  8
LOGO
 62
     6
100
AcDbLine
 10
371.2040300618784
 20
118.0723813370194
 30
0.0
 11
345.1949050612555
 21
118.0723813370194
 31
0.0
  0
LINE
  5
12DE
330
1F
100
AcDbEntity
  8
LOGO
 62
     6
100
AcDbLine
 10
373.8049425619408
 20
123.9244344621596
 30
0.0
 11
342.5939925611932
 21
123.9244344621596
 31
0.0
  0
LINE
  5
12DF
330
1F
100
AcDbEntity
  8
LOGO
 62
     6
100
AcDbLine
 10
373.8049425619408
 20
135.6285407124399
 30
0.0
 11
342.5939925611932
 21
135.6285407124399
 31
0.0
  0
TEXT
  5
12E0
330
1F
100
AcDbEntity
  8
LOGO
  6
CONTINUOUS
 62
     7
100
AcDbText
 10
345.6593537219808
 20
126.5253469622219
 30
0.0
 40
6.502281250155748
  1
MCHB
  7
CHINESET
 72
     1
 11
358.1994675615669
 21
129.7764875872998
 31
0.0
100
AcDbText
 73
     2
  0
TEXT
  5
12E1
330
1F
100
AcDbEntity
  8
LOGO
  6
CONTINUOUS
 62
     6
100
AcDbText
 10
352.0068187518948
 20
105.3929328992157
 30
0.0
 40
3.251140625077874
  1
Model
  7
CHINESET
 72
     4
 11
358.1994675615669
 21
107.0185032117546
 31
0.0
100
AcDbText
  0
TEXT
  5
12E2
330
1F
100
AcDbEntity
  8
LOGO
 62
     7
100
AcDbText
 10
291.1926075251396
 20
122.4386768429949
 30
0.0
 40
5.201825000124599
  1
Order example:
 41
0.8
  7
CHINESET
100
AcDbText
  0
TEXT
  5
12E3
330
1F
100
AcDbEntity
  8
LOGO
 62
     7
100
AcDbText
 10
292.1258579475046
 20
129.761769391561
 30
0.0
 40
7.802737500186897
  1
訂購代號:
  7
CHINESET
100
AcDbText
  0
LINE
  5
12E4
330
1F
100
AcDbEntity
  8
LOGO
 62
     1
100
AcDbLine
 10
288.9323969190093
 20
100.5162219615989
 30
0.0
 11
288.9323969190093
 21
139.5299094625334
 31
0.0
  0
LINE
  5
12E5
330
1F
100
AcDbEntity
  8
LOGO
 62
     6
100
AcDbLine
 10
284.3820904583492
 20
125.5689217443858
 30
0.0
 11
284.3820904583492
 21
130.0993747927322
 31
0.0
  0
LINE
  5
12E6
330
1F
100
AcDbEntity
  8
LOGO
 62
     6
100
AcDbLine
 10
345.1949050612555
 20
118.0723813370194
 30
0.0
 11
345.1949050612555
 21
103.7673625866767
 31
0.0
  0
LINE
  5
12E7
330
1F
100
AcDbEntity
  8
LOGO
 62
     6
100
AcDbLine
 10
342.5939925611932
 20
135.6285407124399
 30
0.0
 11
342.5939925611932
 21
123.9244344621596
 31
0.0
  0
LINE
  5
12E8
330
1F
100
AcDbEntity
  8
LOGO
 62
     6
100
AcDbLine
 10
358.1994675615669
 20
123.9244344621596
 30
0.0
 11
358.1994675615669
 21
118.0723813370194
 31
0.0
  0
LINE
  5
12E9
330
1F
100
AcDbEntity
  8
LOGO
 62
     6
100
AcDbLine
 10
404.0703343732247
 20
135.6285407124401
 30
0.0
 11
383.1909838723725
 21
135.62854071244
 31
0.0
  0
LINE
  5
12EA
330
1F
100
AcDbEntity
  8
LOGO
 62
     6
100
AcDbLine
 10
404.0703343732247
 20
118.0723813370195
 30
0.0
 11
383.1909838723725
 21
118.0723813370195
 31
0.0
  0
LINE
  5
12EB
330
1F
100
AcDbEntity
  8
LOGO
 62
     6
100
AcDbLine
 10
404.0703343732247
 20
123.9244344621597
 30
0.0
 11
383.1909838723725
 21
123.9244344621597
 31
0.0
  0
LINE
  5
12EC
330
1F
100
AcDbEntity
  8
LOGO
 62
     6
100
AcDbLine
 10
404.0703343732247
 20
103.7673625866768
 30
0.0
 11
383.1909838723725
 21
103.7673625866768
 31
0.0
  0
TEXT
  5
12ED
330
1F
100
AcDbEntity
  8
LOGO
 62
     6
100
AcDbText
 10
388.6564139664296
 20
110.9198719618481
 30
0.0
 40
5.201825000124599
  1
內徑
 41
0.9
  7
CHINESET
 72
     4
 11
393.6306591227987
 21
113.5207844619104
 31
0.0
100
AcDbText
  0
LINE
  5
12EE
330
1F
100
AcDbEntity
  8
LOGO
 62
     6
100
AcDbLine
 10
371.2040300618784
 20
118.0723813370194
 30
0.0
 11
371.2040300618784
 21
103.7673625866768
 31
0.0
  0
LINE
  5
12EF
330
1F
100
AcDbEntity
  8
LOGO
 62
     6
100
AcDbLine
 10
383.1909838723725
 20
118.0723813370195
 30
0.0
 11
383.1909838723725
 21
103.7673625866768
 31
0.0
  0
TEXT
  5
12F0
330
1F
100
AcDbEntity
  8
LOGO
  6
CONTINUOUS
 62
     6
100
AcDbText
 10
389.6054373965118
 20
105.3929328992157
 30
0.0
 40
3.251140625077874
  1
Bore
 41
0.8
  7
CHINESET
 72
     4
 11
393.6306591227987
 21
107.0185032117547
 31
0.0
100
AcDbText
  0
LINE
  5
12F1
330
1F
100
AcDbEntity
  8
LOGO
  6
CONTINUOUS
 62
     7
100
AcDbLine
 10
375.9988332040531
 20
129.7350297932753
 30
0.0
 11
381.1669394603165
 21
129.7350297932753
 31
0.0
  0
LINE
  5
12F2
330
1F
100
AcDbEntity
  8
LOGO
 62
     6
100
AcDbLine
 10
373.8049425619408
 20
135.6285407124399
 30
0.0
 11
373.8049425619408
 21
123.9244344621596
 31
0.0
  0
TEXT
  5
12F3
330
1F
100
AcDbEntity
  8
LOGO
  6
CONTINUOUS
 62
     7
100
AcDbText
 10
389.747868486621
 20
126.4516106831184
 30
0.0
 40
6.502281250155748
  1
16
  7
CHINESET
 72
     1
 11
394.2375388736334
 21
129.7027513081963
 31
0.0
100
AcDbText
 73
     2
  0
LINE
  5
12F4
330
1F
100
AcDbEntity
  8
LOGO
 62
     6
100
AcDbLine
 10
383.1909838723725
 20
135.62854071244
 30
0.0
 11
383.1909838723725
 21
123.9244344621597
 31
0.0
  0
LINE
  5
12F5
330
1F
100
AcDbEntity
  8
LOGO
 62
     6
100
AcDbLine
 10
393.6306588229338
 20
123.9244344621597
 30
0.0
 11
393.6306588229338
 21
118.0723813370195
 31
0.0
  0
LINE
  5
12F6
330
1F
100
AcDbEntity
  8
LOGO
 62
     1
100
AcDbLine
 10
408.9614401780433
 20
100.5162219615989
 30
0.0
 11
408.9614401780433
 21
139.5299094625334
 31
0.0
  0
LINE
  5
12F7
330
1F
100
AcDbEntity
  8
LOGO
 62
     6
100
AcDbLine
 10
404.0703343732247
 20
118.0723813370195
 30
0.0
 11
404.0703343732247
 21
103.7673625866769
 31
0.0
  0
LINE
  5
12F8
330
1F
100
AcDbEntity
  8
LOGO
 62
     6
100
AcDbLine
 10
404.0703343732247
 20
135.6285407124401
 30
0.0
 11
404.0703343732247
 21
123.9244344621597
 31
0.0
  0
ENDSEC
  0
SECTION
  2
OBJECTS
  0
DICTIONARY
  5
C
330
0
100
AcDbDictionary
  3
ACAD_GROUP
350
D
  3
ACAD_LAYOUT
350
1A
  3
ACAD_MLINESTYLE
350
17
  3
ACAD_PLOTSETTINGS
350
19
  3
ACMDICTIONARY
350
45
  3
AMG
350
2B
  3
AMGSNAPSETTINGS
350
7D
  3
DWGPROPS
350
1561
1001
ACAD
1000
TREAT_AS_HARD
1070
     0
  0
DICTIONARY
  5
159
330
1F
100
AcDbDictionary
  3
ACAD_INDEX
350
15A
  3
ACAD_LAYOUTSELFREF
350
1605
1001
ACAD
1000
TREAT_AS_HARD
1070
     1
  0
DICTIONARY
  5
1603
330
1B
100
AcDbDictionary
  3
ACAD_LAYOUTSELFREF
350
1604
  0
DICTIONARY
  5
D
102
{ACAD_REACTORS
330
C
102
}
330
C
100
AcDbDictionary
1001
ACAD
1000
TREAT_AS_HARD
1070
     0
  0
DICTIONARY
  5
1A
102
{ACAD_REACTORS
330
C
102
}
330
C
100
AcDbDictionary
1001
ACAD
1000
TREAT_AS_HARD
1070
     0
  0
DICTIONARY
  5
17
102
{ACAD_REACTORS
330
C
102
}
330
C
100
AcDbDictionary
  3
STANDARD
350
18
1001
ACAD
1000
TREAT_AS_HARD
1070
     0
  0
DICTIONARY
  5
19
102
{ACAD_REACTORS
330
C
102
}
330
C
100
AcDbDictionary
1001
ACAD
1000
TREAT_AS_HARD
1070
     0
  0
DICTIONARY
  5
45
102
{ACAD_REACTORS
330
C
102
}
330
C
100
AcDbDictionary
  3
ACMSTDDICTIONARY
350
4A
1001
ACAD
1000
TREAT_AS_HARD
1070
     0
  0
DICTIONARY
  5
2B
102
{ACAD_REACTORS
330
C
102
}
330
C
100
AcDbDictionary
  3
ACMGSETTINGS
350
2C
1001
ACAD
1000
TREAT_AS_HARD
1070
     0
  0
DICTIONARY
  5
7D
102
{ACAD_REACTORS
330
C
102
}
330
C
100
AcDbDictionary
1001
ACAD
1000
TREAT_AS_HARD
1070
     0
  0
XRECORD
  5
1561
102
{ACAD_REACTORS
330
C
102
}
330
C
100
AcDbXrecord
  1
DWGPROPS COOKIE
  2

  3

  4

  6

  7

  8

  9

300
AmdtFileType=84
301
=
302
=
303
=
304
=
305
=
306
=
307
=
308
=
309
=
 40
0.0023923842592593
 41
2453020.658411643
 42
2453020.660802465
  1

 90
        1
  0
DICTIONARY
  5
15A
102
{ACAD_REACTORS
330
159
102
}
330
159
100
AcDbDictionary
  3
*A1
350
15B
1001
ACAD
1000
TREAT_AS_HARD
1070
     0
  0
XRECORD
  5
1605
102
{ACAD_REACTORS
330
159
102
}
330
159
100
AcDbXrecord
340
1F
  0
XRECORD
  5
1604
102
{ACAD_REACTORS
330
1603
102
}
330
1603
100
AcDbXrecord
340
1B
  0
MLINESTYLE
  5
18
102
{ACAD_REACTORS
330
17
102
}
330
17
100
AcDbMlineStyle
  2
STANDARD
 70
     0
  3

 62
   256
 51
90.0
 52
90.0
 71
     2
 49
0.5
 62
   256
  6
BYLAYER
 49
-0.5
 62
   256
  6
BYLAYER
  0
DICTIONARY
  5
4A
102
{ACAD_REACTORS
330
45
102
}
330
45
100
AcDbDictionary
1001
ACAD
1000
TREAT_AS_HARD
1070
     0
  0
DICTIONARY
  5
2C
102
{ACAD_REACTORS
330
2B
102
}
330
2B
100
AcDbDictionary
  3
DWGSETTINGS
350
2D
1001
ACAD
1000
TREAT_AS_HARD
1070
     0
  0
LAYER_INDEX
  5
15B
102
{ACAD_REACTORS
330
15A
102
}
330
15A
100
AcDbIndex
 40
2453057.493142176
100
AcDbLayerIndex
  8
0
360
15C
 90
        1
  8
AM_5
360
15D
 90
       24
  8
Defpoints
360
15E
 90
        0
  8
AM_7
360
15F
 90
      136
  8
AM_VIS
360
4D4
 90
      310
  8
圖層4
360
4D5
 90
        7
  8
AM_4
360
4D6
 90
       28
  8
LOGO
360
154F
 90
       86
  0
XRECORD
  5
2D
102
{ACAD_REACTORS
330
2C
102
}
330
2C
100
AcDbXrecord
  1
VERSION
140
15.0
  1
PRODUCT
  2
AutoCAD Mechanical 2000
  0
IDBUFFER
  5
15C
330
0
100
AcDbIdBuffer
330
1293
  0
IDBUFFER
  5
15D
330
0
100
AcDbIdBuffer
330
125F
330
1260
330
1261
330
1264
330
1268
330
126B
330
1280
330
1282
330
124F
330
1250
330
1251
330
1252
330
1253
330
1254
330
1255
330
1256
330
1257
330
1258
330
1259
330
125A
330
125B
330
125C
330
125D
330
125E
  0
IDBUFFER
  5
15E
330
0
100
AcDbIdBuffer
  0
IDBUFFER
  5
15F
330
0
100
AcDbIdBuffer
330
11EE
330
11EF
330
11F9
330
120C
330
120D
330
120E
330
1210
330
1211
330
1212
330
1222
330
1224
330
122A
330
122B
330
122F
330
1233
330
1235
330
1239
330
1240
330
1241
330
1244
330
126F
330
1272
330
1275
330
1276
330
108F
330
1090
330
1092
330
1099
330
109E
330
109F
330
10A0
330
10A1
330
10A2
330
10A4
330
10AE
330
10B7
330
10B8
330
10B9
330
10BA
330
10BC
330
10BD
330
10C8
330
10CC
330
10CE
330
10CF
330
10D0
330
10D3
330
10D8
330
1100
330
1101
330
1104
330
1105
330
1107
330
1108
330
1109
330
1116
330
1127
330
112C
330
112D
330
112E
330
1130
330
1131
330
1134
330
1135
330
1136
330
1137
330
1138
330
1139
330
113A
330
113B
330
113C
330
113D
330
113F
330
1140
330
1141
330
1142
330
1143
330
1144
330
114D
330
114E
330
114F
330
1150
330
1152
330
1153
330
1154
330
1155
330
1156
330
1157
330
1158
330
1159
330
115B
330
115C
330
115D
330
115E
330
115F
330
1160
330
1163
330
1164
330
1165
330
1166
330
1167
330
116C
330
116D
330
116E
330
116F
330
1170
330
1172
330
1187
330
1189
330
118A
330
118B
330
118C
330
118D
330
1191
330
1192
330
1193
330
1194
330
1195
330
1197
330
119D
330
11CF
330
11D0
330
11D2
330
11D3
330
11D4
330
11D6
330
11D7
330
11DA
330
11DB
330
11DC
330
11DD
330
11DE
330
11E2
330
11EB
330
11EC
330
11ED
  0
IDBUFFER
  5
4D4
330
0
100
AcDbIdBuffer
330
11FA
330
11FB
330
11FC
330
11FD
330
11FE
330
11FF
330
1200
330
1201
330
1202
330
1203
330
1204
330
1205
330
1206
330
1207
330
1208
330
1209
330
120A
330
120B
330
120F
330
1213
330
1214
330
1215
330
1216
330
1217
330
1218
330
1219
330
121A
330
121B
330
121C
330
121D
330
121E
330
121F
330
1220
330
1221
330
1223
330
1225
330
1226
330
1227
330
1228
330
1229
330
122C
330
122D
330
122E
330
1230
330
1231
330
1232
330
1234
330
1236
330
1237
330
1238
330
123A
330
123B
330
123C
330
123D
330
123E
330
123F
330
1242
330
1243
330
1245
330
1246
330
1247
330
1248
330
1249
330
124A
330
124B
330
124C
330
124D
330
124E
330
127B
330
127D
330
1091
330
1095
330
1096
330
1097
330
109A
330
109B
330
109C
330
109D
330
10A3
330
10A5
330
10A6
330
10A7
330
10A8
330
10A9
330
10AA
330
10AB
330
10AC
330
10AD
330
10AF
330
10B0
330
10B1
330
10B2
330
10B3
330
10B4
330
10B5
330
10B6
330
10BB
330
10BE
330
10BF
330
10C0
330
10C1
330
10C2
330
10C3
330
10C4
330
10C5
330
10C6
330
10C7
330
10C9
330
10CA
330
10CB
330
10CD
330
10D1
330
10D2
330
10D4
330
10D5
330
10D6
330
10D7
330
10D9
330
10DA
330
10DB
330
10DC
330
10DD
330
10DE
330
10DF
330
10E0
330
10E1
330
10E2
330
10E3
330
10E4
330
10E5
330
10E6
330
10E7
330
10E8
330
10E9
330
10EA
330
10EB
330
10EC
330
10ED
330
10EE
330
10EF
330
10F0
330
10F1
330
10F2
330
10F3
330
10F4
330
10F5
330
10F6
330
10F7
330
10F8
330
10F9
330
10FA
330
10FB
330
10FC
330
10FD
330
10FE
330
10FF
330
1102
330
1103
330
1106
330
110A
330
110B
330
110C
330
110D
330
110E
330
110F
330
1110
330
1111
330
1112
330
1113
330
1114
330
1115
330
1117
330
1118
330
1119
330
111A
330
111B
330
111C
330
111D
330
111E
330
111F
330
1120
330
1121
330
1122
330
1123
330
1124
330
1125
330
1126
330
1128
330
1129
330
112A
330
112B
330
112F
330
1132
330
1133
330
113E
330
1145
330
1146
330
1147
330
1148
330
1149
330
114A
330
114B
330
114C
330
1151
330
115A
330
1162
330
1168
330
1169
330
116A
330
116B
330
1171
330
1174
330
1175
330
1176
330
1177
330
1178
330
1179
330
117A
330
117B
330
117C
330
117D
330
117E
330
117F
330
1180
330
1181
330
1182
330
1183
330
1184
330
1185
330
1188
330
118E
330
118F
330
1190
330
1196
330
1198
330
1199
330
119A
330
119B
330
119C
330
119E
330
119F
330
11A0
330
11A1
330
11A2
330
11A3
330
11A4
330
11A5
330
11A6
330
11A7
330
11A8
330
11A9
330
11AA
330
11AB
330
11AC
330
11AD
330
11AE
330
11AF
330
11B0
330
11B1
330
11B2
330
11B3
330
11B4
330
11B5
330
11B6
330
11B7
330
11B8
330
11B9
330
11BA
330
11BB
330
11BC
330
11BD
330
11BE
330
11BF
330
11C0
330
11C1
330
11C2
330
11C3
330
11C4
330
11C5
330
11C6
330
11C7
330
11C8
330
11C9
330
11CA
330
11CB
330
11CC
330
11CD
330
11CE
330
11D1
330
11D5
330
11DF
330
11E0
330
11E1
330
11E3
330
11E4
330
11E5
330
11E6
330
11E7
330
11E8
330
11E9
330
11EA
330
11F0
330
11F1
330
11F2
330
11F3
330
11F4
330
11F5
330
11F6
330
11F7
330
11F8
  0
IDBUFFER
  5
4D5
330
0
100
AcDbIdBuffer
330
1262
330
1269
330
126A
330
127F
330
1281
330
1283
330
1284
  0
IDBUFFER
  5
4D6
330
0
100
AcDbIdBuffer
330
1271
330
1273
330
1274
330
1277
330
1278
330
1279
330
127A
330
127C
330
127E
330
1285
330
1286
330
1287
330
1093
330
1094
330
1098
330
1161
330
1173
330
1186
330
11D8
330
11D9
330
1263
330
1265
330
1266
330
1267
330
126C
330
126D
330
126E
330
1270
  0
IDBUFFER
  5
154F
330
0
100
AcDbIdBuffer
330
12D0
330
12D1
330
12D2
330
12D3
330
12D7
330
12D8
330
12D9
330
12DA
330
12DB
330
12DC
330
12DD
330
12DE
330
12DF
330
12E0
330
12E1
330
12E2
330
12E3
330
12E4
330
12E5
330
12E6
330
12E7
330
12E8
330
12E9
330
12EA
330
12EB
330
12EC
330
12ED
330
12EE
330
12EF
330
12F0
330
12F1
330
12F2
330
12F3
330
12F4
330
12F5
330
12F6
330
12F7
330
12F8
330
1288
330
1289
330
128A
330
128B
330
128C
330
128D
330
128E
330
128F
330
1290
330
1291
330
1292
330
1299
330
129A
330
129B
330
129C
330
129D
330
12A1
330
12A5
330
12A6
330
12A7
330
12A8
330
12A9
330
12AA
330
12AB
330
12AC
330
12AD
330
12AE
330
12AF
330
12B0
330
12B1
330
12B2
330
12B3
330
12B7
330
12B8
330
12B9
330
12BA
330
12BE
330
12BF
330
12C0
330
12C1
330
12C2
330
12C3
330
12C4
330
12C5
330
12C6
330
12CA
330
12CB
330
12CF
  0
ENDSEC
  0
EOF
