  0
SECTION
  2
HEADER
  9
$ACADVER
  1
AC1015
  9
$ACADMAINTVER
 70
    20
  9
$DWGCODEPAGE
  3
ANSI_950
  9
$INSBASE
 10
0.0
 20
0.0
 30
0.0
  9
$EXTMIN
 10
1484.508276248769
 20
736.0483227728482
 30
-0.0253253737929526
  9
$EXTMAX
 10
2339.980354153595
 20
1280.809676303187
 30
407.645228998995
  9
$LIMMIN
 10
0.0
 20
0.0
  9
$LIMMAX
 10
420.0
 20
297.0
  9
$ORTHOMODE
 70
     0
  9
$REGENMODE
 70
     1
  9
$FILLMODE
 70
     1
  9
$QTEXTMODE
 70
     0
  9
$MIRRTEXT
 70
     1
  9
$LTSCALE
 40
2.0
  9
$ATTMODE
 70
     1
  9
$TEXTSIZE
 40
3.0
  9
$TRACEWID
 40
1.0
  9
$TEXTSTYLE
  7
CHINESET
  9
$CLAYER
  8
0
  9
$CELTYPE
  6
ByLayer
  9
$CECOLOR
 62
   256
  9
$CELTSCALE
 40
1.0
  9
$DISPSILH
 70
     0
  9
$DIMSCALE
 40
1.0
  9
$DIMASZ
 40
3.0
  9
$DIMEXO
 40
1.0
  9
$DIMDLI
 40
12.0
  9
$DIMRND
 40
0.0
  9
$DIMDLE
 40
0.0
  9
$DIMEXE
 40
1.5
  9
$DIMTP
 40
0.1
  9
$DIMTM
 40
0.1
  9
$DIMTXT
 40
3.0
  9
$DIMCEN
 40
0.0
  9
$DIMTSZ
 40
0.0
  9
$DIMTOL
 70
     0
  9
$DIMLIM
 70
     0
  9
$DIMTIH
 70
     0
  9
$DIMTOH
 70
     0
  9
$DIMSE1
 70
     0
  9
$DIMSE2
 70
     0
  9
$DIMTAD
 70
     1
  9
$DIMZIN
 70
     8
  9
$DIMBLK
  1

  9
$DIMASO
 70
     1
  9
$DIMSHO
 70
     1
  9
$DIMPOST
  1

  9
$DIMAPOST
  1
"
  9
$DIMALT
 70
     0
  9
$DIMALTD
 70
     2
  9
$DIMALTF
 40
0.0393701
  9
$DIMLFAC
 40
1.0
  9
$DIMTOFL
 70
     1
  9
$DIMTVP
 40
0.0
  9
$DIMTIX
 70
     0
  9
$DIMSOXD
 70
     0
  9
$DIMSAH
 70
     0
  9
$DIMBLK1
  1

  9
$DIMBLK2
  1

  9
$DIMSTYLE
  2
AM_ISO
  9
$DIMCLRD
 70
   256
  9
$DIMCLRE
 70
   256
  9
$DIMCLRT
 70
   256
  9
$DIMTFAC
 40
0.71
  9
$DIMGAP
 40
1.0
  9
$DIMJUST
 70
     0
  9
$DIMSD1
 70
     0
  9
$DIMSD2
 70
     0
  9
$DIMTOLJ
 70
     2
  9
$DIMTZIN
 70
     8
  9
$DIMALTZ
 70
     0
  9
$DIMALTTZ
 70
     0
  9
$DIMUPT
 70
     0
  9
$DIMDEC
 70
     2
  9
$DIMTDEC
 70
     8
  9
$DIMALTU
 70
     2
  9
$DIMALTTD
 70
     2
  9
$DIMTXSTY
  7
STANDARD
  9
$DIMAUNIT
 70
     0
  9
$DIMADEC
 70
     0
  9
$DIMALTRND
 40
0.0
  9
$DIMAZIN
 70
     2
  9
$DIMDSEP
 70
    46
  9
$DIMATFIT
 70
     3
  9
$DIMFRAC
 70
     0
  9
$DIMLDRBLK
  1

  9
$DIMLUNIT
 70
     2
  9
$DIMLWD
 70
    -1
  9
$DIMLWE
 70
    -1
  9
$DIMTMOVE
 70
     0
  9
$LUNITS
 70
     2
  9
$LUPREC
 70
     2
  9
$SKETCHINC
 40
1.0
  9
$FILLETRAD
 40
2.5
  9
$AUNITS
 70
     0
  9
$AUPREC
 70
     0
  9
$MENU
  1
.
  9
$ELEVATION
 40
0.0
  9
$PELEVATION
 40
0.0
  9
$THICKNESS
 40
0.0
  9
$LIMCHECK
 70
     0
  9
$CHAMFERA
 40
2.5
  9
$CHAMFERB
 40
2.5
  9
$CHAMFERC
 40
20.0
  9
$CHAMFERD
 40
0.0
  9
$SKPOLY
 70
     0
  9
$TDCREATE
 40
2453580.633342373
  9
$TDUCREATE
 40
2453580.300009039
  9
$TDUPDATE
 40
2453584.698947477
  9
$TDUUPDATE
 40
2453584.365614144
  9
$TDINDWG
 40
0.3403913310
  9
$TDUSRTIMER
 40
0.3403913310
  9
$USRTIMER
 70
     1
  9
$ANGBASE
 50
0.0
  9
$ANGDIR
 70
     0
  9
$PDMODE
 70
     0
  9
$PDSIZE
 40
0.0
  9
$PLINEWID
 40
0.0
  9
$SPLFRAME
 70
     0
  9
$SPLINETYPE
 70
     6
  9
$SPLINESEGS
 70
     8
  9
$HANDSEED
  5
4CAD
  9
$SURFTAB1
 70
     6
  9
$SURFTAB2
 70
     6
  9
$SURFTYPE
 70
     6
  9
$SURFU
 70
     6
  9
$SURFV
 70
     6
  9
$UCSBASE
  2

  9
$UCSNAME
  2

  9
$UCSORG
 10
0.0
 20
0.0
 30
0.0
  9
$UCSXDIR
 10
1.0
 20
0.0
 30
0.0
  9
$UCSYDIR
 10
0.0
 20
1.0
 30
0.0
  9
$UCSORTHOREF
  2

  9
$UCSORTHOVIEW
 70
     0
  9
$UCSORGTOP
 10
0.0
 20
0.0
 30
0.0
  9
$UCSORGBOTTOM
 10
0.0
 20
0.0
 30
0.0
  9
$UCSORGLEFT
 10
0.0
 20
0.0
 30
0.0
  9
$UCSORGRIGHT
 10
0.0
 20
0.0
 30
0.0
  9
$UCSORGFRONT
 10
0.0
 20
0.0
 30
0.0
  9
$UCSORGBACK
 10
0.0
 20
0.0
 30
0.0
  9
$PUCSBASE
  2

  9
$PUCSNAME
  2

  9
$PUCSORG
 10
0.0
 20
0.0
 30
0.0
  9
$PUCSXDIR
 10
1.0
 20
0.0
 30
0.0
  9
$PUCSYDIR
 10
0.0
 20
1.0
 30
0.0
  9
$PUCSORTHOREF
  2

  9
$PUCSORTHOVIEW
 70
     0
  9
$PUCSORGTOP
 10
0.0
 20
0.0
 30
0.0
  9
$PUCSORGBOTTOM
 10
0.0
 20
0.0
 30
0.0
  9
$PUCSORGLEFT
 10
0.0
 20
0.0
 30
0.0
  9
$PUCSORGRIGHT
 10
0.0
 20
0.0
 30
0.0
  9
$PUCSORGFRONT
 10
0.0
 20
0.0
 30
0.0
  9
$PUCSORGBACK
 10
0.0
 20
0.0
 30
0.0
  9
$USERI1
 70
     0
  9
$USERI2
 70
     0
  9
$USERI3
 70
     0
  9
$USERI4
 70
     0
  9
$USERI5
 70
     0
  9
$USERR1
 40
0.0
  9
$USERR2
 40
0.0
  9
$USERR3
 40
0.0
  9
$USERR4
 40
0.0
  9
$USERR5
 40
0.0
  9
$WORLDVIEW
 70
     1
  9
$SHADEDGE
 70
     3
  9
$SHADEDIF
 70
    70
  9
$TILEMODE
 70
     1
  9
$MAXACTVP
 70
    64
  9
$PINSBASE
 10
0.0
 20
0.0
 30
0.0
  9
$PLIMCHECK
 70
     0
  9
$PEXTMIN
 10
1.000000000000000E+20
 20
1.000000000000000E+20
 30
1.000000000000000E+20
  9
$PEXTMAX
 10
-1.000000000000000E+20
 20
-1.000000000000000E+20
 30
-1.000000000000000E+20
  9
$PLIMMIN
 10
0.0
 20
0.0
  9
$PLIMMAX
 10
420.0
 20
297.0
  9
$UNITMODE
 70
     0
  9
$VISRETAIN
 70
     1
  9
$PLINEGEN
 70
     0
  9
$PSLTSCALE
 70
     1
  9
$TREEDEPTH
 70
  3020
  9
$CMLSTYLE
  2
Standard
  9
$CMLJUST
 70
     0
  9
$CMLSCALE
 40
20.0
  9
$PROXYGRAPHICS
 70
     1
  9
$MEASUREMENT
 70
     1
  9
$CELWEIGHT
370
    -1
  9
$ENDCAPS
280
     0
  9
$JOINSTYLE
280
     0
  9
$LWDISPLAY
290
     0
  9
$INSUNITS
 70
     4
  9
$HYPERLINKBASE
  1

  9
$STYLESHEET
  1
彩色出圖.ctb
  9
$XEDIT
290
     1
  9
$CEPSNTYPE
380
     0
  9
$PSTYLEMODE
290
     1
  9
$FINGERPRINTGUID
  2
{B9E4BE39-A089-470C-A359-98F2256325D3}
  9
$VERSIONGUID
  2
{62446283-4090-4CB1-8701-07E79F30FD8D}
  9
$EXTNAMES
290
     1
  9
$PSVPSCALE
 40
0.0
  9
$OLESTARTUP
290
     0
  0
ENDSEC
  0
SECTION
  2
CLASSES
  0
CLASS
  1
ACDBDICTIONARYWDFLT
  2
AcDbDictionaryWithDefault
  3
ObjectDBX Classes
 90
        0
280
     0
281
     0
  0
CLASS
  1
ACDBPLACEHOLDER
  2
AcDbPlaceHolder
  3
ObjectDBX Classes
 90
        0
280
     0
281
     0
  0
CLASS
  1
LAYOUT
  2
AcDbLayout
  3
ObjectDBX Classes
 90
        0
280
     0
281
     0
  0
CLASS
  1
ACME_DOCUMENT
  2
AcMeDbDoc
  3
AcMeServices
 90
        0
280
     0
281
     0
  0
CLASS
  1
AMGSETTINGSOBJ
  2
AmgSettingsObj
  3
"AcadM|Product Description: AutoCAD Mechanical 2000|Company: Autodesk"
 90
        0
280
     0
281
     0
  0
CLASS
  1
ACMESCOPE
  2
AcMeScope
  3
AcMeServices
 90
        0
280
     0
281
     0
  0
CLASS
  1
ACMECOMMANDHISTORY
  2
AcMeCommandHistory
  3
AcMeServices
 90
        0
280
     0
281
     0
  0
CLASS
  1
ACIMSYSVARMAN
  2
AcImSysVarManager
  3
AcMeServices
 90
        0
280
     0
281
     0
  0
CLASS
  1
ACIMREALSYSVAR
  2
AcImRealSysVar
  3
AcMeServices
 90
        0
280
     0
281
     0
  0
CLASS
  1
ACIMINTSYSVAR
  2
AcImIntSysVar
  3
AcMeServices
 90
        0
280
     0
281
     0
  0
CLASS
  1
ACMEDRAWINGMAN
  2
AcMeDrawingMan
  3
AcMeServices
 90
        0
280
     0
281
     0
  0
CLASS
  1
ACMEVIEW
  2
AcMeView
  3
AcMeServices
 90
        0
280
     0
281
     0
  0
CLASS
  1
ACDBENTITYCACHE
  2
AcMeEntityCache
  3
AcMeServices
 90
        0
280
     0
281
     0
  0
CLASS
  1
GSMANAGER
  2
AcMeGSManager
  3
AcMeServices
 90
        0
280
     0
281
     0
  0
CLASS
  1
AMDTINTERNALREACTOR
  2
AmdtInternalReactor
  3
AcMeServices
 90
        0
280
     0
281
     0
  0
CLASS
  1
ACMESTATEMGR
  2
AcMeStateMgr
  3
AcMeServices
 90
        0
280
     0
281
     0
  0
CLASS
  1
ACGREFMASTER
  2
AcGrefMaster
  3
AcAttribServices
 90
        0
280
     0
281
     0
  0
CLASS
  1
ACME_DATABASE
  2
AcMeDbDatabase
  3
AcMeServices
 90
        0
280
     0
281
     0
  0
CLASS
  1
ACRFINSADJUSTERMGR
  2
AcRfInsAdjusterMgr
  3
AcMeServices
 90
        0
280
     0
281
     0
  0
CLASS
  1
ACGREFACADMASTER
  2
AcGrefacadMaster
  3
AcGrefServices
 90
        0
280
     0
281
     0
  0
CLASS
  1
AMIMASTER
  2
AmiMaster
  3
AmiServices
 90
        0
280
     0
281
     0
  0
CLASS
  1
ACMDATADICTIONARY
  2
AcmDataDictionary
  3
"AcmSymBB|Product Description: AutoCAD Mechanical 2004 DX|Company: Autodesk"
 90
        0
280
     0
281
     0
  0
CLASS
  1
ACMDATAENTRYBLOCK
  2
AcmDataEntryBlock
  3
"AcmSymBB|Product Description: AutoCAD Mechanical 2004 DX|Company: Autodesk"
 90
        0
280
     0
281
     0
  0
CLASS
  1
ACIMSTRSYSVAR
  2
AcImStrSysVar
  3
AcMeServices
 90
        0
280
     0
281
     0
  0
CLASS
  1
ACMSTANDARDISO
  2
AcmStandardISO
  3
"Amdt_StdImp|Product Description: AutoCAD Mechanical 2004 DX|Company: Autodesk"
 90
        0
280
     0
281
     0
  0
CLASS
  1
AMGOBJPROPCFG
  2
AmgObjPropCfg
  3
"AmgLay|Product Description: AutoCAD Mechanical 2000|Company: Autodesk"
 90
        1
280
     0
281
     0
  0
CLASS
  1
AMDTEDGESTANDARDISO
  2
AmdtEdgeStdISO
  3
"Amdt_StdImp|Product Description: AutoCAD Mechanical 2004 DX|Company: Autodesk"
 90
        0
280
     0
281
     0
  0
CLASS
  1
ACMSURFSTANDARDISO
  2
AcmSurfTextStdISO
  3
"Amdt_StdImp|Product Description: AutoCAD Mechanical 2004 DX|Company: Autodesk"
 90
        0
280
     0
281
     0
  0
CLASS
  1
ACMFCFSTANDARDISO
  2
AcmFCFStdISO
  3
"Amdt_StdImp|Product Description: AutoCAD Mechanical 2004 DX|Company: Autodesk"
 90
        0
280
     0
281
     0
  0
CLASS
  1
ACMWELDSTANDARDISO
  2
AcmWeldingStdISO
  3
"Amdt_StdImp|Product Description: AutoCAD Mechanical 2004 DX|Company: Autodesk"
 90
        0
280
     0
281
     0
  0
CLASS
  1
ACMIDSTANDARDISO
  2
AcmIdStdISO
  3
"Amdt_StdImp|Product Description: AutoCAD Mechanical 2004 DX|Company: Autodesk"
 90
        0
280
     0
281
     0
  0
CLASS
  1
ACMDATUMSTANDARDISO
  2
AcmDatumStdISO
  3
"Amdt_StdImp|Product Description: AutoCAD Mechanical 2004 DX|Company: Autodesk"
 90
        0
280
     0
281
     0
  0
CLASS
  1
ACMBOMSTANDARDISO
  2
AcmBOMStdISO
  3
"Amdt_StdImp|Product Description: AutoCAD Mechanical 2004 DX|Company: Autodesk"
 90
        0
280
     0
281
     0
  0
CLASS
  1
ACMDETAILSTANDARDISO
  2
AmdtDetailSymStdISO
  3
"Amdt_StdImp|Product Description: AutoCAD Mechanical 2004 DX|Company: Autodesk"
 90
        0
280
     0
281
     0
  0
CLASS
  1
ACMSECTIONSTANDARDISO
  2
AmdtSectionSymStdISO
  3
"Amdt_StdImp|Product Description: AutoCAD Mechanical 2004 DX|Company: Autodesk"
 90
        0
280
     0
281
     0
  0
CLASS
  1
ACMCENTERLINESTANDARDISO
  2
AmdtCenterLineStdISO
  3
"Amdt_StdImp|Product Description: AutoCAD Mechanical 2004 DX|Company: Autodesk"
 90
        0
280
     0
281
     0
  0
CLASS
  1
ACMNOTESTANDARDISO
  2
AmdtNoteStdISO
  3
"Amdt_StdImp|Product Description: AutoCAD Mechanical 2004 DX|Company: Autodesk"
 90
        0
280
     0
281
     0
  0
CLASS
  1
ACAMGLAYSTD
  2
AcAmgLayStd
  3
"AcAmgLayStd|Product Description: AutoCAD Mechanical 2000|Company: Autodesk"
 90
        0
280
     0
281
     0
  0
CLASS
  1
ACAMGDIMSTD
  2
AcAmgDimStd
  3
"AcAmgDimStd|Product Description: AutoCAD Mechanical 2000|Company: Autodesk"
 90
        0
280
     0
281
     0
  0
CLASS
  1
ACAMGHOLECHARTSTDISO
  2
AcAmgHoleChartStdISO
  3
ACMSYMBB_MODULE_NAME
 90
        0
280
     0
281
     0
  0
CLASS
  1
ACAMGTITLESTD
  2
AcAmgTitleStd
  3
"TITLEAPP"
 90
        0
280
     0
281
     0
  0
CLASS
  1
LAYER_INDEX
  2
AcDbLayerIndex
  3
ObjectDBX Classes
 90
    32768
280
     0
281
     0
  0
CLASS
  1
IDBUFFER
  2
AcDbIdBuffer
  3
ObjectDBX Classes
 90
    32768
280
     0
281
     0
  0
CLASS
  1
DICTIONARYVAR
  2
AcDbDictionaryVar
  3
ObjectDBX Classes
 90
        0
280
     0
281
     0
  0
CLASS
  1
AM_DRAWING_MGR
  2
AcDmDwgMgr
  3
AcMechDwgViewMgmt
 90
        0
280
     0
281
     0
  0
CLASS
  1
AM_DWG_DOCUMENT
  2
AcDmDwgDocument
  3
AcMechDwgViewMgmt
 90
        0
280
     0
281
     0
  0
CLASS
  1
AM_DWG_SHEET
  2
AcDmSheet
  3
AcMechDwgViewMgmt
 90
        0
280
     0
281
     0
  0
CLASS
  1
AM_VIEWDIMPARMAP
  2
AcDmViewDimParMap
  3
AcMechDwgViewMgmt
 90
        0
280
     0
281
     0
  0
CLASS
  1
AM_DWGMGR_NAME
  2
AcDmDwgMgrName
  3
AcMechDwgViewMgmt
 90
        0
280
     0
281
     0
  0
CLASS
  1
AMDTMENUSTATEMGR
  2
AmdtMenuStateMgr
  3
McadcomServices
 90
        0
280
     0
281
     0
  0
CLASS
  1
AMDTMCOMMENUSTATE
  2
AmdtMcomMenuState
  3
McadcomServices
 90
        0
280
     0
281
     0
  0
CLASS
  1
MAPIAMMOUDLE
  2
MApiAmModule
  3
MApiAmServices
 90
        0
280
     0
281
     0
  0
CLASS
  1
AMDTADMENUSTATE
  2
AmdtAdMenuState
  3
DesignerServices
 90
        0
280
     0
281
     0
  0
CLASS
  1
ADAPPL
  2
AcAdAppl
  3
DesignerServices
 90
        0
280
     0
281
     0
  0
CLASS
  1
DEPMGR
  2
AcAdDepMgr
  3
DesignerServices
 90
        0
280
     0
281
     0
  0
CLASS
  1
PARAMMGR
  2
AcAdParamMgr
  3
DesignerServices
 90
        0
280
     0
281
     0
  0
CLASS
  1
PARAMSCOPE
  2
AcAdParamScope
  3
DesignerServices
 90
        0
280
     0
281
     0
  0
CLASS
  1
NAMEDAPPL
  2
AcAdNamedAppl
  3
DesignerServices
 90
        0
280
     0
281
     0
  0
CLASS
  1
AMDTDMMENUSTATE
  2
AmdtDmMenuState
  3
AcMechDwgViewMgmt
 90
        0
280
     0
281
     0
  0
CLASS
  1
AMDTAMMENUSTATE
  2
AmdtAmMenuState
  3
DesignerAssemblies
 90
        0
280
     0
281
     0
  0
CLASS
  1
ACAMPROJECT
  2
AcAmProject
  3
DesignerAssemblies
 90
        0
280
     0
281
     0
  0
CLASS
  1
ACAMGRCOMPDEF
  2
AcAmGrCompDef
  3
DesignerAssemblies
 90
        0
280
     0
281
     0
  0
CLASS
  1
ACCMCONTEXT
  2
AcCmContext
  3
DesignerAssemblies
 90
        0
280
     0
281
     0
  0
CLASS
  1
ACAMCOMPDEF
  2
AcAmCompDef
  3
DesignerAssemblies
 90
        0
280
     0
281
     0
  0
CLASS
  1
ACAMCOMPDEFMGR
  2
AcAmCompDefMgr
  3
DesignerAssemblies
 90
        0
280
     0
281
     0
  0
CLASS
  1
AMCONTEXTMGR
  2
AcAmContextMgr
  3
DesignerAssemblies
 90
        0
280
     0
281
     0
  0
CLASS
  1
ACAMCONTEXTMODELER
  2
AcAmContextModeler
  3
DesignerAssemblies
 90
        0
280
     0
281
     0
  0
CLASS
  1
ACMTHREADLINESTANDARDISO
  2
AmdtThreadLineStdISO
  3
"Amdt_StdImp|Product Description: AutoCAD Mechanical 2004 DX|Company: Autodesk"
 90
        0
280
     0
281
     0
  0
CLASS
  1
CATALOGSTATE
  2
AcAmCatalogState
  3
DesignerAssemblies
 90
        0
280
     0
281
     0
  0
CLASS
  1
ACAMGRCOMPDEFSET
  2
AcAmGrCompDefSet
  3
DesignerAssemblies
 90
        0
280
     0
281
     0
  0
CLASS
  1
AMDTBROWSERDBTAB
  2
AmdtBrowserDbTab
  3
McadcomServices
 90
        0
280
     0
281
     0
  0
CLASS
  1
CBROWSERAPPOBJECT
  2
CBrowserAppObject
  3
McadcomServices
 90
        0
280
     0
281
     0
  0
CLASS
  1
DM_PLACEHOLDER
  2
AcDmSelsetPlaceholder
  3
AcMechDwgViewMgmt
 90
        0
280
     0
281
     0
  0
CLASS
  1
TABLESTYLE
  2
AcDbTableStyle
  3
ObjectDBX Classes
 90
     2047
280
     0
281
     0
  0
CLASS
  1
VAACXREFPANELOBJECT
  2
VaAcXREFPanelObject
  3
VAAC_ADDIN
 90
    32768
280
     0
281
     0
  0
CLASS
  1
VAACIMAGEINVENTORY
  2
VaAcImageInventory
  3
VAAC_ADDIN
 90
    32768
280
     0
281
     0
  0
CLASS
  1
AMDTNOTETEMPLATEDB
  2
AmdtNoteTemplateDB
  3
AMDT_STDIMP_MODULE_NAME
 90
        0
280
     0
281
     0
  0
CLASS
  1
ACMBOM
  2
AcmBom
  3
"AcmSymBB|Product Description: AutoCAD Mechanical 2004 DX|Company: Autodesk"
 90
    32768
280
     0
281
     0
  0
CLASS
  1
AMDTFORMULAUPDATEDISPATCHER
  2
AmdtFormulaUpdateDispatcher
  3
AcMeServices
 90
    32768
280
     0
281
     0
  0
CLASS
  1
ACMPARTLIST
  2
AcmPartList
  3
"AcmSymBB|Product Description: AutoCAD Mechanical 2004 DX|Company: Autodesk"
 90
    33791
280
     0
281
     1
  0
CLASS
  1
ACAMGFILTERDAT
  2
AcAmgFilterDat
  3
"AcadM|Product Description: AutoCAD Mechanical 2000|Company: Autodesk"
 90
        0
280
     0
281
     0
  0
CLASS
  1
DIMASSOC
  2
AcDbDimAssoc
  3
"AcDbDimAssoc|Product Desc:     AcDim ARX App For Dimension|Company:          Autodesk, Inc.|WEB Address:      www.autodesk.com"
 90
        0
280
     0
281
     0
  0
CLASS
  1
SORTENTSTABLE
  2
AcDbSortentsTable
  3
ObjectDBX Classes
 90
        0
280
     0
281
     0
  0
CLASS
  1
AMDTNOTE
  2
AmdtNote
  3
"AcmSymBB|Product Description: AutoCAD Mechanical 2004 DX|Company: Autodesk"
 90
     1023
280
     0
281
     1
  0
CLASS
  1
STDPART2D
  2
AmgStdPart
  3
"AmgStdPart|Product Description: AutoCAD Mechanical 2000|Company: Autodesk"
 90
    33791
280
     0
281
     1
  0
CLASS
  1
ACAMSTDPCOMPDEF
  2
AcAmStdpCompDef
  3
DesignerAssemblies
 90
    32768
280
     0
281
     0
  0
CLASS
  1
ACRFATTGENMGR
  2
AcRfAttGeneralMgr
  3
AcAttribServices
 90
        0
280
     0
281
     0
  0
CLASS
  1
ACRFOBJATTMGR
  2
AcRfObjAttGroupMgr
  3
AcAttribServices
 90
    32768
280
     0
281
     0
  0
CLASS
  1
ACRFMCADAPIATTHOLDER
  2
AcRfMCADAPIAttHolder
  3
AcAttribServices
 90
    32768
280
     0
281
     0
  0
CLASS
  1
AMDTSYSATTR
  2
AmdtSystemAttribute
  3
AcAttribServices
 90
    32768
280
     0
281
     0
  0
CLASS
  1
ACAMCOMP
  2
AcAmComp
  3
DesignerAssemblies
 90
    32768
280
     0
281
     0
  0
CLASS
  1
AC_AM_STDP_VIEW_DEF
  2
AcAmStdpViewDef
  3
DesignerAssemblies
 90
    32768
280
     0
281
     0
  0
CLASS
  1
AC_AM_MVD_DEP_MGR
  2
AcAmMVDdepMgr
  3
DesignerAssemblies
 90
        0
280
     0
281
     0
  0
CLASS
  1
AC_AM_MASTER_VIEW_DEF
  2
AcAmMasterViewDef
  3
DesignerAssemblies
 90
        0
280
     0
281
     0
  0
CLASS
  1
AC_AM_DIRTY_NODES
  2
AcAmDirtyNodes
  3
DesignerAssemblies
 90
        0
280
     0
281
     0
  0
CLASS
  1
AC_AM_MAPPER_CACHE
  2
AcAmMapperCache
  3
DesignerAssemblies
 90
        0
280
     0
281
     0
  0
CLASS
  1
ACAMMVDBACKUPOBJECT
  2
AcAmMVDBackupObject
  3
DesignerAssemblies
 90
        0
280
     0
281
     0
  0
CLASS
  1
AC_AM_COMP_VIEW_INST
  2
AcAmCompView
  3
DesignerAssemblies
 90
    32768
280
     0
281
     0
  0
CLASS
  1
AC_AM_2D_XREF_MGR
  2
AcAmXrefMgr2d
  3
DesignerAssemblies
 90
        0
280
     0
281
     0
  0
CLASS
  1
ACMSTANDARDANSI
  2
AcmStandardANSI
  3
"Amdt_StdImp|Product Description: AutoCAD Mechanical 2004 DX|Company: Autodesk"
 90
        0
280
     0
281
     0
  0
CLASS
  1
ACMSURFSTANDARDANSI
  2
AcmSurfTextStdANSI
  3
"Amdt_StdImp|Product Description: AutoCAD Mechanical 2004 DX|Company: Autodesk"
 90
        0
280
     0
281
     0
  0
CLASS
  1
ACMFCFSTANDARDANSI
  2
AcmFCFStdANSI
  3
"Amdt_StdImp|Product Description: AutoCAD Mechanical 2004 DX|Company: Autodesk"
 90
        0
280
     0
281
     0
  0
CLASS
  1
ACMWELDSTANDARDANSI
  2
AcmWeldingStdANSI
  3
"Amdt_StdImp|Product Description: AutoCAD Mechanical 2004 DX|Company: Autodesk"
 90
        0
280
     0
281
     0
  0
CLASS
  1
ACMIDSTANDARDANSI
  2
AcmIdStdANSI
  3
"Amdt_StdImp|Product Description: AutoCAD Mechanical 2004 DX|Company: Autodesk"
 90
        0
280
     0
281
     0
  0
CLASS
  1
ACMDATUMSTANDARDANSI
  2
AcmDatumStdANSI
  3
"Amdt_StdImp|Product Description: AutoCAD Mechanical 2004 DX|Company: Autodesk"
 90
        0
280
     0
281
     0
  0
CLASS
  1
ACMBOMSTANDARDANSI
  2
AcmBOMStdANSI
  3
"Amdt_StdImp|Product Description: AutoCAD Mechanical 2004 DX|Company: Autodesk"
 90
        0
280
     0
281
     0
  0
CLASS
  1
ACMDETAILSTANDARDANSI
  2
AmdtDetailSymStdANSI
  3
"Amdt_StdImp|Product Description: AutoCAD Mechanical 2004 DX|Company: Autodesk"
 90
        0
280
     0
281
     0
  0
CLASS
  1
ACMSECTIONSTANDARDANSI
  2
AmdtSectionSymStdANSI
  3
"Amdt_StdImp|Product Description: AutoCAD Mechanical 2004 DX|Company: Autodesk"
 90
        0
280
     0
281
     0
  0
CLASS
  1
ACMCENTERLINESTANDARDANSI
  2
AmdtCenterLineStdANSI
  3
"Amdt_StdImp|Product Description: AutoCAD Mechanical 2004 DX|Company: Autodesk"
 90
        0
280
     0
281
     0
  0
CLASS
  1
ACMTHREADLINESTANDARDANSI
  2
AmdtThreadLineStdANSI
  3
"Amdt_StdImp|Product Description: AutoCAD Mechanical 2004 DX|Company: Autodesk"
 90
        0
280
     0
281
     0
  0
CLASS
  1
ACMNOTESTANDARDANSI
  2
AmdtNoteStdANSI
  3
"Amdt_StdImp|Product Description: AutoCAD Mechanical 2004 DX|Company: Autodesk"
 90
        0
280
     0
281
     0
  0
CLASS
  1
ACAMGHOLECHARTSTDANSI
  2
AcAmgHoleChartStdANSI
  3
ACMSYMBB_MODULE_NAME
 90
        0
280
     0
281
     0
  0
ENDSEC
  0
SECTION
  2
TABLES
  0
TABLE
  2
VPORT
  5
8
330
0
100
AcDbSymbolTable
 70
     3
  0
VPORT
  5
4CA4
330
8
100
AcDbSymbolTableRecord
100
AcDbViewportTableRecord
  2
*Active
 70
     0
 10
0.0
 20
0.0
 11
1.0
 21
1.0
 12
1912.15332129682
 22
1008.426301762187
 13
0.0
 23
0.0
 14
2.5
 24
2.5
 15
10.0
 25
10.0
 16
0.0
 26
0.0
 36
1.0
 17
0.0
 27
0.0
 37
0.0
 40
551.4143044316755
 41
1.81766917293233
 42
50.0
 43
0.0
 44
0.0
 50
0.0
 51
0.0
 71
     0
 72
   100
 73
     1
 74
     3
 75
     0
 76
     0
 77
     0
 78
     0
281
     0
 65
     1
110
0.0
120
0.0
130
0.0
111
1.0
121
0.0
131
0.0
112
0.0
122
1.0
132
0.0
 79
     0
146
0.0
  0
ENDTAB
  0
TABLE
  2
LTYPE
  5
5
330
0
100
AcDbSymbolTable
 70
    16
  0
LTYPE
  5
14
330
5
100
AcDbSymbolTableRecord
100
AcDbLinetypeTableRecord
  2
ByBlock
 70
     0
  3

 72
    65
 73
     0
 40
0.0
  0
LTYPE
  5
15
330
5
100
AcDbSymbolTableRecord
100
AcDbLinetypeTableRecord
  2
ByLayer
 70
     0
  3

 72
    65
 73
     0
 40
0.0
  0
LTYPE
  5
16
330
5
100
AcDbSymbolTableRecord
100
AcDbLinetypeTableRecord
  2
Continuous
 70
     0
  3
Solid line
 72
    65
 73
     0
 40
0.0
  0
LTYPE
  5
64
330
5
100
AcDbSymbolTableRecord
100
AcDbLinetypeTableRecord
  2
AM_ISO02W050
 70
     0
  3
__ __ __ __ __ __ __ __ __ __ __ __ __ __ __
 72
    65
 73
     2
 40
7.5
 49
6.0
 74
     0
 49
-1.5
 74
     0
  0
LTYPE
  5
65
330
5
100
AcDbSymbolTableRecord
100
AcDbLinetypeTableRecord
  2
AM_ISO08W050
 70
     0
  3
____ . ____ . ____ . ____ . ____ . ____ . ____
 72
    65
 73
     4
 40
18.0
 49
12.0
 74
     0
 49
-1.5
 74
     0
 49
3.0
 74
     0
 49
-1.5
 74
     0
  0
LTYPE
  5
66
330
5
100
AcDbSymbolTableRecord
100
AcDbLinetypeTableRecord
  2
AM_ISO09W050
 70
     0
  3
_____ . . _____ . . _____ . . ____ .. ____
 72
    65
 73
     6
 40
22.5
 49
12.0
 74
     0
 49
-1.5
 74
     0
 49
3.0
 74
     0
 49
-1.5
 74
     0
 49
3.0
 74
     0
 49
-1.5
 74
     0
  0
LTYPE
  5
67
330
5
100
AcDbSymbolTableRecord
100
AcDbLinetypeTableRecord
  2
Amconstr
 70
     0
  3
_______________________
 72
    65
 73
     2
 40
9999.0
 49
9999.0
 74
     0
 49
0.0
 74
     0
  0
LTYPE
  5
68
330
5
100
AcDbSymbolTableRecord
100
AcDbLinetypeTableRecord
  2
AM_ISO08W050x2
 70
     0
  3
__ . __ . __ . __ . __ . __
 72
    65
 73
     4
 40
9.0
 49
6.0
 74
     0
 49
-0.75
 74
     0
 49
1.5
 74
     0
 49
-0.75
 74
     0
  0
LTYPE
  5
69
330
5
100
AcDbSymbolTableRecord
100
AcDbLinetypeTableRecord
  2
AM_ISO02W050x2
 70
     0
  3
 _ _ _ _ _ _ _ _ _ _ _ _
 72
    65
 73
     2
 40
3.75
 49
3.0
 74
     0
 49
-0.75
 74
     0
  0
LTYPE
  5
6C
330
5
100
AcDbSymbolTableRecord
100
AcDbLinetypeTableRecord
  2
Amzigzag
 70
     0
  3
/\/-/\/-/\/-/\/-/\/-/\/
 72
    65
 73
     2
 40
11.0001
 49
0.0001
 74
     4
 75
   135
340
6B
 46
0.04
 50
0.0
 44
0.0
 45
0.0
 49
-11.0
 74
     0
  0
LTYPE
  5
7A
330
5
100
AcDbSymbolTableRecord
100
AcDbLinetypeTableRecord
  2
ACISOWELD
 70
     0
  3
_ _ _ _ _
 72
    65
 73
     2
 40
2.0
 49
2.0
 74
     0
 49
-1.0
 74
     0
  0
LTYPE
  5
7B
330
5
100
AcDbSymbolTableRecord
100
AcDbLinetypeTableRecord
  2
ACISOTGB
 70
     0
  3
__ . . __ . .
 72
    65
 73
     6
 40
9.0
 49
4.0
 74
     0
 49
-1.0
 74
     0
 49
1.0
 74
     0
 49
-1.0
 74
     0
 49
1.0
 74
     0
 49
-1.0
 74
     0
  0
LTYPE
  5
7C
330
5
100
AcDbSymbolTableRecord
100
AcDbLinetypeTableRecord
  2
ACISOTGL
 70
     0
  3
_ _ _ _ _
 72
    65
 73
     2
 40
3.0
 49
2.0
 74
     0
 49
-1.0
 74
     0
  0
LTYPE
  5
7E
330
5
100
AcDbSymbolTableRecord
100
AcDbLinetypeTableRecord
  2
CENTER
 70
     0
  3
__ . __
 72
    65
 73
     4
 40
7.0
 49
4.0
 74
     0
 49
-1.0
 74
     0
 49
1.0
 74
     0
 49
-1.0
 74
     0
  0
LTYPE
  5
D8
330
5
100
AcDbSymbolTableRecord
100
AcDbLinetypeTableRecord
  2
HIDDEN
 70
     0
  3
Hidden __ __ __ __ __ __ __ __ __ __ __ __ __ _
 72
    65
 73
     2
 40
9.524999999999998
 49
6.349999999999999
 74
     0
 49
-3.174999999999999
 74
     0
  0
LTYPE
  5
D9
330
5
100
AcDbSymbolTableRecord
100
AcDbLinetypeTableRecord
  2
PHANTOM2
 70
     0
  3
Phantom (.5x) ___ _ _ ___ _ _ ___ _ _ ___ _ _
 72
    65
 73
     6
 40
31.75
 49
15.875
 74
     0
 49
-3.174999999999999
 74
     0
 49
3.174999999999999
 74
     0
 49
-3.174999999999999
 74
     0
 49
3.174999999999999
 74
     0
 49
-3.174999999999999
 74
     0
  0
LTYPE
  5
1B32
330
5
100
AcDbSymbolTableRecord
100
AcDbLinetypeTableRecord
  2
ACANSTGB
 70
     0
  3
__ . . __ . .
 72
    65
 73
     6
 40
0.35433070866
 49
0.15748031496
 74
     0
 49
-0.03937007874
 74
     0
 49
0.03937007874
 74
     0
 49
-0.03937007874
 74
     0
 49
0.03937007874
 74
     0
 49
-0.03937007874
 74
     0
  0
LTYPE
  5
1B33
330
5
100
AcDbSymbolTableRecord
100
AcDbLinetypeTableRecord
  2
ACANSTGL
 70
     0
  3
_ _ _ _ _
 72
    65
 73
     2
 40
0.11811023622
 49
0.07874015748
 74
     0
 49
-0.03937007874
 74
     0
  0
ENDTAB
  0
TABLE
  2
LAYER
  5
2
102
{ACAD_XDICTIONARY
360
3F9
102
}
330
0
100
AcDbSymbolTable
 70
     9
  0
LAYER
  5
10
330
2
100
AcDbSymbolTableRecord
100
AcDbLayerTableRecord
  2
0
 70
     0
 62
     7
  6
Continuous
370
    -3
390
F
  0
LAYER
  5
206
330
2
100
AcDbSymbolTableRecord
100
AcDbLayerTableRecord
  2
Defpoints
 70
     0
 62
     7
  6
Continuous
290
     0
370
    -3
390
F
  0
LAYER
  5
5AE
330
2
100
AcDbSymbolTableRecord
100
AcDbLayerTableRecord
  2
AM_7
 70
     0
 62
     1
  6
CENTER
370
    25
390
F
  0
LAYER
  5
71A
330
2
100
AcDbSymbolTableRecord
100
AcDbLayerTableRecord
  2
LOGO
 70
     0
 62
     7
  6
Continuous
370
    -3
390
F
  0
LAYER
  5
84F
330
2
100
AcDbSymbolTableRecord
100
AcDbLayerTableRecord
  2
AM_VIS
 70
     0
 62
     7
  6
Continuous
370
    50
390
F
  0
LAYER
  5
850
330
2
100
AcDbSymbolTableRecord
100
AcDbLayerTableRecord
  2
AM_4
 70
     0
 62
     3
  6
Continuous
370
    25
390
F
  0
LAYER
  5
851
330
2
100
AcDbSymbolTableRecord
100
AcDbLayerTableRecord
  2
AM_0
 70
     0
 62
     7
  6
Continuous
370
    50
390
F
  0
LAYER
  5
B99
330
2
100
AcDbSymbolTableRecord
100
AcDbLayerTableRecord
  2
AM_5
 70
     0
 62
     5
  6
Continuous
370
    50
390
F
  0
LAYER
  5
4106
330
2
100
AcDbSymbolTableRecord
100
AcDbLayerTableRecord
  2
AM_0N
 70
     0
 62
     7
  6
Continuous
370
    50
390
F
  0
ENDTAB
  0
TABLE
  2
STYLE
  5
3
330
0
100
AcDbSymbolTable
 70
     9
  0
STYLE
  5
11
330
3
100
AcDbSymbolTableRecord
100
AcDbTextStyleTableRecord
  2
STANDARD
 70
     0
 40
0.0
 41
1.0
 50
0.0
 71
     0
 42
3.0
  3
ISOCP.SHX
  4
CHINESET.SHX
  0
STYLE
  5
6B
330
3
100
AcDbSymbolTableRecord
100
AcDbTextStyleTableRecord
  2

 70
     1
 40
0.0
 41
1.0
 50
0.0
 71
     0
 42
2.5
  3
ltypeshp.shx
  4

  0
STYLE
  5
6D
330
3
100
AcDbSymbolTableRecord
100
AcDbTextStyleTableRecord
  2
ACISOTS
 70
     0
 40
1.0
 41
1.0
 50
0.0
 71
     0
 42
1.0
  3
isocp.shx
  4
chineset.shx
  0
STYLE
  5
79
330
3
100
AcDbSymbolTableRecord
100
AcDbTextStyleTableRecord
  2
ACISOGDT
 70
     0
 40
0.0
 41
1.0
 50
0.0
 71
     0
 42
2.5
  3
amgdt.shx
  4
chineset.shx
  0
STYLE
  5
60C
330
3
100
AcDbSymbolTableRecord
100
AcDbTextStyleTableRecord
  2
CHINESET
 70
     0
 40
0.0
 41
1.0
 50
0.0
 71
     0
 42
3.0
  3
simplex.shx
  4
CHINESET.SHX
  0
STYLE
  5
F6A
330
3
100
AcDbSymbolTableRecord
100
AcDbTextStyleTableRecord
  2
DAYUS
 70
     0
 40
0.0
 41
1.0
 50
0.0
 71
     0
 42
2.5
  3
simplex.shx
  4
dayus.shx
  0
STYLE
  5
1B34
330
3
100
AcDbSymbolTableRecord
100
AcDbTextStyleTableRecord
  2
ACANSTS
 70
     0
 40
1.0
 41
1.0
 50
0.0
 71
     0
 42
2.0
  3
romans.shx
  4
chineset.shx
  0
STYLE
  5
1B35
330
3
100
AcDbSymbolTableRecord
100
AcDbTextStyleTableRecord
  2
ACANSGDT
 70
     0
 40
0.0
 41
1.0
 50
0.0
 71
     0
 42
2.0
  3
amgdtans.shx
  4

  0
ENDTAB
  0
TABLE
  2
VIEW
  5
6
330
0
100
AcDbSymbolTable
 70
     0
  0
ENDTAB
  0
TABLE
  2
UCS
  5
7
330
0
100
AcDbSymbolTable
 70
     0
  0
ENDTAB
  0
TABLE
  2
APPID
  5
9
330
0
100
AcDbSymbolTable
 70
    31
  0
APPID
  5
12
330
9
100
AcDbSymbolTableRecord
100
AcDbRegAppTableRecord
  2
ACAD
 70
     0
  0
APPID
  5
46
330
9
100
AcDbSymbolTableRecord
100
AcDbRegAppTableRecord
  2
MCAD_NO_VIS
 70
     0
  0
APPID
  5
47
330
9
100
AcDbSymbolTableRecord
100
AcDbRegAppTableRecord
  2
ACAD_TEMP_GRAPHIC
 70
     0
  0
APPID
  5
58
330
9
100
AcDbSymbolTableRecord
100
AcDbRegAppTableRecord
  2
ACATTRIBSERVICES
 70
     0
  0
APPID
  5
EE
330
9
100
AcDbSymbolTableRecord
100
AcDbRegAppTableRecord
  2
AD_DRAW
 70
     0
  0
APPID
  5
10C
330
9
100
AcDbSymbolTableRecord
100
AcDbRegAppTableRecord
  2
DESIGNERASSEMBLIES
 70
     0
  0
APPID
  5
111
330
9
100
AcDbSymbolTableRecord
100
AcDbRegAppTableRecord
  2
ACADM_DIM_EDIT
 70
     0
  0
APPID
  5
112
330
9
100
AcDbSymbolTableRecord
100
AcDbRegAppTableRecord
  2
AMDT_DM_ADJ
 70
     0
  0
APPID
  5
22C
330
9
100
AcDbSymbolTableRecord
100
AcDbRegAppTableRecord
  2
ACAD_DSTYLE_DIMTEXT_FILL
 70
     0
  0
APPID
  5
452
330
9
100
AcDbSymbolTableRecord
100
AcDbRegAppTableRecord
  2
GENIUS_GENOENT_13
 70
     0
  0
APPID
  5
453
330
9
100
AcDbSymbolTableRecord
100
AcDbRegAppTableRecord
  2
GENIUS_GENOBJ-N-CRS_13
 70
     0
  0
APPID
  5
454
330
9
100
AcDbSymbolTableRecord
100
AcDbRegAppTableRecord
  2
GENIUS_GENOLIS_13
 70
     0
  0
APPID
  5
455
330
9
100
AcDbSymbolTableRecord
100
AcDbRegAppTableRecord
  2
GENIUS_GENODEF_13
 70
     0
  0
APPID
  5
456
330
9
100
AcDbSymbolTableRecord
100
AcDbRegAppTableRecord
  2
GENIUS_GENOREF_13
 70
     0
  0
APPID
  5
6F3
330
9
100
AcDbSymbolTableRecord
100
AcDbRegAppTableRecord
  2
ACAD_PSEXT
 70
     0
  0
APPID
  5
71B
330
9
100
AcDbSymbolTableRecord
100
AcDbRegAppTableRecord
  2
GENIUS_GENREC_14
 70
     0
  0
APPID
  5
71C
330
9
100
AcDbSymbolTableRecord
100
AcDbRegAppTableRecord
  2
GENIUS_GENOBJ-N-REC_13
 70
     0
  0
APPID
  5
1340
330
9
100
AcDbSymbolTableRecord
100
AcDbRegAppTableRecord
  2
GEVID1122707684
 70
     0
  0
APPID
  5
1341
330
9
100
AcDbSymbolTableRecord
100
AcDbRegAppTableRecord
  2
GEVDC
 70
     0
  0
APPID
  5
1342
330
9
100
AcDbSymbolTableRecord
100
AcDbRegAppTableRecord
  2
GEVRADREF
 70
     0
  0
APPID
  5
134B
330
9
100
AcDbSymbolTableRecord
100
AcDbRegAppTableRecord
  2
AMG_2DHIDE
 70
     0
  0
APPID
  5
134C
330
9
100
AcDbSymbolTableRecord
100
AcDbRegAppTableRecord
  2
AMG_2DSTRUCT_BTR
 70
     0
  0
APPID
  5
135D
330
9
100
AcDbSymbolTableRecord
100
AcDbRegAppTableRecord
  2
ACADM_2DVIEW_IGN_NOTIFY
 70
     0
  0
APPID
  5
1463
330
9
100
AcDbSymbolTableRecord
100
AcDbRegAppTableRecord
  2
GEVID1122707685
 70
     0
  0
APPID
  5
14AD
330
9
100
AcDbSymbolTableRecord
100
AcDbRegAppTableRecord
  2
GEVID1122707686
 70
     0
  0
APPID
  5
1577
330
9
100
AcDbSymbolTableRecord
100
AcDbRegAppTableRecord
  2
GENIUS_GENOBJ-N-CEN_13
 70
     0
  0
APPID
  5
1578
330
9
100
AcDbSymbolTableRecord
100
AcDbRegAppTableRecord
  2
GENIUS_GENCEN_19
 70
     0
  0
APPID
  5
17C3
330
9
100
AcDbSymbolTableRecord
100
AcDbRegAppTableRecord
  2
GENIUS_GENDTOL_13
 70
     0
  0
APPID
  5
36FA
330
9
100
AcDbSymbolTableRecord
100
AcDbRegAppTableRecord
  2
GEVID1122861188
 70
     0
  0
APPID
  5
37B2
330
9
100
AcDbSymbolTableRecord
100
AcDbRegAppTableRecord
  2
GEVID1122861189
 70
     0
  0
APPID
  5
4104
330
9
100
AcDbSymbolTableRecord
100
AcDbRegAppTableRecord
  2
GEVID1122861190
 70
     0
  0
ENDTAB
  0
TABLE
  2
DIMSTYLE
  5
A
330
0
100
AcDbSymbolTable
 70
    17
100
AcDbDimStyleTable
 71
     5
340
81
340
1B36
340
F6C
340
8B
340
86
  0
DIMSTYLE
105
81
330
A
100
AcDbSymbolTableRecord
100
AcDbDimStyleTableRecord
  2
AM_ISO
 70
     0
  4
"
 41
3.0
 42
1.0
 43
12.0
 44
1.5
 47
0.1
 48
0.1
 73
     0
 74
     0
 77
     1
 78
     8
 79
     2
140
3.0
141
0.0
143
0.0393701
146
0.71
147
1.0
172
     1
176
   256
177
   256
178
   256
271
     2
272
     2
283
     2
284
     8
340
11
371
    -1
372
    -1
  0
DIMSTYLE
105
82
330
A
100
AcDbSymbolTableRecord
100
AcDbDimStyleTableRecord
  2
AM_ISO$3
 70
     0
  4
"
 41
3.0
 42
1.0
 43
12.0
 44
1.5
 47
0.1
 48
0.1
 73
     0
 77
     1
 78
     8
 79
     2
140
3.0
141
0.0
143
0.0393701
146
0.71
147
1.0
176
   256
177
   256
178
   256
271
     2
272
     2
283
     2
284
     8
288
     1
289
     0
340
11
371
    -1
372
    -1
  0
DIMSTYLE
105
83
330
A
100
AcDbSymbolTableRecord
100
AcDbDimStyleTableRecord
  2
AM_ISO$4
 70
     0
  4
"
 41
3.0
 42
1.0
 43
12.0
 44
1.5
 47
0.1
 48
0.1
 73
     0
 77
     1
 78
     8
 79
     2
140
3.0
141
0.0
143
0.0393701
146
0.71
147
1.0
176
   256
177
   256
178
   256
271
     2
272
     2
283
     2
284
     8
288
     1
289
     0
340
11
371
    -1
372
    -1
  0
DIMSTYLE
105
84
330
A
100
AcDbSymbolTableRecord
100
AcDbDimStyleTableRecord
  2
AM_ISO$6
 70
     0
  4
"
 41
3.0
 42
1.0
 43
12.0
 44
1.5
 47
0.1
 48
0.1
 73
     0
 74
     0
 78
     8
 79
     2
140
3.0
141
0.0
143
0.0393701
146
0.71
147
1.0
172
     1
176
   256
177
   256
178
   256
271
     2
272
     2
283
     2
284
     8
340
11
371
    -1
372
    -1
  0
DIMSTYLE
105
85
330
A
100
AcDbSymbolTableRecord
100
AcDbDimStyleTableRecord
  2
AM_ISO$7
 70
     0
  4
"
 41
3.0
 42
1.0
 43
12.0
 44
1.5
 47
0.1
 48
0.1
 73
     0
 74
     0
 77
     1
 78
     8
 79
     2
140
5.0
141
0.0
143
0.0393701
146
0.71
147
1.0
172
     1
176
   256
177
   256
178
   256
271
     2
272
     2
283
     2
284
     8
340
11
371
    -1
372
    -1
  0
DIMSTYLE
105
86
330
A
100
AcDbSymbolTableRecord
100
AcDbDimStyleTableRecord
  2
AM_ISO$SF
 70
     0
  4
"
 41
2.5
 42
1.0
 43
10.0
 44
1.0
 47
0.1
 48
0.1
 73
     0
 74
     0
 75
     1
 76
     1
 77
     1
 78
     8
 79
     2
140
3.5
141
0.0
143
0.0393701
146
0.71
147
1.5
172
     1
176
   256
177
   256
178
     2
271
     2
272
     3
274
     4
283
     0
284
     8
340
11
371
    -1
372
    -1
  0
DIMSTYLE
105
8B
330
A
100
AcDbSymbolTableRecord
100
AcDbDimStyleTableRecord
  2
AM_ISO$SH
 70
     0
  4
"
 41
2.5
 42
1.0
 43
10.0
 44
1.0
 47
0.1
 48
0.1
 73
     0
 74
     0
 75
     1
 76
     1
 77
     1
 78
     8
 79
     2
140
3.5
141
0.0
143
0.0393701
144
2.0
146
0.71
147
1.5
172
     1
173
     1
176
   256
177
   256
178
     2
271
     2
272
     3
274
     4
283
     0
284
     8
340
11
343
87
371
    -1
372
    -1
  0
DIMSTYLE
105
40B
102
{ACAD_REACTORS
330
42D9
330
42D8
330
42DA
330
42DB
330
43ED
330
43EE
330
47A4
330
47A5
330
47A6
330
47A7
330
47C6
330
47C7
330
4B22
102
}
330
A
100
AcDbSymbolTableRecord
100
AcDbDimStyleTableRecord
  2
AM_ISO$0
 70
     0
  4
"
 41
3.0
 42
1.0
 43
12.0
 44
1.5
 47
0.1
 48
0.1
 73
     0
 74
     0
 77
     1
 78
     8
 79
     2
140
3.0
141
0.0
143
0.0393701
146
0.71
147
1.0
172
     1
176
   256
177
   256
178
   256
271
     2
272
     2
283
     2
284
     8
340
11
371
    -1
372
    -1
  0
DIMSTYLE
105
F6C
330
A
100
AcDbSymbolTableRecord
100
AcDbDimStyleTableRecord
  2
AM_ANSI
 70
     0
  4
"
 41
3.0
 42
1.5
 43
8.0
 44
2.0
 47
0.1
 48
0.1
 73
     0
 74
     0
 77
     3
 78
     8
 79
     2
140
3.0
141
0.0
143
0.0393701
146
0.6
147
0.8
172
     1
176
   256
177
   256
178
   256
271
     2
272
     2
284
     8
340
F6A
371
    -1
372
    -1
  0
DIMSTYLE
105
1B36
330
A
100
AcDbSymbolTableRecord
100
AcDbDimStyleTableRecord
  2
AUDIT_I_030306140827-30
 70
     0
 41
3.0
 42
2.0
 43
8.0
 44
2.0
 73
     0
 74
     0
 77
     1
 78
     8
 79
     2
140
3.0
141
-1.0
147
1.0
176
   256
178
   256
271
     2
272
     2
279
     2
340
60C
371
    -1
  0
DIMSTYLE
105
1B37
330
A
100
AcDbSymbolTableRecord
100
AcDbDimStyleTableRecord
  2
AM_ANSI$3
 70
     0
  4
mm
 41
0.1
 42
0.05
 43
0.5
 44
0.1
 47
0.1
 48
0.1
 78
     7
 79
     2
140
0.12
141
0.0
146
0.71
147
0.06
176
   256
177
   256
178
     2
274
     4
284
     7
288
     1
289
     0
340
11
371
    -1
372
    -1
  0
DIMSTYLE
105
1B38
330
A
100
AcDbSymbolTableRecord
100
AcDbDimStyleTableRecord
  2
AM_ANSI$4
 70
     0
  4
mm
 41
0.1
 42
0.05
 43
0.5
 44
0.1
 47
0.1
 48
0.1
 78
     7
 79
     2
140
0.12
141
0.0
146
0.71
147
0.06
176
   256
177
   256
178
     2
274
     4
284
     7
288
     1
289
     0
340
11
371
    -1
372
    -1
  0
DIMSTYLE
105
1B39
330
A
100
AcDbSymbolTableRecord
100
AcDbDimStyleTableRecord
  2
AM_ANSI$7
 70
     0
  4
mm
 41
0.1
 42
0.05
 43
0.5
 44
0.1
 47
0.1
 48
0.1
 78
     7
 79
     2
140
0.24
141
0.0
146
0.71
147
0.06
176
   256
177
   256
178
     2
274
     4
284
     7
340
11
371
    -1
372
    -1
  0
DIMSTYLE
105
1B3A
330
A
100
AcDbSymbolTableRecord
100
AcDbDimStyleTableRecord
  2
AM_ANSI$SF
 70
     0
  4
mm
 41
0.1
 42
0.05
 43
0.5
 44
0.1
 47
0.1
 48
0.1
 75
     1
 76
     1
 78
     7
 79
     2
140
0.12
141
0.0
146
0.71
147
0.06
176
   256
177
   256
178
     2
274
     4
284
     7
340
11
371
    -1
372
    -1
  0
DIMSTYLE
105
1B3B
330
A
100
AcDbSymbolTableRecord
100
AcDbDimStyleTableRecord
  2
AM_ANSI$SH
 70
     0
  4
mm
 41
0.1
 42
0.05
 43
0.5
 44
0.1
 47
0.1
 48
0.1
 75
     1
 76
     1
 78
     7
 79
     2
140
0.12
141
0.0
146
0.71
147
0.06
173
     1
176
   256
177
   256
178
     2
274
     4
284
     7
340
11
341
87
343
87
371
    -1
372
    -1
  0
DIMSTYLE
105
1B3C
330
A
100
AcDbSymbolTableRecord
100
AcDbDimStyleTableRecord
  2
AUDIT_I_030306140827-30$0
 70
     0
 41
3.0
 42
2.0
 43
8.0
 44
2.0
 73
     0
 74
     0
 77
     1
 78
     8
 79
     2
140
3.0
141
-1.0
147
1.0
176
   256
178
   256
271
     2
272
     2
279
     2
340
60C
371
    -1
  0
ENDTAB
  0
TABLE
  2
BLOCK_RECORD
  5
1
330
0
100
AcDbSymbolTable
 70
    33
  0
BLOCK_RECORD
  5
1F
102
{ACAD_XDICTIONARY
360
8F
102
}
330
1
100
AcDbSymbolTableRecord
100
AcDbBlockTableRecord
  2
*Model_Space
340
22
  0
BLOCK_RECORD
  5
1B
330
1
100
AcDbSymbolTableRecord
100
AcDbBlockTableRecord
  2
*Paper_Space
340
1E
  0
BLOCK_RECORD
  5
23
330
1
100
AcDbSymbolTableRecord
100
AcDbBlockTableRecord
  2
*Paper_Space0
340
26
  0
BLOCK_RECORD
  5
87
330
1
100
AcDbSymbolTableRecord
100
AcDbBlockTableRecord
  2
GENAXEH
340
0
  0
BLOCK_RECORD
  5
1361
330
1
100
AcDbSymbolTableRecord
100
AcDbBlockTableRecord
  2
*U4
340
0
  0
BLOCK_RECORD
  5
42DC
330
1
100
AcDbSymbolTableRecord
100
AcDbBlockTableRecord
  2
*D5
340
0
  0
BLOCK_RECORD
  5
42E8
330
1
100
AcDbSymbolTableRecord
100
AcDbBlockTableRecord
  2
*D6
340
0
  0
BLOCK_RECORD
  5
42F4
330
1
100
AcDbSymbolTableRecord
100
AcDbBlockTableRecord
  2
*D7
340
0
  0
BLOCK_RECORD
  5
4300
330
1
100
AcDbSymbolTableRecord
100
AcDbBlockTableRecord
  2
*D8
340
0
  0
BLOCK_RECORD
  5
43EF
330
1
100
AcDbSymbolTableRecord
100
AcDbBlockTableRecord
  2
*D9
340
0
  0
BLOCK_RECORD
  5
43FB
330
1
100
AcDbSymbolTableRecord
100
AcDbBlockTableRecord
  2
*D10
340
0
  0
BLOCK_RECORD
  5
47EA
330
1
100
AcDbSymbolTableRecord
100
AcDbBlockTableRecord
  2
*D11
340
0
  0
BLOCK_RECORD
  5
47F6
330
1
100
AcDbSymbolTableRecord
100
AcDbBlockTableRecord
  2
*D12
340
0
  0
BLOCK_RECORD
  5
4802
330
1
100
AcDbSymbolTableRecord
100
AcDbBlockTableRecord
  2
*D13
340
0
  0
BLOCK_RECORD
  5
480E
330
1
100
AcDbSymbolTableRecord
100
AcDbBlockTableRecord
  2
*D14
340
0
  0
BLOCK_RECORD
  5
481A
330
1
100
AcDbSymbolTableRecord
100
AcDbBlockTableRecord
  2
*D15
340
0
  0
BLOCK_RECORD
  5
4826
330
1
100
AcDbSymbolTableRecord
100
AcDbBlockTableRecord
  2
*D16
340
0
  0
BLOCK_RECORD
  5
4B23
330
1
100
AcDbSymbolTableRecord
100
AcDbBlockTableRecord
  2
*D17
340
0
  0
BLOCK_RECORD
  5
4C32
330
1
100
AcDbSymbolTableRecord
100
AcDbBlockTableRecord
  2
*S19
340
0
  0
BLOCK_RECORD
  5
4C3A
330
1
100
AcDbSymbolTableRecord
100
AcDbBlockTableRecord
  2
*S20
340
0
  0
BLOCK_RECORD
  5
4C42
330
1
100
AcDbSymbolTableRecord
100
AcDbBlockTableRecord
  2
*S21
340
0
  0
BLOCK_RECORD
  5
4C4A
330
1
100
AcDbSymbolTableRecord
100
AcDbBlockTableRecord
  2
*S22
340
0
  0
BLOCK_RECORD
  5
4C52
330
1
100
AcDbSymbolTableRecord
100
AcDbBlockTableRecord
  2
*S23
340
0
  0
BLOCK_RECORD
  5
4C5A
330
1
100
AcDbSymbolTableRecord
100
AcDbBlockTableRecord
  2
*S24
340
0
  0
BLOCK_RECORD
  5
4C62
330
1
100
AcDbSymbolTableRecord
100
AcDbBlockTableRecord
  2
*S25
340
0
  0
BLOCK_RECORD
  5
4C6A
330
1
100
AcDbSymbolTableRecord
100
AcDbBlockTableRecord
  2
*S26
340
0
  0
BLOCK_RECORD
  5
4C72
330
1
100
AcDbSymbolTableRecord
100
AcDbBlockTableRecord
  2
*S27
340
0
  0
BLOCK_RECORD
  5
4C7A
330
1
100
AcDbSymbolTableRecord
100
AcDbBlockTableRecord
  2
*S28
340
0
  0
BLOCK_RECORD
  5
4C82
330
1
100
AcDbSymbolTableRecord
100
AcDbBlockTableRecord
  2
*S29
340
0
  0
BLOCK_RECORD
  5
4C8A
330
1
100
AcDbSymbolTableRecord
100
AcDbBlockTableRecord
  2
*S30
340
0
  0
BLOCK_RECORD
  5
4C92
330
1
100
AcDbSymbolTableRecord
100
AcDbBlockTableRecord
  2
*S31
340
0
  0
BLOCK_RECORD
  5
4C9A
330
1
100
AcDbSymbolTableRecord
100
AcDbBlockTableRecord
  2
*S32
340
0
  0
ENDTAB
  0
ENDSEC
  0
SECTION
  2
BLOCKS
  0
BLOCK
  5
20
330
1F
100
AcDbEntity
  8
0
100
AcDbBlockBegin
  2
*Model_Space
 70
     0
 10
0.0
 20
0.0
 30
0.0
  3
*Model_Space
  1

  0
ENDBLK
  5
21
330
1F
100
AcDbEntity
  8
0
100
AcDbBlockEnd
  0
BLOCK
  5
1C
330
1B
100
AcDbEntity
 67
     1
  8
0
100
AcDbBlockBegin
  2
*Paper_Space
 70
     0
 10
0.0
 20
0.0
 30
0.0
  3
*Paper_Space
  1

  0
ENDBLK
  5
1D
330
1B
100
AcDbEntity
 67
     1
  8
0
100
AcDbBlockEnd
  0
BLOCK
  5
24
330
23
100
AcDbEntity
  8
0
100
AcDbBlockBegin
  2
*Paper_Space0
 70
     0
 10
0.0
 20
0.0
 30
0.0
  3
*Paper_Space0
  1

  0
ENDBLK
  5
25
330
23
100
AcDbEntity
  8
0
100
AcDbBlockEnd
  0
BLOCK
  5
89
330
87
100
AcDbEntity
  8
0
100
AcDbBlockBegin
  2
GENAXEH
 70
     0
 10
0.0
 20
0.0
 30
0.0
  3
GENAXEH
  1

  0
LINE
  5
88
330
87
100
AcDbEntity
  8
0
100
AcDbLine
 10
-1.0
 20
0.0
 30
0.0
 11
1.0
 21
0.0
 31
0.0
  0
ENDBLK
  5
8A
330
87
100
AcDbEntity
  8
0
100
AcDbBlockEnd
  0
BLOCK
  5
1362
330
1361
100
AcDbEntity
  8
0
100
AcDbBlockBegin
  2
*U4
 70
     1
 10
0.0
 20
0.0
 30
0.0
  3
*U4
  1

  0
ENDBLK
  5
1363
330
1361
100
AcDbEntity
  8
0
100
AcDbBlockEnd
  0
BLOCK
  5
42E6
330
42DC
100
AcDbEntity
  8
0
100
AcDbBlockBegin
  2
*D5
 70
     1
 10
0.0
 20
0.0
 30
0.0
  3
*D5
  1

  0
LINE
  5
487F
330
42DC
100
AcDbEntity
  8
AM_5
100
AcDbLine
 10
1620.018731282432
 20
923.34692084177
 30
0.0
 11
1620.018731282432
 21
890.4204884143354
 31
0.0
  0
LINE
  5
4880
330
42DC
100
AcDbEntity
  8
AM_5
100
AcDbLine
 10
1747.018731282432
 20
923.34692084177
 30
0.0
 11
1747.018731282432
 21
890.4204884143354
 31
0.0
  0
LINE
  5
4881
330
42DC
100
AcDbEntity
  8
AM_5
100
AcDbLine
 10
1624.218731282432
 20
892.5204884143354
 30
0.0
 11
1742.818731282431
 21
892.5204884143354
 31
0.0
  0
SOLID
  5
4882
330
42DC
100
AcDbEntity
  8
AM_5
100
AcDbTrace
 10
1624.218731282432
 20
893.2204884143354
 30
0.0
 11
1624.218731282432
 21
891.8204884143353
 31
0.0
 12
1620.018731282432
 22
892.5204884143354
 32
0.0
 13
1620.018731282432
 23
892.5204884143354
 33
0.0
  0
SOLID
  5
4883
330
42DC
100
AcDbEntity
  8
AM_5
100
AcDbTrace
 10
1742.818731282431
 20
893.2204884143354
 30
0.0
 11
1742.818731282431
 21
891.8204884143353
 31
0.0
 12
1747.018731282432
 22
892.5204884143354
 32
0.0
 13
1747.018731282432
 23
892.5204884143354
 33
0.0
  0
MTEXT
  5
4884
330
42DC
100
AcDbEntity
  8
AM_5
100
AcDbMText
 10
1683.518731282432
 20
896.0209018001622
 30
0.0
 40
4.199999999999999
 41
0.0
 71
     5
 72
     1
  1
\A2;67+2xstroke
 73
     1
 44
1.0
1001
ACAD
1000
MTEXTBEGIN
1070
    73
1070
     1
1070
    44
1040
1.0
1070
    74
1070
     0
1000
MTEXTEND
  0
POINT
  5
4885
330
42DC
100
AcDbEntity
  8
Defpoints
 62
     0
100
AcDbPoint
 10
1620.018731282432
 20
924.7469208417699
 30
0.0
  0
POINT
  5
4886
330
42DC
100
AcDbEntity
  8
Defpoints
 62
     0
100
AcDbPoint
 10
1747.018731282432
 20
924.7469208417699
 30
0.0
  0
POINT
  5
4887
330
42DC
100
AcDbEntity
  8
Defpoints
 62
     0
100
AcDbPoint
 10
1747.018731282432
 20
892.5204884143354
 30
0.0
  0
ENDBLK
  5
42E7
330
42DC
100
AcDbEntity
  8
0
100
AcDbBlockEnd
  0
BLOCK
  5
42F2
330
42E8
100
AcDbEntity
  8
0
100
AcDbBlockBegin
  2
*D6
 70
     1
 10
0.0
 20
0.0
 30
0.0
  3
*D6
  1

  0
LINE
  5
4888
330
42E8
100
AcDbEntity
  8
AM_5
100
AcDbLine
 10
1634.018731282432
 20
923.34692084177
 30
0.0
 11
1634.018731282432
 21
902.4204884143356
 31
0.0
  0
LINE
  5
4889
330
42E8
100
AcDbEntity
  8
AM_5
100
AcDbLine
 10
1703.018731282432
 20
923.34692084177
 30
0.0
 11
1703.018731282432
 21
902.4204884143356
 31
0.0
  0
LINE
  5
488A
330
42E8
100
AcDbEntity
  8
AM_5
100
AcDbLine
 10
1638.218731282432
 20
904.5204884143357
 30
0.0
 11
1698.818731282432
 21
904.5204884143357
 31
0.0
  0
SOLID
  5
488B
330
42E8
100
AcDbEntity
  8
AM_5
100
AcDbTrace
 10
1638.218731282432
 20
905.2204884143357
 30
0.0
 11
1638.218731282432
 21
903.8204884143356
 31
0.0
 12
1634.018731282432
 22
904.5204884143357
 32
0.0
 13
1634.018731282432
 23
904.5204884143357
 33
0.0
  0
SOLID
  5
488C
330
42E8
100
AcDbEntity
  8
AM_5
100
AcDbTrace
 10
1698.818731282432
 20
905.2204884143357
 30
0.0
 11
1698.818731282432
 21
903.8204884143356
 31
0.0
 12
1703.018731282432
 22
904.5204884143357
 32
0.0
 13
1703.018731282432
 23
904.5204884143357
 33
0.0
  0
MTEXT
  5
488D
330
42E8
100
AcDbEntity
  8
AM_5
100
AcDbMText
 10
1668.518731282432
 20
908.0204884143356
 30
0.0
 40
4.199999999999999
 41
0.0
 71
     5
 72
     1
  1
\A2;39+stroke
 73
     1
 44
1.0
1001
ACAD
1000
MTEXTBEGIN
1070
    73
1070
     1
1070
    44
1040
1.0
1070
    74
1070
     0
1000
MTEXTEND
  0
POINT
  5
488E
330
42E8
100
AcDbEntity
  8
Defpoints
 62
     0
100
AcDbPoint
 10
1634.018731282432
 20
924.7469208417699
 30
0.0
  0
POINT
  5
488F
330
42E8
100
AcDbEntity
  8
Defpoints
 62
     0
100
AcDbPoint
 10
1703.018731282432
 20
924.7469208417699
 30
0.0
  0
POINT
  5
4890
330
42E8
100
AcDbEntity
  8
Defpoints
 62
     0
100
AcDbPoint
 10
1703.018731282432
 20
904.5204884143357
 30
0.0
  0
ENDBLK
  5
42F3
330
42E8
100
AcDbEntity
  8
0
100
AcDbBlockEnd
  0
BLOCK
  5
42FE
330
42F4
100
AcDbEntity
  8
0
100
AcDbBlockBegin
  2
*D7
 70
     1
 10
0.0
 20
0.0
 30
0.0
  3
*D7
  1

  0
LINE
  5
4891
330
42F4
100
AcDbEntity
  8
AM_5
100
AcDbLine
 10
1703.018731282432
 20
923.34692084177
 30
0.0
 11
1703.018731282432
 21
902.4204884143355
 31
0.0
  0
LINE
  5
4892
330
42F4
100
AcDbEntity
  8
AM_5
100
AcDbLine
 10
1735.018731282432
 20
923.34692084177
 30
0.0
 11
1735.018731282432
 21
902.4204884143355
 31
0.0
  0
LINE
  5
4893
330
42F4
100
AcDbEntity
  8
AM_5
100
AcDbLine
 10
1707.218731282432
 20
904.5204884143355
 30
0.0
 11
1730.818731282432
 21
904.5204884143355
 31
0.0
  0
SOLID
  5
4894
330
42F4
100
AcDbEntity
  8
AM_5
100
AcDbTrace
 10
1707.218731282432
 20
905.2204884143355
 30
0.0
 11
1707.218731282432
 21
903.8204884143354
 31
0.0
 12
1703.018731282432
 22
904.5204884143355
 32
0.0
 13
1703.018731282432
 23
904.5204884143355
 33
0.0
  0
SOLID
  5
4895
330
42F4
100
AcDbEntity
  8
AM_5
100
AcDbTrace
 10
1730.818731282432
 20
905.2204884143355
 30
0.0
 11
1730.818731282432
 21
903.8204884143354
 31
0.0
 12
1735.018731282432
 22
904.5204884143355
 32
0.0
 13
1735.018731282432
 23
904.5204884143355
 33
0.0
  0
MTEXT
  5
4896
330
42F4
100
AcDbEntity
  8
AM_5
100
AcDbMText
 10
1719.018731282432
 20
908.0209018001623
 30
0.0
 40
4.199999999999999
 41
0.0
 71
     5
 72
     1
  1
\A2;2+stroke
 73
     1
 44
1.0
1001
ACAD
1000
MTEXTBEGIN
1070
    73
1070
     1
1070
    44
1040
1.0
1070
    74
1070
     0
1000
MTEXTEND
  0
POINT
  5
4897
330
42F4
100
AcDbEntity
  8
Defpoints
 62
     0
100
AcDbPoint
 10
1703.018731282432
 20
924.7469208417699
 30
0.0
  0
POINT
  5
4898
330
42F4
100
AcDbEntity
  8
Defpoints
 62
     0
100
AcDbPoint
 10
1735.018731282432
 20
924.7469208417699
 30
0.0
  0
POINT
  5
4899
330
42F4
100
AcDbEntity
  8
Defpoints
 62
     0
100
AcDbPoint
 10
1735.018731282432
 20
904.5204884143355
 30
0.0
  0
ENDBLK
  5
42FF
330
42F4
100
AcDbEntity
  8
0
100
AcDbBlockEnd
  0
BLOCK
  5
430A
330
4300
100
AcDbEntity
  8
0
100
AcDbBlockBegin
  2
*D8
 70
     1
 10
0.0
 20
0.0
 30
0.0
  3
*D8
  1

  0
LINE
  5
489A
330
4300
100
AcDbEntity
  8
AM_5
100
AcDbLine
 10
1735.018731282432
 20
923.34692084177
 30
0.0
 11
1735.018731282432
 21
902.4204884143355
 31
0.0
  0
LINE
  5
489B
330
4300
100
AcDbEntity
  8
AM_5
100
AcDbLine
 10
1747.018731282432
 20
923.34692084177
 30
0.0
 11
1747.018731282432
 21
902.4204884143355
 31
0.0
  0
LINE
  5
489C
330
4300
100
AcDbEntity
  8
AM_5
100
AcDbLine
 10
1739.218731282432
 20
904.5204884143354
 30
0.0
 11
1742.818731282431
 21
904.5204884143354
 31
0.0
  0
SOLID
  5
489D
330
4300
100
AcDbEntity
  8
AM_5
100
AcDbTrace
 10
1739.218731282432
 20
905.2204884143355
 30
0.0
 11
1739.218731282432
 21
903.8204884143354
 31
0.0
 12
1735.018731282432
 22
904.5204884143354
 32
0.0
 13
1735.018731282432
 23
904.5204884143354
 33
0.0
  0
SOLID
  5
489E
330
4300
100
AcDbEntity
  8
AM_5
100
AcDbTrace
 10
1742.818731282431
 20
905.2204884143355
 30
0.0
 11
1742.818731282431
 21
903.8204884143354
 31
0.0
 12
1747.018731282432
 22
904.5204884143354
 32
0.0
 13
1747.018731282432
 23
904.5204884143354
 33
0.0
  0
MTEXT
  5
489F
330
4300
100
AcDbEntity
  8
AM_5
100
AcDbMText
 10
1741.018731282432
 20
908.0209018001621
 30
0.0
 40
4.199999999999999
 41
0.0
 71
     5
 72
     1
  1
\A2;12
 73
     1
 44
1.0
1001
ACAD
1000
MTEXTBEGIN
1070
    73
1070
     1
1070
    44
1040
1.0
1070
    74
1070
     0
1000
MTEXTEND
  0
POINT
  5
48A0
330
4300
100
AcDbEntity
  8
Defpoints
 62
     0
100
AcDbPoint
 10
1735.018731282432
 20
924.7469208417699
 30
0.0
  0
POINT
  5
48A1
330
4300
100
AcDbEntity
  8
Defpoints
 62
     0
100
AcDbPoint
 10
1747.018731282432
 20
924.7469208417699
 30
0.0
  0
POINT
  5
48A2
330
4300
100
AcDbEntity
  8
Defpoints
 62
     0
100
AcDbPoint
 10
1747.018731282432
 20
904.5204884143354
 30
0.0
  0
ENDBLK
  5
430B
330
4300
100
AcDbEntity
  8
0
100
AcDbBlockEnd
  0
BLOCK
  5
43F9
330
43EF
100
AcDbEntity
  8
0
100
AcDbBlockBegin
  2
*D9
 70
     1
 10
0.0
 20
0.0
 30
0.0
  3
*D9
  1

  0
LINE
  5
48A3
330
43EF
100
AcDbEntity
  8
AM_5
100
AcDbLine
 10
1803.040069900398
 20
923.34692084177
 30
0.0
 11
1803.040069900398
 21
902.4204884143355
 31
0.0
  0
LINE
  5
48A4
330
43EF
100
AcDbEntity
  8
AM_5
100
AcDbLine
 10
1845.040069900398
 20
923.34692084177
 30
0.0
 11
1845.040069900398
 21
902.4204884143355
 31
0.0
  0
LINE
  5
48A5
330
43EF
100
AcDbEntity
  8
AM_5
100
AcDbLine
 10
1807.240069900398
 20
904.5204884143354
 30
0.0
 11
1840.840069900398
 21
904.5204884143354
 31
0.0
  0
SOLID
  5
48A6
330
43EF
100
AcDbEntity
  8
AM_5
100
AcDbTrace
 10
1807.240069900398
 20
905.2204884143355
 30
0.0
 11
1807.240069900398
 21
903.8204884143354
 31
0.0
 12
1803.040069900398
 22
904.5204884143354
 32
0.0
 13
1803.040069900398
 23
904.5204884143354
 33
0.0
  0
SOLID
  5
48A7
330
43EF
100
AcDbEntity
  8
AM_5
100
AcDbTrace
 10
1840.840069900398
 20
905.2204884143355
 30
0.0
 11
1840.840069900398
 21
903.8204884143354
 31
0.0
 12
1845.040069900398
 22
904.5204884143354
 32
0.0
 13
1845.040069900398
 23
904.5204884143354
 33
0.0
  0
MTEXT
  5
48A8
330
43EF
100
AcDbEntity
  8
AM_5
100
AcDbMText
 10
1824.040069900398
 20
908.0209018001621
 30
0.0
 40
4.199999999999999
 41
0.0
 71
     5
 72
     1
  1
\A2;42
 73
     1
 44
1.0
1001
ACAD
1000
MTEXTBEGIN
1070
    73
1070
     1
1070
    44
1040
1.0
1070
    74
1070
     0
1000
MTEXTEND
  0
POINT
  5
48A9
330
43EF
100
AcDbEntity
  8
Defpoints
 62
     0
100
AcDbPoint
 10
1803.040069900398
 20
924.7469208417699
 30
0.0
  0
POINT
  5
48AA
330
43EF
100
AcDbEntity
  8
Defpoints
 62
     0
100
AcDbPoint
 10
1845.040069900398
 20
924.7469208417699
 30
0.0
  0
POINT
  5
48AB
330
43EF
100
AcDbEntity
  8
Defpoints
 62
     0
100
AcDbPoint
 10
1845.040069900398
 20
904.5204884143354
 30
0.0
  0
ENDBLK
  5
43FA
330
43EF
100
AcDbEntity
  8
0
100
AcDbBlockEnd
  0
BLOCK
  5
4405
330
43FB
100
AcDbEntity
  8
0
100
AcDbBlockBegin
  2
*D10
 70
     1
 10
0.0
 20
0.0
 30
0.0
  3
*D10
  1

  0
LINE
  5
48AC
330
43FB
100
AcDbEntity
  8
AM_5
100
AcDbLine
 10
1801.640069900398
 20
924.7469208417699
 30
0.0
 11
1788.940068900398
 21
924.7469208417699
 31
0.0
  0
LINE
  5
48AD
330
43FB
100
AcDbEntity
  8
AM_5
100
AcDbLine
 10
1801.640069900398
 20
1020.74692084177
 30
0.0
 11
1788.940068900398
 21
1020.74692084177
 31
0.0
  0
LINE
  5
48AE
330
43FB
100
AcDbEntity
  8
AM_5
100
AcDbLine
 10
1791.040068900398
 20
928.9469208417701
 30
0.0
 11
1791.040068900398
 21
1016.54692084177
 31
0.0
  0
SOLID
  5
48AF
330
43FB
100
AcDbEntity
  8
AM_5
100
AcDbTrace
 10
1790.340068900398
 20
928.9469208417701
 30
0.0
 11
1791.740068900398
 21
928.9469208417701
 31
0.0
 12
1791.040068900398
 22
924.7469208417699
 32
0.0
 13
1791.040068900398
 23
924.7469208417699
 33
0.0
  0
SOLID
  5
48B0
330
43FB
100
AcDbEntity
  8
AM_5
100
AcDbTrace
 10
1790.340068900398
 20
1016.54692084177
 30
0.0
 11
1791.740068900398
 21
1016.54692084177
 31
0.0
 12
1791.040068900398
 22
1020.74692084177
 32
0.0
 13
1791.040068900398
 23
1020.74692084177
 33
0.0
  0
MTEXT
  5
48B1
330
43FB
100
AcDbEntity
  8
AM_5
100
AcDbMText
 10
1787.540068900398
 20
972.74692084177
 30
0.0
 40
4.199999999999999
 41
0.0
 71
     5
 72
     1
  1
\A2;96
 11
0.0000000000000001
 21
1.0
 31
0.0
 73
     1
 44
1.0
1001
ACAD
1000
MTEXTBEGIN
1070
    73
1070
     1
1070
    44
1040
1.0
1070
    74
1070
     0
1000
MTEXTEND
  0
POINT
  5
48B2
330
43FB
100
AcDbEntity
  8
Defpoints
 62
     0
100
AcDbPoint
 10
1803.040069900398
 20
924.7469208417699
 30
0.0
  0
POINT
  5
48B3
330
43FB
100
AcDbEntity
  8
Defpoints
 62
     0
100
AcDbPoint
 10
1803.040069900398
 20
1020.74692084177
 30
0.0
  0
POINT
  5
48B4
330
43FB
100
AcDbEntity
  8
Defpoints
 62
     0
100
AcDbPoint
 10
1791.040068900398
 20
1020.74692084177
 30
0.0
  0
ENDBLK
  5
4406
330
43FB
100
AcDbEntity
  8
0
100
AcDbBlockEnd
  0
BLOCK
  5
47F4
330
47EA
100
AcDbEntity
  8
0
100
AcDbBlockBegin
  2
*D11
 70
     1
 10
0.0
 20
0.0
 30
0.0
  3
*D11
  1

  0
LINE
  5
48EB
330
47EA
100
AcDbEntity
  8
AM_5
100
AcDbLine
 10
2050.579466747407
 20
923.34692084177
 30
0.0
 11
2050.579466747407
 21
890.4204884143354
 31
0.0
  0
LINE
  5
48EC
330
47EA
100
AcDbEntity
  8
AM_5
100
AcDbLine
 10
2177.579466747407
 20
923.34692084177
 30
0.0
 11
2177.579466747407
 21
890.4204884143354
 31
0.0
  0
LINE
  5
48ED
330
47EA
100
AcDbEntity
  8
AM_5
100
AcDbLine
 10
2054.779466747406
 20
892.5204884143354
 30
0.0
 11
2173.379466747407
 21
892.5204884143354
 31
0.0
  0
SOLID
  5
48EE
330
47EA
100
AcDbEntity
  8
AM_5
100
AcDbTrace
 10
2054.779466747406
 20
893.2204884143354
 30
0.0
 11
2054.779466747406
 21
891.8204884143353
 31
0.0
 12
2050.579466747407
 22
892.5204884143354
 32
0.0
 13
2050.579466747407
 23
892.5204884143354
 33
0.0
  0
SOLID
  5
48EF
330
47EA
100
AcDbEntity
  8
AM_5
100
AcDbTrace
 10
2173.379466747407
 20
893.2204884143354
 30
0.0
 11
2173.379466747407
 21
891.8204884143353
 31
0.0
 12
2177.579466747407
 22
892.5204884143354
 32
0.0
 13
2177.579466747407
 23
892.5204884143354
 33
0.0
  0
MTEXT
  5
48F0
330
47EA
100
AcDbEntity
  8
AM_5
100
AcDbMText
 10
2114.079466747407
 20
896.0209018001622
 30
0.0
 40
4.199999999999999
 41
0.0
 71
     5
 72
     1
  1
\A2;67+2xstroke
 73
     1
 44
1.0
1001
ACAD
1000
MTEXTBEGIN
1070
    73
1070
     1
1070
    44
1040
1.0
1070
    74
1070
     0
1000
MTEXTEND
  0
POINT
  5
48F1
330
47EA
100
AcDbEntity
  8
Defpoints
 62
     0
100
AcDbPoint
 10
2050.579466747407
 20
924.7469208417699
 30
0.0
  0
POINT
  5
48F2
330
47EA
100
AcDbEntity
  8
Defpoints
 62
     0
100
AcDbPoint
 10
2177.579466747407
 20
924.7469208417699
 30
0.0
  0
POINT
  5
48F3
330
47EA
100
AcDbEntity
  8
Defpoints
 62
     0
100
AcDbPoint
 10
2177.579466747407
 20
892.5204884143354
 30
0.0
  0
ENDBLK
  5
47F5
330
47EA
100
AcDbEntity
  8
0
100
AcDbBlockEnd
  0
BLOCK
  5
4800
330
47F6
100
AcDbEntity
  8
0
100
AcDbBlockBegin
  2
*D12
 70
     1
 10
0.0
 20
0.0
 30
0.0
  3
*D12
  1

  0
LINE
  5
48F4
330
47F6
100
AcDbEntity
  8
AM_5
100
AcDbLine
 10
2064.579466747407
 20
923.34692084177
 30
0.0
 11
2064.579466747407
 21
902.4204884143356
 31
0.0
  0
LINE
  5
48F5
330
47F6
100
AcDbEntity
  8
AM_5
100
AcDbLine
 10
2133.579466747407
 20
923.34692084177
 30
0.0
 11
2133.579466747407
 21
902.4204884143356
 31
0.0
  0
LINE
  5
48F6
330
47F6
100
AcDbEntity
  8
AM_5
100
AcDbLine
 10
2068.779466747406
 20
904.5204884143357
 30
0.0
 11
2129.379466747407
 21
904.5204884143357
 31
0.0
  0
SOLID
  5
48F7
330
47F6
100
AcDbEntity
  8
AM_5
100
AcDbTrace
 10
2068.779466747406
 20
905.2204884143357
 30
0.0
 11
2068.779466747406
 21
903.8204884143356
 31
0.0
 12
2064.579466747407
 22
904.5204884143357
 32
0.0
 13
2064.579466747407
 23
904.5204884143357
 33
0.0
  0
SOLID
  5
48F8
330
47F6
100
AcDbEntity
  8
AM_5
100
AcDbTrace
 10
2129.379466747407
 20
905.2204884143357
 30
0.0
 11
2129.379466747407
 21
903.8204884143356
 31
0.0
 12
2133.579466747407
 22
904.5204884143357
 32
0.0
 13
2133.579466747407
 23
904.5204884143357
 33
0.0
  0
MTEXT
  5
48F9
330
47F6
100
AcDbEntity
  8
AM_5
100
AcDbMText
 10
2099.079466747407
 20
908.0204884143356
 30
0.0
 40
4.199999999999999
 41
0.0
 71
     5
 72
     1
  1
\A2;39+stroke
 73
     1
 44
1.0
1001
ACAD
1000
MTEXTBEGIN
1070
    73
1070
     1
1070
    44
1040
1.0
1070
    74
1070
     0
1000
MTEXTEND
  0
POINT
  5
48FA
330
47F6
100
AcDbEntity
  8
Defpoints
 62
     0
100
AcDbPoint
 10
2064.579466747407
 20
924.7469208417699
 30
0.0
  0
POINT
  5
48FB
330
47F6
100
AcDbEntity
  8
Defpoints
 62
     0
100
AcDbPoint
 10
2133.579466747407
 20
924.7469208417699
 30
0.0
  0
POINT
  5
48FC
330
47F6
100
AcDbEntity
  8
Defpoints
 62
     0
100
AcDbPoint
 10
2133.579466747407
 20
904.5204884143357
 30
0.0
  0
ENDBLK
  5
4801
330
47F6
100
AcDbEntity
  8
0
100
AcDbBlockEnd
  0
BLOCK
  5
480C
330
4802
100
AcDbEntity
  8
0
100
AcDbBlockBegin
  2
*D13
 70
     1
 10
0.0
 20
0.0
 30
0.0
  3
*D13
  1

  0
LINE
  5
48FD
330
4802
100
AcDbEntity
  8
AM_5
100
AcDbLine
 10
2133.579466747407
 20
923.34692084177
 30
0.0
 11
2133.579466747407
 21
902.4204884143355
 31
0.0
  0
LINE
  5
48FE
330
4802
100
AcDbEntity
  8
AM_5
100
AcDbLine
 10
2165.579466747407
 20
923.34692084177
 30
0.0
 11
2165.579466747407
 21
902.4204884143355
 31
0.0
  0
LINE
  5
48FF
330
4802
100
AcDbEntity
  8
AM_5
100
AcDbLine
 10
2137.779466747407
 20
904.5204884143355
 30
0.0
 11
2161.379466747407
 21
904.5204884143355
 31
0.0
  0
SOLID
  5
4900
330
4802
100
AcDbEntity
  8
AM_5
100
AcDbTrace
 10
2137.779466747407
 20
905.2204884143355
 30
0.0
 11
2137.779466747407
 21
903.8204884143354
 31
0.0
 12
2133.579466747407
 22
904.5204884143355
 32
0.0
 13
2133.579466747407
 23
904.5204884143355
 33
0.0
  0
SOLID
  5
4901
330
4802
100
AcDbEntity
  8
AM_5
100
AcDbTrace
 10
2161.379466747407
 20
905.2204884143355
 30
0.0
 11
2161.379466747407
 21
903.8204884143354
 31
0.0
 12
2165.579466747407
 22
904.5204884143355
 32
0.0
 13
2165.579466747407
 23
904.5204884143355
 33
0.0
  0
MTEXT
  5
4902
330
4802
100
AcDbEntity
  8
AM_5
100
AcDbMText
 10
2149.579466747407
 20
908.0209018001623
 30
0.0
 40
4.199999999999999
 41
0.0
 71
     5
 72
     1
  1
\A2;2+stroke
 73
     1
 44
1.0
1001
ACAD
1000
MTEXTBEGIN
1070
    73
1070
     1
1070
    44
1040
1.0
1070
    74
1070
     0
1000
MTEXTEND
  0
POINT
  5
4903
330
4802
100
AcDbEntity
  8
Defpoints
 62
     0
100
AcDbPoint
 10
2133.579466747407
 20
924.7469208417699
 30
0.0
  0
POINT
  5
4904
330
4802
100
AcDbEntity
  8
Defpoints
 62
     0
100
AcDbPoint
 10
2165.579466747407
 20
924.7469208417699
 30
0.0
  0
POINT
  5
4905
330
4802
100
AcDbEntity
  8
Defpoints
 62
     0
100
AcDbPoint
 10
2165.579466747407
 20
904.5204884143355
 30
0.0
  0
ENDBLK
  5
480D
330
4802
100
AcDbEntity
  8
0
100
AcDbBlockEnd
  0
BLOCK
  5
4818
330
480E
100
AcDbEntity
  8
0
100
AcDbBlockBegin
  2
*D14
 70
     1
 10
0.0
 20
0.0
 30
0.0
  3
*D14
  1

  0
LINE
  5
4906
330
480E
100
AcDbEntity
  8
AM_5
100
AcDbLine
 10
2165.579466747407
 20
923.34692084177
 30
0.0
 11
2165.579466747407
 21
902.4204884143355
 31
0.0
  0
LINE
  5
4907
330
480E
100
AcDbEntity
  8
AM_5
100
AcDbLine
 10
2177.579466747407
 20
923.34692084177
 30
0.0
 11
2177.579466747407
 21
902.4204884143355
 31
0.0
  0
LINE
  5
4908
330
480E
100
AcDbEntity
  8
AM_5
100
AcDbLine
 10
2169.779466747407
 20
904.5204884143354
 30
0.0
 11
2173.379466747407
 21
904.5204884143354
 31
0.0
  0
SOLID
  5
4909
330
480E
100
AcDbEntity
  8
AM_5
100
AcDbTrace
 10
2169.779466747407
 20
905.2204884143355
 30
0.0
 11
2169.779466747407
 21
903.8204884143354
 31
0.0
 12
2165.579466747407
 22
904.5204884143354
 32
0.0
 13
2165.579466747407
 23
904.5204884143354
 33
0.0
  0
SOLID
  5
490A
330
480E
100
AcDbEntity
  8
AM_5
100
AcDbTrace
 10
2173.379466747407
 20
905.2204884143355
 30
0.0
 11
2173.379466747407
 21
903.8204884143354
 31
0.0
 12
2177.579466747407
 22
904.5204884143354
 32
0.0
 13
2177.579466747407
 23
904.5204884143354
 33
0.0
  0
MTEXT
  5
490B
330
480E
100
AcDbEntity
  8
AM_5
100
AcDbMText
 10
2171.579466747406
 20
908.0209018001621
 30
0.0
 40
4.199999999999999
 41
0.0
 71
     5
 72
     1
  1
\A2;12
 73
     1
 44
1.0
1001
ACAD
1000
MTEXTBEGIN
1070
    73
1070
     1
1070
    44
1040
1.0
1070
    74
1070
     0
1000
MTEXTEND
  0
POINT
  5
490C
330
480E
100
AcDbEntity
  8
Defpoints
 62
     0
100
AcDbPoint
 10
2165.579466747407
 20
924.7469208417699
 30
0.0
  0
POINT
  5
490D
330
480E
100
AcDbEntity
  8
Defpoints
 62
     0
100
AcDbPoint
 10
2177.579466747407
 20
924.7469208417699
 30
0.0
  0
POINT
  5
490E
330
480E
100
AcDbEntity
  8
Defpoints
 62
     0
100
AcDbPoint
 10
2177.579466747407
 20
904.5204884143354
 30
0.0
  0
ENDBLK
  5
4819
330
480E
100
AcDbEntity
  8
0
100
AcDbBlockEnd
  0
BLOCK
  5
4824
330
481A
100
AcDbEntity
  8
0
100
AcDbBlockBegin
  2
*D15
 70
     1
 10
0.0
 20
0.0
 30
0.0
  3
*D15
  1

  0
LINE
  5
490F
330
481A
100
AcDbEntity
  8
AM_5
100
AcDbLine
 10
2233.600805365373
 20
923.34692084177
 30
0.0
 11
2233.600805365373
 21
902.4204884143355
 31
0.0
  0
LINE
  5
4910
330
481A
100
AcDbEntity
  8
AM_5
100
AcDbLine
 10
2275.600805365373
 20
923.34692084177
 30
0.0
 11
2275.600805365373
 21
902.4204884143355
 31
0.0
  0
LINE
  5
4911
330
481A
100
AcDbEntity
  8
AM_5
100
AcDbLine
 10
2237.800805365373
 20
904.5204884143354
 30
0.0
 11
2271.400805365373
 21
904.5204884143354
 31
0.0
  0
SOLID
  5
4912
330
481A
100
AcDbEntity
  8
AM_5
100
AcDbTrace
 10
2237.800805365373
 20
905.2204884143355
 30
0.0
 11
2237.800805365373
 21
903.8204884143354
 31
0.0
 12
2233.600805365373
 22
904.5204884143354
 32
0.0
 13
2233.600805365373
 23
904.5204884143354
 33
0.0
  0
SOLID
  5
4913
330
481A
100
AcDbEntity
  8
AM_5
100
AcDbTrace
 10
2271.400805365373
 20
905.2204884143355
 30
0.0
 11
2271.400805365373
 21
903.8204884143354
 31
0.0
 12
2275.600805365373
 22
904.5204884143354
 32
0.0
 13
2275.600805365373
 23
904.5204884143354
 33
0.0
  0
MTEXT
  5
4914
330
481A
100
AcDbEntity
  8
AM_5
100
AcDbMText
 10
2254.600805365373
 20
908.0209018001621
 30
0.0
 40
4.199999999999999
 41
0.0
 71
     5
 72
     1
  1
\A2;42
 73
     1
 44
1.0
1001
ACAD
1000
MTEXTBEGIN
1070
    73
1070
     1
1070
    44
1040
1.0
1070
    74
1070
     0
1000
MTEXTEND
  0
POINT
  5
4915
330
481A
100
AcDbEntity
  8
Defpoints
 62
     0
100
AcDbPoint
 10
2233.600805365373
 20
924.7469208417699
 30
0.0
  0
POINT
  5
4916
330
481A
100
AcDbEntity
  8
Defpoints
 62
     0
100
AcDbPoint
 10
2275.600805365373
 20
924.7469208417699
 30
0.0
  0
POINT
  5
4917
330
481A
100
AcDbEntity
  8
Defpoints
 62
     0
100
AcDbPoint
 10
2275.600805365373
 20
904.5204884143354
 30
0.0
  0
ENDBLK
  5
4825
330
481A
100
AcDbEntity
  8
0
100
AcDbBlockEnd
  0
BLOCK
  5
4830
330
4826
100
AcDbEntity
  8
0
100
AcDbBlockBegin
  2
*D16
 70
     1
 10
0.0
 20
0.0
 30
0.0
  3
*D16
  1

  0
LINE
  5
4918
330
4826
100
AcDbEntity
  8
AM_5
100
AcDbLine
 10
2232.200805365373
 20
924.7469208417699
 30
0.0
 11
2219.500804365373
 21
924.7469208417699
 31
0.0
  0
LINE
  5
4919
330
4826
100
AcDbEntity
  8
AM_5
100
AcDbLine
 10
2232.200805365373
 20
1020.74692084177
 30
0.0
 11
2219.500804365373
 21
1020.74692084177
 31
0.0
  0
LINE
  5
491A
330
4826
100
AcDbEntity
  8
AM_5
100
AcDbLine
 10
2221.600804365372
 20
928.9469208417699
 30
0.0
 11
2221.600804365372
 21
1016.54692084177
 31
0.0
  0
SOLID
  5
491B
330
4826
100
AcDbEntity
  8
AM_5
100
AcDbTrace
 10
2220.900804365372
 20
928.9469208417699
 30
0.0
 11
2222.300804365372
 21
928.9469208417699
 31
0.0
 12
2221.600804365372
 22
924.7469208417699
 32
0.0
 13
2221.600804365372
 23
924.7469208417699
 33
0.0
  0
SOLID
  5
491C
330
4826
100
AcDbEntity
  8
AM_5
100
AcDbTrace
 10
2220.900804365372
 20
1016.54692084177
 30
0.0
 11
2222.300804365372
 21
1016.54692084177
 31
0.0
 12
2221.600804365372
 22
1020.74692084177
 32
0.0
 13
2221.600804365372
 23
1020.74692084177
 33
0.0
  0
MTEXT
  5
491D
330
4826
100
AcDbEntity
  8
AM_5
100
AcDbMText
 10
2218.100804365372
 20
972.74692084177
 30
0.0
 40
4.199999999999999
 41
0.0
 71
     5
 72
     1
  1
\A2;96
 11
0.0000000000000001
 21
1.0
 31
0.0
 73
     1
 44
1.0
1001
ACAD
1000
MTEXTBEGIN
1070
    73
1070
     1
1070
    44
1040
1.0
1070
    74
1070
     0
1000
MTEXTEND
  0
POINT
  5
491E
330
4826
100
AcDbEntity
  8
Defpoints
 62
     0
100
AcDbPoint
 10
2233.600805365373
 20
924.7469208417699
 30
0.0
  0
POINT
  5
491F
330
4826
100
AcDbEntity
  8
Defpoints
 62
     0
100
AcDbPoint
 10
2233.600805365373
 20
1020.74692084177
 30
0.0
  0
POINT
  5
4920
330
4826
100
AcDbEntity
  8
Defpoints
 62
     0
100
AcDbPoint
 10
2221.600804365372
 20
1020.74692084177
 30
0.0
  0
ENDBLK
  5
4831
330
4826
100
AcDbEntity
  8
0
100
AcDbBlockEnd
  0
BLOCK
  5
4B2D
330
4B23
100
AcDbEntity
  8
0
100
AcDbBlockBegin
  2
*D17
 70
     1
 10
0.0
 20
0.0
 30
0.0
  3
*D17
  1

  0
LINE
  5
4B31
330
4B23
100
AcDbEntity
  8
AM_5
100
AcDbLine
 10
1747.018731282432
 20
1014.74692084177
 30
0.0
 11
1770.048264377679
 21
1014.74692084177
 31
0.0
  0
LINE
  5
4B32
330
4B23
100
AcDbEntity
  8
AM_5
100
AcDbLine
 10
1747.018731282432
 20
930.7469208417698
 30
0.0
 11
1770.048264377679
 21
930.7469208417698
 31
0.0
  0
LINE
  5
4B33
330
4B23
100
AcDbEntity
  8
AM_5
100
AcDbLine
 10
1768.548264377679
 20
1011.74692084177
 30
0.0
 11
1768.548264377679
 21
933.7469208417699
 31
0.0
  0
SOLID
  5
4B34
330
4B23
100
AcDbEntity
  8
AM_5
100
AcDbTrace
 10
1768.048264377679
 20
1011.74692084177
 30
0.0
 11
1769.048264377679
 21
1011.74692084177
 31
0.0
 12
1768.548264377679
 22
1014.74692084177
 32
0.0
 13
1768.548264377679
 23
1014.74692084177
 33
0.0
  0
SOLID
  5
4B35
330
4B23
100
AcDbEntity
  8
AM_5
100
AcDbTrace
 10
1768.048264377679
 20
933.7469208417699
 30
0.0
 11
1769.048264377679
 21
933.7469208417699
 31
0.0
 12
1768.548264377679
 22
930.7469208417698
 32
0.0
 13
1768.548264377679
 23
930.7469208417698
 33
0.0
  0
MTEXT
  5
4B36
330
4B23
100
AcDbEntity
  8
AM_5
100
AcDbMText
 10
1766.048264377679
 20
972.7469208417701
 30
0.0
 40
3.0
 41
0.0
 71
     5
 72
     1
  1
\A2;84
 11
0.0000000000000001
 21
1.0
 31
0.0
 73
     1
 44
1.0
1001
ACAD
1000
MTEXTBEGIN
1070
    73
1070
     1
1070
    44
1040
1.0
1070
    74
1070
     0
1000
MTEXTEND
  0
POINT
  5
4B37
330
4B23
100
AcDbEntity
  8
Defpoints
 62
     0
100
AcDbPoint
 10
1746.018731282432
 20
1014.74692084177
 30
0.0
  0
POINT
  5
4B38
330
4B23
100
AcDbEntity
  8
Defpoints
 62
     0
100
AcDbPoint
 10
1746.018731282432
 20
930.7469208417698
 30
0.0
  0
POINT
  5
4B39
330
4B23
100
AcDbEntity
  8
Defpoints
 62
     0
100
AcDbPoint
 10
1768.548264377679
 20
930.7469208417698
 30
0.0
  0
ENDBLK
  5
4B2E
330
4B23
100
AcDbEntity
  8
0
100
AcDbBlockEnd
  0
BLOCK
  5
4C37
330
4C32
100
AcDbEntity
  8
0
100
AcDbBlockBegin
  2
*S19
 70
     1
 10
0.0
 20
0.0
 30
0.0
  3
*S19
  1

  0
LINE
  5
4C33
330
4C32
100
AcDbEntity
  8
AM_5
 62
     5
100
AcDbLine
 10
1772.125192113779
 20
913.2493967261254
 30
0.0
 11
1789.260680801833
 21
913.2493967261254
 31
0.0
  0
LINE
  5
4C34
330
4C32
100
AcDbEntity
  8
AM_5
 62
     5
100
AcDbLine
 10
1789.260680801833
 20
913.2493967261254
 30
0.0
 11
1806.858894867545
 21
932.1689161399163
 31
0.0
  0
TRACE
  5
4C35
330
4C32
100
AcDbEntity
  8
AM_5
 62
     5
370
    35
100
AcDbTrace
 10
1807.331243177438
 20
931.7295557899379
 30
0.0
 11
1806.386546557653
 21
932.6082764898949
 31
0.0
 12
1810.196168067753
 22
935.7567577734302
 32
0.0
 13
1810.196168067753
 23
935.7567577734302
 33
0.0
  0
MTEXT
  5
4C36
330
4C32
100
AcDbEntity
  8
AM_5
 62
     2
100
AcDbMText
 10
1772.125192113779
 20
922.0772069479554
 30
0.0
 40
4.899999999999999
 41
0.0
 71
     9
 72
     5
  1

  7
ACISOTS
 73
     1
 44
1.0
1001
ACAD
1000
MTEXTBEGIN
1070
    73
1070
     1
1070
    44
1040
1.0
1070
    74
1070
     0
1000
MTEXTEND
  0
ENDBLK
  5
4C38
330
4C32
100
AcDbEntity
  8
0
100
AcDbBlockEnd
  0
BLOCK
  5
4C3F
330
4C3A
100
AcDbEntity
  8
0
100
AcDbBlockBegin
  2
*S20
 70
     1
 10
0.0
 20
0.0
 30
0.0
  3
*S20
  1

  0
LINE
  5
4C3B
330
4C3A
100
AcDbEntity
  8
AM_5
 62
     5
100
AcDbLine
 10
1740.157923192226
 20
1035.284123693048
 30
0.0
 11
1702.951734914095
 21
1035.284123693048
 31
0.0
  0
LINE
  5
4C3C
330
4C3A
100
AcDbEntity
  8
AM_5
 62
     5
100
AcDbLine
 10
1702.951734914095
 20
1035.284123693048
 30
0.0
 11
1688.676565869364
 21
997.6974802831552
 31
0.0
  0
TRACE
  5
4C3D
330
4C3A
100
AcDbEntity
  8
AM_5
 62
     5
370
    35
100
AcDbTrace
 10
1688.073498257157
 20
997.9265215416623
 30
0.0
 11
1689.279633481571
 21
997.468439024648
 31
0.0
 12
1686.936824780313
 22
993.1167269670437
 32
0.0
 13
1686.936824780313
 23
993.1167269670437
 33
0.0
  0
MTEXT
  5
4C3E
330
4C3A
100
AcDbEntity
  8
AM_5
 62
     2
100
AcDbMText
 10
1740.157923192226
 20
1044.95261943139
 30
0.0
 40
4.899999999999999
 41
0.0
 71
     9
 72
     5
  1

  7
ACISOTS
210
0.0
220
0.0
230
-1.0
 11
-1.0
 21
0.0
 31
0.0
 73
     1
 44
1.0
1001
ACAD
1000
MTEXTBEGIN
1070
    73
1070
     1
1070
    44
1040
1.0
1070
    74
1070
     0
1000
MTEXTEND
  0
ENDBLK
  5
4C40
330
4C3A
100
AcDbEntity
  8
0
100
AcDbBlockEnd
  0
BLOCK
  5
4C47
330
4C42
100
AcDbEntity
  8
0
100
AcDbBlockBegin
  2
*S21
 70
     1
 10
0.0
 20
0.0
 30
0.0
  3
*S21
  1

  0
LINE
  5
4C43
330
4C42
100
AcDbEntity
  8
AM_5
 62
     5
100
AcDbLine
 10
1799.307549523065
 20
1034.769101028085
 30
0.0
 11
1759.040065253212
 21
1034.769101028085
 31
0.0
  0
LINE
  5
4C44
330
4C42
100
AcDbEntity
  8
AM_5
 62
     5
100
AcDbLine
 10
1759.040065253212
 20
1034.769101028085
 30
0.0
 11
1746.452149141373
 21
1020.303011699001
 31
0.0
  0
TRACE
  5
4C45
330
4C42
100
AcDbEntity
  8
AM_5
 62
     5
370
    35
100
AcDbTrace
 10
1745.965500286318
 20
1020.726477559331
 30
0.0
 11
1746.938797996428
 21
1019.879545838671
 31
0.0
 12
1743.235606576819
 22
1016.606546640271
 32
0.0
 13
1743.235606576819
 23
1016.606546640271
 33
0.0
  0
MTEXT
  5
4C46
330
4C42
100
AcDbEntity
  8
AM_5
 62
     2
100
AcDbMText
 10
1799.307549523065
 20
1044.700291471585
 30
0.0
 40
4.899999999999999
 41
0.0
 71
     9
 72
     5
  1

  7
ACISOTS
210
0.0
220
0.0
230
-1.0
 11
-1.0
 21
0.0
 31
0.0
 73
     1
 44
1.0
1001
ACAD
1000
MTEXTBEGIN
1070
    73
1070
     1
1070
    44
1040
1.0
1070
    74
1070
     0
1000
MTEXTEND
  0
ENDBLK
  5
4C48
330
4C42
100
AcDbEntity
  8
0
100
AcDbBlockEnd
  0
BLOCK
  5
4C4F
330
4C4A
100
AcDbEntity
  8
0
100
AcDbBlockBegin
  2
*S22
 70
     1
 10
0.0
 20
0.0
 30
0.0
  3
*S22
  1

  0
LINE
  5
4C4B
330
4C4A
100
AcDbEntity
  8
AM_5
 62
     5
100
AcDbLine
 10
1697.526184213851
 20
1136.795306419387
 30
0.0
 11
1663.437557910065
 21
1136.795306419387
 31
0.0
  0
LINE
  5
4C4C
330
4C4A
100
AcDbEntity
  8
AM_5
 62
     5
100
AcDbLine
 10
1663.437557910065
 20
1136.795306419387
 30
0.0
 11
1656.300401940912
 21
1174.240198432088
 31
0.0
  0
TRACE
  5
4C4D
330
4C4A
100
AcDbEntity
  8
AM_5
 62
     5
370
    35
100
AcDbTrace
 10
1656.934090912167
 20
1174.360982250139
 30
0.0
 11
1655.666712969658
 21
1174.119414614038
 31
0.0
 12
1655.382957754113
 22
1179.053544063155
 32
0.0
 13
1655.382957754113
 23
1179.053544063155
 33
0.0
  0
MTEXT
  5
4C4E
330
4C4A
100
AcDbEntity
  8
AM_5
 62
     2
100
AcDbMText
 10
1697.526184213851
 20
1145.951982901627
 30
0.0
 40
4.899999999999999
 41
0.0
 71
     9
 72
     5
  1

  7
ACISOTS
210
0.0
220
0.0
230
-1.0
 11
-1.0
 21
0.0
 31
0.0
 73
     1
 44
1.0
1001
ACAD
1000
MTEXTBEGIN
1070
    73
1070
     1
1070
    44
1040
1.0
1070
    74
1070
     0
1000
MTEXTEND
  0
ENDBLK
  5
4C50
330
4C4A
100
AcDbEntity
  8
0
100
AcDbBlockEnd
  0
BLOCK
  5
4C57
330
4C52
100
AcDbEntity
  8
0
100
AcDbBlockBegin
  2
*S23
 70
     1
 10
0.0
 20
0.0
 30
0.0
  3
*S23
  1

  0
LINE
  5
4C53
330
4C52
100
AcDbEntity
  8
AM_5
 62
     5
100
AcDbLine
 10
1743.944169984814
 20
1136.402681192248
 30
0.0
 11
1709.855543681029
 21
1136.402681192248
 31
0.0
  0
LINE
  5
4C54
330
4C52
100
AcDbEntity
  8
AM_5
 62
     5
100
AcDbLine
 10
1709.855543681029
 20
1136.402681192248
 30
0.0
 11
1697.068800505702
 21
1154.162934967925
 31
0.0
  0
TRACE
  5
4C55
330
4C52
100
AcDbEntity
  8
AM_5
 62
     5
370
    35
100
AcDbTrace
 10
1697.592328004938
 20
1154.539855915255
 30
0.0
 11
1696.545273006467
 21
1153.786014020595
 31
0.0
 12
1694.205801657076
 22
1158.13952114111
 32
0.0
 13
1694.205801657076
 23
1158.13952114111
 33
0.0
  0
MTEXT
  5
4C56
330
4C52
100
AcDbEntity
  8
AM_5
 62
     2
100
AcDbMText
 10
1743.944169984814
 20
1145.559357674489
 30
0.0
 40
4.899999999999999
 41
0.0
 71
     9
 72
     5
  1

  7
ACISOTS
210
0.0
220
0.0
230
-1.0
 11
-1.0
 21
0.0
 31
0.0
 73
     1
 44
1.0
1001
ACAD
1000
MTEXTBEGIN
1070
    73
1070
     1
1070
    44
1040
1.0
1070
    74
1070
     0
1000
MTEXTEND
  0
ENDBLK
  5
4C58
330
4C52
100
AcDbEntity
  8
0
100
AcDbBlockEnd
  0
BLOCK
  5
4C5F
330
4C5A
100
AcDbEntity
  8
0
100
AcDbBlockBegin
  2
*S24
 70
     1
 10
0.0
 20
0.0
 30
0.0
  3
*S24
  1

  0
LINE
  5
4C5B
330
4C5A
100
AcDbEntity
  8
AM_5
 62
     5
100
AcDbLine
 10
1800.376349814463
 20
1153.758764306978
 30
0.0
 11
1760.108865544611
 21
1153.758764306978
 31
0.0
  0
LINE
  5
4C5C
330
4C5A
100
AcDbEntity
  8
AM_5
 62
     5
100
AcDbLine
 10
1760.108865544611
 20
1153.758764306978
 30
0.0
 11
1747.405253361719
 21
1168.388471268013
 31
0.0
  0
TRACE
  5
4C5D
330
4C5A
100
AcDbEntity
  8
AM_5
 62
     5
370
    35
100
AcDbTrace
 10
1747.892341819182
 20
1168.81143140514
 30
0.0
 11
1746.918164904257
 21
1167.965511130886
 31
0.0
 12
1744.192552146284
 22
1172.088275438552
 32
0.0
 13
1744.192552146284
 23
1172.088275438552
 33
0.0
  0
MTEXT
  5
4C5E
330
4C5A
100
AcDbEntity
  8
AM_5
 62
     2
100
AcDbMText
 10
1800.376349814463
 20
1163.689954750477
 30
0.0
 40
4.899999999999999
 41
0.0
 71
     9
 72
     5
  1

  7
ACISOTS
210
0.0
220
0.0
230
-1.0
 11
-1.0
 21
0.0
 31
0.0
 73
     1
 44
1.0
1001
ACAD
1000
MTEXTBEGIN
1070
    73
1070
     1
1070
    44
1040
1.0
1070
    74
1070
     0
1000
MTEXTEND
  0
ENDBLK
  5
4C60
330
4C5A
100
AcDbEntity
  8
0
100
AcDbBlockEnd
  0
BLOCK
  5
4C67
330
4C62
100
AcDbEntity
  8
0
100
AcDbBlockBegin
  2
*S25
 70
     1
 10
0.0
 20
0.0
 30
0.0
  3
*S25
  1

  0
LINE
  5
4C63
330
4C62
100
AcDbEntity
  8
AM_5
 62
     5
100
AcDbLine
 10
2202.685927578754
 20
913.2493967261254
 30
0.0
 11
2219.821416266807
 21
913.2493967261254
 31
0.0
  0
LINE
  5
4C64
330
4C62
100
AcDbEntity
  8
AM_5
 62
     5
100
AcDbLine
 10
2219.821416266807
 20
913.2493967261254
 30
0.0
 11
2237.41963033252
 21
932.1689161399163
 31
0.0
  0
TRACE
  5
4C65
330
4C62
100
AcDbEntity
  8
AM_5
 62
     5
370
    35
100
AcDbTrace
 10
2237.891978642413
 20
931.7295557899379
 30
0.0
 11
2236.947282022628
 21
932.6082764898949
 31
0.0
 12
2240.756903532728
 22
935.7567577734302
 32
0.0
 13
2240.756903532728
 23
935.7567577734302
 33
0.0
  0
MTEXT
  5
4C66
330
4C62
100
AcDbEntity
  8
AM_5
 62
     2
100
AcDbMText
 10
2202.685927578754
 20
922.0772069479554
 30
0.0
 40
4.899999999999999
 41
0.0
 71
     9
 72
     5
  1

  7
ACISOTS
 73
     1
 44
1.0
1001
ACAD
1000
MTEXTBEGIN
1070
    73
1070
     1
1070
    44
1040
1.0
1070
    74
1070
     0
1000
MTEXTEND
  0
ENDBLK
  5
4C68
330
4C62
100
AcDbEntity
  8
0
100
AcDbBlockEnd
  0
BLOCK
  5
4C6F
330
4C6A
100
AcDbEntity
  8
0
100
AcDbBlockBegin
  2
*S26
 70
     1
 10
0.0
 20
0.0
 30
0.0
  3
*S26
  1

  0
LINE
  5
4C6B
330
4C6A
100
AcDbEntity
  8
AM_5
 62
     5
100
AcDbLine
 10
2170.718658657201
 20
1035.284123693048
 30
0.0
 11
2133.51247037907
 21
1035.284123693048
 31
0.0
  0
LINE
  5
4C6C
330
4C6A
100
AcDbEntity
  8
AM_5
 62
     5
100
AcDbLine
 10
2133.51247037907
 20
1035.284123693048
 30
0.0
 11
2119.237301334339
 21
997.6974802831552
 31
0.0
  0
TRACE
  5
4C6D
330
4C6A
100
AcDbEntity
  8
AM_5
 62
     5
370
    35
100
AcDbTrace
 10
2118.634233722132
 20
997.9265215416623
 30
0.0
 11
2119.840368946546
 21
997.468439024648
 31
0.0
 12
2117.497560245288
 22
993.1167269670437
 32
0.0
 13
2117.497560245288
 23
993.1167269670437
 33
0.0
  0
MTEXT
  5
4C6E
330
4C6A
100
AcDbEntity
  8
AM_5
 62
     2
100
AcDbMText
 10
2170.718658657201
 20
1044.95261943139
 30
0.0
 40
4.899999999999999
 41
0.0
 71
     9
 72
     5
  1

  7
ACISOTS
210
0.0
220
0.0
230
-1.0
 11
-1.0
 21
0.0
 31
0.0
 73
     1
 44
1.0
1001
ACAD
1000
MTEXTBEGIN
1070
    73
1070
     1
1070
    44
1040
1.0
1070
    74
1070
     0
1000
MTEXTEND
  0
ENDBLK
  5
4C70
330
4C6A
100
AcDbEntity
  8
0
100
AcDbBlockEnd
  0
BLOCK
  5
4C77
330
4C72
100
AcDbEntity
  8
0
100
AcDbBlockBegin
  2
*S27
 70
     1
 10
0.0
 20
0.0
 30
0.0
  3
*S27
  1

  0
LINE
  5
4C73
330
4C72
100
AcDbEntity
  8
AM_5
 62
     5
100
AcDbLine
 10
2229.86828498804
 20
1034.769101028085
 30
0.0
 11
2189.600800718187
 21
1034.769101028085
 31
0.0
  0
LINE
  5
4C74
330
4C72
100
AcDbEntity
  8
AM_5
 62
     5
100
AcDbLine
 10
2189.600800718187
 20
1034.769101028085
 30
0.0
 11
2177.012884606348
 21
1020.303011699001
 31
0.0
  0
TRACE
  5
4C75
330
4C72
100
AcDbEntity
  8
AM_5
 62
     5
370
    35
100
AcDbTrace
 10
2176.526235751293
 20
1020.726477559331
 30
0.0
 11
2177.499533461403
 21
1019.879545838671
 31
0.0
 12
2173.796342041794
 22
1016.606546640271
 32
0.0
 13
2173.796342041794
 23
1016.606546640271
 33
0.0
  0
MTEXT
  5
4C76
330
4C72
100
AcDbEntity
  8
AM_5
 62
     2
100
AcDbMText
 10
2229.86828498804
 20
1044.700291471585
 30
0.0
 40
4.899999999999999
 41
0.0
 71
     9
 72
     5
  1

  7
ACISOTS
210
0.0
220
0.0
230
-1.0
 11
-1.0
 21
0.0
 31
0.0
 73
     1
 44
1.0
1001
ACAD
1000
MTEXTBEGIN
1070
    73
1070
     1
1070
    44
1040
1.0
1070
    74
1070
     0
1000
MTEXTEND
  0
ENDBLK
  5
4C78
330
4C72
100
AcDbEntity
  8
0
100
AcDbBlockEnd
  0
BLOCK
  5
4C7F
330
4C7A
100
AcDbEntity
  8
0
100
AcDbBlockBegin
  2
*S28
 70
     1
 10
0.0
 20
0.0
 30
0.0
  3
*S28
  1

  0
LINE
  5
4C7B
330
4C7A
100
AcDbEntity
  8
AM_5
 62
     5
100
AcDbLine
 10
2128.086919678825
 20
1136.795306419387
 30
0.0
 11
2093.99829337504
 21
1136.795306419387
 31
0.0
  0
LINE
  5
4C7C
330
4C7A
100
AcDbEntity
  8
AM_5
 62
     5
100
AcDbLine
 10
2093.99829337504
 20
1136.795306419387
 30
0.0
 11
2086.861137405887
 21
1174.240198432088
 31
0.0
  0
TRACE
  5
4C7D
330
4C7A
100
AcDbEntity
  8
AM_5
 62
     5
370
    35
100
AcDbTrace
 10
2087.494826377141
 20
1174.360982250139
 30
0.0
 11
2086.227448434633
 21
1174.119414614038
 31
0.0
 12
2085.943693219089
 22
1179.053544063155
 32
0.0
 13
2085.943693219089
 23
1179.053544063155
 33
0.0
  0
MTEXT
  5
4C7E
330
4C7A
100
AcDbEntity
  8
AM_5
 62
     2
100
AcDbMText
 10
2128.086919678825
 20
1145.951982901627
 30
0.0
 40
4.899999999999999
 41
0.0
 71
     9
 72
     5
  1

  7
ACISOTS
210
0.0
220
0.0
230
-1.0
 11
-1.0
 21
0.0
 31
0.0
 73
     1
 44
1.0
1001
ACAD
1000
MTEXTBEGIN
1070
    73
1070
     1
1070
    44
1040
1.0
1070
    74
1070
     0
1000
MTEXTEND
  0
ENDBLK
  5
4C80
330
4C7A
100
AcDbEntity
  8
0
100
AcDbBlockEnd
  0
BLOCK
  5
4C87
330
4C82
100
AcDbEntity
  8
0
100
AcDbBlockBegin
  2
*S29
 70
     1
 10
0.0
 20
0.0
 30
0.0
  3
*S29
  1

  0
LINE
  5
4C83
330
4C82
100
AcDbEntity
  8
AM_5
 62
     5
100
AcDbLine
 10
2173.504905449789
 20
1136.402681192248
 30
0.0
 11
2139.416279146004
 21
1136.402681192248
 31
0.0
  0
LINE
  5
4C84
330
4C82
100
AcDbEntity
  8
AM_5
 62
     5
100
AcDbLine
 10
2139.416279146004
 20
1136.402681192248
 30
0.0
 11
2126.629535970677
 21
1154.162934967925
 31
0.0
  0
TRACE
  5
4C85
330
4C82
100
AcDbEntity
  8
AM_5
 62
     5
370
    35
100
AcDbTrace
 10
2127.153063469913
 20
1154.539855915255
 30
0.0
 11
2126.106008471442
 21
1153.786014020595
 31
0.0
 12
2123.766537122051
 22
1158.13952114111
 32
0.0
 13
2123.766537122051
 23
1158.13952114111
 33
0.0
  0
MTEXT
  5
4C86
330
4C82
100
AcDbEntity
  8
AM_5
 62
     2
100
AcDbMText
 10
2173.504905449789
 20
1145.559357674489
 30
0.0
 40
4.899999999999999
 41
0.0
 71
     9
 72
     5
  1

  7
ACISOTS
210
0.0
220
0.0
230
-1.0
 11
-1.0
 21
0.0
 31
0.0
 73
     1
 44
1.0
1001
ACAD
1000
MTEXTBEGIN
1070
    73
1070
     1
1070
    44
1040
1.0
1070
    74
1070
     0
1000
MTEXTEND
  0
ENDBLK
  5
4C88
330
4C82
100
AcDbEntity
  8
0
100
AcDbBlockEnd
  0
BLOCK
  5
4C8F
330
4C8A
100
AcDbEntity
  8
0
100
AcDbBlockBegin
  2
*S30
 70
     1
 10
0.0
 20
0.0
 30
0.0
  3
*S30
  1

  0
LINE
  5
4C8B
330
4C8A
100
AcDbEntity
  8
AM_5
 62
     5
100
AcDbLine
 10
2230.937085279439
 20
1153.758764306978
 30
0.0
 11
2190.669601009586
 21
1153.758764306978
 31
0.0
  0
LINE
  5
4C8C
330
4C8A
100
AcDbEntity
  8
AM_5
 62
     5
100
AcDbLine
 10
2190.669601009586
 20
1153.758764306978
 30
0.0
 11
2177.965988826694
 21
1168.388471268013
 31
0.0
  0
TRACE
  5
4C8D
330
4C8A
100
AcDbEntity
  8
AM_5
 62
     5
370
    35
100
AcDbTrace
 10
2178.453077284157
 20
1168.81143140514
 30
0.0
 11
2177.478900369232
 21
1167.965511130886
 31
0.0
 12
2174.753287611259
 22
1172.088275438552
 32
0.0
 13
2174.753287611259
 23
1172.088275438552
 33
0.0
  0
MTEXT
  5
4C8E
330
4C8A
100
AcDbEntity
  8
AM_5
 62
     2
100
AcDbMText
 10
2230.937085279439
 20
1163.689954750477
 30
0.0
 40
4.899999999999999
 41
0.0
 71
     9
 72
     5
  1

  7
ACISOTS
210
0.0
220
0.0
230
-1.0
 11
-1.0
 21
0.0
 31
0.0
 73
     1
 44
1.0
1001
ACAD
1000
MTEXTBEGIN
1070
    73
1070
     1
1070
    44
1040
1.0
1070
    74
1070
     0
1000
MTEXTEND
  0
ENDBLK
  5
4C90
330
4C8A
100
AcDbEntity
  8
0
100
AcDbBlockEnd
  0
BLOCK
  5
4C97
330
4C92
100
AcDbEntity
  8
0
100
AcDbBlockBegin
  2
*S31
 70
     1
 10
0.0
 20
0.0
 30
0.0
  3
*S31
  1

  0
LINE
  5
4C93
330
4C92
100
AcDbEntity
  8
AM_5
 62
     5
100
AcDbLine
 10
1724.811876517487
 20
872.4397473120468
 30
0.0
 11
1706.398231653096
 21
872.4397473120468
 31
0.0
  0
LINE
  5
4C94
330
4C92
100
AcDbEntity
  8
AM_5
 62
     5
100
AcDbLine
 10
1706.398231653096
 20
872.4397473120468
 30
0.0
 11
1698.832272605633
 21
861.7408267711306
 31
0.0
  0
TRACE
  5
4C95
330
4C92
100
AcDbEntity
  8
AM_5
 62
     5
370
    35
100
AcDbTrace
 10
1698.305568694857
 20
862.1132961435154
 30
0.0
 11
1699.358976516409
 21
861.3683573987456
 31
0.0
 12
1696.003086825853
 22
857.7401133568141
 32
0.0
 13
1696.003086825853
 23
857.7401133568141
 33
0.0
  0
MTEXT
  5
4C96
330
4C92
100
AcDbEntity
  8
AM_5
 62
     2
100
AcDbMText
 10
1724.811876517487
 20
882.2995840350213
 30
0.0
 40
4.899999999999999
 41
0.0
 71
     9
 72
     5
  1

  7
ACISOTS
210
0.0
220
0.0
230
-1.0
 11
-1.0
 21
0.0
 31
0.0
 73
     1
 44
1.0
1001
ACAD
1000
MTEXTBEGIN
1070
    73
1070
     1
1070
    44
1040
1.0
1070
    74
1070
     0
1000
MTEXTEND
  0
ENDBLK
  5
4C98
330
4C92
100
AcDbEntity
  8
0
100
AcDbBlockEnd
  0
BLOCK
  5
4C9F
330
4C9A
100
AcDbEntity
  8
0
100
AcDbBlockBegin
  2
*S32
 70
     1
 10
0.0
 20
0.0
 30
0.0
  3
*S32
  1

  0
LINE
  5
4C9B
330
4C9A
100
AcDbEntity
  8
AM_5
 62
     5
100
AcDbLine
 10
2155.372611982462
 20
872.4397473120468
 30
0.0
 11
2136.95896711807
 21
872.4397473120468
 31
0.0
  0
LINE
  5
4C9C
330
4C9A
100
AcDbEntity
  8
AM_5
 62
     5
100
AcDbLine
 10
2136.95896711807
 20
872.4397473120468
 30
0.0
 11
2129.393008070608
 21
861.7408267711306
 31
0.0
  0
TRACE
  5
4C9D
330
4C9A
100
AcDbEntity
  8
AM_5
 62
     5
370
    35
100
AcDbTrace
 10
2128.866304159831
 20
862.1132961435154
 30
0.0
 11
2129.919711981384
 21
861.3683573987456
 31
0.0
 12
2126.563822290828
 22
857.7401133568141
 32
0.0
 13
2126.563822290828
 23
857.7401133568141
 33
0.0
  0
MTEXT
  5
4C9E
330
4C9A
100
AcDbEntity
  8
AM_5
 62
     2
100
AcDbMText
 10
2155.372611982462
 20
882.2995840350213
 30
0.0
 40
4.899999999999999
 41
0.0
 71
     9
 72
     5
  1

  7
ACISOTS
210
0.0
220
0.0
230
-1.0
 11
-1.0
 21
0.0
 31
0.0
 73
     1
 44
1.0
1001
ACAD
1000
MTEXTBEGIN
1070
    73
1070
     1
1070
    44
1040
1.0
1070
    74
1070
     0
1000
MTEXTEND
  0
ENDBLK
  5
4CA0
330
4C9A
100
AcDbEntity
  8
0
100
AcDbBlockEnd
  0
ENDSEC
  0
SECTION
  2
ENTITIES
  0
TEXT
  5
E1F
330
1F
100
AcDbEntity
  8
AM_5
100
AcDbText
 10
2673.874599262465
 20
1604.83630397753
 30
0.0
 40
6.0
  1

100
AcDbText
  0
TEXT
  5
E3C
330
1F
100
AcDbEntity
  8
LOGO
 62
     7
100
AcDbText
 10
1624.952742425137
 20
771.0842008142492
 30
0.0
 40
8.293199000904976
  1
Order example:
 41
0.8
  7
CHINESET
100
AcDbText
  0
TEXT
  5
E3D
330
1F
100
AcDbEntity
  8
LOGO
 62
     7
100
AcDbText
 10
1626.440610907866
 20
782.7593078787601
 30
0.0
 40
12.43979850135746
  1
訂購代號:
  7
CHINESET
100
AcDbText
  0
LINE
  5
E3E
330
1F
100
AcDbEntity
  8
LOGO
 62
     1
100
AcDbLine
 10
2339.871535815399
 20
798.3325210251749
 30
0.0
 11
1484.511535815398
 21
798.3325210251749
 31
0.0
  0
LINE
  5
E3F
330
1F
100
AcDbEntity
  8
LOGO
 62
     1
100
AcDbLine
 10
1621.34931933033
 20
736.1335285183871
 30
0.0
 11
1621.34931933033
 21
798.3325210251749
 31
0.0
  0
TEXT
  5
E40
330
1F
100
AcDbEntity
  8
LOGO
  6
Continuous
 62
     5
100
AcDbText
 10
1506.853693513717
 20
748.3524267298815
 30
0.0
 40
9.329848876018099
  1
金器工業股份有限公司
  7
CHINESET
100
AcDbText
  0
TEXT
  5
E41
330
1F
100
AcDbEntity
  8
LOGO
  6
Continuous
 62
     5
100
AcDbText
 10
1489.716606948046
 20
739.0207499349721
 30
0.0
 40
6.219899250678731
  1
MINDMAN INDUSTRIAL CO., LTD.
 41
0.85
  7
CHINESET
100
AcDbText
  0
LINE
  5
E42
330
1F
100
AcDbEntity
  8
LOGO
 62
     1
100
AcDbLine
 10
1621.34931933033
 20
785.8927225238172
 30
0.0
 11
1530.124130320375
 21
785.8927225238172
 31
0.0
  0
LINE
  5
E43
330
1F
100
AcDbEntity
  8
LOGO
 62
     1
100
AcDbLine
 10
1621.34931933033
 20
773.4529240224599
 30
0.0
 11
1530.124130320375
 21
773.4529240224599
 31
0.0
  0
LINE
  5
E44
330
1F
100
AcDbEntity
  8
LOGO
 62
     1
100
AcDbLine
 10
1621.34931933033
 20
761.0131255211029
 30
0.0
 11
1484.511535815398
 21
761.0131255211029
 31
0.0
  0
LINE
  5
E45
330
1F
100
AcDbEntity
  8
LOGO
 62
     1
100
AcDbLine
 10
1530.124130320375
 20
761.0131255211029
 30
0.0
 11
1530.124130320375
 21
798.3325210251749
 31
0.0
  0
TEXT
  5
E46
330
1F
100
AcDbEntity
  8
LOGO
 62
     6
100
AcDbText
 10
1589.214198780702
 20
764.1230751464413
 30
0.0
 40
6.219899250678731
  1
m/m
  7
CHINESET
 72
     1
 11
1600.173068889041
 21
767.2330247717807
 31
0.0
100
AcDbText
 73
     2
  0
TEXT
  5
E47
330
1F
100
AcDbEntity
  8
LOGO
 62
     6
100
AcDbText
 10
1589.214198780702
 20
789.0026721491563
 30
0.0
 40
6.219899250678731
  1
1 : 1
  7
CHINESET
 72
     1
 11
1600.173068889041
 21
792.1126217744956
 31
0.0
100
AcDbText
 73
     2
  0
LINE
  5
E48
330
1F
100
AcDbEntity
  8
LOGO
 62
     1
100
AcDbLine
 10
1579.883324325805
 20
761.0131255211029
 30
0.0
 11
1579.883324325805
 21
798.3325210251749
 31
0.0
  0
CIRCLE
  5
E49
330
1F
100
AcDbEntity
  8
LOGO
  6
Continuous
 62
     6
100
AcDbCircle
 10
1591.400245761137
 20
779.686127683152
 30
0.0
 40
3.611419904869292
  0
CIRCLE
  5
E4A
330
1F
100
AcDbEntity
  8
LOGO
  6
Continuous
 62
     6
100
AcDbCircle
 10
1591.400245761137
 20
779.686127683152
 30
0.0
 40
2.115972363337473
  0
LINE
  5
E4B
330
1F
100
AcDbEntity
  8
LOGO
 62
     6
100
AcDbLine
 10
1614.09482749478
 20
776.0747077782818
 30
0.0
 11
1614.09482749478
 21
783.2975475880219
 31
0.0
  0
LINE
  5
E4C
330
1F
100
AcDbEntity
  8
LOGO
 62
     6
100
AcDbLine
 10
1602.773233398409
 20
777.5701553198148
 30
0.0
 11
1602.773233398409
 21
781.8021000464898
 31
0.0
  0
LINE
  5
E4D
330
1F
100
AcDbEntity
  8
LOGO
  6
Continuous
 62
     6
100
AcDbLine
 10
1602.773233398409
 20
781.8021000464898
 30
0.0
 11
1614.09482749478
 21
783.2975475880219
 31
0.0
  0
LINE
  5
E4E
330
1F
100
AcDbEntity
  8
LOGO
  6
Continuous
 62
     6
100
AcDbLine
 10
1602.773233398409
 20
777.5701553198148
 30
0.0
 11
1614.09482749478
 21
776.0747077782818
 31
0.0
  0
TEXT
  5
E59
330
1F
100
AcDbEntity
  8
LOGO
 62
     6
100
AcDbText
 10
1535.252770461448
 20
789.0057331231969
 30
407.6419502040589
 40
6.219899250678731
  1
比例 Scale:
 41
0.9
  7
CHINESET
 72
     4
 11
1555.00372732309
 21
792.1126217744956
 31
407.6419502040589
100
AcDbText
  0
TEXT
  5
E5A
330
1F
100
AcDbEntity
  8
LOGO
 62
     6
100
AcDbText
 10
1537.426958458449
 20
776.6503664891285
 30
407.6419502040589
 40
6.219899250678731
  1
投影 View:
 41
0.9
  7
CHINESET
 72
     4
 11
1555.00372732309
 21
779.6728232731382
 31
407.6419502040589
100
AcDbText
  0
TEXT
  5
E5B
330
1F
100
AcDbEntity
  8
LOGO
 62
     6
100
AcDbText
 10
1538.035064679832
 20
764.1230751464413
 30
407.6419502040589
 40
6.219899250678731
  1
單位 Unit:
 41
0.9
  7
CHINESET
 72
     4
 11
1555.00372732309
 21
767.2330247717807
 31
407.6419502040589
100
AcDbText
  0
LWPOLYLINE
  5
E5E
330
1F
100
AcDbEntity
  8
0
 62
     4
100
AcDbPolyline
 90
        4
 70
     1
 43
0.0
 10
1484.511535815398
 20
798.3325210251749
 10
2339.871535815399
 20
798.3325210251749
 10
2339.871535815399
 20
1280.733622097485
 10
1484.511535815398
 20
1280.733622097485
1001
GENIUS_GENREC_14
1002
{
1000
PYDIR
1011
1484.511535815398
1021
1280.733622097485
1031
0.0
1002
}
1002
{
1000
PXDIR
1011
2339.871535815399
1021
798.3325210251749
1031
0.0
1002
}
1002
{
1000
PORI
1011
1484.511535815398
1021
798.3325210251749
1031
0.0
1002
}
1002
{
1000
PINS
1011
1484.511535815398
1021
798.3325210251749
1031
0.0
1002
}
1002
{
1000
PINS2
1011
2339.871535815399
1021
1280.733622097485
1031
0.0
1002
}
1002
{
1000
C
1070
     1
1002
}
1001
GENIUS_GENODEF_13
1002
{
1000
HIER
1070
     0
1002
}
1002
{
1000
MANEDIT
1070
     0
1002
}
1002
{
1000
NOSEL
1070
     0
1002
}
1002
{
1000
BEHIND
1070
     0
1002
}
1002
{
1000
OTHER
1070
     0
1002
}
1002
{
1000
REACTOR
1002
}
1001
GENIUS_GENOBJ-N-REC_13
1002
{
1000
OWNER
1000
GEN
1002
}
  0
SOLID
  5
E5F
330
1F
100
AcDbEntity
  8
LOGO
 62
     5
100
AcDbTrace
 10
1490.964781109767
 20
771.3528226924133
 30
0.0
 11
1493.654102335605
 21
771.3528226924126
 31
0.0
 12
1504.875063312373
 22
796.8550067305248
 32
0.0
 13
1507.564384538211
 23
796.8550067305234
 33
0.0
  0
SOLID
  5
E60
330
1F
100
AcDbEntity
  8
LOGO
 62
     5
100
AcDbTrace
 10
1494.766924911816
 20
771.3528226924133
 30
0.0
 11
1497.456246137653
 21
771.3528226924133
 31
0.0
 12
1507.564384538211
 22
794.8148320074749
 32
0.0
 13
1504.875063312373
 23
784.9539875127384
 33
0.0
  0
SOLID
  5
E61
330
1F
100
AcDbEntity
  8
LOGO
 62
     2
100
AcDbTrace
 10
1493.654102335605
 20
771.3528226924126
 30
0.0
 11
1494.766924911816
 21
771.3528226924133
 31
0.0
 12
1507.564384538211
 22
796.8550067305234
 32
0.0
 13
1508.677207114421
 23
796.8550067305234
 33
0.0
  0
SOLID
  5
E62
330
1F
100
AcDbEntity
  8
LOGO
 62
     5
100
AcDbTrace
 10
1486.653139682401
 20
762.0793012240101
 30
0.0
 11
1487.580491829243
 21
762.0793012240101
 31
0.0
 12
1490.191987654068
 22
766.7160619582114
 32
0.0
 13
1491.119339800907
 23
766.7160619582114
 33
0.0
  0
SOLID
  5
E63
330
1F
100
AcDbEntity
  8
LOGO
 62
     5
100
AcDbTrace
 10
1490.191987654068
 20
766.7160619582114
 30
0.0
 11
1491.119339800907
 21
766.7160619582114
 31
0.0
 12
1490.191987654068
 22
762.0793012240101
 32
0.0
 13
1491.119339800907
 23
762.0793012240101
 33
0.0
  0
SOLID
  5
E64
330
1F
100
AcDbEntity
  8
LOGO
 62
     5
100
AcDbTrace
 10
1490.191987654068
 20
762.0793012240101
 30
0.0
 11
1491.119339800907
 21
762.0793012240101
 31
0.0
 12
1493.730835625736
 22
766.7160619582114
 32
0.0
 13
1494.658187772576
 23
766.7160619582114
 33
0.0
  0
SOLID
  5
E65
330
1F
100
AcDbEntity
  8
LOGO
 62
     5
100
AcDbTrace
 10
1493.730835625736
 20
766.7160619582114
 30
0.0
 11
1494.658187772576
 21
766.7160619582114
 31
0.0
 12
1493.730835625736
 22
762.0793012240101
 32
0.0
 13
1494.658187772576
 23
762.0793012240101
 33
0.0
  0
POLYLINE
  5
E66
330
1F
100
AcDbEntity
  8
LOGO
 62
     5
100
AcDb2dPolyline
 66
     1
 10
0.0
 20
0.0
 30
0.0
 40
0.9288382881013571
 41
0.9288382881013571
  0
VERTEX
  5
E67
330
E66
100
AcDbEntity
  8
LOGO
 62
     5
100
AcDbVertex
100
AcDb2dVertex
 10
1524.815363681335
 20
764.8613576645307
 30
0.0
 42
1.0
  0
VERTEX
  5
E68
330
E66
100
AcDbEntity
  8
LOGO
 62
     5
100
AcDbVertex
100
AcDb2dVertex
 10
1522.028848817031
 20
764.8613576645307
 30
0.0
 42
1.0
  0
SEQEND
  5
E69
330
E66
100
AcDbEntity
  8
LOGO
 62
     5
  0
POLYLINE
  5
E6A
330
1F
100
AcDbEntity
  8
LOGO
 62
     5
100
AcDb2dPolyline
 66
     1
 10
0.0
 20
0.0
 30
0.0
 70
     1
  0
VERTEX
  5
E6B
330
E6A
100
AcDbEntity
  8
LOGO
 62
     5
100
AcDbVertex
100
AcDb2dVertex
 10
1516.776144353635
 20
764.39768159111
 30
0.0
 42
1.000000057330635
  0
VERTEX
  5
E6C
330
E6A
100
AcDbEntity
  8
LOGO
 62
     5
100
AcDbVertex
100
AcDb2dVertex
 10
1519.558200794156
 20
764.39768159111
 30
0.0
 42
1.000000057330635
  0
SEQEND
  5
E6D
330
E6A
100
AcDbEntity
  8
LOGO
 62
     5
  0
CIRCLE
  5
E6E
330
1F
100
AcDbEntity
  8
LOGO
 62
     5
100
AcDbCircle
 10
1518.167172573898
 20
764.39768159111
 30
0.0
 40
1.391028220260592
  0
POLYLINE
  5
E6F
330
1F
100
AcDbEntity
  8
LOGO
 62
     5
100
AcDb2dPolyline
 66
     1
 10
0.0
 20
0.0
 30
0.0
 70
     1
 40
0.9288382881013571
 41
0.9288382881013571
  0
VERTEX
  5
E70
330
E6F
100
AcDbEntity
  8
LOGO
 62
     5
100
AcDbVertex
100
AcDb2dVertex
 10
1516.309495997693
 20
764.39768159111
 30
0.0
 42
1.0
  0
VERTEX
  5
E71
330
E6F
100
AcDbEntity
  8
LOGO
 62
     5
100
AcDbVertex
100
AcDb2dVertex
 10
1520.024849150099
 20
764.39768159111
 30
0.0
 42
1.0
  0
SEQEND
  5
E72
330
E6F
100
AcDbEntity
  8
LOGO
 62
     5
  0
LINE
  5
E73
330
1F
100
AcDbEntity
  8
LOGO
 62
     5
100
AcDbLine
 10
1525.276810542862
 20
762.0793012240101
 30
0.0
 11
1525.276810542862
 21
764.8613576645307
 31
0.0
  0
SOLID
  5
E74
330
1F
100
AcDbEntity
  8
LOGO
 62
     5
100
AcDbTrace
 10
1519.558108058945
 20
766.7160619582114
 30
0.0
 11
1520.485460205784
 21
766.7160619582114
 31
0.0
 12
1519.558108058945
 22
762.0793012240101
 32
0.0
 13
1520.485460205784
 23
762.0793012240101
 33
0.0
  0
SOLID
  5
E75
330
1F
100
AcDbEntity
  8
LOGO
 62
     5
100
AcDbTrace
 10
1521.567401955501
 20
762.0793012240101
 30
0.0
 11
1522.494754102342
 21
762.0793012240101
 31
0.0
 12
1521.567401955501
 22
766.7160619582114
 32
0.0
 13
1522.494754102342
 23
766.7160619582114
 33
0.0
  0
SOLID
  5
E76
330
1F
100
AcDbEntity
  8
LOGO
 62
     5
100
AcDbTrace
 10
1524.349458396024
 20
764.8613576645307
 30
0.0
 11
1525.276810542862
 21
764.8613576645307
 31
0.0
 12
1524.349458396024
 22
762.0793012240101
 32
0.0
 13
1525.276810542862
 23
762.0793012240101
 33
0.0
  0
SOLID
  5
E77
330
1F
100
AcDbEntity
  8
LOGO
 62
     5
100
AcDbTrace
 10
1521.474666740816
 20
794.8148320074749
 30
0.0
 11
1518.78534551498
 21
784.9539875127384
 31
0.0
 12
1521.474666740816
 22
771.3528226924126
 32
0.0
 13
1518.78534551498
 23
771.3528226924126
 33
0.0
  0
SOLID
  5
E78
330
1F
100
AcDbEntity
  8
LOGO
 62
     5
100
AcDbTrace
 10
1522.587489317026
 20
771.3528226924126
 30
0.0
 11
1525.276810542862
 21
771.3528226924126
 31
0.0
 12
1522.587489317026
 22
796.8550067305234
 32
0.0
 13
1525.276810542862
 23
796.8550067305248
 33
0.0
  0
SOLID
  5
E79
330
1F
100
AcDbEntity
  8
LOGO
 62
     2
100
AcDbTrace
 10
1521.474666740816
 20
796.8550067305248
 30
0.0
 11
1522.587489317026
 21
796.8550067305234
 31
0.0
 12
1521.474666740816
 22
771.3528226924126
 32
0.0
 13
1522.587489317026
 23
771.3528226924126
 33
0.0
  0
POLYLINE
  5
E7A
330
1F
100
AcDbEntity
  8
LOGO
 62
     5
100
AcDb2dPolyline
 66
     1
 10
0.0
 20
0.0
 30
0.0
 40
0.9288382881013571
 41
0.9288382881013571
  0
VERTEX
  5
E7B
330
E7A
100
AcDbEntity
  8
LOGO
 62
     5
100
AcDbVertex
100
AcDb2dVertex
 10
1511.523254419813
 20
764.8613576645307
 30
0.0
 42
1.0
  0
VERTEX
  5
E7C
330
E7A
100
AcDbEntity
  8
LOGO
 62
     5
100
AcDbVertex
100
AcDb2dVertex
 10
1508.736739555509
 20
764.8613576645307
 30
0.0
 42
1.0
  0
SEQEND
  5
E7D
330
E7A
100
AcDbEntity
  8
LOGO
 62
     5
  0
POLYLINE
  5
E7E
330
1F
100
AcDbEntity
  8
LOGO
 62
     5
100
AcDb2dPolyline
 66
     1
 10
0.0
 20
0.0
 30
0.0
 40
0.9288382881013571
 41
0.9288382881013571
  0
VERTEX
  5
E7F
330
E7E
100
AcDbEntity
  8
LOGO
 62
     5
100
AcDbVertex
100
AcDb2dVertex
 10
1514.305310860332
 20
764.8613576645307
 30
0.0
 42
1.0
  0
VERTEX
  5
E80
330
E7E
100
AcDbEntity
  8
LOGO
 62
     5
100
AcDbVertex
100
AcDb2dVertex
 10
1511.518795996028
 20
764.8613576645307
 30
0.0
 42
1.0
  0
SEQEND
  5
E81
330
E7E
100
AcDbEntity
  8
LOGO
 62
     5
  0
POLYLINE
  5
E82
330
1F
100
AcDbEntity
  8
LOGO
 62
     5
100
AcDb2dPolyline
 66
     1
 10
0.0
 20
0.0
 30
0.0
 40
0.9288382881013571
 41
0.9288382881013571
  0
VERTEX
  5
E83
330
E82
100
AcDbEntity
  8
LOGO
 62
     5
100
AcDbVertex
100
AcDb2dVertex
 10
1501.01320159881
 20
764.8613576645307
 30
0.0
 42
1.0
  0
VERTEX
  5
E84
330
E82
100
AcDbEntity
  8
LOGO
 62
     5
100
AcDbVertex
100
AcDb2dVertex
 10
1498.226686734507
 20
764.8613576645307
 30
0.0
 42
1.0
  0
SEQEND
  5
E85
330
E82
100
AcDbEntity
  8
LOGO
 62
     5
  0
SOLID
  5
E86
330
1F
100
AcDbEntity
  8
LOGO
 62
     5
100
AcDbTrace
 10
1497.765239872979
 20
766.7160619582114
 30
0.0
 11
1498.692592019817
 21
766.7160619582114
 31
0.0
 12
1497.765239872979
 22
762.0793012240101
 32
0.0
 13
1498.692592019817
 23
762.0793012240101
 33
0.0
  0
SOLID
  5
E87
330
1F
100
AcDbEntity
  8
LOGO
 62
     5
100
AcDbTrace
 10
1500.5472963135
 20
764.8613576645307
 30
0.0
 11
1501.474648460341
 21
764.8613576645307
 31
0.0
 12
1500.5472963135
 22
762.0793012240101
 32
0.0
 13
1501.474648460341
 23
762.0793012240101
 33
0.0
  0
POLYLINE
  5
E88
330
1F
100
AcDbEntity
  8
LOGO
 62
     5
100
AcDb2dPolyline
 66
     1
 10
0.0
 20
0.0
 30
0.0
 70
     1
 40
0.9288382881013571
 41
0.9288382881013571
  0
VERTEX
  5
E89
330
E88
100
AcDbEntity
  8
LOGO
 62
     5
100
AcDbVertex
100
AcDb2dVertex
 10
1503.01738673617
 20
764.39768159111
 30
0.0
 42
1.0
  0
VERTEX
  5
E8A
330
E88
100
AcDbEntity
  8
LOGO
 62
     5
100
AcDbVertex
100
AcDb2dVertex
 10
1506.732739888577
 20
764.39768159111
 30
0.0
 42
1.0
  0
SEQEND
  5
E8B
330
E88
100
AcDbEntity
  8
LOGO
 62
     5
  0
SOLID
  5
E8C
330
1F
100
AcDbEntity
  8
LOGO
 62
     5
100
AcDbTrace
 10
1506.265998797421
 20
768.1070901784726
 30
0.0
 11
1507.193350944261
 21
768.1070901784726
 31
0.0
 12
1506.265998797421
 22
762.0793012240101
 32
0.0
 13
1507.193350944261
 23
762.0793012240101
 33
0.0
  0
SOLID
  5
E8D
330
1F
100
AcDbEntity
  8
LOGO
 62
     5
100
AcDbTrace
 10
1508.275292693982
 20
766.7160619582114
 30
0.0
 11
1509.20264484082
 21
766.7160619582114
 31
0.0
 12
1508.275292693982
 22
762.0793012240101
 32
0.0
 13
1509.20264484082
 23
762.0793012240101
 33
0.0
  0
SOLID
  5
E8E
330
1F
100
AcDbEntity
  8
LOGO
 62
     5
100
AcDbTrace
 10
1511.057349134501
 20
764.8613576645307
 30
0.0
 11
1511.984701281342
 21
764.8613576645307
 31
0.0
 12
1511.057349134501
 22
762.0793012240101
 32
0.0
 13
1511.984701281342
 23
762.0793012240101
 33
0.0
  0
SOLID
  5
E8F
330
1F
100
AcDbEntity
  8
LOGO
 62
     5
100
AcDbTrace
 10
1513.839405575022
 20
764.8613576645307
 30
0.0
 11
1514.766757721862
 21
764.8613576645307
 31
0.0
 12
1513.839405575022
 22
762.0793012240086
 32
0.0
 13
1514.766757721862
 23
762.0793012240086
 33
0.0
  0
SOLID
  5
E90
330
1F
100
AcDbEntity
  8
LOGO
 62
     5
100
AcDbTrace
 10
1495.755945976419
 20
767.3652084609998
 30
0.0
 11
1496.683298123261
 21
767.3652084609998
 31
0.0
 12
1495.755945976419
 22
768.1070901784726
 32
0.0
 13
1496.683298123261
 23
768.1070901784726
 33
0.0
  0
SOLID
  5
E91
330
1F
100
AcDbEntity
  8
LOGO
 62
     5
100
AcDbTrace
 10
1495.755945976419
 20
766.7160619582114
 30
0.0
 11
1496.683298123261
 21
766.7160619582114
 31
0.0
 12
1495.755945976419
 22
762.0793012240086
 32
0.0
 13
1496.683298123261
 23
762.0793012240101
 33
0.0
  0
SOLID
  5
E92
330
1F
100
AcDbEntity
  8
LOGO
 62
     5
100
AcDbTrace
 10
1504.875063312373
 20
771.3528226924133
 30
0.0
 11
1507.564384538211
 21
771.3528226924133
 31
0.0
 12
1504.875063312373
 22
784.9539875127384
 32
0.0
 13
1507.564384538211
 23
794.8148320074749
 33
0.0
  0
SOLID
  5
E93
330
1F
100
AcDbEntity
  8
LOGO
 62
     5
100
AcDbTrace
 10
1508.677207114421
 20
796.8550067305234
 30
0.0
 11
1511.366528340257
 21
796.8550067305248
 31
0.0
 12
1508.677207114421
 22
773.3929974154619
 32
0.0
 13
1511.366528340257
 23
783.2538419101983
 33
0.0
  0
SOLID
  5
E94
330
1F
100
AcDbEntity
  8
LOGO
 62
     2
100
AcDbTrace
 10
1507.564384538211
 20
796.8550067305234
 30
0.0
 11
1508.677207114421
 21
796.8550067305234
 31
0.0
 12
1507.564384538211
 22
771.3528226924133
 32
0.0
 13
1508.677207114421
 23
771.3528226924133
 33
0.0
  0
SOLID
  5
E95
330
1F
100
AcDbEntity
  8
LOGO
 62
     5
100
AcDbTrace
 10
1508.677207114421
 20
773.3929974154619
 30
0.0
 11
1511.366528340257
 21
783.2538419101983
 31
0.0
 12
1521.474666740816
 22
796.8550067305248
 32
0.0
 13
1518.78534551498
 23
796.8550067305248
 33
0.0
  0
SOLID
  5
E96
330
1F
100
AcDbEntity
  8
LOGO
 62
     5
100
AcDbTrace
 10
1508.677207114421
 20
771.3528226924133
 30
0.0
 11
1511.366528340257
 21
771.3528226924133
 31
0.0
 12
1521.474666740816
 22
794.8148320074749
 32
0.0
 13
1518.78534551498
 23
784.9539875127384
 33
0.0
  0
SOLID
  5
E97
330
1F
100
AcDbEntity
  8
LOGO
 62
     2
100
AcDbTrace
 10
1507.564384538211
 20
771.3528226924133
 30
0.0
 11
1508.677207114421
 21
771.3528226924133
 31
0.0
 12
1521.474666740816
 22
796.8550067305248
 32
0.0
 13
1522.587489317026
 23
796.8550067305234
 33
0.0
  0
LWPOLYLINE
  5
E9B
330
1F
100
AcDbEntity
  8
0
 62
     1
100
AcDbPolyline
 90
        4
 70
     1
 43
0.0
 10
1484.511535815398
 20
798.3325210251749
 10
2339.871535815399
 20
798.3325210251749
 10
2339.871535815399
 20
736.1335285183861
 10
1484.511535815398
 20
736.1335285183861
1001
GENIUS_GENREC_14
1002
{
1000
PYDIR
1011
1484.511535815398
1021
736.1335285183861
1031
0.0
1002
}
1002
{
1000
PXDIR
1011
2339.871535815399
1021
798.3325210251749
1031
0.0
1002
}
1002
{
1000
PORI
1011
1484.511535815398
1021
798.3325210251749
1031
0.0
1002
}
1002
{
1000
PINS
1011
1484.511535815398
1021
798.3325210251749
1031
0.0
1002
}
1002
{
1000
PINS2
1011
2339.871535815399
1021
736.1335285183861
1031
0.0
1002
}
1002
{
1000
C
1070
     1
1002
}
1001
GENIUS_GENOBJ-N-REC_13
1002
{
1000
OWNER
1000
GEN
1002
}
1001
GENIUS_GENODEF_13
1002
{
1000
HIER
1070
     0
1002
}
1002
{
1000
MANEDIT
1070
     0
1002
}
1002
{
1000
NOSEL
1070
     0
1002
}
1002
{
1000
BEHIND
1070
     0
1002
}
1002
{
1000
OTHER
1070
     0
1002
}
1002
{
1000
REACTOR
1002
}
  0
LINE
  5
ED2
330
1F
100
AcDbEntity
  8
LOGO
 62
     6
100
AcDbLine
 10
1748.367267996515
 20
764.1230751464422
 30
0.0
 11
1748.367267996515
 21
741.3167778939525
 31
0.0
  0
LINE
  5
ED3
330
1F
100
AcDbEntity
  8
LOGO
 62
     6
100
AcDbLine
 10
1706.90127299199
 20
764.1230751464422
 30
0.0
 11
1706.90127299199
 21
741.3167778939525
 31
0.0
  0
LINE
  5
ED4
330
1F
100
AcDbEntity
  8
LOGO
 62
     6
100
AcDbLine
 10
1748.367267996515
 20
741.3167778939525
 30
0.0
 11
1706.90127299199
 21
741.3167778939525
 31
0.0
  0
LINE
  5
ED5
330
1F
100
AcDbEntity
  8
LOGO
 62
     6
100
AcDbLine
 10
1755.376334789136
 20
792.1126217744956
 30
0.0
 11
1706.90127299199
 21
792.1126217744956
 31
0.0
  0
LINE
  5
ED6
330
1F
100
AcDbEntity
  8
LOGO
 62
     6
100
AcDbLine
 10
1755.376334789136
 20
773.4529240224599
 30
0.0
 11
1706.90127299199
 21
773.4529240224599
 31
0.0
  0
LINE
  5
ED7
330
1F
100
AcDbEntity
  8
LOGO
 62
     6
100
AcDbLine
 10
1706.90127299199
 20
792.1126217744956
 30
0.0
 11
1706.90127299199
 21
773.4529240224599
 31
0.0
  0
LINE
  5
ED8
330
1F
100
AcDbEntity
  8
LOGO
 62
     6
100
AcDbLine
 10
1755.376334789136
 20
792.1126217744956
 30
0.0
 11
1755.376334789136
 21
773.4529240224599
 31
0.0
  0
LINE
  5
ED9
330
1F
100
AcDbEntity
  8
LOGO
 62
     6
100
AcDbLine
 10
1729.797753936319
 20
773.4529240224599
 30
0.0
 11
1729.797753936319
 21
764.1230751464422
 31
0.0
  0
TEXT
  5
EDA
330
1F
100
AcDbEntity
  8
LOGO
  6
Continuous
 62
     7
100
AcDbText
 10
1710.216809045456
 20
777.3481086477218
 30
0.0
 40
10.8864
  1
MCGD
  7
CHINESET
100
AcDbText
  0
LINE
  5
EDB
330
1F
100
AcDbEntity
  8
LOGO
 62
     6
100
AcDbLine
 10
1748.367267996515
 20
764.1230751464422
 30
0.0
 11
1706.90127299199
 21
764.1230751464422
 31
0.0
  0
TEXT
  5
EDC
330
1F
100
AcDbEntity
  8
LOGO
  6
Continuous
 62
     6
100
AcDbText
 10
1718.169373220513
 20
744.5358383892645
 30
407.6419502040589
 40
4.665599999999999
  1
Model
  7
CHINESET
100
AcDbText
  0
TEXT
  5
EDD
330
1F
100
AcDbEntity
  8
LOGO
 62
     6
100
AcDbText
 10
1718.965748458927
 20
753.1848552806995
 30
407.6419502040589
 40
7.775999999999999
  1
型號
  7
CHINESET
100
AcDbText
  0
LINE
  5
EDE
330
1F
100
AcDbEntity
  8
LOGO
  6
Continuous
 62
     7
100
AcDbLine
 10
1758.286768753623
 20
782.7166773001111
 30
0.0
 11
1766.526210418804
 21
782.7166773001111
 31
0.0
  0
LINE
  5
EDF
330
1F
100
AcDbEntity
  8
LOGO
 62
     6
100
AcDbLine
 10
1811.182848069974
 20
764.1230751464422
 30
0.0
 11
1811.182848069974
 21
741.3167778939525
 31
0.0
  0
LINE
  5
EE0
330
1F
100
AcDbEntity
  8
LOGO
 62
     6
100
AcDbLine
 10
1757.646200976676
 20
764.1230751464422
 30
0.0
 11
1757.646200976676
 21
741.3167778939525
 31
0.0
  0
LINE
  5
EE1
330
1F
100
AcDbEntity
  8
LOGO
 62
     6
100
AcDbLine
 10
1811.182848069974
 20
741.3167778939525
 30
0.0
 11
1757.646200976676
 21
741.3167778939525
 31
0.0
  0
LINE
  5
EE2
330
1F
100
AcDbEntity
  8
LOGO
 62
     6
100
AcDbLine
 10
1824.054352442765
 20
792.1126217744956
 30
0.0
 11
1769.12531993728
 21
792.1126217744956
 31
0.0
  0
LINE
  5
EE3
330
1F
100
AcDbEntity
  8
LOGO
 62
     6
100
AcDbLine
 10
1824.054352442765
 20
773.4529240224599
 30
0.0
 11
1769.12531993728
 21
773.4529240224599
 31
0.0
  0
LINE
  5
EE4
330
1F
100
AcDbEntity
  8
LOGO
 62
     6
100
AcDbLine
 10
1769.12531993728
 20
792.1126217744956
 30
0.0
 11
1769.12531993728
 21
773.4529240224599
 31
0.0
  0
LINE
  5
EE5
330
1F
100
AcDbEntity
  8
LOGO
 62
     6
100
AcDbLine
 10
1824.054352442765
 20
792.1126217744956
 30
0.0
 11
1824.054352442765
 21
773.4529240224599
 31
0.0
  0
LINE
  5
EE6
330
1F
100
AcDbEntity
  8
LOGO
 62
     6
100
AcDbLine
 10
1793.780188506914
 20
773.4529240224599
 30
0.0
 11
1793.780188506914
 21
764.1230751464422
 31
0.0
  0
TEXT
  5
EE7
330
1F
100
AcDbEntity
  8
LOGO
  6
Continuous
 62
     7
100
AcDbText
 10
1772.158581081928
 20
777.3481086477218
 30
0.0
 40
10.8864
  1
03/23
  7
CHINESET
100
AcDbText
  0
LINE
  5
EE8
330
1F
100
AcDbEntity
  8
LOGO
 62
     6
100
AcDbLine
 10
1811.182848069974
 20
764.1230751464422
 30
0.0
 11
1757.646200976676
 21
764.1230751464422
 31
0.0
  0
LINE
  5
EE9
330
1F
100
AcDbEntity
  8
LOGO
  6
Continuous
 62
     7
100
AcDbLine
 10
1828.415622265886
 20
782.7166773001111
 30
0.0
 11
1836.655063931067
 21
782.7166773001111
 31
0.0
  0
LINE
  5
EEA
330
1F
100
AcDbEntity
  8
LOGO
 62
     6
100
AcDbLine
 10
1866.421879042827
 20
764.1230751464422
 30
0.0
 11
1866.421879042827
 21
741.3167778939525
 31
0.0
  0
LINE
  5
EEB
330
1F
100
AcDbEntity
  8
LOGO
 62
     6
100
AcDbLine
 10
1824.955884038302
 20
764.1230751464422
 30
0.0
 11
1824.955884038302
 21
741.3167778939525
 31
0.0
  0
LINE
  5
EEC
330
1F
100
AcDbEntity
  8
LOGO
 62
     6
100
AcDbLine
 10
1866.421879042827
 20
741.3167778939525
 30
0.0
 11
1824.955884038302
 21
741.3167778939525
 31
0.0
  0
LINE
  5
EED
330
1F
100
AcDbEntity
  8
LOGO
 62
     6
100
AcDbLine
 10
1862.784227556367
 20
792.1126217744956
 30
0.0
 11
1840.221750937226
 21
792.1126217744956
 31
0.0
  0
LINE
  5
EEE
330
1F
100
AcDbEntity
  8
LOGO
 62
     6
100
AcDbLine
 10
1862.784227556367
 20
773.4529240224599
 30
0.0
 11
1840.221750937226
 21
773.4529240224599
 31
0.0
  0
LINE
  5
EEF
330
1F
100
AcDbEntity
  8
LOGO
 62
     6
100
AcDbLine
 10
1840.221750937226
 20
792.1126217744956
 30
0.0
 11
1840.221750937226
 21
773.4529240224599
 31
0.0
  0
LINE
  5
EF0
330
1F
100
AcDbEntity
  8
LOGO
 62
     6
100
AcDbLine
 10
1862.784227556367
 20
792.1126217744956
 30
0.0
 11
1862.784227556367
 21
773.4529240224599
 31
0.0
  0
LINE
  5
EF1
330
1F
100
AcDbEntity
  8
LOGO
 62
     6
100
AcDbLine
 10
1851.502989246797
 20
773.4529240224599
 30
0.0
 11
1851.502989246797
 21
764.1230751464422
 31
0.0
  0
TEXT
  5
EF2
330
1F
100
AcDbEntity
  8
LOGO
  6
Continuous
 62
     7
100
AcDbText
 10
1842.705306812024
 20
777.3481086477218
 30
0.0
 40
10.8864
  1
25
  7
CHINESET
100
AcDbText
  0
LINE
  5
EF3
330
1F
100
AcDbEntity
  8
LOGO
 62
     6
100
AcDbLine
 10
1866.421879042827
 20
764.1230751464422
 30
0.0
 11
1824.955884038302
 21
764.1230751464422
 31
0.0
  0
LINE
  5
EF4
330
1F
100
AcDbEntity
  8
LOGO
  6
Continuous
 62
     7
100
AcDbLine
 10
1867.408099372242
 20
782.7166773001111
 30
0.0
 11
1875.647541037426
 21
782.7166773001111
 31
0.0
  0
LINE
  5
EF5
330
1F
100
AcDbEntity
  8
LOGO
 62
     6
100
AcDbLine
 10
1904.114022976511
 20
764.1230751464422
 30
0.0
 11
1904.114022976511
 21
741.3167778939525
 31
0.0
  0
LINE
  5
EF6
330
1F
100
AcDbEntity
  8
LOGO
 62
     6
100
AcDbLine
 10
1870.333359490094
 20
764.1230751464422
 30
0.0
 11
1870.333359490094
 21
741.3167778939525
 31
0.0
  0
LINE
  5
EF7
330
1F
100
AcDbEntity
  8
LOGO
 62
     6
100
AcDbLine
 10
1904.114022976511
 20
741.3167778939525
 30
0.0
 11
1870.333359490094
 21
741.3167778939525
 31
0.0
  0
LINE
  5
EF8
330
1F
100
AcDbEntity
  8
LOGO
 62
     6
100
AcDbLine
 10
1900.972275405374
 20
792.1126217744956
 30
0.0
 11
1878.246650555899
 21
792.1126217744956
 31
0.0
  0
LINE
  5
EF9
330
1F
100
AcDbEntity
  8
LOGO
 62
     6
100
AcDbLine
 10
1900.972275405374
 20
773.4529240224599
 30
0.0
 11
1878.246650555899
 21
773.4529240224599
 31
0.0
  0
LINE
  5
EFA
330
1F
100
AcDbEntity
  8
LOGO
 62
     6
100
AcDbLine
 10
1878.246650555899
 20
792.1126217744956
 30
0.0
 11
1878.246650555899
 21
773.4529240224599
 31
0.0
  0
LINE
  5
EFB
330
1F
100
AcDbEntity
  8
LOGO
 62
     6
100
AcDbLine
 10
1900.972275405374
 20
792.1126217744956
 30
0.0
 11
1900.972275405374
 21
773.4529240224599
 31
0.0
  0
LINE
  5
EFC
330
1F
100
AcDbEntity
  8
LOGO
 62
     6
100
AcDbLine
 10
1889.609462980636
 20
773.4529240224599
 30
0.0
 11
1889.609462980636
 21
764.1230751464422
 31
0.0
  0
TEXT
  5
EFD
330
1F
100
AcDbEntity
  8
LOGO
  6
Continuous
 62
     7
100
AcDbText
 10
1880.62985707573
 20
777.3481086477218
 30
0.0
 40
10.8864
  1
30
  7
CHINESET
100
AcDbText
  0
LINE
  5
EFE
330
1F
100
AcDbEntity
  8
LOGO
 62
     6
100
AcDbLine
 10
1904.114022976511
 20
764.1230751464422
 30
0.0
 11
1870.333359490094
 21
764.1230751464422
 31
0.0
  0
TEXT
  5
EFF
330
1F
100
AcDbEntity
  8
LOGO
  6
Continuous
 62
     6
100
AcDbText
 10
1762.131437665421
 20
744.5358383892645
 30
407.6419502040589
 40
4.665599999999999
  1
Acting type
  7
CHINESET
100
AcDbText
  0
TEXT
  5
F00
330
1F
100
AcDbEntity
  8
LOGO
 62
     6
100
AcDbText
 10
1765.310265886075
 20
753.1848552806995
 30
407.6419502040589
 40
7.775999999999999
  1
作動型式
  7
CHINESET
100
AcDbText
  0
TEXT
  5
F01
330
1F
100
AcDbEntity
  8
LOGO
  6
Continuous
 62
     6
100
AcDbText
 10
1829.024610004937
 20
744.5358383892645
 30
407.6419502040589
 40
4.665599999999999
  1
Tube I.D.
  7
CHINESET
100
AcDbText
  0
TEXT
  5
F02
330
1F
100
AcDbEntity
  8
LOGO
 62
     6
100
AcDbText
 10
1835.522535418562
 20
753.1848552806995
 30
407.6419502040589
 40
7.775999999999999
  1
內徑
  7
CHINESET
100
AcDbText
  0
TEXT
  5
F03
330
1F
100
AcDbEntity
  8
LOGO
  6
Continuous
 62
     6
100
AcDbText
 10
1875.733954222461
 20
744.5358383892645
 30
407.6419502040589
 40
4.665599999999999
  1
Stroke
  7
CHINESET
100
AcDbText
  0
TEXT
  5
F04
330
1F
100
AcDbEntity
  8
LOGO
 62
     6
100
AcDbText
 10
1878.912782443115
 20
753.1848552806995
 30
407.6419502040589
 40
7.775999999999999
  1
行程
  7
CHINESET
100
AcDbText
  0
TEXT
  5
F14
330
1F
100
AcDbEntity
  8
0
100
AcDbText
 10
1625.031032776173
 20
739.4424903702001
 30
0.0
 40
6.220799999999999
  1
1050801
 41
0.8
  7
CHINESET
 72
     1
 11
1639.368495633316
 21
739.4424903702001
 31
0.0
100
AcDbText
  0
LINE
  5
F15
330
1F
100
AcDbEntity
  8
LOGO
 62
     1
100
AcDbLine
 10
1658.674119330328
 20
748.5733270197458
 30
0.0
 11
1658.67411933033
 21
736.1335285183878
 31
0.0
  0
LINE
  5
F16
330
1F
100
AcDbEntity
  8
LOGO
 62
     1
100
AcDbLine
 10
1658.674119330328
 20
748.5733270197458
 30
0.0
 11
1621.34931933033
 21
748.5733270197458
 31
0.0
  0
LINE
  5
1CA3
330
1F
100
AcDbEntity
  8
0
 62
     4
100
AcDbLine
 10
1912.191535815398
 20
1280.733622097485
 30
0.0
 11
1912.191535815398
 21
798.3325210251749
 31
0.0
  0
TEXT
  5
1CA4
330
1F
100
AcDbEntity
  8
0
100
AcDbText
 10
1504.632351967426
 20
1252.208890199344
 30
0.0
 40
9.331199999999999
  1
MCGD-03
 41
0.8
  7
CHINESET
100
AcDbText
  0
TEXT
  5
1CA7
330
1F
100
AcDbEntity
  8
0
100
AcDbText
 10
1932.312351967426
 20
1252.208890199344
 30
0.0
 40
9.331199999999999
  1
MCGD-23
 41
0.8
  7
CHINESET
100
AcDbText
  0
TEXT
  5
2744
330
1F
100
AcDbEntity
  8
0
100
AcDbText
 10
1504.632351967426
 20
1234.411669930893
 30
0.0
 40
9.331199999999999
  1
Stroke=30
 41
0.8
  7
CHINESET
100
AcDbText
  0
TEXT
  5
2745
330
1F
100
AcDbEntity
  8
0
100
AcDbText
 10
1932.312351967426
 20
1234.411669930893
 30
0.0
 40
9.331199999999999
  1
Stroke=30
 41
0.8
  7
CHINESET
100
AcDbText
  0
LINE
  5
3F05
330
1F
100
AcDbEntity
  8
AM_VIS
100
AcDbLine
 10
1735.018731282432
 20
1020.74692084177
 30
0.0
 11
1735.018731282432
 21
924.7469208417699
 31
0.0
  0
LINE
  5
3F06
330
1F
100
AcDbEntity
  8
AM_VIS
100
AcDbLine
 10
1735.018731282432
 20
1020.74692084177
 30
0.0
 11
1747.018731282432
 21
1020.74692084177
 31
0.0
  0
LINE
  5
3F07
330
1F
100
AcDbEntity
  8
AM_VIS
100
AcDbLine
 10
1747.018731282432
 20
924.7469208417699
 30
0.0
 11
1747.018731282432
 21
1020.74692084177
 31
0.0
  0
LINE
  5
3F08
330
1F
100
AcDbEntity
  8
AM_VIS
100
AcDbLine
 10
1735.018731282432
 20
924.7469208417699
 30
0.0
 11
1747.018731282432
 21
924.7469208417699
 31
0.0
  0
CIRCLE
  5
3F09
330
1F
100
AcDbEntity
  8
AM_VIS
100
AcDbCircle
 10
1741.018731282432
 20
994.7469208417698
 30
0.0
 40
2.799999999999999
  0
CIRCLE
  5
3F0A
330
1F
100
AcDbEntity
  8
AM_VIS
100
AcDbCircle
 10
1741.018731282432
 20
950.7469208417699
 30
0.0
 40
2.799999999999999
  0
CIRCLE
  5
3F0B
330
1F
100
AcDbEntity
  8
AM_VIS
100
AcDbCircle
 10
1741.018731282432
 20
930.7469208417698
 30
0.0
 40
3.0
  0
CIRCLE
  5
3F0C
330
1F
100
AcDbEntity
  8
AM_VIS
100
AcDbCircle
 10
1741.018731282432
 20
1014.74692084177
 30
0.0
 40
3.0
  0
LINE
  5
3F0D
330
1F
100
AcDbEntity
  8
AM_VIS
100
AcDbLine
 10
1620.018731282432
 20
1020.74692084177
 30
0.0
 11
1620.018731282432
 21
924.7469208417699
 31
0.0
  0
LINE
  5
3F0E
330
1F
100
AcDbEntity
  8
AM_VIS
100
AcDbLine
 10
1620.018731282432
 20
1020.74692084177
 30
0.0
 11
1632.018731282432
 21
1020.74692084177
 31
0.0
  0
LINE
  5
3F0F
330
1F
100
AcDbEntity
  8
AM_VIS
100
AcDbLine
 10
1632.018731282432
 20
924.7469208417699
 30
0.0
 11
1632.018731282432
 21
1020.74692084177
 31
0.0
  0
LINE
  5
3F10
330
1F
100
AcDbEntity
  8
AM_VIS
100
AcDbLine
 10
1620.018731282432
 20
924.7469208417699
 30
0.0
 11
1632.018731282432
 21
924.7469208417699
 31
0.0
  0
CIRCLE
  5
3F11
330
1F
100
AcDbEntity
  8
AM_VIS
100
AcDbCircle
 10
1626.018731282432
 20
994.7469208417698
 30
0.0
 40
2.799999999999999
  0
CIRCLE
  5
3F12
330
1F
100
AcDbEntity
  8
AM_VIS
100
AcDbCircle
 10
1626.018731282432
 20
950.7469208417699
 30
0.0
 40
2.799999999999999
  0
CIRCLE
  5
3F13
330
1F
100
AcDbEntity
  8
AM_VIS
100
AcDbCircle
 10
1626.018731282432
 20
930.7469208417698
 30
0.0
 40
3.0
  0
CIRCLE
  5
3F14
330
1F
100
AcDbEntity
  8
AM_VIS
100
AcDbCircle
 10
1626.018731282432
 20
1014.74692084177
 30
0.0
 40
3.0
  0
LINE
  5
3F15
330
1F
100
AcDbEntity
  8
AM_VIS
100
AcDbLine
 10
1634.018731282432
 20
976.0469208417699
 30
0.0
 11
1703.018731282432
 21
976.0469208417699
 31
0.0
  0
LINE
  5
3F16
330
1F
100
AcDbEntity
  8
AM_VIS
100
AcDbLine
 10
1686.617521368901
 20
959.3469208417699
 30
0.0
 11
1703.018731282432
 21
959.3469208417699
 31
0.0
  0
LINE
  5
3F17
330
1F
100
AcDbEntity
  8
AM_VIS
100
AcDbLine
 10
1634.018731282432
 20
966.0469208417698
 30
0.0
 11
1703.018731282432
 21
966.0469208417698
 31
0.0
  0
LINE
  5
3F18
330
1F
100
AcDbEntity
  8
AM_VIS
100
AcDbLine
 10
1634.018731282432
 20
969.4469208417698
 30
0.0
 11
1703.018731282432
 21
969.4469208417698
 31
0.0
  0
LINE
  5
3F19
330
1F
100
AcDbEntity
  8
AM_VIS
100
AcDbLine
 10
1634.018731282432
 20
959.3469208417699
 30
0.0
 11
1650.419941195962
 21
959.3469208417699
 31
0.0
  0
ARC
  5
3F1A
330
1F
100
AcDbEntity
  8
AM_VIS
100
AcDbCircle
 10
1653.518731282432
 20
955.7469208417698
 30
0.0
 40
4.75
100
AcDbArc
 50
130.7210475921892
 51
148.2431361407092
  0
ARC
  5
3F1B
330
1F
100
AcDbEntity
  8
AM_VIS
100
AcDbCircle
 10
1653.518731282432
 20
955.7469208417698
 30
0.0
 40
4.75
100
AcDbArc
 50
31.75686385929071
 51
49.27895240781078
  0
LINE
  5
3F1C
330
1F
100
AcDbEntity
  8
AM_VIS
100
AcDbLine
 10
1656.6175213689
 20
959.3469208417699
 30
0.0
 11
1680.419941195962
 21
959.3469208417699
 31
0.0
  0
LINE
  5
3F1D
330
1F
100
AcDbEntity
  8
AM_VIS
100
AcDbLine
 10
1703.018731282432
 20
958.2469208417698
 30
0.0
 11
1687.557604887782
 21
958.2469208417698
 31
0.0
  0
LINE
  5
3F1E
330
1F
100
AcDbEntity
  8
AM_VIS
100
AcDbLine
 10
1634.018731282432
 20
924.7469208417699
 30
0.0
 11
1703.018731282432
 21
924.7469208417699
 31
0.0
  0
LINE
  5
3F1F
330
1F
100
AcDbEntity
  8
AM_VIS
100
AcDbLine
 10
1649.479857677081
 20
958.2469208417698
 30
0.0
 11
1634.018731282432
 21
958.2469208417698
 31
0.0
  0
LINE
  5
3F20
330
1F
100
AcDbEntity
  8
AM_VIS
100
AcDbLine
 10
1679.479857677081
 20
958.2469208417698
 30
0.0
 11
1657.557604887782
 21
958.2469208417698
 31
0.0
  0
ARC
  5
3F21
330
1F
100
AcDbEntity
  8
AM_VIS
100
AcDbCircle
 10
1683.518731282432
 20
955.7469208417698
 30
0.0
 40
4.75
100
AcDbArc
 50
130.7210475921892
 51
148.2431361407092
  0
ARC
  5
3F22
330
1F
100
AcDbEntity
  8
AM_VIS
100
AcDbCircle
 10
1683.518731282432
 20
955.7469208417698
 30
0.0
 40
4.75
100
AcDbArc
 50
31.75686385929071
 51
49.27895240781078
  0
LINE
  5
3F23
330
1F
100
AcDbEntity
  8
AM_VIS
100
AcDbLine
 10
1634.018731282432
 20
987.2469208417699
 30
0.0
 11
1649.479857677081
 21
987.2469208417699
 31
0.0
  0
LINE
  5
3F24
330
1F
100
AcDbEntity
  8
AM_VIS
100
AcDbLine
 10
1634.018731282432
 20
1020.74692084177
 30
0.0
 11
1703.018731282432
 21
1020.74692084177
 31
0.0
  0
LINE
  5
3F25
330
1F
100
AcDbEntity
  8
AM_VIS
100
AcDbLine
 10
1687.557604887782
 20
987.2469208417699
 30
0.0
 11
1703.018731282432
 21
987.2469208417699
 31
0.0
  0
ARC
  5
3F26
330
1F
100
AcDbEntity
  8
AM_VIS
100
AcDbCircle
 10
1653.518731282432
 20
989.74692084177
 30
0.0
 40
4.75
100
AcDbArc
 50
211.7568638592907
 51
229.2789524078107
  0
ARC
  5
3F27
330
1F
100
AcDbEntity
  8
AM_VIS
100
AcDbCircle
 10
1653.518731282432
 20
989.74692084177
 30
0.0
 40
4.75
100
AcDbArc
 50
310.7210475921892
 51
328.2431361407093
  0
LINE
  5
3F28
330
1F
100
AcDbEntity
  8
AM_VIS
100
AcDbLine
 10
1657.557604887782
 20
987.2469208417699
 30
0.0
 11
1679.479857677081
 21
987.2469208417699
 31
0.0
  0
LINE
  5
3F29
330
1F
100
AcDbEntity
  8
AM_VIS
100
AcDbLine
 10
1686.617521368901
 20
986.1469208417698
 30
0.0
 11
1703.018731282432
 21
986.1469208417698
 31
0.0
  0
LINE
  5
3F2A
330
1F
100
AcDbEntity
  8
AM_VIS
100
AcDbLine
 10
1634.018731282432
 20
979.44692084177
 30
0.0
 11
1703.018731282432
 21
979.44692084177
 31
0.0
  0
LINE
  5
3F2B
330
1F
100
AcDbEntity
  8
AM_VIS
100
AcDbLine
 10
1634.018731282432
 20
986.1469208417698
 30
0.0
 11
1650.419941195962
 21
986.1469208417698
 31
0.0
  0
LINE
  5
3F2C
330
1F
100
AcDbEntity
  8
AM_VIS
100
AcDbLine
 10
1656.6175213689
 20
986.1469208417698
 30
0.0
 11
1680.419941195962
 21
986.1469208417698
 31
0.0
  0
ARC
  5
3F2D
330
1F
100
AcDbEntity
  8
AM_VIS
100
AcDbCircle
 10
1683.518731282432
 20
989.74692084177
 30
0.0
 40
4.75
100
AcDbArc
 50
211.7568638592907
 51
229.2789524078107
  0
ARC
  5
3F2E
330
1F
100
AcDbEntity
  8
AM_VIS
100
AcDbCircle
 10
1683.518731282432
 20
989.74692084177
 30
0.0
 40
4.75
100
AcDbArc
 50
310.7210475921892
 51
328.2431361407093
  0
LINE
  5
3F2F
330
1F
100
AcDbEntity
  8
AM_VIS
100
AcDbLine
 10
1703.018731282432
 20
924.7469208417699
 30
0.0
 11
1703.018731282432
 21
958.2469208417698
 31
0.0
  0
LINE
  5
3F30
330
1F
100
AcDbEntity
  8
AM_VIS
100
AcDbLine
 10
1703.018731282432
 20
959.3469208417699
 30
0.0
 11
1703.018731282432
 21
958.2469208417698
 31
0.0
  0
LINE
  5
3F31
330
1F
100
AcDbEntity
  8
AM_VIS
100
AcDbLine
 10
1703.018731282432
 20
966.0469208417698
 30
0.0
 11
1703.018731282432
 21
959.3469208417699
 31
0.0
  0
LINE
  5
3F32
330
1F
100
AcDbEntity
  8
AM_VIS
100
AcDbLine
 10
1703.018731282432
 20
968.1969208417699
 30
0.0
 11
1703.018731282432
 21
967.2969208417699
 31
0.0
  0
LINE
  5
3F33
330
1F
100
AcDbEntity
  8
AM_VIS
100
AcDbLine
 10
1703.018731282432
 20
976.0469208417699
 30
0.0
 11
1703.018731282432
 21
969.4469208417698
 31
0.0
  0
LINE
  5
3F34
330
1F
100
AcDbEntity
  8
AM_VIS
100
AcDbLine
 10
1703.018731282432
 20
978.1969208417699
 30
0.0
 11
1703.018731282432
 21
977.29692084177
 31
0.0
  0
LINE
  5
3F35
330
1F
100
AcDbEntity
  8
AM_VIS
100
AcDbLine
 10
1703.018731282432
 20
986.14692084177
 30
0.0
 11
1703.018731282432
 21
979.44692084177
 31
0.0
  0
LINE
  5
3F36
330
1F
100
AcDbEntity
  8
AM_VIS
100
AcDbLine
 10
1703.018731282432
 20
987.2469208417699
 30
0.0
 11
1703.018731282432
 21
986.1469208417698
 31
0.0
  0
LINE
  5
3F37
330
1F
100
AcDbEntity
  8
AM_VIS
100
AcDbLine
 10
1703.018731282432
 20
987.2469208417699
 30
0.0
 11
1703.018731282432
 21
1020.74692084177
 31
0.0
  0
LINE
  5
3F38
330
1F
100
AcDbEntity
  8
AM_VIS
100
AcDbLine
 10
1634.018731282432
 20
987.2469208417699
 30
0.0
 11
1634.018731282432
 21
1020.74692084177
 31
0.0
  0
LINE
  5
3F39
330
1F
100
AcDbEntity
  8
AM_VIS
100
AcDbLine
 10
1634.018731282432
 20
986.1469208417698
 30
0.0
 11
1634.018731282432
 21
987.2469208417699
 31
0.0
  0
LINE
  5
3F3A
330
1F
100
AcDbEntity
  8
AM_VIS
100
AcDbLine
 10
1634.018731282432
 20
979.44692084177
 30
0.0
 11
1634.018731282432
 21
986.14692084177
 31
0.0
  0
LINE
  5
3F3B
330
1F
100
AcDbEntity
  8
AM_VIS
100
AcDbLine
 10
1634.018731282432
 20
977.29692084177
 30
0.0
 11
1634.018731282432
 21
978.1969208417699
 31
0.0
  0
LINE
  5
3F3C
330
1F
100
AcDbEntity
  8
AM_VIS
100
AcDbLine
 10
1634.018731282432
 20
969.4469208417698
 30
0.0
 11
1634.018731282432
 21
976.0469208417699
 31
0.0
  0
LINE
  5
3F3D
330
1F
100
AcDbEntity
  8
AM_VIS
100
AcDbLine
 10
1634.018731282432
 20
967.2969208417699
 30
0.0
 11
1634.018731282432
 21
968.1969208417699
 31
0.0
  0
LINE
  5
3F3E
330
1F
100
AcDbEntity
  8
AM_VIS
100
AcDbLine
 10
1634.018731282432
 20
959.3469208417699
 30
0.0
 11
1634.018731282432
 21
966.0469208417698
 31
0.0
  0
LINE
  5
3F3F
330
1F
100
AcDbEntity
  8
AM_VIS
100
AcDbLine
 10
1634.018731282432
 20
958.2469208417698
 30
0.0
 11
1634.018731282432
 21
959.3469208417698
 31
0.0
  0
LINE
  5
3F40
330
1F
100
AcDbEntity
  8
AM_VIS
100
AcDbLine
 10
1634.018731282432
 20
924.7469208417699
 30
0.0
 11
1634.018731282432
 21
958.2469208417698
 31
0.0
  0
ARC
  5
3F45
330
1F
100
AcDbEntity
  8
AM_VIS
100
AcDbCircle
 10
1653.518731282432
 20
955.7469208417698
 30
0.0
 40
4.75
100
AcDbArc
 50
49.27895240781078
 51
130.7210475921892
  0
CIRCLE
  5
3F46
330
1F
100
AcDbEntity
  8
AM_VIS
100
AcDbCircle
 10
1653.518731282432
 20
955.7469208417698
 30
0.0
 40
2.799999999999999
  0
ARC
  5
3F47
330
1F
100
AcDbEntity
  8
AM_VIS
100
AcDbCircle
 10
1653.518731282432
 20
955.7469208417698
 30
0.0
 40
4.75
100
AcDbArc
 50
148.2431361407037
 51
31.75686385929071
  0
ARC
  5
3F48
330
1F
100
AcDbEntity
  8
AM_VIS
100
AcDbCircle
 10
1683.518731282432
 20
955.7469208417698
 30
0.0
 40
4.75
100
AcDbArc
 50
148.2431361407037
 51
31.75686385929071
  0
ARC
  5
3F49
330
1F
100
AcDbEntity
  8
AM_VIS
100
AcDbCircle
 10
1683.518731282432
 20
955.7469208417698
 30
0.0
 40
4.75
100
AcDbArc
 50
49.27895240781078
 51
130.7210475921892
  0
CIRCLE
  5
3F4A
330
1F
100
AcDbEntity
  8
AM_VIS
100
AcDbCircle
 10
1683.518731282432
 20
955.7469208417698
 30
0.0
 40
2.799999999999999
  0
ARC
  5
3F4B
330
1F
100
AcDbEntity
  8
AM_VIS
100
AcDbCircle
 10
1653.518731282432
 20
989.74692084177
 30
0.0
 40
4.75
100
AcDbArc
 50
328.2431361407093
 51
211.7568638592907
  0
CIRCLE
  5
3F4C
330
1F
100
AcDbEntity
  8
AM_VIS
100
AcDbCircle
 10
1653.518731282432
 20
989.74692084177
 30
0.0
 40
2.799999999999999
  0
ARC
  5
3F4D
330
1F
100
AcDbEntity
  8
AM_VIS
100
AcDbCircle
 10
1653.518731282432
 20
989.74692084177
 30
0.0
 40
4.75
100
AcDbArc
 50
229.2789524078107
 51
310.7210475921892
  0
CIRCLE
  5
3F4E
330
1F
100
AcDbEntity
  8
AM_VIS
100
AcDbCircle
 10
1683.518731282432
 20
989.74692084177
 30
0.0
 40
2.799999999999999
  0
ARC
  5
3F4F
330
1F
100
AcDbEntity
  8
AM_VIS
100
AcDbCircle
 10
1683.518731282432
 20
989.74692084177
 30
0.0
 40
4.75
100
AcDbArc
 50
229.2789524078107
 51
310.7210475921892
  0
ARC
  5
3F50
330
1F
100
AcDbEntity
  8
AM_VIS
100
AcDbCircle
 10
1683.518731282432
 20
989.74692084177
 30
0.0
 40
4.75
100
AcDbArc
 50
328.2431361407093
 51
211.7568638592907
  0
LINE
  5
3F51
330
1F
100
AcDbEntity
  8
AM_VIS
100
AcDbLine
 10
1703.018731282432
 20
966.0469208417698
 30
0.0
 11
1703.018731282432
 21
967.2969208417699
 31
0.0
  0
LINE
  5
3F52
330
1F
100
AcDbEntity
  8
AM_VIS
100
AcDbLine
 10
1703.018731282432
 20
968.1969208417699
 30
0.0
 11
1703.018731282432
 21
969.4469208417698
 31
0.0
  0
LINE
  5
3F53
330
1F
100
AcDbEntity
  8
AM_VIS
100
AcDbLine
 10
1703.018731282432
 20
976.0469208417699
 30
0.0
 11
1703.018731282432
 21
977.2969208417698
 31
0.0
  0
LINE
  5
3F54
330
1F
100
AcDbEntity
  8
AM_VIS
100
AcDbLine
 10
1703.018731282432
 20
978.1969208417699
 30
0.0
 11
1703.018731282432
 21
979.44692084177
 31
0.0
  0
LINE
  5
3F55
330
1F
100
AcDbEntity
  8
AM_VIS
100
AcDbLine
 10
1634.018731282432
 20
979.44692084177
 30
0.0
 11
1634.018731282432
 21
978.1969208417699
 31
0.0
  0
LINE
  5
3F56
330
1F
100
AcDbEntity
  8
AM_VIS
100
AcDbLine
 10
1634.018731282432
 20
977.2969208417698
 30
0.0
 11
1634.018731282432
 21
976.0469208417699
 31
0.0
  0
LINE
  5
3F57
330
1F
100
AcDbEntity
  8
AM_VIS
100
AcDbLine
 10
1634.018731282432
 20
969.4469208417698
 30
0.0
 11
1634.018731282432
 21
968.1969208417699
 31
0.0
  0
LINE
  5
3F58
330
1F
100
AcDbEntity
  8
AM_VIS
100
AcDbLine
 10
1634.018731282432
 20
967.2969208417699
 30
0.0
 11
1634.018731282432
 21
966.0469208417698
 31
0.0
  0
LINE
  5
3F59
330
1F
100
AcDbEntity
  8
AM_VIS
100
AcDbLine
 10
1735.018731282432
 20
1111.343212517858
 30
0.0
 11
1735.018731282432
 21
1069.343212517858
 31
0.0
  0
LINE
  5
3F5A
330
1F
100
AcDbEntity
  8
AM_VIS
100
AcDbLine
 10
1747.018731282432
 20
1069.343212517858
 30
0.0
 11
1747.018731282432
 21
1111.343212517858
 31
0.0
  0
LINE
  5
3F5B
330
1F
100
AcDbEntity
  8
AM_VIS
100
AcDbLine
 10
1735.018731282432
 20
1069.343212517858
 30
0.0
 11
1747.018731282432
 21
1069.343212517858
 31
0.0
  0
LINE
  5
3F5C
330
1F
100
AcDbEntity
  8
AM_VIS
100
AcDbLine
 10
1735.018731282432
 20
1111.343212517858
 30
0.0
 11
1747.018731282432
 21
1111.343212517858
 31
0.0
  0
LINE
  5
3F5E
330
1F
100
AcDbEntity
  8
AM_VIS
100
AcDbLine
 10
1620.018731282432
 20
1111.343212517858
 30
0.0
 11
1620.018731282432
 21
1069.343212517858
 31
0.0
  0
LINE
  5
3F5F
330
1F
100
AcDbEntity
  8
AM_VIS
100
AcDbLine
 10
1632.018731282432
 20
1069.343212517858
 30
0.0
 11
1632.018731282432
 21
1111.343212517858
 31
0.0
  0
LINE
  5
3F60
330
1F
100
AcDbEntity
  8
AM_VIS
100
AcDbLine
 10
1620.018731282432
 20
1069.343212517858
 30
0.0
 11
1632.018731282432
 21
1069.343212517858
 31
0.0
  0
LINE
  5
3F61
330
1F
100
AcDbEntity
  8
AM_VIS
100
AcDbLine
 10
1620.018731282432
 20
1111.343212517858
 30
0.0
 11
1632.018731282432
 21
1111.343212517858
 31
0.0
  0
LINE
  5
3F63
330
1F
100
AcDbEntity
  8
AM_VIS
100
AcDbLine
 10
1634.018731282432
 20
1103.343212517858
 30
0.0
 11
1703.018731282432
 21
1103.343212517858
 31
0.0
  0
LINE
  5
3F64
330
1F
100
AcDbEntity
  8
AM_VIS
100
AcDbLine
 10
1703.018731282432
 20
1086.843212517858
 30
0.0
 11
1634.018731282432
 21
1086.843212517858
 31
0.0
  0
LINE
  5
3F65
330
1F
100
AcDbEntity
  8
AM_VIS
100
AcDbLine
 10
1634.018731282432
 20
1088.343212517858
 30
0.0
 11
1703.018731282432
 21
1088.343212517858
 31
0.0
  0
LINE
  5
3F66
330
1F
100
AcDbEntity
  8
AM_VIS
100
AcDbLine
 10
1634.018731282432
 20
1101.843212517858
 30
0.0
 11
1703.018731282432
 21
1101.843212517858
 31
0.0
  0
LINE
  5
3F68
330
1F
100
AcDbEntity
  8
AM_VIS
100
AcDbLine
 10
1703.018731282432
 20
1112.343212517858
 30
0.0
 11
1634.018731282432
 21
1112.343212517858
 31
0.0
  0
LINE
  5
3F69
330
1F
100
AcDbEntity
  8
AM_VIS
100
AcDbLine
 10
1634.018731282432
 20
1070.343212517858
 30
0.0
 11
1703.018731282432
 21
1070.343212517858
 31
0.0
  0
LINE
  5
3F6A
330
1F
100
AcDbEntity
  8
AM_VIS
100
AcDbLine
 10
1703.018731282432
 20
1070.343212517858
 30
0.0
 11
1703.018731282432
 21
1086.843212517858
 31
0.0
  0
LINE
  5
3F6B
330
1F
100
AcDbEntity
  8
AM_VIS
100
AcDbLine
 10
1703.018731282432
 20
1088.343212517858
 30
0.0
 11
1703.018731282432
 21
1086.843212517858
 31
0.0
  0
LINE
  5
3F6C
330
1F
100
AcDbEntity
  8
AM_VIS
100
AcDbLine
 10
1703.018731282432
 20
1101.843212517858
 30
0.0
 11
1703.018731282432
 21
1088.343212517858
 31
0.0
  0
LINE
  5
3F6D
330
1F
100
AcDbEntity
  8
AM_VIS
100
AcDbLine
 10
1703.018731282432
 20
1103.343212517858
 30
0.0
 11
1703.018731282432
 21
1101.843212517858
 31
0.0
  0
LINE
  5
3F6E
330
1F
100
AcDbEntity
  8
AM_VIS
100
AcDbLine
 10
1703.018731282432
 20
1103.343212517858
 30
0.0
 11
1703.018731282432
 21
1111.743212517858
 31
0.0
  0
LINE
  5
3F6F
330
1F
100
AcDbEntity
  8
AM_VIS
100
AcDbLine
 10
1703.018731282432
 20
1111.743212517858
 30
0.0
 11
1703.018731282432
 21
1112.343212517858
 31
0.0
  0
LINE
  5
3F70
330
1F
100
AcDbEntity
  8
AM_VIS
100
AcDbLine
 10
1634.018731282432
 20
1112.343212517858
 30
0.0
 11
1634.018731282432
 21
1111.743212517858
 31
0.0
  0
LINE
  5
3F71
330
1F
100
AcDbEntity
  8
AM_VIS
100
AcDbLine
 10
1634.018731282432
 20
1103.343212517858
 30
0.0
 11
1634.018731282432
 21
1111.743212517858
 31
0.0
  0
LINE
  5
3F72
330
1F
100
AcDbEntity
  8
AM_VIS
100
AcDbLine
 10
1634.018731282432
 20
1101.843212517858
 30
0.0
 11
1634.018731282432
 21
1103.343212517858
 31
0.0
  0
LINE
  5
3F73
330
1F
100
AcDbEntity
  8
AM_VIS
100
AcDbLine
 10
1634.018731282432
 20
1088.343212517858
 30
0.0
 11
1634.018731282432
 21
1101.843212517858
 31
0.0
  0
LINE
  5
3F74
330
1F
100
AcDbEntity
  8
AM_VIS
100
AcDbLine
 10
1634.018731282432
 20
1086.843212517858
 30
0.0
 11
1634.018731282432
 21
1088.343212517858
 31
0.0
  0
LINE
  5
3F75
330
1F
100
AcDbEntity
  8
AM_VIS
100
AcDbLine
 10
1634.018731282432
 20
1070.343212517858
 30
0.0
 11
1634.018731282432
 21
1086.843212517858
 31
0.0
  0
CIRCLE
  5
3F7F
330
1F
100
AcDbEntity
  8
AM_VIS
100
AcDbCircle
 10
1552.495870717405
 20
1005.24692084177
 30
0.0
 40
6.0
  0
LINE
  5
3F80
330
1F
100
AcDbEntity
  8
AM_VIS
100
AcDbLine
 10
1532.495870717405
 20
924.7469208417699
 30
0.0
 11
1532.495870717405
 21
1020.74692084177
 31
0.0
  0
LINE
  5
3F81
330
1F
100
AcDbEntity
  8
AM_VIS
100
AcDbLine
 10
1574.495870717405
 20
924.7469208417699
 30
0.0
 11
1532.495870717405
 21
924.7469208417699
 31
0.0
  0
LINE
  5
3F82
330
1F
100
AcDbEntity
  8
AM_VIS
100
AcDbLine
 10
1574.495870717405
 20
1020.74692084177
 30
0.0
 11
1574.495870717405
 21
924.7469208417699
 31
0.0
  0
LINE
  5
3F83
330
1F
100
AcDbEntity
  8
AM_VIS
100
AcDbLine
 10
1532.495870717405
 20
1020.74692084177
 30
0.0
 11
1574.495870717405
 21
1020.74692084177
 31
0.0
  0
LINE
  5
3F84
330
1F
100
AcDbEntity
  8
AM_VIS
100
AcDbLine
 10
1532.495870717405
 20
945.7469208417702
 30
0.0
 11
1531.495870717405
 21
944.74692084177
 31
0.0
  0
LINE
  5
3F85
330
1F
100
AcDbEntity
  8
AM_VIS
100
AcDbLine
 10
1531.495870717405
 20
944.7469208417698
 30
0.0
 11
1531.495870717405
 21
930.3469208417698
 31
0.0
  0
LINE
  5
3F86
330
1F
100
AcDbEntity
  8
AM_VIS
100
AcDbLine
 10
1532.095870717406
 20
929.7469208417698
 30
0.0
 11
1531.495870717405
 21
930.3469208417698
 31
0.0
  0
LINE
  5
3F87
330
1F
100
AcDbEntity
  8
AM_VIS
100
AcDbLine
 10
1532.095870717406
 20
929.7469208417698
 30
0.0
 11
1532.095870717406
 21
924.7469208417699
 31
0.0
  0
LINE
  5
3F88
330
1F
100
AcDbEntity
  8
AM_VIS
100
AcDbLine
 10
1532.095870717406
 20
924.7469208417699
 30
0.0
 11
1532.795870717406
 21
924.7469208417699
 31
0.0
  0
LINE
  5
3F89
330
1F
100
AcDbEntity
  8
AM_VIS
100
AcDbLine
 10
1532.795870717406
 20
1020.74692084177
 30
0.0
 11
1532.095870717406
 21
1020.74692084177
 31
0.0
  0
LINE
  5
3F8A
330
1F
100
AcDbEntity
  8
AM_VIS
100
AcDbLine
 10
1532.095870717406
 20
1020.74692084177
 30
0.0
 11
1532.095870717406
 21
1015.74692084177
 31
0.0
  0
LINE
  5
3F8B
330
1F
100
AcDbEntity
  8
AM_VIS
100
AcDbLine
 10
1531.495870717405
 20
1015.14692084177
 30
0.0
 11
1532.095870717406
 21
1015.74692084177
 31
0.0
  0
LINE
  5
3F8C
330
1F
100
AcDbEntity
  8
AM_VIS
100
AcDbLine
 10
1531.495870717405
 20
1015.14692084177
 30
0.0
 11
1531.495870717405
 21
1000.74692084177
 31
0.0
  0
LINE
  5
3F8D
330
1F
100
AcDbEntity
  8
AM_VIS
100
AcDbLine
 10
1531.495870717405
 20
1000.74692084177
 30
0.0
 11
1532.495870717405
 21
999.7469208417696
 31
0.0
  0
LINE
  5
3F8E
330
1F
100
AcDbEntity
  8
AM_VIS
100
AcDbLine
 10
1532.495870717405
 20
995.7469208417702
 30
0.0
 11
1531.495870717405
 21
994.74692084177
 31
0.0
  0
LINE
  5
3F8F
330
1F
100
AcDbEntity
  8
AM_VIS
100
AcDbLine
 10
1531.495870717405
 20
994.7469208417698
 30
0.0
 11
1531.495870717405
 21
984.7469208417697
 31
0.0
  0
LINE
  5
3F90
330
1F
100
AcDbEntity
  8
AM_VIS
100
AcDbLine
 10
1531.495870717405
 20
984.7469208417697
 30
0.0
 11
1532.495870717405
 21
983.7469208417701
 31
0.0
  0
LINE
  5
3F91
330
1F
100
AcDbEntity
  8
AM_VIS
100
AcDbLine
 10
1532.495870717405
 20
961.7469208417695
 30
0.0
 11
1531.495870717405
 21
960.7469208417697
 31
0.0
  0
LINE
  5
3F92
330
1F
100
AcDbEntity
  8
AM_VIS
100
AcDbLine
 10
1531.495870717405
 20
960.7469208417697
 30
0.0
 11
1531.495870717405
 21
950.7469208417699
 31
0.0
  0
LINE
  5
3F93
330
1F
100
AcDbEntity
  8
AM_VIS
100
AcDbLine
 10
1531.495870717405
 20
950.7469208417697
 30
0.0
 11
1532.495870717405
 21
949.7469208417696
 31
0.0
  0
LINE
  5
3F94
330
1F
100
AcDbEntity
  8
AM_VIS
100
AcDbLine
 10
1735.018731282432
 20
863.4502375704025
 30
0.0
 11
1735.018731282432
 21
821.4502375704025
 31
0.0
  0
LINE
  5
3F95
330
1F
100
AcDbEntity
  8
AM_VIS
100
AcDbLine
 10
1735.018731282432
 20
863.4502375704025
 30
0.0
 11
1747.018731282432
 21
863.4502375704025
 31
0.0
  0
LINE
  5
3F96
330
1F
100
AcDbEntity
  8
AM_VIS
100
AcDbLine
 10
1747.018731282432
 20
821.4502375704025
 30
0.0
 11
1747.018731282432
 21
863.4502375704025
 31
0.0
  0
LINE
  5
3F97
330
1F
100
AcDbEntity
  8
AM_VIS
100
AcDbLine
 10
1735.018731282432
 20
821.4502375704025
 30
0.0
 11
1747.018731282432
 21
821.4502375704025
 31
0.0
  0
LINE
  5
3F98
330
1F
100
AcDbEntity
  8
AM_VIS
100
AcDbLine
 10
1620.018731282432
 20
863.4502375704025
 30
0.0
 11
1620.018731282432
 21
821.4502375704025
 31
0.0
  0
LINE
  5
3F99
330
1F
100
AcDbEntity
  8
AM_VIS
100
AcDbLine
 10
1620.018731282432
 20
863.4502375704025
 30
0.0
 11
1632.018731282432
 21
863.4502375704025
 31
0.0
  0
LINE
  5
3F9A
330
1F
100
AcDbEntity
  8
AM_VIS
100
AcDbLine
 10
1632.018731282432
 20
821.4502375704025
 30
0.0
 11
1632.018731282432
 21
863.4502375704025
 31
0.0
  0
LINE
  5
3F9B
330
1F
100
AcDbEntity
  8
AM_VIS
100
AcDbLine
 10
1620.018731282432
 20
821.4502375704025
 30
0.0
 11
1632.018731282432
 21
821.4502375704025
 31
0.0
  0
LINE
  5
3F9C
330
1F
100
AcDbEntity
  8
AM_VIS
100
AcDbLine
 10
1634.018731282432
 20
844.4502375704026
 30
0.0
 11
1703.018731282432
 21
844.4502375704026
 31
0.0
  0
LINE
  5
3F9D
330
1F
100
AcDbEntity
  8
AM_VIS
100
AcDbLine
 10
1703.018731282432
 20
829.4502375704025
 30
0.0
 11
1634.018731282432
 21
829.4502375704025
 31
0.0
  0
LINE
  5
3F9E
330
1F
100
AcDbEntity
  8
AM_VIS
100
AcDbLine
 10
1634.018731282432
 20
830.9502375704026
 30
0.0
 11
1703.018731282432
 21
830.9502375704026
 31
0.0
  0
LINE
  5
3FA0
330
1F
100
AcDbEntity
  8
AM_VIS
100
AcDbLine
 10
1634.018731282432
 20
820.4502375704025
 30
0.0
 11
1703.018731282432
 21
820.4502375704025
 31
0.0
  0
LINE
  5
3FA1
330
1F
100
AcDbEntity
  8
AM_VIS
100
AcDbLine
 10
1634.018731282432
 20
845.9502375704026
 30
0.0
 11
1703.018731282432
 21
845.9502375704026
 31
0.0
  0
LINE
  5
3FA8
330
1F
100
AcDbEntity
  8
AM_VIS
100
AcDbLine
 10
1634.018731282432
 20
862.4502375704025
 30
0.0
 11
1703.018731282432
 21
862.4502375704025
 31
0.0
  0
LINE
  5
3FA9
330
1F
100
AcDbEntity
  8
AM_VIS
100
AcDbLine
 10
1703.018731282432
 20
820.4502375704025
 30
0.0
 11
1703.018731282432
 21
821.0502375704024
 31
0.0
  0
LINE
  5
3FAA
330
1F
100
AcDbEntity
  8
AM_VIS
100
AcDbLine
 10
1703.018731282432
 20
821.0502375704024
 30
0.0
 11
1703.018731282432
 21
829.4502375704025
 31
0.0
  0
LINE
  5
3FAB
330
1F
100
AcDbEntity
  8
AM_VIS
100
AcDbLine
 10
1703.018731282432
 20
830.9502375704026
 30
0.0
 11
1703.018731282432
 21
829.4502375704025
 31
0.0
  0
LINE
  5
3FAC
330
1F
100
AcDbEntity
  8
AM_VIS
100
AcDbLine
 10
1703.018731282432
 20
844.4502375704026
 30
0.0
 11
1703.018731282432
 21
830.9502375704026
 31
0.0
  0
LINE
  5
3FAD
330
1F
100
AcDbEntity
  8
AM_VIS
100
AcDbLine
 10
1703.018731282432
 20
845.9502375704026
 30
0.0
 11
1703.018731282432
 21
844.4502375704024
 31
0.0
  0
LINE
  5
3FAE
330
1F
100
AcDbEntity
  8
AM_VIS
100
AcDbLine
 10
1703.018731282432
 20
845.9502375704026
 30
0.0
 11
1703.018731282432
 21
862.4502375704025
 31
0.0
  0
LINE
  5
3FAF
330
1F
100
AcDbEntity
  8
AM_VIS
100
AcDbLine
 10
1634.018731282432
 20
845.9502375704026
 30
0.0
 11
1634.018731282432
 21
862.4502375704025
 31
0.0
  0
LINE
  5
3FB0
330
1F
100
AcDbEntity
  8
AM_VIS
100
AcDbLine
 10
1634.018731282432
 20
844.4502375704026
 30
0.0
 11
1634.018731282432
 21
845.9502375704026
 31
0.0
  0
LINE
  5
3FB1
330
1F
100
AcDbEntity
  8
AM_VIS
100
AcDbLine
 10
1634.018731282432
 20
830.9502375704026
 30
0.0
 11
1634.018731282432
 21
844.4502375704026
 31
0.0
  0
LINE
  5
3FB2
330
1F
100
AcDbEntity
  8
AM_VIS
100
AcDbLine
 10
1634.018731282432
 20
829.4502375704023
 30
0.0
 11
1634.018731282432
 21
830.9502375704024
 31
0.0
  0
LINE
  5
3FB3
330
1F
100
AcDbEntity
  8
AM_VIS
100
AcDbLine
 10
1634.018731282432
 20
821.0502375704024
 30
0.0
 11
1634.018731282432
 21
829.4502375704025
 31
0.0
  0
LINE
  5
3FB4
330
1F
100
AcDbEntity
  8
AM_VIS
100
AcDbLine
 10
1634.018731282432
 20
821.0502375704024
 30
0.0
 11
1634.018731282432
 21
820.4502375704024
 31
0.0
  0
LINE
  5
3FBB
330
1F
100
AcDbEntity
  8
AM_VIS
100
AcDbLine
 10
1803.040069900398
 20
1020.74692084177
 30
0.0
 11
1845.040069900398
 21
1020.74692084177
 31
0.0
  0
LINE
  5
3FBC
330
1F
100
AcDbEntity
  8
AM_VIS
100
AcDbLine
 10
1803.040069900398
 20
924.7469208417699
 30
0.0
 11
1803.040069900398
 21
1020.74692084177
 31
0.0
  0
LINE
  5
3FBD
330
1F
100
AcDbEntity
  8
AM_VIS
100
AcDbLine
 10
1845.040069900398
 20
924.7469208417699
 30
0.0
 11
1803.040069900398
 21
924.7469208417699
 31
0.0
  0
LINE
  5
3FBE
330
1F
100
AcDbEntity
  8
AM_VIS
100
AcDbLine
 10
1845.040069900398
 20
1020.74692084177
 30
0.0
 11
1845.040069900398
 21
924.7469208417699
 31
0.0
  0
CIRCLE
  5
3FC2
330
1F
100
AcDbEntity
  8
AM_VIS
100
AcDbCircle
 10
1825.040069900398
 20
940.2469208417699
 30
0.0
 40
6.599999999999999
  0
LINE
  5
3FC9
330
1F
100
AcDbEntity
  8
AM_VIS
100
AcDbLine
 10
1846.040069900397
 20
944.7469208417698
 30
0.0
 11
1846.040069900397
 21
930.3469208417698
 31
0.0
  0
LINE
  5
3FCA
330
1F
100
AcDbEntity
  8
AM_VIS
100
AcDbLine
 10
1846.040069900397
 20
930.3469208417698
 30
0.0
 11
1845.440069900398
 21
929.7469208417698
 31
0.0
  0
LINE
  5
3FCB
330
1F
100
AcDbEntity
  8
AM_VIS
100
AcDbLine
 10
1845.440069900398
 20
924.7469208417699
 30
0.0
 11
1845.440069900398
 21
929.7469208417698
 31
0.0
  0
LINE
  5
3FCC
330
1F
100
AcDbEntity
  8
AM_VIS
100
AcDbLine
 10
1845.440069900398
 20
924.7469208417699
 30
0.0
 11
1844.740069900398
 21
924.7469208417699
 31
0.0
  0
LINE
  5
3FCD
330
1F
100
AcDbEntity
  8
AM_VIS
100
AcDbLine
 10
1844.740069900398
 20
1020.74692084177
 30
0.0
 11
1845.440069900397
 21
1020.74692084177
 31
0.0
  0
LINE
  5
3FCE
330
1F
100
AcDbEntity
  8
AM_VIS
100
AcDbLine
 10
1845.440069900398
 20
1015.74692084177
 30
0.0
 11
1845.440069900398
 21
1020.74692084177
 31
0.0
  0
LINE
  5
3FCF
330
1F
100
AcDbEntity
  8
AM_VIS
100
AcDbLine
 10
1845.440069900398
 20
1015.74692084177
 30
0.0
 11
1846.040069900397
 21
1015.14692084177
 31
0.0
  0
LINE
  5
3FD0
330
1F
100
AcDbEntity
  8
AM_VIS
100
AcDbLine
 10
1846.040069900397
 20
1015.14692084177
 30
0.0
 11
1846.040069900397
 21
1000.74692084177
 31
0.0
  0
LINE
  5
3FD1
330
1F
100
AcDbEntity
  8
AM_VIS
100
AcDbLine
 10
1845.040069900398
 20
999.7469208417703
 30
0.0
 11
1846.040069900397
 21
1000.74692084177
 31
0.0
  0
LINE
  5
3FD2
330
1F
100
AcDbEntity
  8
AM_VIS
100
AcDbLine
 10
1846.040069900397
 20
994.7469208417698
 30
0.0
 11
1845.040069900398
 21
995.7469208417695
 31
0.0
  0
LINE
  5
3FD3
330
1F
100
AcDbEntity
  8
AM_VIS
100
AcDbLine
 10
1846.040069900397
 20
994.7469208417698
 30
0.0
 11
1846.040069900397
 21
984.7469208417697
 31
0.0
  0
LINE
  5
3FD4
330
1F
100
AcDbEntity
  8
AM_VIS
100
AcDbLine
 10
1845.040069900398
 20
983.7469208417697
 30
0.0
 11
1846.040069900398
 21
984.7469208417697
 31
0.0
  0
LINE
  5
3FD5
330
1F
100
AcDbEntity
  8
AM_VIS
100
AcDbLine
 10
1846.040069900397
 20
960.7469208417697
 30
0.0
 11
1845.040069900398
 21
961.7469208417698
 31
0.0
  0
LINE
  5
3FD6
330
1F
100
AcDbEntity
  8
AM_VIS
100
AcDbLine
 10
1846.040069900397
 20
960.7469208417697
 30
0.0
 11
1846.040069900397
 21
950.7469208417699
 31
0.0
  0
LINE
  5
3FD7
330
1F
100
AcDbEntity
  8
AM_VIS
100
AcDbLine
 10
1845.040069900398
 20
949.7469208417703
 30
0.0
 11
1846.040069900397
 21
950.7469208417699
 31
0.0
  0
LINE
  5
3FD8
330
1F
100
AcDbEntity
  8
AM_VIS
100
AcDbLine
 10
1846.040069900397
 20
944.7469208417698
 30
0.0
 11
1845.040069900398
 21
945.7469208417698
 31
0.0
  0
LINE
  5
3FD9
330
1F
100
AcDbEntity
  8
AM_VIS
100
AcDbLine
 10
1735.018731282432
 20
1150.622200991501
 30
0.0
 11
1747.018731282432
 21
1150.622200991501
 31
0.0
  0
LINE
  5
3FDA
330
1F
100
AcDbEntity
  8
AM_VIS
100
AcDbLine
 10
1735.018731282432
 20
1246.622200991501
 30
0.0
 11
1735.018731282432
 21
1150.622200991501
 31
0.0
  0
LINE
  5
3FDB
330
1F
100
AcDbEntity
  8
AM_VIS
100
AcDbLine
 10
1735.018731282432
 20
1246.622200991501
 30
0.0
 11
1747.018731282432
 21
1246.622200991501
 31
0.0
  0
LINE
  5
3FDC
330
1F
100
AcDbEntity
  8
AM_VIS
100
AcDbLine
 10
1747.018731282432
 20
1150.622200991501
 30
0.0
 11
1747.018731282432
 21
1246.622200991501
 31
0.0
  0
CIRCLE
  5
3FDD
330
1F
100
AcDbEntity
  8
AM_VIS
100
AcDbCircle
 10
1741.018731282432
 20
1176.622200991501
 30
0.0
 40
4.75
  0
CIRCLE
  5
3FDE
330
1F
100
AcDbEntity
  8
AM_VIS
100
AcDbCircle
 10
1741.018731282432
 20
1176.622200991501
 30
0.0
 40
2.799999999999999
  0
CIRCLE
  5
3FDF
330
1F
100
AcDbEntity
  8
AM_VIS
100
AcDbCircle
 10
1741.018731282432
 20
1220.622200991501
 30
0.0
 40
4.75
  0
CIRCLE
  5
3FE0
330
1F
100
AcDbEntity
  8
AM_VIS
100
AcDbCircle
 10
1741.018731282432
 20
1220.622200991501
 30
0.0
 40
2.799999999999999
  0
LINE
  5
3FE1
330
1F
100
AcDbEntity
  8
AM_VIS
100
AcDbLine
 10
1620.018731282432
 20
1150.622200991501
 30
0.0
 11
1632.018731282432
 21
1150.622200991501
 31
0.0
  0
LINE
  5
3FE2
330
1F
100
AcDbEntity
  8
AM_VIS
100
AcDbLine
 10
1620.018731282432
 20
1246.622200991501
 30
0.0
 11
1620.018731282432
 21
1150.622200991501
 31
0.0
  0
LINE
  5
3FE3
330
1F
100
AcDbEntity
  8
AM_VIS
100
AcDbLine
 10
1620.018731282432
 20
1246.622200991501
 30
0.0
 11
1632.018731282432
 21
1246.622200991501
 31
0.0
  0
LINE
  5
3FE4
330
1F
100
AcDbEntity
  8
AM_VIS
100
AcDbLine
 10
1632.018731282432
 20
1150.622200991501
 30
0.0
 11
1632.018731282432
 21
1246.622200991501
 31
0.0
  0
CIRCLE
  5
3FE5
330
1F
100
AcDbEntity
  8
AM_VIS
100
AcDbCircle
 10
1626.018731282432
 20
1176.622200991501
 30
0.0
 40
4.75
  0
CIRCLE
  5
3FE6
330
1F
100
AcDbEntity
  8
AM_VIS
100
AcDbCircle
 10
1626.018731282432
 20
1176.622200991501
 30
0.0
 40
2.799999999999999
  0
CIRCLE
  5
3FE7
330
1F
100
AcDbEntity
  8
AM_VIS
100
AcDbCircle
 10
1626.018731282432
 20
1220.622200991501
 30
0.0
 40
4.75
  0
CIRCLE
  5
3FE8
330
1F
100
AcDbEntity
  8
AM_VIS
100
AcDbCircle
 10
1626.018731282432
 20
1220.622200991501
 30
0.0
 40
2.799999999999999
  0
LINE
  5
3FE9
330
1F
100
AcDbEntity
  8
AM_VIS
100
AcDbLine
 10
1703.018731282432
 20
1150.622200991501
 30
0.0
 11
1634.018731282432
 21
1150.622200991501
 31
0.0
  0
LINE
  5
3FEA
330
1F
100
AcDbEntity
  8
AM_VIS
100
AcDbLine
 10
1634.018731282432
 20
1246.622200991501
 30
0.0
 11
1703.018731282432
 21
1246.622200991501
 31
0.0
  0
LINE
  5
3FEB
330
1F
100
AcDbEntity
  8
AM_VIS
100
AcDbLine
 10
1634.018731282432
 20
1155.622200991501
 30
0.0
 11
1703.018731282432
 21
1155.622200991501
 31
0.0
  0
LINE
  5
3FEC
330
1F
100
AcDbEntity
  8
AM_VIS
100
AcDbLine
 10
1634.018731282432
 20
1241.622200991501
 30
0.0
 11
1703.018731282432
 21
1241.622200991501
 31
0.0
  0
LINE
  5
3FED
330
1F
100
AcDbEntity
  8
AM_VIS
100
AcDbLine
 10
1634.018731282432
 20
1241.022200991501
 30
0.0
 11
1703.018731282432
 21
1241.022200991501
 31
0.0
  0
LINE
  5
3FEE
330
1F
100
AcDbEntity
  8
AM_VIS
100
AcDbLine
 10
1634.018731282432
 20
1195.322200991501
 30
0.0
 11
1703.018731282432
 21
1195.322200991501
 31
0.0
  0
LINE
  5
3FEF
330
1F
100
AcDbEntity
  8
AM_VIS
100
AcDbLine
 10
1634.018731282432
 20
1201.922200991501
 30
0.0
 11
1703.018731282432
 21
1201.922200991501
 31
0.0
  0
LINE
  5
3FF0
330
1F
100
AcDbEntity
  8
AM_VIS
100
AcDbLine
 10
1634.018731282432
 20
1205.322200991501
 30
0.0
 11
1703.018731282432
 21
1205.322200991501
 31
0.0
  0
LINE
  5
3FF1
330
1F
100
AcDbEntity
  8
AM_VIS
100
AcDbLine
 10
1634.018731282432
 20
1209.222200991501
 30
0.0
 11
1703.018731282432
 21
1209.222200991501
 31
0.0
  0
LINE
  5
3FF2
330
1F
100
AcDbEntity
  8
AM_VIS
100
AcDbLine
 10
1634.018731282432
 20
1188.022200991501
 30
0.0
 11
1703.018731282432
 21
1188.022200991501
 31
0.0
  0
LINE
  5
3FF3
330
1F
100
AcDbEntity
  8
AM_VIS
100
AcDbLine
 10
1634.018731282432
 20
1191.922200991501
 30
0.0
 11
1703.018731282432
 21
1191.922200991501
 31
0.0
  0
LINE
  5
3FF4
330
1F
100
AcDbEntity
  8
AM_VIS
100
AcDbLine
 10
1703.018731282432
 20
1186.622200991501
 30
0.0
 11
1634.018731282432
 21
1186.622200991501
 31
0.0
  0
LINE
  5
3FF5
330
1F
100
AcDbEntity
  8
AM_VIS
100
AcDbLine
 10
1703.018731282432
 20
1156.222200991501
 30
0.0
 11
1634.018731282432
 21
1156.222200991501
 31
0.0
  0
LINE
  5
3FF6
330
1F
100
AcDbEntity
  8
AM_VIS
100
AcDbLine
 10
1703.018731282432
 20
1170.622200991501
 30
0.0
 11
1634.018731282432
 21
1170.622200991501
 31
0.0
  0
LINE
  5
3FF7
330
1F
100
AcDbEntity
  8
AM_VIS
100
AcDbLine
 10
1634.018731282432
 20
1173.622200991501
 30
0.0
 11
1703.018731282432
 21
1173.622200991501
 31
0.0
  0
LINE
  5
3FF8
330
1F
100
AcDbEntity
  8
AM_VIS
100
AcDbLine
 10
1634.018731282432
 20
1176.622200991501
 30
0.0
 11
1703.018731282432
 21
1176.622200991501
 31
0.0
  0
LINE
  5
3FF9
330
1F
100
AcDbEntity
  8
AM_VIS
100
AcDbLine
 10
1634.018731282432
 20
1210.622200991501
 30
0.0
 11
1703.018731282432
 21
1210.622200991501
 31
0.0
  0
LINE
  5
3FFA
330
1F
100
AcDbEntity
  8
AM_VIS
100
AcDbLine
 10
1634.018731282432
 20
1226.622200991501
 30
0.0
 11
1703.018731282432
 21
1226.622200991501
 31
0.0
  0
LINE
  5
3FFB
330
1F
100
AcDbEntity
  8
AM_VIS
100
AcDbLine
 10
1703.018731282432
 20
1220.622200991501
 30
0.0
 11
1634.018731282432
 21
1220.622200991501
 31
0.0
  0
LINE
  5
3FFC
330
1F
100
AcDbEntity
  8
AM_VIS
100
AcDbLine
 10
1634.018731282432
 20
1223.622200991501
 30
0.0
 11
1703.018731282432
 21
1223.622200991501
 31
0.0
  0
LINE
  5
3FFD
330
1F
100
AcDbEntity
  8
AM_VIS
100
AcDbLine
 10
1703.018731282432
 20
1226.622200991501
 30
0.0
 11
1703.018731282432
 21
1241.022200991501
 31
0.0
  0
LINE
  5
3FFE
330
1F
100
AcDbEntity
  8
AM_VIS
100
AcDbLine
 10
1703.018731282432
 20
1241.022200991501
 30
0.0
 11
1703.018731282432
 21
1241.622200991501
 31
0.0
  0
LINE
  5
3FFF
330
1F
100
AcDbEntity
  8
AM_VIS
100
AcDbLine
 10
1703.018731282432
 20
1246.622200991501
 30
0.0
 11
1703.018731282432
 21
1241.622200991501
 31
0.0
  0
LINE
  5
4000
330
1F
100
AcDbEntity
  8
AM_VIS
100
AcDbLine
 10
1703.018731282432
 20
1155.622200991501
 30
0.0
 11
1703.018731282432
 21
1150.622200991501
 31
0.0
  0
LINE
  5
4001
330
1F
100
AcDbEntity
  8
AM_VIS
100
AcDbLine
 10
1703.018731282432
 20
1155.622200991501
 30
0.0
 11
1703.018731282432
 21
1156.222200991501
 31
0.0
  0
LINE
  5
4002
330
1F
100
AcDbEntity
  8
AM_VIS
100
AcDbLine
 10
1703.018731282432
 20
1156.222200991501
 30
0.0
 11
1703.018731282432
 21
1170.622200991501
 31
0.0
  0
LINE
  5
4003
330
1F
100
AcDbEntity
  8
AM_VIS
100
AcDbLine
 10
1703.018731282432
 20
1173.622200991501
 30
0.0
 11
1703.018731282432
 21
1170.622200991501
 31
0.0
  0
LINE
  5
4004
330
1F
100
AcDbEntity
  8
AM_VIS
100
AcDbLine
 10
1703.018731282432
 20
1176.622200991501
 30
0.0
 11
1703.018731282432
 21
1173.622200991501
 31
0.0
  0
LINE
  5
4005
330
1F
100
AcDbEntity
  8
AM_VIS
100
AcDbLine
 10
1703.018731282432
 20
1176.622200991501
 30
0.0
 11
1703.018731282432
 21
1186.622200991501
 31
0.0
  0
LINE
  5
4006
330
1F
100
AcDbEntity
  8
AM_VIS
100
AcDbLine
 10
1703.018731282432
 20
1188.022200991501
 30
0.0
 11
1703.018731282432
 21
1186.622200991501
 31
0.0
  0
LINE
  5
4007
330
1F
100
AcDbEntity
  8
AM_VIS
100
AcDbLine
 10
1703.018731282432
 20
1191.922200991501
 30
0.0
 11
1703.018731282432
 21
1188.022200991501
 31
0.0
  0
LINE
  5
4008
330
1F
100
AcDbEntity
  8
AM_VIS
100
AcDbLine
 10
1703.018731282432
 20
1194.072200991501
 30
0.0
 11
1703.018731282432
 21
1193.172200991501
 31
0.0
  0
LINE
  5
4009
330
1F
100
AcDbEntity
  8
AM_VIS
100
AcDbLine
 10
1703.018731282432
 20
1201.922200991501
 30
0.0
 11
1703.018731282432
 21
1195.322200991501
 31
0.0
  0
LINE
  5
400A
330
1F
100
AcDbEntity
  8
AM_VIS
100
AcDbLine
 10
1703.018731282432
 20
1204.072200991501
 30
0.0
 11
1703.018731282432
 21
1203.172200991501
 31
0.0
  0
LINE
  5
400B
330
1F
100
AcDbEntity
  8
AM_VIS
100
AcDbLine
 10
1703.018731282432
 20
1209.222200991501
 30
0.0
 11
1703.018731282432
 21
1205.322200991501
 31
0.0
  0
LINE
  5
400C
330
1F
100
AcDbEntity
  8
AM_VIS
100
AcDbLine
 10
1703.018731282432
 20
1210.622200991501
 30
0.0
 11
1703.018731282432
 21
1209.222200991501
 31
0.0
  0
LINE
  5
400D
330
1F
100
AcDbEntity
  8
AM_VIS
100
AcDbLine
 10
1703.018731282432
 20
1210.622200991501
 30
0.0
 11
1703.018731282432
 21
1220.622200991501
 31
0.0
  0
LINE
  5
400E
330
1F
100
AcDbEntity
  8
AM_VIS
100
AcDbLine
 10
1703.018731282432
 20
1223.622200991501
 30
0.0
 11
1703.018731282432
 21
1220.622200991501
 31
0.0
  0
LINE
  5
400F
330
1F
100
AcDbEntity
  8
AM_VIS
100
AcDbLine
 10
1703.018731282432
 20
1226.622200991501
 30
0.0
 11
1703.018731282432
 21
1223.622200991501
 31
0.0
  0
LINE
  5
4010
330
1F
100
AcDbEntity
  8
AM_VIS
100
AcDbLine
 10
1634.018731282432
 20
1220.622200991501
 30
0.0
 11
1634.018731282432
 21
1223.622200991501
 31
0.0
  0
LINE
  5
4011
330
1F
100
AcDbEntity
  8
AM_VIS
100
AcDbLine
 10
1634.018731282432
 20
1210.622200991501
 30
0.0
 11
1634.018731282432
 21
1220.622200991501
 31
0.0
  0
LINE
  5
4012
330
1F
100
AcDbEntity
  8
AM_VIS
100
AcDbLine
 10
1634.018731282432
 20
1209.222200991501
 30
0.0
 11
1634.018731282432
 21
1210.622200991501
 31
0.0
  0
LINE
  5
4013
330
1F
100
AcDbEntity
  8
AM_VIS
100
AcDbLine
 10
1634.018731282432
 20
1205.322200991501
 30
0.0
 11
1634.018731282432
 21
1209.222200991501
 31
0.0
  0
LINE
  5
4014
330
1F
100
AcDbEntity
  8
AM_VIS
100
AcDbLine
 10
1634.018731282432
 20
1203.172200991501
 30
0.0
 11
1634.018731282432
 21
1204.072200991501
 31
0.0
  0
LINE
  5
4015
330
1F
100
AcDbEntity
  8
AM_VIS
100
AcDbLine
 10
1634.018731282432
 20
1195.322200991501
 30
0.0
 11
1634.018731282432
 21
1201.922200991501
 31
0.0
  0
LINE
  5
4016
330
1F
100
AcDbEntity
  8
AM_VIS
100
AcDbLine
 10
1634.018731282432
 20
1193.172200991501
 30
0.0
 11
1634.018731282432
 21
1194.072200991501
 31
0.0
  0
LINE
  5
4017
330
1F
100
AcDbEntity
  8
AM_VIS
100
AcDbLine
 10
1634.018731282432
 20
1188.022200991501
 30
0.0
 11
1634.018731282432
 21
1191.922200991501
 31
0.0
  0
LINE
  5
4018
330
1F
100
AcDbEntity
  8
AM_VIS
100
AcDbLine
 10
1634.018731282432
 20
1186.622200991501
 30
0.0
 11
1634.018731282432
 21
1188.022200991501
 31
0.0
  0
LINE
  5
4019
330
1F
100
AcDbEntity
  8
AM_VIS
100
AcDbLine
 10
1634.018731282432
 20
1176.622200991501
 30
0.0
 11
1634.018731282432
 21
1186.622200991501
 31
0.0
  0
LINE
  5
401A
330
1F
100
AcDbEntity
  8
AM_VIS
100
AcDbLine
 10
1634.018731282432
 20
1173.622200991501
 30
0.0
 11
1634.018731282432
 21
1176.622200991501
 31
0.0
  0
LINE
  5
401B
330
1F
100
AcDbEntity
  8
AM_VIS
100
AcDbLine
 10
1634.018731282432
 20
1170.622200991501
 30
0.0
 11
1634.018731282432
 21
1173.622200991501
 31
0.0
  0
LINE
  5
401C
330
1F
100
AcDbEntity
  8
AM_VIS
100
AcDbLine
 10
1634.018731282432
 20
1156.222200991501
 30
0.0
 11
1634.018731282432
 21
1170.622200991501
 31
0.0
  0
LINE
  5
401D
330
1F
100
AcDbEntity
  8
AM_VIS
100
AcDbLine
 10
1634.018731282432
 20
1156.222200991501
 30
0.0
 11
1634.018731282432
 21
1155.622200991501
 31
0.0
  0
LINE
  5
401E
330
1F
100
AcDbEntity
  8
AM_VIS
100
AcDbLine
 10
1634.018731282432
 20
1150.622200991501
 30
0.0
 11
1634.018731282432
 21
1155.622200991501
 31
0.0
  0
LINE
  5
401F
330
1F
100
AcDbEntity
  8
AM_VIS
100
AcDbLine
 10
1634.018731282432
 20
1241.622200991501
 30
0.0
 11
1634.018731282432
 21
1246.622200991501
 31
0.0
  0
LINE
  5
4020
330
1F
100
AcDbEntity
  8
AM_VIS
100
AcDbLine
 10
1634.018731282432
 20
1241.622200991501
 30
0.0
 11
1634.018731282432
 21
1241.022200991501
 31
0.0
  0
LINE
  5
4021
330
1F
100
AcDbEntity
  8
AM_VIS
100
AcDbLine
 10
1634.018731282432
 20
1226.622200991501
 30
0.0
 11
1634.018731282432
 21
1241.022200991501
 31
0.0
  0
LINE
  5
4022
330
1F
100
AcDbEntity
  8
AM_VIS
100
AcDbLine
 10
1634.018731282432
 20
1223.622200991501
 30
0.0
 11
1634.018731282432
 21
1226.622200991501
 31
0.0
  0
LINE
  5
4027
330
1F
100
AcDbEntity
  8
AM_VIS
100
AcDbLine
 10
1703.018731282432
 20
1191.922200991501
 30
0.0
 11
1703.018731282432
 21
1193.172200991501
 31
0.0
  0
LINE
  5
4028
330
1F
100
AcDbEntity
  8
AM_VIS
100
AcDbLine
 10
1703.018731282432
 20
1194.072200991501
 30
0.0
 11
1703.018731282432
 21
1195.322200991501
 31
0.0
  0
LINE
  5
4029
330
1F
100
AcDbEntity
  8
AM_VIS
100
AcDbLine
 10
1703.018731282432
 20
1201.922200991501
 30
0.0
 11
1703.018731282432
 21
1203.172200991501
 31
0.0
  0
LINE
  5
402A
330
1F
100
AcDbEntity
  8
AM_VIS
100
AcDbLine
 10
1703.018731282432
 20
1204.072200991501
 30
0.0
 11
1703.018731282432
 21
1205.322200991501
 31
0.0
  0
LINE
  5
402B
330
1F
100
AcDbEntity
  8
AM_VIS
100
AcDbLine
 10
1634.018731282432
 20
1205.322200991501
 30
0.0
 11
1634.018731282432
 21
1204.072200991501
 31
0.0
  0
LINE
  5
402C
330
1F
100
AcDbEntity
  8
AM_VIS
100
AcDbLine
 10
1634.018731282432
 20
1203.172200991501
 30
0.0
 11
1634.018731282432
 21
1201.922200991501
 31
0.0
  0
LINE
  5
402D
330
1F
100
AcDbEntity
  8
AM_VIS
100
AcDbLine
 10
1634.018731282432
 20
1195.322200991501
 30
0.0
 11
1634.018731282432
 21
1194.072200991501
 31
0.0
  0
LINE
  5
402E
330
1F
100
AcDbEntity
  8
AM_VIS
100
AcDbLine
 10
1634.018731282432
 20
1193.172200991501
 30
0.0
 11
1634.018731282432
 21
1191.922200991501
 31
0.0
  0
LINE
  5
4047
330
1F
100
AcDbEntity
  8
0
100
AcDbLine
 10
1703.018731282432
 20
978.7469208417698
 30
0.0
 11
1735.018731282432
 21
978.7469208417698
 31
0.0
  0
LINE
  5
4048
330
1F
100
AcDbEntity
  8
0
100
AcDbLine
 10
1703.018731282432
 20
966.7469208417699
 30
0.0
 11
1735.018731282432
 21
966.7469208417699
 31
0.0
  0
LINE
  5
4049
330
1F
100
AcDbEntity
  8
0
100
AcDbLine
 10
1703.018731282432
 20
1013.24692084177
 30
0.0
 11
1735.018731282432
 21
1013.24692084177
 31
0.0
  0
LINE
  5
404A
330
1F
100
AcDbEntity
  8
0
100
AcDbLine
 10
1703.018731282432
 20
997.2469208417699
 30
0.0
 11
1735.018731282432
 21
997.2469208417699
 31
0.0
  0
LINE
  5
404B
330
1F
100
AcDbEntity
  8
0
100
AcDbLine
 10
1632.018731282432
 20
1013.24692084177
 30
0.0
 11
1634.018731282432
 21
1013.24692084177
 31
0.0
  0
LINE
  5
404C
330
1F
100
AcDbEntity
  8
0
100
AcDbLine
 10
1632.018731282432
 20
997.2469208417699
 30
0.0
 11
1634.018731282432
 21
997.2469208417699
 31
0.0
  0
LINE
  5
404D
330
1F
100
AcDbEntity
  8
0
100
AcDbLine
 10
1632.018731282432
 20
978.7469208417698
 30
0.0
 11
1634.018731282432
 21
978.7469208417698
 31
0.0
  0
LINE
  5
404E
330
1F
100
AcDbEntity
  8
0
100
AcDbLine
 10
1632.018731282432
 20
966.7469208417699
 30
0.0
 11
1634.018731282432
 21
966.7469208417699
 31
0.0
  0
LINE
  5
405B
330
1F
100
AcDbEntity
  8
AM_7
100
AcDbLine
 10
1618.018731282432
 20
1005.24692084177
 30
0.0
 11
1749.018731282432
 21
1005.24692084177
 31
0.0
1001
GENIUS_GENOBJ-N-CEN_13
1002
{
1000
OWNER
1000
GEN
1002
}
1001
GENIUS_GENODEF_13
1002
{
1000
HIER
1070
     0
1002
}
1002
{
1000
MANEDIT
1070
     0
1002
}
1002
{
1000
NOSEL
1070
     0
1002
}
1002
{
1000
BEHIND
1070
     0
1002
}
1002
{
1000
OTHER
1070
     0
1002
}
1002
{
1000
REACTOR
1002
}
1001
GENIUS_GENCEN_19
1002
{
1040
2.0
1002
}
  0
LINE
  5
4068
330
1F
100
AcDbEntity
  8
AM_7
100
AcDbLine
 10
1618.018731282432
 20
940.2469208417699
 30
0.0
 11
1749.018731282432
 21
940.2469208417699
 31
0.0
1001
GENIUS_GENOBJ-N-CEN_13
1002
{
1000
OWNER
1000
GEN
1002
}
1001
GENIUS_GENODEF_13
1002
{
1000
HIER
1070
     0
1002
}
1002
{
1000
MANEDIT
1070
     0
1002
}
1002
{
1000
NOSEL
1070
     0
1002
}
1002
{
1000
BEHIND
1070
     0
1002
}
1002
{
1000
OTHER
1070
     0
1002
}
1002
{
1000
REACTOR
1002
}
1001
GENIUS_GENCEN_19
1002
{
1040
2.0
1002
}
  0
LINE
  5
4075
330
1F
100
AcDbEntity
  8
AM_7
100
AcDbLine
 10
1618.018731282432
 20
972.74692084177
 30
0.0
 11
1749.018731282432
 21
972.74692084177
 31
0.0
1001
GENIUS_GENODEF_13
1002
{
1000
HIER
1070
     0
1002
}
1002
{
1000
MANEDIT
1070
     0
1002
}
1002
{
1000
NOSEL
1070
     0
1002
}
1002
{
1000
BEHIND
1070
     0
1002
}
1002
{
1000
OTHER
1070
     0
1002
}
1002
{
1000
REACTOR
1002
}
1001
GENIUS_GENOBJ-N-CEN_13
1002
{
1000
OWNER
1000
GEN
1002
}
1001
GENIUS_GENCEN_19
1002
{
1040
2.0
1002
}
  0
LINE
  5
4076
330
1F
100
AcDbEntity
  8
0
100
AcDbLine
 10
1703.018731282432
 20
948.2469208417699
 30
0.0
 11
1735.018731282432
 21
948.2469208417699
 31
0.0
  0
LINE
  5
4077
330
1F
100
AcDbEntity
  8
0
100
AcDbLine
 10
1703.018731282432
 20
932.2469208417698
 30
0.0
 11
1735.018731282432
 21
932.2469208417698
 31
0.0
  0
LINE
  5
4078
330
1F
100
AcDbEntity
  8
0
100
AcDbLine
 10
1632.018731282432
 20
948.2469208417699
 30
0.0
 11
1634.018731282432
 21
948.2469208417699
 31
0.0
  0
LINE
  5
4079
330
1F
100
AcDbEntity
  8
0
100
AcDbLine
 10
1632.018731282432
 20
932.2469208417698
 30
0.0
 11
1634.018731282432
 21
932.2469208417698
 31
0.0
  0
LINE
  5
4084
330
1F
100
AcDbEntity
  8
0
100
AcDbLine
 10
1703.018731282432
 20
1204.622200991501
 30
0.0
 11
1735.018731282432
 21
1204.622200991501
 31
0.0
  0
LINE
  5
4085
330
1F
100
AcDbEntity
  8
0
100
AcDbLine
 10
1703.018731282432
 20
1192.622200991501
 30
0.0
 11
1735.018731282432
 21
1192.622200991501
 31
0.0
  0
LINE
  5
4086
330
1F
100
AcDbEntity
  8
0
100
AcDbLine
 10
1703.018731282432
 20
1239.122200991501
 30
0.0
 11
1735.018731282432
 21
1239.122200991501
 31
0.0
  0
LINE
  5
4087
330
1F
100
AcDbEntity
  8
0
100
AcDbLine
 10
1703.018731282432
 20
1223.122200991501
 30
0.0
 11
1735.018731282432
 21
1223.122200991501
 31
0.0
  0
LINE
  5
4088
330
1F
100
AcDbEntity
  8
0
100
AcDbLine
 10
1632.018731282432
 20
1239.122200991501
 30
0.0
 11
1634.018731282432
 21
1239.122200991501
 31
0.0
  0
LINE
  5
4089
330
1F
100
AcDbEntity
  8
0
100
AcDbLine
 10
1632.018731282432
 20
1223.122200991501
 30
0.0
 11
1634.018731282432
 21
1223.122200991501
 31
0.0
  0
LINE
  5
408A
330
1F
100
AcDbEntity
  8
0
100
AcDbLine
 10
1632.018731282432
 20
1204.622200991501
 30
0.0
 11
1634.018731282432
 21
1204.622200991501
 31
0.0
  0
LINE
  5
408B
330
1F
100
AcDbEntity
  8
0
100
AcDbLine
 10
1632.018731282432
 20
1192.622200991501
 30
0.0
 11
1634.018731282432
 21
1192.622200991501
 31
0.0
  0
LINE
  5
408C
330
1F
100
AcDbEntity
  8
0
100
AcDbLine
 10
1703.018731282432
 20
1174.122200991501
 30
0.0
 11
1735.018731282432
 21
1174.122200991501
 31
0.0
  0
LINE
  5
408D
330
1F
100
AcDbEntity
  8
0
100
AcDbLine
 10
1703.018731282432
 20
1158.122200991501
 30
0.0
 11
1735.018731282432
 21
1158.122200991501
 31
0.0
  0
LINE
  5
408E
330
1F
100
AcDbEntity
  8
0
100
AcDbLine
 10
1632.018731282432
 20
1174.122200991501
 30
0.0
 11
1634.018731282432
 21
1174.122200991501
 31
0.0
  0
LINE
  5
408F
330
1F
100
AcDbEntity
  8
0
100
AcDbLine
 10
1632.018731282432
 20
1158.122200991501
 30
0.0
 11
1634.018731282432
 21
1158.122200991501
 31
0.0
  0
LINE
  5
4090
330
1F
100
AcDbEntity
  8
AM_7
100
AcDbLine
 10
1618.018731282432
 20
1231.122200991501
 30
0.0
 11
1749.018731282432
 21
1231.122200991501
 31
0.0
1001
GENIUS_GENOBJ-N-CEN_13
1002
{
1000
OWNER
1000
GEN
1002
}
1001
GENIUS_GENODEF_13
1002
{
1000
HIER
1070
     0
1002
}
1002
{
1000
MANEDIT
1070
     0
1002
}
1002
{
1000
NOSEL
1070
     0
1002
}
1002
{
1000
BEHIND
1070
     0
1002
}
1002
{
1000
OTHER
1070
     0
1002
}
1002
{
1000
REACTOR
1002
}
1001
GENIUS_GENCEN_19
1002
{
1040
2.0
1002
}
  0
LINE
  5
4091
330
1F
100
AcDbEntity
  8
AM_7
100
AcDbLine
 10
1618.018731282432
 20
1166.122200991501
 30
0.0
 11
1749.018731282432
 21
1166.122200991501
 31
0.0
1001
GENIUS_GENOBJ-N-CEN_13
1002
{
1000
OWNER
1000
GEN
1002
}
1001
GENIUS_GENODEF_13
1002
{
1000
HIER
1070
     0
1002
}
1002
{
1000
MANEDIT
1070
     0
1002
}
1002
{
1000
NOSEL
1070
     0
1002
}
1002
{
1000
BEHIND
1070
     0
1002
}
1002
{
1000
OTHER
1070
     0
1002
}
1002
{
1000
REACTOR
1002
}
1001
GENIUS_GENCEN_19
1002
{
1040
2.0
1002
}
  0
LINE
  5
4092
330
1F
100
AcDbEntity
  8
AM_7
100
AcDbLine
 10
1618.018731282432
 20
1198.622200991501
 30
0.0
 11
1749.018731282432
 21
1198.622200991501
 31
0.0
1001
GENIUS_GENODEF_13
1002
{
1000
HIER
1070
     0
1002
}
1002
{
1000
MANEDIT
1070
     0
1002
}
1002
{
1000
NOSEL
1070
     0
1002
}
1002
{
1000
BEHIND
1070
     0
1002
}
1002
{
1000
OTHER
1070
     0
1002
}
1002
{
1000
REACTOR
1002
}
1001
GENIUS_GENOBJ-N-CEN_13
1002
{
1000
OWNER
1000
GEN
1002
}
1001
GENIUS_GENCEN_19
1002
{
1040
2.0
1002
}
  0
LINE
  5
409D
330
1F
100
AcDbEntity
  8
AM_7
100
AcDbLine
 10
1618.018731282432
 20
841.4502375704026
 30
0.0
 11
1749.018731282432
 21
841.4502375704026
 31
0.0
1001
GENIUS_GENOBJ-N-CEN_13
1002
{
1000
OWNER
1000
GEN
1002
}
1001
GENIUS_GENODEF_13
1002
{
1000
HIER
1070
     0
1002
}
1002
{
1000
MANEDIT
1070
     0
1002
}
1002
{
1000
NOSEL
1070
     0
1002
}
1002
{
1000
BEHIND
1070
     0
1002
}
1002
{
1000
OTHER
1070
     0
1002
}
1002
{
1000
REACTOR
1002
}
1001
GENIUS_GENCEN_19
1002
{
1040
2.0
1002
}
  0
LINE
  5
409E
330
1F
100
AcDbEntity
  8
0
100
AcDbLine
 10
1703.018731282432
 20
849.4502375704026
 30
0.0
 11
1735.018731282432
 21
849.4502375704026
 31
0.0
  0
LINE
  5
409F
330
1F
100
AcDbEntity
  8
0
100
AcDbLine
 10
1703.018731282432
 20
833.4502375704026
 30
0.0
 11
1735.018731282432
 21
833.4502375704026
 31
0.0
  0
LINE
  5
40A0
330
1F
100
AcDbEntity
  8
0
100
AcDbLine
 10
1632.018731282432
 20
849.4502375704026
 30
0.0
 11
1634.018731282432
 21
849.4502375704026
 31
0.0
  0
LINE
  5
40A1
330
1F
100
AcDbEntity
  8
0
100
AcDbLine
 10
1632.018731282432
 20
833.4502375704026
 30
0.0
 11
1634.018731282432
 21
833.4502375704026
 31
0.0
  0
LINE
  5
40AC
330
1F
100
AcDbEntity
  8
AM_7
100
AcDbLine
 10
1618.018731282432
 20
1091.343212517858
 30
0.0
 11
1749.018731282432
 21
1091.343212517858
 31
0.0
1001
GENIUS_GENOBJ-N-CEN_13
1002
{
1000
OWNER
1000
GEN
1002
}
1001
GENIUS_GENODEF_13
1002
{
1000
HIER
1070
     0
1002
}
1002
{
1000
MANEDIT
1070
     0
1002
}
1002
{
1000
NOSEL
1070
     0
1002
}
1002
{
1000
BEHIND
1070
     0
1002
}
1002
{
1000
OTHER
1070
     0
1002
}
1002
{
1000
REACTOR
1002
}
1001
GENIUS_GENCEN_19
1002
{
1040
2.0
1002
}
  0
LINE
  5
40AD
330
1F
100
AcDbEntity
  8
0
100
AcDbLine
 10
1703.018731282432
 20
1099.343212517858
 30
0.0
 11
1735.018731282432
 21
1099.343212517858
 31
0.0
  0
LINE
  5
40AE
330
1F
100
AcDbEntity
  8
0
100
AcDbLine
 10
1703.018731282432
 20
1083.343212517858
 30
0.0
 11
1735.018731282432
 21
1083.343212517858
 31
0.0
  0
LINE
  5
40AF
330
1F
100
AcDbEntity
  8
0
100
AcDbLine
 10
1632.018731282432
 20
1099.343212517858
 30
0.0
 11
1634.018731282432
 21
1099.343212517858
 31
0.0
  0
LINE
  5
40B0
330
1F
100
AcDbEntity
  8
0
100
AcDbLine
 10
1632.018731282432
 20
1083.343212517858
 30
0.0
 11
1634.018731282432
 21
1083.343212517858
 31
0.0
  0
CIRCLE
  5
40D9
330
1F
100
AcDbEntity
  8
AM_VIS
100
AcDbCircle
 10
1539.495870717405
 20
1007.74692084177
 30
0.0
 40
2.6
  0
ARC
  5
40DA
330
1F
100
AcDbEntity
  8
AM_4
100
AcDbCircle
 10
1539.495870717405
 20
1007.74692084177
 30
0.0
 40
3.0
100
AcDbArc
 50
260.0
 51
170.0
  0
LINE
  5
40DB
330
1F
100
AcDbEntity
  8
AM_7
  6
AM_ISO08W050x2
100
AcDbLine
 10
1534.495870717405
 20
1007.74692084177
 30
0.0
 11
1544.495870717405
 21
1007.74692084177
 31
0.0
  0
LINE
  5
40DC
330
1F
100
AcDbEntity
  8
AM_7
  6
AM_ISO08W050x2
100
AcDbLine
 10
1539.495870717405
 20
1002.74692084177
 30
0.0
 11
1539.495870717405
 21
1012.74692084177
 31
0.0
  0
CIRCLE
  5
40DD
330
1F
100
AcDbEntity
  8
AM_VIS
100
AcDbCircle
 10
1565.495870717405
 20
1007.74692084177
 30
0.0
 40
2.6
  0
ARC
  5
40DE
330
1F
100
AcDbEntity
  8
AM_4
100
AcDbCircle
 10
1565.495870717405
 20
1007.74692084177
 30
0.0
 40
3.0
100
AcDbArc
 50
260.0
 51
170.0
  0
LINE
  5
40DF
330
1F
100
AcDbEntity
  8
AM_7
  6
AM_ISO08W050x2
100
AcDbLine
 10
1560.495870717405
 20
1007.74692084177
 30
0.0
 11
1570.495870717405
 21
1007.74692084177
 31
0.0
  0
LINE
  5
40E0
330
1F
100
AcDbEntity
  8
AM_7
  6
AM_ISO08W050x2
100
AcDbLine
 10
1565.495870717405
 20
1002.74692084177
 30
0.0
 11
1565.495870717405
 21
1012.74692084177
 31
0.0
  0
CIRCLE
  5
40E1
330
1F
100
AcDbEntity
  8
AM_VIS
100
AcDbCircle
 10
1539.495870717405
 20
937.7469208417698
 30
0.0
 40
2.6
  0
ARC
  5
40E2
330
1F
100
AcDbEntity
  8
AM_4
100
AcDbCircle
 10
1539.495870717405
 20
937.7469208417698
 30
0.0
 40
3.0
100
AcDbArc
 50
260.0
 51
170.0
  0
LINE
  5
40E3
330
1F
100
AcDbEntity
  8
AM_7
  6
AM_ISO08W050x2
100
AcDbLine
 10
1534.495870717405
 20
937.7469208417698
 30
0.0
 11
1544.495870717405
 21
937.7469208417698
 31
0.0
  0
LINE
  5
40E4
330
1F
100
AcDbEntity
  8
AM_7
  6
AM_ISO08W050x2
100
AcDbLine
 10
1539.495870717405
 20
932.7469208417699
 30
0.0
 11
1539.495870717405
 21
942.7469208417699
 31
0.0
  0
CIRCLE
  5
40E5
330
1F
100
AcDbEntity
  8
AM_VIS
100
AcDbCircle
 10
1565.495870717405
 20
937.7469208417698
 30
0.0
 40
2.6
  0
ARC
  5
40E6
330
1F
100
AcDbEntity
  8
AM_4
100
AcDbCircle
 10
1565.495870717405
 20
937.7469208417698
 30
0.0
 40
3.0
100
AcDbArc
 50
260.0
 51
170.0
  0
LINE
  5
40E7
330
1F
100
AcDbEntity
  8
AM_7
  6
AM_ISO08W050x2
100
AcDbLine
 10
1560.495870717405
 20
937.7469208417698
 30
0.0
 11
1570.495870717405
 21
937.7469208417698
 31
0.0
  0
LINE
  5
40E8
330
1F
100
AcDbEntity
  8
AM_7
  6
AM_ISO08W050x2
100
AcDbLine
 10
1565.495870717405
 20
932.7469208417699
 30
0.0
 11
1565.495870717405
 21
942.7469208417699
 31
0.0
  0
CIRCLE
  5
40E9
330
1F
100
AcDbEntity
  8
AM_VIS
100
AcDbCircle
 10
1812.040069900398
 20
937.7469208417698
 30
0.0
 40
2.6
  0
ARC
  5
40EA
330
1F
100
AcDbEntity
  8
AM_4
100
AcDbCircle
 10
1812.040069900398
 20
937.7469208417698
 30
0.0
 40
3.0
100
AcDbArc
 50
260.0
 51
170.0
  0
LINE
  5
40EB
330
1F
100
AcDbEntity
  8
AM_7
  6
AM_ISO08W050x2
100
AcDbLine
 10
1807.040069900398
 20
937.7469208417698
 30
0.0
 11
1817.040069900398
 21
937.7469208417698
 31
0.0
  0
LINE
  5
40EC
330
1F
100
AcDbEntity
  8
AM_7
  6
AM_ISO08W050x2
100
AcDbLine
 10
1812.040069900398
 20
932.7469208417699
 30
0.0
 11
1812.040069900398
 21
942.7469208417699
 31
0.0
  0
CIRCLE
  5
40ED
330
1F
100
AcDbEntity
  8
AM_VIS
100
AcDbCircle
 10
1838.040069900398
 20
937.7469208417698
 30
0.0
 40
2.6
  0
ARC
  5
40EE
330
1F
100
AcDbEntity
  8
AM_4
100
AcDbCircle
 10
1838.040069900398
 20
937.7469208417698
 30
0.0
 40
3.0
100
AcDbArc
 50
260.0
 51
170.0
  0
LINE
  5
40EF
330
1F
100
AcDbEntity
  8
AM_7
  6
AM_ISO08W050x2
100
AcDbLine
 10
1833.040069900398
 20
937.7469208417698
 30
0.0
 11
1843.040069900398
 21
937.7469208417698
 31
0.0
  0
LINE
  5
40F0
330
1F
100
AcDbEntity
  8
AM_7
  6
AM_ISO08W050x2
100
AcDbLine
 10
1838.040069900398
 20
932.7469208417699
 30
0.0
 11
1838.040069900398
 21
942.7469208417699
 31
0.0
  0
CIRCLE
  5
40F1
330
1F
100
AcDbEntity
  8
AM_VIS
100
AcDbCircle
 10
1838.040069900398
 20
1007.74692084177
 30
0.0
 40
2.6
  0
ARC
  5
40F2
330
1F
100
AcDbEntity
  8
AM_4
100
AcDbCircle
 10
1838.040069900398
 20
1007.74692084177
 30
0.0
 40
3.0
100
AcDbArc
 50
260.0
 51
170.0
  0
LINE
  5
40F3
330
1F
100
AcDbEntity
  8
AM_7
  6
AM_ISO08W050x2
100
AcDbLine
 10
1833.040069900398
 20
1007.74692084177
 30
0.0
 11
1843.040069900398
 21
1007.74692084177
 31
0.0
  0
LINE
  5
40F4
330
1F
100
AcDbEntity
  8
AM_7
  6
AM_ISO08W050x2
100
AcDbLine
 10
1838.040069900398
 20
1002.74692084177
 30
0.0
 11
1838.040069900398
 21
1012.74692084177
 31
0.0
  0
CIRCLE
  5
40F5
330
1F
100
AcDbEntity
  8
AM_VIS
100
AcDbCircle
 10
1812.040069900398
 20
1007.74692084177
 30
0.0
 40
2.6
  0
ARC
  5
40F6
330
1F
100
AcDbEntity
  8
AM_4
100
AcDbCircle
 10
1812.040069900398
 20
1007.74692084177
 30
0.0
 40
3.0
100
AcDbArc
 50
260.0
 51
170.0
  0
LINE
  5
40F7
330
1F
100
AcDbEntity
  8
AM_7
  6
AM_ISO08W050x2
100
AcDbLine
 10
1807.040069900398
 20
1007.74692084177
 30
0.0
 11
1817.040069900398
 21
1007.74692084177
 31
0.0
  0
LINE
  5
40F8
330
1F
100
AcDbEntity
  8
AM_7
  6
AM_ISO08W050x2
100
AcDbLine
 10
1812.040069900398
 20
1002.74692084177
 30
0.0
 11
1812.040069900398
 21
1012.74692084177
 31
0.0
  0
LINE
  5
4155
330
1F
100
AcDbEntity
  8
AM_7
  6
AM_ISO08W050x2
100
AcDbLine
 10
1817.790069900398
 20
1005.24692084177
 30
0.0
 11
1832.290069900398
 21
1005.24692084177
 31
0.0
  0
CIRCLE
  5
4156
330
1F
100
AcDbEntity
  8
AM_0N
100
AcDbCircle
 10
1825.040069900398
 20
1005.24692084177
 30
0.0
 40
5.25
  0
CIRCLE
  5
4157
330
1F
100
AcDbEntity
  8
AM_0N
100
AcDbCircle
 10
1825.040069900398
 20
1005.24692084177
 30
0.0
 40
2.309401076758493
  0
LINE
  5
4158
330
1F
100
AcDbEntity
  8
AM_0N
100
AcDbLine
 10
1827.349470977156
 20
1005.24692084177
 30
0.0
 11
1826.194770438778
 21
1007.24692084177
 31
0.0
  0
LINE
  5
4159
330
1F
100
AcDbEntity
  8
AM_0N
100
AcDbLine
 10
1823.885369362019
 20
1007.24692084177
 30
0.0
 11
1822.73066882364
 21
1005.24692084177
 31
0.0
  0
LINE
  5
415A
330
1F
100
AcDbEntity
  8
AM_7
  6
AM_ISO08W050x2
100
AcDbLine
 10
1825.040069900398
 20
1012.49692084177
 30
0.0
 11
1825.040069900398
 21
997.9969208417699
 31
0.0
  0
LINE
  5
415B
330
1F
100
AcDbEntity
  8
AM_0N
100
AcDbLine
 10
1823.885369362018
 20
1003.24692084177
 30
0.0
 11
1826.194770438777
 21
1003.24692084177
 31
0.0
  0
LINE
  5
415C
330
1F
100
AcDbEntity
  8
AM_0N
100
AcDbLine
 10
1822.73066882364
 20
1005.24692084177
 30
0.0
 11
1823.885369362018
 21
1003.24692084177
 31
0.0
  0
LINE
  5
415D
330
1F
100
AcDbEntity
  8
AM_0N
100
AcDbLine
 10
1826.194770438777
 20
1003.24692084177
 30
0.0
 11
1827.349470977156
 21
1005.24692084177
 31
0.0
  0
LINE
  5
415E
330
1F
100
AcDbEntity
  8
AM_0N
100
AcDbLine
 10
1826.194770438778
 20
1007.24692084177
 30
0.0
 11
1823.885369362019
 21
1007.24692084177
 31
0.0
  0
LINE
  5
415F
330
1F
100
AcDbEntity
  8
AM_7
  6
AM_ISO08W050x2
100
AcDbLine
 10
1817.790069900398
 20
972.74692084177
 30
0.0
 11
1832.290069900398
 21
972.74692084177
 31
0.0
  0
CIRCLE
  5
4160
330
1F
100
AcDbEntity
  8
AM_0N
100
AcDbCircle
 10
1825.040069900398
 20
972.74692084177
 30
0.0
 40
5.25
  0
CIRCLE
  5
4161
330
1F
100
AcDbEntity
  8
AM_0N
100
AcDbCircle
 10
1825.040069900398
 20
972.74692084177
 30
0.0
 40
2.309401076758493
  0
LINE
  5
4162
330
1F
100
AcDbEntity
  8
AM_0N
100
AcDbLine
 10
1827.349470977156
 20
972.74692084177
 30
0.0
 11
1826.194770438778
 21
974.7469208417699
 31
0.0
  0
LINE
  5
4163
330
1F
100
AcDbEntity
  8
AM_0N
100
AcDbLine
 10
1823.885369362019
 20
974.7469208417699
 30
0.0
 11
1822.73066882364
 21
972.7469208417703
 31
0.0
  0
LINE
  5
4164
330
1F
100
AcDbEntity
  8
AM_7
  6
AM_ISO08W050x2
100
AcDbLine
 10
1825.040069900398
 20
979.9969208417699
 30
0.0
 11
1825.040069900398
 21
965.4969208417698
 31
0.0
  0
LINE
  5
4165
330
1F
100
AcDbEntity
  8
AM_0N
100
AcDbLine
 10
1823.885369362018
 20
970.7469208417698
 30
0.0
 11
1826.194770438777
 21
970.7469208417698
 31
0.0
  0
LINE
  5
4166
330
1F
100
AcDbEntity
  8
AM_0N
100
AcDbLine
 10
1822.73066882364
 20
972.7469208417703
 30
0.0
 11
1823.885369362018
 21
970.7469208417698
 31
0.0
  0
LINE
  5
4167
330
1F
100
AcDbEntity
  8
AM_0N
100
AcDbLine
 10
1826.194770438777
 20
970.7469208417698
 30
0.0
 11
1827.349470977156
 21
972.74692084177
 31
0.0
  0
LINE
  5
4168
330
1F
100
AcDbEntity
  8
AM_0N
100
AcDbLine
 10
1826.194770438778
 20
974.7469208417699
 30
0.0
 11
1823.885369362019
 21
974.7469208417699
 31
0.0
  0
LINE
  5
4169
330
1F
100
AcDbEntity
  8
AM_7
  6
AM_ISO08W050x2
100
AcDbLine
 10
1545.245870717405
 20
940.2469208417699
 30
0.0
 11
1559.745870717405
 21
940.2469208417699
 31
0.0
  0
CIRCLE
  5
416A
330
1F
100
AcDbEntity
  8
AM_0N
100
AcDbCircle
 10
1552.495870717405
 20
940.2469208417699
 30
0.0
 40
5.25
  0
CIRCLE
  5
416B
330
1F
100
AcDbEntity
  8
AM_0N
100
AcDbCircle
 10
1552.495870717405
 20
940.2469208417699
 30
0.0
 40
2.309401076758493
  0
LINE
  5
416C
330
1F
100
AcDbEntity
  8
AM_0N
100
AcDbLine
 10
1554.805271794164
 20
940.2469208417699
 30
0.0
 11
1553.650571255786
 21
942.2469208417698
 31
0.0
  0
LINE
  5
416D
330
1F
100
AcDbEntity
  8
AM_0N
100
AcDbLine
 10
1551.341170179026
 20
942.2469208417698
 30
0.0
 11
1550.186469640647
 21
940.2469208417704
 31
0.0
  0
LINE
  5
416E
330
1F
100
AcDbEntity
  8
AM_7
  6
AM_ISO08W050x2
100
AcDbLine
 10
1552.495870717405
 20
947.4969208417698
 30
0.0
 11
1552.495870717405
 21
932.9969208417699
 31
0.0
  0
LINE
  5
416F
330
1F
100
AcDbEntity
  8
AM_0N
100
AcDbLine
 10
1551.341170179025
 20
938.2469208417699
 30
0.0
 11
1553.650571255784
 21
938.2469208417699
 31
0.0
  0
LINE
  5
4170
330
1F
100
AcDbEntity
  8
AM_0N
100
AcDbLine
 10
1550.186469640647
 20
940.2469208417704
 30
0.0
 11
1551.341170179025
 21
938.2469208417699
 31
0.0
  0
LINE
  5
4171
330
1F
100
AcDbEntity
  8
AM_0N
100
AcDbLine
 10
1553.650571255784
 20
938.2469208417699
 30
0.0
 11
1554.805271794164
 21
940.2469208417699
 31
0.0
  0
LINE
  5
4172
330
1F
100
AcDbEntity
  8
AM_0N
100
AcDbLine
 10
1553.650571255786
 20
942.2469208417698
 30
0.0
 11
1551.341170179026
 21
942.2469208417698
 31
0.0
  0
LINE
  5
4173
330
1F
100
AcDbEntity
  8
AM_7
  6
AM_ISO08W050x2
100
AcDbLine
 10
1545.245870717405
 20
972.74692084177
 30
0.0
 11
1559.745870717405
 21
972.74692084177
 31
0.0
  0
CIRCLE
  5
4174
330
1F
100
AcDbEntity
  8
AM_0N
100
AcDbCircle
 10
1552.495870717405
 20
972.74692084177
 30
0.0
 40
5.25
  0
CIRCLE
  5
4175
330
1F
100
AcDbEntity
  8
AM_0N
100
AcDbCircle
 10
1552.495870717405
 20
972.74692084177
 30
0.0
 40
2.309401076758493
  0
LINE
  5
4176
330
1F
100
AcDbEntity
  8
AM_0N
100
AcDbLine
 10
1554.805271794164
 20
972.74692084177
 30
0.0
 11
1553.650571255786
 21
974.7469208417699
 31
0.0
  0
LINE
  5
4177
330
1F
100
AcDbEntity
  8
AM_0N
100
AcDbLine
 10
1551.341170179026
 20
974.7469208417699
 30
0.0
 11
1550.186469640647
 21
972.7469208417703
 31
0.0
  0
LINE
  5
4178
330
1F
100
AcDbEntity
  8
AM_7
  6
AM_ISO08W050x2
100
AcDbLine
 10
1552.495870717405
 20
979.9969208417699
 30
0.0
 11
1552.495870717405
 21
965.4969208417698
 31
0.0
  0
LINE
  5
4179
330
1F
100
AcDbEntity
  8
AM_0N
100
AcDbLine
 10
1551.341170179025
 20
970.7469208417698
 30
0.0
 11
1553.650571255784
 21
970.7469208417698
 31
0.0
  0
LINE
  5
417A
330
1F
100
AcDbEntity
  8
AM_0N
100
AcDbLine
 10
1550.186469640647
 20
972.7469208417703
 30
0.0
 11
1551.341170179025
 21
970.7469208417698
 31
0.0
  0
LINE
  5
417B
330
1F
100
AcDbEntity
  8
AM_0N
100
AcDbLine
 10
1553.650571255784
 20
970.7469208417698
 30
0.0
 11
1554.805271794164
 21
972.74692084177
 31
0.0
  0
LINE
  5
417C
330
1F
100
AcDbEntity
  8
AM_0N
100
AcDbLine
 10
1553.650571255786
 20
974.7469208417699
 30
0.0
 11
1551.341170179026
 21
974.7469208417699
 31
0.0
  0
LINE
  5
417D
330
1F
100
AcDbEntity
  8
AM_7
  6
AM_ISO08W050x2
100
AcDbLine
 10
1545.245870717405
 20
1005.24692084177
 30
0.0
 11
1559.745870717405
 21
1005.24692084177
 31
0.0
  0
LINE
  5
417E
330
1F
100
AcDbEntity
  8
AM_7
  6
AM_ISO08W050x2
100
AcDbLine
 10
1552.495870717405
 20
1012.49692084177
 30
0.0
 11
1552.495870717405
 21
997.9969208417699
 31
0.0
  0
LINE
  5
417F
330
1F
100
AcDbEntity
  8
AM_7
  6
AM_ISO08W050x2
100
AcDbLine
 10
1817.790069900398
 20
940.2469208417699
 30
0.0
 11
1832.290069900398
 21
940.2469208417699
 31
0.0
  0
LINE
  5
4180
330
1F
100
AcDbEntity
  8
AM_7
  6
AM_ISO08W050x2
100
AcDbLine
 10
1825.040069900398
 20
947.4969208417698
 30
0.0
 11
1825.040069900398
 21
932.9969208417699
 31
0.0
  0
LINE
  5
4191
330
1F
100
AcDbEntity
  8
AM_7
  6
AM_ISO08W050x2
100
AcDbLine
 10
1653.518731282432
 20
989.74692084177
 30
0.0
 11
1660.268731282432
 21
989.74692084177
 31
0.0
1001
GENIUS_GENOREF_13
1005
4195
  0
LINE
  5
4192
330
1F
100
AcDbEntity
  8
AM_7
  6
AM_ISO08W050x2
100
AcDbLine
 10
1653.518731282432
 20
989.74692084177
 30
0.0
 11
1653.518731282432
 21
996.4969208417699
 31
0.0
1001
GENIUS_GENOREF_13
1005
4195
  0
LINE
  5
4193
330
1F
100
AcDbEntity
  8
AM_7
  6
AM_ISO08W050x2
100
AcDbLine
 10
1653.518731282432
 20
989.74692084177
 30
0.0
 11
1646.768731282431
 21
989.74692084177
 31
0.0
1001
GENIUS_GENOREF_13
1005
4195
  0
LINE
  5
4194
330
1F
100
AcDbEntity
  8
AM_7
  6
AM_ISO08W050x2
100
AcDbLine
 10
1653.518731282432
 20
989.74692084177
 30
0.0
 11
1653.518731282432
 21
982.9969208417699
 31
0.0
1001
GENIUS_GENOREF_13
1005
4195
  0
POINT
  5
4195
330
1F
100
AcDbEntity
  8
0
 60
     1
100
AcDbPoint
 10
0.0
 20
0.0
 30
0.0
1001
GENIUS_GENODEF_13
1002
{
1000
HIER
1070
    10
1002
}
1002
{
1000
MANEDIT
1070
     0
1002
}
1002
{
1000
NOSEL
1070
     0
1002
}
1002
{
1000
BEHIND
1070
     0
1002
}
1002
{
1000
OTHER
1070
     0
1002
}
1002
{
1000
REACTOR
1002
}
1001
GENIUS_GENOLIS_13
1002
{
1000
ENT
1005
4194
1005
4193
1005
4192
1005
4191
1002
}
1001
GENIUS_GENOENT_13
1002
{
1000
MYREF
1005
4195
1002
}
1002
{
1000
GRP
1005
0
1002
}
1001
GENIUS_GENOBJ-N-CRS_13
1002
{
1000
OWNER
1000
GEN
1002
}
  0
LINE
  5
41A3
330
1F
100
AcDbEntity
  8
AM_7
  6
AM_ISO08W050x2
100
AcDbLine
 10
1683.518731282432
 20
989.74692084177
 30
0.0
 11
1690.268731282432
 21
989.74692084177
 31
0.0
1001
GENIUS_GENOREF_13
1005
41A7
  0
LINE
  5
41A4
330
1F
100
AcDbEntity
  8
AM_7
  6
AM_ISO08W050x2
100
AcDbLine
 10
1683.518731282432
 20
989.74692084177
 30
0.0
 11
1683.518731282432
 21
996.4969208417699
 31
0.0
1001
GENIUS_GENOREF_13
1005
41A7
  0
LINE
  5
41A5
330
1F
100
AcDbEntity
  8
AM_7
  6
AM_ISO08W050x2
100
AcDbLine
 10
1683.518731282432
 20
989.74692084177
 30
0.0
 11
1676.768731282432
 21
989.74692084177
 31
0.0
1001
GENIUS_GENOREF_13
1005
41A7
  0
LINE
  5
41A6
330
1F
100
AcDbEntity
  8
AM_7
  6
AM_ISO08W050x2
100
AcDbLine
 10
1683.518731282432
 20
989.74692084177
 30
0.0
 11
1683.518731282432
 21
982.9969208417699
 31
0.0
1001
GENIUS_GENOREF_13
1005
41A7
  0
POINT
  5
41A7
330
1F
100
AcDbEntity
  8
0
 60
     1
100
AcDbPoint
 10
0.0
 20
0.0
 30
0.0
1001
GENIUS_GENOLIS_13
1002
{
1000
ENT
1005
41A6
1005
41A5
1005
41A4
1005
41A3
1002
}
1001
GENIUS_GENOENT_13
1002
{
1000
MYREF
1005
41A7
1002
}
1002
{
1000
GRP
1005
0
1002
}
1001
GENIUS_GENOBJ-N-CRS_13
1002
{
1000
OWNER
1000
GEN
1002
}
1001
GENIUS_GENODEF_13
1002
{
1000
HIER
1070
    10
1002
}
1002
{
1000
MANEDIT
1070
     0
1002
}
1002
{
1000
NOSEL
1070
     0
1002
}
1002
{
1000
BEHIND
1070
     0
1002
}
1002
{
1000
OTHER
1070
     0
1002
}
1002
{
1000
REACTOR
1002
}
  0
LINE
  5
41B5
330
1F
100
AcDbEntity
  8
AM_7
  6
AM_ISO08W050x2
100
AcDbLine
 10
1683.518731282432
 20
955.7469208417698
 30
0.0
 11
1690.268731282432
 21
955.7469208417698
 31
0.0
1001
GENIUS_GENOREF_13
1005
41B9
  0
LINE
  5
41B6
330
1F
100
AcDbEntity
  8
AM_7
  6
AM_ISO08W050x2
100
AcDbLine
 10
1683.518731282432
 20
955.7469208417698
 30
0.0
 11
1683.518731282432
 21
962.4969208417699
 31
0.0
1001
GENIUS_GENOREF_13
1005
41B9
  0
LINE
  5
41B7
330
1F
100
AcDbEntity
  8
AM_7
  6
AM_ISO08W050x2
100
AcDbLine
 10
1683.518731282432
 20
955.7469208417698
 30
0.0
 11
1676.768731282432
 21
955.7469208417698
 31
0.0
1001
GENIUS_GENOREF_13
1005
41B9
  0
LINE
  5
41B8
330
1F
100
AcDbEntity
  8
AM_7
  6
AM_ISO08W050x2
100
AcDbLine
 10
1683.518731282432
 20
955.7469208417698
 30
0.0
 11
1683.518731282432
 21
948.9969208417699
 31
0.0
1001
GENIUS_GENOREF_13
1005
41B9
  0
POINT
  5
41B9
330
1F
100
AcDbEntity
  8
0
 60
     1
100
AcDbPoint
 10
0.0
 20
0.0
 30
0.0
1001
GENIUS_GENOLIS_13
1002
{
1000
ENT
1005
41B8
1005
41B7
1005
41B6
1005
41B5
1002
}
1001
GENIUS_GENOENT_13
1002
{
1000
MYREF
1005
41B9
1002
}
1002
{
1000
GRP
1005
0
1002
}
1001
GENIUS_GENOBJ-N-CRS_13
1002
{
1000
OWNER
1000
GEN
1002
}
1001
GENIUS_GENODEF_13
1002
{
1000
HIER
1070
    10
1002
}
1002
{
1000
MANEDIT
1070
     0
1002
}
1002
{
1000
NOSEL
1070
     0
1002
}
1002
{
1000
BEHIND
1070
     0
1002
}
1002
{
1000
OTHER
1070
     0
1002
}
1002
{
1000
REACTOR
1002
}
  0
LINE
  5
41C7
330
1F
100
AcDbEntity
  8
AM_7
  6
AM_ISO08W050x2
100
AcDbLine
 10
1653.518731282432
 20
955.7469208417698
 30
0.0
 11
1660.268731282432
 21
955.7469208417698
 31
0.0
1001
GENIUS_GENOREF_13
1005
41CB
  0
LINE
  5
41C8
330
1F
100
AcDbEntity
  8
AM_7
  6
AM_ISO08W050x2
100
AcDbLine
 10
1653.518731282432
 20
955.7469208417698
 30
0.0
 11
1653.518731282432
 21
962.4969208417699
 31
0.0
1001
GENIUS_GENOREF_13
1005
41CB
  0
LINE
  5
41C9
330
1F
100
AcDbEntity
  8
AM_7
  6
AM_ISO08W050x2
100
AcDbLine
 10
1653.518731282432
 20
955.7469208417698
 30
0.0
 11
1646.768731282431
 21
955.7469208417698
 31
0.0
1001
GENIUS_GENOREF_13
1005
41CB
  0
LINE
  5
41CA
330
1F
100
AcDbEntity
  8
AM_7
  6
AM_ISO08W050x2
100
AcDbLine
 10
1653.518731282432
 20
955.7469208417698
 30
0.0
 11
1653.518731282432
 21
948.9969208417699
 31
0.0
1001
GENIUS_GENOREF_13
1005
41CB
  0
POINT
  5
41CB
330
1F
100
AcDbEntity
  8
0
 60
     1
100
AcDbPoint
 10
0.0
 20
0.0
 30
0.0
1001
GENIUS_GENOBJ-N-CRS_13
1002
{
1000
OWNER
1000
GEN
1002
}
1001
GENIUS_GENOLIS_13
1002
{
1000
ENT
1005
41CA
1005
41C9
1005
41C8
1005
41C7
1002
}
1001
GENIUS_GENOENT_13
1002
{
1000
MYREF
1005
41CB
1002
}
1002
{
1000
GRP
1005
0
1002
}
1001
GENIUS_GENODEF_13
1002
{
1000
HIER
1070
    10
1002
}
1002
{
1000
MANEDIT
1070
     0
1002
}
1002
{
1000
NOSEL
1070
     0
1002
}
1002
{
1000
BEHIND
1070
     0
1002
}
1002
{
1000
OTHER
1070
     0
1002
}
1002
{
1000
REACTOR
1002
}
  0
ARC
  5
41CE
330
1F
100
AcDbEntity
  8
AM_4
100
AcDbCircle
 10
1645.018731282432
 20
854.9502375704026
 30
0.0
 40
4.863999999999999
100
AcDbArc
 50
260.0
 51
170.0
  0
LINE
  5
41CF
330
1F
100
AcDbEntity
  8
AM_7
  6
AM_ISO08W050x2
100
AcDbLine
 10
1645.018731282432
 20
861.8142375704026
 30
0.0
 11
1645.018731282432
 21
848.0862375704026
 31
0.0
  0
CIRCLE
  5
41D0
330
1F
100
AcDbEntity
  8
AM_0
100
AcDbCircle
 10
1645.018731282432
 20
854.9502375704026
 30
0.0
 40
4.283
  0
LINE
  5
41D1
330
1F
100
AcDbEntity
  8
AM_7
  6
AM_ISO08W050x2
100
AcDbLine
 10
1638.154731282432
 20
854.9502375704026
 30
0.0
 11
1651.882731282432
 21
854.9502375704026
 31
0.0
  0
ARC
  5
41D2
330
1F
100
AcDbEntity
  8
AM_4
100
AcDbCircle
 10
1692.018731282432
 20
854.9502375704026
 30
0.0
 40
4.863999999999999
100
AcDbArc
 50
260.0
 51
170.0
  0
LINE
  5
41D3
330
1F
100
AcDbEntity
  8
AM_7
  6
AM_ISO08W050x2
100
AcDbLine
 10
1692.018731282432
 20
861.8142375704026
 30
0.0
 11
1692.018731282432
 21
848.0862375704026
 31
0.0
  0
CIRCLE
  5
41D4
330
1F
100
AcDbEntity
  8
AM_0
100
AcDbCircle
 10
1692.018731282432
 20
854.9502375704026
 30
0.0
 40
4.283
  0
LINE
  5
41D5
330
1F
100
AcDbEntity
  8
AM_7
  6
AM_ISO08W050x2
100
AcDbLine
 10
1685.154731282432
 20
854.9502375704026
 30
0.0
 11
1698.882731282432
 21
854.9502375704026
 31
0.0
  0
LINE
  5
41E3
330
1F
100
AcDbEntity
  8
AM_7
  6
AM_ISO08W050x2
100
AcDbLine
 10
1626.018731282432
 20
1014.74692084177
 30
0.0
 11
1631.018731282432
 21
1014.74692084177
 31
0.0
1001
GENIUS_GENOREF_13
1005
41E7
  0
LINE
  5
41E4
330
1F
100
AcDbEntity
  8
AM_7
  6
AM_ISO08W050x2
100
AcDbLine
 10
1626.018731282432
 20
1014.74692084177
 30
0.0
 11
1626.018731282432
 21
1019.74692084177
 31
0.0
1001
GENIUS_GENOREF_13
1005
41E7
  0
LINE
  5
41E5
330
1F
100
AcDbEntity
  8
AM_7
  6
AM_ISO08W050x2
100
AcDbLine
 10
1626.018731282432
 20
1014.74692084177
 30
0.0
 11
1621.018731282432
 21
1014.74692084177
 31
0.0
1001
GENIUS_GENOREF_13
1005
41E7
  0
LINE
  5
41E6
330
1F
100
AcDbEntity
  8
AM_7
  6
AM_ISO08W050x2
100
AcDbLine
 10
1626.018731282432
 20
1014.74692084177
 30
0.0
 11
1626.018731282432
 21
1009.74692084177
 31
0.0
1001
GENIUS_GENOREF_13
1005
41E7
  0
POINT
  5
41E7
330
1F
100
AcDbEntity
  8
0
 60
     1
100
AcDbPoint
 10
0.0
 20
0.0
 30
0.0
1001
GENIUS_GENOLIS_13
1002
{
1000
ENT
1005
41E6
1005
41E5
1005
41E4
1005
41E3
1002
}
1001
GENIUS_GENOBJ-N-CRS_13
1002
{
1000
OWNER
1000
GEN
1002
}
1001
GENIUS_GENODEF_13
1002
{
1000
HIER
1070
    10
1002
}
1002
{
1000
MANEDIT
1070
     0
1002
}
1002
{
1000
NOSEL
1070
     0
1002
}
1002
{
1000
BEHIND
1070
     0
1002
}
1002
{
1000
OTHER
1070
     0
1002
}
1002
{
1000
REACTOR
1002
}
1001
GENIUS_GENOENT_13
1002
{
1000
MYREF
1005
41E7
1002
}
1002
{
1000
GRP
1005
0
1002
}
  0
LINE
  5
41F5
330
1F
100
AcDbEntity
  8
AM_7
  6
AM_ISO08W050x2
100
AcDbLine
 10
1626.018731282432
 20
994.7469208417698
 30
0.0
 11
1630.818731282432
 21
994.7469208417698
 31
0.0
1001
GENIUS_GENOREF_13
1005
41F9
  0
LINE
  5
41F6
330
1F
100
AcDbEntity
  8
AM_7
  6
AM_ISO08W050x2
100
AcDbLine
 10
1626.018731282432
 20
994.7469208417698
 30
0.0
 11
1626.018731282432
 21
999.54692084177
 31
0.0
1001
GENIUS_GENOREF_13
1005
41F9
  0
LINE
  5
41F7
330
1F
100
AcDbEntity
  8
AM_7
  6
AM_ISO08W050x2
100
AcDbLine
 10
1626.018731282432
 20
994.7469208417698
 30
0.0
 11
1621.218731282431
 21
994.7469208417698
 31
0.0
1001
GENIUS_GENOREF_13
1005
41F9
  0
LINE
  5
41F8
330
1F
100
AcDbEntity
  8
AM_7
  6
AM_ISO08W050x2
100
AcDbLine
 10
1626.018731282432
 20
994.7469208417698
 30
0.0
 11
1626.018731282432
 21
989.9469208417697
 31
0.0
1001
GENIUS_GENOREF_13
1005
41F9
  0
POINT
  5
41F9
330
1F
100
AcDbEntity
  8
0
 60
     1
100
AcDbPoint
 10
0.0
 20
0.0
 30
0.0
1001
GENIUS_GENOLIS_13
1002
{
1000
ENT
1005
41F8
1005
41F7
1005
41F6
1005
41F5
1002
}
1001
GENIUS_GENODEF_13
1002
{
1000
HIER
1070
    10
1002
}
1002
{
1000
MANEDIT
1070
     0
1002
}
1002
{
1000
NOSEL
1070
     0
1002
}
1002
{
1000
BEHIND
1070
     0
1002
}
1002
{
1000
OTHER
1070
     0
1002
}
1002
{
1000
REACTOR
1002
}
1001
GENIUS_GENOENT_13
1002
{
1000
MYREF
1005
41F9
1002
}
1002
{
1000
GRP
1005
0
1002
}
1001
GENIUS_GENOBJ-N-CRS_13
1002
{
1000
OWNER
1000
GEN
1002
}
  0
LINE
  5
4207
330
1F
100
AcDbEntity
  8
AM_7
  6
AM_ISO08W050x2
100
AcDbLine
 10
1626.018731282432
 20
950.7469208417699
 30
0.0
 11
1630.818731282432
 21
950.7469208417699
 31
0.0
1001
GENIUS_GENOREF_13
1005
420B
  0
LINE
  5
4208
330
1F
100
AcDbEntity
  8
AM_7
  6
AM_ISO08W050x2
100
AcDbLine
 10
1626.018731282432
 20
950.7469208417699
 30
0.0
 11
1626.018731282432
 21
955.5469208417701
 31
0.0
1001
GENIUS_GENOREF_13
1005
420B
  0
LINE
  5
4209
330
1F
100
AcDbEntity
  8
AM_7
  6
AM_ISO08W050x2
100
AcDbLine
 10
1626.018731282432
 20
950.7469208417699
 30
0.0
 11
1621.218731282431
 21
950.7469208417699
 31
0.0
1001
GENIUS_GENOREF_13
1005
420B
  0
LINE
  5
420A
330
1F
100
AcDbEntity
  8
AM_7
  6
AM_ISO08W050x2
100
AcDbLine
 10
1626.018731282432
 20
950.7469208417699
 30
0.0
 11
1626.018731282432
 21
945.9469208417697
 31
0.0
1001
GENIUS_GENOREF_13
1005
420B
  0
POINT
  5
420B
330
1F
100
AcDbEntity
  8
0
 60
     1
100
AcDbPoint
 10
0.0
 20
0.0
 30
0.0
1001
GENIUS_GENOLIS_13
1002
{
1000
ENT
1005
420A
1005
4209
1005
4208
1005
4207
1002
}
1001
GENIUS_GENOENT_13
1002
{
1000
MYREF
1005
420B
1002
}
1002
{
1000
GRP
1005
0
1002
}
1001
GENIUS_GENODEF_13
1002
{
1000
HIER
1070
    10
1002
}
1002
{
1000
MANEDIT
1070
     0
1002
}
1002
{
1000
NOSEL
1070
     0
1002
}
1002
{
1000
BEHIND
1070
     0
1002
}
1002
{
1000
OTHER
1070
     0
1002
}
1002
{
1000
REACTOR
1002
}
1001
GENIUS_GENOBJ-N-CRS_13
1002
{
1000
OWNER
1000
GEN
1002
}
  0
LINE
  5
4219
330
1F
100
AcDbEntity
  8
AM_7
  6
AM_ISO08W050x2
100
AcDbLine
 10
1626.018731282432
 20
930.7469208417698
 30
0.0
 11
1631.018731282432
 21
930.7469208417698
 31
0.0
1001
GENIUS_GENOREF_13
1005
421D
  0
LINE
  5
421A
330
1F
100
AcDbEntity
  8
AM_7
  6
AM_ISO08W050x2
100
AcDbLine
 10
1626.018731282432
 20
930.7469208417698
 30
0.0
 11
1626.018731282432
 21
935.7469208417699
 31
0.0
1001
GENIUS_GENOREF_13
1005
421D
  0
LINE
  5
421B
330
1F
100
AcDbEntity
  8
AM_7
  6
AM_ISO08W050x2
100
AcDbLine
 10
1626.018731282432
 20
930.7469208417698
 30
0.0
 11
1621.018731282432
 21
930.7469208417698
 31
0.0
1001
GENIUS_GENOREF_13
1005
421D
  0
LINE
  5
421C
330
1F
100
AcDbEntity
  8
AM_7
  6
AM_ISO08W050x2
100
AcDbLine
 10
1626.018731282432
 20
930.7469208417698
 30
0.0
 11
1626.018731282432
 21
925.7469208417699
 31
0.0
1001
GENIUS_GENOREF_13
1005
421D
  0
POINT
  5
421D
330
1F
100
AcDbEntity
  8
0
 60
     1
100
AcDbPoint
 10
0.0
 20
0.0
 30
0.0
1001
GENIUS_GENOLIS_13
1002
{
1000
ENT
1005
421C
1005
421B
1005
421A
1005
4219
1002
}
1001
GENIUS_GENOENT_13
1002
{
1000
MYREF
1005
421D
1002
}
1002
{
1000
GRP
1005
0
1002
}
1001
GENIUS_GENOBJ-N-CRS_13
1002
{
1000
OWNER
1000
GEN
1002
}
1001
GENIUS_GENODEF_13
1002
{
1000
HIER
1070
    10
1002
}
1002
{
1000
MANEDIT
1070
     0
1002
}
1002
{
1000
NOSEL
1070
     0
1002
}
1002
{
1000
BEHIND
1070
     0
1002
}
1002
{
1000
OTHER
1070
     0
1002
}
1002
{
1000
REACTOR
1002
}
  0
LINE
  5
422B
102
{ACAD_REACTORS
330
4B30
102
}
330
1F
100
AcDbEntity
  8
AM_7
  6
AM_ISO08W050x2
100
AcDbLine
 10
1741.018731282432
 20
930.7469208417698
 30
0.0
 11
1746.018731282432
 21
930.7469208417698
 31
0.0
1001
GENIUS_GENOREF_13
1005
422F
  0
LINE
  5
422C
330
1F
100
AcDbEntity
  8
AM_7
  6
AM_ISO08W050x2
100
AcDbLine
 10
1741.018731282432
 20
930.7469208417698
 30
0.0
 11
1741.018731282432
 21
935.7469208417699
 31
0.0
1001
GENIUS_GENOREF_13
1005
422F
  0
LINE
  5
422D
330
1F
100
AcDbEntity
  8
AM_7
  6
AM_ISO08W050x2
100
AcDbLine
 10
1741.018731282432
 20
930.7469208417698
 30
0.0
 11
1736.018731282432
 21
930.7469208417698
 31
0.0
1001
GENIUS_GENOREF_13
1005
422F
  0
LINE
  5
422E
330
1F
100
AcDbEntity
  8
AM_7
  6
AM_ISO08W050x2
100
AcDbLine
 10
1741.018731282432
 20
930.7469208417698
 30
0.0
 11
1741.018731282432
 21
925.7469208417699
 31
0.0
1001
GENIUS_GENOREF_13
1005
422F
  0
POINT
  5
422F
330
1F
100
AcDbEntity
  8
0
 60
     1
100
AcDbPoint
 10
0.0
 20
0.0
 30
0.0
1001
GENIUS_GENOENT_13
1002
{
1000
MYREF
1005
422F
1002
}
1002
{
1000
GRP
1005
0
1002
}
1001
GENIUS_GENOBJ-N-CRS_13
1002
{
1000
OWNER
1000
GEN
1002
}
1001
GENIUS_GENOLIS_13
1002
{
1000
ENT
1005
422E
1005
422D
1005
422C
1005
422B
1002
}
1001
GENIUS_GENODEF_13
1002
{
1000
HIER
1070
    10
1002
}
1002
{
1000
MANEDIT
1070
     0
1002
}
1002
{
1000
NOSEL
1070
     0
1002
}
1002
{
1000
BEHIND
1070
     0
1002
}
1002
{
1000
OTHER
1070
     0
1002
}
1002
{
1000
REACTOR
1002
}
  0
LINE
  5
423D
330
1F
100
AcDbEntity
  8
AM_7
  6
AM_ISO08W050x2
100
AcDbLine
 10
1741.018731282432
 20
950.7469208417699
 30
0.0
 11
1745.818731282432
 21
950.7469208417699
 31
0.0
1001
GENIUS_GENOREF_13
1005
4241
  0
LINE
  5
423E
330
1F
100
AcDbEntity
  8
AM_7
  6
AM_ISO08W050x2
100
AcDbLine
 10
1741.018731282432
 20
950.7469208417699
 30
0.0
 11
1741.018731282432
 21
955.5469208417701
 31
0.0
1001
GENIUS_GENOREF_13
1005
4241
  0
LINE
  5
423F
330
1F
100
AcDbEntity
  8
AM_7
  6
AM_ISO08W050x2
100
AcDbLine
 10
1741.018731282432
 20
950.7469208417699
 30
0.0
 11
1736.218731282432
 21
950.7469208417699
 31
0.0
1001
GENIUS_GENOREF_13
1005
4241
  0
LINE
  5
4240
330
1F
100
AcDbEntity
  8
AM_7
  6
AM_ISO08W050x2
100
AcDbLine
 10
1741.018731282432
 20
950.7469208417699
 30
0.0
 11
1741.018731282432
 21
945.9469208417697
 31
0.0
1001
GENIUS_GENOREF_13
1005
4241
  0
POINT
  5
4241
330
1F
100
AcDbEntity
  8
0
 60
     1
100
AcDbPoint
 10
0.0
 20
0.0
 30
0.0
1001
GENIUS_GENODEF_13
1002
{
1000
HIER
1070
    10
1002
}
1002
{
1000
MANEDIT
1070
     0
1002
}
1002
{
1000
NOSEL
1070
     0
1002
}
1002
{
1000
BEHIND
1070
     0
1002
}
1002
{
1000
OTHER
1070
     0
1002
}
1002
{
1000
REACTOR
1002
}
1001
GENIUS_GENOLIS_13
1002
{
1000
ENT
1005
4240
1005
423F
1005
423E
1005
423D
1002
}
1001
GENIUS_GENOBJ-N-CRS_13
1002
{
1000
OWNER
1000
GEN
1002
}
1001
GENIUS_GENOENT_13
1002
{
1000
MYREF
1005
4241
1002
}
1002
{
1000
GRP
1005
0
1002
}
  0
LINE
  5
424F
330
1F
100
AcDbEntity
  8
AM_7
  6
AM_ISO08W050x2
100
AcDbLine
 10
1741.018731282432
 20
994.7469208417698
 30
0.0
 11
1745.818731282432
 21
994.7469208417698
 31
0.0
1001
GENIUS_GENOREF_13
1005
4253
  0
LINE
  5
4250
330
1F
100
AcDbEntity
  8
AM_7
  6
AM_ISO08W050x2
100
AcDbLine
 10
1741.018731282432
 20
994.7469208417698
 30
0.0
 11
1741.018731282432
 21
999.54692084177
 31
0.0
1001
GENIUS_GENOREF_13
1005
4253
  0
LINE
  5
4251
330
1F
100
AcDbEntity
  8
AM_7
  6
AM_ISO08W050x2
100
AcDbLine
 10
1741.018731282432
 20
994.7469208417698
 30
0.0
 11
1736.218731282432
 21
994.7469208417698
 31
0.0
1001
GENIUS_GENOREF_13
1005
4253
  0
LINE
  5
4252
330
1F
100
AcDbEntity
  8
AM_7
  6
AM_ISO08W050x2
100
AcDbLine
 10
1741.018731282432
 20
994.7469208417698
 30
0.0
 11
1741.018731282432
 21
989.9469208417697
 31
0.0
1001
GENIUS_GENOREF_13
1005
4253
  0
POINT
  5
4253
330
1F
100
AcDbEntity
  8
0
 60
     1
100
AcDbPoint
 10
0.0
 20
0.0
 30
0.0
1001
GENIUS_GENOBJ-N-CRS_13
1002
{
1000
OWNER
1000
GEN
1002
}
1001
GENIUS_GENODEF_13
1002
{
1000
HIER
1070
    10
1002
}
1002
{
1000
MANEDIT
1070
     0
1002
}
1002
{
1000
NOSEL
1070
     0
1002
}
1002
{
1000
BEHIND
1070
     0
1002
}
1002
{
1000
OTHER
1070
     0
1002
}
1002
{
1000
REACTOR
1002
}
1001
GENIUS_GENOLIS_13
1002
{
1000
ENT
1005
4252
1005
4251
1005
4250
1005
424F
1002
}
1001
GENIUS_GENOENT_13
1002
{
1000
MYREF
1005
4253
1002
}
1002
{
1000
GRP
1005
0
1002
}
  0
LINE
  5
4261
102
{ACAD_REACTORS
330
4B30
102
}
330
1F
100
AcDbEntity
  8
AM_7
  6
AM_ISO08W050x2
100
AcDbLine
 10
1741.018731282432
 20
1014.74692084177
 30
0.0
 11
1746.018731282432
 21
1014.74692084177
 31
0.0
1001
GENIUS_GENOREF_13
1005
4265
  0
LINE
  5
4262
330
1F
100
AcDbEntity
  8
AM_7
  6
AM_ISO08W050x2
100
AcDbLine
 10
1741.018731282432
 20
1014.74692084177
 30
0.0
 11
1741.018731282432
 21
1019.74692084177
 31
0.0
1001
GENIUS_GENOREF_13
1005
4265
  0
LINE
  5
4263
330
1F
100
AcDbEntity
  8
AM_7
  6
AM_ISO08W050x2
100
AcDbLine
 10
1741.018731282432
 20
1014.74692084177
 30
0.0
 11
1736.018731282432
 21
1014.74692084177
 31
0.0
1001
GENIUS_GENOREF_13
1005
4265
  0
LINE
  5
4264
330
1F
100
AcDbEntity
  8
AM_7
  6
AM_ISO08W050x2
100
AcDbLine
 10
1741.018731282432
 20
1014.74692084177
 30
0.0
 11
1741.018731282432
 21
1009.74692084177
 31
0.0
1001
GENIUS_GENOREF_13
1005
4265
  0
POINT
  5
4265
330
1F
100
AcDbEntity
  8
0
 60
     1
100
AcDbPoint
 10
0.0
 20
0.0
 30
0.0
1001
GENIUS_GENOENT_13
1002
{
1000
MYREF
1005
4265
1002
}
1002
{
1000
GRP
1005
0
1002
}
1001
GENIUS_GENOLIS_13
1002
{
1000
ENT
1005
4264
1005
4263
1005
4262
1005
4261
1002
}
1001
GENIUS_GENOBJ-N-CRS_13
1002
{
1000
OWNER
1000
GEN
1002
}
1001
GENIUS_GENODEF_13
1002
{
1000
HIER
1070
    10
1002
}
1002
{
1000
MANEDIT
1070
     0
1002
}
1002
{
1000
NOSEL
1070
     0
1002
}
1002
{
1000
BEHIND
1070
     0
1002
}
1002
{
1000
OTHER
1070
     0
1002
}
1002
{
1000
REACTOR
1002
}
  0
LINE
  5
4273
330
1F
100
AcDbEntity
  8
AM_7
  6
AM_ISO08W050x2
100
AcDbLine
 10
1741.018731282432
 20
1220.622200991501
 30
0.0
 11
1747.768731282432
 21
1220.622200991501
 31
0.0
1001
GENIUS_GENOREF_13
1005
4277
  0
LINE
  5
4274
330
1F
100
AcDbEntity
  8
AM_7
  6
AM_ISO08W050x2
100
AcDbLine
 10
1741.018731282432
 20
1220.622200991501
 30
0.0
 11
1741.018731282432
 21
1227.372200991501
 31
0.0
1001
GENIUS_GENOREF_13
1005
4277
  0
LINE
  5
4275
330
1F
100
AcDbEntity
  8
AM_7
  6
AM_ISO08W050x2
100
AcDbLine
 10
1741.018731282432
 20
1220.622200991501
 30
0.0
 11
1734.268731282432
 21
1220.622200991501
 31
0.0
1001
GENIUS_GENOREF_13
1005
4277
  0
LINE
  5
4276
330
1F
100
AcDbEntity
  8
AM_7
  6
AM_ISO08W050x2
100
AcDbLine
 10
1741.018731282432
 20
1220.622200991501
 30
0.0
 11
1741.018731282432
 21
1213.872200991501
 31
0.0
1001
GENIUS_GENOREF_13
1005
4277
  0
POINT
  5
4277
330
1F
100
AcDbEntity
  8
0
 60
     1
100
AcDbPoint
 10
0.0
 20
0.0
 30
0.0
1001
GENIUS_GENOLIS_13
1002
{
1000
ENT
1005
4276
1005
4275
1005
4274
1005
4273
1002
}
1001
GENIUS_GENOENT_13
1002
{
1000
MYREF
1005
4277
1002
}
1002
{
1000
GRP
1005
0
1002
}
1001
GENIUS_GENOBJ-N-CRS_13
1002
{
1000
OWNER
1000
GEN
1002
}
1001
GENIUS_GENODEF_13
1002
{
1000
HIER
1070
    10
1002
}
1002
{
1000
MANEDIT
1070
     0
1002
}
1002
{
1000
NOSEL
1070
     0
1002
}
1002
{
1000
BEHIND
1070
     0
1002
}
1002
{
1000
OTHER
1070
     0
1002
}
1002
{
1000
REACTOR
1002
}
  0
LINE
  5
4285
330
1F
100
AcDbEntity
  8
AM_7
  6
AM_ISO08W050x2
100
AcDbLine
 10
1741.018731282432
 20
1176.622200991501
 30
0.0
 11
1747.768731282432
 21
1176.622200991501
 31
0.0
1001
GENIUS_GENOREF_13
1005
4289
  0
LINE
  5
4286
330
1F
100
AcDbEntity
  8
AM_7
  6
AM_ISO08W050x2
100
AcDbLine
 10
1741.018731282432
 20
1176.622200991501
 30
0.0
 11
1741.018731282432
 21
1183.372200991501
 31
0.0
1001
GENIUS_GENOREF_13
1005
4289
  0
LINE
  5
4287
330
1F
100
AcDbEntity
  8
AM_7
  6
AM_ISO08W050x2
100
AcDbLine
 10
1741.018731282432
 20
1176.622200991501
 30
0.0
 11
1734.268731282432
 21
1176.622200991501
 31
0.0
1001
GENIUS_GENOREF_13
1005
4289
  0
LINE
  5
4288
330
1F
100
AcDbEntity
  8
AM_7
  6
AM_ISO08W050x2
100
AcDbLine
 10
1741.018731282432
 20
1176.622200991501
 30
0.0
 11
1741.018731282432
 21
1169.872200991501
 31
0.0
1001
GENIUS_GENOREF_13
1005
4289
  0
POINT
  5
4289
330
1F
100
AcDbEntity
  8
0
 60
     1
100
AcDbPoint
 10
0.0
 20
0.0
 30
0.0
1001
GENIUS_GENOBJ-N-CRS_13
1002
{
1000
OWNER
1000
GEN
1002
}
1001
GENIUS_GENODEF_13
1002
{
1000
HIER
1070
    10
1002
}
1002
{
1000
MANEDIT
1070
     0
1002
}
1002
{
1000
NOSEL
1070
     0
1002
}
1002
{
1000
BEHIND
1070
     0
1002
}
1002
{
1000
OTHER
1070
     0
1002
}
1002
{
1000
REACTOR
1002
}
1001
GENIUS_GENOLIS_13
1002
{
1000
ENT
1005
4288
1005
4287
1005
4286
1005
4285
1002
}
1001
GENIUS_GENOENT_13
1002
{
1000
MYREF
1005
4289
1002
}
1002
{
1000
GRP
1005
0
1002
}
  0
LINE
  5
4297
330
1F
100
AcDbEntity
  8
AM_7
  6
AM_ISO08W050x2
100
AcDbLine
 10
1626.018731282432
 20
1176.622200991501
 30
0.0
 11
1632.768731282432
 21
1176.622200991501
 31
0.0
1001
GENIUS_GENOREF_13
1005
429B
  0
LINE
  5
4298
330
1F
100
AcDbEntity
  8
AM_7
  6
AM_ISO08W050x2
100
AcDbLine
 10
1626.018731282432
 20
1176.622200991501
 30
0.0
 11
1626.018731282432
 21
1183.372200991501
 31
0.0
1001
GENIUS_GENOREF_13
1005
429B
  0
LINE
  5
4299
330
1F
100
AcDbEntity
  8
AM_7
  6
AM_ISO08W050x2
100
AcDbLine
 10
1626.018731282432
 20
1176.622200991501
 30
0.0
 11
1619.268731282432
 21
1176.622200991501
 31
0.0
1001
GENIUS_GENOREF_13
1005
429B
  0
LINE
  5
429A
330
1F
100
AcDbEntity
  8
AM_7
  6
AM_ISO08W050x2
100
AcDbLine
 10
1626.018731282432
 20
1176.622200991501
 30
0.0
 11
1626.018731282432
 21
1169.872200991501
 31
0.0
1001
GENIUS_GENOREF_13
1005
429B
  0
POINT
  5
429B
330
1F
100
AcDbEntity
  8
0
 60
     1
100
AcDbPoint
 10
0.0
 20
0.0
 30
0.0
1001
GENIUS_GENOLIS_13
1002
{
1000
ENT
1005
429A
1005
4299
1005
4298
1005
4297
1002
}
1001
GENIUS_GENOENT_13
1002
{
1000
MYREF
1005
429B
1002
}
1002
{
1000
GRP
1005
0
1002
}
1001
GENIUS_GENOBJ-N-CRS_13
1002
{
1000
OWNER
1000
GEN
1002
}
1001
GENIUS_GENODEF_13
1002
{
1000
HIER
1070
    10
1002
}
1002
{
1000
MANEDIT
1070
     0
1002
}
1002
{
1000
NOSEL
1070
     0
1002
}
1002
{
1000
BEHIND
1070
     0
1002
}
1002
{
1000
OTHER
1070
     0
1002
}
1002
{
1000
REACTOR
1002
}
  0
LINE
  5
42A9
330
1F
100
AcDbEntity
  8
AM_7
  6
AM_ISO08W050x2
100
AcDbLine
 10
1626.018731282432
 20
1220.622200991501
 30
0.0
 11
1632.768731282432
 21
1220.622200991501
 31
0.0
1001
GENIUS_GENOREF_13
1005
42AD
  0
LINE
  5
42AA
330
1F
100
AcDbEntity
  8
AM_7
  6
AM_ISO08W050x2
100
AcDbLine
 10
1626.018731282432
 20
1220.622200991501
 30
0.0
 11
1626.018731282432
 21
1227.372200991501
 31
0.0
1001
GENIUS_GENOREF_13
1005
42AD
  0
LINE
  5
42AB
330
1F
100
AcDbEntity
  8
AM_7
  6
AM_ISO08W050x2
100
AcDbLine
 10
1626.018731282432
 20
1220.622200991501
 30
0.0
 11
1619.268731282432
 21
1220.622200991501
 31
0.0
1001
GENIUS_GENOREF_13
1005
42AD
  0
LINE
  5
42AC
330
1F
100
AcDbEntity
  8
AM_7
  6
AM_ISO08W050x2
100
AcDbLine
 10
1626.018731282432
 20
1220.622200991501
 30
0.0
 11
1626.018731282432
 21
1213.872200991501
 31
0.0
1001
GENIUS_GENOREF_13
1005
42AD
  0
POINT
  5
42AD
330
1F
100
AcDbEntity
  8
0
 60
     1
100
AcDbPoint
 10
0.0
 20
0.0
 30
0.0
1001
GENIUS_GENODEF_13
1002
{
1000
HIER
1070
    10
1002
}
1002
{
1000
MANEDIT
1070
     0
1002
}
1002
{
1000
NOSEL
1070
     0
1002
}
1002
{
1000
BEHIND
1070
     0
1002
}
1002
{
1000
OTHER
1070
     0
1002
}
1002
{
1000
REACTOR
1002
}
1001
GENIUS_GENOLIS_13
1002
{
1000
ENT
1005
42AC
1005
42AB
1005
42AA
1005
42A9
1002
}
1001
GENIUS_GENOENT_13
1002
{
1000
MYREF
1005
42AD
1002
}
1002
{
1000
GRP
1005
0
1002
}
1001
GENIUS_GENOBJ-N-CRS_13
1002
{
1000
OWNER
1000
GEN
1002
}
  0
CIRCLE
  5
42C8
330
1F
100
AcDbEntity
  8
AM_VIS
100
AcDbCircle
 10
1653.518731282432
 20
1215.622200991501
 30
0.0
 40
2.6
  0
ARC
  5
42C9
330
1F
100
AcDbEntity
  8
AM_4
100
AcDbCircle
 10
1653.518731282432
 20
1215.622200991501
 30
0.0
 40
3.0
100
AcDbArc
 50
260.0
 51
170.0
  0
LINE
  5
42CA
330
1F
100
AcDbEntity
  8
AM_7
  6
AM_ISO08W050x2
100
AcDbLine
 10
1648.518731282432
 20
1215.622200991501
 30
0.0
 11
1658.518731282432
 21
1215.622200991501
 31
0.0
  0
LINE
  5
42CB
330
1F
100
AcDbEntity
  8
AM_7
  6
AM_ISO08W050x2
100
AcDbLine
 10
1653.518731282432
 20
1210.622200991501
 30
0.0
 11
1653.518731282432
 21
1220.622200991501
 31
0.0
  0
CIRCLE
  5
42CC
330
1F
100
AcDbEntity
  8
AM_VIS
100
AcDbCircle
 10
1683.518731282432
 20
1215.622200991501
 30
0.0
 40
2.6
  0
ARC
  5
42CD
330
1F
100
AcDbEntity
  8
AM_4
100
AcDbCircle
 10
1683.518731282432
 20
1215.622200991501
 30
0.0
 40
3.0
100
AcDbArc
 50
260.0
 51
170.0
  0
LINE
  5
42CE
330
1F
100
AcDbEntity
  8
AM_7
  6
AM_ISO08W050x2
100
AcDbLine
 10
1678.518731282432
 20
1215.622200991501
 30
0.0
 11
1688.518731282432
 21
1215.622200991501
 31
0.0
  0
LINE
  5
42CF
330
1F
100
AcDbEntity
  8
AM_7
  6
AM_ISO08W050x2
100
AcDbLine
 10
1683.518731282432
 20
1210.622200991501
 30
0.0
 11
1683.518731282432
 21
1220.622200991501
 31
0.0
  0
CIRCLE
  5
42D0
330
1F
100
AcDbEntity
  8
AM_VIS
100
AcDbCircle
 10
1653.518731282432
 20
1181.622200991501
 30
0.0
 40
2.6
  0
ARC
  5
42D1
330
1F
100
AcDbEntity
  8
AM_4
100
AcDbCircle
 10
1653.518731282432
 20
1181.622200991501
 30
0.0
 40
3.0
100
AcDbArc
 50
260.0
 51
170.0
  0
LINE
  5
42D2
330
1F
100
AcDbEntity
  8
AM_7
  6
AM_ISO08W050x2
100
AcDbLine
 10
1648.518731282432
 20
1181.622200991501
 30
0.0
 11
1658.518731282432
 21
1181.622200991501
 31
0.0
  0
LINE
  5
42D3
330
1F
100
AcDbEntity
  8
AM_7
  6
AM_ISO08W050x2
100
AcDbLine
 10
1653.518731282432
 20
1176.622200991501
 30
0.0
 11
1653.518731282432
 21
1186.622200991501
 31
0.0
  0
CIRCLE
  5
42D4
330
1F
100
AcDbEntity
  8
AM_VIS
100
AcDbCircle
 10
1683.518731282432
 20
1181.622200991501
 30
0.0
 40
2.6
  0
ARC
  5
42D5
330
1F
100
AcDbEntity
  8
AM_4
100
AcDbCircle
 10
1683.518731282432
 20
1181.622200991501
 30
0.0
 40
3.0
100
AcDbArc
 50
260.0
 51
170.0
  0
LINE
  5
42D6
330
1F
100
AcDbEntity
  8
AM_7
  6
AM_ISO08W050x2
100
AcDbLine
 10
1678.518731282432
 20
1181.622200991501
 30
0.0
 11
1688.518731282432
 21
1181.622200991501
 31
0.0
  0
LINE
  5
42D7
330
1F
100
AcDbEntity
  8
AM_7
  6
AM_ISO08W050x2
100
AcDbLine
 10
1683.518731282432
 20
1176.622200991501
 30
0.0
 11
1683.518731282432
 21
1186.622200991501
 31
0.0
  0
DIMENSION
  5
42D8
330
1F
100
AcDbEntity
  8
AM_5
100
AcDbDimension
  2
*D5
 10
1747.018731282432
 20
892.5204884143354
 30
0.0
 11
1683.518731282432
 21
896.0209018001622
 31
0.0
 70
    32
  1
67+2xstroke
 71
     5
 42
127.0
  3
AM_ISO$0
100
AcDbAlignedDimension
 13
1620.018731282432
 23
924.7469208417699
 33
0.0
 14
1747.018731282432
 24
924.7469208417699
 34
0.0
100
AcDbRotatedDimension
1001
ACAD
1000
DSTYLE
1002
{
1070
    40
1040
1.399999999999999
1070
   272
1070
     8
1002
}
  0
DIMENSION
  5
42D9
330
1F
100
AcDbEntity
  8
AM_5
100
AcDbDimension
  2
*D6
 10
1703.018731282432
 20
904.5204884143357
 30
0.0
 11
1668.518731282432
 21
908.0204884143356
 31
0.0
 70
    32
  1
39+stroke
 71
     5
 42
69.0
  3
AM_ISO$0
100
AcDbAlignedDimension
 13
1634.018731282432
 23
924.7469208417699
 33
0.0
 14
1703.018731282432
 24
924.7469208417699
 34
0.0
 50
0.0000000000002036
100
AcDbRotatedDimension
1001
ACAD
1000
DSTYLE
1002
{
1070
    40
1040
1.399999999999999
1070
   144
1040
1.0
1070
   272
1070
     8
1002
}
  0
DIMENSION
  5
42DA
330
1F
100
AcDbEntity
  8
AM_5
100
AcDbDimension
  2
*D7
 10
1735.018731282432
 20
904.5204884143355
 30
0.0
 11
1719.018731282432
 21
908.0209018001623
 31
0.0
 70
    32
  1
2+stroke
 71
     5
 42
32.0
  3
AM_ISO$0
100
AcDbAlignedDimension
 13
1703.018731282432
 23
924.7469208417699
 33
0.0
 14
1735.018731282432
 24
924.7469208417699
 34
0.0
 50
0.0000000000002036
100
AcDbRotatedDimension
1001
ACAD
1000
DSTYLE
1002
{
1070
    40
1040
1.399999999999999
1070
   272
1070
     8
1002
}
  0
DIMENSION
  5
42DB
330
1F
100
AcDbEntity
  8
AM_5
100
AcDbDimension
  2
*D8
 10
1747.018731282432
 20
904.5204884143354
 30
0.0
 11
1741.018731282432
 21
908.0209018001621
 31
0.0
 70
    32
 71
     5
 42
12.0
  3
AM_ISO$0
100
AcDbAlignedDimension
 13
1735.018731282432
 23
924.7469208417699
 33
0.0
 14
1747.018731282432
 24
924.7469208417699
 34
0.0
 50
0.0000000000002036
100
AcDbRotatedDimension
1001
ACAD
1000
DSTYLE
1002
{
1070
    40
1040
1.399999999999999
1070
   272
1070
     8
1002
}
  0
LINE
  5
4391
330
1F
100
AcDbEntity
  8
AM_7
  6
AM_ISO08W050x2
100
AcDbLine
 10
1645.018731282432
 20
930.7394235947771
 30
0.0
 11
1645.018731282432
 21
921.2774400234598
 31
0.0
  0
LINE
  5
4392
330
1F
100
AcDbEntity
  8
AM_7
  6
AM_ISO08W050x2
100
AcDbLine
 10
1692.018731282432
 20
930.7394235947771
 30
0.0
 11
1692.018731282432
 21
921.2774400234598
 31
0.0
  0
CIRCLE
  5
439E
330
1F
100
AcDbEntity
  8
AM_VIS
100
AcDbCircle
 10
1646.018731282432
 20
1236.622200991501
 30
0.0
 40
2.6
  0
ARC
  5
439F
330
1F
100
AcDbEntity
  8
AM_4
100
AcDbCircle
 10
1646.018731282432
 20
1236.622200991501
 30
0.0
 40
3.0
100
AcDbArc
 50
260.0
 51
170.0
  0
LINE
  5
43A0
330
1F
100
AcDbEntity
  8
AM_7
  6
AM_ISO08W050x2
100
AcDbLine
 10
1641.018731282432
 20
1236.622200991501
 30
0.0
 11
1651.018731282432
 21
1236.622200991501
 31
0.0
  0
LINE
  5
43A1
330
1F
100
AcDbEntity
  8
AM_7
  6
AM_ISO08W050x2
100
AcDbLine
 10
1646.018731282432
 20
1231.622200991501
 30
0.0
 11
1646.018731282432
 21
1241.622200991501
 31
0.0
  0
CIRCLE
  5
43AC
330
1F
100
AcDbEntity
  8
AM_VIS
100
AcDbCircle
 10
1691.018731282432
 20
1236.622200991501
 30
0.0
 40
2.6
  0
ARC
  5
43AD
330
1F
100
AcDbEntity
  8
AM_4
100
AcDbCircle
 10
1691.018731282432
 20
1236.622200991501
 30
0.0
 40
3.0
100
AcDbArc
 50
260.0
 51
170.0
  0
LINE
  5
43AE
330
1F
100
AcDbEntity
  8
AM_7
  6
AM_ISO08W050x2
100
AcDbLine
 10
1686.018731282432
 20
1236.622200991501
 30
0.0
 11
1696.018731282432
 21
1236.622200991501
 31
0.0
  0
LINE
  5
43AF
330
1F
100
AcDbEntity
  8
AM_7
  6
AM_ISO08W050x2
100
AcDbLine
 10
1691.018731282432
 20
1231.622200991501
 30
0.0
 11
1691.018731282432
 21
1241.622200991501
 31
0.0
  0
CIRCLE
  5
43BB
330
1F
100
AcDbEntity
  8
AM_VIS
100
AcDbCircle
 10
1691.018731282432
 20
1160.622200991501
 30
0.0
 40
2.6
  0
ARC
  5
43BC
330
1F
100
AcDbEntity
  8
AM_4
100
AcDbCircle
 10
1691.018731282432
 20
1160.622200991501
 30
0.0
 40
3.0
100
AcDbArc
 50
260.0
 51
170.0
  0
LINE
  5
43BD
330
1F
100
AcDbEntity
  8
AM_7
  6
AM_ISO08W050x2
100
AcDbLine
 10
1686.018731282432
 20
1160.622200991501
 30
0.0
 11
1696.018731282432
 21
1160.622200991501
 31
0.0
  0
LINE
  5
43BE
330
1F
100
AcDbEntity
  8
AM_7
  6
AM_ISO08W050x2
100
AcDbLine
 10
1691.018731282432
 20
1155.622200991501
 30
0.0
 11
1691.018731282432
 21
1165.622200991501
 31
0.0
  0
CIRCLE
  5
43BF
330
1F
100
AcDbEntity
  8
AM_VIS
100
AcDbCircle
 10
1646.018731282432
 20
1160.622200991501
 30
0.0
 40
2.6
  0
ARC
  5
43C0
330
1F
100
AcDbEntity
  8
AM_4
100
AcDbCircle
 10
1646.018731282432
 20
1160.622200991501
 30
0.0
 40
3.0
100
AcDbArc
 50
260.0
 51
170.0
  0
LINE
  5
43C1
330
1F
100
AcDbEntity
  8
AM_7
  6
AM_ISO08W050x2
100
AcDbLine
 10
1641.018731282432
 20
1160.622200991501
 30
0.0
 11
1651.018731282432
 21
1160.622200991501
 31
0.0
  0
LINE
  5
43C2
330
1F
100
AcDbEntity
  8
AM_7
  6
AM_ISO08W050x2
100
AcDbLine
 10
1646.018731282432
 20
1155.622200991501
 30
0.0
 11
1646.018731282432
 21
1165.622200991501
 31
0.0
  0
CIRCLE
  5
43DF
330
1F
100
AcDbEntity
  8
AM_VIS
100
AcDbCircle
 10
1668.518731282432
 20
1236.622200991501
 30
0.0
 40
3.0
  0
LINE
  5
43E0
330
1F
100
AcDbEntity
  8
AM_7
  6
AM_ISO08W050x2
100
AcDbLine
 10
1668.518731282432
 20
1236.622200991501
 30
0.0
 11
1673.518731282432
 21
1236.622200991501
 31
0.0
1001
GENIUS_GENOREF_13
1005
43E4
  0
LINE
  5
43E1
330
1F
100
AcDbEntity
  8
AM_7
  6
AM_ISO08W050x2
100
AcDbLine
 10
1668.518731282432
 20
1236.622200991501
 30
0.0
 11
1668.518731282432
 21
1241.622200991501
 31
0.0
1001
GENIUS_GENOREF_13
1005
43E4
  0
LINE
  5
43E2
330
1F
100
AcDbEntity
  8
AM_7
  6
AM_ISO08W050x2
100
AcDbLine
 10
1668.518731282432
 20
1236.622200991501
 30
0.0
 11
1663.518731282431
 21
1236.622200991501
 31
0.0
1001
GENIUS_GENOREF_13
1005
43E4
  0
LINE
  5
43E3
330
1F
100
AcDbEntity
  8
AM_7
  6
AM_ISO08W050x2
100
AcDbLine
 10
1668.518731282432
 20
1236.622200991501
 30
0.0
 11
1668.518731282432
 21
1231.622200991501
 31
0.0
1001
GENIUS_GENOREF_13
1005
43E4
  0
POINT
  5
43E4
330
1F
100
AcDbEntity
  8
0
 60
     1
100
AcDbPoint
 10
835.4978190402453
 20
112.3989920489989
 30
0.0
1001
GENIUS_GENOLIS_13
1002
{
1000
ENT
1005
43E3
1005
43E2
1005
43E1
1005
43E0
1002
}
1001
GENIUS_GENOENT_13
1002
{
1000
MYREF
1005
43E4
1002
}
1002
{
1000
GRP
1005
0
1002
}
1001
GENIUS_GENOBJ-N-CRS_13
1002
{
1000
OWNER
1000
GEN
1002
}
1001
GENIUS_GENODEF_13
1002
{
1000
HIER
1070
    10
1002
}
1002
{
1000
MANEDIT
1070
     0
1002
}
1002
{
1000
NOSEL
1070
     0
1002
}
1002
{
1000
BEHIND
1070
     0
1002
}
1002
{
1000
OTHER
1070
     0
1002
}
1002
{
1000
REACTOR
1002
}
  0
ELLIPSE
  5
43E5
330
1F
100
AcDbEntity
  8
AM_VIS
100
AcDbEllipse
 10
1668.518731282432
 20
1160.622200991501
 30
0.0
 11
4.0
 21
0.0
 31
0.0
210
0.0
220
0.0
230
1.0
 40
0.75
 41
-0.000000000000014
 42
6.283185307179572
  0
ARC
  5
43E6
330
1F
100
AcDbEntity
  8
AM_VIS
100
AcDbCircle
 10
1668.518731282432
 20
1160.622200991501
 30
0.0
 40
3.0
100
AcDbArc
 50
270.0
 51
90.0
  0
ARC
  5
43E7
330
1F
100
AcDbEntity
  8
AM_VIS
100
AcDbCircle
 10
1668.518731282432
 20
1160.622200991501
 30
0.0
 40
3.0
100
AcDbArc
 50
90.0
 51
270.0
  0
LINE
  5
43E8
330
1F
100
AcDbEntity
  8
AM_7
  6
AM_ISO08W050x2
100
AcDbLine
 10
1668.518731282432
 20
1160.622200991501
 30
0.0
 11
1673.518731282432
 21
1160.622200991501
 31
0.0
1001
GENIUS_GENOREF_13
1005
43EC
  0
LINE
  5
43E9
330
1F
100
AcDbEntity
  8
AM_7
  6
AM_ISO08W050x2
100
AcDbLine
 10
1668.518731282432
 20
1160.622200991501
 30
0.0
 11
1668.518731282432
 21
1165.622200991501
 31
0.0
1001
GENIUS_GENOREF_13
1005
43EC
  0
LINE
  5
43EA
330
1F
100
AcDbEntity
  8
AM_7
  6
AM_ISO08W050x2
100
AcDbLine
 10
1668.518731282432
 20
1160.622200991501
 30
0.0
 11
1663.518731282431
 21
1160.622200991501
 31
0.0
1001
GENIUS_GENOREF_13
1005
43EC
  0
LINE
  5
43EB
330
1F
100
AcDbEntity
  8
AM_7
  6
AM_ISO08W050x2
100
AcDbLine
 10
1668.518731282432
 20
1160.622200991501
 30
0.0
 11
1668.518731282432
 21
1155.622200991501
 31
0.0
1001
GENIUS_GENOREF_13
1005
43EC
  0
POINT
  5
43EC
330
1F
100
AcDbEntity
  8
0
 60
     1
100
AcDbPoint
 10
835.4978190402453
 20
100.3989920489989
 30
0.0
1001
GENIUS_GENOLIS_13
1002
{
1000
ENT
1005
43EB
1005
43EA
1005
43E9
1005
43E8
1002
}
1001
GENIUS_GENOENT_13
1002
{
1000
MYREF
1005
43EC
1002
}
1002
{
1000
GRP
1005
0
1002
}
1001
GENIUS_GENOBJ-N-CRS_13
1002
{
1000
OWNER
1000
GEN
1002
}
1001
GENIUS_GENODEF_13
1002
{
1000
HIER
1070
    10
1002
}
1002
{
1000
MANEDIT
1070
     0
1002
}
1002
{
1000
NOSEL
1070
     0
1002
}
1002
{
1000
BEHIND
1070
     0
1002
}
1002
{
1000
OTHER
1070
     0
1002
}
1002
{
1000
REACTOR
1002
}
  0
DIMENSION
  5
43ED
330
1F
100
AcDbEntity
  8
AM_5
100
AcDbDimension
  2
*D9
 10
1845.040069900398
 20
904.5204884143354
 30
0.0
 11
1824.040069900398
 21
908.0209018001621
 31
0.0
 70
    32
 71
     5
 42
42.0
  3
AM_ISO$0
100
AcDbAlignedDimension
 13
1803.040069900398
 23
924.7469208417699
 33
0.0
 14
1845.040069900398
 24
924.7469208417699
 34
0.0
100
AcDbRotatedDimension
1001
ACAD
1000
DSTYLE
1002
{
1070
    40
1040
1.399999999999999
1070
   272
1070
     8
1002
}
  0
DIMENSION
  5
43EE
330
1F
100
AcDbEntity
  8
AM_5
100
AcDbDimension
  2
*D10
 10
1791.040068900398
 20
1020.74692084177
 30
0.0
 11
1791.040068900398
 21
972.74692084177
 31
0.0
 70
   160
 71
     5
 42
96.0
  3
AM_ISO$0
100
AcDbAlignedDimension
 13
1803.040069900398
 23
924.7469208417699
 33
0.0
 14
1803.040069900398
 24
1020.74692084177
 34
0.0
 50
90.0
100
AcDbRotatedDimension
1001
ACAD
1000
DSTYLE
1002
{
1070
    40
1040
1.399999999999999
1070
   272
1070
     8
1002
}
  0
TEXT
  5
4570
330
1F
100
AcDbEntity
  8
AM_5
100
AcDbText
 10
1772.497294090689
 20
914.1958166822298
 30
0.0
 40
4.199999999999999
  1
2x4-M6
 41
0.8
100
AcDbText
  0
INSERT
  5
4571
330
1F
100
AcDbEntity
  8
AM_5
100
AcDbBlockReference
  2
*S19
 10
0.0
 20
0.0
 30
0.0
  0
TEXT
  5
4572
330
1F
100
AcDbEntity
  8
AM_5
100
AcDbText
 10
1703.323328931598
 20
1043.008617084056
 30
0.0
 40
4.199999999999999
  1
4-%%c5.2 thru
 41
0.8
100
AcDbText
  0
INSERT
  5
4573
330
1F
100
AcDbEntity
  8
AM_5
100
AcDbBlockReference
  2
*S20
 10
0.0
 20
0.0
 30
0.0
  0
TEXT
  5
4574
330
1F
100
AcDbEntity
  8
AM_5
100
AcDbText
 10
1703.323328931598
 20
1036.944468490999
 30
0.0
 40
4.199999999999999
  1
4-%%c9.5x5.5 depth
 41
0.8
100
AcDbText
  0
INSERT
  5
4575
330
1F
100
AcDbEntity
  8
AM_5
100
AcDbBlockReference
  2
*S21
 10
0.0
 20
0.0
 30
0.0
  0
TEXT
  5
4576
330
1F
100
AcDbEntity
  8
AM_5
100
AcDbText
 10
1759.411659270714
 20
1036.429445826036
 30
0.0
 40
4.199999999999999
  1
2x2-%%c6    x8 depth
 41
0.8
100
AcDbText
  0
TEXT
  5
4577
330
1F
100
AcDbEntity
  8
AM_5
100
AcDbText
 10
1774.331190899663
 20
1036.690983532267
 30
0.0
 40
1.68
  1
+0
 41
0.8
100
AcDbText
  0
TEXT
  5
4578
330
1F
100
AcDbEntity
  8
AM_5
100
AcDbText
 10
1774.331190899663
 20
1038.812487596785
 30
0.0
 40
1.68
  1
+0.02
 41
0.8
100
AcDbText
  0
INSERT
  5
4579
330
1F
100
AcDbEntity
  8
AM_5
100
AcDbBlockReference
  2
*S22
 10
0.0
 20
0.0
 30
0.0
  0
TEXT
  5
457A
330
1F
100
AcDbEntity
  8
AM_5
100
AcDbText
 10
1665.63087282733
 20
1138.455651217338
 30
0.0
 40
4.199999999999999
  1
4-M6x12 depth
 41
0.8
100
AcDbText
  0
TEXT
  5
457B
330
1F
100
AcDbEntity
  8
AM_5
100
AcDbText
 10
1712.048858598294
 20
1138.0630259902
 30
0.0
 40
4.199999999999999
  1
4-M6x9 depth
 41
0.8
100
AcDbText
  0
INSERT
  5
457C
330
1F
100
AcDbEntity
  8
AM_5
100
AcDbBlockReference
  2
*S23
 10
0.0
 20
0.0
 30
0.0
  0
TEXT
  5
457D
330
1F
100
AcDbEntity
  8
AM_5
100
AcDbText
 10
1760.480459562113
 20
1161.483257697986
 30
0.0
 40
4.199999999999999
  1
2x2-%%c5.5 thru
 41
0.8
100
AcDbText
  0
INSERT
  5
457E
330
1F
100
AcDbEntity
  8
AM_5
100
AcDbBlockReference
  2
*S24
 10
0.0
 20
0.0
 30
0.0
  0
TEXT
  5
457F
330
1F
100
AcDbEntity
  8
AM_5
100
AcDbText
 10
1760.480459562113
 20
1155.419109104929
 30
0.0
 40
4.199999999999999
  1
2x2-%%c9.5x5.5 depth
 41
0.8
100
AcDbText
  0
LINE
  5
45D8
330
1F
100
AcDbEntity
  8
AM_VIS
100
AcDbLine
 10
2165.579466747407
 20
1020.74692084177
 30
0.0
 11
2165.579466747407
 21
924.7469208417699
 31
0.0
  0
LINE
  5
45D9
330
1F
100
AcDbEntity
  8
AM_VIS
100
AcDbLine
 10
2165.579466747407
 20
1020.74692084177
 30
0.0
 11
2177.579466747407
 21
1020.74692084177
 31
0.0
  0
LINE
  5
45DA
330
1F
100
AcDbEntity
  8
AM_VIS
100
AcDbLine
 10
2177.579466747407
 20
924.7469208417699
 30
0.0
 11
2177.579466747407
 21
1020.74692084177
 31
0.0
  0
LINE
  5
45DB
330
1F
100
AcDbEntity
  8
AM_VIS
100
AcDbLine
 10
2165.579466747407
 20
924.7469208417699
 30
0.0
 11
2177.579466747407
 21
924.7469208417699
 31
0.0
  0
CIRCLE
  5
45DC
330
1F
100
AcDbEntity
  8
AM_VIS
100
AcDbCircle
 10
2171.579466747406
 20
994.7469208417698
 30
0.0
 40
2.799999999999999
  0
CIRCLE
  5
45DD
330
1F
100
AcDbEntity
  8
AM_VIS
100
AcDbCircle
 10
2171.579466747406
 20
950.7469208417699
 30
0.0
 40
2.799999999999999
  0
CIRCLE
  5
45DE
330
1F
100
AcDbEntity
  8
AM_VIS
100
AcDbCircle
 10
2171.579466747406
 20
930.7469208417698
 30
0.0
 40
3.0
  0
CIRCLE
  5
45DF
330
1F
100
AcDbEntity
  8
AM_VIS
100
AcDbCircle
 10
2171.579466747406
 20
1014.74692084177
 30
0.0
 40
3.0
  0
LINE
  5
45E0
330
1F
100
AcDbEntity
  8
AM_VIS
100
AcDbLine
 10
2050.579466747407
 20
1020.74692084177
 30
0.0
 11
2050.579466747407
 21
924.7469208417699
 31
0.0
  0
LINE
  5
45E1
330
1F
100
AcDbEntity
  8
AM_VIS
100
AcDbLine
 10
2050.579466747407
 20
1020.74692084177
 30
0.0
 11
2062.579466747406
 21
1020.74692084177
 31
0.0
  0
LINE
  5
45E2
330
1F
100
AcDbEntity
  8
AM_VIS
100
AcDbLine
 10
2062.579466747406
 20
924.7469208417699
 30
0.0
 11
2062.579466747406
 21
1020.74692084177
 31
0.0
  0
LINE
  5
45E3
330
1F
100
AcDbEntity
  8
AM_VIS
100
AcDbLine
 10
2050.579466747407
 20
924.7469208417699
 30
0.0
 11
2062.579466747406
 21
924.7469208417699
 31
0.0
  0
CIRCLE
  5
45E4
330
1F
100
AcDbEntity
  8
AM_VIS
100
AcDbCircle
 10
2056.579466747407
 20
994.7469208417698
 30
0.0
 40
2.799999999999999
  0
CIRCLE
  5
45E5
330
1F
100
AcDbEntity
  8
AM_VIS
100
AcDbCircle
 10
2056.579466747407
 20
950.7469208417699
 30
0.0
 40
2.799999999999999
  0
CIRCLE
  5
45E6
330
1F
100
AcDbEntity
  8
AM_VIS
100
AcDbCircle
 10
2056.579466747407
 20
930.7469208417698
 30
0.0
 40
3.0
  0
CIRCLE
  5
45E7
330
1F
100
AcDbEntity
  8
AM_VIS
100
AcDbCircle
 10
2056.579466747407
 20
1014.74692084177
 30
0.0
 40
3.0
  0
LINE
  5
45E8
330
1F
100
AcDbEntity
  8
AM_VIS
100
AcDbLine
 10
2064.579466747407
 20
976.0469208417699
 30
0.0
 11
2133.579466747407
 21
976.0469208417699
 31
0.0
  0
LINE
  5
45E9
330
1F
100
AcDbEntity
  8
AM_VIS
100
AcDbLine
 10
2117.178256833875
 20
959.3469208417699
 30
0.0
 11
2133.579466747407
 21
959.3469208417699
 31
0.0
  0
LINE
  5
45EA
330
1F
100
AcDbEntity
  8
AM_VIS
100
AcDbLine
 10
2064.579466747407
 20
966.0469208417698
 30
0.0
 11
2133.579466747407
 21
966.0469208417698
 31
0.0
  0
LINE
  5
45EB
330
1F
100
AcDbEntity
  8
AM_VIS
100
AcDbLine
 10
2064.579466747407
 20
969.4469208417698
 30
0.0
 11
2133.579466747407
 21
969.4469208417698
 31
0.0
  0
LINE
  5
45EC
330
1F
100
AcDbEntity
  8
AM_VIS
100
AcDbLine
 10
2064.579466747407
 20
959.3469208417699
 30
0.0
 11
2080.980676660937
 21
959.3469208417699
 31
0.0
  0
ARC
  5
45ED
330
1F
100
AcDbEntity
  8
AM_VIS
100
AcDbCircle
 10
2084.079466747406
 20
955.7469208417698
 30
0.0
 40
4.75
100
AcDbArc
 50
130.7210475921892
 51
148.2431361407092
  0
ARC
  5
45EE
330
1F
100
AcDbEntity
  8
AM_VIS
100
AcDbCircle
 10
2084.079466747406
 20
955.7469208417698
 30
0.0
 40
4.75
100
AcDbArc
 50
31.75686385929071
 51
49.27895240781078
  0
LINE
  5
45EF
330
1F
100
AcDbEntity
  8
AM_VIS
100
AcDbLine
 10
2087.178256833876
 20
959.3469208417699
 30
0.0
 11
2110.980676660938
 21
959.3469208417699
 31
0.0
  0
LINE
  5
45F0
330
1F
100
AcDbEntity
  8
AM_VIS
100
AcDbLine
 10
2133.579466747407
 20
958.2469208417698
 30
0.0
 11
2118.118340352757
 21
958.2469208417698
 31
0.0
  0
LINE
  5
45F1
330
1F
100
AcDbEntity
  8
AM_VIS
100
AcDbLine
 10
2064.579466747407
 20
924.7469208417699
 30
0.0
 11
2133.579466747407
 21
924.7469208417699
 31
0.0
  0
LINE
  5
45F2
330
1F
100
AcDbEntity
  8
AM_VIS
100
AcDbLine
 10
2080.040593142056
 20
958.2469208417698
 30
0.0
 11
2064.579466747407
 21
958.2469208417698
 31
0.0
  0
LINE
  5
45F3
330
1F
100
AcDbEntity
  8
AM_VIS
100
AcDbLine
 10
2110.040593142056
 20
958.2469208417698
 30
0.0
 11
2088.118340352757
 21
958.2469208417698
 31
0.0
  0
ARC
  5
45F4
330
1F
100
AcDbEntity
  8
AM_VIS
100
AcDbCircle
 10
2114.079466747407
 20
955.7469208417698
 30
0.0
 40
4.75
100
AcDbArc
 50
130.7210475921892
 51
148.2431361407092
  0
ARC
  5
45F5
330
1F
100
AcDbEntity
  8
AM_VIS
100
AcDbCircle
 10
2114.079466747407
 20
955.7469208417698
 30
0.0
 40
4.75
100
AcDbArc
 50
31.75686385929071
 51
49.27895240781078
  0
LINE
  5
45F6
330
1F
100
AcDbEntity
  8
AM_VIS
100
AcDbLine
 10
2064.579466747407
 20
987.2469208417699
 30
0.0
 11
2080.040593142056
 21
987.2469208417699
 31
0.0
  0
LINE
  5
45F7
330
1F
100
AcDbEntity
  8
AM_VIS
100
AcDbLine
 10
2064.579466747407
 20
1020.74692084177
 30
0.0
 11
2133.579466747407
 21
1020.74692084177
 31
0.0
  0
LINE
  5
45F8
330
1F
100
AcDbEntity
  8
AM_VIS
100
AcDbLine
 10
2118.118340352757
 20
987.2469208417699
 30
0.0
 11
2133.579466747407
 21
987.2469208417699
 31
0.0
  0
ARC
  5
45F9
330
1F
100
AcDbEntity
  8
AM_VIS
100
AcDbCircle
 10
2084.079466747406
 20
989.74692084177
 30
0.0
 40
4.75
100
AcDbArc
 50
211.7568638592907
 51
229.2789524078107
  0
ARC
  5
45FA
330
1F
100
AcDbEntity
  8
AM_VIS
100
AcDbCircle
 10
2084.079466747406
 20
989.74692084177
 30
0.0
 40
4.75
100
AcDbArc
 50
310.7210475921892
 51
328.2431361407093
  0
LINE
  5
45FB
330
1F
100
AcDbEntity
  8
AM_VIS
100
AcDbLine
 10
2088.118340352757
 20
987.2469208417699
 30
0.0
 11
2110.040593142056
 21
987.2469208417699
 31
0.0
  0
LINE
  5
45FC
330
1F
100
AcDbEntity
  8
AM_VIS
100
AcDbLine
 10
2117.178256833875
 20
986.1469208417698
 30
0.0
 11
2133.579466747407
 21
986.1469208417698
 31
0.0
  0
LINE
  5
45FD
330
1F
100
AcDbEntity
  8
AM_VIS
100
AcDbLine
 10
2064.579466747407
 20
979.44692084177
 30
0.0
 11
2133.579466747407
 21
979.44692084177
 31
0.0
  0
LINE
  5
45FE
330
1F
100
AcDbEntity
  8
AM_VIS
100
AcDbLine
 10
2064.579466747407
 20
986.1469208417698
 30
0.0
 11
2080.980676660937
 21
986.1469208417698
 31
0.0
  0
LINE
  5
45FF
330
1F
100
AcDbEntity
  8
AM_VIS
100
AcDbLine
 10
2087.178256833876
 20
986.1469208417698
 30
0.0
 11
2110.980676660938
 21
986.1469208417698
 31
0.0
  0
ARC
  5
4600
330
1F
100
AcDbEntity
  8
AM_VIS
100
AcDbCircle
 10
2114.079466747407
 20
989.74692084177
 30
0.0
 40
4.75
100
AcDbArc
 50
211.7568638592907
 51
229.2789524078107
  0
ARC
  5
4601
330
1F
100
AcDbEntity
  8
AM_VIS
100
AcDbCircle
 10
2114.079466747407
 20
989.74692084177
 30
0.0
 40
4.75
100
AcDbArc
 50
310.7210475921892
 51
328.2431361407093
  0
LINE
  5
4602
330
1F
100
AcDbEntity
  8
AM_VIS
100
AcDbLine
 10
2133.579466747407
 20
924.7469208417699
 30
0.0
 11
2133.579466747407
 21
958.2469208417698
 31
0.0
  0
LINE
  5
4603
330
1F
100
AcDbEntity
  8
AM_VIS
100
AcDbLine
 10
2133.579466747407
 20
959.3469208417699
 30
0.0
 11
2133.579466747407
 21
958.2469208417698
 31
0.0
  0
LINE
  5
4604
330
1F
100
AcDbEntity
  8
AM_VIS
100
AcDbLine
 10
2133.579466747407
 20
966.0469208417698
 30
0.0
 11
2133.579466747407
 21
959.3469208417699
 31
0.0
  0
LINE
  5
4605
330
1F
100
AcDbEntity
  8
AM_VIS
100
AcDbLine
 10
2133.579466747407
 20
968.1969208417699
 30
0.0
 11
2133.579466747407
 21
967.2969208417699
 31
0.0
  0
LINE
  5
4606
330
1F
100
AcDbEntity
  8
AM_VIS
100
AcDbLine
 10
2133.579466747407
 20
976.0469208417699
 30
0.0
 11
2133.579466747407
 21
969.4469208417698
 31
0.0
  0
LINE
  5
4607
330
1F
100
AcDbEntity
  8
AM_VIS
100
AcDbLine
 10
2133.579466747407
 20
978.1969208417699
 30
0.0
 11
2133.579466747407
 21
977.29692084177
 31
0.0
  0
LINE
  5
4608
330
1F
100
AcDbEntity
  8
AM_VIS
100
AcDbLine
 10
2133.579466747407
 20
986.14692084177
 30
0.0
 11
2133.579466747407
 21
979.44692084177
 31
0.0
  0
LINE
  5
4609
330
1F
100
AcDbEntity
  8
AM_VIS
100
AcDbLine
 10
2133.579466747407
 20
987.2469208417699
 30
0.0
 11
2133.579466747407
 21
986.1469208417698
 31
0.0
  0
LINE
  5
460A
330
1F
100
AcDbEntity
  8
AM_VIS
100
AcDbLine
 10
2133.579466747407
 20
987.2469208417699
 30
0.0
 11
2133.579466747407
 21
1020.74692084177
 31
0.0
  0
LINE
  5
460B
330
1F
100
AcDbEntity
  8
AM_VIS
100
AcDbLine
 10
2064.579466747407
 20
987.2469208417699
 30
0.0
 11
2064.579466747407
 21
1020.74692084177
 31
0.0
  0
LINE
  5
460C
330
1F
100
AcDbEntity
  8
AM_VIS
100
AcDbLine
 10
2064.579466747407
 20
986.1469208417698
 30
0.0
 11
2064.579466747407
 21
987.2469208417699
 31
0.0
  0
LINE
  5
460D
330
1F
100
AcDbEntity
  8
AM_VIS
100
AcDbLine
 10
2064.579466747407
 20
979.44692084177
 30
0.0
 11
2064.579466747407
 21
986.14692084177
 31
0.0
  0
LINE
  5
460E
330
1F
100
AcDbEntity
  8
AM_VIS
100
AcDbLine
 10
2064.579466747407
 20
977.29692084177
 30
0.0
 11
2064.579466747407
 21
978.1969208417699
 31
0.0
  0
LINE
  5
460F
330
1F
100
AcDbEntity
  8
AM_VIS
100
AcDbLine
 10
2064.579466747407
 20
969.4469208417698
 30
0.0
 11
2064.579466747407
 21
976.0469208417699
 31
0.0
  0
LINE
  5
4610
330
1F
100
AcDbEntity
  8
AM_VIS
100
AcDbLine
 10
2064.579466747407
 20
967.2969208417699
 30
0.0
 11
2064.579466747407
 21
968.1969208417699
 31
0.0
  0
LINE
  5
4611
330
1F
100
AcDbEntity
  8
AM_VIS
100
AcDbLine
 10
2064.579466747407
 20
959.3469208417699
 30
0.0
 11
2064.579466747407
 21
966.0469208417698
 31
0.0
  0
LINE
  5
4612
330
1F
100
AcDbEntity
  8
AM_VIS
100
AcDbLine
 10
2064.579466747407
 20
958.2469208417698
 30
0.0
 11
2064.579466747407
 21
959.3469208417698
 31
0.0
  0
LINE
  5
4613
330
1F
100
AcDbEntity
  8
AM_VIS
100
AcDbLine
 10
2064.579466747407
 20
924.7469208417699
 30
0.0
 11
2064.579466747407
 21
958.2469208417698
 31
0.0
  0
ARC
  5
4614
330
1F
100
AcDbEntity
  8
AM_VIS
100
AcDbCircle
 10
2084.079466747406
 20
955.7469208417698
 30
0.0
 40
4.75
100
AcDbArc
 50
49.27895240781078
 51
130.7210475921892
  0
CIRCLE
  5
4615
330
1F
100
AcDbEntity
  8
AM_VIS
100
AcDbCircle
 10
2084.079466747406
 20
955.7469208417698
 30
0.0
 40
2.799999999999999
  0
ARC
  5
4616
330
1F
100
AcDbEntity
  8
AM_VIS
100
AcDbCircle
 10
2084.079466747406
 20
955.7469208417698
 30
0.0
 40
4.75
100
AcDbArc
 50
148.2431361407037
 51
31.75686385929071
  0
ARC
  5
4617
330
1F
100
AcDbEntity
  8
AM_VIS
100
AcDbCircle
 10
2114.079466747407
 20
955.7469208417698
 30
0.0
 40
4.75
100
AcDbArc
 50
148.2431361407037
 51
31.75686385929071
  0
ARC
  5
4618
330
1F
100
AcDbEntity
  8
AM_VIS
100
AcDbCircle
 10
2114.079466747407
 20
955.7469208417698
 30
0.0
 40
4.75
100
AcDbArc
 50
49.27895240781078
 51
130.7210475921892
  0
CIRCLE
  5
4619
330
1F
100
AcDbEntity
  8
AM_VIS
100
AcDbCircle
 10
2114.079466747407
 20
955.7469208417698
 30
0.0
 40
2.799999999999999
  0
ARC
  5
461A
330
1F
100
AcDbEntity
  8
AM_VIS
100
AcDbCircle
 10
2084.079466747406
 20
989.74692084177
 30
0.0
 40
4.75
100
AcDbArc
 50
328.2431361407093
 51
211.7568638592907
  0
CIRCLE
  5
461B
330
1F
100
AcDbEntity
  8
AM_VIS
100
AcDbCircle
 10
2084.079466747406
 20
989.74692084177
 30
0.0
 40
2.799999999999999
  0
ARC
  5
461C
330
1F
100
AcDbEntity
  8
AM_VIS
100
AcDbCircle
 10
2084.079466747406
 20
989.74692084177
 30
0.0
 40
4.75
100
AcDbArc
 50
229.2789524078107
 51
310.7210475921892
  0
CIRCLE
  5
461D
330
1F
100
AcDbEntity
  8
AM_VIS
100
AcDbCircle
 10
2114.079466747407
 20
989.74692084177
 30
0.0
 40
2.799999999999999
  0
ARC
  5
461E
330
1F
100
AcDbEntity
  8
AM_VIS
100
AcDbCircle
 10
2114.079466747407
 20
989.74692084177
 30
0.0
 40
4.75
100
AcDbArc
 50
229.2789524078107
 51
310.7210475921892
  0
ARC
  5
461F
330
1F
100
AcDbEntity
  8
AM_VIS
100
AcDbCircle
 10
2114.079466747407
 20
989.74692084177
 30
0.0
 40
4.75
100
AcDbArc
 50
328.2431361407093
 51
211.7568638592907
  0
LINE
  5
4620
330
1F
100
AcDbEntity
  8
AM_VIS
100
AcDbLine
 10
2133.579466747407
 20
966.0469208417698
 30
0.0
 11
2133.579466747407
 21
967.2969208417699
 31
0.0
  0
LINE
  5
4621
330
1F
100
AcDbEntity
  8
AM_VIS
100
AcDbLine
 10
2133.579466747407
 20
968.1969208417699
 30
0.0
 11
2133.579466747407
 21
969.4469208417698
 31
0.0
  0
LINE
  5
4622
330
1F
100
AcDbEntity
  8
AM_VIS
100
AcDbLine
 10
2133.579466747407
 20
976.0469208417699
 30
0.0
 11
2133.579466747407
 21
977.2969208417698
 31
0.0
  0
LINE
  5
4623
330
1F
100
AcDbEntity
  8
AM_VIS
100
AcDbLine
 10
2133.579466747407
 20
978.1969208417699
 30
0.0
 11
2133.579466747407
 21
979.44692084177
 31
0.0
  0
LINE
  5
4624
330
1F
100
AcDbEntity
  8
AM_VIS
100
AcDbLine
 10
2064.579466747407
 20
979.44692084177
 30
0.0
 11
2064.579466747407
 21
978.1969208417699
 31
0.0
  0
LINE
  5
4625
330
1F
100
AcDbEntity
  8
AM_VIS
100
AcDbLine
 10
2064.579466747407
 20
977.2969208417698
 30
0.0
 11
2064.579466747407
 21
976.0469208417699
 31
0.0
  0
LINE
  5
4626
330
1F
100
AcDbEntity
  8
AM_VIS
100
AcDbLine
 10
2064.579466747407
 20
969.4469208417698
 30
0.0
 11
2064.579466747407
 21
968.1969208417699
 31
0.0
  0
LINE
  5
4627
330
1F
100
AcDbEntity
  8
AM_VIS
100
AcDbLine
 10
2064.579466747407
 20
967.2969208417699
 30
0.0
 11
2064.579466747407
 21
966.0469208417698
 31
0.0
  0
LINE
  5
4628
330
1F
100
AcDbEntity
  8
AM_VIS
100
AcDbLine
 10
2165.579466747407
 20
1111.343212517858
 30
0.0
 11
2165.579466747407
 21
1069.343212517858
 31
0.0
  0
LINE
  5
4629
330
1F
100
AcDbEntity
  8
AM_VIS
100
AcDbLine
 10
2177.579466747407
 20
1069.343212517858
 30
0.0
 11
2177.579466747407
 21
1111.343212517858
 31
0.0
  0
LINE
  5
462A
330
1F
100
AcDbEntity
  8
AM_VIS
100
AcDbLine
 10
2165.579466747407
 20
1069.343212517858
 30
0.0
 11
2177.579466747407
 21
1069.343212517858
 31
0.0
  0
LINE
  5
462B
330
1F
100
AcDbEntity
  8
AM_VIS
100
AcDbLine
 10
2165.579466747407
 20
1111.343212517858
 30
0.0
 11
2177.579466747407
 21
1111.343212517858
 31
0.0
  0
LINE
  5
462C
330
1F
100
AcDbEntity
  8
AM_VIS
100
AcDbLine
 10
2050.579466747407
 20
1111.343212517858
 30
0.0
 11
2050.579466747407
 21
1069.343212517858
 31
0.0
  0
LINE
  5
462D
330
1F
100
AcDbEntity
  8
AM_VIS
100
AcDbLine
 10
2062.579466747406
 20
1069.343212517858
 30
0.0
 11
2062.579466747406
 21
1111.343212517858
 31
0.0
  0
LINE
  5
462E
330
1F
100
AcDbEntity
  8
AM_VIS
100
AcDbLine
 10
2050.579466747407
 20
1069.343212517858
 30
0.0
 11
2062.579466747406
 21
1069.343212517858
 31
0.0
  0
LINE
  5
462F
330
1F
100
AcDbEntity
  8
AM_VIS
100
AcDbLine
 10
2050.579466747407
 20
1111.343212517858
 30
0.0
 11
2062.579466747406
 21
1111.343212517858
 31
0.0
  0
LINE
  5
4630
330
1F
100
AcDbEntity
  8
AM_VIS
100
AcDbLine
 10
2064.579466747407
 20
1103.343212517858
 30
0.0
 11
2133.579466747407
 21
1103.343212517858
 31
0.0
  0
LINE
  5
4631
330
1F
100
AcDbEntity
  8
AM_VIS
100
AcDbLine
 10
2133.579466747407
 20
1086.843212517858
 30
0.0
 11
2064.579466747407
 21
1086.843212517858
 31
0.0
  0
LINE
  5
4632
330
1F
100
AcDbEntity
  8
AM_VIS
100
AcDbLine
 10
2064.579466747407
 20
1088.343212517858
 30
0.0
 11
2133.579466747407
 21
1088.343212517858
 31
0.0
  0
LINE
  5
4633
330
1F
100
AcDbEntity
  8
AM_VIS
100
AcDbLine
 10
2064.579466747407
 20
1101.843212517858
 30
0.0
 11
2133.579466747407
 21
1101.843212517858
 31
0.0
  0
LINE
  5
4634
330
1F
100
AcDbEntity
  8
AM_VIS
100
AcDbLine
 10
2133.579466747407
 20
1112.343212517858
 30
0.0
 11
2064.579466747407
 21
1112.343212517858
 31
0.0
  0
LINE
  5
4635
330
1F
100
AcDbEntity
  8
AM_VIS
100
AcDbLine
 10
2064.579466747407
 20
1070.343212517858
 30
0.0
 11
2133.579466747407
 21
1070.343212517858
 31
0.0
  0
LINE
  5
4636
330
1F
100
AcDbEntity
  8
AM_VIS
100
AcDbLine
 10
2133.579466747407
 20
1070.343212517858
 30
0.0
 11
2133.579466747407
 21
1086.843212517858
 31
0.0
  0
LINE
  5
4637
330
1F
100
AcDbEntity
  8
AM_VIS
100
AcDbLine
 10
2133.579466747407
 20
1088.343212517858
 30
0.0
 11
2133.579466747407
 21
1086.843212517858
 31
0.0
  0
LINE
  5
4638
330
1F
100
AcDbEntity
  8
AM_VIS
100
AcDbLine
 10
2133.579466747407
 20
1101.843212517858
 30
0.0
 11
2133.579466747407
 21
1088.343212517858
 31
0.0
  0
LINE
  5
4639
330
1F
100
AcDbEntity
  8
AM_VIS
100
AcDbLine
 10
2133.579466747407
 20
1103.343212517858
 30
0.0
 11
2133.579466747407
 21
1101.843212517858
 31
0.0
  0
LINE
  5
463A
330
1F
100
AcDbEntity
  8
AM_VIS
100
AcDbLine
 10
2133.579466747407
 20
1103.343212517858
 30
0.0
 11
2133.579466747407
 21
1111.743212517858
 31
0.0
  0
LINE
  5
463B
330
1F
100
AcDbEntity
  8
AM_VIS
100
AcDbLine
 10
2133.579466747407
 20
1111.743212517858
 30
0.0
 11
2133.579466747407
 21
1112.343212517858
 31
0.0
  0
LINE
  5
463C
330
1F
100
AcDbEntity
  8
AM_VIS
100
AcDbLine
 10
2064.579466747407
 20
1112.343212517858
 30
0.0
 11
2064.579466747407
 21
1111.743212517858
 31
0.0
  0
LINE
  5
463D
330
1F
100
AcDbEntity
  8
AM_VIS
100
AcDbLine
 10
2064.579466747407
 20
1103.343212517858
 30
0.0
 11
2064.579466747407
 21
1111.743212517858
 31
0.0
  0
LINE
  5
463E
330
1F
100
AcDbEntity
  8
AM_VIS
100
AcDbLine
 10
2064.579466747407
 20
1101.843212517858
 30
0.0
 11
2064.579466747407
 21
1103.343212517858
 31
0.0
  0
LINE
  5
463F
330
1F
100
AcDbEntity
  8
AM_VIS
100
AcDbLine
 10
2064.579466747407
 20
1088.343212517858
 30
0.0
 11
2064.579466747407
 21
1101.843212517858
 31
0.0
  0
LINE
  5
4640
330
1F
100
AcDbEntity
  8
AM_VIS
100
AcDbLine
 10
2064.579466747407
 20
1086.843212517858
 30
0.0
 11
2064.579466747407
 21
1088.343212517858
 31
0.0
  0
LINE
  5
4641
330
1F
100
AcDbEntity
  8
AM_VIS
100
AcDbLine
 10
2064.579466747407
 20
1070.343212517858
 30
0.0
 11
2064.579466747407
 21
1086.843212517858
 31
0.0
  0
CIRCLE
  5
4642
330
1F
100
AcDbEntity
  8
AM_VIS
100
AcDbCircle
 10
1983.05660618238
 20
1005.24692084177
 30
0.0
 40
6.0
  0
LINE
  5
4643
330
1F
100
AcDbEntity
  8
AM_VIS
100
AcDbLine
 10
1963.05660618238
 20
924.7469208417699
 30
0.0
 11
1963.05660618238
 21
1020.74692084177
 31
0.0
  0
LINE
  5
4644
330
1F
100
AcDbEntity
  8
AM_VIS
100
AcDbLine
 10
2005.05660618238
 20
924.7469208417699
 30
0.0
 11
1963.05660618238
 21
924.7469208417699
 31
0.0
  0
LINE
  5
4645
330
1F
100
AcDbEntity
  8
AM_VIS
100
AcDbLine
 10
2005.05660618238
 20
1020.74692084177
 30
0.0
 11
2005.05660618238
 21
924.7469208417699
 31
0.0
  0
LINE
  5
4646
330
1F
100
AcDbEntity
  8
AM_VIS
100
AcDbLine
 10
1963.05660618238
 20
1020.74692084177
 30
0.0
 11
2005.05660618238
 21
1020.74692084177
 31
0.0
  0
LINE
  5
4647
330
1F
100
AcDbEntity
  8
AM_VIS
100
AcDbLine
 10
1963.05660618238
 20
945.7469208417702
 30
0.0
 11
1962.05660618238
 21
944.74692084177
 31
0.0
  0
LINE
  5
4648
330
1F
100
AcDbEntity
  8
AM_VIS
100
AcDbLine
 10
1962.05660618238
 20
944.7469208417698
 30
0.0
 11
1962.05660618238
 21
930.3469208417698
 31
0.0
  0
LINE
  5
4649
330
1F
100
AcDbEntity
  8
AM_VIS
100
AcDbLine
 10
1962.65660618238
 20
929.7469208417698
 30
0.0
 11
1962.05660618238
 21
930.3469208417698
 31
0.0
  0
LINE
  5
464A
330
1F
100
AcDbEntity
  8
AM_VIS
100
AcDbLine
 10
1962.65660618238
 20
929.7469208417698
 30
0.0
 11
1962.65660618238
 21
924.7469208417699
 31
0.0
  0
LINE
  5
464B
330
1F
100
AcDbEntity
  8
AM_VIS
100
AcDbLine
 10
1962.65660618238
 20
924.7469208417699
 30
0.0
 11
1963.35660618238
 21
924.7469208417699
 31
0.0
  0
LINE
  5
464C
330
1F
100
AcDbEntity
  8
AM_VIS
100
AcDbLine
 10
1963.35660618238
 20
1020.74692084177
 30
0.0
 11
1962.65660618238
 21
1020.74692084177
 31
0.0
  0
LINE
  5
464D
330
1F
100
AcDbEntity
  8
AM_VIS
100
AcDbLine
 10
1962.65660618238
 20
1020.74692084177
 30
0.0
 11
1962.65660618238
 21
1015.74692084177
 31
0.0
  0
LINE
  5
464E
330
1F
100
AcDbEntity
  8
AM_VIS
100
AcDbLine
 10
1962.05660618238
 20
1015.14692084177
 30
0.0
 11
1962.65660618238
 21
1015.74692084177
 31
0.0
  0
LINE
  5
464F
330
1F
100
AcDbEntity
  8
AM_VIS
100
AcDbLine
 10
1962.05660618238
 20
1015.14692084177
 30
0.0
 11
1962.05660618238
 21
1000.74692084177
 31
0.0
  0
LINE
  5
4650
330
1F
100
AcDbEntity
  8
AM_VIS
100
AcDbLine
 10
1962.05660618238
 20
1000.74692084177
 30
0.0
 11
1963.05660618238
 21
999.7469208417696
 31
0.0
  0
LINE
  5
4651
330
1F
100
AcDbEntity
  8
AM_VIS
100
AcDbLine
 10
1963.05660618238
 20
995.7469208417702
 30
0.0
 11
1962.05660618238
 21
994.74692084177
 31
0.0
  0
LINE
  5
4652
330
1F
100
AcDbEntity
  8
AM_VIS
100
AcDbLine
 10
1962.05660618238
 20
994.7469208417698
 30
0.0
 11
1962.05660618238
 21
984.7469208417697
 31
0.0
  0
LINE
  5
4653
330
1F
100
AcDbEntity
  8
AM_VIS
100
AcDbLine
 10
1962.05660618238
 20
984.7469208417697
 30
0.0
 11
1963.05660618238
 21
983.7469208417701
 31
0.0
  0
LINE
  5
4654
330
1F
100
AcDbEntity
  8
AM_VIS
100
AcDbLine
 10
1963.05660618238
 20
961.7469208417695
 30
0.0
 11
1962.05660618238
 21
960.7469208417697
 31
0.0
  0
LINE
  5
4655
330
1F
100
AcDbEntity
  8
AM_VIS
100
AcDbLine
 10
1962.05660618238
 20
960.7469208417697
 30
0.0
 11
1962.05660618238
 21
950.7469208417699
 31
0.0
  0
LINE
  5
4656
330
1F
100
AcDbEntity
  8
AM_VIS
100
AcDbLine
 10
1962.05660618238
 20
950.7469208417697
 30
0.0
 11
1963.05660618238
 21
949.7469208417696
 31
0.0
  0
LINE
  5
4657
330
1F
100
AcDbEntity
  8
AM_VIS
100
AcDbLine
 10
2165.579466747407
 20
863.4502375704025
 30
0.0
 11
2165.579466747407
 21
821.4502375704025
 31
0.0
  0
LINE
  5
4658
330
1F
100
AcDbEntity
  8
AM_VIS
100
AcDbLine
 10
2165.579466747407
 20
863.4502375704025
 30
0.0
 11
2177.579466747407
 21
863.4502375704025
 31
0.0
  0
LINE
  5
4659
330
1F
100
AcDbEntity
  8
AM_VIS
100
AcDbLine
 10
2177.579466747407
 20
821.4502375704025
 30
0.0
 11
2177.579466747407
 21
863.4502375704025
 31
0.0
  0
LINE
  5
465A
330
1F
100
AcDbEntity
  8
AM_VIS
100
AcDbLine
 10
2165.579466747407
 20
821.4502375704025
 30
0.0
 11
2177.579466747407
 21
821.4502375704025
 31
0.0
  0
LINE
  5
465B
330
1F
100
AcDbEntity
  8
AM_VIS
100
AcDbLine
 10
2050.579466747407
 20
863.4502375704025
 30
0.0
 11
2050.579466747407
 21
821.4502375704025
 31
0.0
  0
LINE
  5
465C
330
1F
100
AcDbEntity
  8
AM_VIS
100
AcDbLine
 10
2050.579466747407
 20
863.4502375704025
 30
0.0
 11
2062.579466747406
 21
863.4502375704025
 31
0.0
  0
LINE
  5
465D
330
1F
100
AcDbEntity
  8
AM_VIS
100
AcDbLine
 10
2062.579466747406
 20
821.4502375704025
 30
0.0
 11
2062.579466747406
 21
863.4502375704025
 31
0.0
  0
LINE
  5
465E
330
1F
100
AcDbEntity
  8
AM_VIS
100
AcDbLine
 10
2050.579466747407
 20
821.4502375704025
 30
0.0
 11
2062.579466747406
 21
821.4502375704025
 31
0.0
  0
LINE
  5
465F
330
1F
100
AcDbEntity
  8
AM_VIS
100
AcDbLine
 10
2064.579466747407
 20
844.4502375704026
 30
0.0
 11
2133.579466747407
 21
844.4502375704026
 31
0.0
  0
LINE
  5
4660
330
1F
100
AcDbEntity
  8
AM_VIS
100
AcDbLine
 10
2133.579466747407
 20
829.4502375704025
 30
0.0
 11
2064.579466747407
 21
829.4502375704025
 31
0.0
  0
LINE
  5
4661
330
1F
100
AcDbEntity
  8
AM_VIS
100
AcDbLine
 10
2064.579466747407
 20
830.9502375704026
 30
0.0
 11
2133.579466747407
 21
830.9502375704026
 31
0.0
  0
LINE
  5
4662
330
1F
100
AcDbEntity
  8
AM_VIS
100
AcDbLine
 10
2064.579466747407
 20
820.4502375704025
 30
0.0
 11
2133.579466747407
 21
820.4502375704025
 31
0.0
  0
LINE
  5
4663
330
1F
100
AcDbEntity
  8
AM_VIS
100
AcDbLine
 10
2064.579466747407
 20
845.9502375704026
 30
0.0
 11
2133.579466747407
 21
845.9502375704026
 31
0.0
  0
LINE
  5
4664
330
1F
100
AcDbEntity
  8
AM_VIS
100
AcDbLine
 10
2064.579466747407
 20
862.4502375704025
 30
0.0
 11
2133.579466747407
 21
862.4502375704025
 31
0.0
  0
LINE
  5
4665
330
1F
100
AcDbEntity
  8
AM_VIS
100
AcDbLine
 10
2133.579466747407
 20
820.4502375704025
 30
0.0
 11
2133.579466747407
 21
821.0502375704024
 31
0.0
  0
LINE
  5
4666
330
1F
100
AcDbEntity
  8
AM_VIS
100
AcDbLine
 10
2133.579466747407
 20
821.0502375704024
 30
0.0
 11
2133.579466747407
 21
829.4502375704025
 31
0.0
  0
LINE
  5
4667
330
1F
100
AcDbEntity
  8
AM_VIS
100
AcDbLine
 10
2133.579466747407
 20
830.9502375704026
 30
0.0
 11
2133.579466747407
 21
829.4502375704025
 31
0.0
  0
LINE
  5
4668
330
1F
100
AcDbEntity
  8
AM_VIS
100
AcDbLine
 10
2133.579466747407
 20
844.4502375704026
 30
0.0
 11
2133.579466747407
 21
830.9502375704026
 31
0.0
  0
LINE
  5
4669
330
1F
100
AcDbEntity
  8
AM_VIS
100
AcDbLine
 10
2133.579466747407
 20
845.9502375704026
 30
0.0
 11
2133.579466747407
 21
844.4502375704024
 31
0.0
  0
LINE
  5
466A
330
1F
100
AcDbEntity
  8
AM_VIS
100
AcDbLine
 10
2133.579466747407
 20
845.9502375704026
 30
0.0
 11
2133.579466747407
 21
862.4502375704025
 31
0.0
  0
LINE
  5
466B
330
1F
100
AcDbEntity
  8
AM_VIS
100
AcDbLine
 10
2064.579466747407
 20
845.9502375704026
 30
0.0
 11
2064.579466747407
 21
862.4502375704025
 31
0.0
  0
LINE
  5
466C
330
1F
100
AcDbEntity
  8
AM_VIS
100
AcDbLine
 10
2064.579466747407
 20
844.4502375704026
 30
0.0
 11
2064.579466747407
 21
845.9502375704026
 31
0.0
  0
LINE
  5
466D
330
1F
100
AcDbEntity
  8
AM_VIS
100
AcDbLine
 10
2064.579466747407
 20
830.9502375704026
 30
0.0
 11
2064.579466747407
 21
844.4502375704026
 31
0.0
  0
LINE
  5
466E
330
1F
100
AcDbEntity
  8
AM_VIS
100
AcDbLine
 10
2064.579466747407
 20
829.4502375704023
 30
0.0
 11
2064.579466747407
 21
830.9502375704024
 31
0.0
  0
LINE
  5
466F
330
1F
100
AcDbEntity
  8
AM_VIS
100
AcDbLine
 10
2064.579466747407
 20
821.0502375704024
 30
0.0
 11
2064.579466747407
 21
829.4502375704025
 31
0.0
  0
LINE
  5
4670
330
1F
100
AcDbEntity
  8
AM_VIS
100
AcDbLine
 10
2064.579466747407
 20
821.0502375704024
 30
0.0
 11
2064.579466747407
 21
820.4502375704024
 31
0.0
  0
LINE
  5
4671
330
1F
100
AcDbEntity
  8
AM_VIS
100
AcDbLine
 10
2233.600805365373
 20
1020.74692084177
 30
0.0
 11
2275.600805365373
 21
1020.74692084177
 31
0.0
  0
LINE
  5
4672
330
1F
100
AcDbEntity
  8
AM_VIS
100
AcDbLine
 10
2233.600805365373
 20
924.7469208417699
 30
0.0
 11
2233.600805365373
 21
1020.74692084177
 31
0.0
  0
LINE
  5
4673
330
1F
100
AcDbEntity
  8
AM_VIS
100
AcDbLine
 10
2275.600805365373
 20
924.7469208417699
 30
0.0
 11
2233.600805365373
 21
924.7469208417699
 31
0.0
  0
LINE
  5
4674
330
1F
100
AcDbEntity
  8
AM_VIS
100
AcDbLine
 10
2275.600805365373
 20
1020.74692084177
 30
0.0
 11
2275.600805365373
 21
924.7469208417699
 31
0.0
  0
CIRCLE
  5
4675
330
1F
100
AcDbEntity
  8
AM_VIS
100
AcDbCircle
 10
2255.600805365373
 20
940.2469208417699
 30
0.0
 40
6.599999999999999
  0
LINE
  5
4676
330
1F
100
AcDbEntity
  8
AM_VIS
100
AcDbLine
 10
2276.600805365372
 20
944.7469208417698
 30
0.0
 11
2276.600805365372
 21
930.3469208417698
 31
0.0
  0
LINE
  5
4677
330
1F
100
AcDbEntity
  8
AM_VIS
100
AcDbLine
 10
2276.600805365372
 20
930.3469208417698
 30
0.0
 11
2276.000805365373
 21
929.7469208417698
 31
0.0
  0
LINE
  5
4678
330
1F
100
AcDbEntity
  8
AM_VIS
100
AcDbLine
 10
2276.000805365373
 20
924.7469208417699
 30
0.0
 11
2276.000805365373
 21
929.7469208417698
 31
0.0
  0
LINE
  5
4679
330
1F
100
AcDbEntity
  8
AM_VIS
100
AcDbLine
 10
2276.000805365373
 20
924.7469208417699
 30
0.0
 11
2275.300805365373
 21
924.7469208417699
 31
0.0
  0
LINE
  5
467A
330
1F
100
AcDbEntity
  8
AM_VIS
100
AcDbLine
 10
2275.300805365373
 20
1020.74692084177
 30
0.0
 11
2276.000805365372
 21
1020.74692084177
 31
0.0
  0
LINE
  5
467B
330
1F
100
AcDbEntity
  8
AM_VIS
100
AcDbLine
 10
2276.000805365373
 20
1015.74692084177
 30
0.0
 11
2276.000805365373
 21
1020.74692084177
 31
0.0
  0
LINE
  5
467C
330
1F
100
AcDbEntity
  8
AM_VIS
100
AcDbLine
 10
2276.000805365373
 20
1015.74692084177
 30
0.0
 11
2276.600805365372
 21
1015.14692084177
 31
0.0
  0
LINE
  5
467D
330
1F
100
AcDbEntity
  8
AM_VIS
100
AcDbLine
 10
2276.600805365372
 20
1015.14692084177
 30
0.0
 11
2276.600805365372
 21
1000.74692084177
 31
0.0
  0
LINE
  5
467E
330
1F
100
AcDbEntity
  8
AM_VIS
100
AcDbLine
 10
2275.600805365373
 20
999.7469208417703
 30
0.0
 11
2276.600805365372
 21
1000.74692084177
 31
0.0
  0
LINE
  5
467F
330
1F
100
AcDbEntity
  8
AM_VIS
100
AcDbLine
 10
2276.600805365372
 20
994.7469208417698
 30
0.0
 11
2275.600805365373
 21
995.7469208417695
 31
0.0
  0
LINE
  5
4680
330
1F
100
AcDbEntity
  8
AM_VIS
100
AcDbLine
 10
2276.600805365372
 20
994.7469208417698
 30
0.0
 11
2276.600805365372
 21
984.7469208417697
 31
0.0
  0
LINE
  5
4681
330
1F
100
AcDbEntity
  8
AM_VIS
100
AcDbLine
 10
2275.600805365373
 20
983.7469208417697
 30
0.0
 11
2276.600805365373
 21
984.7469208417697
 31
0.0
  0
LINE
  5
4682
330
1F
100
AcDbEntity
  8
AM_VIS
100
AcDbLine
 10
2276.600805365372
 20
960.7469208417697
 30
0.0
 11
2275.600805365373
 21
961.7469208417698
 31
0.0
  0
LINE
  5
4683
330
1F
100
AcDbEntity
  8
AM_VIS
100
AcDbLine
 10
2276.600805365372
 20
960.7469208417697
 30
0.0
 11
2276.600805365372
 21
950.7469208417699
 31
0.0
  0
LINE
  5
4684
330
1F
100
AcDbEntity
  8
AM_VIS
100
AcDbLine
 10
2275.600805365373
 20
949.7469208417703
 30
0.0
 11
2276.600805365372
 21
950.7469208417699
 31
0.0
  0
LINE
  5
4685
330
1F
100
AcDbEntity
  8
AM_VIS
100
AcDbLine
 10
2276.600805365372
 20
944.7469208417698
 30
0.0
 11
2275.600805365373
 21
945.7469208417698
 31
0.0
  0
LINE
  5
4686
330
1F
100
AcDbEntity
  8
AM_VIS
100
AcDbLine
 10
2165.579466747407
 20
1150.622200991501
 30
0.0
 11
2177.579466747407
 21
1150.622200991501
 31
0.0
  0
LINE
  5
4687
330
1F
100
AcDbEntity
  8
AM_VIS
100
AcDbLine
 10
2165.579466747407
 20
1246.622200991501
 30
0.0
 11
2165.579466747407
 21
1150.622200991501
 31
0.0
  0
LINE
  5
4688
330
1F
100
AcDbEntity
  8
AM_VIS
100
AcDbLine
 10
2165.579466747407
 20
1246.622200991501
 30
0.0
 11
2177.579466747407
 21
1246.622200991501
 31
0.0
  0
LINE
  5
4689
330
1F
100
AcDbEntity
  8
AM_VIS
100
AcDbLine
 10
2177.579466747407
 20
1150.622200991501
 30
0.0
 11
2177.579466747407
 21
1246.622200991501
 31
0.0
  0
CIRCLE
  5
468A
330
1F
100
AcDbEntity
  8
AM_VIS
100
AcDbCircle
 10
2171.579466747406
 20
1175.622200991501
 30
0.0
 40
4.75
  0
CIRCLE
  5
468B
330
1F
100
AcDbEntity
  8
AM_VIS
100
AcDbCircle
 10
2171.579466747406
 20
1175.622200991501
 30
0.0
 40
2.799999999999999
  0
CIRCLE
  5
468C
330
1F
100
AcDbEntity
  8
AM_VIS
100
AcDbCircle
 10
2171.579466747406
 20
1221.622200991501
 30
0.0
 40
4.75
  0
CIRCLE
  5
468D
330
1F
100
AcDbEntity
  8
AM_VIS
100
AcDbCircle
 10
2171.579466747406
 20
1221.622200991501
 30
0.0
 40
2.799999999999999
  0
LINE
  5
468E
330
1F
100
AcDbEntity
  8
AM_VIS
100
AcDbLine
 10
2050.579466747407
 20
1150.622200991501
 30
0.0
 11
2062.579466747406
 21
1150.622200991501
 31
0.0
  0
LINE
  5
468F
330
1F
100
AcDbEntity
  8
AM_VIS
100
AcDbLine
 10
2050.579466747407
 20
1246.622200991501
 30
0.0
 11
2050.579466747407
 21
1150.622200991501
 31
0.0
  0
LINE
  5
4690
330
1F
100
AcDbEntity
  8
AM_VIS
100
AcDbLine
 10
2050.579466747407
 20
1246.622200991501
 30
0.0
 11
2062.579466747406
 21
1246.622200991501
 31
0.0
  0
LINE
  5
4691
330
1F
100
AcDbEntity
  8
AM_VIS
100
AcDbLine
 10
2062.579466747406
 20
1150.622200991501
 30
0.0
 11
2062.579466747406
 21
1246.622200991501
 31
0.0
  0
CIRCLE
  5
4692
330
1F
100
AcDbEntity
  8
AM_VIS
100
AcDbCircle
 10
2056.579466747407
 20
1175.622200991501
 30
0.0
 40
4.75
  0
CIRCLE
  5
4693
330
1F
100
AcDbEntity
  8
AM_VIS
100
AcDbCircle
 10
2056.579466747407
 20
1175.622200991501
 30
0.0
 40
2.799999999999999
  0
CIRCLE
  5
4694
330
1F
100
AcDbEntity
  8
AM_VIS
100
AcDbCircle
 10
2056.579466747407
 20
1221.622200991501
 30
0.0
 40
4.75
  0
CIRCLE
  5
4695
330
1F
100
AcDbEntity
  8
AM_VIS
100
AcDbCircle
 10
2056.579466747407
 20
1221.622200991501
 30
0.0
 40
2.799999999999999
  0
LINE
  5
4696
330
1F
100
AcDbEntity
  8
AM_VIS
100
AcDbLine
 10
2133.579466747407
 20
1150.622200991501
 30
0.0
 11
2064.579466747407
 21
1150.622200991501
 31
0.0
  0
LINE
  5
4697
330
1F
100
AcDbEntity
  8
AM_VIS
100
AcDbLine
 10
2064.579466747407
 20
1246.622200991501
 30
0.0
 11
2133.579466747407
 21
1246.622200991501
 31
0.0
  0
LINE
  5
4698
330
1F
100
AcDbEntity
  8
AM_VIS
100
AcDbLine
 10
2064.579466747407
 20
1155.622200991501
 30
0.0
 11
2133.579466747407
 21
1155.622200991501
 31
0.0
  0
LINE
  5
4699
330
1F
100
AcDbEntity
  8
AM_VIS
100
AcDbLine
 10
2064.579466747407
 20
1241.622200991501
 30
0.0
 11
2133.579466747407
 21
1241.622200991501
 31
0.0
  0
LINE
  5
469A
330
1F
100
AcDbEntity
  8
AM_VIS
100
AcDbLine
 10
2064.579466747407
 20
1241.022200991501
 30
0.0
 11
2133.579466747407
 21
1241.022200991501
 31
0.0
  0
LINE
  5
469B
330
1F
100
AcDbEntity
  8
AM_VIS
100
AcDbLine
 10
2064.579466747407
 20
1195.322200991501
 30
0.0
 11
2133.579466747407
 21
1195.322200991501
 31
0.0
  0
LINE
  5
469C
330
1F
100
AcDbEntity
  8
AM_VIS
100
AcDbLine
 10
2064.579466747407
 20
1201.922200991501
 30
0.0
 11
2133.579466747407
 21
1201.922200991501
 31
0.0
  0
LINE
  5
469D
330
1F
100
AcDbEntity
  8
AM_VIS
100
AcDbLine
 10
2064.579466747407
 20
1205.322200991501
 30
0.0
 11
2133.579466747407
 21
1205.322200991501
 31
0.0
  0
LINE
  5
469E
330
1F
100
AcDbEntity
  8
AM_VIS
100
AcDbLine
 10
2064.579466747407
 20
1209.222200991501
 30
0.0
 11
2133.579466747407
 21
1209.222200991501
 31
0.0
  0
LINE
  5
469F
330
1F
100
AcDbEntity
  8
AM_VIS
100
AcDbLine
 10
2064.579466747407
 20
1188.022200991501
 30
0.0
 11
2133.579466747407
 21
1188.022200991501
 31
0.0
  0
LINE
  5
46A0
330
1F
100
AcDbEntity
  8
AM_VIS
100
AcDbLine
 10
2064.579466747407
 20
1191.922200991501
 30
0.0
 11
2133.579466747407
 21
1191.922200991501
 31
0.0
  0
LINE
  5
46A1
330
1F
100
AcDbEntity
  8
AM_VIS
100
AcDbLine
 10
2133.579466747407
 20
1186.622200991501
 30
0.0
 11
2064.579466747407
 21
1186.622200991501
 31
0.0
  0
LINE
  5
46A2
330
1F
100
AcDbEntity
  8
AM_VIS
100
AcDbLine
 10
2133.579466747407
 20
1156.222200991501
 30
0.0
 11
2064.579466747407
 21
1156.222200991501
 31
0.0
  0
LINE
  5
46A3
330
1F
100
AcDbEntity
  8
AM_VIS
100
AcDbLine
 10
2133.579466747407
 20
1170.622200991501
 30
0.0
 11
2064.579466747407
 21
1170.622200991501
 31
0.0
  0
LINE
  5
46A4
330
1F
100
AcDbEntity
  8
AM_VIS
100
AcDbLine
 10
2064.579466747407
 20
1173.622200991501
 30
0.0
 11
2133.579466747407
 21
1173.622200991501
 31
0.0
  0
LINE
  5
46A5
330
1F
100
AcDbEntity
  8
AM_VIS
100
AcDbLine
 10
2064.579466747407
 20
1176.622200991501
 30
0.0
 11
2133.579466747407
 21
1176.622200991501
 31
0.0
  0
LINE
  5
46A6
330
1F
100
AcDbEntity
  8
AM_VIS
100
AcDbLine
 10
2064.579466747407
 20
1210.622200991501
 30
0.0
 11
2133.579466747407
 21
1210.622200991501
 31
0.0
  0
LINE
  5
46A7
330
1F
100
AcDbEntity
  8
AM_VIS
100
AcDbLine
 10
2064.579466747407
 20
1226.622200991501
 30
0.0
 11
2133.579466747407
 21
1226.622200991501
 31
0.0
  0
LINE
  5
46A8
330
1F
100
AcDbEntity
  8
AM_VIS
100
AcDbLine
 10
2133.579466747407
 20
1220.622200991501
 30
0.0
 11
2064.579466747407
 21
1220.622200991501
 31
0.0
  0
LINE
  5
46A9
330
1F
100
AcDbEntity
  8
AM_VIS
100
AcDbLine
 10
2064.579466747407
 20
1223.622200991501
 30
0.0
 11
2133.579466747407
 21
1223.622200991501
 31
0.0
  0
LINE
  5
46AA
330
1F
100
AcDbEntity
  8
AM_VIS
100
AcDbLine
 10
2133.579466747407
 20
1226.622200991501
 30
0.0
 11
2133.579466747407
 21
1241.022200991501
 31
0.0
  0
LINE
  5
46AB
330
1F
100
AcDbEntity
  8
AM_VIS
100
AcDbLine
 10
2133.579466747407
 20
1241.022200991501
 30
0.0
 11
2133.579466747407
 21
1241.622200991501
 31
0.0
  0
LINE
  5
46AC
330
1F
100
AcDbEntity
  8
AM_VIS
100
AcDbLine
 10
2133.579466747407
 20
1246.622200991501
 30
0.0
 11
2133.579466747407
 21
1241.622200991501
 31
0.0
  0
LINE
  5
46AD
330
1F
100
AcDbEntity
  8
AM_VIS
100
AcDbLine
 10
2133.579466747407
 20
1155.622200991501
 30
0.0
 11
2133.579466747407
 21
1150.622200991501
 31
0.0
  0
LINE
  5
46AE
330
1F
100
AcDbEntity
  8
AM_VIS
100
AcDbLine
 10
2133.579466747407
 20
1155.622200991501
 30
0.0
 11
2133.579466747407
 21
1156.222200991501
 31
0.0
  0
LINE
  5
46AF
330
1F
100
AcDbEntity
  8
AM_VIS
100
AcDbLine
 10
2133.579466747407
 20
1156.222200991501
 30
0.0
 11
2133.579466747407
 21
1170.622200991501
 31
0.0
  0
LINE
  5
46B0
330
1F
100
AcDbEntity
  8
AM_VIS
100
AcDbLine
 10
2133.579466747407
 20
1173.622200991501
 30
0.0
 11
2133.579466747407
 21
1170.622200991501
 31
0.0
  0
LINE
  5
46B1
330
1F
100
AcDbEntity
  8
AM_VIS
100
AcDbLine
 10
2133.579466747407
 20
1176.622200991501
 30
0.0
 11
2133.579466747407
 21
1173.622200991501
 31
0.0
  0
LINE
  5
46B2
330
1F
100
AcDbEntity
  8
AM_VIS
100
AcDbLine
 10
2133.579466747407
 20
1176.622200991501
 30
0.0
 11
2133.579466747407
 21
1186.622200991501
 31
0.0
  0
LINE
  5
46B3
330
1F
100
AcDbEntity
  8
AM_VIS
100
AcDbLine
 10
2133.579466747407
 20
1188.022200991501
 30
0.0
 11
2133.579466747407
 21
1186.622200991501
 31
0.0
  0
LINE
  5
46B4
330
1F
100
AcDbEntity
  8
AM_VIS
100
AcDbLine
 10
2133.579466747407
 20
1191.922200991501
 30
0.0
 11
2133.579466747407
 21
1188.022200991501
 31
0.0
  0
LINE
  5
46B5
330
1F
100
AcDbEntity
  8
AM_VIS
100
AcDbLine
 10
2133.579466747407
 20
1194.072200991501
 30
0.0
 11
2133.579466747407
 21
1193.172200991501
 31
0.0
  0
LINE
  5
46B6
330
1F
100
AcDbEntity
  8
AM_VIS
100
AcDbLine
 10
2133.579466747407
 20
1201.922200991501
 30
0.0
 11
2133.579466747407
 21
1195.322200991501
 31
0.0
  0
LINE
  5
46B7
330
1F
100
AcDbEntity
  8
AM_VIS
100
AcDbLine
 10
2133.579466747407
 20
1204.072200991501
 30
0.0
 11
2133.579466747407
 21
1203.172200991501
 31
0.0
  0
LINE
  5
46B8
330
1F
100
AcDbEntity
  8
AM_VIS
100
AcDbLine
 10
2133.579466747407
 20
1209.222200991501
 30
0.0
 11
2133.579466747407
 21
1205.322200991501
 31
0.0
  0
LINE
  5
46B9
330
1F
100
AcDbEntity
  8
AM_VIS
100
AcDbLine
 10
2133.579466747407
 20
1210.622200991501
 30
0.0
 11
2133.579466747407
 21
1209.222200991501
 31
0.0
  0
LINE
  5
46BA
330
1F
100
AcDbEntity
  8
AM_VIS
100
AcDbLine
 10
2133.579466747407
 20
1210.622200991501
 30
0.0
 11
2133.579466747407
 21
1220.622200991501
 31
0.0
  0
LINE
  5
46BB
330
1F
100
AcDbEntity
  8
AM_VIS
100
AcDbLine
 10
2133.579466747407
 20
1223.622200991501
 30
0.0
 11
2133.579466747407
 21
1220.622200991501
 31
0.0
  0
LINE
  5
46BC
330
1F
100
AcDbEntity
  8
AM_VIS
100
AcDbLine
 10
2133.579466747407
 20
1226.622200991501
 30
0.0
 11
2133.579466747407
 21
1223.622200991501
 31
0.0
  0
LINE
  5
46BD
330
1F
100
AcDbEntity
  8
AM_VIS
100
AcDbLine
 10
2064.579466747407
 20
1220.622200991501
 30
0.0
 11
2064.579466747407
 21
1223.622200991501
 31
0.0
  0
LINE
  5
46BE
330
1F
100
AcDbEntity
  8
AM_VIS
100
AcDbLine
 10
2064.579466747407
 20
1210.622200991501
 30
0.0
 11
2064.579466747407
 21
1220.622200991501
 31
0.0
  0
LINE
  5
46BF
330
1F
100
AcDbEntity
  8
AM_VIS
100
AcDbLine
 10
2064.579466747407
 20
1209.222200991501
 30
0.0
 11
2064.579466747407
 21
1210.622200991501
 31
0.0
  0
LINE
  5
46C0
330
1F
100
AcDbEntity
  8
AM_VIS
100
AcDbLine
 10
2064.579466747407
 20
1205.322200991501
 30
0.0
 11
2064.579466747407
 21
1209.222200991501
 31
0.0
  0
LINE
  5
46C1
330
1F
100
AcDbEntity
  8
AM_VIS
100
AcDbLine
 10
2064.579466747407
 20
1203.172200991501
 30
0.0
 11
2064.579466747407
 21
1204.072200991501
 31
0.0
  0
LINE
  5
46C2
330
1F
100
AcDbEntity
  8
AM_VIS
100
AcDbLine
 10
2064.579466747407
 20
1195.322200991501
 30
0.0
 11
2064.579466747407
 21
1201.922200991501
 31
0.0
  0
LINE
  5
46C3
330
1F
100
AcDbEntity
  8
AM_VIS
100
AcDbLine
 10
2064.579466747407
 20
1193.172200991501
 30
0.0
 11
2064.579466747407
 21
1194.072200991501
 31
0.0
  0
LINE
  5
46C4
330
1F
100
AcDbEntity
  8
AM_VIS
100
AcDbLine
 10
2064.579466747407
 20
1188.022200991501
 30
0.0
 11
2064.579466747407
 21
1191.922200991501
 31
0.0
  0
LINE
  5
46C5
330
1F
100
AcDbEntity
  8
AM_VIS
100
AcDbLine
 10
2064.579466747407
 20
1186.622200991501
 30
0.0
 11
2064.579466747407
 21
1188.022200991501
 31
0.0
  0
LINE
  5
46C6
330
1F
100
AcDbEntity
  8
AM_VIS
100
AcDbLine
 10
2064.579466747407
 20
1176.622200991501
 30
0.0
 11
2064.579466747407
 21
1186.622200991501
 31
0.0
  0
LINE
  5
46C7
330
1F
100
AcDbEntity
  8
AM_VIS
100
AcDbLine
 10
2064.579466747407
 20
1170.622200991501
 30
0.0
 11
2064.579466747407
 21
1176.622200991501
 31
0.0
  0
LINE
  5
46C9
330
1F
100
AcDbEntity
  8
AM_VIS
100
AcDbLine
 10
2064.579466747407
 20
1156.222200991501
 30
0.0
 11
2064.579466747407
 21
1170.622200991501
 31
0.0
  0
LINE
  5
46CA
330
1F
100
AcDbEntity
  8
AM_VIS
100
AcDbLine
 10
2064.579466747407
 20
1156.222200991501
 30
0.0
 11
2064.579466747407
 21
1155.622200991501
 31
0.0
  0
LINE
  5
46CB
330
1F
100
AcDbEntity
  8
AM_VIS
100
AcDbLine
 10
2064.579466747407
 20
1150.622200991501
 30
0.0
 11
2064.579466747407
 21
1155.622200991501
 31
0.0
  0
LINE
  5
46CC
330
1F
100
AcDbEntity
  8
AM_VIS
100
AcDbLine
 10
2064.579466747407
 20
1241.622200991501
 30
0.0
 11
2064.579466747407
 21
1246.622200991501
 31
0.0
  0
LINE
  5
46CD
330
1F
100
AcDbEntity
  8
AM_VIS
100
AcDbLine
 10
2064.579466747407
 20
1241.622200991501
 30
0.0
 11
2064.579466747407
 21
1241.022200991501
 31
0.0
  0
LINE
  5
46CE
330
1F
100
AcDbEntity
  8
AM_VIS
100
AcDbLine
 10
2064.579466747407
 20
1226.622200991501
 30
0.0
 11
2064.579466747407
 21
1241.022200991501
 31
0.0
  0
LINE
  5
46CF
330
1F
100
AcDbEntity
  8
AM_VIS
100
AcDbLine
 10
2064.579466747407
 20
1223.622200991501
 30
0.0
 11
2064.579466747407
 21
1226.622200991501
 31
0.0
  0
LINE
  5
46D0
330
1F
100
AcDbEntity
  8
AM_VIS
100
AcDbLine
 10
2133.579466747407
 20
1191.922200991501
 30
0.0
 11
2133.579466747407
 21
1193.172200991501
 31
0.0
  0
LINE
  5
46D1
330
1F
100
AcDbEntity
  8
AM_VIS
100
AcDbLine
 10
2133.579466747407
 20
1194.072200991501
 30
0.0
 11
2133.579466747407
 21
1195.322200991501
 31
0.0
  0
LINE
  5
46D2
330
1F
100
AcDbEntity
  8
AM_VIS
100
AcDbLine
 10
2133.579466747407
 20
1201.922200991501
 30
0.0
 11
2133.579466747407
 21
1203.172200991501
 31
0.0
  0
LINE
  5
46D3
330
1F
100
AcDbEntity
  8
AM_VIS
100
AcDbLine
 10
2133.579466747407
 20
1204.072200991501
 30
0.0
 11
2133.579466747407
 21
1205.322200991501
 31
0.0
  0
LINE
  5
46D4
330
1F
100
AcDbEntity
  8
AM_VIS
100
AcDbLine
 10
2064.579466747407
 20
1205.322200991501
 30
0.0
 11
2064.579466747407
 21
1204.072200991501
 31
0.0
  0
LINE
  5
46D5
330
1F
100
AcDbEntity
  8
AM_VIS
100
AcDbLine
 10
2064.579466747407
 20
1203.172200991501
 30
0.0
 11
2064.579466747407
 21
1201.922200991501
 31
0.0
  0
LINE
  5
46D6
330
1F
100
AcDbEntity
  8
AM_VIS
100
AcDbLine
 10
2064.579466747407
 20
1195.322200991501
 30
0.0
 11
2064.579466747407
 21
1194.072200991501
 31
0.0
  0
LINE
  5
46D7
330
1F
100
AcDbEntity
  8
AM_VIS
100
AcDbLine
 10
2064.579466747407
 20
1193.172200991501
 30
0.0
 11
2064.579466747407
 21
1191.922200991501
 31
0.0
  0
LINE
  5
46D8
330
1F
100
AcDbEntity
  8
0
100
AcDbLine
 10
2133.579466747407
 20
978.7469208417698
 30
0.0
 11
2165.579466747407
 21
978.7469208417698
 31
0.0
  0
LINE
  5
46D9
330
1F
100
AcDbEntity
  8
0
100
AcDbLine
 10
2133.579466747407
 20
966.7469208417699
 30
0.0
 11
2165.579466747407
 21
966.7469208417699
 31
0.0
  0
LINE
  5
46DA
330
1F
100
AcDbEntity
  8
0
100
AcDbLine
 10
2133.579466747407
 20
1011.74692084177
 30
0.0
 11
2165.579466747407
 21
1011.74692084177
 31
0.0
  0
LINE
  5
46DB
330
1F
100
AcDbEntity
  8
0
100
AcDbLine
 10
2133.579466747407
 20
998.7469208417699
 30
0.0
 11
2165.579466747407
 21
998.7469208417699
 31
0.0
  0
LINE
  5
46DC
330
1F
100
AcDbEntity
  8
0
100
AcDbLine
 10
2062.579466747406
 20
1011.74692084177
 30
0.0
 11
2064.579466747407
 21
1011.74692084177
 31
0.0
  0
LINE
  5
46DD
330
1F
100
AcDbEntity
  8
0
100
AcDbLine
 10
2062.579466747406
 20
998.7469208417699
 30
0.0
 11
2064.579466747407
 21
998.7469208417699
 31
0.0
  0
LINE
  5
46DE
330
1F
100
AcDbEntity
  8
0
100
AcDbLine
 10
2062.579466747406
 20
978.7469208417698
 30
0.0
 11
2064.579466747407
 21
978.7469208417698
 31
0.0
  0
LINE
  5
46DF
330
1F
100
AcDbEntity
  8
0
100
AcDbLine
 10
2062.579466747406
 20
966.7469208417699
 30
0.0
 11
2064.579466747407
 21
966.7469208417699
 31
0.0
  0
LINE
  5
46E0
330
1F
100
AcDbEntity
  8
AM_7
100
AcDbLine
 10
2048.579466747407
 20
1005.24692084177
 30
0.0
 11
2179.579466747407
 21
1005.24692084177
 31
0.0
1001
GENIUS_GENOBJ-N-CEN_13
1002
{
1000
OWNER
1000
GEN
1002
}
1001
GENIUS_GENODEF_13
1002
{
1000
HIER
1070
     0
1002
}
1002
{
1000
MANEDIT
1070
     0
1002
}
1002
{
1000
NOSEL
1070
     0
1002
}
1002
{
1000
BEHIND
1070
     0
1002
}
1002
{
1000
OTHER
1070
     0
1002
}
1002
{
1000
REACTOR
1002
}
1001
GENIUS_GENCEN_19
1002
{
1040
2.0
1002
}
  0
LINE
  5
46E1
330
1F
100
AcDbEntity
  8
AM_7
100
AcDbLine
 10
2048.579466747407
 20
940.2469208417699
 30
0.0
 11
2179.579466747407
 21
940.2469208417699
 31
0.0
1001
GENIUS_GENOBJ-N-CEN_13
1002
{
1000
OWNER
1000
GEN
1002
}
1001
GENIUS_GENODEF_13
1002
{
1000
HIER
1070
     0
1002
}
1002
{
1000
MANEDIT
1070
     0
1002
}
1002
{
1000
NOSEL
1070
     0
1002
}
1002
{
1000
BEHIND
1070
     0
1002
}
1002
{
1000
OTHER
1070
     0
1002
}
1002
{
1000
REACTOR
1002
}
1001
GENIUS_GENCEN_19
1002
{
1040
2.0
1002
}
  0
LINE
  5
46E2
330
1F
100
AcDbEntity
  8
AM_7
100
AcDbLine
 10
2048.579466747407
 20
972.74692084177
 30
0.0
 11
2179.579466747407
 21
972.74692084177
 31
0.0
1001
GENIUS_GENODEF_13
1002
{
1000
HIER
1070
     0
1002
}
1002
{
1000
MANEDIT
1070
     0
1002
}
1002
{
1000
NOSEL
1070
     0
1002
}
1002
{
1000
BEHIND
1070
     0
1002
}
1002
{
1000
OTHER
1070
     0
1002
}
1002
{
1000
REACTOR
1002
}
1001
GENIUS_GENOBJ-N-CEN_13
1002
{
1000
OWNER
1000
GEN
1002
}
1001
GENIUS_GENCEN_19
1002
{
1040
2.0
1002
}
  0
LINE
  5
46E7
330
1F
100
AcDbEntity
  8
0
100
AcDbLine
 10
2133.579466747407
 20
1204.622200991501
 30
0.0
 11
2165.579466747407
 21
1204.622200991501
 31
0.0
  0
LINE
  5
46E8
330
1F
100
AcDbEntity
  8
0
100
AcDbLine
 10
2133.579466747407
 20
1192.622200991501
 30
0.0
 11
2165.579466747407
 21
1192.622200991501
 31
0.0
  0
LINE
  5
46ED
330
1F
100
AcDbEntity
  8
0
100
AcDbLine
 10
2062.579466747406
 20
1204.622200991501
 30
0.0
 11
2064.579466747407
 21
1204.622200991501
 31
0.0
  0
LINE
  5
46EE
330
1F
100
AcDbEntity
  8
0
100
AcDbLine
 10
2062.579466747406
 20
1192.622200991501
 30
0.0
 11
2064.579466747407
 21
1192.622200991501
 31
0.0
  0
LINE
  5
46F3
330
1F
100
AcDbEntity
  8
AM_7
100
AcDbLine
 10
2048.579466747407
 20
1231.122200991501
 30
0.0
 11
2179.579466747407
 21
1231.122200991501
 31
0.0
1001
GENIUS_GENOBJ-N-CEN_13
1002
{
1000
OWNER
1000
GEN
1002
}
1001
GENIUS_GENODEF_13
1002
{
1000
HIER
1070
     0
1002
}
1002
{
1000
MANEDIT
1070
     0
1002
}
1002
{
1000
NOSEL
1070
     0
1002
}
1002
{
1000
BEHIND
1070
     0
1002
}
1002
{
1000
OTHER
1070
     0
1002
}
1002
{
1000
REACTOR
1002
}
1001
GENIUS_GENCEN_19
1002
{
1040
2.0
1002
}
  0
LINE
  5
46F4
330
1F
100
AcDbEntity
  8
AM_7
100
AcDbLine
 10
2048.579466747407
 20
1166.122200991501
 30
0.0
 11
2179.579466747407
 21
1166.122200991501
 31
0.0
1001
GENIUS_GENOBJ-N-CEN_13
1002
{
1000
OWNER
1000
GEN
1002
}
1001
GENIUS_GENODEF_13
1002
{
1000
HIER
1070
     0
1002
}
1002
{
1000
MANEDIT
1070
     0
1002
}
1002
{
1000
NOSEL
1070
     0
1002
}
1002
{
1000
BEHIND
1070
     0
1002
}
1002
{
1000
OTHER
1070
     0
1002
}
1002
{
1000
REACTOR
1002
}
1001
GENIUS_GENCEN_19
1002
{
1040
2.0
1002
}
  0
LINE
  5
46F5
330
1F
100
AcDbEntity
  8
AM_7
100
AcDbLine
 10
2048.579466747407
 20
1198.622200991501
 30
0.0
 11
2179.579466747407
 21
1198.622200991501
 31
0.0
1001
GENIUS_GENODEF_13
1002
{
1000
HIER
1070
     0
1002
}
1002
{
1000
MANEDIT
1070
     0
1002
}
1002
{
1000
NOSEL
1070
     0
1002
}
1002
{
1000
BEHIND
1070
     0
1002
}
1002
{
1000
OTHER
1070
     0
1002
}
1002
{
1000
REACTOR
1002
}
1001
GENIUS_GENOBJ-N-CEN_13
1002
{
1000
OWNER
1000
GEN
1002
}
1001
GENIUS_GENCEN_19
1002
{
1040
2.0
1002
}
  0
LINE
  5
46F6
330
1F
100
AcDbEntity
  8
AM_7
100
AcDbLine
 10
2048.579466747407
 20
841.4502375704026
 30
0.0
 11
2179.579466747407
 21
841.4502375704026
 31
0.0
1001
GENIUS_GENOBJ-N-CEN_13
1002
{
1000
OWNER
1000
GEN
1002
}
1001
GENIUS_GENODEF_13
1002
{
1000
HIER
1070
     0
1002
}
1002
{
1000
MANEDIT
1070
     0
1002
}
1002
{
1000
NOSEL
1070
     0
1002
}
1002
{
1000
BEHIND
1070
     0
1002
}
1002
{
1000
OTHER
1070
     0
1002
}
1002
{
1000
REACTOR
1002
}
1001
GENIUS_GENCEN_19
1002
{
1040
2.0
1002
}
  0
LINE
  5
46FB
330
1F
100
AcDbEntity
  8
AM_7
100
AcDbLine
 10
2048.579466747407
 20
1091.343212517858
 30
0.0
 11
2179.579466747407
 21
1091.343212517858
 31
0.0
1001
GENIUS_GENOBJ-N-CEN_13
1002
{
1000
OWNER
1000
GEN
1002
}
1001
GENIUS_GENODEF_13
1002
{
1000
HIER
1070
     0
1002
}
1002
{
1000
MANEDIT
1070
     0
1002
}
1002
{
1000
NOSEL
1070
     0
1002
}
1002
{
1000
BEHIND
1070
     0
1002
}
1002
{
1000
OTHER
1070
     0
1002
}
1002
{
1000
REACTOR
1002
}
1001
GENIUS_GENCEN_19
1002
{
1040
2.0
1002
}
  0
CIRCLE
  5
4700
330
1F
100
AcDbEntity
  8
AM_VIS
100
AcDbCircle
 10
1970.05660618238
 20
1007.74692084177
 30
0.0
 40
2.6
  0
ARC
  5
4701
330
1F
100
AcDbEntity
  8
AM_4
100
AcDbCircle
 10
1970.05660618238
 20
1007.74692084177
 30
0.0
 40
3.0
100
AcDbArc
 50
260.0
 51
170.0
  0
LINE
  5
4702
330
1F
100
AcDbEntity
  8
AM_7
  6
AM_ISO08W050x2
100
AcDbLine
 10
1965.05660618238
 20
1007.74692084177
 30
0.0
 11
1975.05660618238
 21
1007.74692084177
 31
0.0
  0
LINE
  5
4703
330
1F
100
AcDbEntity
  8
AM_7
  6
AM_ISO08W050x2
100
AcDbLine
 10
1970.05660618238
 20
1002.74692084177
 30
0.0
 11
1970.05660618238
 21
1012.74692084177
 31
0.0
  0
CIRCLE
  5
4704
330
1F
100
AcDbEntity
  8
AM_VIS
100
AcDbCircle
 10
1996.05660618238
 20
1007.74692084177
 30
0.0
 40
2.6
  0
ARC
  5
4705
330
1F
100
AcDbEntity
  8
AM_4
100
AcDbCircle
 10
1996.05660618238
 20
1007.74692084177
 30
0.0
 40
3.0
100
AcDbArc
 50
260.0
 51
170.0
  0
LINE
  5
4706
330
1F
100
AcDbEntity
  8
AM_7
  6
AM_ISO08W050x2
100
AcDbLine
 10
1991.05660618238
 20
1007.74692084177
 30
0.0
 11
2001.05660618238
 21
1007.74692084177
 31
0.0
  0
LINE
  5
4707
330
1F
100
AcDbEntity
  8
AM_7
  6
AM_ISO08W050x2
100
AcDbLine
 10
1996.05660618238
 20
1002.74692084177
 30
0.0
 11
1996.05660618238
 21
1012.74692084177
 31
0.0
  0
CIRCLE
  5
4708
330
1F
100
AcDbEntity
  8
AM_VIS
100
AcDbCircle
 10
1970.05660618238
 20
937.7469208417698
 30
0.0
 40
2.6
  0
ARC
  5
4709
330
1F
100
AcDbEntity
  8
AM_4
100
AcDbCircle
 10
1970.05660618238
 20
937.7469208417698
 30
0.0
 40
3.0
100
AcDbArc
 50
260.0
 51
170.0
  0
LINE
  5
470A
330
1F
100
AcDbEntity
  8
AM_7
  6
AM_ISO08W050x2
100
AcDbLine
 10
1965.05660618238
 20
937.7469208417698
 30
0.0
 11
1975.05660618238
 21
937.7469208417698
 31
0.0
  0
LINE
  5
470B
330
1F
100
AcDbEntity
  8
AM_7
  6
AM_ISO08W050x2
100
AcDbLine
 10
1970.05660618238
 20
932.7469208417699
 30
0.0
 11
1970.05660618238
 21
942.7469208417699
 31
0.0
  0
CIRCLE
  5
470C
330
1F
100
AcDbEntity
  8
AM_VIS
100
AcDbCircle
 10
1996.05660618238
 20
937.7469208417698
 30
0.0
 40
2.6
  0
ARC
  5
470D
330
1F
100
AcDbEntity
  8
AM_4
100
AcDbCircle
 10
1996.05660618238
 20
937.7469208417698
 30
0.0
 40
3.0
100
AcDbArc
 50
260.0
 51
170.0
  0
LINE
  5
470E
330
1F
100
AcDbEntity
  8
AM_7
  6
AM_ISO08W050x2
100
AcDbLine
 10
1991.05660618238
 20
937.7469208417698
 30
0.0
 11
2001.05660618238
 21
937.7469208417698
 31
0.0
  0
LINE
  5
470F
330
1F
100
AcDbEntity
  8
AM_7
  6
AM_ISO08W050x2
100
AcDbLine
 10
1996.05660618238
 20
932.7469208417699
 30
0.0
 11
1996.05660618238
 21
942.7469208417699
 31
0.0
  0
CIRCLE
  5
4710
330
1F
100
AcDbEntity
  8
AM_VIS
100
AcDbCircle
 10
2242.600805365373
 20
937.7469208417698
 30
0.0
 40
2.6
  0
ARC
  5
4711
330
1F
100
AcDbEntity
  8
AM_4
100
AcDbCircle
 10
2242.600805365373
 20
937.7469208417698
 30
0.0
 40
3.0
100
AcDbArc
 50
260.0
 51
170.0
  0
LINE
  5
4712
330
1F
100
AcDbEntity
  8
AM_7
  6
AM_ISO08W050x2
100
AcDbLine
 10
2237.600805365373
 20
937.7469208417698
 30
0.0
 11
2247.600805365373
 21
937.7469208417698
 31
0.0
  0
LINE
  5
4713
330
1F
100
AcDbEntity
  8
AM_7
  6
AM_ISO08W050x2
100
AcDbLine
 10
2242.600805365373
 20
932.7469208417699
 30
0.0
 11
2242.600805365373
 21
942.7469208417699
 31
0.0
  0
CIRCLE
  5
4714
330
1F
100
AcDbEntity
  8
AM_VIS
100
AcDbCircle
 10
2268.600805365373
 20
937.7469208417698
 30
0.0
 40
2.6
  0
ARC
  5
4715
330
1F
100
AcDbEntity
  8
AM_4
100
AcDbCircle
 10
2268.600805365373
 20
937.7469208417698
 30
0.0
 40
3.0
100
AcDbArc
 50
260.0
 51
170.0
  0
LINE
  5
4716
330
1F
100
AcDbEntity
  8
AM_7
  6
AM_ISO08W050x2
100
AcDbLine
 10
2263.600805365373
 20
937.7469208417698
 30
0.0
 11
2273.600805365373
 21
937.7469208417698
 31
0.0
  0
LINE
  5
4717
330
1F
100
AcDbEntity
  8
AM_7
  6
AM_ISO08W050x2
100
AcDbLine
 10
2268.600805365373
 20
932.7469208417699
 30
0.0
 11
2268.600805365373
 21
942.7469208417699
 31
0.0
  0
CIRCLE
  5
4718
330
1F
100
AcDbEntity
  8
AM_VIS
100
AcDbCircle
 10
2268.600805365373
 20
1007.74692084177
 30
0.0
 40
2.6
  0
ARC
  5
4719
330
1F
100
AcDbEntity
  8
AM_4
100
AcDbCircle
 10
2268.600805365373
 20
1007.74692084177
 30
0.0
 40
3.0
100
AcDbArc
 50
260.0
 51
170.0
  0
LINE
  5
471A
330
1F
100
AcDbEntity
  8
AM_7
  6
AM_ISO08W050x2
100
AcDbLine
 10
2263.600805365373
 20
1007.74692084177
 30
0.0
 11
2273.600805365373
 21
1007.74692084177
 31
0.0
  0
LINE
  5
471B
330
1F
100
AcDbEntity
  8
AM_7
  6
AM_ISO08W050x2
100
AcDbLine
 10
2268.600805365373
 20
1002.74692084177
 30
0.0
 11
2268.600805365373
 21
1012.74692084177
 31
0.0
  0
CIRCLE
  5
471C
330
1F
100
AcDbEntity
  8
AM_VIS
100
AcDbCircle
 10
2242.600805365373
 20
1007.74692084177
 30
0.0
 40
2.6
  0
ARC
  5
471D
330
1F
100
AcDbEntity
  8
AM_4
100
AcDbCircle
 10
2242.600805365373
 20
1007.74692084177
 30
0.0
 40
3.0
100
AcDbArc
 50
260.0
 51
170.0
  0
LINE
  5
471E
330
1F
100
AcDbEntity
  8
AM_7
  6
AM_ISO08W050x2
100
AcDbLine
 10
2237.600805365373
 20
1007.74692084177
 30
0.0
 11
2247.600805365373
 21
1007.74692084177
 31
0.0
  0
LINE
  5
471F
330
1F
100
AcDbEntity
  8
AM_7
  6
AM_ISO08W050x2
100
AcDbLine
 10
2242.600805365373
 20
1002.74692084177
 30
0.0
 11
2242.600805365373
 21
1012.74692084177
 31
0.0
  0
LINE
  5
4720
330
1F
100
AcDbEntity
  8
AM_7
  6
AM_ISO08W050x2
100
AcDbLine
 10
2248.350805365373
 20
1005.24692084177
 30
0.0
 11
2262.850805365373
 21
1005.24692084177
 31
0.0
  0
CIRCLE
  5
4721
330
1F
100
AcDbEntity
  8
AM_0N
100
AcDbCircle
 10
2255.600805365373
 20
1005.24692084177
 30
0.0
 40
5.25
  0
CIRCLE
  5
4722
330
1F
100
AcDbEntity
  8
AM_0N
100
AcDbCircle
 10
2255.600805365373
 20
1005.24692084177
 30
0.0
 40
2.309401076758493
  0
LINE
  5
4723
330
1F
100
AcDbEntity
  8
AM_0N
100
AcDbLine
 10
2257.910206442131
 20
1005.24692084177
 30
0.0
 11
2256.755505903753
 21
1007.24692084177
 31
0.0
  0
LINE
  5
4724
330
1F
100
AcDbEntity
  8
AM_0N
100
AcDbLine
 10
2254.446104826994
 20
1007.24692084177
 30
0.0
 11
2253.291404288614
 21
1005.24692084177
 31
0.0
  0
LINE
  5
4725
330
1F
100
AcDbEntity
  8
AM_7
  6
AM_ISO08W050x2
100
AcDbLine
 10
2255.600805365373
 20
1012.49692084177
 30
0.0
 11
2255.600805365373
 21
997.9969208417699
 31
0.0
  0
LINE
  5
4726
330
1F
100
AcDbEntity
  8
AM_0N
100
AcDbLine
 10
2254.446104826993
 20
1003.24692084177
 30
0.0
 11
2256.755505903752
 21
1003.24692084177
 31
0.0
  0
LINE
  5
4727
330
1F
100
AcDbEntity
  8
AM_0N
100
AcDbLine
 10
2253.291404288614
 20
1005.24692084177
 30
0.0
 11
2254.446104826993
 21
1003.24692084177
 31
0.0
  0
LINE
  5
4728
330
1F
100
AcDbEntity
  8
AM_0N
100
AcDbLine
 10
2256.755505903752
 20
1003.24692084177
 30
0.0
 11
2257.910206442131
 21
1005.24692084177
 31
0.0
  0
LINE
  5
4729
330
1F
100
AcDbEntity
  8
AM_0N
100
AcDbLine
 10
2256.755505903753
 20
1007.24692084177
 30
0.0
 11
2254.446104826994
 21
1007.24692084177
 31
0.0
  0
LINE
  5
472A
330
1F
100
AcDbEntity
  8
AM_7
  6
AM_ISO08W050x2
100
AcDbLine
 10
2248.350805365373
 20
972.74692084177
 30
0.0
 11
2262.850805365373
 21
972.74692084177
 31
0.0
  0
CIRCLE
  5
472B
330
1F
100
AcDbEntity
  8
AM_0N
100
AcDbCircle
 10
2255.600805365373
 20
972.74692084177
 30
0.0
 40
5.25
  0
CIRCLE
  5
472C
330
1F
100
AcDbEntity
  8
AM_0N
100
AcDbCircle
 10
2255.600805365373
 20
972.74692084177
 30
0.0
 40
2.309401076758493
  0
LINE
  5
472D
330
1F
100
AcDbEntity
  8
AM_0N
100
AcDbLine
 10
2257.910206442131
 20
972.74692084177
 30
0.0
 11
2256.755505903753
 21
974.7469208417699
 31
0.0
  0
LINE
  5
472E
330
1F
100
AcDbEntity
  8
AM_0N
100
AcDbLine
 10
2254.446104826994
 20
974.7469208417699
 30
0.0
 11
2253.291404288614
 21
972.7469208417703
 31
0.0
  0
LINE
  5
472F
330
1F
100
AcDbEntity
  8
AM_7
  6
AM_ISO08W050x2
100
AcDbLine
 10
2255.600805365373
 20
979.9969208417699
 30
0.0
 11
2255.600805365373
 21
965.4969208417698
 31
0.0
  0
LINE
  5
4730
330
1F
100
AcDbEntity
  8
AM_0N
100
AcDbLine
 10
2254.446104826993
 20
970.7469208417698
 30
0.0
 11
2256.755505903752
 21
970.7469208417698
 31
0.0
  0
LINE
  5
4731
330
1F
100
AcDbEntity
  8
AM_0N
100
AcDbLine
 10
2253.291404288614
 20
972.7469208417703
 30
0.0
 11
2254.446104826993
 21
970.7469208417698
 31
0.0
  0
LINE
  5
4732
330
1F
100
AcDbEntity
  8
AM_0N
100
AcDbLine
 10
2256.755505903752
 20
970.7469208417698
 30
0.0
 11
2257.910206442131
 21
972.74692084177
 31
0.0
  0
LINE
  5
4733
330
1F
100
AcDbEntity
  8
AM_0N
100
AcDbLine
 10
2256.755505903753
 20
974.7469208417699
 30
0.0
 11
2254.446104826994
 21
974.7469208417699
 31
0.0
  0
LINE
  5
4734
330
1F
100
AcDbEntity
  8
AM_7
  6
AM_ISO08W050x2
100
AcDbLine
 10
1975.80660618238
 20
940.2469208417699
 30
0.0
 11
1990.30660618238
 21
940.2469208417699
 31
0.0
  0
CIRCLE
  5
4735
330
1F
100
AcDbEntity
  8
AM_0N
100
AcDbCircle
 10
1983.05660618238
 20
940.2469208417699
 30
0.0
 40
5.25
  0
CIRCLE
  5
4736
330
1F
100
AcDbEntity
  8
AM_0N
100
AcDbCircle
 10
1983.05660618238
 20
940.2469208417699
 30
0.0
 40
2.309401076758493
  0
LINE
  5
4737
330
1F
100
AcDbEntity
  8
AM_0N
100
AcDbLine
 10
1985.366007259139
 20
940.2469208417699
 30
0.0
 11
1984.21130672076
 21
942.2469208417698
 31
0.0
  0
LINE
  5
4738
330
1F
100
AcDbEntity
  8
AM_0N
100
AcDbLine
 10
1981.901905644001
 20
942.2469208417698
 30
0.0
 11
1980.747205105622
 21
940.2469208417704
 31
0.0
  0
LINE
  5
4739
330
1F
100
AcDbEntity
  8
AM_7
  6
AM_ISO08W050x2
100
AcDbLine
 10
1983.05660618238
 20
947.4969208417698
 30
0.0
 11
1983.05660618238
 21
932.9969208417699
 31
0.0
  0
LINE
  5
473A
330
1F
100
AcDbEntity
  8
AM_0N
100
AcDbLine
 10
1981.901905644
 20
938.2469208417699
 30
0.0
 11
1984.211306720759
 21
938.2469208417699
 31
0.0
  0
LINE
  5
473B
330
1F
100
AcDbEntity
  8
AM_0N
100
AcDbLine
 10
1980.747205105622
 20
940.2469208417704
 30
0.0
 11
1981.901905644
 21
938.2469208417699
 31
0.0
  0
LINE
  5
473C
330
1F
100
AcDbEntity
  8
AM_0N
100
AcDbLine
 10
1984.211306720759
 20
938.2469208417699
 30
0.0
 11
1985.366007259139
 21
940.2469208417699
 31
0.0
  0
LINE
  5
473D
330
1F
100
AcDbEntity
  8
AM_0N
100
AcDbLine
 10
1984.21130672076
 20
942.2469208417698
 30
0.0
 11
1981.901905644001
 21
942.2469208417698
 31
0.0
  0
LINE
  5
473E
330
1F
100
AcDbEntity
  8
AM_7
  6
AM_ISO08W050x2
100
AcDbLine
 10
1975.80660618238
 20
972.74692084177
 30
0.0
 11
1990.30660618238
 21
972.74692084177
 31
0.0
  0
CIRCLE
  5
473F
330
1F
100
AcDbEntity
  8
AM_0N
100
AcDbCircle
 10
1983.05660618238
 20
972.74692084177
 30
0.0
 40
5.25
  0
CIRCLE
  5
4740
330
1F
100
AcDbEntity
  8
AM_0N
100
AcDbCircle
 10
1983.05660618238
 20
972.74692084177
 30
0.0
 40
2.309401076758493
  0
LINE
  5
4741
330
1F
100
AcDbEntity
  8
AM_0N
100
AcDbLine
 10
1985.366007259139
 20
972.74692084177
 30
0.0
 11
1984.21130672076
 21
974.7469208417699
 31
0.0
  0
LINE
  5
4742
330
1F
100
AcDbEntity
  8
AM_0N
100
AcDbLine
 10
1981.901905644001
 20
974.7469208417699
 30
0.0
 11
1980.747205105622
 21
972.7469208417703
 31
0.0
  0
LINE
  5
4743
330
1F
100
AcDbEntity
  8
AM_7
  6
AM_ISO08W050x2
100
AcDbLine
 10
1983.05660618238
 20
979.9969208417699
 30
0.0
 11
1983.05660618238
 21
965.4969208417698
 31
0.0
  0
LINE
  5
4744
330
1F
100
AcDbEntity
  8
AM_0N
100
AcDbLine
 10
1981.901905644
 20
970.7469208417698
 30
0.0
 11
1984.211306720759
 21
970.7469208417698
 31
0.0
  0
LINE
  5
4745
330
1F
100
AcDbEntity
  8
AM_0N
100
AcDbLine
 10
1980.747205105622
 20
972.7469208417703
 30
0.0
 11
1981.901905644
 21
970.7469208417698
 31
0.0
  0
LINE
  5
4746
330
1F
100
AcDbEntity
  8
AM_0N
100
AcDbLine
 10
1984.211306720759
 20
970.7469208417698
 30
0.0
 11
1985.366007259139
 21
972.74692084177
 31
0.0
  0
LINE
  5
4747
330
1F
100
AcDbEntity
  8
AM_0N
100
AcDbLine
 10
1984.21130672076
 20
974.7469208417699
 30
0.0
 11
1981.901905644001
 21
974.7469208417699
 31
0.0
  0
LINE
  5
4748
330
1F
100
AcDbEntity
  8
AM_7
  6
AM_ISO08W050x2
100
AcDbLine
 10
1975.80660618238
 20
1005.24692084177
 30
0.0
 11
1990.30660618238
 21
1005.24692084177
 31
0.0
  0
LINE
  5
4749
330
1F
100
AcDbEntity
  8
AM_7
  6
AM_ISO08W050x2
100
AcDbLine
 10
1983.05660618238
 20
1012.49692084177
 30
0.0
 11
1983.05660618238
 21
997.9969208417699
 31
0.0
  0
LINE
  5
474A
330
1F
100
AcDbEntity
  8
AM_7
  6
AM_ISO08W050x2
100
AcDbLine
 10
2248.350805365373
 20
940.2469208417699
 30
0.0
 11
2262.850805365373
 21
940.2469208417699
 31
0.0
  0
LINE
  5
474B
330
1F
100
AcDbEntity
  8
AM_7
  6
AM_ISO08W050x2
100
AcDbLine
 10
2255.600805365373
 20
947.4969208417698
 30
0.0
 11
2255.600805365373
 21
932.9969208417699
 31
0.0
  0
LINE
  5
474C
330
1F
100
AcDbEntity
  8
AM_7
  6
AM_ISO08W050x2
100
AcDbLine
 10
2084.079466747406
 20
989.74692084177
 30
0.0
 11
2090.829466747407
 21
989.74692084177
 31
0.0
1001
GENIUS_GENOREF_13
1005
47E9
  0
LINE
  5
474D
330
1F
100
AcDbEntity
  8
AM_7
  6
AM_ISO08W050x2
100
AcDbLine
 10
2084.079466747406
 20
989.74692084177
 30
0.0
 11
2084.079466747406
 21
996.4969208417699
 31
0.0
1001
GENIUS_GENOREF_13
1005
47E9
  0
LINE
  5
474E
330
1F
100
AcDbEntity
  8
AM_7
  6
AM_ISO08W050x2
100
AcDbLine
 10
2084.079466747406
 20
989.74692084177
 30
0.0
 11
2077.329466747407
 21
989.74692084177
 31
0.0
1001
GENIUS_GENOREF_13
1005
47E9
  0
LINE
  5
474F
330
1F
100
AcDbEntity
  8
AM_7
  6
AM_ISO08W050x2
100
AcDbLine
 10
2084.079466747406
 20
989.74692084177
 30
0.0
 11
2084.079466747406
 21
982.9969208417699
 31
0.0
1001
GENIUS_GENOREF_13
1005
47E9
  0
LINE
  5
4750
330
1F
100
AcDbEntity
  8
AM_7
  6
AM_ISO08W050x2
100
AcDbLine
 10
2114.079466747407
 20
989.74692084177
 30
0.0
 11
2120.829466747407
 21
989.74692084177
 31
0.0
1001
GENIUS_GENOREF_13
1005
47E8
  0
LINE
  5
4751
330
1F
100
AcDbEntity
  8
AM_7
  6
AM_ISO08W050x2
100
AcDbLine
 10
2114.079466747407
 20
989.74692084177
 30
0.0
 11
2114.079466747407
 21
996.4969208417699
 31
0.0
1001
GENIUS_GENOREF_13
1005
47E8
  0
LINE
  5
4752
330
1F
100
AcDbEntity
  8
AM_7
  6
AM_ISO08W050x2
100
AcDbLine
 10
2114.079466747407
 20
989.74692084177
 30
0.0
 11
2107.329466747406
 21
989.74692084177
 31
0.0
1001
GENIUS_GENOREF_13
1005
47E8
  0
LINE
  5
4753
330
1F
100
AcDbEntity
  8
AM_7
  6
AM_ISO08W050x2
100
AcDbLine
 10
2114.079466747407
 20
989.74692084177
 30
0.0
 11
2114.079466747407
 21
982.9969208417699
 31
0.0
1001
GENIUS_GENOREF_13
1005
47E8
  0
LINE
  5
4754
330
1F
100
AcDbEntity
  8
AM_7
  6
AM_ISO08W050x2
100
AcDbLine
 10
2114.079466747407
 20
955.7469208417698
 30
0.0
 11
2120.829466747407
 21
955.7469208417698
 31
0.0
1001
GENIUS_GENOREF_13
1005
47E7
  0
LINE
  5
4755
330
1F
100
AcDbEntity
  8
AM_7
  6
AM_ISO08W050x2
100
AcDbLine
 10
2114.079466747407
 20
955.7469208417698
 30
0.0
 11
2114.079466747407
 21
962.4969208417699
 31
0.0
1001
GENIUS_GENOREF_13
1005
47E7
  0
LINE
  5
4756
330
1F
100
AcDbEntity
  8
AM_7
  6
AM_ISO08W050x2
100
AcDbLine
 10
2114.079466747407
 20
955.7469208417698
 30
0.0
 11
2107.329466747406
 21
955.7469208417698
 31
0.0
1001
GENIUS_GENOREF_13
1005
47E7
  0
LINE
  5
4757
330
1F
100
AcDbEntity
  8
AM_7
  6
AM_ISO08W050x2
100
AcDbLine
 10
2114.079466747407
 20
955.7469208417698
 30
0.0
 11
2114.079466747407
 21
948.9969208417699
 31
0.0
1001
GENIUS_GENOREF_13
1005
47E7
  0
LINE
  5
4758
330
1F
100
AcDbEntity
  8
AM_7
  6
AM_ISO08W050x2
100
AcDbLine
 10
2084.079466747406
 20
955.7469208417698
 30
0.0
 11
2090.829466747407
 21
955.7469208417698
 31
0.0
1001
GENIUS_GENOREF_13
1005
47E6
  0
LINE
  5
4759
330
1F
100
AcDbEntity
  8
AM_7
  6
AM_ISO08W050x2
100
AcDbLine
 10
2084.079466747406
 20
955.7469208417698
 30
0.0
 11
2084.079466747406
 21
962.4969208417699
 31
0.0
1001
GENIUS_GENOREF_13
1005
47E6
  0
LINE
  5
475A
330
1F
100
AcDbEntity
  8
AM_7
  6
AM_ISO08W050x2
100
AcDbLine
 10
2084.079466747406
 20
955.7469208417698
 30
0.0
 11
2077.329466747407
 21
955.7469208417698
 31
0.0
1001
GENIUS_GENOREF_13
1005
47E6
  0
LINE
  5
475B
330
1F
100
AcDbEntity
  8
AM_7
  6
AM_ISO08W050x2
100
AcDbLine
 10
2084.079466747406
 20
955.7469208417698
 30
0.0
 11
2084.079466747406
 21
948.9969208417699
 31
0.0
1001
GENIUS_GENOREF_13
1005
47E6
  0
ARC
  5
475C
330
1F
100
AcDbEntity
  8
AM_4
100
AcDbCircle
 10
2075.579466747407
 20
854.9502375704026
 30
0.0
 40
4.863999999999999
100
AcDbArc
 50
260.0
 51
170.0
  0
LINE
  5
475D
330
1F
100
AcDbEntity
  8
AM_7
  6
AM_ISO08W050x2
100
AcDbLine
 10
2075.579466747407
 20
861.8142375704026
 30
0.0
 11
2075.579466747407
 21
848.0862375704026
 31
0.0
  0
CIRCLE
  5
475E
330
1F
100
AcDbEntity
  8
AM_0
100
AcDbCircle
 10
2075.579466747407
 20
854.9502375704026
 30
0.0
 40
4.283
  0
LINE
  5
475F
330
1F
100
AcDbEntity
  8
AM_7
  6
AM_ISO08W050x2
100
AcDbLine
 10
2068.715466747407
 20
854.9502375704026
 30
0.0
 11
2082.443466747406
 21
854.9502375704026
 31
0.0
  0
ARC
  5
4760
330
1F
100
AcDbEntity
  8
AM_4
100
AcDbCircle
 10
2122.579466747406
 20
854.9502375704026
 30
0.0
 40
4.863999999999999
100
AcDbArc
 50
260.0
 51
170.0
  0
LINE
  5
4761
330
1F
100
AcDbEntity
  8
AM_7
  6
AM_ISO08W050x2
100
AcDbLine
 10
2122.579466747406
 20
861.8142375704026
 30
0.0
 11
2122.579466747406
 21
848.0862375704026
 31
0.0
  0
CIRCLE
  5
4762
330
1F
100
AcDbEntity
  8
AM_0
100
AcDbCircle
 10
2122.579466747406
 20
854.9502375704026
 30
0.0
 40
4.283
  0
LINE
  5
4763
330
1F
100
AcDbEntity
  8
AM_7
  6
AM_ISO08W050x2
100
AcDbLine
 10
2115.715466747406
 20
854.9502375704026
 30
0.0
 11
2129.443466747407
 21
854.9502375704026
 31
0.0
  0
LINE
  5
4764
330
1F
100
AcDbEntity
  8
AM_7
  6
AM_ISO08W050x2
100
AcDbLine
 10
2056.579466747407
 20
1014.74692084177
 30
0.0
 11
2061.579466747406
 21
1014.74692084177
 31
0.0
1001
GENIUS_GENOREF_13
1005
47E5
  0
LINE
  5
4765
330
1F
100
AcDbEntity
  8
AM_7
  6
AM_ISO08W050x2
100
AcDbLine
 10
2056.579466747407
 20
1014.74692084177
 30
0.0
 11
2056.579466747407
 21
1019.74692084177
 31
0.0
1001
GENIUS_GENOREF_13
1005
47E5
  0
LINE
  5
4766
330
1F
100
AcDbEntity
  8
AM_7
  6
AM_ISO08W050x2
100
AcDbLine
 10
2056.579466747407
 20
1014.74692084177
 30
0.0
 11
2051.579466747407
 21
1014.74692084177
 31
0.0
1001
GENIUS_GENOREF_13
1005
47E5
  0
LINE
  5
4767
330
1F
100
AcDbEntity
  8
AM_7
  6
AM_ISO08W050x2
100
AcDbLine
 10
2056.579466747407
 20
1014.74692084177
 30
0.0
 11
2056.579466747407
 21
1009.74692084177
 31
0.0
1001
GENIUS_GENOREF_13
1005
47E5
  0
LINE
  5
4768
330
1F
100
AcDbEntity
  8
AM_7
  6
AM_ISO08W050x2
100
AcDbLine
 10
2056.579466747407
 20
994.7469208417698
 30
0.0
 11
2061.379466747407
 21
994.7469208417698
 31
0.0
1001
GENIUS_GENOREF_13
1005
47E4
  0
LINE
  5
4769
330
1F
100
AcDbEntity
  8
AM_7
  6
AM_ISO08W050x2
100
AcDbLine
 10
2056.579466747407
 20
994.7469208417698
 30
0.0
 11
2056.579466747407
 21
999.54692084177
 31
0.0
1001
GENIUS_GENOREF_13
1005
47E4
  0
LINE
  5
476A
330
1F
100
AcDbEntity
  8
AM_7
  6
AM_ISO08W050x2
100
AcDbLine
 10
2056.579466747407
 20
994.7469208417698
 30
0.0
 11
2051.779466747406
 21
994.7469208417698
 31
0.0
1001
GENIUS_GENOREF_13
1005
47E4
  0
LINE
  5
476B
330
1F
100
AcDbEntity
  8
AM_7
  6
AM_ISO08W050x2
100
AcDbLine
 10
2056.579466747407
 20
994.7469208417698
 30
0.0
 11
2056.579466747407
 21
989.9469208417697
 31
0.0
1001
GENIUS_GENOREF_13
1005
47E4
  0
LINE
  5
476C
330
1F
100
AcDbEntity
  8
AM_7
  6
AM_ISO08W050x2
100
AcDbLine
 10
2056.579466747407
 20
950.7469208417699
 30
0.0
 11
2061.379466747407
 21
950.7469208417699
 31
0.0
1001
GENIUS_GENOREF_13
1005
47E3
  0
LINE
  5
476D
330
1F
100
AcDbEntity
  8
AM_7
  6
AM_ISO08W050x2
100
AcDbLine
 10
2056.579466747407
 20
950.7469208417699
 30
0.0
 11
2056.579466747407
 21
955.5469208417701
 31
0.0
1001
GENIUS_GENOREF_13
1005
47E3
  0
LINE
  5
476E
330
1F
100
AcDbEntity
  8
AM_7
  6
AM_ISO08W050x2
100
AcDbLine
 10
2056.579466747407
 20
950.7469208417699
 30
0.0
 11
2051.779466747406
 21
950.7469208417699
 31
0.0
1001
GENIUS_GENOREF_13
1005
47E3
  0
LINE
  5
476F
330
1F
100
AcDbEntity
  8
AM_7
  6
AM_ISO08W050x2
100
AcDbLine
 10
2056.579466747407
 20
950.7469208417699
 30
0.0
 11
2056.579466747407
 21
945.9469208417697
 31
0.0
1001
GENIUS_GENOREF_13
1005
47E3
  0
LINE
  5
4770
330
1F
100
AcDbEntity
  8
AM_7
  6
AM_ISO08W050x2
100
AcDbLine
 10
2056.579466747407
 20
930.7469208417698
 30
0.0
 11
2061.579466747406
 21
930.7469208417698
 31
0.0
1001
GENIUS_GENOREF_13
1005
47E2
  0
LINE
  5
4771
330
1F
100
AcDbEntity
  8
AM_7
  6
AM_ISO08W050x2
100
AcDbLine
 10
2056.579466747407
 20
930.7469208417698
 30
0.0
 11
2056.579466747407
 21
935.7469208417699
 31
0.0
1001
GENIUS_GENOREF_13
1005
47E2
  0
LINE
  5
4772
330
1F
100
AcDbEntity
  8
AM_7
  6
AM_ISO08W050x2
100
AcDbLine
 10
2056.579466747407
 20
930.7469208417698
 30
0.0
 11
2051.579466747407
 21
930.7469208417698
 31
0.0
1001
GENIUS_GENOREF_13
1005
47E2
  0
LINE
  5
4773
330
1F
100
AcDbEntity
  8
AM_7
  6
AM_ISO08W050x2
100
AcDbLine
 10
2056.579466747407
 20
930.7469208417698
 30
0.0
 11
2056.579466747407
 21
925.7469208417699
 31
0.0
1001
GENIUS_GENOREF_13
1005
47E2
  0
LINE
  5
4774
330
1F
100
AcDbEntity
  8
AM_7
  6
AM_ISO08W050x2
100
AcDbLine
 10
2171.579466747406
 20
930.7469208417698
 30
0.0
 11
2176.579466747407
 21
930.7469208417698
 31
0.0
1001
GENIUS_GENOREF_13
1005
47E1
  0
LINE
  5
4775
330
1F
100
AcDbEntity
  8
AM_7
  6
AM_ISO08W050x2
100
AcDbLine
 10
2171.579466747406
 20
930.7469208417698
 30
0.0
 11
2171.579466747406
 21
935.7469208417699
 31
0.0
1001
GENIUS_GENOREF_13
1005
47E1
  0
LINE
  5
4776
330
1F
100
AcDbEntity
  8
AM_7
  6
AM_ISO08W050x2
100
AcDbLine
 10
2171.579466747406
 20
930.7469208417698
 30
0.0
 11
2166.579466747407
 21
930.7469208417698
 31
0.0
1001
GENIUS_GENOREF_13
1005
47E1
  0
LINE
  5
4777
330
1F
100
AcDbEntity
  8
AM_7
  6
AM_ISO08W050x2
100
AcDbLine
 10
2171.579466747406
 20
930.7469208417698
 30
0.0
 11
2171.579466747406
 21
925.7469208417699
 31
0.0
1001
GENIUS_GENOREF_13
1005
47E1
  0
LINE
  5
4778
330
1F
100
AcDbEntity
  8
AM_7
  6
AM_ISO08W050x2
100
AcDbLine
 10
2171.579466747406
 20
950.7469208417699
 30
0.0
 11
2176.379466747407
 21
950.7469208417699
 31
0.0
1001
GENIUS_GENOREF_13
1005
47E0
  0
LINE
  5
4779
330
1F
100
AcDbEntity
  8
AM_7
  6
AM_ISO08W050x2
100
AcDbLine
 10
2171.579466747406
 20
950.7469208417699
 30
0.0
 11
2171.579466747406
 21
955.5469208417701
 31
0.0
1001
GENIUS_GENOREF_13
1005
47E0
  0
LINE
  5
477A
330
1F
100
AcDbEntity
  8
AM_7
  6
AM_ISO08W050x2
100
AcDbLine
 10
2171.579466747406
 20
950.7469208417699
 30
0.0
 11
2166.779466747406
 21
950.7469208417699
 31
0.0
1001
GENIUS_GENOREF_13
1005
47E0
  0
LINE
  5
477B
330
1F
100
AcDbEntity
  8
AM_7
  6
AM_ISO08W050x2
100
AcDbLine
 10
2171.579466747406
 20
950.7469208417699
 30
0.0
 11
2171.579466747406
 21
945.9469208417697
 31
0.0
1001
GENIUS_GENOREF_13
1005
47E0
  0
LINE
  5
477C
330
1F
100
AcDbEntity
  8
AM_7
  6
AM_ISO08W050x2
100
AcDbLine
 10
2171.579466747406
 20
994.7469208417698
 30
0.0
 11
2176.379466747407
 21
994.7469208417698
 31
0.0
1001
GENIUS_GENOREF_13
1005
47DF
  0
LINE
  5
477D
330
1F
100
AcDbEntity
  8
AM_7
  6
AM_ISO08W050x2
100
AcDbLine
 10
2171.579466747406
 20
994.7469208417698
 30
0.0
 11
2171.579466747406
 21
999.54692084177
 31
0.0
1001
GENIUS_GENOREF_13
1005
47DF
  0
LINE
  5
477E
330
1F
100
AcDbEntity
  8
AM_7
  6
AM_ISO08W050x2
100
AcDbLine
 10
2171.579466747406
 20
994.7469208417698
 30
0.0
 11
2166.779466747406
 21
994.7469208417698
 31
0.0
1001
GENIUS_GENOREF_13
1005
47DF
  0
LINE
  5
477F
330
1F
100
AcDbEntity
  8
AM_7
  6
AM_ISO08W050x2
100
AcDbLine
 10
2171.579466747406
 20
994.7469208417698
 30
0.0
 11
2171.579466747406
 21
989.9469208417697
 31
0.0
1001
GENIUS_GENOREF_13
1005
47DF
  0
LINE
  5
4780
330
1F
100
AcDbEntity
  8
AM_7
  6
AM_ISO08W050x2
100
AcDbLine
 10
2171.579466747406
 20
1014.74692084177
 30
0.0
 11
2176.579466747407
 21
1014.74692084177
 31
0.0
1001
GENIUS_GENOREF_13
1005
47DE
  0
LINE
  5
4781
330
1F
100
AcDbEntity
  8
AM_7
  6
AM_ISO08W050x2
100
AcDbLine
 10
2171.579466747406
 20
1014.74692084177
 30
0.0
 11
2171.579466747406
 21
1019.74692084177
 31
0.0
1001
GENIUS_GENOREF_13
1005
47DE
  0
LINE
  5
4782
330
1F
100
AcDbEntity
  8
AM_7
  6
AM_ISO08W050x2
100
AcDbLine
 10
2171.579466747406
 20
1014.74692084177
 30
0.0
 11
2166.579466747407
 21
1014.74692084177
 31
0.0
1001
GENIUS_GENOREF_13
1005
47DE
  0
LINE
  5
4783
330
1F
100
AcDbEntity
  8
AM_7
  6
AM_ISO08W050x2
100
AcDbLine
 10
2171.579466747406
 20
1014.74692084177
 30
0.0
 11
2171.579466747406
 21
1009.74692084177
 31
0.0
1001
GENIUS_GENOREF_13
1005
47DE
  0
LINE
  5
4784
330
1F
100
AcDbEntity
  8
AM_7
  6
AM_ISO08W050x2
100
AcDbLine
 10
2171.579466747406
 20
1221.622200991501
 30
0.0
 11
2178.329466747407
 21
1221.622200991501
 31
0.0
1001
GENIUS_GENOREF_13
1005
47DD
  0
LINE
  5
4785
330
1F
100
AcDbEntity
  8
AM_7
  6
AM_ISO08W050x2
100
AcDbLine
 10
2171.579466747406
 20
1221.622200991501
 30
0.0
 11
2171.579466747406
 21
1228.372200991501
 31
0.0
1001
GENIUS_GENOREF_13
1005
47DD
  0
LINE
  5
4786
330
1F
100
AcDbEntity
  8
AM_7
  6
AM_ISO08W050x2
100
AcDbLine
 10
2171.579466747406
 20
1221.622200991501
 30
0.0
 11
2164.829466747407
 21
1221.622200991501
 31
0.0
1001
GENIUS_GENOREF_13
1005
47DD
  0
LINE
  5
4787
330
1F
100
AcDbEntity
  8
AM_7
  6
AM_ISO08W050x2
100
AcDbLine
 10
2171.579466747406
 20
1221.622200991501
 30
0.0
 11
2171.579466747406
 21
1214.872200991501
 31
0.0
1001
GENIUS_GENOREF_13
1005
47DD
  0
LINE
  5
4788
330
1F
100
AcDbEntity
  8
AM_7
  6
AM_ISO08W050x2
100
AcDbLine
 10
2171.579466747406
 20
1175.622200991501
 30
0.0
 11
2178.329466747407
 21
1175.622200991501
 31
0.0
1001
GENIUS_GENOREF_13
1005
47DC
  0
LINE
  5
4789
330
1F
100
AcDbEntity
  8
AM_7
  6
AM_ISO08W050x2
100
AcDbLine
 10
2171.579466747406
 20
1175.622200991501
 30
0.0
 11
2171.579466747406
 21
1182.372200991501
 31
0.0
1001
GENIUS_GENOREF_13
1005
47DC
  0
LINE
  5
478A
330
1F
100
AcDbEntity
  8
AM_7
  6
AM_ISO08W050x2
100
AcDbLine
 10
2171.579466747406
 20
1175.622200991501
 30
0.0
 11
2164.829466747407
 21
1175.622200991501
 31
0.0
1001
GENIUS_GENOREF_13
1005
47DC
  0
LINE
  5
478B
330
1F
100
AcDbEntity
  8
AM_7
  6
AM_ISO08W050x2
100
AcDbLine
 10
2171.579466747406
 20
1175.622200991501
 30
0.0
 11
2171.579466747406
 21
1168.872200991501
 31
0.0
1001
GENIUS_GENOREF_13
1005
47DC
  0
LINE
  5
478C
330
1F
100
AcDbEntity
  8
AM_7
  6
AM_ISO08W050x2
100
AcDbLine
 10
2056.579466747407
 20
1175.622200991501
 30
0.0
 11
2063.329466747406
 21
1175.622200991501
 31
0.0
1001
GENIUS_GENOREF_13
1005
47DB
  0
LINE
  5
478D
330
1F
100
AcDbEntity
  8
AM_7
  6
AM_ISO08W050x2
100
AcDbLine
 10
2056.579466747407
 20
1175.622200991501
 30
0.0
 11
2056.579466747407
 21
1182.372200991501
 31
0.0
1001
GENIUS_GENOREF_13
1005
47DB
  0
LINE
  5
478E
330
1F
100
AcDbEntity
  8
AM_7
  6
AM_ISO08W050x2
100
AcDbLine
 10
2056.579466747407
 20
1175.622200991501
 30
0.0
 11
2049.829466747407
 21
1175.622200991501
 31
0.0
1001
GENIUS_GENOREF_13
1005
47DB
  0
LINE
  5
478F
330
1F
100
AcDbEntity
  8
AM_7
  6
AM_ISO08W050x2
100
AcDbLine
 10
2056.579466747407
 20
1175.622200991501
 30
0.0
 11
2056.579466747407
 21
1168.872200991501
 31
0.0
1001
GENIUS_GENOREF_13
1005
47DB
  0
LINE
  5
4790
330
1F
100
AcDbEntity
  8
AM_7
  6
AM_ISO08W050x2
100
AcDbLine
 10
2056.579466747407
 20
1221.622200991501
 30
0.0
 11
2063.329466747406
 21
1221.622200991501
 31
0.0
1001
GENIUS_GENOREF_13
1005
47DA
  0
LINE
  5
4791
330
1F
100
AcDbEntity
  8
AM_7
  6
AM_ISO08W050x2
100
AcDbLine
 10
2056.579466747407
 20
1221.622200991501
 30
0.0
 11
2056.579466747407
 21
1228.372200991501
 31
0.0
1001
GENIUS_GENOREF_13
1005
47DA
  0
LINE
  5
4792
330
1F
100
AcDbEntity
  8
AM_7
  6
AM_ISO08W050x2
100
AcDbLine
 10
2056.579466747407
 20
1221.622200991501
 30
0.0
 11
2049.829466747407
 21
1221.622200991501
 31
0.0
1001
GENIUS_GENOREF_13
1005
47DA
  0
LINE
  5
4793
330
1F
100
AcDbEntity
  8
AM_7
  6
AM_ISO08W050x2
100
AcDbLine
 10
2056.579466747407
 20
1221.622200991501
 30
0.0
 11
2056.579466747407
 21
1214.872200991501
 31
0.0
1001
GENIUS_GENOREF_13
1005
47DA
  0
CIRCLE
  5
4794
330
1F
100
AcDbEntity
  8
AM_VIS
100
AcDbCircle
 10
2084.079466747406
 20
1215.622200991501
 30
0.0
 40
2.6
  0
ARC
  5
4795
330
1F
100
AcDbEntity
  8
AM_4
100
AcDbCircle
 10
2084.079466747406
 20
1215.622200991501
 30
0.0
 40
3.0
100
AcDbArc
 50
260.0
 51
170.0
  0
LINE
  5
4796
330
1F
100
AcDbEntity
  8
AM_7
  6
AM_ISO08W050x2
100
AcDbLine
 10
2079.079466747407
 20
1215.622200991501
 30
0.0
 11
2089.079466747406
 21
1215.622200991501
 31
0.0
  0
LINE
  5
4797
330
1F
100
AcDbEntity
  8
AM_7
  6
AM_ISO08W050x2
100
AcDbLine
 10
2084.079466747406
 20
1210.622200991501
 30
0.0
 11
2084.079466747406
 21
1220.622200991501
 31
0.0
  0
CIRCLE
  5
4798
330
1F
100
AcDbEntity
  8
AM_VIS
100
AcDbCircle
 10
2114.079466747407
 20
1215.622200991501
 30
0.0
 40
2.6
  0
ARC
  5
4799
330
1F
100
AcDbEntity
  8
AM_4
100
AcDbCircle
 10
2114.079466747407
 20
1215.622200991501
 30
0.0
 40
3.0
100
AcDbArc
 50
260.0
 51
170.0
  0
LINE
  5
479A
330
1F
100
AcDbEntity
  8
AM_7
  6
AM_ISO08W050x2
100
AcDbLine
 10
2109.079466747406
 20
1215.622200991501
 30
0.0
 11
2119.079466747407
 21
1215.622200991501
 31
0.0
  0
LINE
  5
479B
330
1F
100
AcDbEntity
  8
AM_7
  6
AM_ISO08W050x2
100
AcDbLine
 10
2114.079466747407
 20
1210.622200991501
 30
0.0
 11
2114.079466747407
 21
1220.622200991501
 31
0.0
  0
CIRCLE
  5
479C
330
1F
100
AcDbEntity
  8
AM_VIS
100
AcDbCircle
 10
2084.079466747406
 20
1181.622200991501
 30
0.0
 40
2.6
  0
ARC
  5
479D
330
1F
100
AcDbEntity
  8
AM_4
100
AcDbCircle
 10
2084.079466747406
 20
1181.622200991501
 30
0.0
 40
3.0
100
AcDbArc
 50
260.0
 51
170.0
  0
LINE
  5
479E
330
1F
100
AcDbEntity
  8
AM_7
  6
AM_ISO08W050x2
100
AcDbLine
 10
2079.079466747407
 20
1181.622200991501
 30
0.0
 11
2089.079466747406
 21
1181.622200991501
 31
0.0
  0
LINE
  5
479F
330
1F
100
AcDbEntity
  8
AM_7
  6
AM_ISO08W050x2
100
AcDbLine
 10
2084.079466747406
 20
1176.622200991501
 30
0.0
 11
2084.079466747406
 21
1186.622200991501
 31
0.0
  0
CIRCLE
  5
47A0
330
1F
100
AcDbEntity
  8
AM_VIS
100
AcDbCircle
 10
2114.079466747407
 20
1181.622200991501
 30
0.0
 40
2.6
  0
ARC
  5
47A1
330
1F
100
AcDbEntity
  8
AM_4
100
AcDbCircle
 10
2114.079466747407
 20
1181.622200991501
 30
0.0
 40
3.0
100
AcDbArc
 50
260.0
 51
170.0
  0
LINE
  5
47A2
330
1F
100
AcDbEntity
  8
AM_7
  6
AM_ISO08W050x2
100
AcDbLine
 10
2109.079466747406
 20
1181.622200991501
 30
0.0
 11
2119.079466747407
 21
1181.622200991501
 31
0.0
  0
LINE
  5
47A3
330
1F
100
AcDbEntity
  8
AM_7
  6
AM_ISO08W050x2
100
AcDbLine
 10
2114.079466747407
 20
1176.622200991501
 30
0.0
 11
2114.079466747407
 21
1186.622200991501
 31
0.0
  0
DIMENSION
  5
47A4
330
1F
100
AcDbEntity
  8
AM_5
100
AcDbDimension
  2
*D11
 10
2177.579466747407
 20
892.5204884143354
 30
0.0
 11
2114.079466747407
 21
896.0209018001622
 31
0.0
 70
    32
  1
67+2xstroke
 71
     5
 42
127.0
  3
AM_ISO$0
100
AcDbAlignedDimension
 13
2050.579466747407
 23
924.7469208417699
 33
0.0
 14
2177.579466747407
 24
924.7469208417699
 34
0.0
100
AcDbRotatedDimension
1001
ACAD
1000
DSTYLE
1002
{
1070
    40
1040
1.399999999999999
1070
   272
1070
     8
1002
}
  0
DIMENSION
  5
47A5
330
1F
100
AcDbEntity
  8
AM_5
100
AcDbDimension
  2
*D12
 10
2133.579466747407
 20
904.5204884143357
 30
0.0
 11
2099.079466747407
 21
908.0204884143356
 31
0.0
 70
    32
  1
39+stroke
 71
     5
 42
69.0
  3
AM_ISO$0
100
AcDbAlignedDimension
 13
2064.579466747407
 23
924.7469208417699
 33
0.0
 14
2133.579466747407
 24
924.7469208417699
 34
0.0
 50
0.0000000000002036
100
AcDbRotatedDimension
1001
ACAD
1000
DSTYLE
1002
{
1070
    40
1040
1.399999999999999
1070
   144
1040
1.0
1070
   272
1070
     8
1002
}
  0
DIMENSION
  5
47A6
330
1F
100
AcDbEntity
  8
AM_5
100
AcDbDimension
  2
*D13
 10
2165.579466747407
 20
904.5204884143355
 30
0.0
 11
2149.579466747407
 21
908.0209018001623
 31
0.0
 70
    32
  1
2+stroke
 71
     5
 42
32.0
  3
AM_ISO$0
100
AcDbAlignedDimension
 13
2133.579466747407
 23
924.7469208417699
 33
0.0
 14
2165.579466747407
 24
924.7469208417699
 34
0.0
 50
0.0000000000002036
100
AcDbRotatedDimension
1001
ACAD
1000
DSTYLE
1002
{
1070
    40
1040
1.399999999999999
1070
   272
1070
     8
1002
}
  0
DIMENSION
  5
47A7
330
1F
100
AcDbEntity
  8
AM_5
100
AcDbDimension
  2
*D14
 10
2177.579466747407
 20
904.5204884143354
 30
0.0
 11
2171.579466747406
 21
908.0209018001621
 31
0.0
 70
    32
 71
     5
 42
12.0
  3
AM_ISO$0
100
AcDbAlignedDimension
 13
2165.579466747407
 23
924.7469208417699
 33
0.0
 14
2177.579466747407
 24
924.7469208417699
 34
0.0
 50
0.0000000000002036
100
AcDbRotatedDimension
1001
ACAD
1000
DSTYLE
1002
{
1070
    40
1040
1.399999999999999
1070
   272
1070
     8
1002
}
  0
LINE
  5
47A8
330
1F
100
AcDbEntity
  8
AM_7
  6
AM_ISO08W050x2
100
AcDbLine
 10
2075.579466747407
 20
930.7394235947771
 30
0.0
 11
2075.579466747407
 21
921.2774400234598
 31
0.0
  0
LINE
  5
47A9
330
1F
100
AcDbEntity
  8
AM_7
  6
AM_ISO08W050x2
100
AcDbLine
 10
2122.579466747406
 20
930.7394235947771
 30
0.0
 11
2122.579466747406
 21
921.2774400234598
 31
0.0
  0
CIRCLE
  5
47AA
330
1F
100
AcDbEntity
  8
AM_VIS
100
AcDbCircle
 10
2076.579466747407
 20
1236.622200991501
 30
0.0
 40
2.6
  0
ARC
  5
47AB
330
1F
100
AcDbEntity
  8
AM_4
100
AcDbCircle
 10
2076.579466747407
 20
1236.622200991501
 30
0.0
 40
3.0
100
AcDbArc
 50
260.0
 51
170.0
  0
LINE
  5
47AC
330
1F
100
AcDbEntity
  8
AM_7
  6
AM_ISO08W050x2
100
AcDbLine
 10
2071.579466747406
 20
1236.622200991501
 30
0.0
 11
2081.579466747407
 21
1236.622200991501
 31
0.0
  0
LINE
  5
47AD
330
1F
100
AcDbEntity
  8
AM_7
  6
AM_ISO08W050x2
100
AcDbLine
 10
2076.579466747407
 20
1231.622200991501
 30
0.0
 11
2076.579466747407
 21
1241.622200991501
 31
0.0
  0
CIRCLE
  5
47AE
330
1F
100
AcDbEntity
  8
AM_VIS
100
AcDbCircle
 10
2121.579466747407
 20
1236.622200991501
 30
0.0
 40
2.6
  0
ARC
  5
47AF
330
1F
100
AcDbEntity
  8
AM_4
100
AcDbCircle
 10
2121.579466747407
 20
1236.622200991501
 30
0.0
 40
3.0
100
AcDbArc
 50
260.0
 51
170.0
  0
LINE
  5
47B0
330
1F
100
AcDbEntity
  8
AM_7
  6
AM_ISO08W050x2
100
AcDbLine
 10
2116.579466747407
 20
1236.622200991501
 30
0.0
 11
2126.579466747406
 21
1236.622200991501
 31
0.0
  0
LINE
  5
47B1
330
1F
100
AcDbEntity
  8
AM_7
  6
AM_ISO08W050x2
100
AcDbLine
 10
2121.579466747407
 20
1231.622200991501
 30
0.0
 11
2121.579466747407
 21
1241.622200991501
 31
0.0
  0
CIRCLE
  5
47B2
330
1F
100
AcDbEntity
  8
AM_VIS
100
AcDbCircle
 10
2121.579466747407
 20
1160.622200991501
 30
0.0
 40
2.6
  0
ARC
  5
47B3
330
1F
100
AcDbEntity
  8
AM_4
100
AcDbCircle
 10
2121.579466747407
 20
1160.622200991501
 30
0.0
 40
3.0
100
AcDbArc
 50
260.0
 51
170.0
  0
LINE
  5
47B4
330
1F
100
AcDbEntity
  8
AM_7
  6
AM_ISO08W050x2
100
AcDbLine
 10
2116.579466747407
 20
1160.622200991501
 30
0.0
 11
2126.579466747406
 21
1160.622200991501
 31
0.0
  0
LINE
  5
47B5
330
1F
100
AcDbEntity
  8
AM_7
  6
AM_ISO08W050x2
100
AcDbLine
 10
2121.579466747407
 20
1155.622200991501
 30
0.0
 11
2121.579466747407
 21
1165.622200991501
 31
0.0
  0
CIRCLE
  5
47B6
330
1F
100
AcDbEntity
  8
AM_VIS
100
AcDbCircle
 10
2076.579466747407
 20
1160.622200991501
 30
0.0
 40
2.6
  0
ARC
  5
47B7
330
1F
100
AcDbEntity
  8
AM_4
100
AcDbCircle
 10
2076.579466747407
 20
1160.622200991501
 30
0.0
 40
3.0
100
AcDbArc
 50
260.0
 51
170.0
  0
LINE
  5
47B8
330
1F
100
AcDbEntity
  8
AM_7
  6
AM_ISO08W050x2
100
AcDbLine
 10
2071.579466747406
 20
1160.622200991501
 30
0.0
 11
2081.579466747407
 21
1160.622200991501
 31
0.0
  0
LINE
  5
47B9
330
1F
100
AcDbEntity
  8
AM_7
  6
AM_ISO08W050x2
100
AcDbLine
 10
2076.579466747407
 20
1155.622200991501
 30
0.0
 11
2076.579466747407
 21
1165.622200991501
 31
0.0
  0
CIRCLE
  5
47BA
330
1F
100
AcDbEntity
  8
AM_VIS
100
AcDbCircle
 10
2099.079466747407
 20
1236.622200991501
 30
0.0
 40
3.0
  0
LINE
  5
47BB
330
1F
100
AcDbEntity
  8
AM_7
  6
AM_ISO08W050x2
100
AcDbLine
 10
2099.079466747407
 20
1236.622200991501
 30
0.0
 11
2104.079466747407
 21
1236.622200991501
 31
0.0
1001
GENIUS_GENOREF_13
1005
47D9
  0
LINE
  5
47BC
330
1F
100
AcDbEntity
  8
AM_7
  6
AM_ISO08W050x2
100
AcDbLine
 10
2099.079466747407
 20
1236.622200991501
 30
0.0
 11
2099.079466747407
 21
1241.622200991501
 31
0.0
1001
GENIUS_GENOREF_13
1005
47D9
  0
LINE
  5
47BD
330
1F
100
AcDbEntity
  8
AM_7
  6
AM_ISO08W050x2
100
AcDbLine
 10
2099.079466747407
 20
1236.622200991501
 30
0.0
 11
2094.079466747407
 21
1236.622200991501
 31
0.0
1001
GENIUS_GENOREF_13
1005
47D9
  0
LINE
  5
47BE
330
1F
100
AcDbEntity
  8
AM_7
  6
AM_ISO08W050x2
100
AcDbLine
 10
2099.079466747407
 20
1236.622200991501
 30
0.0
 11
2099.079466747407
 21
1231.622200991501
 31
0.0
1001
GENIUS_GENOREF_13
1005
47D9
  0
ELLIPSE
  5
47BF
330
1F
100
AcDbEntity
  8
AM_VIS
100
AcDbEllipse
 10
2099.079466747407
 20
1160.622200991501
 30
0.0
 11
4.0
 21
0.0
 31
0.0
210
0.0
220
0.0
230
1.0
 40
0.75
 41
-0.000000000000014
 42
6.283185307179572
  0
ARC
  5
47C0
330
1F
100
AcDbEntity
  8
AM_VIS
100
AcDbCircle
 10
2099.079466747407
 20
1160.622200991501
 30
0.0
 40
3.0
100
AcDbArc
 50
270.0
 51
90.0
  0
ARC
  5
47C1
330
1F
100
AcDbEntity
  8
AM_VIS
100
AcDbCircle
 10
2099.079466747407
 20
1160.622200991501
 30
0.0
 40
3.0
100
AcDbArc
 50
90.0
 51
270.0
  0
LINE
  5
47C2
330
1F
100
AcDbEntity
  8
AM_7
  6
AM_ISO08W050x2
100
AcDbLine
 10
2099.079466747407
 20
1160.622200991501
 30
0.0
 11
2104.079466747407
 21
1160.622200991501
 31
0.0
1001
GENIUS_GENOREF_13
1005
47D8
  0
LINE
  5
47C3
330
1F
100
AcDbEntity
  8
AM_7
  6
AM_ISO08W050x2
100
AcDbLine
 10
2099.079466747407
 20
1160.622200991501
 30
0.0
 11
2099.079466747407
 21
1165.622200991501
 31
0.0
1001
GENIUS_GENOREF_13
1005
47D8
  0
LINE
  5
47C4
330
1F
100
AcDbEntity
  8
AM_7
  6
AM_ISO08W050x2
100
AcDbLine
 10
2099.079466747407
 20
1160.622200991501
 30
0.0
 11
2094.079466747407
 21
1160.622200991501
 31
0.0
1001
GENIUS_GENOREF_13
1005
47D8
  0
LINE
  5
47C5
330
1F
100
AcDbEntity
  8
AM_7
  6
AM_ISO08W050x2
100
AcDbLine
 10
2099.079466747407
 20
1160.622200991501
 30
0.0
 11
2099.079466747407
 21
1155.622200991501
 31
0.0
1001
GENIUS_GENOREF_13
1005
47D8
  0
DIMENSION
  5
47C6
330
1F
100
AcDbEntity
  8
AM_5
100
AcDbDimension
  2
*D15
 10
2275.600805365373
 20
904.5204884143354
 30
0.0
 11
2254.600805365373
 21
908.0209018001621
 31
0.0
 70
    32
 71
     5
 42
42.0
  3
AM_ISO$0
100
AcDbAlignedDimension
 13
2233.600805365373
 23
924.7469208417699
 33
0.0
 14
2275.600805365373
 24
924.7469208417699
 34
0.0
100
AcDbRotatedDimension
1001
ACAD
1000
DSTYLE
1002
{
1070
    40
1040
1.399999999999999
1070
   272
1070
     8
1002
}
  0
DIMENSION
  5
47C7
330
1F
100
AcDbEntity
  8
AM_5
100
AcDbDimension
  2
*D16
 10
2221.600804365372
 20
1020.74692084177
 30
0.0
 11
2221.600804365372
 21
972.74692084177
 31
0.0
 70
   160
 71
     5
 42
96.0
  3
AM_ISO$0
100
AcDbAlignedDimension
 13
2233.600805365373
 23
924.7469208417699
 33
0.0
 14
2233.600805365373
 24
1020.74692084177
 34
0.0
 50
90.0
100
AcDbRotatedDimension
1001
ACAD
1000
DSTYLE
1002
{
1070
    40
1040
1.399999999999999
1070
   272
1070
     8
1002
}
  0
TEXT
  5
47C8
330
1F
100
AcDbEntity
  8
AM_5
100
AcDbText
 10
2203.058029555664
 20
914.1958166822298
 30
0.0
 40
4.199999999999999
  1
2x4-M6
 41
0.8
100
AcDbText
  0
INSERT
  5
47C9
330
1F
100
AcDbEntity
  8
AM_5
100
AcDbBlockReference
  2
*S25
 10
0.0
 20
0.0
 30
0.0
  0
TEXT
  5
47CA
330
1F
100
AcDbEntity
  8
AM_5
100
AcDbText
 10
2133.884064396573
 20
1043.008617084056
 30
0.0
 40
4.199999999999999
  1
4-%%c5.2 thru
 41
0.8
100
AcDbText
  0
INSERT
  5
47CB
330
1F
100
AcDbEntity
  8
AM_5
100
AcDbBlockReference
  2
*S26
 10
0.0
 20
0.0
 30
0.0
  0
TEXT
  5
47CC
330
1F
100
AcDbEntity
  8
AM_5
100
AcDbText
 10
2133.884064396573
 20
1036.944468490999
 30
0.0
 40
4.199999999999999
  1
4-%%c9.5x5.5 depth
 41
0.8
100
AcDbText
  0
INSERT
  5
47CD
330
1F
100
AcDbEntity
  8
AM_5
100
AcDbBlockReference
  2
*S27
 10
0.0
 20
0.0
 30
0.0
  0
TEXT
  5
47CE
330
1F
100
AcDbEntity
  8
AM_5
100
AcDbText
 10
2189.972394735689
 20
1036.429445826036
 30
0.0
 40
4.199999999999999
  1
2x2-%%c6    x8 depth
 41
0.8
100
AcDbText
  0
TEXT
  5
47CF
330
1F
100
AcDbEntity
  8
AM_5
100
AcDbText
 10
2204.891926364638
 20
1036.690983532267
 30
0.0
 40
1.68
  1
+0
 41
0.8
100
AcDbText
  0
TEXT
  5
47D0
330
1F
100
AcDbEntity
  8
AM_5
100
AcDbText
 10
2204.891926364638
 20
1038.812487596785
 30
0.0
 40
1.68
  1
+0.02
 41
0.8
100
AcDbText
  0
INSERT
  5
47D1
330
1F
100
AcDbEntity
  8
AM_5
100
AcDbBlockReference
  2
*S28
 10
0.0
 20
0.0
 30
0.0
  0
TEXT
  5
47D2
330
1F
100
AcDbEntity
  8
AM_5
100
AcDbText
 10
2096.191608292304
 20
1138.455651217338
 30
0.0
 40
4.199999999999999
  1
4-M6x12 depth
 41
0.8
100
AcDbText
  0
TEXT
  5
47D3
330
1F
100
AcDbEntity
  8
AM_5
100
AcDbText
 10
2141.609594063268
 20
1138.0630259902
 30
0.0
 40
4.199999999999999
  1
4-M6x9 depth
 41
0.8
100
AcDbText
  0
INSERT
  5
47D4
330
1F
100
AcDbEntity
  8
AM_5
100
AcDbBlockReference
  2
*S29
 10
0.0
 20
0.0
 30
0.0
  0
TEXT
  5
47D5
330
1F
100
AcDbEntity
  8
AM_5
100
AcDbText
 10
2191.041195027088
 20
1161.483257697986
 30
0.0
 40
4.199999999999999
  1
2x2-%%c5.5 thru
 41
0.8
100
AcDbText
  0
INSERT
  5
47D6
330
1F
100
AcDbEntity
  8
AM_5
100
AcDbBlockReference
  2
*S30
 10
0.0
 20
0.0
 30
0.0
  0
TEXT
  5
47D7
330
1F
100
AcDbEntity
  8
AM_5
100
AcDbText
 10
2191.041195027088
 20
1155.419109104929
 30
0.0
 40
4.199999999999999
  1
2x2-%%c9.5x5.5 depth
 41
0.8
100
AcDbText
  0
POINT
  5
47D8
330
1F
100
AcDbEntity
  8
0
 60
     1
100
AcDbPoint
 10
1202.943704664991
 20
100.3989920489989
 30
0.0
1001
GENIUS_GENOLIS_13
1002
{
1000
ENT
1005
47C5
1005
47C4
1005
47C3
1005
47C2
1002
}
1001
GENIUS_GENOENT_13
1002
{
1000
MYREF
1005
47D8
1002
}
1002
{
1000
GRP
1005
0
1002
}
1001
GENIUS_GENOBJ-N-CRS_13
1002
{
1000
OWNER
1000
GEN
1002
}
1001
GENIUS_GENODEF_13
1002
{
1000
HIER
1070
    10
1002
}
1002
{
1000
MANEDIT
1070
     0
1002
}
1002
{
1000
NOSEL
1070
     0
1002
}
1002
{
1000
BEHIND
1070
     0
1002
}
1002
{
1000
OTHER
1070
     0
1002
}
1002
{
1000
REACTOR
1002
}
  0
POINT
  5
47D9
330
1F
100
AcDbEntity
  8
0
 60
     1
100
AcDbPoint
 10
1202.943704664991
 20
112.3989920489989
 30
0.0
1001
GENIUS_GENOLIS_13
1002
{
1000
ENT
1005
47BE
1005
47BD
1005
47BC
1005
47BB
1002
}
1001
GENIUS_GENOENT_13
1002
{
1000
MYREF
1005
47D9
1002
}
1002
{
1000
GRP
1005
0
1002
}
1001
GENIUS_GENOBJ-N-CRS_13
1002
{
1000
OWNER
1000
GEN
1002
}
1001
GENIUS_GENODEF_13
1002
{
1000
HIER
1070
    10
1002
}
1002
{
1000
MANEDIT
1070
     0
1002
}
1002
{
1000
NOSEL
1070
     0
1002
}
1002
{
1000
BEHIND
1070
     0
1002
}
1002
{
1000
OTHER
1070
     0
1002
}
1002
{
1000
REACTOR
1002
}
  0
POINT
  5
47DA
330
1F
100
AcDbEntity
  8
0
 60
     1
100
AcDbPoint
 10
367.4458856247456
 20
0.0
 30
0.0
1001
GENIUS_GENODEF_13
1002
{
1000
HIER
1070
    10
1002
}
1002
{
1000
MANEDIT
1070
     0
1002
}
1002
{
1000
NOSEL
1070
     0
1002
}
1002
{
1000
BEHIND
1070
     0
1002
}
1002
{
1000
OTHER
1070
     0
1002
}
1002
{
1000
REACTOR
1002
}
1001
GENIUS_GENOLIS_13
1002
{
1000
ENT
1005
4793
1005
4792
1005
4791
1005
4790
1002
}
1001
GENIUS_GENOENT_13
1002
{
1000
MYREF
1005
47DA
1002
}
1002
{
1000
GRP
1005
0
1002
}
1001
GENIUS_GENOBJ-N-CRS_13
1002
{
1000
OWNER
1000
GEN
1002
}
  0
POINT
  5
47DB
330
1F
100
AcDbEntity
  8
0
 60
     1
100
AcDbPoint
 10
367.4458856247456
 20
0.0
 30
0.0
1001
GENIUS_GENOLIS_13
1002
{
1000
ENT
1005
478F
1005
478E
1005
478D
1005
478C
1002
}
1001
GENIUS_GENOENT_13
1002
{
1000
MYREF
1005
47DB
1002
}
1002
{
1000
GRP
1005
0
1002
}
1001
GENIUS_GENOBJ-N-CRS_13
1002
{
1000
OWNER
1000
GEN
1002
}
1001
GENIUS_GENODEF_13
1002
{
1000
HIER
1070
    10
1002
}
1002
{
1000
MANEDIT
1070
     0
1002
}
1002
{
1000
NOSEL
1070
     0
1002
}
1002
{
1000
BEHIND
1070
     0
1002
}
1002
{
1000
OTHER
1070
     0
1002
}
1002
{
1000
REACTOR
1002
}
  0
POINT
  5
47DC
330
1F
100
AcDbEntity
  8
0
 60
     1
100
AcDbPoint
 10
367.4458856247456
 20
0.0
 30
0.0
1001
GENIUS_GENOBJ-N-CRS_13
1002
{
1000
OWNER
1000
GEN
1002
}
1001
GENIUS_GENODEF_13
1002
{
1000
HIER
1070
    10
1002
}
1002
{
1000
MANEDIT
1070
     0
1002
}
1002
{
1000
NOSEL
1070
     0
1002
}
1002
{
1000
BEHIND
1070
     0
1002
}
1002
{
1000
OTHER
1070
     0
1002
}
1002
{
1000
REACTOR
1002
}
1001
GENIUS_GENOLIS_13
1002
{
1000
ENT
1005
478B
1005
478A
1005
4789
1005
4788
1002
}
1001
GENIUS_GENOENT_13
1002
{
1000
MYREF
1005
47DC
1002
}
1002
{
1000
GRP
1005
0
1002
}
  0
POINT
  5
47DD
330
1F
100
AcDbEntity
  8
0
 60
     1
100
AcDbPoint
 10
367.4458856247456
 20
0.0
 30
0.0
1001
GENIUS_GENOLIS_13
1002
{
1000
ENT
1005
4787
1005
4786
1005
4785
1005
4784
1002
}
1001
GENIUS_GENOENT_13
1002
{
1000
MYREF
1005
47DD
1002
}
1002
{
1000
GRP
1005
0
1002
}
1001
GENIUS_GENOBJ-N-CRS_13
1002
{
1000
OWNER
1000
GEN
1002
}
1001
GENIUS_GENODEF_13
1002
{
1000
HIER
1070
    10
1002
}
1002
{
1000
MANEDIT
1070
     0
1002
}
1002
{
1000
NOSEL
1070
     0
1002
}
1002
{
1000
BEHIND
1070
     0
1002
}
1002
{
1000
OTHER
1070
     0
1002
}
1002
{
1000
REACTOR
1002
}
  0
POINT
  5
47DE
330
1F
100
AcDbEntity
  8
0
 60
     1
100
AcDbPoint
 10
367.4458856247456
 20
0.0
 30
0.0
1001
GENIUS_GENOENT_13
1002
{
1000
MYREF
1005
47DE
1002
}
1002
{
1000
GRP
1005
0
1002
}
1001
GENIUS_GENOLIS_13
1002
{
1000
ENT
1005
4783
1005
4782
1005
4781
1005
4780
1002
}
1001
GENIUS_GENOBJ-N-CRS_13
1002
{
1000
OWNER
1000
GEN
1002
}
1001
GENIUS_GENODEF_13
1002
{
1000
HIER
1070
    10
1002
}
1002
{
1000
MANEDIT
1070
     0
1002
}
1002
{
1000
NOSEL
1070
     0
1002
}
1002
{
1000
BEHIND
1070
     0
1002
}
1002
{
1000
OTHER
1070
     0
1002
}
1002
{
1000
REACTOR
1002
}
  0
POINT
  5
47DF
330
1F
100
AcDbEntity
  8
0
 60
     1
100
AcDbPoint
 10
367.4458856247456
 20
0.0
 30
0.0
1001
GENIUS_GENOBJ-N-CRS_13
1002
{
1000
OWNER
1000
GEN
1002
}
1001
GENIUS_GENODEF_13
1002
{
1000
HIER
1070
    10
1002
}
1002
{
1000
MANEDIT
1070
     0
1002
}
1002
{
1000
NOSEL
1070
     0
1002
}
1002
{
1000
BEHIND
1070
     0
1002
}
1002
{
1000
OTHER
1070
     0
1002
}
1002
{
1000
REACTOR
1002
}
1001
GENIUS_GENOLIS_13
1002
{
1000
ENT
1005
477F
1005
477E
1005
477D
1005
477C
1002
}
1001
GENIUS_GENOENT_13
1002
{
1000
MYREF
1005
47DF
1002
}
1002
{
1000
GRP
1005
0
1002
}
  0
POINT
  5
47E0
330
1F
100
AcDbEntity
  8
0
 60
     1
100
AcDbPoint
 10
367.4458856247456
 20
0.0
 30
0.0
1001
GENIUS_GENODEF_13
1002
{
1000
HIER
1070
    10
1002
}
1002
{
1000
MANEDIT
1070
     0
1002
}
1002
{
1000
NOSEL
1070
     0
1002
}
1002
{
1000
BEHIND
1070
     0
1002
}
1002
{
1000
OTHER
1070
     0
1002
}
1002
{
1000
REACTOR
1002
}
1001
GENIUS_GENOLIS_13
1002
{
1000
ENT
1005
477B
1005
477A
1005
4779
1005
4778
1002
}
1001
GENIUS_GENOBJ-N-CRS_13
1002
{
1000
OWNER
1000
GEN
1002
}
1001
GENIUS_GENOENT_13
1002
{
1000
MYREF
1005
47E0
1002
}
1002
{
1000
GRP
1005
0
1002
}
  0
POINT
  5
47E1
330
1F
100
AcDbEntity
  8
0
 60
     1
100
AcDbPoint
 10
367.4458856247456
 20
0.0
 30
0.0
1001
GENIUS_GENOENT_13
1002
{
1000
MYREF
1005
47E1
1002
}
1002
{
1000
GRP
1005
0
1002
}
1001
GENIUS_GENOBJ-N-CRS_13
1002
{
1000
OWNER
1000
GEN
1002
}
1001
GENIUS_GENOLIS_13
1002
{
1000
ENT
1005
4777
1005
4776
1005
4775
1005
4774
1002
}
1001
GENIUS_GENODEF_13
1002
{
1000
HIER
1070
    10
1002
}
1002
{
1000
MANEDIT
1070
     0
1002
}
1002
{
1000
NOSEL
1070
     0
1002
}
1002
{
1000
BEHIND
1070
     0
1002
}
1002
{
1000
OTHER
1070
     0
1002
}
1002
{
1000
REACTOR
1002
}
  0
POINT
  5
47E2
330
1F
100
AcDbEntity
  8
0
 60
     1
100
AcDbPoint
 10
367.4458856247456
 20
0.0
 30
0.0
1001
GENIUS_GENOLIS_13
1002
{
1000
ENT
1005
4773
1005
4772
1005
4771
1005
4770
1002
}
1001
GENIUS_GENOENT_13
1002
{
1000
MYREF
1005
47E2
1002
}
1002
{
1000
GRP
1005
0
1002
}
1001
GENIUS_GENOBJ-N-CRS_13
1002
{
1000
OWNER
1000
GEN
1002
}
1001
GENIUS_GENODEF_13
1002
{
1000
HIER
1070
    10
1002
}
1002
{
1000
MANEDIT
1070
     0
1002
}
1002
{
1000
NOSEL
1070
     0
1002
}
1002
{
1000
BEHIND
1070
     0
1002
}
1002
{
1000
OTHER
1070
     0
1002
}
1002
{
1000
REACTOR
1002
}
  0
POINT
  5
47E3
330
1F
100
AcDbEntity
  8
0
 60
     1
100
AcDbPoint
 10
367.4458856247456
 20
0.0
 30
0.0
1001
GENIUS_GENOLIS_13
1002
{
1000
ENT
1005
476F
1005
476E
1005
476D
1005
476C
1002
}
1001
GENIUS_GENOENT_13
1002
{
1000
MYREF
1005
47E3
1002
}
1002
{
1000
GRP
1005
0
1002
}
1001
GENIUS_GENODEF_13
1002
{
1000
HIER
1070
    10
1002
}
1002
{
1000
MANEDIT
1070
     0
1002
}
1002
{
1000
NOSEL
1070
     0
1002
}
1002
{
1000
BEHIND
1070
     0
1002
}
1002
{
1000
OTHER
1070
     0
1002
}
1002
{
1000
REACTOR
1002
}
1001
GENIUS_GENOBJ-N-CRS_13
1002
{
1000
OWNER
1000
GEN
1002
}
  0
POINT
  5
47E4
330
1F
100
AcDbEntity
  8
0
 60
     1
100
AcDbPoint
 10
367.4458856247456
 20
0.0
 30
0.0
1001
GENIUS_GENOLIS_13
1002
{
1000
ENT
1005
476B
1005
476A
1005
4769
1005
4768
1002
}
1001
GENIUS_GENODEF_13
1002
{
1000
HIER
1070
    10
1002
}
1002
{
1000
MANEDIT
1070
     0
1002
}
1002
{
1000
NOSEL
1070
     0
1002
}
1002
{
1000
BEHIND
1070
     0
1002
}
1002
{
1000
OTHER
1070
     0
1002
}
1002
{
1000
REACTOR
1002
}
1001
GENIUS_GENOENT_13
1002
{
1000
MYREF
1005
47E4
1002
}
1002
{
1000
GRP
1005
0
1002
}
1001
GENIUS_GENOBJ-N-CRS_13
1002
{
1000
OWNER
1000
GEN
1002
}
  0
POINT
  5
47E5
330
1F
100
AcDbEntity
  8
0
 60
     1
100
AcDbPoint
 10
367.4458856247456
 20
0.0
 30
0.0
1001
GENIUS_GENOLIS_13
1002
{
1000
ENT
1005
4767
1005
4766
1005
4765
1005
4764
1002
}
1001
GENIUS_GENOBJ-N-CRS_13
1002
{
1000
OWNER
1000
GEN
1002
}
1001
GENIUS_GENODEF_13
1002
{
1000
HIER
1070
    10
1002
}
1002
{
1000
MANEDIT
1070
     0
1002
}
1002
{
1000
NOSEL
1070
     0
1002
}
1002
{
1000
BEHIND
1070
     0
1002
}
1002
{
1000
OTHER
1070
     0
1002
}
1002
{
1000
REACTOR
1002
}
1001
GENIUS_GENOENT_13
1002
{
1000
MYREF
1005
47E5
1002
}
1002
{
1000
GRP
1005
0
1002
}
  0
POINT
  5
47E6
330
1F
100
AcDbEntity
  8
0
 60
     1
100
AcDbPoint
 10
367.4458856247456
 20
0.0
 30
0.0
1001
GENIUS_GENOBJ-N-CRS_13
1002
{
1000
OWNER
1000
GEN
1002
}
1001
GENIUS_GENOLIS_13
1002
{
1000
ENT
1005
475B
1005
475A
1005
4759
1005
4758
1002
}
1001
GENIUS_GENOENT_13
1002
{
1000
MYREF
1005
47E6
1002
}
1002
{
1000
GRP
1005
0
1002
}
1001
GENIUS_GENODEF_13
1002
{
1000
HIER
1070
    10
1002
}
1002
{
1000
MANEDIT
1070
     0
1002
}
1002
{
1000
NOSEL
1070
     0
1002
}
1002
{
1000
BEHIND
1070
     0
1002
}
1002
{
1000
OTHER
1070
     0
1002
}
1002
{
1000
REACTOR
1002
}
  0
POINT
  5
47E7
330
1F
100
AcDbEntity
  8
0
 60
     1
100
AcDbPoint
 10
367.4458856247456
 20
0.0
 30
0.0
1001
GENIUS_GENOLIS_13
1002
{
1000
ENT
1005
4757
1005
4756
1005
4755
1005
4754
1002
}
1001
GENIUS_GENOENT_13
1002
{
1000
MYREF
1005
47E7
1002
}
1002
{
1000
GRP
1005
0
1002
}
1001
GENIUS_GENOBJ-N-CRS_13
1002
{
1000
OWNER
1000
GEN
1002
}
1001
GENIUS_GENODEF_13
1002
{
1000
HIER
1070
    10
1002
}
1002
{
1000
MANEDIT
1070
     0
1002
}
1002
{
1000
NOSEL
1070
     0
1002
}
1002
{
1000
BEHIND
1070
     0
1002
}
1002
{
1000
OTHER
1070
     0
1002
}
1002
{
1000
REACTOR
1002
}
  0
POINT
  5
47E8
330
1F
100
AcDbEntity
  8
0
 60
     1
100
AcDbPoint
 10
367.4458856247456
 20
0.0
 30
0.0
1001
GENIUS_GENOLIS_13
1002
{
1000
ENT
1005
4753
1005
4752
1005
4751
1005
4750
1002
}
1001
GENIUS_GENOENT_13
1002
{
1000
MYREF
1005
47E8
1002
}
1002
{
1000
GRP
1005
0
1002
}
1001
GENIUS_GENOBJ-N-CRS_13
1002
{
1000
OWNER
1000
GEN
1002
}
1001
GENIUS_GENODEF_13
1002
{
1000
HIER
1070
    10
1002
}
1002
{
1000
MANEDIT
1070
     0
1002
}
1002
{
1000
NOSEL
1070
     0
1002
}
1002
{
1000
BEHIND
1070
     0
1002
}
1002
{
1000
OTHER
1070
     0
1002
}
1002
{
1000
REACTOR
1002
}
  0
POINT
  5
47E9
330
1F
100
AcDbEntity
  8
0
 60
     1
100
AcDbPoint
 10
367.4458856247456
 20
0.0
 30
0.0
1001
GENIUS_GENODEF_13
1002
{
1000
HIER
1070
    10
1002
}
1002
{
1000
MANEDIT
1070
     0
1002
}
1002
{
1000
NOSEL
1070
     0
1002
}
1002
{
1000
BEHIND
1070
     0
1002
}
1002
{
1000
OTHER
1070
     0
1002
}
1002
{
1000
REACTOR
1002
}
1001
GENIUS_GENOLIS_13
1002
{
1000
ENT
1005
474F
1005
474E
1005
474D
1005
474C
1002
}
1001
GENIUS_GENOENT_13
1002
{
1000
MYREF
1005
47E9
1002
}
1002
{
1000
GRP
1005
0
1002
}
1001
GENIUS_GENOBJ-N-CRS_13
1002
{
1000
OWNER
1000
GEN
1002
}
  0
LINE
  5
4869
330
1F
100
AcDbEntity
  8
0
100
AcDbLine
 10
2133.579466747407
 20
946.7469208417698
 30
0.0
 11
2165.579466747407
 21
946.7469208417698
 31
0.0
  0
LINE
  5
486A
330
1F
100
AcDbEntity
  8
0
100
AcDbLine
 10
2133.579466747407
 20
933.7469208417699
 30
0.0
 11
2165.579466747407
 21
933.7469208417699
 31
0.0
  0
LINE
  5
486B
330
1F
100
AcDbEntity
  8
0
100
AcDbLine
 10
2062.579466747406
 20
946.7469208417698
 30
0.0
 11
2064.579466747407
 21
946.7469208417698
 31
0.0
  0
LINE
  5
486C
330
1F
100
AcDbEntity
  8
0
100
AcDbLine
 10
2062.579466747406
 20
933.7469208417699
 30
0.0
 11
2064.579466747407
 21
933.7469208417699
 31
0.0
  0
LINE
  5
486D
330
1F
100
AcDbEntity
  8
0
100
AcDbLine
 10
2133.579466747407
 20
847.9502375704026
 30
0.0
 11
2165.579466747407
 21
847.9502375704026
 31
0.0
  0
LINE
  5
486E
330
1F
100
AcDbEntity
  8
0
100
AcDbLine
 10
2133.579466747407
 20
834.9502375704025
 30
0.0
 11
2165.579466747407
 21
834.9502375704025
 31
0.0
  0
LINE
  5
486F
330
1F
100
AcDbEntity
  8
0
100
AcDbLine
 10
2062.579466747406
 20
847.9502375704026
 30
0.0
 11
2064.579466747407
 21
847.9502375704026
 31
0.0
  0
LINE
  5
4870
330
1F
100
AcDbEntity
  8
0
100
AcDbLine
 10
2062.579466747406
 20
834.9502375704025
 30
0.0
 11
2064.579466747407
 21
834.9502375704025
 31
0.0
  0
LINE
  5
4871
330
1F
100
AcDbEntity
  8
0
100
AcDbLine
 10
2133.579466747407
 20
1097.843212517858
 30
0.0
 11
2165.579466747407
 21
1097.843212517858
 31
0.0
  0
LINE
  5
4872
330
1F
100
AcDbEntity
  8
0
100
AcDbLine
 10
2133.579466747407
 20
1084.843212517858
 30
0.0
 11
2165.579466747407
 21
1084.843212517858
 31
0.0
  0
LINE
  5
4873
330
1F
100
AcDbEntity
  8
0
100
AcDbLine
 10
2062.579466747406
 20
1097.843212517858
 30
0.0
 11
2064.579466747407
 21
1097.843212517858
 31
0.0
  0
LINE
  5
4874
330
1F
100
AcDbEntity
  8
0
100
AcDbLine
 10
2062.579466747406
 20
1084.843212517858
 30
0.0
 11
2064.579466747407
 21
1084.843212517858
 31
0.0
  0
LINE
  5
4875
330
1F
100
AcDbEntity
  8
0
100
AcDbLine
 10
2133.579466747407
 20
1172.622200991501
 30
0.0
 11
2165.579466747407
 21
1172.622200991501
 31
0.0
  0
LINE
  5
4876
330
1F
100
AcDbEntity
  8
0
100
AcDbLine
 10
2133.579466747407
 20
1159.622200991501
 30
0.0
 11
2165.579466747407
 21
1159.622200991501
 31
0.0
  0
LINE
  5
4877
330
1F
100
AcDbEntity
  8
0
100
AcDbLine
 10
2062.579466747406
 20
1172.622200991501
 30
0.0
 11
2064.579466747407
 21
1172.622200991501
 31
0.0
  0
LINE
  5
4878
330
1F
100
AcDbEntity
  8
0
100
AcDbLine
 10
2062.579466747406
 20
1159.622200991501
 30
0.0
 11
2064.579466747407
 21
1159.622200991501
 31
0.0
  0
LINE
  5
4879
330
1F
100
AcDbEntity
  8
0
100
AcDbLine
 10
2133.579466747407
 20
1237.622200991501
 30
0.0
 11
2165.579466747407
 21
1237.622200991501
 31
0.0
  0
LINE
  5
487A
330
1F
100
AcDbEntity
  8
0
100
AcDbLine
 10
2133.579466747407
 20
1224.622200991501
 30
0.0
 11
2165.579466747407
 21
1224.622200991501
 31
0.0
  0
LINE
  5
487B
330
1F
100
AcDbEntity
  8
0
100
AcDbLine
 10
2062.579466747406
 20
1237.622200991501
 30
0.0
 11
2064.579466747407
 21
1237.622200991501
 31
0.0
  0
LINE
  5
487C
330
1F
100
AcDbEntity
  8
0
100
AcDbLine
 10
2062.579466747406
 20
1224.622200991501
 30
0.0
 11
2064.579466747407
 21
1224.622200991501
 31
0.0
  0
INSERT
  5
4923
330
1F
100
AcDbEntity
  8
AM_5
100
AcDbBlockReference
  2
*S31
 10
0.0
 20
0.0
 30
0.0
  0
TEXT
  5
4924
330
1F
100
AcDbEntity
  8
AM_5
100
AcDbText
 10
1706.769825670598
 20
874.1000921099979
 30
0.0
 40
4.199999999999999
  1
2-PT1/8
 41
0.8
100
AcDbText
  0
INSERT
  5
4926
330
1F
100
AcDbEntity
  8
AM_5
100
AcDbBlockReference
  2
*S32
 10
0.0
 20
0.0
 30
0.0
  0
TEXT
  5
4927
330
1F
100
AcDbEntity
  8
AM_5
100
AcDbText
 10
2137.330561135573
 20
874.1000921099979
 30
0.0
 40
4.199999999999999
  1
2-PT1/8
 41
0.8
100
AcDbText
  0
DIMENSION
  5
4B22
102
{ACAD_XDICTIONARY
360
4B2F
102
}
102
{ACAD_REACTORS
330
4B30
102
}
330
1F
100
AcDbEntity
  8
AM_5
100
AcDbDimension
  2
*D17
 10
1768.548264377679
 20
930.7469208417698
 30
0.0
 11
1766.048264377679
 21
972.7469208417701
 31
0.0
 70
    32
 71
     5
 42
84.0
  3
AM_ISO$0
100
AcDbAlignedDimension
 13
1746.018731282432
 23
1014.74692084177
 33
0.0
 14
1746.018731282432
 24
930.7469208417698
 34
0.0
 50
90.00000000000003
100
AcDbRotatedDimension
1001
ACAD
1000
DSTYLE
1002
{
1070
    40
1040
1.0
1070
   144
1040
1.0
1070
   272
1070
     8
1002
}
  0
ENDSEC
  0
SECTION
  2
OBJECTS
  0
DICTIONARY
  5
C
330
0
100
AcDbDictionary
281
     1
  3
ACAD_COLOR
350
BE
  3
ACAD_GROUP
350
D
  3
ACAD_LAYOUT
350
1A
  3
ACAD_MATERIAL
350
BD
  3
ACAD_MLINESTYLE
350
17
  3
ACAD_PLOTSETTINGS
350
19
  3
ACAD_PLOTSTYLENAME
350
E
  3
ACAD_TABLESTYLE
350
11A
  3
ACDBHEADERROUNDTRIPXREC
350
4CA6
  3
AcDbVariableDictionary
350
94
  3
AcmDictionary
350
5B
  3
AMG
350
41
  3
AMGSNAPSETTINGS
350
1B8
  3
DWGPROPS
350
4CA5
  0
DICTIONARY
  5
3F9
330
2
100
AcDbDictionary
280
     1
281
     1
  3
ACAD_LAYERFILTERS
360
5B7
  3
ACAD_LAYERSTATES
360
71D
  3
ACLYDICTIONARY
360
5B6
  0
DICTIONARY
  5
8F
330
1F
100
AcDbDictionary
280
     1
281
     1
  3
ACAD_SORTENTS
360
136C
  0
DICTIONARY
  5
4B2F
330
4B22
100
AcDbDictionary
280
     1
281
     1
  3
ACAD_DIMASSOC
360
4B30
  0
DICTIONARY
  5
BE
102
{ACAD_REACTORS
330
C
102
}
330
C
100
AcDbDictionary
281
     1
  0
DICTIONARY
  5
D
102
{ACAD_REACTORS
330
C
102
}
330
C
100
AcDbDictionary
281
     1
  0
DICTIONARY
  5
1A
102
{ACAD_REACTORS
330
C
102
}
330
C
100
AcDbDictionary
281
     1
  3
Model
350
22
  3
配置1
350
1E
  3
配置2
350
26
  0
DICTIONARY
  5
BD
102
{ACAD_REACTORS
330
C
102
}
330
C
100
AcDbDictionary
281
     1
  0
DICTIONARY
  5
17
102
{ACAD_REACTORS
330
C
102
}
330
C
100
AcDbDictionary
281
     1
  3
Standard
350
18
  0
DICTIONARY
  5
19
102
{ACAD_REACTORS
330
C
102
}
330
C
100
AcDbDictionary
281
     1
  0
ACDBDICTIONARYWDFLT
  5
E
102
{ACAD_REACTORS
330
C
102
}
330
C
100
AcDbDictionary
281
     1
  3
Normal
350
F
100
AcDbDictionaryWithDefault
340
F
  0
DICTIONARY
  5
11A
102
{ACAD_REACTORS
330
C
102
}
330
C
100
AcDbDictionary
281
     1
  3
Standard
350
11B
  0
DICTIONARY
  5
4CA6
102
{ACAD_REACTORS
330
C
102
}
330
C
100
AcDbDictionary
281
     1
  0
DICTIONARY
  5
94
102
{ACAD_REACTORS
330
C
102
}
330
C
100
AcDbDictionary
281
     1
  3
CTABLESTYLE
350
138
  3
DIMASSOC
350
96
  3
INDEXCTL
350
95
  3
PROJECTNAME
350
4CA3
  0
DICTIONARY
  5
5B
102
{ACAD_REACTORS
330
C
102
}
330
C
100
AcDbDictionary
281
     1
  3
AcmBOM
350
1B5
  3
AcmStdDictionary
350
61
  3
AMDTSECTSYM_ARROWCOLOR
350
123
  0
DICTIONARY
  5
41
102
{ACAD_REACTORS
330
C
102
}
330
C
100
AcDbDictionary
281
     1
  0
DICTIONARY
  5
1B8
102
{ACAD_REACTORS
330
C
102
}
330
C
100
AcDbDictionary
281
     1
  0
XRECORD
  5
4CA5
102
{ACAD_REACTORS
330
C
102
}
330
C
100
AcDbXrecord
280
     1
  1
DWGPROPS COOKIE
  2

  3

  4

  6

  7

  8

  9

300
AmdtFileType=84
301
=
302
=
303
=
304
=
305
=
306
=
307
=
308
=
309
=
 40
0.3403909722222222
 41
2453580.633342373
 42
2453584.698947477
  1

 90
        1
  0
DICTIONARY
  5
5B7
102
{ACAD_REACTORS
330
3F9
102
}
330
3F9
100
AcDbDictionary
281
     1
  0
DICTIONARY
  5
71D
102
{ACAD_REACTORS
330
3F9
102
}
330
3F9
100
AcDbDictionary
281
     1
  0
DICTIONARY
  5
5B6
102
{ACAD_REACTORS
330
3F9
102
}
330
3F9
100
AcDbDictionary
281
     1
1001
ACAD
1000
<All
  0
SORTENTSTABLE
  5
136C
102
{ACAD_REACTORS
330
8F
102
}
330
8F
100
AcDbSortentsTable
330
1F
331
F02
  5
F02
331
E93
  5
E93
331
E9B
  5
E9B
331
E64
  5
E64
331
ED3
  5
ED3
331
EDB
  5
EDB
331
E74
  5
E74
331
4022
  5
4022
331
3FE3
  5
3FE3
331
3FAC
  5
3FAC
331
3F6D
  5
3F6D
331
3F36
  5
3F36
331
402A
  5
402A
331
3FEB
  5
3FEB
331
3FB4
  5
3FB4
331
3F75
  5
3F75
331
3F3E
  5
3F3E
331
4079
  5
4079
331
3FF3
  5
3FF3
331
3FBC
  5
3FBC
331
3F46
  5
3F46
331
3F07
  5
3F07
331
40E0
  5
40E0
331
40E8
  5
40E8
331
404A
  5
404A
331
3FFB
  5
3FFB
331
3F85
  5
3F85
331
3F4E
  5
3F4E
331
3F0F
  5
3F0F
331
4089
  5
4089
331
40F0
  5
40F0
331
4091
  5
4091
331
EE3
  5
EE3
331
EEB
  5
EEB
331
E3D
  5
E3D
331
EF3
  5
EF3
331
E8C
  5
E8C
331
E45
  5
E45
331
EFB
  5
EFB
331
E4D
  5
E4D
331
4003
  5
4003
331
3FCC
  5
3FCC
331
3F8D
  5
3F8D
331
3F56
  5
3F56
331
3F17
  5
3F17
331
400B
  5
400B
331
3FD4
  5
3FD4
331
3F95
  5
3F95
331
3F5E
  5
3F5E
331
3F1F
  5
3F1F
331
40F8
  5
40F8
331
4013
  5
4013
331
3FDC
  5
3FDC
331
3F9D
  5
3F9D
331
3F66
  5
3F66
331
3F27
  5
3F27
331
40A1
  5
40A1
331
401B
  5
401B
331
3F2F
  5
3F2F
331
F03
  5
F03
331
E94
  5
E94
331
E65
  5
E65
331
ED4
  5
ED4
331
EDC
  5
EDC
331
E75
  5
E75
331
3FE4
  5
3FE4
331
3FAD
  5
3FAD
331
3F6E
  5
3F6E
331
3F37
  5
3F37
331
402B
  5
402B
331
3FEC
  5
3FEC
331
3F3F
  5
3F3F
331
40D9
  5
40D9
331
3FF4
  5
3FF4
331
3FBD
  5
3FBD
331
3F47
  5
3F47
331
3F08
  5
3F08
331
40E1
  5
40E1
331
40E9
  5
40E9
331
404B
  5
404B
331
3FFC
  5
3FFC
331
3F86
  5
3F86
331
3F4F
  5
3F4F
331
408A
  5
408A
331
40F1
  5
40F1
331
4092
  5
4092
331
EE4
  5
EE4
331
EEC
  5
EEC
331
E3E
  5
E3E
331
EF4
  5
EF4
331
E8D
  5
E8D
331
E46
  5
E46
331
EFC
  5
EFC
331
E4E
  5
E4E
331
3F10
  5
3F10
331
405B
  5
405B
331
4004
  5
4004
331
3FCD
  5
3FCD
331
3F8E
  5
3F8E
331
3F57
  5
3F57
331
3F18
  5
3F18
331
400C
  5
400C
331
3FD5
  5
3FD5
331
3F96
  5
3F96
331
3F5F
  5
3F5F
331
3F20
  5
3F20
331
4014
  5
4014
331
3FDD
  5
3FDD
331
3F9E
  5
3F9E
331
3F28
  5
3F28
331
401C
  5
401C
331
F04
  5
F04
331
E95
  5
E95
331
E5E
  5
E5E
331
F14
  5
F14
331
E66
  5
E66
331
ED5
  5
ED5
331
E6E
  5
E6E
331
EDD
  5
EDD
331
E76
  5
E76
331
3F30
  5
3F30
331
3FE5
  5
3FE5
331
3FAE
  5
3FAE
331
3F6F
  5
3F6F
331
3F38
  5
3F38
331
402C
  5
402C
331
3FED
  5
3FED
331
3F40
  5
3F40
331
40DA
  5
40DA
331
3FF5
  5
3FF5
331
3FBE
  5
3FBE
331
3F7F
  5
3F7F
331
3F48
  5
3F48
331
3F09
  5
3F09
331
40E2
  5
40E2
331
40EA
  5
40EA
331
404C
  5
404C
331
3FFD
  5
3FFD
331
3F87
  5
3F87
331
408B
  5
408B
331
40F2
  5
40F2
331
EE5
  5
EE5
331
E7E
  5
E7E
331
E1F
  5
E1F
331
EED
  5
EED
331
E86
  5
E86
331
E3F
  5
E3F
331
EF5
  5
EF5
331
E8E
  5
E8E
331
E47
  5
E47
331
3F50
  5
3F50
331
EFD
  5
EFD
331
3F11
  5
3F11
331
4005
  5
4005
331
3FCE
  5
3FCE
331
3F8F
  5
3F8F
331
3F58
  5
3F58
331
3F19
  5
3F19
331
400D
  5
400D
331
3FD6
  5
3FD6
331
3F97
  5
3F97
331
3F60
  5
3F60
331
3F21
  5
3F21
331
4015
  5
4015
331
3FDE
  5
3FDE
331
3F29
  5
3F29
331
401D
  5
401D
331
E96
  5
E96
331
E5F
  5
E5F
331
F15
  5
F15
331
ED6
  5
ED6
331
E6F
  5
E6F
331
3F68
  5
3F68
331
EDE
  5
EDE
331
E77
  5
E77
331
3F31
  5
3F31
331
3FE6
  5
3FE6
331
3FAF
  5
3FAF
331
3F70
  5
3F70
331
3F39
  5
3F39
331
402D
  5
402D
331
3FEE
  5
3FEE
331
40DB
  5
40DB
331
40E3
  5
40E3
331
3FF6
  5
3FF6
331
3F80
  5
3F80
331
3F49
  5
3F49
331
3F0A
  5
3F0A
331
4084
  5
4084
331
40EB
  5
40EB
331
404D
  5
404D
331
3FFE
  5
3FFE
331
408C
  5
408C
331
40F3
  5
40F3
331
EE6
  5
EE6
331
EEE
  5
EEE
331
E87
  5
E87
331
E40
  5
E40
331
EF6
  5
EF6
331
E8F
  5
E8F
331
E48
  5
E48
331
3F88
  5
3F88
331
3F51
  5
3F51
331
EFE
  5
EFE
331
3F12
  5
3F12
331
4006
  5
4006
331
3FCF
  5
3FCF
331
3F90
  5
3F90
331
3F59
  5
3F59
331
3F1A
  5
3F1A
331
1CA3
  5
1CA3
331
400E
  5
400E
331
3FD7
  5
3FD7
331
3F98
  5
3F98
331
3F61
  5
3F61
331
3F22
  5
3F22
331
4075
  5
4075
331
4016
  5
4016
331
3FDF
  5
3FDF
331
3FA0
  5
3FA0
331
3F2A
  5
3F2A
331
401E
  5
401E
331
40AC
  5
40AC
331
E97
  5
E97
331
E60
  5
E60
331
F16
  5
F16
331
ED7
  5
ED7
331
3FA8
  5
3FA8
331
3F69
  5
3F69
331
EDF
  5
EDF
331
3F32
  5
3F32
331
3FE7
  5
3FE7
331
3FB0
  5
3FB0
331
3F71
  5
3F71
331
3F3A
  5
3F3A
331
402E
  5
402E
331
3FEF
  5
3FEF
331
40DC
  5
40DC
331
40E4
  5
40E4
331
3FF7
  5
3FF7
331
3F81
  5
3F81
331
3F4A
  5
3F4A
331
3F0B
  5
3F0B
331
4085
  5
4085
331
40EC
  5
40EC
331
408D
  5
408D
331
3FFF
  5
3FFF
331
404E
  5
404E
331
40F4
  5
40F4
331
E78
  5
E78
331
EE7
  5
EE7
331
EEF
  5
EEF
331
E88
  5
E88
331
E41
  5
E41
331
EF7
  5
EF7
331
E49
  5
E49
331
3F89
  5
3F89
331
3F52
  5
3F52
331
EFF
  5
EFF
331
3F13
  5
3F13
331
4007
  5
4007
331
3FD0
  5
3FD0
331
3F91
  5
3F91
331
3F5A
  5
3F5A
331
3F1B
  5
3F1B
331
1CA4
  5
1CA4
331
400F
  5
400F
331
3FD8
  5
3FD8
331
3F99
  5
3F99
331
3F23
  5
3F23
331
2744
  5
2744
331
409D
  5
409D
331
4076
  5
4076
331
4017
  5
4017
331
3FA1
  5
3FA1
331
3F2B
  5
3F2B
331
40AD
  5
40AD
331
401F
  5
401F
331
E90
  5
E90
331
E59
  5
E59
331
E61
  5
E61
331
ED8
  5
ED8
331
3FE0
  5
3FE0
331
3FA9
  5
3FA9
331
3F6A
  5
3F6A
331
3F33
  5
3F33
331
4027
  5
4027
331
3FE8
  5
3FE8
331
3FB1
  5
3FB1
331
3F72
  5
3F72
331
3F3B
  5
3F3B
331
3FF0
  5
3FF0
331
40DD
  5
40DD
331
40E5
  5
40E5
331
4047
  5
4047
331
3FF8
  5
3FF8
331
3F82
  5
3F82
331
3F4B
  5
3F4B
331
3F0C
  5
3F0C
331
4086
  5
4086
331
40ED
  5
40ED
331
408E
  5
408E
331
40F5
  5
40F5
331
EE0
  5
EE0
331
E79
  5
E79
331
EE8
  5
EE8
331
EF0
  5
EF0
331
E42
  5
E42
331
EF8
  5
EF8
331
E4A
  5
E4A
331
4000
  5
4000
331
3FC9
  5
3FC9
331
3F8A
  5
3F8A
331
3F53
  5
3F53
331
3F14
  5
3F14
331
4008
  5
4008
331
3FD1
  5
3FD1
331
3F92
  5
3F92
331
3F5B
  5
3F5B
331
3F1C
  5
3F1C
331
4010
  5
4010
331
3FD9
  5
3FD9
331
3F9A
  5
3F9A
331
3F63
  5
3F63
331
3F24
  5
3F24
331
2745
  5
2745
331
409E
  5
409E
331
4077
  5
4077
331
4018
  5
4018
331
3F2C
  5
3F2C
331
40AE
  5
40AE
331
F00
  5
F00
331
E91
  5
E91
331
E5A
  5
E5A
331
E62
  5
E62
331
E6A
  5
E6A
331
ED9
  5
ED9
331
4020
  5
4020
331
3FE1
  5
3FE1
331
3FAA
  5
3FAA
331
3F6B
  5
3F6B
331
3F34
  5
3F34
331
4028
  5
4028
331
3FE9
  5
3FE9
331
3FB2
  5
3FB2
331
3F73
  5
3F73
331
3F3C
  5
3F3C
331
3FF1
  5
3FF1
331
3F05
  5
3F05
331
40DE
  5
40DE
331
40E6
  5
40E6
331
4048
  5
4048
331
3FF9
  5
3FF9
331
3FC2
  5
3FC2
331
3F83
  5
3F83
331
3F4C
  5
3F4C
331
3F0D
  5
3F0D
331
4087
  5
4087
331
40EE
  5
40EE
331
408F
  5
408F
331
40F6
  5
40F6
331
EE1
  5
EE1
331
E7A
  5
E7A
331
EE9
  5
EE9
331
E82
  5
E82
331
EF1
  5
EF1
331
E43
  5
E43
331
EF9
  5
EF9
331
E4B
  5
E4B
331
4001
  5
4001
331
3FCA
  5
3FCA
331
3F8B
  5
3F8B
331
3F54
  5
3F54
331
3F15
  5
3F15
331
4068
  5
4068
331
4009
  5
4009
331
3FD2
  5
3FD2
331
3F93
  5
3F93
331
3F5C
  5
3F5C
331
3F1D
  5
3F1D
331
4011
  5
4011
331
3FDA
  5
3FDA
331
3F9B
  5
3F9B
331
3F64
  5
3F64
331
3F25
  5
3F25
331
409F
  5
409F
331
4019
  5
4019
331
3F2D
  5
3F2D
331
40AF
  5
40AF
331
F01
  5
F01
331
E92
  5
E92
331
E5B
  5
E5B
331
E63
  5
E63
331
ED2
  5
ED2
331
EDA
  5
EDA
331
E73
  5
E73
331
4021
  5
4021
331
3FE2
  5
3FE2
331
3FAB
  5
3FAB
331
3F6C
  5
3F6C
331
3F35
  5
3F35
331
4029
  5
4029
331
3FEA
  5
3FEA
331
3FB3
  5
3FB3
331
3F74
  5
3F74
331
3F3D
  5
3F3D
331
4078
  5
4078
331
3FF2
  5
3FF2
331
3FBB
  5
3FBB
331
3F45
  5
3F45
331
3F06
  5
3F06
331
40DF
  5
40DF
331
40E7
  5
40E7
331
4049
  5
4049
331
3FFA
  5
3FFA
331
3F84
  5
3F84
331
3F4D
  5
3F4D
331
3F0E
  5
3F0E
331
4088
  5
4088
331
40EF
  5
40EF
331
4090
  5
4090
331
40F7
  5
40F7
331
EE2
  5
EE2
331
EEA
  5
EEA
331
E3C
  5
E3C
331
EF2
  5
EF2
331
E44
  5
E44
331
EFA
  5
EFA
331
E4C
  5
E4C
331
4002
  5
4002
331
3FCB
  5
3FCB
331
3F8C
  5
3F8C
331
3F55
  5
3F55
331
3F16
  5
3F16
331
400A
  5
400A
331
3FD3
  5
3FD3
331
3F94
  5
3F94
331
3F1E
  5
3F1E
331
1CA7
  5
1CA7
331
4012
  5
4012
331
3FDB
  5
3FDB
331
3F9C
  5
3F9C
331
3F65
  5
3F65
331
3F26
  5
3F26
331
40A0
  5
40A0
331
401A
  5
401A
331
3F2E
  5
3F2E
331
40B0
  5
40B0
  0
DIMASSOC
  5
4B30
102
{ACAD_REACTORS
330
4B2F
102
}
330
4B2F
100
AcDbDimAssoc
330
4B22
 90
        3
 70
     0
 71
     0
  1
AcDbOsnapPointRef
 72
     1
331
4261
 73
     0
 91
        0
 40
0.0
 10
0.0
 20
0.0
 30
2.000000000000000E+50
 75
     0
  1
AcDbOsnapPointRef
 72
     1
331
422B
 73
     0
 91
        0
 40
0.0
 10
0.0
 20
0.0
 30
2.000000000000000E+50
 75
     0
  0
LAYOUT
  5
22
102
{ACAD_XDICTIONARY
360
4CA9
102
}
102
{ACAD_REACTORS
330
1A
102
}
330
1A
100
AcDbPlotSettings
  1

  2
\\RD\EPSON Stylus C63 Series單色
  4
A4
  6

 40
3.757083177566528
 41
3.757076978683471
 42
3.757080078125
 43
3.757080078125
 44
209.9733276367187
 45
296.9683227539062
 46
0.0
 47
0.0
 48
0.0
 49
0.0
140
0.0
141
0.0
142
1.0
143
0.3405120737814363
 70
 11952
 72
     1
 73
     0
 74
     0
  7
單色出圖.ctb
 75
     0
147
2.936753428137963
148
-2047.07469463503
149
-1261.649717473083
100
AcDbLayout
  1
Model
 70
     1
 71
     0
 10
0.0
 20
0.0
 11
12.0
 21
9.0
 12
0.0
 22
0.0
 32
0.0
 14
0.0
 24
0.0
 34
0.0
 15
0.0
 25
0.0
 35
0.0
146
0.0
 13
0.0
 23
0.0
 33
0.0
 16
1.0
 26
0.0
 36
0.0
 17
0.0
 27
1.0
 37
0.0
 76
     0
330
1F
1001
ACAD_PSEXT
1000
\\RD\EPSON Stylus C63 Series單色
1000
EPSON Stylus C63 Series
1000
\\RD
1000

1070
     0
  0
LAYOUT
  5
1E
102
{ACAD_XDICTIONARY
360
4CA7
102
}
102
{ACAD_REACTORS
330
1A
102
}
330
1A
100
AcDbPlotSettings
  1

  2

  4

  6

 40
0.0
 41
0.0
 42
0.0
 43
0.0
 44
0.0
 45
0.0
 46
0.0
 47
0.0
 48
0.0
 49
0.0
140
0.0
141
0.0
142
1.0
143
1.0
 70
   688
 72
     0
 73
     0
 74
     5
  7
單色出圖.ctb
 75
    16
147
1.0
148
0.0
149
0.0
100
AcDbLayout
  1
配置1
 70
     1
 71
     1
 10
0.0
 20
0.0
 11
420.0
 21
297.0
 12
0.0
 22
0.0
 32
0.0
 14
1.000000000000000E+20
 24
1.000000000000000E+20
 34
1.000000000000000E+20
 15
-1.000000000000000E+20
 25
-1.000000000000000E+20
 35
-1.000000000000000E+20
146
0.0
 13
0.0
 23
0.0
 33
0.0
 16
1.0
 26
0.0
 36
0.0
 17
0.0
 27
1.0
 37
0.0
 76
     0
330
1B
  0
LAYOUT
  5
26
102
{ACAD_XDICTIONARY
360
4CAB
102
}
102
{ACAD_REACTORS
330
1A
102
}
330
1A
100
AcDbPlotSettings
  1

  2

  4

  6

 40
0.0
 41
0.0
 42
0.0
 43
0.0
 44
0.0
 45
0.0
 46
0.0
 47
0.0
 48
0.0
 49
0.0
140
0.0
141
0.0
142
1.0
143
1.0
 70
   688
 72
     0
 73
     0
 74
     5
  7
單色出圖.ctb
 75
    16
147
1.0
148
0.0
149
0.0
100
AcDbLayout
  1
配置2
 70
     1
 71
     2
 10
0.0
 20
0.0
 11
12.0
 21
9.0
 12
0.0
 22
0.0
 32
0.0
 14
0.0
 24
0.0
 34
0.0
 15
0.0
 25
0.0
 35
0.0
146
0.0
 13
0.0
 23
0.0
 33
0.0
 16
1.0
 26
0.0
 36
0.0
 17
0.0
 27
1.0
 37
0.0
 76
     0
330
23
  0
MLINESTYLE
  5
18
102
{ACAD_REACTORS
330
17
102
}
330
17
100
AcDbMlineStyle
  2
STANDARD
 70
     0
  3

 62
   256
 51
90.0
 52
90.0
 71
     2
 49
0.5
 62
   256
  6
BYLAYER
 49
-0.5
 62
   256
  6
BYLAYER
  0
ACDBPLACEHOLDER
  5
F
102
{ACAD_REACTORS
330
E
102
}
330
E
  0
TABLESTYLE
  5
11B
102
{ACAD_REACTORS
330
11A
102
}
330
11A
100
AcDbTableStyle
  3
Standard
 70
     0
 71
     0
 40
1.5
 41
1.5
280
     0
281
     0
  7
STANDARD
140
4.5
170
     2
 62
     0
 63
     7
283
     0
274
    -2
284
     1
 64
     0
275
    -2
285
     1
 65
     0
276
    -2
286
     1
 66
     0
277
    -2
287
     1
 67
     0
278
    -2
288
     1
 68
     0
279
    -2
289
     1
 69
     0
  7
STANDARD
140
6.0
170
     5
 62
     0
 63
     7
283
     0
274
    -2
284
     1
 64
     0
275
    -2
285
     1
 65
     0
276
    -2
286
     1
 66
     0
277
    -2
287
     1
 67
     0
278
    -2
288
     1
 68
     0
279
    -2
289
     1
 69
     0
  7
STANDARD
140
4.5
170
     5
 62
     0
 63
     7
283
     0
274
    -2
284
     1
 64
     0
275
    -2
285
     1
 65
     0
276
    -2
286
     1
 66
     0
277
    -2
287
     1
 67
     0
278
    -2
288
     1
 68
     0
279
    -2
289
     1
 69
     0
  0
DICTIONARYVAR
  5
138
102
{ACAD_REACTORS
330
94
102
}
330
94
100
DictionaryVariables
280
     0
  1
STANDARD
  0
DICTIONARYVAR
  5
96
102
{ACAD_REACTORS
330
94
102
}
330
94
100
DictionaryVariables
280
     0
  1
2
  0
DICTIONARYVAR
  5
95
102
{ACAD_REACTORS
330
94
102
}
330
94
100
DictionaryVariables
280
     0
  1
0
  0
DICTIONARYVAR
  5
4CA3
102
{ACAD_REACTORS
330
94
102
}
330
94
100
DictionaryVariables
280
     0
  1

  0
DICTIONARY
  5
1B5
102
{ACAD_REACTORS
330
5B
102
}
330
5B
100
AcDbDictionary
281
     1
  0
DICTIONARY
  5
61
102
{ACAD_REACTORS
330
5B
102
}
330
5B
100
AcDbDictionary
281
     1
  0
XRECORD
  5
123
102
{ACAD_REACTORS
330
5B
102
}
330
5B
100
AcDbXrecord
280
     1
 90
-1023410169
  0
DICTIONARY
  5
4CA9
330
22
100
AcDbDictionary
280
     1
281
     1
  3
ACAD_XREC_ROUNDTRIP
360
4CAA
  0
DICTIONARY
  5
4CA7
330
1E
100
AcDbDictionary
280
     1
281
     1
  3
ACAD_XREC_ROUNDTRIP
360
4CA8
  0
DICTIONARY
  5
4CAB
330
26
100
AcDbDictionary
280
     1
281
     1
  3
ACAD_XREC_ROUNDTRIP
360
4CAC
  0
XRECORD
  5
4CAA
102
{ACAD_REACTORS
330
4CA9
102
}
330
4CA9
100
AcDbXrecord
280
     1
102
SHADEPLOT
 70
     0
102
SHADEPLOTRESLEVEL
 70
     2
102
SHADEPLOTCUSTOMDPI
 70
   300
  0
XRECORD
  5
4CA8
102
{ACAD_REACTORS
330
4CA7
102
}
330
4CA7
100
AcDbXrecord
280
     1
102
SHADEPLOT
 70
     0
102
SHADEPLOTRESLEVEL
 70
     2
102
SHADEPLOTCUSTOMDPI
 70
   300
  0
XRECORD
  5
4CAC
102
{ACAD_REACTORS
330
4CAB
102
}
330
4CAB
100
AcDbXrecord
280
     1
102
SHADEPLOT
 70
     0
102
SHADEPLOTRESLEVEL
 70
     2
102
SHADEPLOTCUSTOMDPI
 70
   300
  0
ENDSEC
  0
EOF
