  0
SECTION
  2
HEADER
  9
$ACADVER
  1
AC1015
  9
$ACADMAINTVER
 70
    20
  9
$DWGCODEPAGE
  3
ANSI_950
  9
$INSBASE
 10
0.0
 20
0.0
 30
0.0
  9
$EXTMIN
 10
1675.474678812804
 20
828.780598779902
 30
-0.0203150137799639
  9
$EXTMAX
 10
2269.776743179166
 20
1207.089709806678
 30
283.0947698177005
  9
$LIMMIN
 10
0.0
 20
0.0
  9
$LIMMAX
 10
420.0
 20
297.0
  9
$ORTHOMODE
 70
     0
  9
$REGENMODE
 70
     1
  9
$FILLMODE
 70
     1
  9
$QTEXTMODE
 70
     0
  9
$MIRRTEXT
 70
     1
  9
$LTSCALE
 40
2.0
  9
$ATTMODE
 70
     1
  9
$TEXTSIZE
 40
3.0
  9
$TRACEWID
 40
1.0
  9
$TEXTSTYLE
  7
CHINESET
  9
$CLAYER
  8
0
  9
$CELTYPE
  6
ByLayer
  9
$CECOLOR
 62
   256
  9
$CELTSCALE
 40
1.0
  9
$DISPSILH
 70
     0
  9
$DIMSCALE
 40
1.0
  9
$DIMASZ
 40
3.0
  9
$DIMEXO
 40
1.0
  9
$DIMDLI
 40
8.0
  9
$DIMRND
 40
0.0
  9
$DIMDLE
 40
0.0
  9
$DIMEXE
 40
1.5
  9
$DIMTP
 40
0.1
  9
$DIMTM
 40
0.1
  9
$DIMTXT
 40
3.0
  9
$DIMCEN
 40
0.0
  9
$DIMTSZ
 40
0.0
  9
$DIMTOL
 70
     0
  9
$DIMLIM
 70
     0
  9
$DIMTIH
 70
     0
  9
$DIMTOH
 70
     0
  9
$DIMSE1
 70
     0
  9
$DIMSE2
 70
     0
  9
$DIMTAD
 70
     1
  9
$DIMZIN
 70
     8
  9
$DIMBLK
  1

  9
$DIMASO
 70
     1
  9
$DIMSHO
 70
     1
  9
$DIMPOST
  1

  9
$DIMAPOST
  1
"
  9
$DIMALT
 70
     0
  9
$DIMALTD
 70
     2
  9
$DIMALTF
 40
0.0393701
  9
$DIMLFAC
 40
1.0
  9
$DIMTOFL
 70
     1
  9
$DIMTVP
 40
0.0
  9
$DIMTIX
 70
     0
  9
$DIMSOXD
 70
     0
  9
$DIMSAH
 70
     0
  9
$DIMBLK1
  1

  9
$DIMBLK2
  1

  9
$DIMSTYLE
  2
AM_ISO
  9
$DIMCLRD
 70
   256
  9
$DIMCLRE
 70
   256
  9
$DIMCLRT
 70
   256
  9
$DIMTFAC
 40
0.71
  9
$DIMGAP
 40
1.0
  9
$DIMJUST
 70
     0
  9
$DIMSD1
 70
     0
  9
$DIMSD2
 70
     0
  9
$DIMTOLJ
 70
     2
  9
$DIMTZIN
 70
     8
  9
$DIMALTZ
 70
     0
  9
$DIMALTTZ
 70
     0
  9
$DIMUPT
 70
     0
  9
$DIMDEC
 70
     2
  9
$DIMTDEC
 70
     8
  9
$DIMALTU
 70
     2
  9
$DIMALTTD
 70
     2
  9
$DIMTXSTY
  7
STANDARD
  9
$DIMAUNIT
 70
     0
  9
$DIMADEC
 70
     0
  9
$DIMALTRND
 40
0.0
  9
$DIMAZIN
 70
     2
  9
$DIMDSEP
 70
    46
  9
$DIMATFIT
 70
     3
  9
$DIMFRAC
 70
     0
  9
$DIMLDRBLK
  1

  9
$DIMLUNIT
 70
     2
  9
$DIMLWD
 70
    -1
  9
$DIMLWE
 70
    -1
  9
$DIMTMOVE
 70
     0
  9
$LUNITS
 70
     2
  9
$LUPREC
 70
     2
  9
$SKETCHINC
 40
1.0
  9
$FILLETRAD
 40
2.5
  9
$AUNITS
 70
     0
  9
$AUPREC
 70
     0
  9
$MENU
  1
.
  9
$ELEVATION
 40
0.0
  9
$PELEVATION
 40
0.0
  9
$THICKNESS
 40
0.0
  9
$LIMCHECK
 70
     0
  9
$CHAMFERA
 40
2.5
  9
$CHAMFERB
 40
2.5
  9
$CHAMFERC
 40
20.0
  9
$CHAMFERD
 40
0.0
  9
$SKPOLY
 70
     0
  9
$TDCREATE
 40
2453580.633342373
  9
$TDUCREATE
 40
2453580.300009039
  9
$TDUPDATE
 40
2453584.698057176
  9
$TDUUPDATE
 40
2453584.364723843
  9
$TDINDWG
 40
0.1354020139
  9
$TDUSRTIMER
 40
0.1354020139
  9
$USRTIMER
 70
     1
  9
$ANGBASE
 50
0.0
  9
$ANGDIR
 70
     0
  9
$PDMODE
 70
     0
  9
$PDSIZE
 40
0.0
  9
$PLINEWID
 40
0.0
  9
$SPLFRAME
 70
     0
  9
$SPLINETYPE
 70
     6
  9
$SPLINESEGS
 70
     8
  9
$HANDSEED
  5
3353
  9
$SURFTAB1
 70
     6
  9
$SURFTAB2
 70
     6
  9
$SURFTYPE
 70
     6
  9
$SURFU
 70
     6
  9
$SURFV
 70
     6
  9
$UCSBASE
  2

  9
$UCSNAME
  2

  9
$UCSORG
 10
0.0
 20
0.0
 30
0.0
  9
$UCSXDIR
 10
1.0
 20
0.0
 30
0.0
  9
$UCSYDIR
 10
0.0
 20
1.0
 30
0.0
  9
$UCSORTHOREF
  2

  9
$UCSORTHOVIEW
 70
     0
  9
$UCSORGTOP
 10
0.0
 20
0.0
 30
0.0
  9
$UCSORGBOTTOM
 10
0.0
 20
0.0
 30
0.0
  9
$UCSORGLEFT
 10
0.0
 20
0.0
 30
0.0
  9
$UCSORGRIGHT
 10
0.0
 20
0.0
 30
0.0
  9
$UCSORGFRONT
 10
0.0
 20
0.0
 30
0.0
  9
$UCSORGBACK
 10
0.0
 20
0.0
 30
0.0
  9
$PUCSBASE
  2

  9
$PUCSNAME
  2

  9
$PUCSORG
 10
0.0
 20
0.0
 30
0.0
  9
$PUCSXDIR
 10
1.0
 20
0.0
 30
0.0
  9
$PUCSYDIR
 10
0.0
 20
1.0
 30
0.0
  9
$PUCSORTHOREF
  2

  9
$PUCSORTHOVIEW
 70
     0
  9
$PUCSORGTOP
 10
0.0
 20
0.0
 30
0.0
  9
$PUCSORGBOTTOM
 10
0.0
 20
0.0
 30
0.0
  9
$PUCSORGLEFT
 10
0.0
 20
0.0
 30
0.0
  9
$PUCSORGRIGHT
 10
0.0
 20
0.0
 30
0.0
  9
$PUCSORGFRONT
 10
0.0
 20
0.0
 30
0.0
  9
$PUCSORGBACK
 10
0.0
 20
0.0
 30
0.0
  9
$USERI1
 70
     0
  9
$USERI2
 70
     0
  9
$USERI3
 70
     0
  9
$USERI4
 70
     0
  9
$USERI5
 70
     0
  9
$USERR1
 40
0.0
  9
$USERR2
 40
0.0
  9
$USERR3
 40
0.0
  9
$USERR4
 40
0.0
  9
$USERR5
 40
0.0
  9
$WORLDVIEW
 70
     1
  9
$SHADEDGE
 70
     3
  9
$SHADEDIF
 70
    70
  9
$TILEMODE
 70
     1
  9
$MAXACTVP
 70
    64
  9
$PINSBASE
 10
0.0
 20
0.0
 30
0.0
  9
$PLIMCHECK
 70
     0
  9
$PEXTMIN
 10
1.000000000000000E+20
 20
1.000000000000000E+20
 30
1.000000000000000E+20
  9
$PEXTMAX
 10
-1.000000000000000E+20
 20
-1.000000000000000E+20
 30
-1.000000000000000E+20
  9
$PLIMMIN
 10
0.0
 20
0.0
  9
$PLIMMAX
 10
420.0
 20
297.0
  9
$UNITMODE
 70
     0
  9
$VISRETAIN
 70
     1
  9
$PLINEGEN
 70
     0
  9
$PSLTSCALE
 70
     1
  9
$TREEDEPTH
 70
  3020
  9
$CMLSTYLE
  2
Standard
  9
$CMLJUST
 70
     0
  9
$CMLSCALE
 40
20.0
  9
$PROXYGRAPHICS
 70
     1
  9
$MEASUREMENT
 70
     1
  9
$CELWEIGHT
370
    -1
  9
$ENDCAPS
280
     0
  9
$JOINSTYLE
280
     0
  9
$LWDISPLAY
290
     0
  9
$INSUNITS
 70
     4
  9
$HYPERLINKBASE
  1

  9
$STYLESHEET
  1
彩色出圖.ctb
  9
$XEDIT
290
     1
  9
$CEPSNTYPE
380
     0
  9
$PSTYLEMODE
290
     1
  9
$FINGERPRINTGUID
  2
{B9E4BE39-A089-470C-A359-98F2256325D3}
  9
$VERSIONGUID
  2
{1B773477-9A8E-420B-9212-5D864AFA284F}
  9
$EXTNAMES
290
     1
  9
$PSVPSCALE
 40
0.0
  9
$OLESTARTUP
290
     0
  0
ENDSEC
  0
SECTION
  2
CLASSES
  0
CLASS
  1
ACDBDICTIONARYWDFLT
  2
AcDbDictionaryWithDefault
  3
ObjectDBX Classes
 90
        0
280
     0
281
     0
  0
CLASS
  1
ACDBPLACEHOLDER
  2
AcDbPlaceHolder
  3
ObjectDBX Classes
 90
        0
280
     0
281
     0
  0
CLASS
  1
LAYOUT
  2
AcDbLayout
  3
ObjectDBX Classes
 90
        0
280
     0
281
     0
  0
CLASS
  1
ACME_DOCUMENT
  2
AcMeDbDoc
  3
AcMeServices
 90
        0
280
     0
281
     0
  0
CLASS
  1
AMGSETTINGSOBJ
  2
AmgSettingsObj
  3
"AcadM|Product Description: AutoCAD Mechanical 2000|Company: Autodesk"
 90
        0
280
     0
281
     0
  0
CLASS
  1
ACMESCOPE
  2
AcMeScope
  3
AcMeServices
 90
        0
280
     0
281
     0
  0
CLASS
  1
ACMECOMMANDHISTORY
  2
AcMeCommandHistory
  3
AcMeServices
 90
        0
280
     0
281
     0
  0
CLASS
  1
ACIMSYSVARMAN
  2
AcImSysVarManager
  3
AcMeServices
 90
        0
280
     0
281
     0
  0
CLASS
  1
ACIMREALSYSVAR
  2
AcImRealSysVar
  3
AcMeServices
 90
        0
280
     0
281
     0
  0
CLASS
  1
ACIMINTSYSVAR
  2
AcImIntSysVar
  3
AcMeServices
 90
        0
280
     0
281
     0
  0
CLASS
  1
ACMEDRAWINGMAN
  2
AcMeDrawingMan
  3
AcMeServices
 90
        0
280
     0
281
     0
  0
CLASS
  1
ACMEVIEW
  2
AcMeView
  3
AcMeServices
 90
        0
280
     0
281
     0
  0
CLASS
  1
ACDBENTITYCACHE
  2
AcMeEntityCache
  3
AcMeServices
 90
        0
280
     0
281
     0
  0
CLASS
  1
GSMANAGER
  2
AcMeGSManager
  3
AcMeServices
 90
        0
280
     0
281
     0
  0
CLASS
  1
AMDTINTERNALREACTOR
  2
AmdtInternalReactor
  3
AcMeServices
 90
        0
280
     0
281
     0
  0
CLASS
  1
ACMESTATEMGR
  2
AcMeStateMgr
  3
AcMeServices
 90
        0
280
     0
281
     0
  0
CLASS
  1
ACGREFMASTER
  2
AcGrefMaster
  3
AcAttribServices
 90
        0
280
     0
281
     0
  0
CLASS
  1
ACME_DATABASE
  2
AcMeDbDatabase
  3
AcMeServices
 90
        0
280
     0
281
     0
  0
CLASS
  1
ACRFINSADJUSTERMGR
  2
AcRfInsAdjusterMgr
  3
AcMeServices
 90
        0
280
     0
281
     0
  0
CLASS
  1
ACGREFACADMASTER
  2
AcGrefacadMaster
  3
AcGrefServices
 90
        0
280
     0
281
     0
  0
CLASS
  1
AMIMASTER
  2
AmiMaster
  3
AmiServices
 90
        0
280
     0
281
     0
  0
CLASS
  1
ACMDATADICTIONARY
  2
AcmDataDictionary
  3
"AcmSymBB|Product Description: AutoCAD Mechanical 2004 DX|Company: Autodesk"
 90
        0
280
     0
281
     0
  0
CLASS
  1
ACMDATAENTRYBLOCK
  2
AcmDataEntryBlock
  3
"AcmSymBB|Product Description: AutoCAD Mechanical 2004 DX|Company: Autodesk"
 90
        0
280
     0
281
     0
  0
CLASS
  1
ACIMSTRSYSVAR
  2
AcImStrSysVar
  3
AcMeServices
 90
        0
280
     0
281
     0
  0
CLASS
  1
ACMSTANDARDISO
  2
AcmStandardISO
  3
"Amdt_StdImp|Product Description: AutoCAD Mechanical 2004 DX|Company: Autodesk"
 90
        0
280
     0
281
     0
  0
CLASS
  1
AMGOBJPROPCFG
  2
AmgObjPropCfg
  3
"AmgLay|Product Description: AutoCAD Mechanical 2000|Company: Autodesk"
 90
        1
280
     0
281
     0
  0
CLASS
  1
AMDTEDGESTANDARDISO
  2
AmdtEdgeStdISO
  3
"Amdt_StdImp|Product Description: AutoCAD Mechanical 2004 DX|Company: Autodesk"
 90
        0
280
     0
281
     0
  0
CLASS
  1
ACMSURFSTANDARDISO
  2
AcmSurfTextStdISO
  3
"Amdt_StdImp|Product Description: AutoCAD Mechanical 2004 DX|Company: Autodesk"
 90
        0
280
     0
281
     0
  0
CLASS
  1
ACMFCFSTANDARDISO
  2
AcmFCFStdISO
  3
"Amdt_StdImp|Product Description: AutoCAD Mechanical 2004 DX|Company: Autodesk"
 90
        0
280
     0
281
     0
  0
CLASS
  1
ACMWELDSTANDARDISO
  2
AcmWeldingStdISO
  3
"Amdt_StdImp|Product Description: AutoCAD Mechanical 2004 DX|Company: Autodesk"
 90
        0
280
     0
281
     0
  0
CLASS
  1
ACMIDSTANDARDISO
  2
AcmIdStdISO
  3
"Amdt_StdImp|Product Description: AutoCAD Mechanical 2004 DX|Company: Autodesk"
 90
        0
280
     0
281
     0
  0
CLASS
  1
ACMDATUMSTANDARDISO
  2
AcmDatumStdISO
  3
"Amdt_StdImp|Product Description: AutoCAD Mechanical 2004 DX|Company: Autodesk"
 90
        0
280
     0
281
     0
  0
CLASS
  1
ACMBOMSTANDARDISO
  2
AcmBOMStdISO
  3
"Amdt_StdImp|Product Description: AutoCAD Mechanical 2004 DX|Company: Autodesk"
 90
        0
280
     0
281
     0
  0
CLASS
  1
ACMDETAILSTANDARDISO
  2
AmdtDetailSymStdISO
  3
"Amdt_StdImp|Product Description: AutoCAD Mechanical 2004 DX|Company: Autodesk"
 90
        0
280
     0
281
     0
  0
CLASS
  1
ACMSECTIONSTANDARDISO
  2
AmdtSectionSymStdISO
  3
"Amdt_StdImp|Product Description: AutoCAD Mechanical 2004 DX|Company: Autodesk"
 90
        0
280
     0
281
     0
  0
CLASS
  1
ACMCENTERLINESTANDARDISO
  2
AmdtCenterLineStdISO
  3
"Amdt_StdImp|Product Description: AutoCAD Mechanical 2004 DX|Company: Autodesk"
 90
        0
280
     0
281
     0
  0
CLASS
  1
ACMNOTESTANDARDISO
  2
AmdtNoteStdISO
  3
"Amdt_StdImp|Product Description: AutoCAD Mechanical 2004 DX|Company: Autodesk"
 90
        0
280
     0
281
     0
  0
CLASS
  1
ACAMGLAYSTD
  2
AcAmgLayStd
  3
"AcAmgLayStd|Product Description: AutoCAD Mechanical 2000|Company: Autodesk"
 90
        0
280
     0
281
     0
  0
CLASS
  1
ACAMGDIMSTD
  2
AcAmgDimStd
  3
"AcAmgDimStd|Product Description: AutoCAD Mechanical 2000|Company: Autodesk"
 90
        0
280
     0
281
     0
  0
CLASS
  1
ACAMGHOLECHARTSTDISO
  2
AcAmgHoleChartStdISO
  3
ACMSYMBB_MODULE_NAME
 90
        0
280
     0
281
     0
  0
CLASS
  1
ACAMGTITLESTD
  2
AcAmgTitleStd
  3
"TITLEAPP"
 90
        0
280
     0
281
     0
  0
CLASS
  1
LAYER_INDEX
  2
AcDbLayerIndex
  3
ObjectDBX Classes
 90
    32768
280
     0
281
     0
  0
CLASS
  1
IDBUFFER
  2
AcDbIdBuffer
  3
ObjectDBX Classes
 90
    32768
280
     0
281
     0
  0
CLASS
  1
DICTIONARYVAR
  2
AcDbDictionaryVar
  3
ObjectDBX Classes
 90
        0
280
     0
281
     0
  0
CLASS
  1
AM_DRAWING_MGR
  2
AcDmDwgMgr
  3
AcMechDwgViewMgmt
 90
        0
280
     0
281
     0
  0
CLASS
  1
AM_DWG_DOCUMENT
  2
AcDmDwgDocument
  3
AcMechDwgViewMgmt
 90
        0
280
     0
281
     0
  0
CLASS
  1
AM_DWG_SHEET
  2
AcDmSheet
  3
AcMechDwgViewMgmt
 90
        0
280
     0
281
     0
  0
CLASS
  1
AM_VIEWDIMPARMAP
  2
AcDmViewDimParMap
  3
AcMechDwgViewMgmt
 90
        0
280
     0
281
     0
  0
CLASS
  1
AM_DWGMGR_NAME
  2
AcDmDwgMgrName
  3
AcMechDwgViewMgmt
 90
        0
280
     0
281
     0
  0
CLASS
  1
AMDTMENUSTATEMGR
  2
AmdtMenuStateMgr
  3
McadcomServices
 90
        0
280
     0
281
     0
  0
CLASS
  1
AMDTMCOMMENUSTATE
  2
AmdtMcomMenuState
  3
McadcomServices
 90
        0
280
     0
281
     0
  0
CLASS
  1
MAPIAMMOUDLE
  2
MApiAmModule
  3
MApiAmServices
 90
        0
280
     0
281
     0
  0
CLASS
  1
AMDTADMENUSTATE
  2
AmdtAdMenuState
  3
DesignerServices
 90
        0
280
     0
281
     0
  0
CLASS
  1
ADAPPL
  2
AcAdAppl
  3
DesignerServices
 90
        0
280
     0
281
     0
  0
CLASS
  1
DEPMGR
  2
AcAdDepMgr
  3
DesignerServices
 90
        0
280
     0
281
     0
  0
CLASS
  1
PARAMMGR
  2
AcAdParamMgr
  3
DesignerServices
 90
        0
280
     0
281
     0
  0
CLASS
  1
PARAMSCOPE
  2
AcAdParamScope
  3
DesignerServices
 90
        0
280
     0
281
     0
  0
CLASS
  1
NAMEDAPPL
  2
AcAdNamedAppl
  3
DesignerServices
 90
        0
280
     0
281
     0
  0
CLASS
  1
AMDTDMMENUSTATE
  2
AmdtDmMenuState
  3
AcMechDwgViewMgmt
 90
        0
280
     0
281
     0
  0
CLASS
  1
AMDTAMMENUSTATE
  2
AmdtAmMenuState
  3
DesignerAssemblies
 90
        0
280
     0
281
     0
  0
CLASS
  1
ACAMPROJECT
  2
AcAmProject
  3
DesignerAssemblies
 90
        0
280
     0
281
     0
  0
CLASS
  1
ACAMGRCOMPDEF
  2
AcAmGrCompDef
  3
DesignerAssemblies
 90
        0
280
     0
281
     0
  0
CLASS
  1
ACCMCONTEXT
  2
AcCmContext
  3
DesignerAssemblies
 90
        0
280
     0
281
     0
  0
CLASS
  1
ACAMCOMPDEF
  2
AcAmCompDef
  3
DesignerAssemblies
 90
        0
280
     0
281
     0
  0
CLASS
  1
ACAMCOMPDEFMGR
  2
AcAmCompDefMgr
  3
DesignerAssemblies
 90
        0
280
     0
281
     0
  0
CLASS
  1
AMCONTEXTMGR
  2
AcAmContextMgr
  3
DesignerAssemblies
 90
        0
280
     0
281
     0
  0
CLASS
  1
ACAMCONTEXTMODELER
  2
AcAmContextModeler
  3
DesignerAssemblies
 90
        0
280
     0
281
     0
  0
CLASS
  1
ACMTHREADLINESTANDARDISO
  2
AmdtThreadLineStdISO
  3
"Amdt_StdImp|Product Description: AutoCAD Mechanical 2004 DX|Company: Autodesk"
 90
        0
280
     0
281
     0
  0
CLASS
  1
CATALOGSTATE
  2
AcAmCatalogState
  3
DesignerAssemblies
 90
        0
280
     0
281
     0
  0
CLASS
  1
ACAMGRCOMPDEFSET
  2
AcAmGrCompDefSet
  3
DesignerAssemblies
 90
        0
280
     0
281
     0
  0
CLASS
  1
AMDTBROWSERDBTAB
  2
AmdtBrowserDbTab
  3
McadcomServices
 90
        0
280
     0
281
     0
  0
CLASS
  1
CBROWSERAPPOBJECT
  2
CBrowserAppObject
  3
McadcomServices
 90
        0
280
     0
281
     0
  0
CLASS
  1
DM_PLACEHOLDER
  2
AcDmSelsetPlaceholder
  3
AcMechDwgViewMgmt
 90
        0
280
     0
281
     0
  0
CLASS
  1
TABLESTYLE
  2
AcDbTableStyle
  3
ObjectDBX Classes
 90
     2047
280
     0
281
     0
  0
CLASS
  1
VAACXREFPANELOBJECT
  2
VaAcXREFPanelObject
  3
VAAC_ADDIN
 90
    32768
280
     0
281
     0
  0
CLASS
  1
VAACIMAGEINVENTORY
  2
VaAcImageInventory
  3
VAAC_ADDIN
 90
    32768
280
     0
281
     0
  0
CLASS
  1
AMDTNOTETEMPLATEDB
  2
AmdtNoteTemplateDB
  3
AMDT_STDIMP_MODULE_NAME
 90
        0
280
     0
281
     0
  0
CLASS
  1
ACMBOM
  2
AcmBom
  3
"AcmSymBB|Product Description: AutoCAD Mechanical 2004 DX|Company: Autodesk"
 90
    32768
280
     0
281
     0
  0
CLASS
  1
AMDTFORMULAUPDATEDISPATCHER
  2
AmdtFormulaUpdateDispatcher
  3
AcMeServices
 90
    32768
280
     0
281
     0
  0
CLASS
  1
ACMPARTLIST
  2
AcmPartList
  3
"AcmSymBB|Product Description: AutoCAD Mechanical 2004 DX|Company: Autodesk"
 90
    33791
280
     0
281
     1
  0
CLASS
  1
ACAMGFILTERDAT
  2
AcAmgFilterDat
  3
"AcadM|Product Description: AutoCAD Mechanical 2000|Company: Autodesk"
 90
        0
280
     0
281
     0
  0
CLASS
  1
DIMASSOC
  2
AcDbDimAssoc
  3
"AcDbDimAssoc|Product Desc:     AcDim ARX App For Dimension|Company:          Autodesk, Inc.|WEB Address:      www.autodesk.com"
 90
        0
280
     0
281
     0
  0
CLASS
  1
SORTENTSTABLE
  2
AcDbSortentsTable
  3
ObjectDBX Classes
 90
        0
280
     0
281
     0
  0
CLASS
  1
AMDTNOTE
  2
AmdtNote
  3
"AcmSymBB|Product Description: AutoCAD Mechanical 2004 DX|Company: Autodesk"
 90
     1023
280
     0
281
     1
  0
CLASS
  1
STDPART2D
  2
AmgStdPart
  3
"AmgStdPart|Product Description: AutoCAD Mechanical 2000|Company: Autodesk"
 90
    33791
280
     0
281
     1
  0
CLASS
  1
ACAMSTDPCOMPDEF
  2
AcAmStdpCompDef
  3
DesignerAssemblies
 90
    32768
280
     0
281
     0
  0
CLASS
  1
ACRFATTGENMGR
  2
AcRfAttGeneralMgr
  3
AcAttribServices
 90
        0
280
     0
281
     0
  0
CLASS
  1
ACRFOBJATTMGR
  2
AcRfObjAttGroupMgr
  3
AcAttribServices
 90
    32768
280
     0
281
     0
  0
CLASS
  1
ACRFMCADAPIATTHOLDER
  2
AcRfMCADAPIAttHolder
  3
AcAttribServices
 90
    32768
280
     0
281
     0
  0
CLASS
  1
AMDTSYSATTR
  2
AmdtSystemAttribute
  3
AcAttribServices
 90
    32768
280
     0
281
     0
  0
CLASS
  1
ACAMCOMP
  2
AcAmComp
  3
DesignerAssemblies
 90
    32768
280
     0
281
     0
  0
CLASS
  1
AC_AM_STDP_VIEW_DEF
  2
AcAmStdpViewDef
  3
DesignerAssemblies
 90
    32768
280
     0
281
     0
  0
CLASS
  1
AC_AM_MVD_DEP_MGR
  2
AcAmMVDdepMgr
  3
DesignerAssemblies
 90
        0
280
     0
281
     0
  0
CLASS
  1
AC_AM_MASTER_VIEW_DEF
  2
AcAmMasterViewDef
  3
DesignerAssemblies
 90
        0
280
     0
281
     0
  0
CLASS
  1
AC_AM_DIRTY_NODES
  2
AcAmDirtyNodes
  3
DesignerAssemblies
 90
        0
280
     0
281
     0
  0
CLASS
  1
AC_AM_MAPPER_CACHE
  2
AcAmMapperCache
  3
DesignerAssemblies
 90
        0
280
     0
281
     0
  0
CLASS
  1
ACAMMVDBACKUPOBJECT
  2
AcAmMVDBackupObject
  3
DesignerAssemblies
 90
        0
280
     0
281
     0
  0
CLASS
  1
AC_AM_COMP_VIEW_INST
  2
AcAmCompView
  3
DesignerAssemblies
 90
    32768
280
     0
281
     0
  0
CLASS
  1
AC_AM_2D_XREF_MGR
  2
AcAmXrefMgr2d
  3
DesignerAssemblies
 90
        0
280
     0
281
     0
  0
CLASS
  1
ACMSTANDARDANSI
  2
AcmStandardANSI
  3
"Amdt_StdImp|Product Description: AutoCAD Mechanical 2004 DX|Company: Autodesk"
 90
        0
280
     0
281
     0
  0
CLASS
  1
ACMSURFSTANDARDANSI
  2
AcmSurfTextStdANSI
  3
"Amdt_StdImp|Product Description: AutoCAD Mechanical 2004 DX|Company: Autodesk"
 90
        0
280
     0
281
     0
  0
CLASS
  1
ACMFCFSTANDARDANSI
  2
AcmFCFStdANSI
  3
"Amdt_StdImp|Product Description: AutoCAD Mechanical 2004 DX|Company: Autodesk"
 90
        0
280
     0
281
     0
  0
CLASS
  1
ACMWELDSTANDARDANSI
  2
AcmWeldingStdANSI
  3
"Amdt_StdImp|Product Description: AutoCAD Mechanical 2004 DX|Company: Autodesk"
 90
        0
280
     0
281
     0
  0
CLASS
  1
ACMIDSTANDARDANSI
  2
AcmIdStdANSI
  3
"Amdt_StdImp|Product Description: AutoCAD Mechanical 2004 DX|Company: Autodesk"
 90
        0
280
     0
281
     0
  0
CLASS
  1
ACMDATUMSTANDARDANSI
  2
AcmDatumStdANSI
  3
"Amdt_StdImp|Product Description: AutoCAD Mechanical 2004 DX|Company: Autodesk"
 90
        0
280
     0
281
     0
  0
CLASS
  1
ACMBOMSTANDARDANSI
  2
AcmBOMStdANSI
  3
"Amdt_StdImp|Product Description: AutoCAD Mechanical 2004 DX|Company: Autodesk"
 90
        0
280
     0
281
     0
  0
CLASS
  1
ACMDETAILSTANDARDANSI
  2
AmdtDetailSymStdANSI
  3
"Amdt_StdImp|Product Description: AutoCAD Mechanical 2004 DX|Company: Autodesk"
 90
        0
280
     0
281
     0
  0
CLASS
  1
ACMSECTIONSTANDARDANSI
  2
AmdtSectionSymStdANSI
  3
"Amdt_StdImp|Product Description: AutoCAD Mechanical 2004 DX|Company: Autodesk"
 90
        0
280
     0
281
     0
  0
CLASS
  1
ACMCENTERLINESTANDARDANSI
  2
AmdtCenterLineStdANSI
  3
"Amdt_StdImp|Product Description: AutoCAD Mechanical 2004 DX|Company: Autodesk"
 90
        0
280
     0
281
     0
  0
CLASS
  1
ACMTHREADLINESTANDARDANSI
  2
AmdtThreadLineStdANSI
  3
"Amdt_StdImp|Product Description: AutoCAD Mechanical 2004 DX|Company: Autodesk"
 90
        0
280
     0
281
     0
  0
CLASS
  1
ACMNOTESTANDARDANSI
  2
AmdtNoteStdANSI
  3
"Amdt_StdImp|Product Description: AutoCAD Mechanical 2004 DX|Company: Autodesk"
 90
        0
280
     0
281
     0
  0
CLASS
  1
ACAMGHOLECHARTSTDANSI
  2
AcAmgHoleChartStdANSI
  3
ACMSYMBB_MODULE_NAME
 90
        0
280
     0
281
     0
  0
ENDSEC
  0
SECTION
  2
TABLES
  0
TABLE
  2
VPORT
  5
8
330
0
100
AcDbSymbolTable
 70
     3
  0
VPORT
  5
334A
330
8
100
AcDbSymbolTableRecord
100
AcDbViewportTableRecord
  2
*Active
 70
     0
 10
0.0
 20
0.0
 11
1.0
 21
1.0
 12
1972.652088307727
 22
1017.935703908928
 13
0.0
 23
0.0
 14
2.5
 24
2.5
 15
10.0
 25
10.0
 16
0.0
 26
0.0
 36
1.0
 17
0.0
 27
0.0
 37
0.0
 40
382.7432426489026
 41
1.81766917293233
 42
50.0
 43
0.0
 44
0.0
 50
0.0
 51
0.0
 71
     0
 72
   100
 73
     1
 74
     3
 75
     0
 76
     0
 77
     0
 78
     0
281
     0
 65
     1
110
0.0
120
0.0
130
0.0
111
1.0
121
0.0
131
0.0
112
0.0
122
1.0
132
0.0
 79
     0
146
0.0
  0
ENDTAB
  0
TABLE
  2
LTYPE
  5
5
330
0
100
AcDbSymbolTable
 70
    16
  0
LTYPE
  5
14
330
5
100
AcDbSymbolTableRecord
100
AcDbLinetypeTableRecord
  2
ByBlock
 70
     0
  3

 72
    65
 73
     0
 40
0.0
  0
LTYPE
  5
15
330
5
100
AcDbSymbolTableRecord
100
AcDbLinetypeTableRecord
  2
ByLayer
 70
     0
  3

 72
    65
 73
     0
 40
0.0
  0
LTYPE
  5
16
330
5
100
AcDbSymbolTableRecord
100
AcDbLinetypeTableRecord
  2
Continuous
 70
     0
  3
Solid line
 72
    65
 73
     0
 40
0.0
  0
LTYPE
  5
64
330
5
100
AcDbSymbolTableRecord
100
AcDbLinetypeTableRecord
  2
AM_ISO02W050
 70
     0
  3
__ __ __ __ __ __ __ __ __ __ __ __ __ __ __
 72
    65
 73
     2
 40
7.5
 49
6.0
 74
     0
 49
-1.5
 74
     0
  0
LTYPE
  5
65
330
5
100
AcDbSymbolTableRecord
100
AcDbLinetypeTableRecord
  2
AM_ISO08W050
 70
     0
  3
____ . ____ . ____ . ____ . ____ . ____ . ____
 72
    65
 73
     4
 40
18.0
 49
12.0
 74
     0
 49
-1.5
 74
     0
 49
3.0
 74
     0
 49
-1.5
 74
     0
  0
LTYPE
  5
66
330
5
100
AcDbSymbolTableRecord
100
AcDbLinetypeTableRecord
  2
AM_ISO09W050
 70
     0
  3
_____ . . _____ . . _____ . . ____ .. ____
 72
    65
 73
     6
 40
22.5
 49
12.0
 74
     0
 49
-1.5
 74
     0
 49
3.0
 74
     0
 49
-1.5
 74
     0
 49
3.0
 74
     0
 49
-1.5
 74
     0
  0
LTYPE
  5
67
330
5
100
AcDbSymbolTableRecord
100
AcDbLinetypeTableRecord
  2
Amconstr
 70
     0
  3
_______________________
 72
    65
 73
     2
 40
9999.0
 49
9999.0
 74
     0
 49
0.0
 74
     0
  0
LTYPE
  5
68
330
5
100
AcDbSymbolTableRecord
100
AcDbLinetypeTableRecord
  2
AM_ISO08W050x2
 70
     0
  3
__ . __ . __ . __ . __ . __
 72
    65
 73
     4
 40
9.0
 49
6.0
 74
     0
 49
-0.75
 74
     0
 49
1.5
 74
     0
 49
-0.75
 74
     0
  0
LTYPE
  5
69
330
5
100
AcDbSymbolTableRecord
100
AcDbLinetypeTableRecord
  2
AM_ISO02W050x2
 70
     0
  3
 _ _ _ _ _ _ _ _ _ _ _ _
 72
    65
 73
     2
 40
3.75
 49
3.0
 74
     0
 49
-0.75
 74
     0
  0
LTYPE
  5
6C
330
5
100
AcDbSymbolTableRecord
100
AcDbLinetypeTableRecord
  2
Amzigzag
 70
     0
  3
/\/-/\/-/\/-/\/-/\/-/\/
 72
    65
 73
     2
 40
11.0001
 49
0.0001
 74
     4
 75
   135
340
6B
 46
0.04
 50
0.0
 44
0.0
 45
0.0
 49
-11.0
 74
     0
  0
LTYPE
  5
7A
330
5
100
AcDbSymbolTableRecord
100
AcDbLinetypeTableRecord
  2
ACISOWELD
 70
     0
  3
_ _ _ _ _
 72
    65
 73
     2
 40
2.0
 49
2.0
 74
     0
 49
-1.0
 74
     0
  0
LTYPE
  5
7B
330
5
100
AcDbSymbolTableRecord
100
AcDbLinetypeTableRecord
  2
ACISOTGB
 70
     0
  3
__ . . __ . .
 72
    65
 73
     6
 40
9.0
 49
4.0
 74
     0
 49
-1.0
 74
     0
 49
1.0
 74
     0
 49
-1.0
 74
     0
 49
1.0
 74
     0
 49
-1.0
 74
     0
  0
LTYPE
  5
7C
330
5
100
AcDbSymbolTableRecord
100
AcDbLinetypeTableRecord
  2
ACISOTGL
 70
     0
  3
_ _ _ _ _
 72
    65
 73
     2
 40
3.0
 49
2.0
 74
     0
 49
-1.0
 74
     0
  0
LTYPE
  5
7E
330
5
100
AcDbSymbolTableRecord
100
AcDbLinetypeTableRecord
  2
CENTER
 70
     0
  3
__ . __
 72
    65
 73
     4
 40
7.0
 49
4.0
 74
     0
 49
-1.0
 74
     0
 49
1.0
 74
     0
 49
-1.0
 74
     0
  0
LTYPE
  5
D8
330
5
100
AcDbSymbolTableRecord
100
AcDbLinetypeTableRecord
  2
HIDDEN
 70
     0
  3
Hidden __ __ __ __ __ __ __ __ __ __ __ __ __ _
 72
    65
 73
     2
 40
9.524999999999998
 49
6.349999999999999
 74
     0
 49
-3.174999999999999
 74
     0
  0
LTYPE
  5
D9
330
5
100
AcDbSymbolTableRecord
100
AcDbLinetypeTableRecord
  2
PHANTOM2
 70
     0
  3
Phantom (.5x) ___ _ _ ___ _ _ ___ _ _ ___ _ _
 72
    65
 73
     6
 40
31.75
 49
15.875
 74
     0
 49
-3.174999999999999
 74
     0
 49
3.174999999999999
 74
     0
 49
-3.174999999999999
 74
     0
 49
3.174999999999999
 74
     0
 49
-3.174999999999999
 74
     0
  0
LTYPE
  5
1B32
330
5
100
AcDbSymbolTableRecord
100
AcDbLinetypeTableRecord
  2
ACANSTGB
 70
     0
  3
__ . . __ . .
 72
    65
 73
     6
 40
0.35433070866
 49
0.15748031496
 74
     0
 49
-0.03937007874
 74
     0
 49
0.03937007874
 74
     0
 49
-0.03937007874
 74
     0
 49
0.03937007874
 74
     0
 49
-0.03937007874
 74
     0
  0
LTYPE
  5
1B33
330
5
100
AcDbSymbolTableRecord
100
AcDbLinetypeTableRecord
  2
ACANSTGL
 70
     0
  3
_ _ _ _ _
 72
    65
 73
     2
 40
0.11811023622
 49
0.07874015748
 74
     0
 49
-0.03937007874
 74
     0
  0
ENDTAB
  0
TABLE
  2
LAYER
  5
2
102
{ACAD_XDICTIONARY
360
3F9
102
}
330
0
100
AcDbSymbolTable
 70
     8
  0
LAYER
  5
10
330
2
100
AcDbSymbolTableRecord
100
AcDbLayerTableRecord
  2
0
 70
     0
 62
     7
  6
Continuous
370
    -3
390
F
  0
LAYER
  5
206
330
2
100
AcDbSymbolTableRecord
100
AcDbLayerTableRecord
  2
Defpoints
 70
     0
 62
     7
  6
Continuous
290
     0
370
    -3
390
F
  0
LAYER
  5
5AE
330
2
100
AcDbSymbolTableRecord
100
AcDbLayerTableRecord
  2
AM_7
 70
     0
 62
     1
  6
CENTER
370
    25
390
F
  0
LAYER
  5
71A
330
2
100
AcDbSymbolTableRecord
100
AcDbLayerTableRecord
  2
LOGO
 70
     0
 62
     7
  6
Continuous
370
    -3
390
F
  0
LAYER
  5
84F
330
2
100
AcDbSymbolTableRecord
100
AcDbLayerTableRecord
  2
AM_VIS
 70
     0
 62
     7
  6
Continuous
370
    50
390
F
  0
LAYER
  5
850
330
2
100
AcDbSymbolTableRecord
100
AcDbLayerTableRecord
  2
AM_4
 70
     0
 62
     3
  6
Continuous
370
    25
390
F
  0
LAYER
  5
851
330
2
100
AcDbSymbolTableRecord
100
AcDbLayerTableRecord
  2
AM_0
 70
     0
 62
     7
  6
Continuous
370
    50
390
F
  0
LAYER
  5
B99
330
2
100
AcDbSymbolTableRecord
100
AcDbLayerTableRecord
  2
AM_5
 70
     0
 62
     5
  6
Continuous
370
    50
390
F
  0
ENDTAB
  0
TABLE
  2
STYLE
  5
3
330
0
100
AcDbSymbolTable
 70
     9
  0
STYLE
  5
11
330
3
100
AcDbSymbolTableRecord
100
AcDbTextStyleTableRecord
  2
STANDARD
 70
     0
 40
0.0
 41
1.0
 50
0.0
 71
     0
 42
3.0
  3
ISOCP.SHX
  4
CHINESET.SHX
  0
STYLE
  5
6B
330
3
100
AcDbSymbolTableRecord
100
AcDbTextStyleTableRecord
  2

 70
     1
 40
0.0
 41
1.0
 50
0.0
 71
     0
 42
2.5
  3
ltypeshp.shx
  4

  0
STYLE
  5
6D
330
3
100
AcDbSymbolTableRecord
100
AcDbTextStyleTableRecord
  2
ACISOTS
 70
     0
 40
1.0
 41
1.0
 50
0.0
 71
     0
 42
1.0
  3
isocp.shx
  4
chineset.shx
  0
STYLE
  5
79
330
3
100
AcDbSymbolTableRecord
100
AcDbTextStyleTableRecord
  2
ACISOGDT
 70
     0
 40
0.0
 41
1.0
 50
0.0
 71
     0
 42
2.5
  3
amgdt.shx
  4
chineset.shx
  0
STYLE
  5
60C
330
3
100
AcDbSymbolTableRecord
100
AcDbTextStyleTableRecord
  2
CHINESET
 70
     0
 40
0.0
 41
1.0
 50
0.0
 71
     0
 42
3.0
  3
simplex.shx
  4
CHINESET.SHX
  0
STYLE
  5
F6A
330
3
100
AcDbSymbolTableRecord
100
AcDbTextStyleTableRecord
  2
DAYUS
 70
     0
 40
0.0
 41
1.0
 50
0.0
 71
     0
 42
2.5
  3
simplex.shx
  4
dayus.shx
  0
STYLE
  5
1B34
330
3
100
AcDbSymbolTableRecord
100
AcDbTextStyleTableRecord
  2
ACANSTS
 70
     0
 40
1.0
 41
1.0
 50
0.0
 71
     0
 42
2.0
  3
romans.shx
  4
chineset.shx
  0
STYLE
  5
1B35
330
3
100
AcDbSymbolTableRecord
100
AcDbTextStyleTableRecord
  2
ACANSGDT
 70
     0
 40
0.0
 41
1.0
 50
0.0
 71
     0
 42
2.0
  3
amgdtans.shx
  4

  0
ENDTAB
  0
TABLE
  2
VIEW
  5
6
330
0
100
AcDbSymbolTable
 70
     0
  0
ENDTAB
  0
TABLE
  2
UCS
  5
7
330
0
100
AcDbSymbolTable
 70
     0
  0
ENDTAB
  0
TABLE
  2
APPID
  5
9
330
0
100
AcDbSymbolTable
 70
    28
  0
APPID
  5
12
330
9
100
AcDbSymbolTableRecord
100
AcDbRegAppTableRecord
  2
ACAD
 70
     0
  0
APPID
  5
46
330
9
100
AcDbSymbolTableRecord
100
AcDbRegAppTableRecord
  2
MCAD_NO_VIS
 70
     0
  0
APPID
  5
47
330
9
100
AcDbSymbolTableRecord
100
AcDbRegAppTableRecord
  2
ACAD_TEMP_GRAPHIC
 70
     0
  0
APPID
  5
58
330
9
100
AcDbSymbolTableRecord
100
AcDbRegAppTableRecord
  2
ACATTRIBSERVICES
 70
     0
  0
APPID
  5
EE
330
9
100
AcDbSymbolTableRecord
100
AcDbRegAppTableRecord
  2
AD_DRAW
 70
     0
  0
APPID
  5
10C
330
9
100
AcDbSymbolTableRecord
100
AcDbRegAppTableRecord
  2
DESIGNERASSEMBLIES
 70
     0
  0
APPID
  5
111
330
9
100
AcDbSymbolTableRecord
100
AcDbRegAppTableRecord
  2
ACADM_DIM_EDIT
 70
     0
  0
APPID
  5
112
330
9
100
AcDbSymbolTableRecord
100
AcDbRegAppTableRecord
  2
AMDT_DM_ADJ
 70
     0
  0
APPID
  5
22C
330
9
100
AcDbSymbolTableRecord
100
AcDbRegAppTableRecord
  2
ACAD_DSTYLE_DIMTEXT_FILL
 70
     0
  0
APPID
  5
452
330
9
100
AcDbSymbolTableRecord
100
AcDbRegAppTableRecord
  2
GENIUS_GENOENT_13
 70
     0
  0
APPID
  5
453
330
9
100
AcDbSymbolTableRecord
100
AcDbRegAppTableRecord
  2
GENIUS_GENOBJ-N-CRS_13
 70
     0
  0
APPID
  5
454
330
9
100
AcDbSymbolTableRecord
100
AcDbRegAppTableRecord
  2
GENIUS_GENOLIS_13
 70
     0
  0
APPID
  5
455
330
9
100
AcDbSymbolTableRecord
100
AcDbRegAppTableRecord
  2
GENIUS_GENODEF_13
 70
     0
  0
APPID
  5
456
330
9
100
AcDbSymbolTableRecord
100
AcDbRegAppTableRecord
  2
GENIUS_GENOREF_13
 70
     0
  0
APPID
  5
6F3
330
9
100
AcDbSymbolTableRecord
100
AcDbRegAppTableRecord
  2
ACAD_PSEXT
 70
     0
  0
APPID
  5
71B
330
9
100
AcDbSymbolTableRecord
100
AcDbRegAppTableRecord
  2
GENIUS_GENREC_14
 70
     0
  0
APPID
  5
71C
330
9
100
AcDbSymbolTableRecord
100
AcDbRegAppTableRecord
  2
GENIUS_GENOBJ-N-REC_13
 70
     0
  0
APPID
  5
1340
330
9
100
AcDbSymbolTableRecord
100
AcDbRegAppTableRecord
  2
GEVID1122707684
 70
     0
  0
APPID
  5
1341
330
9
100
AcDbSymbolTableRecord
100
AcDbRegAppTableRecord
  2
GEVDC
 70
     0
  0
APPID
  5
1342
330
9
100
AcDbSymbolTableRecord
100
AcDbRegAppTableRecord
  2
GEVRADREF
 70
     0
  0
APPID
  5
134B
330
9
100
AcDbSymbolTableRecord
100
AcDbRegAppTableRecord
  2
AMG_2DHIDE
 70
     0
  0
APPID
  5
134C
330
9
100
AcDbSymbolTableRecord
100
AcDbRegAppTableRecord
  2
AMG_2DSTRUCT_BTR
 70
     0
  0
APPID
  5
135D
330
9
100
AcDbSymbolTableRecord
100
AcDbRegAppTableRecord
  2
ACADM_2DVIEW_IGN_NOTIFY
 70
     0
  0
APPID
  5
1463
330
9
100
AcDbSymbolTableRecord
100
AcDbRegAppTableRecord
  2
GEVID1122707685
 70
     0
  0
APPID
  5
14AD
330
9
100
AcDbSymbolTableRecord
100
AcDbRegAppTableRecord
  2
GEVID1122707686
 70
     0
  0
APPID
  5
1577
330
9
100
AcDbSymbolTableRecord
100
AcDbRegAppTableRecord
  2
GENIUS_GENOBJ-N-CEN_13
 70
     0
  0
APPID
  5
1578
330
9
100
AcDbSymbolTableRecord
100
AcDbRegAppTableRecord
  2
GENIUS_GENCEN_19
 70
     0
  0
APPID
  5
17C3
330
9
100
AcDbSymbolTableRecord
100
AcDbRegAppTableRecord
  2
GENIUS_GENDTOL_13
 70
     0
  0
ENDTAB
  0
TABLE
  2
DIMSTYLE
  5
A
330
0
100
AcDbSymbolTable
 70
    17
100
AcDbDimStyleTable
 71
     5
340
81
340
1B36
340
F6C
340
8B
340
86
  0
DIMSTYLE
105
81
102
{ACAD_REACTORS
330
223E
330
2EA7
102
}
330
A
100
AcDbSymbolTableRecord
100
AcDbDimStyleTableRecord
  2
AM_ISO
 70
     0
  4
"
 41
3.0
 42
1.0
 43
8.0
 44
1.5
 47
0.1
 48
0.1
 73
     0
 74
     0
 77
     1
 78
     8
 79
     2
140
3.0
141
0.0
143
0.0393701
146
0.71
147
1.0
172
     1
176
   256
177
   256
178
   256
271
     2
272
     2
283
     2
284
     8
340
11
371
    -1
372
    -1
  0
DIMSTYLE
105
82
330
A
100
AcDbSymbolTableRecord
100
AcDbDimStyleTableRecord
  2
AM_ISO$3
 70
     0
  4
"
 41
3.0
 42
1.0
 43
8.0
 44
1.5
 47
0.1
 48
0.1
 73
     0
 77
     1
 78
     8
 79
     2
140
3.0
141
0.0
143
0.0393701
146
0.71
147
1.0
176
   256
177
   256
178
   256
271
     2
272
     2
283
     2
284
     8
288
     1
289
     0
340
11
371
    -1
372
    -1
  0
DIMSTYLE
105
83
330
A
100
AcDbSymbolTableRecord
100
AcDbDimStyleTableRecord
  2
AM_ISO$4
 70
     0
  4
"
 41
3.0
 42
1.0
 43
8.0
 44
1.5
 47
0.1
 48
0.1
 73
     0
 77
     1
 78
     8
 79
     2
140
3.0
141
0.0
143
0.0393701
146
0.71
147
1.0
176
   256
177
   256
178
   256
271
     2
272
     2
283
     2
284
     8
288
     1
289
     0
340
11
371
    -1
372
    -1
  0
DIMSTYLE
105
84
330
A
100
AcDbSymbolTableRecord
100
AcDbDimStyleTableRecord
  2
AM_ISO$6
 70
     0
  4
"
 41
3.0
 42
1.0
 43
8.0
 44
1.5
 47
0.1
 48
0.1
 73
     0
 74
     0
 78
     8
 79
     2
140
3.0
141
0.0
143
0.0393701
146
0.71
147
1.0
172
     1
176
   256
177
   256
178
   256
271
     2
272
     2
283
     2
284
     8
340
11
371
    -1
372
    -1
  0
DIMSTYLE
105
85
330
A
100
AcDbSymbolTableRecord
100
AcDbDimStyleTableRecord
  2
AM_ISO$7
 70
     0
  4
"
 41
3.0
 42
1.0
 43
8.0
 44
1.5
 47
0.1
 48
0.1
 73
     0
 74
     0
 77
     1
 78
     8
 79
     2
140
5.0
141
0.0
143
0.0393701
146
0.71
147
1.0
172
     1
176
   256
177
   256
178
   256
271
     2
272
     2
283
     2
284
     8
340
11
371
    -1
372
    -1
  0
DIMSTYLE
105
86
330
A
100
AcDbSymbolTableRecord
100
AcDbDimStyleTableRecord
  2
AM_ISO$SF
 70
     0
  4
"
 41
2.5
 42
1.0
 43
10.0
 44
1.0
 47
0.1
 48
0.1
 73
     0
 74
     0
 75
     1
 76
     1
 77
     1
 78
     8
 79
     2
140
3.5
141
0.0
143
0.0393701
146
0.71
147
1.5
172
     1
176
   256
177
   256
178
     2
271
     2
272
     3
274
     4
283
     0
284
     8
340
11
371
    -1
372
    -1
  0
DIMSTYLE
105
8B
330
A
100
AcDbSymbolTableRecord
100
AcDbDimStyleTableRecord
  2
AM_ISO$SH
 70
     0
  4
"
 41
2.5
 42
1.0
 43
10.0
 44
1.0
 47
0.1
 48
0.1
 73
     0
 74
     0
 75
     1
 76
     1
 77
     1
 78
     8
 79
     2
140
3.5
141
0.0
143
0.0393701
144
2.0
146
0.71
147
1.5
172
     1
173
     1
176
   256
177
   256
178
     2
271
     2
272
     3
274
     4
283
     0
284
     8
340
11
343
87
371
    -1
372
    -1
  0
DIMSTYLE
105
40B
102
{ACAD_REACTORS
330
22C1
330
22C4
330
26B2
330
26E1
330
2707
330
2EBA
330
2EBD
330
2EC0
330
2EAC
330
2EAD
102
}
330
A
100
AcDbSymbolTableRecord
100
AcDbDimStyleTableRecord
  2
AM_ISO$0
 70
     0
  4
"
 41
3.0
 42
1.0
 43
8.0
 44
1.5
 47
0.1
 48
0.1
 73
     0
 74
     0
 77
     1
 78
     8
 79
     2
140
3.0
141
0.0
143
0.0393701
146
0.71
147
1.0
172
     1
176
   256
177
   256
178
   256
271
     2
272
     2
283
     2
284
     8
340
11
371
    -1
372
    -1
  0
DIMSTYLE
105
F6C
330
A
100
AcDbSymbolTableRecord
100
AcDbDimStyleTableRecord
  2
AM_ANSI
 70
     0
  4
"
 41
3.0
 42
1.5
 43
8.0
 44
2.0
 47
0.1
 48
0.1
 73
     0
 74
     0
 77
     3
 78
     8
 79
     2
140
3.0
141
0.0
143
0.0393701
146
0.6
147
0.8
172
     1
176
   256
177
   256
178
   256
271
     2
272
     2
284
     8
340
F6A
371
    -1
372
    -1
  0
DIMSTYLE
105
1B36
330
A
100
AcDbSymbolTableRecord
100
AcDbDimStyleTableRecord
  2
AUDIT_I_030306140827-30
 70
     0
 41
3.0
 42
2.0
 43
8.0
 44
2.0
 73
     0
 74
     0
 77
     1
 78
     8
 79
     2
140
3.0
141
-1.0
147
1.0
176
   256
178
   256
271
     2
272
     2
279
     2
340
60C
371
    -1
  0
DIMSTYLE
105
1B37
330
A
100
AcDbSymbolTableRecord
100
AcDbDimStyleTableRecord
  2
AM_ANSI$3
 70
     0
  4
mm
 41
0.1
 42
0.05
 43
0.5
 44
0.1
 47
0.1
 48
0.1
 78
     7
 79
     2
140
0.12
141
0.0
146
0.71
147
0.06
176
   256
177
   256
178
     2
274
     4
284
     7
288
     1
289
     0
340
11
371
    -1
372
    -1
  0
DIMSTYLE
105
1B38
330
A
100
AcDbSymbolTableRecord
100
AcDbDimStyleTableRecord
  2
AM_ANSI$4
 70
     0
  4
mm
 41
0.1
 42
0.05
 43
0.5
 44
0.1
 47
0.1
 48
0.1
 78
     7
 79
     2
140
0.12
141
0.0
146
0.71
147
0.06
176
   256
177
   256
178
     2
274
     4
284
     7
288
     1
289
     0
340
11
371
    -1
372
    -1
  0
DIMSTYLE
105
1B39
330
A
100
AcDbSymbolTableRecord
100
AcDbDimStyleTableRecord
  2
AM_ANSI$7
 70
     0
  4
mm
 41
0.1
 42
0.05
 43
0.5
 44
0.1
 47
0.1
 48
0.1
 78
     7
 79
     2
140
0.24
141
0.0
146
0.71
147
0.06
176
   256
177
   256
178
     2
274
     4
284
     7
340
11
371
    -1
372
    -1
  0
DIMSTYLE
105
1B3A
330
A
100
AcDbSymbolTableRecord
100
AcDbDimStyleTableRecord
  2
AM_ANSI$SF
 70
     0
  4
mm
 41
0.1
 42
0.05
 43
0.5
 44
0.1
 47
0.1
 48
0.1
 75
     1
 76
     1
 78
     7
 79
     2
140
0.12
141
0.0
146
0.71
147
0.06
176
   256
177
   256
178
     2
274
     4
284
     7
340
11
371
    -1
372
    -1
  0
DIMSTYLE
105
1B3B
330
A
100
AcDbSymbolTableRecord
100
AcDbDimStyleTableRecord
  2
AM_ANSI$SH
 70
     0
  4
mm
 41
0.1
 42
0.05
 43
0.5
 44
0.1
 47
0.1
 48
0.1
 75
     1
 76
     1
 78
     7
 79
     2
140
0.12
141
0.0
146
0.71
147
0.06
173
     1
176
   256
177
   256
178
     2
274
     4
284
     7
340
11
341
87
343
87
371
    -1
372
    -1
  0
DIMSTYLE
105
1B3C
330
A
100
AcDbSymbolTableRecord
100
AcDbDimStyleTableRecord
  2
AUDIT_I_030306140827-30$0
 70
     0
 41
3.0
 42
2.0
 43
8.0
 44
2.0
 73
     0
 74
     0
 77
     1
 78
     8
 79
     2
140
3.0
141
-1.0
147
1.0
176
   256
178
   256
271
     2
272
     2
279
     2
340
60C
371
    -1
  0
ENDTAB
  0
TABLE
  2
BLOCK_RECORD
  5
1
330
0
100
AcDbSymbolTable
 70
    32
  0
BLOCK_RECORD
  5
1F
102
{ACAD_XDICTIONARY
360
8F
102
}
330
1
100
AcDbSymbolTableRecord
100
AcDbBlockTableRecord
  2
*Model_Space
340
22
  0
BLOCK_RECORD
  5
1B
330
1
100
AcDbSymbolTableRecord
100
AcDbBlockTableRecord
  2
*Paper_Space
340
1E
  0
BLOCK_RECORD
  5
23
330
1
100
AcDbSymbolTableRecord
100
AcDbBlockTableRecord
  2
*Paper_Space0
340
26
  0
BLOCK_RECORD
  5
87
330
1
100
AcDbSymbolTableRecord
100
AcDbBlockTableRecord
  2
GENAXEH
340
0
  0
BLOCK_RECORD
  5
1361
330
1
100
AcDbSymbolTableRecord
100
AcDbBlockTableRecord
  2
*U4
340
0
  0
BLOCK_RECORD
  5
2241
330
1
100
AcDbSymbolTableRecord
100
AcDbBlockTableRecord
  2
*D5
340
0
  0
BLOCK_RECORD
  5
22C9
330
1
100
AcDbSymbolTableRecord
100
AcDbBlockTableRecord
  2
*D6
340
0
  0
BLOCK_RECORD
  5
22D5
330
1
100
AcDbSymbolTableRecord
100
AcDbBlockTableRecord
  2
*D7
340
0
  0
BLOCK_RECORD
  5
26B3
330
1
100
AcDbSymbolTableRecord
100
AcDbBlockTableRecord
  2
*D8
340
0
  0
BLOCK_RECORD
  5
26E2
330
1
100
AcDbSymbolTableRecord
100
AcDbBlockTableRecord
  2
*D9
340
0
  0
BLOCK_RECORD
  5
2708
330
1
100
AcDbSymbolTableRecord
100
AcDbBlockTableRecord
  2
*D10
340
0
  0
BLOCK_RECORD
  5
2EE1
330
1
100
AcDbSymbolTableRecord
100
AcDbBlockTableRecord
  2
*D11
340
0
  0
BLOCK_RECORD
  5
2F07
330
1
100
AcDbSymbolTableRecord
100
AcDbBlockTableRecord
  2
*D12
340
0
  0
BLOCK_RECORD
  5
2F13
330
1
100
AcDbSymbolTableRecord
100
AcDbBlockTableRecord
  2
*D13
340
0
  0
BLOCK_RECORD
  5
2F1F
330
1
100
AcDbSymbolTableRecord
100
AcDbBlockTableRecord
  2
*D14
340
0
  0
BLOCK_RECORD
  5
2F2B
330
1
100
AcDbSymbolTableRecord
100
AcDbBlockTableRecord
  2
*D15
340
0
  0
BLOCK_RECORD
  5
2F37
330
1
100
AcDbSymbolTableRecord
100
AcDbBlockTableRecord
  2
*D16
340
0
  0
BLOCK_RECORD
  5
32D8
330
1
100
AcDbSymbolTableRecord
100
AcDbBlockTableRecord
  2
*S18
340
0
  0
BLOCK_RECORD
  5
32E0
330
1
100
AcDbSymbolTableRecord
100
AcDbBlockTableRecord
  2
*S19
340
0
  0
BLOCK_RECORD
  5
32E8
330
1
100
AcDbSymbolTableRecord
100
AcDbBlockTableRecord
  2
*S20
340
0
  0
BLOCK_RECORD
  5
32F0
330
1
100
AcDbSymbolTableRecord
100
AcDbBlockTableRecord
  2
*S21
340
0
  0
BLOCK_RECORD
  5
32F8
330
1
100
AcDbSymbolTableRecord
100
AcDbBlockTableRecord
  2
*S22
340
0
  0
BLOCK_RECORD
  5
3300
330
1
100
AcDbSymbolTableRecord
100
AcDbBlockTableRecord
  2
*S23
340
0
  0
BLOCK_RECORD
  5
3308
330
1
100
AcDbSymbolTableRecord
100
AcDbBlockTableRecord
  2
*S24
340
0
  0
BLOCK_RECORD
  5
3310
330
1
100
AcDbSymbolTableRecord
100
AcDbBlockTableRecord
  2
*S25
340
0
  0
BLOCK_RECORD
  5
3318
330
1
100
AcDbSymbolTableRecord
100
AcDbBlockTableRecord
  2
*S26
340
0
  0
BLOCK_RECORD
  5
3320
330
1
100
AcDbSymbolTableRecord
100
AcDbBlockTableRecord
  2
*S27
340
0
  0
BLOCK_RECORD
  5
3328
330
1
100
AcDbSymbolTableRecord
100
AcDbBlockTableRecord
  2
*S28
340
0
  0
BLOCK_RECORD
  5
3330
330
1
100
AcDbSymbolTableRecord
100
AcDbBlockTableRecord
  2
*S29
340
0
  0
BLOCK_RECORD
  5
3338
330
1
100
AcDbSymbolTableRecord
100
AcDbBlockTableRecord
  2
*S30
340
0
  0
BLOCK_RECORD
  5
3340
330
1
100
AcDbSymbolTableRecord
100
AcDbBlockTableRecord
  2
*S31
340
0
  0
ENDTAB
  0
ENDSEC
  0
SECTION
  2
BLOCKS
  0
BLOCK
  5
20
330
1F
100
AcDbEntity
  8
0
100
AcDbBlockBegin
  2
*Model_Space
 70
     0
 10
0.0
 20
0.0
 30
0.0
  3
*Model_Space
  1

  0
ENDBLK
  5
21
330
1F
100
AcDbEntity
  8
0
100
AcDbBlockEnd
  0
BLOCK
  5
1C
330
1B
100
AcDbEntity
 67
     1
  8
0
100
AcDbBlockBegin
  2
*Paper_Space
 70
     0
 10
0.0
 20
0.0
 30
0.0
  3
*Paper_Space
  1

  0
ENDBLK
  5
1D
330
1B
100
AcDbEntity
 67
     1
  8
0
100
AcDbBlockEnd
  0
BLOCK
  5
24
330
23
100
AcDbEntity
  8
0
100
AcDbBlockBegin
  2
*Paper_Space0
 70
     0
 10
0.0
 20
0.0
 30
0.0
  3
*Paper_Space0
  1

  0
ENDBLK
  5
25
330
23
100
AcDbEntity
  8
0
100
AcDbBlockEnd
  0
BLOCK
  5
89
330
87
100
AcDbEntity
  8
0
100
AcDbBlockBegin
  2
GENAXEH
 70
     0
 10
0.0
 20
0.0
 30
0.0
  3
GENAXEH
  1

  0
LINE
  5
88
330
87
100
AcDbEntity
  8
0
100
AcDbLine
 10
-1.0
 20
0.0
 30
0.0
 11
1.0
 21
0.0
 31
0.0
  0
ENDBLK
  5
8A
330
87
100
AcDbEntity
  8
0
100
AcDbBlockEnd
  0
BLOCK
  5
1362
330
1361
100
AcDbEntity
  8
0
100
AcDbBlockBegin
  2
*U4
 70
     1
 10
0.0
 20
0.0
 30
0.0
  3
*U4
  1

  0
ENDBLK
  5
1363
330
1361
100
AcDbEntity
  8
0
100
AcDbBlockEnd
  0
BLOCK
  5
224B
330
2241
100
AcDbEntity
  8
0
100
AcDbBlockBegin
  2
*D5
 70
     1
 10
0.0
 20
0.0
 30
0.0
  3
*D5
  1

  0
LINE
  5
3191
330
2241
100
AcDbEntity
  8
AM_5
100
AcDbLine
 10
1753.214247475856
 20
960.493982226025
 30
0.0
 11
1753.214247475856
 21
939.9939822260249
 31
0.0
  0
LINE
  5
3192
330
2241
100
AcDbEntity
  8
AM_5
100
AcDbLine
 10
1875.214247475856
 20
960.493982226025
 30
0.0
 11
1875.214247475856
 21
939.9939822260249
 31
0.0
  0
LINE
  5
3193
330
2241
100
AcDbEntity
  8
AM_5
100
AcDbLine
 10
1756.214247475855
 20
941.4939822260249
 30
0.0
 11
1872.214247475855
 21
941.4939822260249
 31
0.0
  0
SOLID
  5
3194
330
2241
100
AcDbEntity
  8
AM_5
100
AcDbTrace
 10
1756.214247475855
 20
941.993982226025
 30
0.0
 11
1756.214247475855
 21
940.993982226025
 31
0.0
 12
1753.214247475856
 22
941.4939822260249
 32
0.0
 13
1753.214247475856
 23
941.4939822260249
 33
0.0
  0
SOLID
  5
3195
330
2241
100
AcDbEntity
  8
AM_5
100
AcDbTrace
 10
1872.214247475855
 20
941.993982226025
 30
0.0
 11
1872.214247475855
 21
940.993982226025
 31
0.0
 12
1875.214247475856
 22
941.4939822260249
 32
0.0
 13
1875.214247475856
 23
941.4939822260249
 33
0.0
  0
MTEXT
  5
3196
330
2241
100
AcDbEntity
  8
AM_5
100
AcDbMText
 10
1814.214247475856
 20
943.9942775016156
 30
0.0
 40
3.0
 41
0.0
 71
     5
 72
     1
  1
\A2;62+2xstroke
 73
     1
 44
1.0
1001
ACAD
1000
MTEXTBEGIN
1070
    73
1070
     1
1070
    44
1040
1.0
1070
    74
1070
     0
1000
MTEXTEND
  0
POINT
  5
3197
330
2241
100
AcDbEntity
  8
Defpoints
 62
     0
100
AcDbPoint
 10
1753.214247475856
 20
961.493982226025
 30
0.0
  0
POINT
  5
3198
330
2241
100
AcDbEntity
  8
Defpoints
 62
     0
100
AcDbPoint
 10
1875.214247475856
 20
961.493982226025
 30
0.0
  0
POINT
  5
3199
330
2241
100
AcDbEntity
  8
Defpoints
 62
     0
100
AcDbPoint
 10
1875.214247475856
 20
941.4939822260249
 30
0.0
  0
ENDBLK
  5
224C
330
2241
100
AcDbEntity
  8
0
100
AcDbBlockEnd
  0
BLOCK
  5
22D3
330
22C9
100
AcDbEntity
  8
0
100
AcDbBlockBegin
  2
*D6
 70
     1
 10
0.0
 20
0.0
 30
0.0
  3
*D6
  1

  0
LINE
  5
31AE
330
22C9
100
AcDbEntity
  8
AM_5
100
AcDbLine
 10
1915.128393919816
 20
960.493982226025
 30
0.0
 11
1915.128393919816
 21
947.993982226025
 31
0.0
  0
LINE
  5
31AF
330
22C9
100
AcDbEntity
  8
AM_5
100
AcDbLine
 10
1945.128393919817
 20
960.493982226025
 30
0.0
 11
1945.128393919817
 21
947.993982226025
 31
0.0
  0
LINE
  5
31B0
330
22C9
100
AcDbEntity
  8
AM_5
100
AcDbLine
 10
1918.128393919817
 20
949.4939822260251
 30
0.0
 11
1942.128393919816
 21
949.4939822260251
 31
0.0
  0
SOLID
  5
31B1
330
22C9
100
AcDbEntity
  8
AM_5
100
AcDbTrace
 10
1918.128393919817
 20
949.993982226025
 30
0.0
 11
1918.128393919817
 21
948.993982226025
 31
0.0
 12
1915.128393919816
 22
949.4939822260251
 32
0.0
 13
1915.128393919816
 23
949.4939822260251
 33
0.0
  0
SOLID
  5
31B2
330
22C9
100
AcDbEntity
  8
AM_5
100
AcDbTrace
 10
1942.128393919816
 20
949.993982226025
 30
0.0
 11
1942.128393919816
 21
948.993982226025
 31
0.0
 12
1945.128393919817
 22
949.4939822260251
 32
0.0
 13
1945.128393919817
 23
949.4939822260251
 33
0.0
  0
MTEXT
  5
31B3
330
22C9
100
AcDbEntity
  8
AM_5
100
AcDbMText
 10
1930.128393919816
 20
951.9939822260251
 30
0.0
 40
3.0
 41
0.0
 71
     5
 72
     1
  1
\A2;30
 73
     1
 44
1.0
1001
ACAD
1000
MTEXTBEGIN
1070
    73
1070
     1
1070
    44
1040
1.0
1070
    74
1070
     0
1000
MTEXTEND
  0
POINT
  5
31B4
330
22C9
100
AcDbEntity
  8
Defpoints
 62
     0
100
AcDbPoint
 10
1915.128393919816
 20
961.493982226025
 30
0.0
  0
POINT
  5
31B5
330
22C9
100
AcDbEntity
  8
Defpoints
 62
     0
100
AcDbPoint
 10
1945.128393919817
 20
961.493982226025
 30
0.0
  0
POINT
  5
31B6
330
22C9
100
AcDbEntity
  8
Defpoints
 62
     0
100
AcDbPoint
 10
1945.128393919817
 20
949.4939822260251
 30
0.0
  0
ENDBLK
  5
22D4
330
22C9
100
AcDbEntity
  8
0
100
AcDbBlockEnd
  0
BLOCK
  5
22DF
330
22D5
100
AcDbEntity
  8
0
100
AcDbBlockBegin
  2
*D7
 70
     1
 10
0.0
 20
0.0
 30
0.0
  3
*D7
  1

  0
LINE
  5
31B7
330
22D5
100
AcDbEntity
  8
AM_5
100
AcDbLine
 10
1914.128393919816
 20
961.493982226025
 30
0.0
 11
1901.628392919817
 21
961.493982226025
 31
0.0
  0
LINE
  5
31B8
330
22D5
100
AcDbEntity
  8
AM_5
100
AcDbLine
 10
1914.128393919816
 20
1025.493982226025
 30
0.0
 11
1901.628392919817
 21
1025.493982226025
 31
0.0
  0
LINE
  5
31B9
330
22D5
100
AcDbEntity
  8
AM_5
100
AcDbLine
 10
1903.128392919817
 20
964.4939822260251
 30
0.0
 11
1903.128392919817
 21
1022.493982226025
 31
0.0
  0
SOLID
  5
31BA
330
22D5
100
AcDbEntity
  8
AM_5
100
AcDbTrace
 10
1902.628392919817
 20
964.4939822260251
 30
0.0
 11
1903.628392919817
 21
964.4939822260251
 31
0.0
 12
1903.128392919817
 22
961.493982226025
 32
0.0
 13
1903.128392919817
 23
961.493982226025
 33
0.0
  0
SOLID
  5
31BB
330
22D5
100
AcDbEntity
  8
AM_5
100
AcDbTrace
 10
1902.628392919817
 20
1022.493982226025
 30
0.0
 11
1903.628392919817
 21
1022.493982226025
 31
0.0
 12
1903.128392919817
 22
1025.493982226025
 32
0.0
 13
1903.128392919817
 23
1025.493982226025
 33
0.0
  0
MTEXT
  5
31BC
330
22D5
100
AcDbEntity
  8
AM_5
100
AcDbMText
 10
1900.628392919816
 20
993.493982226025
 30
0.0
 40
3.0
 41
0.0
 71
     5
 72
     1
  1
\A2;64
 11
0.0000000000000001
 21
1.0
 31
0.0
 73
     1
 44
1.0
1001
ACAD
1000
MTEXTBEGIN
1070
    73
1070
     1
1070
    44
1040
1.0
1070
    74
1070
     0
1000
MTEXTEND
  0
POINT
  5
31BD
330
22D5
100
AcDbEntity
  8
Defpoints
 62
     0
100
AcDbPoint
 10
1915.128393919816
 20
961.493982226025
 30
0.0
  0
POINT
  5
31BE
330
22D5
100
AcDbEntity
  8
Defpoints
 62
     0
100
AcDbPoint
 10
1915.128393919816
 20
1025.493982226025
 30
0.0
  0
POINT
  5
31BF
330
22D5
100
AcDbEntity
  8
Defpoints
 62
     0
100
AcDbPoint
 10
1903.128392919817
 20
1025.493982226025
 30
0.0
  0
ENDBLK
  5
22E0
330
22D5
100
AcDbEntity
  8
0
100
AcDbBlockEnd
  0
BLOCK
  5
26BD
330
26B3
100
AcDbEntity
  8
0
100
AcDbBlockBegin
  2
*D8
 70
     1
 10
0.0
 20
0.0
 30
0.0
  3
*D8
  1

  0
LINE
  5
31C0
330
26B3
100
AcDbEntity
  8
AM_5
100
AcDbLine
 10
1767.214247475856
 20
960.493982226025
 30
0.0
 11
1767.214247475856
 21
947.993982226025
 31
0.0
  0
LINE
  5
31C1
330
26B3
100
AcDbEntity
  8
AM_5
100
AcDbLine
 10
1831.214247475855
 20
960.493982226025
 30
0.0
 11
1831.214247475855
 21
947.993982226025
 31
0.0
  0
LINE
  5
31C2
330
26B3
100
AcDbEntity
  8
AM_5
100
AcDbLine
 10
1770.214247475855
 20
949.4939822260251
 30
0.0
 11
1828.214247475855
 21
949.4939822260251
 31
0.0
  0
SOLID
  5
31C3
330
26B3
100
AcDbEntity
  8
AM_5
100
AcDbTrace
 10
1770.214247475855
 20
949.993982226025
 30
0.0
 11
1770.214247475855
 21
948.993982226025
 31
0.0
 12
1767.214247475856
 22
949.4939822260251
 32
0.0
 13
1767.214247475856
 23
949.4939822260251
 33
0.0
  0
SOLID
  5
31C4
330
26B3
100
AcDbEntity
  8
AM_5
100
AcDbTrace
 10
1828.214247475855
 20
949.993982226025
 30
0.0
 11
1828.214247475855
 21
948.993982226025
 31
0.0
 12
1831.214247475855
 22
949.4939822260251
 32
0.0
 13
1831.214247475855
 23
949.4939822260251
 33
0.0
  0
MTEXT
  5
31C5
330
26B3
100
AcDbEntity
  8
AM_5
100
AcDbMText
 10
1799.214247475856
 20
951.9939822260251
 30
0.0
 40
3.0
 41
0.0
 71
     5
 72
     1
  1
\A2;34+stroke
 73
     1
 44
1.0
1001
ACAD
1000
MTEXTBEGIN
1070
    73
1070
     1
1070
    44
1040
1.0
1070
    74
1070
     0
1000
MTEXTEND
  0
POINT
  5
31C6
330
26B3
100
AcDbEntity
  8
Defpoints
 62
     0
100
AcDbPoint
 10
1767.214247475856
 20
961.493982226025
 30
0.0
  0
POINT
  5
31C7
330
26B3
100
AcDbEntity
  8
Defpoints
 62
     0
100
AcDbPoint
 10
1831.214247475855
 20
961.493982226025
 30
0.0
  0
POINT
  5
31C8
330
26B3
100
AcDbEntity
  8
Defpoints
 62
     0
100
AcDbPoint
 10
1831.214247475855
 20
949.4939822260251
 30
0.0
  0
ENDBLK
  5
26BE
330
26B3
100
AcDbEntity
  8
0
100
AcDbBlockEnd
  0
BLOCK
  5
26EC
330
26E2
100
AcDbEntity
  8
0
100
AcDbBlockBegin
  2
*D9
 70
     1
 10
0.0
 20
0.0
 30
0.0
  3
*D9
  1

  0
LINE
  5
31C9
330
26E2
100
AcDbEntity
  8
AM_5
100
AcDbLine
 10
1831.214247475855
 20
960.493982226025
 30
0.0
 11
1831.214247475855
 21
947.993982226025
 31
0.0
  0
LINE
  5
31CA
330
26E2
100
AcDbEntity
  8
AM_5
100
AcDbLine
 10
1863.214247475855
 20
960.493982226025
 30
0.0
 11
1863.214247475855
 21
947.993982226025
 31
0.0
  0
LINE
  5
31CB
330
26E2
100
AcDbEntity
  8
AM_5
100
AcDbLine
 10
1834.214247475856
 20
949.4939822260251
 30
0.0
 11
1860.214247475856
 21
949.4939822260251
 31
0.0
  0
SOLID
  5
31CC
330
26E2
100
AcDbEntity
  8
AM_5
100
AcDbTrace
 10
1834.214247475856
 20
949.993982226025
 30
0.0
 11
1834.214247475856
 21
948.993982226025
 31
0.0
 12
1831.214247475855
 22
949.4939822260251
 32
0.0
 13
1831.214247475855
 23
949.4939822260251
 33
0.0
  0
SOLID
  5
31CD
330
26E2
100
AcDbEntity
  8
AM_5
100
AcDbTrace
 10
1860.214247475856
 20
949.993982226025
 30
0.0
 11
1860.214247475856
 21
948.993982226025
 31
0.0
 12
1863.214247475855
 22
949.4939822260251
 32
0.0
 13
1863.214247475855
 23
949.4939822260251
 33
0.0
  0
MTEXT
  5
31CE
330
26E2
100
AcDbEntity
  8
AM_5
100
AcDbMText
 10
1847.214247475855
 20
951.9942775016156
 30
0.0
 40
3.0
 41
0.0
 71
     5
 72
     1
  1
\A2;2+stroke
 73
     1
 44
1.0
1001
ACAD
1000
MTEXTBEGIN
1070
    73
1070
     1
1070
    44
1040
1.0
1070
    74
1070
     0
1000
MTEXTEND
  0
POINT
  5
31CF
330
26E2
100
AcDbEntity
  8
Defpoints
 62
     0
100
AcDbPoint
 10
1831.214247475855
 20
961.493982226025
 30
0.0
  0
POINT
  5
31D0
330
26E2
100
AcDbEntity
  8
Defpoints
 62
     0
100
AcDbPoint
 10
1863.214247475855
 20
961.493982226025
 30
0.0
  0
POINT
  5
31D1
330
26E2
100
AcDbEntity
  8
Defpoints
 62
     0
100
AcDbPoint
 10
1863.214247475855
 20
949.4939822260251
 30
0.0
  0
ENDBLK
  5
26ED
330
26E2
100
AcDbEntity
  8
0
100
AcDbBlockEnd
  0
BLOCK
  5
2712
330
2708
100
AcDbEntity
  8
0
100
AcDbBlockBegin
  2
*D10
 70
     1
 10
0.0
 20
0.0
 30
0.0
  3
*D10
  1

  0
LINE
  5
31D2
330
2708
100
AcDbEntity
  8
AM_5
100
AcDbLine
 10
1863.214247475855
 20
960.493982226025
 30
0.0
 11
1863.214247475855
 21
947.9939822260252
 31
0.0
  0
LINE
  5
31D3
330
2708
100
AcDbEntity
  8
AM_5
100
AcDbLine
 10
1875.214247475856
 20
960.493982226025
 30
0.0
 11
1875.214247475856
 21
947.9939822260252
 31
0.0
  0
LINE
  5
31D4
330
2708
100
AcDbEntity
  8
AM_5
100
AcDbLine
 10
1866.214247475856
 20
949.4939822260251
 30
0.0
 11
1872.214247475855
 21
949.4939822260251
 31
0.0
  0
SOLID
  5
31D5
330
2708
100
AcDbEntity
  8
AM_5
100
AcDbTrace
 10
1866.214247475856
 20
949.9939822260252
 30
0.0
 11
1866.214247475856
 21
948.9939822260252
 31
0.0
 12
1863.214247475855
 22
949.4939822260251
 32
0.0
 13
1863.214247475855
 23
949.4939822260251
 33
0.0
  0
SOLID
  5
31D6
330
2708
100
AcDbEntity
  8
AM_5
100
AcDbTrace
 10
1872.214247475855
 20
949.9939822260252
 30
0.0
 11
1872.214247475855
 21
948.9939822260252
 31
0.0
 12
1875.214247475856
 22
949.4939822260251
 32
0.0
 13
1875.214247475856
 23
949.4939822260251
 33
0.0
  0
MTEXT
  5
31D7
330
2708
100
AcDbEntity
  8
AM_5
100
AcDbMText
 10
1869.214247475856
 20
951.9942775016158
 30
0.0
 40
3.0
 41
0.0
 71
     5
 72
     1
  1
\A2;12
 73
     1
 44
1.0
1001
ACAD
1000
MTEXTBEGIN
1070
    73
1070
     1
1070
    44
1040
1.0
1070
    74
1070
     0
1000
MTEXTEND
  0
POINT
  5
31D8
330
2708
100
AcDbEntity
  8
Defpoints
 62
     0
100
AcDbPoint
 10
1863.214247475855
 20
961.493982226025
 30
0.0
  0
POINT
  5
31D9
330
2708
100
AcDbEntity
  8
Defpoints
 62
     0
100
AcDbPoint
 10
1875.214247475856
 20
961.493982226025
 30
0.0
  0
POINT
  5
31DA
330
2708
100
AcDbEntity
  8
Defpoints
 62
     0
100
AcDbPoint
 10
1875.214247475856
 20
949.4939822260251
 30
0.0
  0
ENDBLK
  5
2713
330
2708
100
AcDbEntity
  8
0
100
AcDbBlockEnd
  0
BLOCK
  5
2EEB
330
2EE1
100
AcDbEntity
  8
0
100
AcDbBlockBegin
  2
*D11
 70
     1
 10
0.0
 20
0.0
 30
0.0
  3
*D11
  1

  0
LINE
  5
30FD
330
2EE1
100
AcDbEntity
  8
AM_5
100
AcDbLine
 10
2051.624662568984
 20
960.493982226025
 30
0.0
 11
2051.624662568984
 21
939.9939822260249
 31
0.0
  0
LINE
  5
30FE
330
2EE1
100
AcDbEntity
  8
AM_5
100
AcDbLine
 10
2173.624662568985
 20
960.493982226025
 30
0.0
 11
2173.624662568985
 21
939.9939822260249
 31
0.0
  0
LINE
  5
30FF
330
2EE1
100
AcDbEntity
  8
AM_5
100
AcDbLine
 10
2054.624662568985
 20
941.4939822260249
 30
0.0
 11
2170.624662568985
 21
941.4939822260249
 31
0.0
  0
SOLID
  5
3100
330
2EE1
100
AcDbEntity
  8
AM_5
100
AcDbTrace
 10
2054.624662568985
 20
941.993982226025
 30
0.0
 11
2054.624662568985
 21
940.993982226025
 31
0.0
 12
2051.624662568984
 22
941.4939822260249
 32
0.0
 13
2051.624662568984
 23
941.4939822260249
 33
0.0
  0
SOLID
  5
3101
330
2EE1
100
AcDbEntity
  8
AM_5
100
AcDbTrace
 10
2170.624662568985
 20
941.993982226025
 30
0.0
 11
2170.624662568985
 21
940.993982226025
 31
0.0
 12
2173.624662568985
 22
941.4939822260249
 32
0.0
 13
2173.624662568985
 23
941.4939822260249
 33
0.0
  0
MTEXT
  5
3102
330
2EE1
100
AcDbEntity
  8
AM_5
100
AcDbMText
 10
2112.624662568984
 20
943.9942775016156
 30
0.0
 40
3.0
 41
0.0
 71
     5
 72
     1
  1
\A2;62+2xstroke
 73
     1
 44
1.0
1001
ACAD
1000
MTEXTBEGIN
1070
    73
1070
     1
1070
    44
1040
1.0
1070
    74
1070
     0
1000
MTEXTEND
  0
POINT
  5
3103
330
2EE1
100
AcDbEntity
  8
Defpoints
 62
     0
100
AcDbPoint
 10
2051.624662568984
 20
961.493982226025
 30
0.0
  0
POINT
  5
3104
330
2EE1
100
AcDbEntity
  8
Defpoints
 62
     0
100
AcDbPoint
 10
2173.624662568985
 20
961.493982226025
 30
0.0
  0
POINT
  5
3105
330
2EE1
100
AcDbEntity
  8
Defpoints
 62
     0
100
AcDbPoint
 10
2173.624662568985
 20
941.4939822260249
 30
0.0
  0
ENDBLK
  5
2EEC
330
2EE1
100
AcDbEntity
  8
0
100
AcDbBlockEnd
  0
BLOCK
  5
2F11
330
2F07
100
AcDbEntity
  8
0
100
AcDbBlockBegin
  2
*D12
 70
     1
 10
0.0
 20
0.0
 30
0.0
  3
*D12
  1

  0
LINE
  5
311A
330
2F07
100
AcDbEntity
  8
AM_5
100
AcDbLine
 10
2213.538809012945
 20
960.493982226025
 30
0.0
 11
2213.538809012945
 21
947.993982226025
 31
0.0
  0
LINE
  5
311B
330
2F07
100
AcDbEntity
  8
AM_5
100
AcDbLine
 10
2243.538809012946
 20
960.493982226025
 30
0.0
 11
2243.538809012946
 21
947.993982226025
 31
0.0
  0
LINE
  5
311C
330
2F07
100
AcDbEntity
  8
AM_5
100
AcDbLine
 10
2216.538809012945
 20
949.4939822260251
 30
0.0
 11
2240.538809012946
 21
949.4939822260251
 31
0.0
  0
SOLID
  5
311D
330
2F07
100
AcDbEntity
  8
AM_5
100
AcDbTrace
 10
2216.538809012945
 20
949.993982226025
 30
0.0
 11
2216.538809012945
 21
948.993982226025
 31
0.0
 12
2213.538809012945
 22
949.4939822260251
 32
0.0
 13
2213.538809012945
 23
949.4939822260251
 33
0.0
  0
SOLID
  5
311E
330
2F07
100
AcDbEntity
  8
AM_5
100
AcDbTrace
 10
2240.538809012946
 20
949.993982226025
 30
0.0
 11
2240.538809012946
 21
948.993982226025
 31
0.0
 12
2243.538809012946
 22
949.4939822260251
 32
0.0
 13
2243.538809012946
 23
949.4939822260251
 33
0.0
  0
MTEXT
  5
311F
330
2F07
100
AcDbEntity
  8
AM_5
100
AcDbMText
 10
2228.538809012945
 20
951.9939822260251
 30
0.0
 40
3.0
 41
0.0
 71
     5
 72
     1
  1
\A2;30
 73
     1
 44
1.0
1001
ACAD
1000
MTEXTBEGIN
1070
    73
1070
     1
1070
    44
1040
1.0
1070
    74
1070
     0
1000
MTEXTEND
  0
POINT
  5
3120
330
2F07
100
AcDbEntity
  8
Defpoints
 62
     0
100
AcDbPoint
 10
2213.538809012945
 20
961.493982226025
 30
0.0
  0
POINT
  5
3121
330
2F07
100
AcDbEntity
  8
Defpoints
 62
     0
100
AcDbPoint
 10
2243.538809012946
 20
961.493982226025
 30
0.0
  0
POINT
  5
3122
330
2F07
100
AcDbEntity
  8
Defpoints
 62
     0
100
AcDbPoint
 10
2243.538809012946
 20
949.4939822260251
 30
0.0
  0
ENDBLK
  5
2F12
330
2F07
100
AcDbEntity
  8
0
100
AcDbBlockEnd
  0
BLOCK
  5
2F1D
330
2F13
100
AcDbEntity
  8
0
100
AcDbBlockBegin
  2
*D13
 70
     1
 10
0.0
 20
0.0
 30
0.0
  3
*D13
  1

  0
LINE
  5
3123
330
2F13
100
AcDbEntity
  8
AM_5
100
AcDbLine
 10
2212.538809012945
 20
961.493982226025
 30
0.0
 11
2200.038808012945
 21
961.493982226025
 31
0.0
  0
LINE
  5
3124
330
2F13
100
AcDbEntity
  8
AM_5
100
AcDbLine
 10
2212.538809012945
 20
1025.493982226025
 30
0.0
 11
2200.038808012946
 21
1025.493982226025
 31
0.0
  0
LINE
  5
3125
330
2F13
100
AcDbEntity
  8
AM_5
100
AcDbLine
 10
2201.538808012945
 20
964.4939822260251
 30
0.0
 11
2201.538808012945
 21
1022.493982226025
 31
0.0
  0
SOLID
  5
3126
330
2F13
100
AcDbEntity
  8
AM_5
100
AcDbTrace
 10
2201.038808012945
 20
964.4939822260251
 30
0.0
 11
2202.038808012945
 21
964.4939822260251
 31
0.0
 12
2201.538808012945
 22
961.493982226025
 32
0.0
 13
2201.538808012945
 23
961.493982226025
 33
0.0
  0
SOLID
  5
3127
330
2F13
100
AcDbEntity
  8
AM_5
100
AcDbTrace
 10
2201.038808012945
 20
1022.493982226025
 30
0.0
 11
2202.038808012945
 21
1022.493982226025
 31
0.0
 12
2201.538808012946
 22
1025.493982226025
 32
0.0
 13
2201.538808012946
 23
1025.493982226025
 33
0.0
  0
MTEXT
  5
3128
330
2F13
100
AcDbEntity
  8
AM_5
100
AcDbMText
 10
2199.038808012945
 20
993.493982226025
 30
0.0
 40
3.0
 41
0.0
 71
     5
 72
     1
  1
\A2;64
 11
0.0000000000000001
 21
1.0
 31
0.0
 73
     1
 44
1.0
1001
ACAD
1000
MTEXTBEGIN
1070
    73
1070
     1
1070
    44
1040
1.0
1070
    74
1070
     0
1000
MTEXTEND
  0
POINT
  5
3129
330
2F13
100
AcDbEntity
  8
Defpoints
 62
     0
100
AcDbPoint
 10
2213.538809012945
 20
961.493982226025
 30
0.0
  0
POINT
  5
312A
330
2F13
100
AcDbEntity
  8
Defpoints
 62
     0
100
AcDbPoint
 10
2213.538809012945
 20
1025.493982226025
 30
0.0
  0
POINT
  5
312B
330
2F13
100
AcDbEntity
  8
Defpoints
 62
     0
100
AcDbPoint
 10
2201.538808012946
 20
1025.493982226025
 30
0.0
  0
ENDBLK
  5
2F1E
330
2F13
100
AcDbEntity
  8
0
100
AcDbBlockEnd
  0
BLOCK
  5
2F29
330
2F1F
100
AcDbEntity
  8
0
100
AcDbBlockBegin
  2
*D14
 70
     1
 10
0.0
 20
0.0
 30
0.0
  3
*D14
  1

  0
LINE
  5
312C
330
2F1F
100
AcDbEntity
  8
AM_5
100
AcDbLine
 10
2065.624662568985
 20
960.493982226025
 30
0.0
 11
2065.624662568985
 21
947.993982226025
 31
0.0
  0
LINE
  5
312D
330
2F1F
100
AcDbEntity
  8
AM_5
100
AcDbLine
 10
2129.624662568985
 20
960.493982226025
 30
0.0
 11
2129.624662568985
 21
947.993982226025
 31
0.0
  0
LINE
  5
312E
330
2F1F
100
AcDbEntity
  8
AM_5
100
AcDbLine
 10
2068.624662568985
 20
949.4939822260251
 30
0.0
 11
2126.624662568985
 21
949.4939822260251
 31
0.0
  0
SOLID
  5
312F
330
2F1F
100
AcDbEntity
  8
AM_5
100
AcDbTrace
 10
2068.624662568985
 20
949.993982226025
 30
0.0
 11
2068.624662568985
 21
948.993982226025
 31
0.0
 12
2065.624662568985
 22
949.4939822260251
 32
0.0
 13
2065.624662568985
 23
949.4939822260251
 33
0.0
  0
SOLID
  5
3130
330
2F1F
100
AcDbEntity
  8
AM_5
100
AcDbTrace
 10
2126.624662568985
 20
949.993982226025
 30
0.0
 11
2126.624662568985
 21
948.993982226025
 31
0.0
 12
2129.624662568985
 22
949.4939822260251
 32
0.0
 13
2129.624662568985
 23
949.4939822260251
 33
0.0
  0
MTEXT
  5
3131
330
2F1F
100
AcDbEntity
  8
AM_5
100
AcDbMText
 10
2097.624662568985
 20
951.9939822260251
 30
0.0
 40
3.0
 41
0.0
 71
     5
 72
     1
  1
\A2;34+stroke
 73
     1
 44
1.0
1001
ACAD
1000
MTEXTBEGIN
1070
    73
1070
     1
1070
    44
1040
1.0
1070
    74
1070
     0
1000
MTEXTEND
  0
POINT
  5
3132
330
2F1F
100
AcDbEntity
  8
Defpoints
 62
     0
100
AcDbPoint
 10
2065.624662568985
 20
961.493982226025
 30
0.0
  0
POINT
  5
3133
330
2F1F
100
AcDbEntity
  8
Defpoints
 62
     0
100
AcDbPoint
 10
2129.624662568985
 20
961.493982226025
 30
0.0
  0
POINT
  5
3134
330
2F1F
100
AcDbEntity
  8
Defpoints
 62
     0
100
AcDbPoint
 10
2129.624662568985
 20
949.4939822260251
 30
0.0
  0
ENDBLK
  5
2F2A
330
2F1F
100
AcDbEntity
  8
0
100
AcDbBlockEnd
  0
BLOCK
  5
2F35
330
2F2B
100
AcDbEntity
  8
0
100
AcDbBlockBegin
  2
*D15
 70
     1
 10
0.0
 20
0.0
 30
0.0
  3
*D15
  1

  0
LINE
  5
3135
330
2F2B
100
AcDbEntity
  8
AM_5
100
AcDbLine
 10
2129.624662568985
 20
960.493982226025
 30
0.0
 11
2129.624662568985
 21
947.993982226025
 31
0.0
  0
LINE
  5
3136
330
2F2B
100
AcDbEntity
  8
AM_5
100
AcDbLine
 10
2161.624662568985
 20
960.493982226025
 30
0.0
 11
2161.624662568985
 21
947.993982226025
 31
0.0
  0
LINE
  5
3137
330
2F2B
100
AcDbEntity
  8
AM_5
100
AcDbLine
 10
2132.624662568985
 20
949.4939822260251
 30
0.0
 11
2158.624662568985
 21
949.4939822260251
 31
0.0
  0
SOLID
  5
3138
330
2F2B
100
AcDbEntity
  8
AM_5
100
AcDbTrace
 10
2132.624662568985
 20
949.993982226025
 30
0.0
 11
2132.624662568985
 21
948.993982226025
 31
0.0
 12
2129.624662568985
 22
949.4939822260251
 32
0.0
 13
2129.624662568985
 23
949.4939822260251
 33
0.0
  0
SOLID
  5
3139
330
2F2B
100
AcDbEntity
  8
AM_5
100
AcDbTrace
 10
2158.624662568985
 20
949.993982226025
 30
0.0
 11
2158.624662568985
 21
948.993982226025
 31
0.0
 12
2161.624662568985
 22
949.4939822260251
 32
0.0
 13
2161.624662568985
 23
949.4939822260251
 33
0.0
  0
MTEXT
  5
313A
330
2F2B
100
AcDbEntity
  8
AM_5
100
AcDbMText
 10
2145.624662568985
 20
951.9942775016156
 30
0.0
 40
3.0
 41
0.0
 71
     5
 72
     1
  1
\A2;2+stroke
 73
     1
 44
1.0
1001
ACAD
1000
MTEXTBEGIN
1070
    73
1070
     1
1070
    44
1040
1.0
1070
    74
1070
     0
1000
MTEXTEND
  0
POINT
  5
313B
330
2F2B
100
AcDbEntity
  8
Defpoints
 62
     0
100
AcDbPoint
 10
2129.624662568985
 20
961.493982226025
 30
0.0
  0
POINT
  5
313C
330
2F2B
100
AcDbEntity
  8
Defpoints
 62
     0
100
AcDbPoint
 10
2161.624662568985
 20
961.493982226025
 30
0.0
  0
POINT
  5
313D
330
2F2B
100
AcDbEntity
  8
Defpoints
 62
     0
100
AcDbPoint
 10
2161.624662568985
 20
949.4939822260251
 30
0.0
  0
ENDBLK
  5
2F36
330
2F2B
100
AcDbEntity
  8
0
100
AcDbBlockEnd
  0
BLOCK
  5
2F41
330
2F37
100
AcDbEntity
  8
0
100
AcDbBlockBegin
  2
*D16
 70
     1
 10
0.0
 20
0.0
 30
0.0
  3
*D16
  1

  0
LINE
  5
313E
330
2F37
100
AcDbEntity
  8
AM_5
100
AcDbLine
 10
2161.624662568985
 20
960.493982226025
 30
0.0
 11
2161.624662568985
 21
947.9939822260252
 31
0.0
  0
LINE
  5
313F
330
2F37
100
AcDbEntity
  8
AM_5
100
AcDbLine
 10
2173.624662568985
 20
960.493982226025
 30
0.0
 11
2173.624662568985
 21
947.9939822260252
 31
0.0
  0
LINE
  5
3140
330
2F37
100
AcDbEntity
  8
AM_5
100
AcDbLine
 10
2164.624662568985
 20
949.4939822260251
 30
0.0
 11
2170.624662568985
 21
949.4939822260251
 31
0.0
  0
SOLID
  5
3141
330
2F37
100
AcDbEntity
  8
AM_5
100
AcDbTrace
 10
2164.624662568985
 20
949.9939822260252
 30
0.0
 11
2164.624662568985
 21
948.9939822260252
 31
0.0
 12
2161.624662568985
 22
949.4939822260251
 32
0.0
 13
2161.624662568985
 23
949.4939822260251
 33
0.0
  0
SOLID
  5
3142
330
2F37
100
AcDbEntity
  8
AM_5
100
AcDbTrace
 10
2170.624662568985
 20
949.9939822260252
 30
0.0
 11
2170.624662568985
 21
948.9939822260252
 31
0.0
 12
2173.624662568985
 22
949.4939822260251
 32
0.0
 13
2173.624662568985
 23
949.4939822260251
 33
0.0
  0
MTEXT
  5
3143
330
2F37
100
AcDbEntity
  8
AM_5
100
AcDbMText
 10
2167.624662568985
 20
951.9942775016158
 30
0.0
 40
3.0
 41
0.0
 71
     5
 72
     1
  1
\A2;12
 73
     1
 44
1.0
1001
ACAD
1000
MTEXTBEGIN
1070
    73
1070
     1
1070
    44
1040
1.0
1070
    74
1070
     0
1000
MTEXTEND
  0
POINT
  5
3144
330
2F37
100
AcDbEntity
  8
Defpoints
 62
     0
100
AcDbPoint
 10
2161.624662568985
 20
961.493982226025
 30
0.0
  0
POINT
  5
3145
330
2F37
100
AcDbEntity
  8
Defpoints
 62
     0
100
AcDbPoint
 10
2173.624662568985
 20
961.493982226025
 30
0.0
  0
POINT
  5
3146
330
2F37
100
AcDbEntity
  8
Defpoints
 62
     0
100
AcDbPoint
 10
2173.624662568985
 20
949.4939822260251
 30
0.0
  0
ENDBLK
  5
2F42
330
2F37
100
AcDbEntity
  8
0
100
AcDbBlockEnd
  0
BLOCK
  5
32DD
330
32D8
100
AcDbEntity
  8
0
100
AcDbBlockBegin
  2
*S18
 70
     1
 10
0.0
 20
0.0
 30
0.0
  3
*S18
  1

  0
LINE
  5
32D9
330
32D8
100
AcDbEntity
  8
AM_5
 62
     5
100
AcDbLine
 10
1838.290950002887
 20
932.2348386225959
 30
0.0
 11
1830.338850035359
 21
932.2348386225959
 31
0.0
  0
LINE
  5
32DA
330
32D8
100
AcDbEntity
  8
AM_5
 62
     5
100
AcDbLine
 10
1830.338850035359
 20
932.2348386225959
 30
0.0
 11
1824.596128552281
 21
926.2787775659976
 31
0.0
  0
TRACE
  5
32DB
330
32D8
100
AcDbEntity
  8
AM_5
 62
     5
370
    35
100
AcDbTrace
 10
1824.264418666634
 20
926.5986059674119
 30
0.0
 11
1824.927838437929
 21
925.9589491645833
 31
0.0
 12
1822.166790646033
 22
923.7591908266164
 32
0.0
 13
1822.166790646033
 23
923.7591908266164
 33
0.0
  0
MTEXT
  5
32DC
330
32D8
100
AcDbEntity
  8
AM_5
 62
     2
100
AcDbMText
 10
1838.290950002887
 20
938.5404173524745
 30
0.0
 40
3.5
 41
0.0
 71
     9
 72
     5
  1

  7
ACISOTS
210
0.0
220
0.0
230
-1.0
 11
-1.0
 21
0.0
 31
0.0
 73
     1
 44
1.0
1001
ACAD
1000
MTEXTBEGIN
1070
    73
1070
     1
1070
    44
1040
1.0
1070
    74
1070
     0
1000
MTEXTEND
  0
ENDBLK
  5
32DE
330
32D8
100
AcDbEntity
  8
0
100
AcDbBlockEnd
  0
BLOCK
  5
32E5
330
32E0
100
AcDbEntity
  8
0
100
AcDbBlockBegin
  2
*S19
 70
     1
 10
0.0
 20
0.0
 30
0.0
  3
*S19
  1

  0
LINE
  5
32E1
330
32E0
100
AcDbEntity
  8
AM_5
 62
     5
100
AcDbLine
 10
1895.658622022848
 20
952.257142507516
 30
0.0
 11
1907.898256800029
 21
952.257142507516
 31
0.0
  0
LINE
  5
32E2
330
32E0
100
AcDbEntity
  8
AM_5
 62
     5
100
AcDbLine
 10
1907.898256800029
 20
952.257142507516
 30
0.0
 11
1918.897403592213
 21
963.5191518024326
 31
0.0
  0
TRACE
  5
32E3
330
32E0
100
AcDbEntity
  8
AM_5
 62
     5
370
    35
100
AcDbTrace
 10
1919.227051280363
 20
963.1971983022426
 30
0.0
 11
1918.567755904063
 21
963.8411053026228
 31
0.0
 12
1921.342883226299
 22
966.023074596624
 32
0.0
 13
1921.342883226299
 23
966.023074596624
 33
0.0
  0
MTEXT
  5
32E4
330
32E0
100
AcDbEntity
  8
AM_5
 62
     2
100
AcDbMText
 10
1895.658622022848
 20
958.5627212373944
 30
0.0
 40
3.5
 41
0.0
 71
     9
 72
     5
  1

  7
ACISOTS
 73
     1
 44
1.0
1001
ACAD
1000
MTEXTBEGIN
1070
    73
1070
     1
1070
    44
1040
1.0
1070
    74
1070
     0
1000
MTEXTEND
  0
ENDBLK
  5
32E6
330
32E0
100
AcDbEntity
  8
0
100
AcDbBlockEnd
  0
BLOCK
  5
32ED
330
32E8
100
AcDbEntity
  8
0
100
AcDbBlockBegin
  2
*S20
 70
     1
 10
0.0
 20
0.0
 30
0.0
  3
*S20
  1

  0
LINE
  5
32E9
330
32E8
100
AcDbEntity
  8
AM_5
 62
     5
100
AcDbLine
 10
1852.279505253603
 20
1031.000772842252
 30
0.0
 11
1827.930486465185
 21
1031.000772842252
 31
0.0
  0
LINE
  5
32EA
330
32E8
100
AcDbEntity
  8
AM_5
 62
     5
100
AcDbLine
 10
1827.930486465185
 20
1031.000772842252
 30
0.0
 11
1818.456447248345
 21
1011.584002145216
 31
0.0
  0
TRACE
  5
32EB
330
32E8
100
AcDbEntity
  8
AM_5
 62
     5
370
    35
100
AcDbTrace
 10
1818.042329902574
 20
1011.786062726526
 30
0.0
 11
1818.870564594115
 21
1011.381941563906
 31
0.0
 12
1816.921644749992
 22
1008.438468598892
 32
0.0
 13
1816.921644749992
 23
1008.438468598892
 33
0.0
  0
MTEXT
  5
32EC
330
32E8
100
AcDbEntity
  8
AM_5
 62
     2
100
AcDbMText
 10
1852.279505253603
 20
1037.541256043852
 30
0.0
 40
3.5
 41
0.0
 71
     9
 72
     5
  1

  7
ACISOTS
210
0.0
220
0.0
230
-1.0
 11
-1.0
 21
0.0
 31
0.0
 73
     1
 44
1.0
1001
ACAD
1000
MTEXTBEGIN
1070
    73
1070
     1
1070
    44
1040
1.0
1070
    74
1070
     0
1000
MTEXTEND
  0
ENDBLK
  5
32EE
330
32E8
100
AcDbEntity
  8
0
100
AcDbBlockEnd
  0
BLOCK
  5
32F5
330
32F0
100
AcDbEntity
  8
0
100
AcDbBlockBegin
  2
*S21
 70
     1
 10
0.0
 20
0.0
 30
0.0
  3
*S21
  1

  0
LINE
  5
32F1
330
32F0
100
AcDbEntity
  8
AM_5
 62
     5
100
AcDbLine
 10
1818.3326834373
 20
1101.586854142198
 30
0.0
 11
1793.983664648882
 21
1101.586854142198
 31
0.0
  0
LINE
  5
32F2
330
32F0
100
AcDbEntity
  8
AM_5
 62
     5
100
AcDbLine
 10
1793.983664648882
 20
1101.586854142198
 30
0.0
 11
1787.193585053521
 21
1125.551561001657
 31
0.0
  0
TRACE
  5
32F3
330
32F0
100
AcDbEntity
  8
AM_5
 62
     5
370
    35
100
AcDbTrace
 10
1787.636917019491
 20
1125.677173192691
 30
0.0
 11
1786.75025308755
 21
1125.425948810623
 31
0.0
 12
1786.239465732608
 22
1128.919001620504
 32
0.0
 13
1786.239465732608
 23
1128.919001620504
 33
0.0
  0
MTEXT
  5
32F4
330
32F0
100
AcDbEntity
  8
AM_5
 62
     2
100
AcDbMText
 10
1818.3326834373
 20
1108.127337343798
 30
0.0
 40
3.5
 41
0.0
 71
     9
 72
     5
  1

  7
ACISOTS
210
0.0
220
0.0
230
-1.0
 11
-1.0
 21
0.0
 31
0.0
 73
     1
 44
1.0
1001
ACAD
1000
MTEXTBEGIN
1070
    73
1070
     1
1070
    44
1040
1.0
1070
    74
1070
     0
1000
MTEXTEND
  0
ENDBLK
  5
32F6
330
32F0
100
AcDbEntity
  8
0
100
AcDbBlockEnd
  0
BLOCK
  5
32FD
330
32F8
100
AcDbEntity
  8
0
100
AcDbBlockBegin
  2
*S22
 70
     1
 10
0.0
 20
0.0
 30
0.0
  3
*S22
  1

  0
LINE
  5
32F9
330
32F8
100
AcDbEntity
  8
AM_5
 62
     5
100
AcDbLine
 10
1854.044913492835
 20
1101.586854142198
 30
0.0
 11
1829.695894704417
 21
1101.586854142198
 31
0.0
  0
LINE
  5
32FA
330
32F8
100
AcDbEntity
  8
AM_5
 62
     5
100
AcDbLine
 10
1829.695894704417
 20
1101.586854142198
 30
0.0
 11
1822.273286109781
 21
1111.312820957365
 31
0.0
  0
TRACE
  5
32FB
330
32F8
100
AcDbEntity
  8
AM_5
 62
     5
370
    35
100
AcDbTrace
 10
1822.639583807212
 20
1111.592369971752
 30
0.0
 11
1821.906988412351
 21
1111.033271942978
 31
0.0
 12
1820.149900524568
 22
1114.095128211517
 32
0.0
 13
1820.149900524568
 23
1114.095128211517
 33
0.0
  0
MTEXT
  5
32FC
330
32F8
100
AcDbEntity
  8
AM_5
 62
     2
100
AcDbMText
 10
1854.044913492835
 20
1108.127337343798
 30
0.0
 40
3.5
 41
0.0
 71
     9
 72
     5
  1

  7
ACISOTS
210
0.0
220
0.0
230
-1.0
 11
-1.0
 21
0.0
 31
0.0
 73
     1
 44
1.0
1001
ACAD
1000
MTEXTBEGIN
1070
    73
1070
     1
1070
    44
1040
1.0
1070
    74
1070
     0
1000
MTEXTEND
  0
ENDBLK
  5
32FE
330
32F8
100
AcDbEntity
  8
0
100
AcDbBlockEnd
  0
BLOCK
  5
3305
330
3300
100
AcDbEntity
  8
0
100
AcDbBlockBegin
  2
*S23
 70
     1
 10
0.0
 20
0.0
 30
0.0
  3
*S23
  1

  0
LINE
  5
3301
330
3300
100
AcDbEntity
  8
AM_5
 62
     5
100
AcDbLine
 10
1910.139960519509
 20
1110.450573759632
 30
0.0
 11
1883.492290407017
 21
1110.450573759632
 31
0.0
  0
LINE
  5
3302
330
3300
100
AcDbEntity
  8
AM_5
 62
     5
100
AcDbLine
 10
1883.492290407017
 20
1110.450573759632
 30
0.0
 11
1874.540889488599
 21
1121.126685613839
 31
0.0
  0
TRACE
  5
3303
330
3300
100
AcDbEntity
  8
AM_5
 62
     5
370
    35
100
AcDbTrace
 10
1874.893982990828
 20
1121.422737354707
 30
0.0
 11
1874.18779598637
 21
1120.83063387297
 31
0.0
 12
1872.292153250286
 22
1123.808697047539
 32
0.0
 13
1872.292153250286
 23
1123.808697047539
 33
0.0
  0
MTEXT
  5
3304
330
3300
100
AcDbEntity
  8
AM_5
 62
     2
100
AcDbMText
 10
1910.139960519509
 20
1117.103734914018
 30
0.0
 40
3.5
 41
0.0
 71
     9
 72
     5
  1

  7
ACISOTS
210
0.0
220
0.0
230
-1.0
 11
-1.0
 21
0.0
 31
0.0
 73
     1
 44
1.0
1001
ACAD
1000
MTEXTBEGIN
1070
    73
1070
     1
1070
    44
1040
1.0
1070
    74
1070
     0
1000
MTEXTEND
  0
ENDBLK
  5
3306
330
3300
100
AcDbEntity
  8
0
100
AcDbBlockEnd
  0
BLOCK
  5
330D
330
3308
100
AcDbEntity
  8
0
100
AcDbBlockBegin
  2
*S24
 70
     1
 10
0.0
 20
0.0
 30
0.0
  3
*S24
  1

  0
LINE
  5
3309
330
3308
100
AcDbEntity
  8
AM_5
 62
     5
100
AcDbLine
 10
2136.701365096016
 20
932.2348386225959
 30
0.0
 11
2128.749265128488
 21
932.2348386225959
 31
0.0
  0
LINE
  5
330A
330
3308
100
AcDbEntity
  8
AM_5
 62
     5
100
AcDbLine
 10
2128.749265128488
 20
932.2348386225959
 30
0.0
 11
2123.006543645411
 21
926.2787775659976
 31
0.0
  0
TRACE
  5
330B
330
3308
100
AcDbEntity
  8
AM_5
 62
     5
370
    35
100
AcDbTrace
 10
2122.674833759763
 20
926.5986059674119
 30
0.0
 11
2123.338253531058
 21
925.9589491645833
 31
0.0
 12
2120.577205739162
 22
923.7591908266164
 32
0.0
 13
2120.577205739162
 23
923.7591908266164
 33
0.0
  0
MTEXT
  5
330C
330
3308
100
AcDbEntity
  8
AM_5
 62
     2
100
AcDbMText
 10
2136.701365096016
 20
938.5404173524745
 30
0.0
 40
3.5
 41
0.0
 71
     9
 72
     5
  1

  7
ACISOTS
210
0.0
220
0.0
230
-1.0
 11
-1.0
 21
0.0
 31
0.0
 73
     1
 44
1.0
1001
ACAD
1000
MTEXTBEGIN
1070
    73
1070
     1
1070
    44
1040
1.0
1070
    74
1070
     0
1000
MTEXTEND
  0
ENDBLK
  5
330E
330
3308
100
AcDbEntity
  8
0
100
AcDbBlockEnd
  0
BLOCK
  5
3315
330
3310
100
AcDbEntity
  8
0
100
AcDbBlockBegin
  2
*S25
 70
     1
 10
0.0
 20
0.0
 30
0.0
  3
*S25
  1

  0
LINE
  5
3311
330
3310
100
AcDbEntity
  8
AM_5
 62
     5
100
AcDbLine
 10
2194.069037115977
 20
952.257142507516
 30
0.0
 11
2206.308671893158
 21
952.257142507516
 31
0.0
  0
LINE
  5
3312
330
3310
100
AcDbEntity
  8
AM_5
 62
     5
100
AcDbLine
 10
2206.308671893158
 20
952.257142507516
 30
0.0
 11
2217.307818685342
 21
963.5191518024326
 31
0.0
  0
TRACE
  5
3313
330
3310
100
AcDbEntity
  8
AM_5
 62
     5
370
    35
100
AcDbTrace
 10
2217.637466373492
 20
963.1971983022426
 30
0.0
 11
2216.978170997191
 21
963.8411053026228
 31
0.0
 12
2219.753298319428
 22
966.023074596624
 32
0.0
 13
2219.753298319428
 23
966.023074596624
 33
0.0
  0
MTEXT
  5
3314
330
3310
100
AcDbEntity
  8
AM_5
 62
     2
100
AcDbMText
 10
2194.069037115977
 20
958.5627212373944
 30
0.0
 40
3.5
 41
0.0
 71
     9
 72
     5
  1

  7
ACISOTS
 73
     1
 44
1.0
1001
ACAD
1000
MTEXTBEGIN
1070
    73
1070
     1
1070
    44
1040
1.0
1070
    74
1070
     0
1000
MTEXTEND
  0
ENDBLK
  5
3316
330
3310
100
AcDbEntity
  8
0
100
AcDbBlockEnd
  0
BLOCK
  5
331D
330
3318
100
AcDbEntity
  8
0
100
AcDbBlockBegin
  2
*S26
 70
     1
 10
0.0
 20
0.0
 30
0.0
  3
*S26
  1

  0
LINE
  5
3319
330
3318
100
AcDbEntity
  8
AM_5
 62
     5
100
AcDbLine
 10
2150.689920346732
 20
1031.000772842252
 30
0.0
 11
2126.340901558314
 21
1031.000772842252
 31
0.0
  0
LINE
  5
331A
330
3318
100
AcDbEntity
  8
AM_5
 62
     5
100
AcDbLine
 10
2126.340901558314
 20
1031.000772842252
 30
0.0
 11
2116.866862341473
 21
1011.584002145216
 31
0.0
  0
TRACE
  5
331B
330
3318
100
AcDbEntity
  8
AM_5
 62
     5
370
    35
100
AcDbTrace
 10
2116.452744995703
 20
1011.786062726526
 30
0.0
 11
2117.280979687244
 21
1011.381941563906
 31
0.0
 12
2115.33205984312
 22
1008.438468598892
 32
0.0
 13
2115.33205984312
 23
1008.438468598892
 33
0.0
  0
MTEXT
  5
331C
330
3318
100
AcDbEntity
  8
AM_5
 62
     2
100
AcDbMText
 10
2150.689920346732
 20
1037.541256043852
 30
0.0
 40
3.5
 41
0.0
 71
     9
 72
     5
  1

  7
ACISOTS
210
0.0
220
0.0
230
-1.0
 11
-1.0
 21
0.0
 31
0.0
 73
     1
 44
1.0
1001
ACAD
1000
MTEXTBEGIN
1070
    73
1070
     1
1070
    44
1040
1.0
1070
    74
1070
     0
1000
MTEXTEND
  0
ENDBLK
  5
331E
330
3318
100
AcDbEntity
  8
0
100
AcDbBlockEnd
  0
BLOCK
  5
3325
330
3320
100
AcDbEntity
  8
0
100
AcDbBlockBegin
  2
*S27
 70
     1
 10
0.0
 20
0.0
 30
0.0
  3
*S27
  1

  0
LINE
  5
3321
330
3320
100
AcDbEntity
  8
AM_5
 62
     5
100
AcDbLine
 10
2116.743098530429
 20
1101.586854142198
 30
0.0
 11
2092.394079742011
 21
1101.586854142198
 31
0.0
  0
LINE
  5
3322
330
3320
100
AcDbEntity
  8
AM_5
 62
     5
100
AcDbLine
 10
2092.394079742011
 20
1101.586854142198
 30
0.0
 11
2085.60400014665
 21
1125.551561001657
 31
0.0
  0
TRACE
  5
3323
330
3320
100
AcDbEntity
  8
AM_5
 62
     5
370
    35
100
AcDbTrace
 10
2086.04733211262
 20
1125.677173192691
 30
0.0
 11
2085.160668180679
 21
1125.425948810623
 31
0.0
 12
2084.649880825736
 22
1128.919001620504
 32
0.0
 13
2084.649880825736
 23
1128.919001620504
 33
0.0
  0
MTEXT
  5
3324
330
3320
100
AcDbEntity
  8
AM_5
 62
     2
100
AcDbMText
 10
2116.743098530429
 20
1108.127337343798
 30
0.0
 40
3.5
 41
0.0
 71
     9
 72
     5
  1

  7
ACISOTS
210
0.0
220
0.0
230
-1.0
 11
-1.0
 21
0.0
 31
0.0
 73
     1
 44
1.0
1001
ACAD
1000
MTEXTBEGIN
1070
    73
1070
     1
1070
    44
1040
1.0
1070
    74
1070
     0
1000
MTEXTEND
  0
ENDBLK
  5
3326
330
3320
100
AcDbEntity
  8
0
100
AcDbBlockEnd
  0
BLOCK
  5
332D
330
3328
100
AcDbEntity
  8
0
100
AcDbBlockBegin
  2
*S28
 70
     1
 10
0.0
 20
0.0
 30
0.0
  3
*S28
  1

  0
LINE
  5
3329
330
3328
100
AcDbEntity
  8
AM_5
 62
     5
100
AcDbLine
 10
2152.455328585964
 20
1101.586854142198
 30
0.0
 11
2128.106309797546
 21
1101.586854142198
 31
0.0
  0
LINE
  5
332A
330
3328
100
AcDbEntity
  8
AM_5
 62
     5
100
AcDbLine
 10
2128.106309797546
 20
1101.586854142198
 30
0.0
 11
2120.68370120291
 21
1111.312820957365
 31
0.0
  0
TRACE
  5
332B
330
3328
100
AcDbEntity
  8
AM_5
 62
     5
370
    35
100
AcDbTrace
 10
2121.04999890034
 20
1111.592369971752
 30
0.0
 11
2120.317403505479
 21
1111.033271942978
 31
0.0
 12
2118.560315617697
 22
1114.095128211517
 32
0.0
 13
2118.560315617697
 23
1114.095128211517
 33
0.0
  0
MTEXT
  5
332C
330
3328
100
AcDbEntity
  8
AM_5
 62
     2
100
AcDbMText
 10
2152.455328585964
 20
1108.127337343798
 30
0.0
 40
3.5
 41
0.0
 71
     9
 72
     5
  1

  7
ACISOTS
210
0.0
220
0.0
230
-1.0
 11
-1.0
 21
0.0
 31
0.0
 73
     1
 44
1.0
1001
ACAD
1000
MTEXTBEGIN
1070
    73
1070
     1
1070
    44
1040
1.0
1070
    74
1070
     0
1000
MTEXTEND
  0
ENDBLK
  5
332E
330
3328
100
AcDbEntity
  8
0
100
AcDbBlockEnd
  0
BLOCK
  5
3335
330
3330
100
AcDbEntity
  8
0
100
AcDbBlockBegin
  2
*S29
 70
     1
 10
0.0
 20
0.0
 30
0.0
  3
*S29
  1

  0
LINE
  5
3331
330
3330
100
AcDbEntity
  8
AM_5
 62
     5
100
AcDbLine
 10
2208.550375612638
 20
1110.450573759632
 30
0.0
 11
2181.902705500146
 21
1110.450573759632
 31
0.0
  0
LINE
  5
3332
330
3330
100
AcDbEntity
  8
AM_5
 62
     5
100
AcDbLine
 10
2181.902705500146
 20
1110.450573759632
 30
0.0
 11
2172.951304581728
 21
1121.126685613839
 31
0.0
  0
TRACE
  5
3333
330
3330
100
AcDbEntity
  8
AM_5
 62
     5
370
    35
100
AcDbTrace
 10
2173.304398083956
 20
1121.422737354707
 30
0.0
 11
2172.598211079499
 21
1120.83063387297
 31
0.0
 12
2170.702568343415
 22
1123.808697047539
 32
0.0
 13
2170.702568343415
 23
1123.808697047539
 33
0.0
  0
MTEXT
  5
3334
330
3330
100
AcDbEntity
  8
AM_5
 62
     2
100
AcDbMText
 10
2208.550375612638
 20
1117.103734914018
 30
0.0
 40
3.5
 41
0.0
 71
     9
 72
     5
  1

  7
ACISOTS
210
0.0
220
0.0
230
-1.0
 11
-1.0
 21
0.0
 31
0.0
 73
     1
 44
1.0
1001
ACAD
1000
MTEXTBEGIN
1070
    73
1070
     1
1070
    44
1040
1.0
1070
    74
1070
     0
1000
MTEXTEND
  0
ENDBLK
  5
3336
330
3330
100
AcDbEntity
  8
0
100
AcDbBlockEnd
  0
BLOCK
  5
333D
330
3338
100
AcDbEntity
  8
0
100
AcDbBlockBegin
  2
*S30
 70
     1
 10
0.0
 20
0.0
 30
0.0
  3
*S30
  1

  0
LINE
  5
3339
330
3338
100
AcDbEntity
  8
AM_5
 62
     5
100
AcDbLine
 10
2207.077795321374
 20
1034.624465211983
 30
0.0
 11
2178.315306557194
 21
1034.624465211983
 31
0.0
  0
LINE
  5
333A
330
3338
100
AcDbEntity
  8
AM_5
 62
     5
100
AcDbLine
 10
2178.315306557194
 20
1034.624465211983
 30
0.0
 11
2171.313694724711
 21
1022.99204121388
 31
0.0
  0
TRACE
  5
333B
330
3338
100
AcDbEntity
  8
AM_5
 62
     5
370
    35
100
AcDbTrace
 10
2170.918908074705
 20
1023.229665193236
 30
0.0
 11
2171.708481374717
 21
1022.754417234524
 31
0.0
 12
2169.508761398183
 22
1019.993338880072
 32
0.0
 13
2169.508761398183
 23
1019.993338880072
 33
0.0
  0
MTEXT
  5
333C
330
3338
100
AcDbEntity
  8
AM_5
 62
     2
100
AcDbMText
 10
2207.077795321374
 20
1041.718172671626
 30
0.0
 40
3.5
 41
0.0
 71
     9
 72
     5
  1

  7
ACISOTS
210
0.0
220
0.0
230
-1.0
 11
-1.0
 21
0.0
 31
0.0
 73
     1
 44
1.0
1001
ACAD
1000
MTEXTBEGIN
1070
    73
1070
     1
1070
    44
1040
1.0
1070
    74
1070
     0
1000
MTEXTEND
  0
ENDBLK
  5
333E
330
3338
100
AcDbEntity
  8
0
100
AcDbBlockEnd
  0
BLOCK
  5
3345
330
3340
100
AcDbEntity
  8
0
100
AcDbBlockBegin
  2
*S31
 70
     1
 10
0.0
 20
0.0
 30
0.0
  3
*S31
  1

  0
LINE
  5
3341
330
3340
100
AcDbEntity
  8
AM_5
 62
     5
100
AcDbLine
 10
1908.667380228246
 20
1034.624465211983
 30
0.0
 11
1879.904891464065
 21
1034.624465211983
 31
0.0
  0
LINE
  5
3342
330
3340
100
AcDbEntity
  8
AM_5
 62
     5
100
AcDbLine
 10
1879.904891464065
 20
1034.624465211983
 30
0.0
 11
1872.903279631582
 21
1022.99204121388
 31
0.0
  0
TRACE
  5
3343
330
3340
100
AcDbEntity
  8
AM_5
 62
     5
370
    35
100
AcDbTrace
 10
1872.508492981577
 20
1023.229665193236
 30
0.0
 11
1873.298066281588
 21
1022.754417234524
 31
0.0
 12
1871.098346305054
 22
1019.993338880072
 32
0.0
 13
1871.098346305054
 23
1019.993338880072
 33
0.0
  0
MTEXT
  5
3344
330
3340
100
AcDbEntity
  8
AM_5
 62
     2
100
AcDbMText
 10
1908.667380228246
 20
1041.718172671626
 30
0.0
 40
3.5
 41
0.0
 71
     9
 72
     5
  1

  7
ACISOTS
210
0.0
220
0.0
230
-1.0
 11
-1.0
 21
0.0
 31
0.0
 73
     1
 44
1.0
1001
ACAD
1000
MTEXTBEGIN
1070
    73
1070
     1
1070
    44
1040
1.0
1070
    74
1070
     0
1000
MTEXTEND
  0
ENDBLK
  5
3346
330
3340
100
AcDbEntity
  8
0
100
AcDbBlockEnd
  0
ENDSEC
  0
SECTION
  2
ENTITIES
  0
TEXT
  5
E1F
330
1F
100
AcDbEntity
  8
AM_5
100
AcDbText
 10
2673.874599262465
 20
1604.83630397753
 30
0.0
 40
6.0
  1

100
AcDbText
  0
TEXT
  5
E3C
330
1F
100
AcDbEntity
  8
LOGO
 62
     7
100
AcDbText
 10
1773.160727062085
 20
853.1102446536349
 30
0.0
 40
5.759165972850678
  1
Order example:
 41
0.8
  7
CHINESET
100
AcDbText
  0
TEXT
  5
E3D
330
1F
100
AcDbEntity
  8
LOGO
 62
     7
100
AcDbText
 10
1774.193969063979
 20
861.2179578928786
 30
0.0
 40
8.638748959276016
  1
訂購代號:
  7
CHINESET
100
AcDbText
  0
LINE
  5
E3E
330
1F
100
AcDbEntity
  8
LOGO
 62
     1
100
AcDbLine
 10
2269.632111360877
 20
872.0326892445555
 30
0.0
 11
1675.632111360877
 21
872.0326892445555
 31
0.0
  0
LINE
  5
E3F
330
1F
100
AcDbEntity
  8
LOGO
 62
     1
100
AcDbLine
 10
1770.658349912913
 20
828.8389444481751
 30
0.0
 11
1770.658349912913
 21
872.0326892445555
 31
0.0
  0
TEXT
  5
E40
330
1F
100
AcDbEntity
  8
LOGO
  6
Continuous
 62
     5
100
AcDbText
 10
1691.147498651377
 20
837.3242904283795
 30
0.0
 40
6.479061719457013
  1
金器工業股份有限公司
  7
CHINESET
100
AcDbText
  0
TEXT
  5
E41
330
1F
100
AcDbEntity
  8
LOGO
  6
Continuous
 62
     5
100
AcDbText
 10
1679.246744091883
 20
830.8439593208037
 30
0.0
 40
4.319374479638008
  1
MINDMAN INDUSTRIAL CO., LTD.
 41
0.85
  7
CHINESET
100
AcDbText
  0
LINE
  5
E42
330
1F
100
AcDbEntity
  8
LOGO
 62
     1
100
AcDbLine
 10
1770.658349912913
 20
863.3939402852794
 30
0.0
 11
1707.307524211556
 21
863.3939402852794
 31
0.0
  0
LINE
  5
E43
330
1F
100
AcDbEntity
  8
LOGO
 62
     1
100
AcDbLine
 10
1770.658349912913
 20
854.7551913260035
 30
0.0
 11
1707.307524211556
 21
854.7551913260035
 31
0.0
  0
LINE
  5
E44
330
1F
100
AcDbEntity
  8
LOGO
 62
     1
100
AcDbLine
 10
1770.658349912913
 20
846.1164423667279
 30
0.0
 11
1675.632111360877
 21
846.1164423667279
 31
0.0
  0
LINE
  5
E45
330
1F
100
AcDbEntity
  8
LOGO
 62
     1
100
AcDbLine
 10
1707.307524211556
 20
846.1164423667279
 30
0.0
 11
1707.307524211556
 21
872.0326892445555
 31
0.0
  0
TEXT
  5
E46
330
1F
100
AcDbEntity
  8
LOGO
 62
     6
100
AcDbText
 10
1748.342293975672
 20
848.276129606546
 30
0.0
 40
4.319374479638008
  1
m/m
  7
CHINESET
 72
     1
 11
1755.952620439796
 21
850.4358168463651
 31
0.0
100
AcDbText
 73
     2
  0
TEXT
  5
E47
330
1F
100
AcDbEntity
  8
LOGO
 62
     6
100
AcDbText
 10
1748.342293975672
 20
865.553627525098
 30
0.0
 40
4.319374479638008
  1
1 : 1
  7
CHINESET
 72
     1
 11
1755.952620439796
 21
867.7133147649172
 31
0.0
100
AcDbText
 73
     2
  0
LINE
  5
E48
330
1F
100
AcDbEntity
  8
LOGO
 62
     1
100
AcDbLine
 10
1741.86252004866
 20
846.1164423667279
 30
0.0
 11
1741.86252004866
 21
872.0326892445555
 31
0.0
  0
CIRCLE
  5
E49
330
1F
100
AcDbEntity
  8
LOGO
  6
Continuous
 62
     6
100
AcDbCircle
 10
1749.860382156529
 20
859.0838049792619
 30
0.0
 40
2.507930489492564
  0
CIRCLE
  5
E4A
330
1F
100
AcDbEntity
  8
LOGO
  6
Continuous
 62
     6
100
AcDbCircle
 10
1749.860382156529
 20
859.0838049792619
 30
0.0
 40
1.469425252317689
  0
LINE
  5
E4B
330
1F
100
AcDbEntity
  8
LOGO
 62
     6
100
AcDbLine
 10
1765.620508360448
 20
856.5758744897689
 30
0.0
 11
1765.620508360448
 21
861.591735468755
 31
0.0
  0
LINE
  5
E4C
330
1F
100
AcDbEntity
  8
LOGO
 62
     6
100
AcDbLine
 10
1757.758290237968
 20
857.6143797269445
 30
0.0
 11
1757.758290237968
 21
860.5532302315799
 31
0.0
  0
LINE
  5
E4D
330
1F
100
AcDbEntity
  8
LOGO
  6
Continuous
 62
     6
100
AcDbLine
 10
1757.758290237968
 20
860.5532302315799
 30
0.0
 11
1765.620508360448
 21
861.591735468755
 31
0.0
  0
LINE
  5
E4E
330
1F
100
AcDbEntity
  8
LOGO
  6
Continuous
 62
     6
100
AcDbLine
 10
1757.758290237968
 20
857.6143797269445
 30
0.0
 11
1765.620508360448
 21
856.5758744897689
 31
0.0
  0
TEXT
  5
E59
330
1F
100
AcDbEntity
  8
LOGO
 62
     6
100
AcDbText
 10
1710.869079865079
 20
865.5557532015153
 30
283.0846876417076
 40
4.319374479638008
  1
比例 Scale:
 41
0.9
  7
CHINESET
 72
     4
 11
1724.585022130108
 21
867.7133147649172
 31
283.0846876417076
100
AcDbText
  0
TEXT
  5
E5A
330
1F
100
AcDbEntity
  8
LOGO
 62
     6
100
AcDbText
 10
1712.378932640774
 20
856.9756374834122
 30
283.0846876417076
 40
4.319374479638008
  1
投影 View:
 41
0.9
  7
CHINESET
 72
     4
 11
1724.585022130108
 21
859.0745658056412
 31
283.0846876417076
100
AcDbText
  0
TEXT
  5
E5B
330
1F
100
AcDbEntity
  8
LOGO
 62
     6
100
AcDbText
 10
1712.801228627845
 20
848.276129606546
 30
283.0846876417076
 40
4.319374479638008
  1
單位 Unit:
 41
0.9
  7
CHINESET
 72
     4
 11
1724.585022130108
 21
850.4358168463651
 31
283.0846876417076
100
AcDbText
  0
LWPOLYLINE
  5
E5E
330
1F
100
AcDbEntity
  8
0
 62
     4
100
AcDbPolyline
 90
        4
 70
     1
 43
0.0
 10
1675.632111360877
 20
872.0326892445555
 10
2269.632111360877
 20
872.0326892445555
 10
2269.632111360877
 20
1207.033453878104
 10
1675.632111360877
 20
1207.033453878104
1001
GENIUS_GENREC_14
1002
{
1000
PYDIR
1011
1675.632111360877
1021
1207.033453878104
1031
0.0
1002
}
1002
{
1000
PXDIR
1011
2269.632111360877
1021
872.0326892445555
1031
0.0
1002
}
1002
{
1000
PORI
1011
1675.632111360877
1021
872.0326892445555
1031
0.0
1002
}
1002
{
1000
PINS
1011
1675.632111360877
1021
872.0326892445555
1031
0.0
1002
}
1002
{
1000
PINS2
1011
2269.632111360877
1021
1207.033453878104
1031
0.0
1002
}
1002
{
1000
C
1070
     1
1002
}
1001
GENIUS_GENODEF_13
1002
{
1000
HIER
1070
     0
1002
}
1002
{
1000
MANEDIT
1070
     0
1002
}
1002
{
1000
NOSEL
1070
     0
1002
}
1002
{
1000
BEHIND
1070
     0
1002
}
1002
{
1000
OTHER
1070
     0
1002
}
1002
{
1000
REACTOR
1002
}
1001
GENIUS_GENOBJ-N-REC_13
1002
{
1000
OWNER
1000
GEN
1002
}
  0
SOLID
  5
E5F
330
1F
100
AcDbEntity
  8
LOGO
 62
     5
100
AcDbTrace
 10
1680.113531704189
 20
853.2967876245823
 30
0.0
 11
1681.981115888798
 21
853.2967876245818
 31
0.0
 12
1689.773449900443
 22
871.0066376510486
 32
0.0
 13
1691.641034085053
 23
871.0066376510477
 33
0.0
  0
SOLID
  5
E60
330
1F
100
AcDbEntity
  8
LOGO
 62
     5
100
AcDbTrace
 10
1682.753909344501
 20
853.2967876245823
 30
0.0
 11
1684.62149352911
 21
853.2967876245823
 31
0.0
 12
1691.641034085053
 22
869.5898496489306
 32
0.0
 13
1689.773449900443
 23
862.7420409720302
 33
0.0
  0
SOLID
  5
E61
330
1F
100
AcDbEntity
  8
LOGO
 62
     2
100
AcDbTrace
 10
1681.981115888798
 20
853.2967876245818
 30
0.0
 11
1682.753909344501
 21
853.2967876245823
 31
0.0
 12
1691.641034085053
 22
871.0066376510477
 32
0.0
 13
1692.413827540755
 23
871.0066376510477
 33
0.0
  0
SOLID
  5
E62
330
1F
100
AcDbEntity
  8
LOGO
 62
     5
100
AcDbTrace
 10
1677.119336268518
 20
846.8568421604134
 30
0.0
 11
1677.763330814936
 21
846.8568421604134
 31
0.0
 12
1679.576869582176
 22
850.0768148924976
 32
0.0
 13
1680.220864128591
 23
850.0768148924976
 33
0.0
  0
SOLID
  5
E63
330
1F
100
AcDbEntity
  8
LOGO
 62
     5
100
AcDbTrace
 10
1679.576869582176
 20
850.0768148924976
 30
0.0
 11
1680.220864128591
 21
850.0768148924976
 31
0.0
 12
1679.576869582176
 22
846.8568421604134
 32
0.0
 13
1680.220864128591
 23
846.8568421604134
 33
0.0
  0
SOLID
  5
E64
330
1F
100
AcDbEntity
  8
LOGO
 62
     5
100
AcDbTrace
 10
1679.576869582176
 20
846.8568421604134
 30
0.0
 11
1680.220864128591
 21
846.8568421604134
 31
0.0
 12
1682.034402895834
 22
850.0768148924976
 32
0.0
 13
1682.67839744225
 23
850.0768148924976
 33
0.0
  0
SOLID
  5
E65
330
1F
100
AcDbEntity
  8
LOGO
 62
     5
100
AcDbTrace
 10
1682.034402895834
 20
850.0768148924976
 30
0.0
 11
1682.67839744225
 21
850.0768148924976
 31
0.0
 12
1682.034402895834
 22
846.8568421604134
 32
0.0
 13
1682.67839744225
 23
846.8568421604134
 33
0.0
  0
POLYLINE
  5
E66
330
1F
100
AcDbEntity
  8
LOGO
 62
     5
100
AcDb2dPolyline
 66
     1
 10
0.0
 20
0.0
 30
0.0
 40
0.6450265889592759
 41
0.6450265889592759
  0
VERTEX
  5
E67
330
E66
100
AcDbEntity
  8
LOGO
 62
     5
100
AcDbVertex
100
AcDb2dVertex
 10
1703.620880712222
 20
848.7888257996637
 30
0.0
 42
1.0
  0
VERTEX
  5
E68
330
E66
100
AcDbEntity
  8
LOGO
 62
     5
100
AcDbVertex
100
AcDb2dVertex
 10
1701.685800945344
 20
848.7888257996637
 30
0.0
 42
1.0
  0
SEQEND
  5
E69
330
E66
100
AcDbEntity
  8
LOGO
 62
     5
  0
POLYLINE
  5
E6A
330
1F
100
AcDbEntity
  8
LOGO
 62
     5
100
AcDb2dPolyline
 66
     1
 10
0.0
 20
0.0
 30
0.0
 70
     1
  0
VERTEX
  5
E6B
330
E6A
100
AcDbEntity
  8
LOGO
 62
     5
100
AcDbVertex
100
AcDb2dVertex
 10
1698.03808951243
 20
848.4668285264548
 30
0.0
 42
1.000000057330635
  0
VERTEX
  5
E6C
330
E6A
100
AcDbEntity
  8
LOGO
 62
     5
100
AcDbVertex
100
AcDb2dVertex
 10
1699.970073151681
 20
848.4668285264548
 30
0.0
 42
1.000000057330635
  0
SEQEND
  5
E6D
330
E6A
100
AcDbEntity
  8
LOGO
 62
     5
  0
CIRCLE
  5
E6E
330
1F
100
AcDbEntity
  8
LOGO
 62
     5
100
AcDbCircle
 10
1699.004081332057
 20
848.4668285264548
 30
0.0
 40
0.9659918196254118
  0
POLYLINE
  5
E6F
330
1F
100
AcDbEntity
  8
LOGO
 62
     5
100
AcDb2dPolyline
 66
     1
 10
0.0
 20
0.0
 30
0.0
 70
     1
 40
0.6450265889592759
 41
0.6450265889592759
  0
VERTEX
  5
E70
330
E6F
100
AcDbEntity
  8
LOGO
 62
     5
100
AcDbVertex
100
AcDb2dVertex
 10
1697.714028154138
 20
848.4668285264548
 30
0.0
 42
1.0
  0
VERTEX
  5
E71
330
E6F
100
AcDbEntity
  8
LOGO
 62
     5
100
AcDbVertex
100
AcDb2dVertex
 10
1700.294134509975
 20
848.4668285264548
 30
0.0
 42
1.0
  0
SEQEND
  5
E72
330
E6F
100
AcDbEntity
  8
LOGO
 62
     5
  0
LINE
  5
E73
330
1F
100
AcDbEntity
  8
LOGO
 62
     5
100
AcDbLine
 10
1703.941329921616
 20
846.8568421604134
 30
0.0
 11
1703.941329921616
 21
848.7888257996637
 31
0.0
  0
SOLID
  5
E74
330
1F
100
AcDbEntity
  8
LOGO
 62
     5
100
AcDbTrace
 10
1699.970008752229
 20
850.0768148924976
 30
0.0
 11
1700.614003298645
 21
850.0768148924976
 31
0.0
 12
1699.970008752229
 22
846.8568421604134
 32
0.0
 13
1700.614003298645
 23
846.8568421604134
 33
0.0
  0
SOLID
  5
E75
330
1F
100
AcDbEntity
  8
LOGO
 62
     5
100
AcDbTrace
 10
1701.365351735949
 20
846.8568421604134
 30
0.0
 11
1702.009346282366
 21
846.8568421604134
 31
0.0
 12
1701.365351735949
 22
850.0768148924976
 32
0.0
 13
1702.009346282366
 23
850.0768148924976
 33
0.0
  0
SOLID
  5
E76
330
1F
100
AcDbEntity
  8
LOGO
 62
     5
100
AcDbTrace
 10
1703.2973353752
 20
848.7888257996637
 30
0.0
 11
1703.941329921616
 21
848.7888257996637
 31
0.0
 12
1703.2973353752
 22
846.8568421604134
 32
0.0
 13
1703.941329921616
 23
846.8568421604134
 33
0.0
  0
SOLID
  5
E77
330
1F
100
AcDbEntity
  8
LOGO
 62
     5
100
AcDbTrace
 10
1701.300952281307
 20
869.5898496489306
 30
0.0
 11
1699.433368096698
 21
862.7420409720302
 31
0.0
 12
1701.300952281307
 22
853.2967876245818
 32
0.0
 13
1699.433368096698
 23
853.2967876245818
 33
0.0
  0
SOLID
  5
E78
330
1F
100
AcDbEntity
  8
LOGO
 62
     5
100
AcDbTrace
 10
1702.073745737008
 20
853.2967876245818
 30
0.0
 11
1703.941329921616
 21
853.2967876245818
 31
0.0
 12
1702.073745737008
 22
871.0066376510477
 32
0.0
 13
1703.941329921616
 23
871.0066376510486
 33
0.0
  0
SOLID
  5
E79
330
1F
100
AcDbEntity
  8
LOGO
 62
     2
100
AcDbTrace
 10
1701.300952281307
 20
871.0066376510486
 30
0.0
 11
1702.073745737008
 21
871.0066376510477
 31
0.0
 12
1701.300952281307
 22
853.2967876245818
 32
0.0
 13
1702.073745737008
 23
853.2967876245818
 33
0.0
  0
POLYLINE
  5
E7A
330
1F
100
AcDbEntity
  8
LOGO
 62
     5
100
AcDb2dPolyline
 66
     1
 10
0.0
 20
0.0
 30
0.0
 40
0.6450265889592759
 41
0.6450265889592759
  0
VERTEX
  5
E7B
330
E7A
100
AcDbEntity
  8
LOGO
 62
     5
100
AcDbVertex
100
AcDb2dVertex
 10
1694.39024928061
 20
848.7888257996637
 30
0.0
 42
1.0
  0
VERTEX
  5
E7C
330
E7A
100
AcDbEntity
  8
LOGO
 62
     5
100
AcDbVertex
100
AcDb2dVertex
 10
1692.455169513731
 20
848.7888257996637
 30
0.0
 42
1.0
  0
SEQEND
  5
E7D
330
E7A
100
AcDbEntity
  8
LOGO
 62
     5
  0
POLYLINE
  5
E7E
330
1F
100
AcDbEntity
  8
LOGO
 62
     5
100
AcDb2dPolyline
 66
     1
 10
0.0
 20
0.0
 30
0.0
 40
0.6450265889592759
 41
0.6450265889592759
  0
VERTEX
  5
E7F
330
E7E
100
AcDbEntity
  8
LOGO
 62
     5
100
AcDbVertex
100
AcDb2dVertex
 10
1696.322232919859
 20
848.7888257996637
 30
0.0
 42
1.0
  0
VERTEX
  5
E80
330
E7E
100
AcDbEntity
  8
LOGO
 62
     5
100
AcDbVertex
100
AcDb2dVertex
 10
1694.387153152982
 20
848.7888257996637
 30
0.0
 42
1.0
  0
SEQEND
  5
E81
330
E7E
100
AcDbEntity
  8
LOGO
 62
     5
  0
POLYLINE
  5
E82
330
1F
100
AcDbEntity
  8
LOGO
 62
     5
100
AcDb2dPolyline
 66
     1
 10
0.0
 20
0.0
 30
0.0
 40
0.6450265889592759
 41
0.6450265889592759
  0
VERTEX
  5
E83
330
E82
100
AcDbEntity
  8
LOGO
 62
     5
100
AcDbVertex
100
AcDb2dVertex
 10
1687.091601488247
 20
848.7888257996637
 30
0.0
 42
1.0
  0
VERTEX
  5
E84
330
E82
100
AcDbEntity
  8
LOGO
 62
     5
100
AcDbVertex
100
AcDb2dVertex
 10
1685.15652172137
 20
848.7888257996637
 30
0.0
 42
1.0
  0
SEQEND
  5
E85
330
E82
100
AcDbEntity
  8
LOGO
 62
     5
  0
SOLID
  5
E86
330
1F
100
AcDbEntity
  8
LOGO
 62
     5
100
AcDbTrace
 10
1684.836072511975
 20
850.0768148924976
 30
0.0
 11
1685.48006705839
 21
850.0768148924976
 31
0.0
 12
1684.836072511975
 22
846.8568421604134
 32
0.0
 13
1685.48006705839
 23
846.8568421604134
 33
0.0
  0
SOLID
  5
E87
330
1F
100
AcDbEntity
  8
LOGO
 62
     5
100
AcDbTrace
 10
1686.768056151225
 20
848.7888257996637
 30
0.0
 11
1687.412050697643
 21
848.7888257996637
 31
0.0
 12
1686.768056151225
 22
846.8568421604134
 32
0.0
 13
1687.412050697643
 23
846.8568421604134
 33
0.0
  0
POLYLINE
  5
E88
330
1F
100
AcDbEntity
  8
LOGO
 62
     5
100
AcDb2dPolyline
 66
     1
 10
0.0
 20
0.0
 30
0.0
 70
     1
 40
0.6450265889592759
 41
0.6450265889592759
  0
VERTEX
  5
E89
330
E88
100
AcDbEntity
  8
LOGO
 62
     5
100
AcDbVertex
100
AcDb2dVertex
 10
1688.483396722524
 20
848.4668285264548
 30
0.0
 42
1.0
  0
VERTEX
  5
E8A
330
E88
100
AcDbEntity
  8
LOGO
 62
     5
100
AcDbVertex
100
AcDb2dVertex
 10
1691.063503078362
 20
848.4668285264548
 30
0.0
 42
1.0
  0
SEQEND
  5
E8B
330
E88
100
AcDbEntity
  8
LOGO
 62
     5
  0
SOLID
  5
E8C
330
1F
100
AcDbEntity
  8
LOGO
 62
     5
100
AcDbTrace
 10
1690.739377320615
 20
851.0428067121235
 30
0.0
 11
1691.383371867032
 21
851.0428067121235
 31
0.0
 12
1690.739377320615
 22
846.8568421604134
 32
0.0
 13
1691.383371867032
 23
846.8568421604134
 33
0.0
  0
SOLID
  5
E8D
330
1F
100
AcDbEntity
  8
LOGO
 62
     5
100
AcDbTrace
 10
1692.134720304338
 20
850.0768148924976
 30
0.0
 11
1692.778714850754
 21
850.0768148924976
 31
0.0
 12
1692.134720304338
 22
846.8568421604134
 32
0.0
 13
1692.778714850754
 23
846.8568421604134
 33
0.0
  0
SOLID
  5
E8E
330
1F
100
AcDbEntity
  8
LOGO
 62
     5
100
AcDbTrace
 10
1694.066703943587
 20
848.7888257996637
 30
0.0
 11
1694.710698490005
 21
848.7888257996637
 31
0.0
 12
1694.066703943587
 22
846.8568421604134
 32
0.0
 13
1694.710698490005
 23
846.8568421604134
 33
0.0
  0
SOLID
  5
E8F
330
1F
100
AcDbEntity
  8
LOGO
 62
     5
100
AcDbTrace
 10
1695.998687582838
 20
848.7888257996637
 30
0.0
 11
1696.642682129255
 21
848.7888257996637
 31
0.0
 12
1695.998687582838
 22
846.8568421604123
 32
0.0
 13
1696.642682129255
 23
846.8568421604123
 33
0.0
  0
SOLID
  5
E90
330
1F
100
AcDbEntity
  8
LOGO
 62
     5
100
AcDbTrace
 10
1683.440729528253
 20
850.5276110749896
 30
0.0
 11
1684.084724074671
 21
850.5276110749896
 31
0.0
 12
1683.440729528253
 22
851.0428067121235
 32
0.0
 13
1684.084724074671
 23
851.0428067121235
 33
0.0
  0
SOLID
  5
E91
330
1F
100
AcDbEntity
  8
LOGO
 62
     5
100
AcDbTrace
 10
1683.440729528253
 20
850.0768148924976
 30
0.0
 11
1684.084724074671
 21
850.0768148924976
 31
0.0
 12
1683.440729528253
 22
846.8568421604123
 32
0.0
 13
1684.084724074671
 23
846.8568421604134
 33
0.0
  0
SOLID
  5
E92
330
1F
100
AcDbEntity
  8
LOGO
 62
     5
100
AcDbTrace
 10
1689.773449900443
 20
853.2967876245823
 30
0.0
 11
1691.641034085053
 21
853.2967876245823
 31
0.0
 12
1689.773449900443
 22
862.7420409720302
 32
0.0
 13
1691.641034085053
 23
869.5898496489306
 33
0.0
  0
SOLID
  5
E93
330
1F
100
AcDbEntity
  8
LOGO
 62
     5
100
AcDbTrace
 10
1692.413827540755
 20
871.0066376510477
 30
0.0
 11
1694.281411725362
 21
871.0066376510486
 31
0.0
 12
1692.413827540755
 22
854.7135756266994
 32
0.0
 13
1694.281411725362
 23
861.5613843035996
 33
0.0
  0
SOLID
  5
E94
330
1F
100
AcDbEntity
  8
LOGO
 62
     2
100
AcDbTrace
 10
1691.641034085053
 20
871.0066376510477
 30
0.0
 11
1692.413827540755
 21
871.0066376510477
 31
0.0
 12
1691.641034085053
 22
853.2967876245823
 32
0.0
 13
1692.413827540755
 23
853.2967876245823
 33
0.0
  0
SOLID
  5
E95
330
1F
100
AcDbEntity
  8
LOGO
 62
     5
100
AcDbTrace
 10
1692.413827540755
 20
854.7135756266994
 30
0.0
 11
1694.281411725362
 21
861.5613843035996
 31
0.0
 12
1701.300952281307
 22
871.0066376510486
 32
0.0
 13
1699.433368096698
 23
871.0066376510486
 33
0.0
  0
SOLID
  5
E96
330
1F
100
AcDbEntity
  8
LOGO
 62
     5
100
AcDbTrace
 10
1692.413827540755
 20
853.2967876245823
 30
0.0
 11
1694.281411725362
 21
853.2967876245823
 31
0.0
 12
1701.300952281307
 22
869.5898496489306
 32
0.0
 13
1699.433368096698
 23
862.7420409720302
 33
0.0
  0
SOLID
  5
E97
330
1F
100
AcDbEntity
  8
LOGO
 62
     2
100
AcDbTrace
 10
1691.641034085053
 20
853.2967876245823
 30
0.0
 11
1692.413827540755
 21
853.2967876245823
 31
0.0
 12
1701.300952281307
 22
871.0066376510486
 32
0.0
 13
1702.073745737008
 23
871.0066376510477
 33
0.0
  0
LWPOLYLINE
  5
E9B
330
1F
100
AcDbEntity
  8
0
 62
     1
100
AcDbPolyline
 90
        4
 70
     1
 43
0.0
 10
1675.632111360877
 20
872.0326892445555
 10
2269.632111360877
 20
872.0326892445555
 10
2269.632111360877
 20
828.8389444481746
 10
1675.632111360877
 20
828.8389444481746
1001
GENIUS_GENREC_14
1002
{
1000
PYDIR
1011
1675.632111360877
1021
828.8389444481746
1031
0.0
1002
}
1002
{
1000
PXDIR
1011
2269.632111360877
1021
872.0326892445555
1031
0.0
1002
}
1002
{
1000
PORI
1011
1675.632111360877
1021
872.0326892445555
1031
0.0
1002
}
1002
{
1000
PINS
1011
1675.632111360877
1021
872.0326892445555
1031
0.0
1002
}
1002
{
1000
PINS2
1011
2269.632111360877
1021
828.8389444481746
1031
0.0
1002
}
1002
{
1000
C
1070
     1
1002
}
1001
GENIUS_GENOBJ-N-REC_13
1002
{
1000
OWNER
1000
GEN
1002
}
1001
GENIUS_GENODEF_13
1002
{
1000
HIER
1070
     0
1002
}
1002
{
1000
MANEDIT
1070
     0
1002
}
1002
{
1000
NOSEL
1070
     0
1002
}
1002
{
1000
BEHIND
1070
     0
1002
}
1002
{
1000
OTHER
1070
     0
1002
}
1002
{
1000
REACTOR
1002
}
  0
LINE
  5
ED2
330
1F
100
AcDbEntity
  8
LOGO
 62
     6
100
AcDbLine
 10
1858.865258708875
 20
848.2761296065469
 30
0.0
 11
1858.865258708875
 21
832.4384231812068
 31
0.0
  0
LINE
  5
ED3
330
1F
100
AcDbEntity
  8
LOGO
 62
     6
100
AcDbLine
 10
1830.069428844622
 20
848.2761296065469
 30
0.0
 11
1830.069428844622
 21
832.4384231812068
 31
0.0
  0
LINE
  5
ED4
330
1F
100
AcDbEntity
  8
LOGO
 62
     6
100
AcDbLine
 10
1858.865258708875
 20
832.4384231812068
 30
0.0
 11
1830.069428844622
 21
832.4384231812068
 31
0.0
  0
LINE
  5
ED5
330
1F
100
AcDbEntity
  8
LOGO
 62
     6
100
AcDbLine
 10
1863.732666203751
 20
867.7133147649172
 30
0.0
 11
1830.069428844622
 21
867.7133147649172
 31
0.0
  0
LINE
  5
ED6
330
1F
100
AcDbEntity
  8
LOGO
 62
     6
100
AcDbLine
 10
1863.732666203751
 20
854.7551913260035
 30
0.0
 11
1830.069428844622
 21
854.7551913260035
 31
0.0
  0
LINE
  5
ED7
330
1F
100
AcDbEntity
  8
LOGO
 62
     6
100
AcDbLine
 10
1830.069428844622
 20
867.7133147649172
 30
0.0
 11
1830.069428844622
 21
854.7551913260035
 31
0.0
  0
LINE
  5
ED8
330
1F
100
AcDbEntity
  8
LOGO
 62
     6
100
AcDbLine
 10
1863.732666203751
 20
867.7133147649172
 30
0.0
 11
1863.732666203751
 21
854.7551913260035
 31
0.0
  0
LINE
  5
ED9
330
1F
100
AcDbEntity
  8
LOGO
 62
     6
100
AcDbLine
 10
1845.969762833739
 20
854.7551913260035
 30
0.0
 11
1845.969762833739
 21
848.2761296065469
 31
0.0
  0
TEXT
  5
EDA
330
1F
100
AcDbEntity
  8
LOGO
  6
Continuous
 62
     7
100
AcDbText
 10
1832.371884437307
 20
857.460180649102
 30
0.0
 40
7.56
  1
MCGD
  7
CHINESET
100
AcDbText
  0
LINE
  5
EDB
330
1F
100
AcDbEntity
  8
LOGO
 62
     6
100
AcDbLine
 10
1858.865258708875
 20
848.2761296065469
 30
0.0
 11
1830.069428844622
 21
848.2761296065469
 31
0.0
  0
TEXT
  5
EDC
330
1F
100
AcDbEntity
  8
LOGO
  6
Continuous
 62
     6
100
AcDbText
 10
1837.894498447763
 20
834.6738818585068
 30
283.0846876417076
 40
3.239999999999999
  1
Model
  7
CHINESET
100
AcDbText
  0
TEXT
  5
EDD
330
1F
100
AcDbEntity
  8
LOGO
 62
     6
100
AcDbText
 10
1838.447536807773
 20
840.6801435886698
 30
283.0846876417076
 40
5.4
  1
型號
  7
CHINESET
100
AcDbText
  0
LINE
  5
EDE
330
1F
100
AcDbEntity
  8
LOGO
  6
Continuous
 62
     7
100
AcDbLine
 10
1865.753800901311
 20
861.1883533243725
 30
0.0
 11
1871.475635391021
 21
861.1883533243725
 31
0.0
  0
LINE
  5
EDF
330
1F
100
AcDbEntity
  8
LOGO
 62
     6
100
AcDbLine
 10
1902.487189315444
 20
848.2761296065469
 30
0.0
 11
1902.487189315444
 21
832.4384231812068
 31
0.0
  0
LINE
  5
EE0
330
1F
100
AcDbEntity
  8
LOGO
 62
     6
100
AcDbLine
 10
1865.30896216732
 20
848.2761296065469
 30
0.0
 11
1865.30896216732
 21
832.4384231812068
 31
0.0
  0
LINE
  5
EE1
330
1F
100
AcDbEntity
  8
LOGO
 62
     6
100
AcDbLine
 10
1902.487189315444
 20
832.4384231812068
 30
0.0
 11
1865.30896216732
 21
832.4384231812068
 31
0.0
  0
LINE
  5
EE2
330
1F
100
AcDbEntity
  8
LOGO
 62
     6
100
AcDbLine
 10
1911.425734018771
 20
867.7133147649172
 30
0.0
 11
1873.280572556628
 21
867.7133147649172
 31
0.0
  0
LINE
  5
EE3
330
1F
100
AcDbEntity
  8
LOGO
 62
     6
100
AcDbLine
 10
1911.425734018771
 20
854.7551913260035
 30
0.0
 11
1873.280572556628
 21
854.7551913260035
 31
0.0
  0
LINE
  5
EE4
330
1F
100
AcDbEntity
  8
LOGO
 62
     6
100
AcDbLine
 10
1873.280572556628
 20
867.7133147649172
 30
0.0
 11
1873.280572556628
 21
854.7551913260035
 31
0.0
  0
LINE
  5
EE5
330
1F
100
AcDbEntity
  8
LOGO
 62
     6
100
AcDbLine
 10
1911.425734018771
 20
867.7133147649172
 30
0.0
 11
1911.425734018771
 21
854.7551913260035
 31
0.0
  0
LINE
  5
EE6
330
1F
100
AcDbEntity
  8
LOGO
 62
     6
100
AcDbLine
 10
1890.402009063319
 20
854.7551913260035
 30
0.0
 11
1890.402009063319
 21
848.2761296065469
 31
0.0
  0
TEXT
  5
EE7
330
1F
100
AcDbEntity
  8
LOGO
  6
Continuous
 62
     7
100
AcDbText
 10
1875.387003907079
 20
857.460180649102
 30
0.0
 40
7.56
  1
03/23
  7
CHINESET
100
AcDbText
  0
LINE
  5
EE8
330
1F
100
AcDbEntity
  8
LOGO
 62
     6
100
AcDbLine
 10
1902.487189315444
 20
848.2761296065469
 30
0.0
 11
1865.30896216732
 21
848.2761296065469
 31
0.0
  0
LINE
  5
EE9
330
1F
100
AcDbEntity
  8
LOGO
  6
Continuous
 62
     7
100
AcDbLine
 10
1914.45439361816
 20
861.1883533243725
 30
0.0
 11
1920.17622810787
 21
861.1883533243725
 31
0.0
  0
LINE
  5
EEA
330
1F
100
AcDbEntity
  8
LOGO
 62
     6
100
AcDbLine
 10
1940.847627491036
 20
848.2761296065469
 30
0.0
 11
1940.847627491036
 21
832.4384231812068
 31
0.0
  0
LINE
  5
EEB
330
1F
100
AcDbEntity
  8
LOGO
 62
     6
100
AcDbLine
 10
1912.051797626783
 20
848.2761296065469
 30
0.0
 11
1912.051797626783
 21
832.4384231812068
 31
0.0
  0
LINE
  5
EEC
330
1F
100
AcDbEntity
  8
LOGO
 62
     6
100
AcDbLine
 10
1940.847627491036
 20
832.4384231812068
 30
0.0
 11
1912.051797626783
 21
832.4384231812068
 31
0.0
  0
LINE
  5
EED
330
1F
100
AcDbEntity
  8
LOGO
 62
     6
100
AcDbLine
 10
1938.321480625439
 20
867.7133147649172
 30
0.0
 11
1922.653094084369
 21
867.7133147649172
 31
0.0
  0
LINE
  5
EEE
330
1F
100
AcDbEntity
  8
LOGO
 62
     6
100
AcDbLine
 10
1938.321480625439
 20
854.7551913260035
 30
0.0
 11
1922.653094084369
 21
854.7551913260035
 31
0.0
  0
LINE
  5
EEF
330
1F
100
AcDbEntity
  8
LOGO
 62
     6
100
AcDbLine
 10
1922.653094084369
 20
867.7133147649172
 30
0.0
 11
1922.653094084369
 21
854.7551913260035
 31
0.0
  0
LINE
  5
EF0
330
1F
100
AcDbEntity
  8
LOGO
 62
     6
100
AcDbLine
 10
1938.321480625439
 20
867.7133147649172
 30
0.0
 11
1938.321480625439
 21
854.7551913260035
 31
0.0
  0
LINE
  5
EF1
330
1F
100
AcDbEntity
  8
LOGO
 62
     6
100
AcDbLine
 10
1930.487287354904
 20
854.7551913260035
 30
0.0
 11
1930.487287354904
 21
848.2761296065469
 31
0.0
  0
TEXT
  5
EF2
330
1F
100
AcDbEntity
  8
LOGO
  6
Continuous
 62
     7
100
AcDbText
 10
1924.377785664089
 20
857.460180649102
 30
0.0
 40
7.56
  1
16
  7
CHINESET
100
AcDbText
  0
LINE
  5
EF3
330
1F
100
AcDbEntity
  8
LOGO
 62
     6
100
AcDbLine
 10
1940.847627491036
 20
848.2761296065469
 30
0.0
 11
1912.051797626783
 21
848.2761296065469
 31
0.0
  0
LINE
  5
EF4
330
1F
100
AcDbEntity
  8
LOGO
  6
Continuous
 62
     7
100
AcDbLine
 10
1941.532502719797
 20
861.1883533243725
 30
0.0
 11
1947.254337209507
 21
861.1883533243725
 31
0.0
  0
LINE
  5
EF5
330
1F
100
AcDbEntity
  8
LOGO
 62
     6
100
AcDbLine
 10
1967.022727444984
 20
848.2761296065469
 30
0.0
 11
1967.022727444984
 21
832.4384231812068
 31
0.0
  0
LINE
  5
EF6
330
1F
100
AcDbEntity
  8
LOGO
 62
     6
100
AcDbLine
 10
1943.563933357194
 20
848.2761296065469
 30
0.0
 11
1943.563933357194
 21
832.4384231812068
 31
0.0
  0
LINE
  5
EF7
330
1F
100
AcDbEntity
  8
LOGO
 62
     6
100
AcDbLine
 10
1967.022727444984
 20
832.4384231812068
 30
0.0
 11
1943.563933357194
 21
832.4384231812068
 31
0.0
  0
LINE
  5
EF8
330
1F
100
AcDbEntity
  8
LOGO
 62
     6
100
AcDbLine
 10
1964.84095829836
 20
867.7133147649172
 30
0.0
 11
1949.059274375114
 21
867.7133147649172
 31
0.0
  0
LINE
  5
EF9
330
1F
100
AcDbEntity
  8
LOGO
 62
     6
100
AcDbLine
 10
1964.84095829836
 20
854.7551913260035
 30
0.0
 11
1949.059274375114
 21
854.7551913260035
 31
0.0
  0
LINE
  5
EFA
330
1F
100
AcDbEntity
  8
LOGO
 62
     6
100
AcDbLine
 10
1949.059274375114
 20
867.7133147649172
 30
0.0
 11
1949.059274375114
 21
854.7551913260035
 31
0.0
  0
LINE
  5
EFB
330
1F
100
AcDbEntity
  8
LOGO
 62
     6
100
AcDbLine
 10
1964.84095829836
 20
867.7133147649172
 30
0.0
 11
1964.84095829836
 21
854.7551913260035
 31
0.0
  0
LINE
  5
EFC
330
1F
100
AcDbEntity
  8
LOGO
 62
     6
100
AcDbLine
 10
1956.950116336737
 20
854.7551913260035
 30
0.0
 11
1956.950116336737
 21
848.2761296065469
 31
0.0
  0
TEXT
  5
EFD
330
1F
100
AcDbEntity
  8
LOGO
  6
Continuous
 62
     7
100
AcDbText
 10
1950.714278902774
 20
857.460180649102
 30
0.0
 40
7.56
  1
30
  7
CHINESET
100
AcDbText
  0
LINE
  5
EFE
330
1F
100
AcDbEntity
  8
LOGO
 62
     6
100
AcDbLine
 10
1967.022727444984
 20
848.2761296065469
 30
0.0
 11
1943.563933357194
 21
848.2761296065469
 31
0.0
  0
TEXT
  5
EFF
330
1F
100
AcDbEntity
  8
LOGO
  6
Continuous
 62
     6
100
AcDbText
 10
1868.423709867838
 20
834.6738818585068
 30
283.0846876417076
 40
3.239999999999999
  1
Acting type
  7
CHINESET
100
AcDbText
  0
TEXT
  5
F00
330
1F
100
AcDbEntity
  8
LOGO
 62
     6
100
AcDbText
 10
1870.631229465514
 20
840.6801435886698
 30
283.0846876417076
 40
5.4
  1
作動型式
  7
CHINESET
100
AcDbText
  0
TEXT
  5
F01
330
1F
100
AcDbEntity
  8
LOGO
  6
Continuous
 62
     6
100
AcDbText
 10
1914.877301770279
 20
834.6738818585068
 30
283.0846876417076
 40
3.239999999999999
  1
Tube I.D.
  7
CHINESET
100
AcDbText
  0
TEXT
  5
F02
330
1F
100
AcDbEntity
  8
LOGO
 62
     6
100
AcDbText
 10
1919.389749974186
 20
840.6801435886698
 30
283.0846876417076
 40
5.4
  1
內徑
  7
CHINESET
100
AcDbText
  0
TEXT
  5
F03
330
1F
100
AcDbEntity
  8
LOGO
  6
Continuous
 62
     6
100
AcDbText
 10
1947.314346365782
 20
834.6738818585068
 30
283.0846876417076
 40
3.239999999999999
  1
Stroke
  7
CHINESET
100
AcDbText
  0
TEXT
  5
F04
330
1F
100
AcDbEntity
  8
LOGO
 62
     6
100
AcDbText
 10
1949.521865963458
 20
840.6801435886698
 30
283.0846876417076
 40
5.4
  1
行程
  7
CHINESET
100
AcDbText
  0
TEXT
  5
F14
330
1F
100
AcDbEntity
  8
0
100
AcDbText
 10
1773.215095361416
 20
831.1368346230452
 30
0.0
 40
4.32
  1
1050801
 41
0.8
  7
CHINESET
 72
     1
 11
1783.171666789987
 21
831.1368346230452
 31
0.0
100
AcDbText
  0
LINE
  5
F15
330
1F
100
AcDbEntity
  8
LOGO
 62
     1
100
AcDbLine
 10
1796.578349912912
 20
837.4776934074521
 30
0.0
 11
1796.578349912914
 21
828.8389444481756
 31
0.0
  0
LINE
  5
F16
330
1F
100
AcDbEntity
  8
LOGO
 62
     1
100
AcDbLine
 10
1796.578349912912
 20
837.4776934074521
 30
0.0
 11
1770.658349912913
 21
837.4776934074521
 31
0.0
  0
LINE
  5
1CA3
330
1F
100
AcDbEntity
  8
0
 62
     4
100
AcDbLine
 10
1972.632111360877
 20
1207.033453878104
 30
0.0
 11
1972.632111360877
 21
872.0326892445555
 31
0.0
  0
TEXT
  5
1CA4
330
1F
100
AcDbEntity
  8
0
100
AcDbText
 10
1689.604900355341
 20
1187.224612282173
 30
0.0
 40
6.479999999999999
  1
MCGD-03
 41
0.8
  7
CHINESET
100
AcDbText
  0
TEXT
  5
1CA7
330
1F
100
AcDbEntity
  8
0
100
AcDbText
 10
1986.604900355341
 20
1187.224612282173
 30
0.0
 40
6.479999999999999
  1
MCGD-23
 41
0.8
  7
CHINESET
100
AcDbText
  0
LINE
  5
1E4C
330
1F
100
AcDbEntity
  8
AM_VIS
100
AcDbLine
 10
1875.214247475856
 20
898.182950209814
 30
0.0
 11
1875.214247475856
 21
928.1829502098139
 31
0.0
  0
LINE
  5
1E4D
330
1F
100
AcDbEntity
  8
AM_VIS
100
AcDbLine
 10
1863.214247475855
 20
928.1829502098139
 30
0.0
 11
1863.214247475855
 21
898.182950209814
 31
0.0
  0
LINE
  5
1E4E
330
1F
100
AcDbEntity
  8
AM_VIS
100
AcDbLine
 10
1875.214247475856
 20
928.1829502098139
 30
0.0
 11
1863.214247475855
 21
928.1829502098139
 31
0.0
  0
LINE
  5
1E4F
330
1F
100
AcDbEntity
  8
AM_VIS
100
AcDbLine
 10
1875.214247475856
 20
898.1829502098138
 30
0.0
 11
1863.214247475855
 21
898.1829502098138
 31
0.0
  0
LINE
  5
1E50
330
1F
100
AcDbEntity
  8
AM_VIS
100
AcDbLine
 10
1831.214247475855
 20
927.1829502098139
 30
0.0
 11
1767.214247475856
 21
927.1829502098139
 31
0.0
  0
LINE
  5
1E51
330
1F
100
AcDbEntity
  8
AM_VIS
100
AcDbLine
 10
1767.214247475856
 20
926.1829502098139
 30
0.0
 11
1767.214247475856
 21
897.8829502098138
 31
0.0
  0
LINE
  5
1E52
330
1F
100
AcDbEntity
  8
AM_VIS
100
AcDbLine
 10
1831.214247475855
 20
897.8829502098138
 30
0.0
 11
1831.214247475855
 21
926.1829502098139
 31
0.0
  0
LINE
  5
1E57
330
1F
100
AcDbEntity
  8
AM_VIS
100
AcDbLine
 10
1767.214247475856
 20
897.1829502098136
 30
0.0
 11
1831.214247475855
 21
897.1829502098136
 31
0.0
  0
LINE
  5
1E58
330
1F
100
AcDbEntity
  8
AM_VIS
100
AcDbLine
 10
1831.214247475855
 20
897.8829502098138
 30
0.0
 11
1831.214247475855
 21
897.1829502098136
 31
0.0
  0
LINE
  5
1E59
330
1F
100
AcDbEntity
  8
AM_VIS
100
AcDbLine
 10
1831.214247475855
 20
927.1829502098139
 30
0.0
 11
1831.214247475855
 21
926.1829502098139
 31
0.0
  0
LINE
  5
1E5A
330
1F
100
AcDbEntity
  8
AM_VIS
100
AcDbLine
 10
1767.214247475856
 20
926.1829502098139
 30
0.0
 11
1767.214247475856
 21
927.1829502098139
 31
0.0
  0
LINE
  5
1E5B
330
1F
100
AcDbEntity
  8
AM_VIS
100
AcDbLine
 10
1767.214247475856
 20
897.1829502098136
 30
0.0
 11
1767.214247475856
 21
897.8829502098138
 31
0.0
  0
LINE
  5
1E62
330
1F
100
AcDbEntity
  8
AM_VIS
100
AcDbLine
 10
1863.214247475855
 20
1071.68832154455
 30
0.0
 11
1831.214247475855
 21
1071.68832154455
 31
0.0
  0
LINE
  5
1E63
330
1F
100
AcDbEntity
  8
AM_VIS
100
AcDbLine
 10
1863.214247475855
 20
1061.68832154455
 30
0.0
 11
1831.214247475855
 21
1061.68832154455
 31
0.0
  0
LINE
  5
1E64
330
1F
100
AcDbEntity
  8
AM_VIS
100
AcDbLine
 10
1875.214247475856
 20
1050.688321544549
 30
0.0
 11
1875.214247475856
 21
1080.688321544549
 31
0.0
  0
LINE
  5
1E65
330
1F
100
AcDbEntity
  8
AM_VIS
100
AcDbLine
 10
1875.214247475856
 20
1050.688321544549
 30
0.0
 11
1863.214247475855
 21
1050.688321544549
 31
0.0
  0
LINE
  5
1E66
330
1F
100
AcDbEntity
  8
AM_VIS
100
AcDbLine
 10
1863.214247475855
 20
1080.688321544549
 30
0.0
 11
1863.214247475855
 21
1050.688321544549
 31
0.0
  0
LINE
  5
1E67
330
1F
100
AcDbEntity
  8
AM_VIS
100
AcDbLine
 10
1875.214247475856
 20
1080.688321544549
 30
0.0
 11
1863.214247475855
 21
1080.688321544549
 31
0.0
  0
LINE
  5
1E68
330
1F
100
AcDbEntity
  8
AM_VIS
100
AcDbLine
 10
1831.214247475855
 20
1052.688321544549
 30
0.0
 11
1831.214247475855
 21
1080.988321544549
 31
0.0
  0
LINE
  5
1E69
330
1F
100
AcDbEntity
  8
AM_VIS
100
AcDbLine
 10
1767.214247475856
 20
1080.988321544549
 30
0.0
 11
1767.214247475856
 21
1052.688321544549
 31
0.0
  0
LINE
  5
1E6A
330
1F
100
AcDbEntity
  8
AM_VIS
100
AcDbLine
 10
1767.214247475856
 20
1051.688321544549
 30
0.0
 11
1831.214247475855
 21
1051.688321544549
 31
0.0
  0
LINE
  5
1E6B
330
1F
100
AcDbEntity
  8
AM_VIS
100
AcDbLine
 10
1831.214247475855
 20
1081.68832154455
 30
0.0
 11
1767.214247475856
 21
1081.68832154455
 31
0.0
  0
LINE
  5
1E6C
330
1F
100
AcDbEntity
  8
AM_VIS
100
AcDbLine
 10
1831.214247475855
 20
1052.688321544549
 30
0.0
 11
1831.214247475855
 21
1051.688321544549
 31
0.0
  0
LINE
  5
1E6D
330
1F
100
AcDbEntity
  8
AM_VIS
100
AcDbLine
 10
1831.214247475855
 20
1081.68832154455
 30
0.0
 11
1831.214247475855
 21
1080.988321544549
 31
0.0
  0
LINE
  5
1E6E
330
1F
100
AcDbEntity
  8
AM_VIS
100
AcDbLine
 10
1767.214247475856
 20
1080.988321544549
 30
0.0
 11
1767.214247475856
 21
1081.68832154455
 31
0.0
  0
LINE
  5
1E6F
330
1F
100
AcDbEntity
  8
AM_VIS
100
AcDbLine
 10
1767.214247475856
 20
1051.688321544549
 30
0.0
 11
1767.214247475856
 21
1052.688321544549
 31
0.0
  0
LINE
  5
1E70
330
1F
100
AcDbEntity
  8
AM_VIS
100
AcDbLine
 10
1863.214247475855
 20
1124.69111275673
 30
0.0
 11
1831.214247475855
 21
1124.69111275673
 31
0.0
  0
LINE
  5
1E71
330
1F
100
AcDbEntity
  8
AM_VIS
100
AcDbLine
 10
1863.214247475855
 20
1114.69111275673
 30
0.0
 11
1831.214247475855
 21
1114.69111275673
 31
0.0
  0
LINE
  5
1E72
330
1F
100
AcDbEntity
  8
AM_VIS
100
AcDbLine
 10
1875.214247475856
 20
1174.69111275673
 30
0.0
 11
1863.214247475855
 21
1174.69111275673
 31
0.0
  0
LINE
  5
1E73
330
1F
100
AcDbEntity
  8
AM_VIS
100
AcDbLine
 10
1875.214247475856
 20
1110.69111275673
 30
0.0
 11
1875.214247475856
 21
1174.69111275673
 31
0.0
  0
LINE
  5
1E74
330
1F
100
AcDbEntity
  8
AM_VIS
100
AcDbLine
 10
1875.214247475856
 20
1110.69111275673
 30
0.0
 11
1863.214247475855
 21
1110.69111275673
 31
0.0
  0
LINE
  5
1E75
330
1F
100
AcDbEntity
  8
AM_VIS
100
AcDbLine
 10
1863.214247475855
 20
1174.69111275673
 30
0.0
 11
1863.214247475855
 21
1110.69111275673
 31
0.0
  0
CIRCLE
  5
1E76
330
1F
100
AcDbEntity
  8
AM_VIS
100
AcDbCircle
 10
1869.214247475856
 20
1158.69111275673
 30
0.0
 40
4.0
  0
CIRCLE
  5
1E77
330
1F
100
AcDbEntity
  8
AM_VIS
100
AcDbCircle
 10
1869.214247475856
 20
1158.69111275673
 30
0.0
 40
2.25
  0
CIRCLE
  5
1E78
330
1F
100
AcDbEntity
  8
AM_VIS
100
AcDbCircle
 10
1869.214247475856
 20
1126.69111275673
 30
0.0
 40
4.0
  0
CIRCLE
  5
1E79
330
1F
100
AcDbEntity
  8
AM_VIS
100
AcDbCircle
 10
1869.214247475856
 20
1126.69111275673
 30
0.0
 40
2.25
  0
LINE
  5
1E7A
330
1F
100
AcDbEntity
  8
AM_VIS
100
AcDbLine
 10
1831.214247475855
 20
1135.29111275673
 30
0.0
 11
1767.214247475856
 21
1135.29111275673
 31
0.0
  0
LINE
  5
1E7B
330
1F
100
AcDbEntity
  8
AM_VIS
100
AcDbLine
 10
1767.214247475856
 20
1148.39111275673
 30
0.0
 11
1831.214247475855
 21
1148.39111275673
 31
0.0
  0
LINE
  5
1E7C
330
1F
100
AcDbEntity
  8
AM_VIS
100
AcDbLine
 10
1831.214247475855
 20
1144.99111275673
 30
0.0
 11
1767.214247475856
 21
1144.99111275673
 31
0.0
  0
LINE
  5
1E7D
330
1F
100
AcDbEntity
  8
AM_VIS
100
AcDbLine
 10
1831.214247475855
 20
1136.99111275673
 30
0.0
 11
1767.214247475856
 21
1136.99111275673
 31
0.0
  0
LINE
  5
1E7E
330
1F
100
AcDbEntity
  8
AM_VIS
100
AcDbLine
 10
1767.214247475856
 20
1140.39111275673
 30
0.0
 11
1831.214247475855
 21
1140.39111275673
 31
0.0
  0
LINE
  5
1E7F
330
1F
100
AcDbEntity
  8
AM_VIS
100
AcDbLine
 10
1831.214247475855
 20
1161.09111275673
 30
0.0
 11
1767.214247475856
 21
1161.09111275673
 31
0.0
  0
LINE
  5
1E80
330
1F
100
AcDbEntity
  8
AM_VIS
100
AcDbLine
 10
1831.214247475855
 20
1160.19111275673
 30
0.0
 11
1767.214247475856
 21
1160.19111275673
 31
0.0
  0
LINE
  5
1E81
330
1F
100
AcDbEntity
  8
AM_VIS
100
AcDbLine
 10
1831.214247475855
 20
1124.29111275673
 30
0.0
 11
1767.214247475856
 21
1124.29111275673
 31
0.0
  0
LINE
  5
1E82
330
1F
100
AcDbEntity
  8
AM_VIS
100
AcDbLine
 10
1767.214247475856
 20
1110.69111275673
 30
0.0
 11
1831.214247475855
 21
1110.69111275673
 31
0.0
  0
LINE
  5
1E83
330
1F
100
AcDbEntity
  8
AM_VIS
100
AcDbLine
 10
1831.214247475855
 20
1150.09111275673
 30
0.0
 11
1767.214247475856
 21
1150.09111275673
 31
0.0
  0
LINE
  5
1E84
330
1F
100
AcDbEntity
  8
AM_VIS
100
AcDbLine
 10
1831.214247475855
 20
1125.19111275673
 30
0.0
 11
1767.214247475856
 21
1125.19111275673
 31
0.0
  0
LINE
  5
1E85
330
1F
100
AcDbEntity
  8
AM_VIS
100
AcDbLine
 10
1831.214247475855
 20
1120.69111275673
 30
0.0
 11
1767.214247475856
 21
1120.69111275673
 31
0.0
  0
LINE
  5
1E86
330
1F
100
AcDbEntity
  8
AM_VIS
100
AcDbLine
 10
1831.214247475855
 20
1164.69111275673
 30
0.0
 11
1767.214247475856
 21
1164.69111275673
 31
0.0
  0
LINE
  5
1E87
330
1F
100
AcDbEntity
  8
AM_VIS
100
AcDbLine
 10
1831.214247475855
 20
1150.39111275673
 30
0.0
 11
1767.214247475856
 21
1150.39111275673
 31
0.0
  0
LINE
  5
1E88
330
1F
100
AcDbEntity
  8
AM_VIS
100
AcDbLine
 10
1767.214247475856
 20
1158.99111275673
 30
0.0
 11
1831.214247475855
 21
1158.99111275673
 31
0.0
  0
LINE
  5
1E89
330
1F
100
AcDbEntity
  8
AM_VIS
100
AcDbLine
 10
1831.214247475855
 20
1126.39111275673
 30
0.0
 11
1767.214247475856
 21
1126.39111275673
 31
0.0
  0
LINE
  5
1E8A
330
1F
100
AcDbEntity
  8
AM_VIS
100
AcDbLine
 10
1767.214247475856
 20
1134.99111275673
 30
0.0
 11
1831.214247475855
 21
1134.99111275673
 31
0.0
  0
LINE
  5
1E8B
330
1F
100
AcDbEntity
  8
AM_VIS
100
AcDbLine
 10
1767.214247475856
 20
1164.69111275673
 30
0.0
 11
1767.214247475856
 21
1164.99111275673
 31
0.0
  0
LINE
  5
1E8C
330
1F
100
AcDbEntity
  8
AM_VIS
100
AcDbLine
 10
1767.214247475856
 20
1161.09111275673
 30
0.0
 11
1767.214247475856
 21
1164.69111275673
 31
0.0
  0
LINE
  5
1E8D
330
1F
100
AcDbEntity
  8
AM_VIS
100
AcDbLine
 10
1767.214247475856
 20
1160.19111275673
 30
0.0
 11
1767.214247475856
 21
1161.09111275673
 31
0.0
  0
LINE
  5
1E8E
330
1F
100
AcDbEntity
  8
AM_VIS
100
AcDbLine
 10
1767.214247475856
 20
1158.99111275673
 30
0.0
 11
1767.214247475856
 21
1160.19111275673
 31
0.0
  0
LINE
  5
1E8F
330
1F
100
AcDbEntity
  8
AM_VIS
100
AcDbLine
 10
1767.214247475856
 20
1150.39111275673
 30
0.0
 11
1767.214247475856
 21
1158.99111275673
 31
0.0
  0
LINE
  5
1E90
330
1F
100
AcDbEntity
  8
AM_VIS
100
AcDbLine
 10
1767.214247475856
 20
1150.09111275673
 30
0.0
 11
1767.214247475856
 21
1150.39111275673
 31
0.0
  0
LINE
  5
1E91
330
1F
100
AcDbEntity
  8
AM_VIS
100
AcDbLine
 10
1767.214247475856
 20
1148.39111275673
 30
0.0
 11
1767.214247475856
 21
1150.09111275673
 31
0.0
  0
LINE
  5
1E92
330
1F
100
AcDbEntity
  8
AM_VIS
100
AcDbLine
 10
1767.214247475856
 20
1146.24111275673
 30
0.0
 11
1767.214247475856
 21
1147.14111275673
 31
0.0
  0
LINE
  5
1E93
330
1F
100
AcDbEntity
  8
AM_VIS
100
AcDbLine
 10
1767.214247475856
 20
1140.39111275673
 30
0.0
 11
1767.214247475856
 21
1144.99111275673
 31
0.0
  0
LINE
  5
1E94
330
1F
100
AcDbEntity
  8
AM_VIS
100
AcDbLine
 10
1767.214247475856
 20
1138.24111275673
 30
0.0
 11
1767.214247475856
 21
1139.14111275673
 31
0.0
  0
LINE
  5
1E95
330
1F
100
AcDbEntity
  8
AM_VIS
100
AcDbLine
 10
1767.214247475856
 20
1135.29111275673
 30
0.0
 11
1767.214247475856
 21
1136.99111275673
 31
0.0
  0
LINE
  5
1E96
330
1F
100
AcDbEntity
  8
AM_VIS
100
AcDbLine
 10
1767.214247475856
 20
1134.99111275673
 30
0.0
 11
1767.214247475856
 21
1135.29111275673
 31
0.0
  0
LINE
  5
1E97
330
1F
100
AcDbEntity
  8
AM_VIS
100
AcDbLine
 10
1767.214247475856
 20
1126.39111275673
 30
0.0
 11
1767.214247475856
 21
1134.99111275673
 31
0.0
  0
LINE
  5
1E98
330
1F
100
AcDbEntity
  8
AM_VIS
100
AcDbLine
 10
1767.214247475856
 20
1125.19111275673
 30
0.0
 11
1767.214247475856
 21
1126.39111275673
 31
0.0
  0
LINE
  5
1E99
330
1F
100
AcDbEntity
  8
AM_VIS
100
AcDbLine
 10
1767.214247475856
 20
1124.29111275673
 30
0.0
 11
1767.214247475856
 21
1125.19111275673
 31
0.0
  0
LINE
  5
1E9A
330
1F
100
AcDbEntity
  8
AM_VIS
100
AcDbLine
 10
1767.214247475856
 20
1120.69111275673
 30
0.0
 11
1767.214247475856
 21
1124.29111275673
 31
0.0
  0
LINE
  5
1E9B
330
1F
100
AcDbEntity
  8
AM_VIS
100
AcDbLine
 10
1767.214247475856
 20
1120.39111275673
 30
0.0
 11
1767.214247475856
 21
1120.69111275673
 31
0.0
  0
LINE
  5
1E9C
330
1F
100
AcDbEntity
  8
AM_VIS
100
AcDbLine
 10
1831.214247475855
 20
1174.69111275673
 30
0.0
 11
1767.214247475856
 21
1174.69111275673
 31
0.0
  0
LINE
  5
1E9D
330
1F
100
AcDbEntity
  8
AM_VIS
100
AcDbLine
 10
1767.214247475856
 20
1164.99111275673
 30
0.0
 11
1767.214247475856
 21
1174.405255599584
 31
0.0
  0
LINE
  5
1E9E
330
1F
100
AcDbEntity
  8
AM_VIS
100
AcDbLine
 10
1831.214247475855
 20
1164.99111275673
 30
0.0
 11
1767.214247475856
 21
1164.99111275673
 31
0.0
  0
LINE
  5
1E9F
330
1F
100
AcDbEntity
  8
AM_VIS
100
AcDbLine
 10
1767.214247475856
 20
1110.976969913876
 30
0.0
 11
1767.214247475856
 21
1120.39111275673
 31
0.0
  0
LINE
  5
1EA0
330
1F
100
AcDbEntity
  8
AM_VIS
100
AcDbLine
 10
1767.214247475856
 20
1120.39111275673
 30
0.0
 11
1831.214247475855
 21
1120.39111275673
 31
0.0
  0
LINE
  5
1EA1
330
1F
100
AcDbEntity
  8
AM_VIS
100
AcDbLine
 10
1831.214247475855
 20
1174.69111275673
 30
0.0
 11
1831.214247475855
 21
1110.976969913876
 31
0.0
  0
LINE
  5
1EA2
330
1F
100
AcDbEntity
  8
AM_VIS
100
AcDbLine
 10
1800.214247475856
 20
1113.19111275673
 30
0.0
 11
1798.214247475856
 21
1113.19111275673
 31
0.0
  0
LINE
  5
1EA3
330
1F
100
AcDbEntity
  8
AM_VIS
100
AcDbLine
 10
1798.214247475856
 20
1118.19111275673
 30
0.0
 11
1800.214247475856
 21
1118.19111275673
 31
0.0
  0
LINE
  5
1EA4
330
1F
100
AcDbEntity
  8
AM_VIS
100
AcDbLine
 10
1831.214247475855
 20
1174.69111275673
 30
0.0
 11
1831.214247475855
 21
1174.405255599584
 31
0.0
  0
LINE
  5
1EA5
330
1F
100
AcDbEntity
  8
AM_VIS
100
AcDbLine
 10
1831.214247475855
 20
1110.976969913876
 30
0.0
 11
1831.214247475855
 21
1110.69111275673
 31
0.0
  0
LINE
  5
1EA6
330
1F
100
AcDbEntity
  8
AM_VIS
100
AcDbLine
 10
1767.214247475856
 20
1147.14111275673
 30
0.0
 11
1767.214247475856
 21
1148.39111275673
 31
0.0
  0
LINE
  5
1EA7
330
1F
100
AcDbEntity
  8
AM_VIS
100
AcDbLine
 10
1767.214247475856
 20
1144.99111275673
 30
0.0
 11
1767.214247475856
 21
1146.24111275673
 31
0.0
  0
LINE
  5
1EA8
330
1F
100
AcDbEntity
  8
AM_VIS
100
AcDbLine
 10
1767.214247475856
 20
1139.14111275673
 30
0.0
 11
1767.214247475856
 21
1140.39111275673
 31
0.0
  0
LINE
  5
1EA9
330
1F
100
AcDbEntity
  8
AM_VIS
100
AcDbLine
 10
1767.214247475856
 20
1136.99111275673
 30
0.0
 11
1767.214247475856
 21
1138.24111275673
 31
0.0
  0
LINE
  5
1EAA
330
1F
100
AcDbEntity
  8
AM_VIS
100
AcDbLine
 10
1767.214247475856
 20
1110.69111275673
 30
0.0
 11
1767.214247475856
 21
1110.976969913876
 31
0.0
  0
LINE
  5
1EAB
330
1F
100
AcDbEntity
  8
AM_VIS
100
AcDbLine
 10
1767.214247475856
 20
1174.405255599584
 30
0.0
 11
1767.214247475856
 21
1174.69111275673
 31
0.0
  0
CIRCLE
  5
1EB8
330
1F
100
AcDbEntity
  8
AM_VIS
100
AcDbCircle
 10
1799.214247475856
 20
1169.69111275673
 30
0.0
 40
2.5
  0
ARC
  5
1EB9
330
1F
100
AcDbEntity
  8
AM_VIS
100
AcDbCircle
 10
1800.214247475856
 20
1115.69111275673
 30
0.0
 40
2.5
100
AcDbArc
 50
270.0
 51
90.0
  0
ARC
  5
1EBA
330
1F
100
AcDbEntity
  8
AM_VIS
100
AcDbCircle
 10
1798.214247475856
 20
1115.69111275673
 30
0.0
 40
2.5
100
AcDbArc
 50
90.0
 51
270.0
  0
ARC
  5
1EBB
330
1F
100
AcDbEntity
  8
AM_VIS
100
AcDbCircle
 10
1799.214247475856
 20
1115.69111275673
 30
0.0
 40
2.5
100
AcDbArc
 50
270.0
 51
90.0
  0
ARC
  5
1EBC
330
1F
100
AcDbEntity
  8
AM_VIS
100
AcDbCircle
 10
1799.214247475856
 20
1115.69111275673
 30
0.0
 40
2.5
100
AcDbArc
 50
90.0
 51
270.0
  0
LINE
  5
1EBD
330
1F
100
AcDbEntity
  8
AM_VIS
100
AcDbLine
 10
1875.214247475856
 20
961.493982226025
 30
0.0
 11
1875.214247475856
 21
1025.493982226025
 31
0.0
  0
LINE
  5
1EBE
102
{ACAD_REACTORS
330
2715
102
}
330
1F
100
AcDbEntity
  8
AM_VIS
100
AcDbLine
 10
1875.214247475856
 20
961.493982226025
 30
0.0
 11
1863.214247475855
 21
961.493982226025
 31
0.0
  0
LINE
  5
1EBF
102
{ACAD_REACTORS
330
26EF
330
2715
102
}
330
1F
100
AcDbEntity
  8
AM_VIS
100
AcDbLine
 10
1863.214247475855
 20
1025.493982226025
 30
0.0
 11
1863.214247475855
 21
961.493982226025
 31
0.0
  0
LINE
  5
1EC0
330
1F
100
AcDbEntity
  8
AM_VIS
100
AcDbLine
 10
1875.214247475856
 20
1025.493982226025
 30
0.0
 11
1863.214247475855
 21
1025.493982226025
 31
0.0
  0
CIRCLE
  5
1EC1
330
1F
100
AcDbEntity
  8
AM_VIS
100
AcDbCircle
 10
1869.214247475856
 20
977.493982226025
 30
0.0
 40
2.25
  0
CIRCLE
  5
1EC2
330
1F
100
AcDbEntity
  8
AM_VIS
100
AcDbCircle
 10
1869.214247475856
 20
1009.493982226025
 30
0.0
 40
2.25
  0
CIRCLE
  5
1EC3
330
1F
100
AcDbEntity
  8
AM_VIS
100
AcDbCircle
 10
1869.214247475856
 20
1018.493982226025
 30
0.0
 40
2.5
  0
CIRCLE
  5
1EC4
330
1F
100
AcDbEntity
  8
AM_VIS
100
AcDbCircle
 10
1869.214247475856
 20
968.493982226025
 30
0.0
 40
2.5
  0
LINE
  5
1EC5
330
1F
100
AcDbEntity
  8
AM_VIS
100
AcDbLine
 10
1818.214247475856
 20
981.4939822260251
 30
0.0
 11
1831.214247475855
 21
981.4939822260251
 31
0.0
  0
LINE
  5
1EC6
330
1F
100
AcDbEntity
  8
AM_VIS
100
AcDbLine
 10
1831.214247475855
 20
987.793982226025
 30
0.0
 11
1767.214247475856
 21
987.793982226025
 31
0.0
  0
LINE
  5
1EC7
330
1F
100
AcDbEntity
  8
AM_VIS
100
AcDbLine
 10
1767.214247475856
 20
991.1939822260251
 30
0.0
 11
1831.214247475855
 21
991.1939822260251
 31
0.0
  0
LINE
  5
1EC8
330
1F
100
AcDbEntity
  8
AM_VIS
100
AcDbLine
 10
1767.214247475856
 20
999.1939822260251
 30
0.0
 11
1831.214247475855
 21
999.1939822260251
 31
0.0
  0
LINE
  5
1EC9
330
1F
100
AcDbEntity
  8
AM_VIS
100
AcDbLine
 10
1831.214247475855
 20
995.793982226025
 30
0.0
 11
1767.214247475856
 21
995.793982226025
 31
0.0
  0
LINE
  5
1ECA
330
1F
100
AcDbEntity
  8
AM_VIS
100
AcDbLine
 10
1831.214247475855
 20
1025.493982226025
 30
0.0
 11
1767.214247475856
 21
1025.493982226025
 31
0.0
  0
LINE
  5
1ECB
330
1F
100
AcDbEntity
  8
AM_VIS
100
AcDbLine
 10
1767.214247475856
 20
999.6939822260252
 30
0.0
 11
1767.214247475856
 21
999.993982226025
 31
0.0
  0
LINE
  5
1ECC
330
1F
100
AcDbEntity
  8
AM_VIS
100
AcDbLine
 10
1767.214247475856
 20
999.1939822260251
 30
0.0
 11
1767.214247475856
 21
999.6939822260252
 31
0.0
  0
LINE
  5
1ECD
330
1F
100
AcDbEntity
  8
AM_VIS
100
AcDbLine
 10
1767.214247475856
 20
997.0439822260249
 30
0.0
 11
1767.214247475856
 21
997.9439822260252
 31
0.0
  0
LINE
  5
1ECE
330
1F
100
AcDbEntity
  8
AM_VIS
100
AcDbLine
 10
1767.214247475856
 20
991.1939822260251
 30
0.0
 11
1767.214247475856
 21
995.7939822260252
 31
0.0
  0
LINE
  5
1ECF
330
1F
100
AcDbEntity
  8
AM_VIS
100
AcDbLine
 10
1767.214247475856
 20
989.0439822260249
 30
0.0
 11
1767.214247475856
 21
989.9439822260251
 31
0.0
  0
LINE
  5
1ED0
330
1F
100
AcDbEntity
  8
AM_VIS
100
AcDbLine
 10
1767.214247475856
 20
987.2939822260251
 30
0.0
 11
1767.214247475856
 21
987.7939822260252
 31
0.0
  0
LINE
  5
1ED1
330
1F
100
AcDbEntity
  8
AM_VIS
100
AcDbLine
 10
1767.214247475856
 20
986.9939822260251
 30
0.0
 11
1767.214247475856
 21
987.2939822260249
 31
0.0
  0
LINE
  5
1ED2
330
1F
100
AcDbEntity
  8
AM_VIS
100
AcDbLine
 10
1767.214247475856
 20
981.4939822260251
 30
0.0
 11
1767.214247475856
 21
984.438468598892
 31
0.0
  0
LINE
  5
1ED3
330
1F
100
AcDbEntity
  8
AM_VIS
100
AcDbLine
 10
1767.214247475856
 20
978.5494958531581
 30
0.0
 11
1767.214247475856
 21
981.4939822260251
 31
0.0
  0
LINE
  5
1ED4
330
1F
100
AcDbEntity
  8
AM_VIS
100
AcDbLine
 10
1767.214247475856
 20
981.4939822260251
 30
0.0
 11
1780.214247475855
 21
981.4939822260251
 31
0.0
  0
LINE
  5
1ED5
330
1F
100
AcDbEntity
  8
AM_VIS
100
AcDbLine
 10
1831.214247475855
 20
978.5494958531579
 30
0.0
 11
1816.921644749992
 21
978.5494958531579
 31
0.0
  0
LINE
  5
1ED6
330
1F
100
AcDbEntity
  8
AM_VIS
100
AcDbLine
 10
1767.214247475856
 20
978.5494958531581
 30
0.0
 11
1767.214247475856
 21
962.493982226025
 31
0.0
  0
LINE
  5
1ED7
330
1F
100
AcDbEntity
  8
AM_VIS
100
AcDbLine
 10
1781.506850201719
 20
978.5494958531579
 30
0.0
 11
1767.214247475856
 21
978.5494958531579
 31
0.0
  0
ARC
  5
1ED8
330
1F
100
AcDbEntity
  8
AM_VIS
100
AcDbCircle
 10
1814.214247475856
 20
981.4939822260251
 30
0.0
 40
4.0
100
AcDbArc
 50
0.0
 51
47.40207441782193
  0
ARC
  5
1ED9
330
1F
100
AcDbEntity
  8
AM_VIS
100
AcDbCircle
 10
1814.214247475856
 20
981.4939822260251
 30
0.0
 40
4.0
100
AcDbArc
 50
312.5979255821781
 51
0.0
  0
LINE
  5
1EDA
330
1F
100
AcDbEntity
  8
AM_VIS
100
AcDbLine
 10
1767.214247475856
 20
1005.493982226025
 30
0.0
 11
1767.214247475856
 21
1008.438468598892
 31
0.0
  0
LINE
  5
1EDB
330
1F
100
AcDbEntity
  8
AM_VIS
100
AcDbLine
 10
1818.214247475856
 20
1005.493982226025
 30
0.0
 11
1831.214247475855
 21
1005.493982226025
 31
0.0
  0
LINE
  5
1EDC
330
1F
100
AcDbEntity
  8
AM_VIS
100
AcDbLine
 10
1767.214247475856
 20
1002.549495853158
 30
0.0
 11
1767.214247475856
 21
1005.493982226025
 31
0.0
  0
LINE
  5
1EDD
330
1F
100
AcDbEntity
  8
AM_VIS
100
AcDbLine
 10
1767.214247475856
 20
1005.493982226025
 30
0.0
 11
1780.214247475855
 21
1005.493982226025
 31
0.0
  0
LINE
  5
1EDE
330
1F
100
AcDbEntity
  8
AM_VIS
100
AcDbLine
 10
1831.214247475855
 20
1002.549495853158
 30
0.0
 11
1816.921644749992
 21
1002.549495853158
 31
0.0
  0
LINE
  5
1EDF
330
1F
100
AcDbEntity
  8
AM_VIS
100
AcDbLine
 10
1767.214247475856
 20
999.993982226025
 30
0.0
 11
1831.214247475855
 21
999.993982226025
 31
0.0
  0
LINE
  5
1EE0
330
1F
100
AcDbEntity
  8
AM_VIS
100
AcDbLine
 10
1767.214247475856
 20
1002.549495853158
 30
0.0
 11
1767.214247475856
 21
999.993982226025
 31
0.0
  0
LINE
  5
1EE1
330
1F
100
AcDbEntity
  8
AM_VIS
100
AcDbLine
 10
1781.506850201719
 20
1002.549495853158
 30
0.0
 11
1767.214247475856
 21
1002.549495853158
 31
0.0
  0
ARC
  5
1EE2
330
1F
100
AcDbEntity
  8
AM_VIS
100
AcDbCircle
 10
1814.214247475856
 20
1005.493982226025
 30
0.0
 40
4.0
100
AcDbArc
 50
0.0
 51
47.40207441782193
  0
ARC
  5
1EE3
330
1F
100
AcDbEntity
  8
AM_VIS
100
AcDbCircle
 10
1814.214247475856
 20
1005.493982226025
 30
0.0
 40
4.0
100
AcDbArc
 50
312.5979255821781
 51
0.0
  0
ARC
  5
1EE4
330
1F
100
AcDbEntity
  8
AM_VIS
100
AcDbCircle
 10
1814.214247475856
 20
981.4939822260251
 30
0.0
 40
4.0
100
AcDbArc
 50
180.0
 51
227.4020744178219
  0
LINE
  5
1EE5
330
1F
100
AcDbEntity
  8
AM_VIS
100
AcDbLine
 10
1811.506850201719
 20
978.5494958531579
 30
0.0
 11
1786.921644749992
 21
978.5494958531579
 31
0.0
  0
ARC
  5
1EE6
330
1F
100
AcDbEntity
  8
AM_VIS
100
AcDbCircle
 10
1814.214247475856
 20
981.4939822260251
 30
0.0
 40
4.0
100
AcDbArc
 50
132.597925582178
 51
180.0
  0
LINE
  5
1EE7
330
1F
100
AcDbEntity
  8
AM_VIS
100
AcDbLine
 10
1788.214247475855
 20
981.4939822260251
 30
0.0
 11
1810.214247475856
 21
981.4939822260251
 31
0.0
  0
LINE
  5
1EE8
330
1F
100
AcDbEntity
  8
AM_VIS
100
AcDbLine
 10
1767.214247475856
 20
984.4384685988922
 30
0.0
 11
1781.50685020172
 21
984.4384685988922
 31
0.0
  0
LINE
  5
1EE9
330
1F
100
AcDbEntity
  8
AM_VIS
100
AcDbLine
 10
1767.214247475856
 20
986.9939822260251
 30
0.0
 11
1767.214247475856
 21
984.438468598892
 31
0.0
  0
LINE
  5
1EEA
330
1F
100
AcDbEntity
  8
AM_VIS
100
AcDbLine
 10
1831.214247475855
 20
986.9939822260251
 30
0.0
 11
1767.214247475856
 21
986.9939822260251
 31
0.0
  0
LINE
  5
1EEB
330
1F
100
AcDbEntity
  8
AM_VIS
100
AcDbLine
 10
1816.921644749992
 20
984.4384685988922
 30
0.0
 11
1831.214247475855
 21
984.4384685988922
 31
0.0
  0
LINE
  5
1EEC
330
1F
100
AcDbEntity
  8
AM_VIS
100
AcDbLine
 10
1786.921644749991
 20
984.4384685988922
 30
0.0
 11
1811.50685020172
 21
984.4384685988922
 31
0.0
  0
ARC
  5
1EED
330
1F
100
AcDbEntity
  8
AM_VIS
100
AcDbCircle
 10
1784.214247475856
 20
981.4939822260251
 30
0.0
 40
4.0
100
AcDbArc
 50
0.0
 51
47.40207441782193
  0
ARC
  5
1EEE
330
1F
100
AcDbEntity
  8
AM_VIS
100
AcDbCircle
 10
1784.214247475856
 20
981.4939822260251
 30
0.0
 40
4.0
100
AcDbArc
 50
312.5979255821781
 51
0.0
  0
ARC
  5
1EEF
330
1F
100
AcDbEntity
  8
AM_VIS
100
AcDbCircle
 10
1784.214247475856
 20
981.4939822260251
 30
0.0
 40
4.0
100
AcDbArc
 50
180.0
 51
227.4020744178219
  0
ARC
  5
1EF0
330
1F
100
AcDbEntity
  8
AM_VIS
100
AcDbCircle
 10
1784.214247475856
 20
981.4939822260251
 30
0.0
 40
4.0
100
AcDbArc
 50
132.597925582178
 51
180.0
  0
ARC
  5
1EF1
330
1F
100
AcDbEntity
  8
AM_VIS
100
AcDbCircle
 10
1814.214247475856
 20
1005.493982226025
 30
0.0
 40
4.0
100
AcDbArc
 50
180.0
 51
227.4020744178219
  0
LINE
  5
1EF2
330
1F
100
AcDbEntity
  8
AM_VIS
100
AcDbLine
 10
1811.506850201719
 20
1002.549495853158
 30
0.0
 11
1786.921644749992
 21
1002.549495853158
 31
0.0
  0
ARC
  5
1EF3
330
1F
100
AcDbEntity
  8
AM_VIS
100
AcDbCircle
 10
1814.214247475856
 20
1005.493982226025
 30
0.0
 40
4.0
100
AcDbArc
 50
132.597925582178
 51
180.0
  0
LINE
  5
1EF4
330
1F
100
AcDbEntity
  8
AM_VIS
100
AcDbLine
 10
1788.214247475855
 20
1005.493982226025
 30
0.0
 11
1810.214247475856
 21
1005.493982226025
 31
0.0
  0
LINE
  5
1EF5
330
1F
100
AcDbEntity
  8
AM_VIS
100
AcDbLine
 10
1767.214247475856
 20
1008.438468598892
 30
0.0
 11
1781.506850201719
 21
1008.438468598892
 31
0.0
  0
LINE
  5
1EF6
330
1F
100
AcDbEntity
  8
AM_VIS
100
AcDbLine
 10
1767.214247475856
 20
1024.493982226025
 30
0.0
 11
1767.214247475856
 21
1008.438468598892
 31
0.0
  0
LINE
  5
1EF7
330
1F
100
AcDbEntity
  8
AM_VIS
100
AcDbLine
 10
1831.214247475855
 20
961.493982226025
 30
0.0
 11
1831.214247475855
 21
1024.493982226025
 31
0.0
  0
LINE
  5
1EF8
330
1F
100
AcDbEntity
  8
AM_VIS
100
AcDbLine
 10
1816.921644749992
 20
1008.438468598892
 30
0.0
 11
1831.214247475855
 21
1008.438468598892
 31
0.0
  0
LINE
  5
1EF9
330
1F
100
AcDbEntity
  8
AM_VIS
100
AcDbLine
 10
1786.921644749992
 20
1008.438468598892
 30
0.0
 11
1811.506850201719
 21
1008.438468598892
 31
0.0
  0
ARC
  5
1EFA
330
1F
100
AcDbEntity
  8
AM_VIS
100
AcDbCircle
 10
1784.214247475856
 20
1005.493982226025
 30
0.0
 40
4.0
100
AcDbArc
 50
0.0
 51
47.40207441782193
  0
ARC
  5
1EFB
330
1F
100
AcDbEntity
  8
AM_VIS
100
AcDbCircle
 10
1784.214247475856
 20
1005.493982226025
 30
0.0
 40
4.0
100
AcDbArc
 50
312.5979255821781
 51
0.0
  0
ARC
  5
1EFC
330
1F
100
AcDbEntity
  8
AM_VIS
100
AcDbCircle
 10
1784.214247475856
 20
1005.493982226025
 30
0.0
 40
4.0
100
AcDbArc
 50
180.0
 51
227.4020744178219
  0
ARC
  5
1EFD
330
1F
100
AcDbEntity
  8
AM_VIS
100
AcDbCircle
 10
1784.214247475856
 20
1005.493982226025
 30
0.0
 40
4.0
100
AcDbArc
 50
132.597925582178
 51
180.0
  0
LINE
  5
1EFE
102
{ACAD_REACTORS
330
26C0
330
26EF
102
}
330
1F
100
AcDbEntity
  8
AM_VIS
100
AcDbLine
 10
1767.214247475856
 20
961.493982226025
 30
0.0
 11
1831.214247475855
 21
961.493982226025
 31
0.0
  0
LINE
  5
1EFF
330
1F
100
AcDbEntity
  8
AM_VIS
100
AcDbLine
 10
1831.214247475855
 20
1025.493982226025
 30
0.0
 11
1831.214247475855
 21
1024.493982226025
 31
0.0
  0
LINE
  5
1F00
330
1F
100
AcDbEntity
  8
AM_VIS
100
AcDbLine
 10
1767.214247475856
 20
1024.493982226025
 30
0.0
 11
1767.214247475856
 21
1025.493982226025
 31
0.0
  0
LINE
  5
1F01
330
1F
100
AcDbEntity
  8
AM_VIS
100
AcDbLine
 10
1767.214247475856
 20
997.943982226025
 30
0.0
 11
1767.214247475856
 21
999.1939822260251
 31
0.0
  0
LINE
  5
1F02
330
1F
100
AcDbEntity
  8
AM_VIS
100
AcDbLine
 10
1767.214247475856
 20
995.793982226025
 30
0.0
 11
1767.214247475856
 21
997.0439822260249
 31
0.0
  0
LINE
  5
1F03
330
1F
100
AcDbEntity
  8
AM_VIS
100
AcDbLine
 10
1767.214247475856
 20
989.943982226025
 30
0.0
 11
1767.214247475856
 21
991.1939822260251
 31
0.0
  0
LINE
  5
1F04
330
1F
100
AcDbEntity
  8
AM_VIS
100
AcDbLine
 10
1767.214247475856
 20
987.793982226025
 30
0.0
 11
1767.214247475856
 21
989.0439822260249
 31
0.0
  0
LINE
  5
1F05
102
{ACAD_REACTORS
330
26C0
102
}
330
1F
100
AcDbEntity
  8
AM_VIS
100
AcDbLine
 10
1767.214247475856
 20
961.493982226025
 30
0.0
 11
1767.214247475856
 21
962.493982226025
 31
0.0
  0
ARC
  5
1F06
330
1F
100
AcDbEntity
  8
AM_VIS
100
AcDbCircle
 10
1814.214247475856
 20
981.4939822260251
 30
0.0
 40
4.0
100
AcDbArc
 50
227.4020744178219
 51
312.5979255821781
  0
CIRCLE
  5
1F07
330
1F
100
AcDbEntity
  8
AM_VIS
100
AcDbCircle
 10
1814.214247475856
 20
981.4939822260251
 30
0.0
 40
2.149999999999999
  0
ARC
  5
1F08
330
1F
100
AcDbEntity
  8
AM_VIS
100
AcDbCircle
 10
1814.214247475856
 20
1005.493982226025
 30
0.0
 40
4.0
100
AcDbArc
 50
227.4020744178219
 51
312.5979255821781
  0
CIRCLE
  5
1F09
330
1F
100
AcDbEntity
  8
AM_VIS
100
AcDbCircle
 10
1814.214247475856
 20
1005.493982226025
 30
0.0
 40
2.149999999999999
  0
ARC
  5
1F0A
330
1F
100
AcDbEntity
  8
AM_VIS
100
AcDbCircle
 10
1814.214247475856
 20
981.4939822260251
 30
0.0
 40
4.0
100
AcDbArc
 50
47.40207441782193
 51
132.597925582178
  0
ARC
  5
1F0B
330
1F
100
AcDbEntity
  8
AM_VIS
100
AcDbCircle
 10
1784.214247475856
 20
981.4939822260251
 30
0.0
 40
4.0
100
AcDbArc
 50
47.40207441782193
 51
132.597925582178
  0
ARC
  5
1F0C
330
1F
100
AcDbEntity
  8
AM_VIS
100
AcDbCircle
 10
1784.214247475856
 20
981.4939822260251
 30
0.0
 40
4.0
100
AcDbArc
 50
227.4020744178219
 51
312.5979255821781
  0
CIRCLE
  5
1F0D
330
1F
100
AcDbEntity
  8
AM_VIS
100
AcDbCircle
 10
1784.214247475856
 20
981.4939822260251
 30
0.0
 40
2.149999999999999
  0
ARC
  5
1F0E
330
1F
100
AcDbEntity
  8
AM_VIS
100
AcDbCircle
 10
1814.214247475856
 20
1005.493982226025
 30
0.0
 40
4.0
100
AcDbArc
 50
47.40207441782193
 51
132.597925582178
  0
ARC
  5
1F0F
330
1F
100
AcDbEntity
  8
AM_VIS
100
AcDbCircle
 10
1784.214247475856
 20
1005.493982226025
 30
0.0
 40
4.0
100
AcDbArc
 50
47.40207441782193
 51
132.597925582178
  0
ARC
  5
1F10
330
1F
100
AcDbEntity
  8
AM_VIS
100
AcDbCircle
 10
1784.214247475856
 20
1005.493982226025
 30
0.0
 40
4.0
100
AcDbArc
 50
227.4020744178219
 51
312.5979255821781
  0
CIRCLE
  5
1F11
330
1F
100
AcDbEntity
  8
AM_VIS
100
AcDbCircle
 10
1784.214247475856
 20
1005.493982226025
 30
0.0
 40
2.149999999999999
  0
LINE
  5
1F12
330
1F
100
AcDbEntity
  8
AM_VIS
100
AcDbLine
 10
1930.26147048029
 20
991.993982226025
 30
0.0
 11
1929.395893919816
 21
993.493982226025
 31
0.0
  0
LINE
  5
1F13
330
1F
100
AcDbEntity
  8
AM_VIS
100
AcDbLine
 10
1930.26147048029
 20
994.9939822260251
 30
0.0
 11
1931.995317359343
 21
994.9939822260251
 31
0.0
  0
LINE
  5
1F14
330
1F
100
AcDbEntity
  8
AM_VIS
100
AcDbLine
 10
1929.395893919816
 20
993.493982226025
 30
0.0
 11
1930.26147048029
 21
994.9939822260251
 31
0.0
  0
LINE
  5
1F15
330
1F
100
AcDbEntity
  8
AM_VIS
100
AcDbLine
 10
1931.995317359343
 20
991.993982226025
 30
0.0
 11
1930.26147048029
 21
991.993982226025
 31
0.0
  0
LINE
  5
1F16
330
1F
100
AcDbEntity
  8
AM_VIS
100
AcDbLine
 10
1932.860893919816
 20
993.493982226025
 30
0.0
 11
1931.995317359343
 21
991.993982226025
 31
0.0
  0
LINE
  5
1F17
330
1F
100
AcDbEntity
  8
AM_VIS
100
AcDbLine
 10
1931.995317359343
 20
994.9939822260251
 30
0.0
 11
1932.860893919816
 21
993.493982226025
 31
0.0
  0
CIRCLE
  5
1F18
330
1F
100
AcDbEntity
  8
AM_VIS
100
AcDbCircle
 10
1931.128393919816
 20
993.493982226025
 30
0.0
 40
4.750000000000029
  0
LINE
  5
1F19
330
1F
100
AcDbEntity
  8
AM_VIS
100
AcDbLine
 10
1930.26147048029
 20
1014.993982226025
 30
0.0
 11
1929.395893919816
 21
1016.493982226025
 31
0.0
  0
LINE
  5
1F1A
330
1F
100
AcDbEntity
  8
AM_VIS
100
AcDbLine
 10
1930.26147048029
 20
1017.993982226025
 30
0.0
 11
1931.995317359343
 21
1017.993982226025
 31
0.0
  0
LINE
  5
1F1B
330
1F
100
AcDbEntity
  8
AM_VIS
100
AcDbLine
 10
1929.395893919816
 20
1016.493982226025
 30
0.0
 11
1930.26147048029
 21
1017.993982226025
 31
0.0
  0
LINE
  5
1F1C
330
1F
100
AcDbEntity
  8
AM_VIS
100
AcDbLine
 10
1931.995317359343
 20
1014.993982226025
 30
0.0
 11
1930.26147048029
 21
1014.993982226025
 31
0.0
  0
LINE
  5
1F1D
330
1F
100
AcDbEntity
  8
AM_VIS
100
AcDbLine
 10
1932.860893919816
 20
1016.493982226025
 30
0.0
 11
1931.995317359343
 21
1014.993982226025
 31
0.0
  0
LINE
  5
1F1E
330
1F
100
AcDbEntity
  8
AM_VIS
100
AcDbLine
 10
1931.995317359343
 20
1017.993982226025
 30
0.0
 11
1932.860893919816
 21
1016.493982226025
 31
0.0
  0
CIRCLE
  5
1F1F
330
1F
100
AcDbEntity
  8
AM_VIS
100
AcDbCircle
 10
1931.128393919816
 20
1016.493982226025
 30
0.0
 40
4.750000000000029
  0
LINE
  5
1F20
330
1F
100
AcDbEntity
  8
AM_VIS
100
AcDbLine
 10
1945.128393919817
 20
961.493982226025
 30
0.0
 11
1915.128393919816
 21
961.493982226025
 31
0.0
  0
LINE
  5
1F21
330
1F
100
AcDbEntity
  8
AM_VIS
100
AcDbLine
 10
1915.128393919816
 20
961.493982226025
 30
0.0
 11
1915.128393919816
 21
1025.493982226025
 31
0.0
  0
LINE
  5
1F22
330
1F
100
AcDbEntity
  8
AM_VIS
100
AcDbLine
 10
1915.128393919816
 20
1025.493982226025
 30
0.0
 11
1945.128393919817
 21
1025.493982226025
 31
0.0
  0
LINE
  5
1F23
330
1F
100
AcDbEntity
  8
AM_VIS
100
AcDbLine
 10
1945.128393919817
 20
1025.493982226025
 30
0.0
 11
1945.128393919817
 21
961.493982226025
 31
0.0
  0
CIRCLE
  5
1F24
330
1F
100
AcDbEntity
  8
AM_VIS
100
AcDbCircle
 10
1931.128393919816
 20
970.493982226025
 30
0.0
 40
5.25
  0
CIRCLE
  5
1F26
330
1F
100
AcDbEntity
  8
AM_VIS
100
AcDbCircle
 10
1931.128393919816
 20
1016.493982226025
 30
0.0
 40
5.25
  0
CIRCLE
  5
1F27
330
1F
100
AcDbEntity
  8
AM_VIS
100
AcDbCircle
 10
1931.128393919816
 20
993.493982226025
 30
0.0
 40
5.25
  0
LINE
  5
1F2C
330
1F
100
AcDbEntity
  8
AM_VIS
100
AcDbLine
 10
1945.128393919817
 20
1025.493982226025
 30
0.0
 11
1945.428393919817
 21
1025.493982226025
 31
0.0
  0
LINE
  5
1F2D
330
1F
100
AcDbEntity
  8
AM_VIS
100
AcDbLine
 10
1945.828393919817
 20
1015.493982226025
 30
0.0
 11
1946.128393919816
 21
1015.793982226025
 31
0.0
  0
LINE
  5
1F2E
330
1F
100
AcDbEntity
  8
AM_VIS
100
AcDbLine
 10
1945.828393919817
 20
1011.893982226025
 30
0.0
 11
1945.828393919817
 21
1015.493982226025
 31
0.0
  0
LINE
  5
1F2F
330
1F
100
AcDbEntity
  8
AM_VIS
100
AcDbLine
 10
1945.128393919817
 20
1011.193982226025
 30
0.0
 11
1945.828393919817
 21
1011.893982226025
 31
0.0
  0
LINE
  5
1F30
330
1F
100
AcDbEntity
  8
AM_VIS
100
AcDbLine
 10
1946.128393919817
 20
1009.793982226025
 30
0.0
 11
1945.128393919817
 21
1010.793982226025
 31
0.0
  0
LINE
  5
1F31
330
1F
100
AcDbEntity
  8
AM_VIS
100
AcDbLine
 10
1946.128393919816
 20
1001.193982226025
 30
0.0
 11
1946.128393919816
 21
1009.793982226025
 31
0.0
  0
LINE
  5
1F32
330
1F
100
AcDbEntity
  8
AM_VIS
100
AcDbLine
 10
1945.828393919817
 20
1000.893982226025
 30
0.0
 11
1946.128393919816
 21
1001.193982226025
 31
0.0
  0
LINE
  5
1F33
330
1F
100
AcDbEntity
  8
AM_VIS
100
AcDbLine
 10
1945.828393919817
 20
999.1939822260251
 30
0.0
 11
1945.828393919817
 21
1000.893982226025
 31
0.0
  0
LINE
  5
1F34
330
1F
100
AcDbEntity
  8
AM_VIS
100
AcDbLine
 10
1945.328393919817
 20
999.1939822260251
 30
0.0
 11
1945.828393919817
 21
999.1939822260251
 31
0.0
  0
LINE
  5
1F35
330
1F
100
AcDbEntity
  8
AM_VIS
100
AcDbLine
 10
1945.128393919817
 20
999.3739822260252
 30
0.0
 11
1945.328393919817
 21
999.1939822260251
 31
0.0
  0
LINE
  5
1F36
330
1F
100
AcDbEntity
  8
AM_VIS
100
AcDbLine
 10
1945.328393919817
 20
995.793982226025
 30
0.0
 11
1945.128393919817
 21
995.6139822260251
 31
0.0
  0
LINE
  5
1F37
330
1F
100
AcDbEntity
  8
AM_VIS
100
AcDbLine
 10
1945.828393919817
 20
995.793982226025
 30
0.0
 11
1945.328393919817
 21
995.793982226025
 31
0.0
  0
LINE
  5
1F38
330
1F
100
AcDbEntity
  8
AM_VIS
100
AcDbLine
 10
1945.828393919817
 20
991.1939822260251
 30
0.0
 11
1945.828393919817
 21
995.793982226025
 31
0.0
  0
LINE
  5
1F39
330
1F
100
AcDbEntity
  8
AM_VIS
100
AcDbLine
 10
1945.328393919817
 20
991.1939822260251
 30
0.0
 11
1945.828393919817
 21
991.1939822260251
 31
0.0
  0
LINE
  5
1F3A
330
1F
100
AcDbEntity
  8
AM_VIS
100
AcDbLine
 10
1945.128393919817
 20
991.3739822260252
 30
0.0
 11
1945.328393919817
 21
991.1939822260251
 31
0.0
  0
LINE
  5
1F3B
330
1F
100
AcDbEntity
  8
AM_VIS
100
AcDbLine
 10
1945.328393919816
 20
987.793982226025
 30
0.0
 11
1945.128393919817
 21
987.6139822260249
 31
0.0
  0
LINE
  5
1F3C
330
1F
100
AcDbEntity
  8
AM_VIS
100
AcDbLine
 10
1945.828393919817
 20
987.793982226025
 30
0.0
 11
1945.328393919817
 21
987.793982226025
 31
0.0
  0
LINE
  5
1F3D
330
1F
100
AcDbEntity
  8
AM_VIS
100
AcDbLine
 10
1945.828393919817
 20
986.0939822260251
 30
0.0
 11
1945.828393919817
 21
987.793982226025
 31
0.0
  0
LINE
  5
1F3E
330
1F
100
AcDbEntity
  8
AM_VIS
100
AcDbLine
 10
1946.128393919816
 20
985.7939822260251
 30
0.0
 11
1945.828393919817
 21
986.0939822260251
 31
0.0
  0
LINE
  5
1F3F
330
1F
100
AcDbEntity
  8
AM_VIS
100
AcDbLine
 10
1946.128393919816
 20
977.193982226025
 30
0.0
 11
1946.128393919816
 21
985.7939822260251
 31
0.0
  0
LINE
  5
1F40
330
1F
100
AcDbEntity
  8
AM_VIS
100
AcDbLine
 10
1945.128393919817
 20
976.193982226025
 30
0.0
 11
1946.128393919816
 21
977.193982226025
 31
0.0
  0
LINE
  5
1F41
330
1F
100
AcDbEntity
  8
AM_VIS
100
AcDbLine
 10
1945.828393919817
 20
975.0939822260249
 30
0.0
 11
1945.128393919817
 21
975.7939822260251
 31
0.0
  0
LINE
  5
1F42
330
1F
100
AcDbEntity
  8
AM_VIS
100
AcDbLine
 10
1945.828393919817
 20
971.493982226025
 30
0.0
 11
1945.828393919817
 21
975.0939822260251
 31
0.0
  0
LINE
  5
1F43
330
1F
100
AcDbEntity
  8
AM_VIS
100
AcDbLine
 10
1946.128393919816
 20
971.193982226025
 30
0.0
 11
1945.828393919817
 21
971.493982226025
 31
0.0
  0
LINE
  5
1F44
330
1F
100
AcDbEntity
  8
AM_VIS
100
AcDbLine
 10
1945.428393919817
 20
961.493982226025
 30
0.0
 11
1945.128393919817
 21
961.493982226025
 31
0.0
  0
LINE
  5
1F45
330
1F
100
AcDbEntity
  8
AM_VIS
100
AcDbLine
 10
1946.128393919816
 20
961.7798393831709
 30
0.0
 11
1946.128393919816
 21
971.1939822260251
 31
0.0
  0
LINE
  5
1F46
330
1F
100
AcDbEntity
  8
AM_VIS
100
AcDbLine
 10
1946.128393919816
 20
1015.793982226025
 30
0.0
 11
1946.128393919816
 21
1025.208125068879
 31
0.0
  0
ARC
  5
1F47
330
1F
100
AcDbEntity
  8
AM_VIS
100
AcDbCircle
 10
1945.428393919817
 20
962.493982226025
 30
0.0
 40
0.9999999999999998
100
AcDbArc
 50
270.0
 51
314.4270040007999
  0
ARC
  5
1F48
330
1F
100
AcDbEntity
  8
AM_VIS
100
AcDbCircle
 10
1945.428393919817
 20
1024.493982226025
 30
0.0
 40
0.9999999999999998
100
AcDbArc
 50
45.5729959992001
 51
90.0
  0
LINE
  5
1F4B
330
1F
100
AcDbEntity
  8
0
100
AcDbLine
 10
1831.214247475855
 20
1146.69111275673
 30
0.0
 11
1863.214247475855
 21
1146.69111275673
 31
0.0
  0
LINE
  5
1F4C
330
1F
100
AcDbEntity
  8
0
100
AcDbLine
 10
1831.214247475855
 20
1138.69111275673
 30
0.0
 11
1863.214247475855
 21
1138.69111275673
 31
0.0
  0
LINE
  5
1F4D
330
1F
100
AcDbEntity
  8
AM_VIS
100
AcDbLine
 10
1863.214247475855
 20
1160.69111275673
 30
0.0
 11
1831.214247475855
 21
1160.69111275673
 31
0.0
  0
LINE
  5
1F4E
330
1F
100
AcDbEntity
  8
AM_VIS
100
AcDbLine
 10
1863.214247475855
 20
1170.69111275673
 30
0.0
 11
1831.214247475855
 21
1170.69111275673
 31
0.0
  0
LINE
  5
1F4F
330
1F
100
AcDbEntity
  8
AM_VIS
100
AcDbLine
 10
1863.214247475855
 20
975.4939822260251
 30
0.0
 11
1831.214247475855
 21
975.4939822260251
 31
0.0
  0
LINE
  5
1F50
330
1F
100
AcDbEntity
  8
AM_VIS
100
AcDbLine
 10
1863.214247475855
 20
965.4939822260251
 30
0.0
 11
1831.214247475855
 21
965.4939822260251
 31
0.0
  0
LINE
  5
1F51
330
1F
100
AcDbEntity
  8
0
100
AcDbLine
 10
1831.214247475855
 20
997.4939822260251
 30
0.0
 11
1863.214247475855
 21
997.4939822260251
 31
0.0
  0
LINE
  5
1F52
330
1F
100
AcDbEntity
  8
0
100
AcDbLine
 10
1831.214247475855
 20
989.4939822260251
 30
0.0
 11
1863.214247475855
 21
989.4939822260251
 31
0.0
  0
LINE
  5
1F53
330
1F
100
AcDbEntity
  8
AM_VIS
100
AcDbLine
 10
1863.214247475855
 20
1011.493982226025
 30
0.0
 11
1831.214247475855
 21
1011.493982226025
 31
0.0
  0
LINE
  5
1F54
330
1F
100
AcDbEntity
  8
AM_VIS
100
AcDbLine
 10
1863.214247475855
 20
1021.493982226025
 30
0.0
 11
1831.214247475855
 21
1021.493982226025
 31
0.0
  0
LINE
  5
1F56
330
1F
100
AcDbEntity
  8
0
100
AcDbLine
 10
1831.214247475855
 20
917.1829502098137
 30
0.0
 11
1863.214247475855
 21
917.1829502098137
 31
0.0
  0
LINE
  5
1F57
330
1F
100
AcDbEntity
  8
0
100
AcDbLine
 10
1831.214247475855
 20
907.1829502098138
 30
0.0
 11
1863.214247475855
 21
907.1829502098138
 31
0.0
  0
LINE
  5
1F64
330
1F
100
AcDbEntity
  8
AM_7
100
AcDbLine
 10
1879.849577181806
 20
912.1829502098137
 30
0.0
 11
1746.507867400141
 21
912.1829502098137
 31
0.0
1001
GENIUS_GENODEF_13
1002
{
1000
HIER
1070
     0
1002
}
1002
{
1000
MANEDIT
1070
     0
1002
}
1002
{
1000
NOSEL
1070
     0
1002
}
1002
{
1000
BEHIND
1070
     0
1002
}
1002
{
1000
OTHER
1070
     0
1002
}
1002
{
1000
REACTOR
1002
}
1001
GENIUS_GENOBJ-N-CEN_13
1002
{
1000
OWNER
1000
GEN
1002
}
1001
GENIUS_GENCEN_19
1002
{
1040
2.0
1002
}
  0
LINE
  5
1F71
330
1F
100
AcDbEntity
  8
AM_7
100
AcDbLine
 10
1746.338056754862
 20
1066.688321544549
 30
0.0
 11
1880.039340572811
 21
1066.688321544549
 31
0.0
1001
GENIUS_GENODEF_13
1002
{
1000
HIER
1070
     0
1002
}
1002
{
1000
MANEDIT
1070
     0
1002
}
1002
{
1000
NOSEL
1070
     0
1002
}
1002
{
1000
BEHIND
1070
     0
1002
}
1002
{
1000
OTHER
1070
     0
1002
}
1002
{
1000
REACTOR
1002
}
1001
GENIUS_GENOBJ-N-CEN_13
1002
{
1000
OWNER
1000
GEN
1002
}
1001
GENIUS_GENCEN_19
1002
{
1040
2.0
1002
}
  0
LINE
  5
1F7E
330
1F
100
AcDbEntity
  8
AM_7
100
AcDbLine
 10
1749.207098797858
 20
993.493982226025
 30
0.0
 11
1878.84932061068
 21
993.493982226025
 31
0.0
1001
GENIUS_GENOBJ-N-CEN_13
1002
{
1000
OWNER
1000
GEN
1002
}
1001
GENIUS_GENODEF_13
1002
{
1000
HIER
1070
     0
1002
}
1002
{
1000
MANEDIT
1070
     0
1002
}
1002
{
1000
NOSEL
1070
     0
1002
}
1002
{
1000
BEHIND
1070
     0
1002
}
1002
{
1000
OTHER
1070
     0
1002
}
1002
{
1000
REACTOR
1002
}
1001
GENIUS_GENCEN_19
1002
{
1040
2.0
1002
}
  0
LINE
  5
1F8B
330
1F
100
AcDbEntity
  8
AM_7
100
AcDbLine
 10
1913.128393919816
 20
993.493982226025
 30
0.0
 11
1949.375512047399
 21
993.493982226025
 31
0.0
1001
GENIUS_GENOBJ-N-CEN_13
1002
{
1000
OWNER
1000
GEN
1002
}
1001
GENIUS_GENODEF_13
1002
{
1000
HIER
1070
     0
1002
}
1002
{
1000
MANEDIT
1070
     0
1002
}
1002
{
1000
NOSEL
1070
     0
1002
}
1002
{
1000
BEHIND
1070
     0
1002
}
1002
{
1000
OTHER
1070
     0
1002
}
1002
{
1000
REACTOR
1002
}
1001
GENIUS_GENCEN_19
1002
{
1040
2.0
1002
}
  0
LINE
  5
1F98
330
1F
100
AcDbEntity
  8
AM_7
100
AcDbLine
 10
1747.685401779566
 20
1142.69111275673
 30
0.0
 11
1877.214247475856
 21
1142.69111275673
 31
0.0
1001
GENIUS_GENOBJ-N-CEN_13
1002
{
1000
OWNER
1000
GEN
1002
}
1001
GENIUS_GENODEF_13
1002
{
1000
HIER
1070
     0
1002
}
1002
{
1000
MANEDIT
1070
     0
1002
}
1002
{
1000
NOSEL
1070
     0
1002
}
1002
{
1000
BEHIND
1070
     0
1002
}
1002
{
1000
OTHER
1070
     0
1002
}
1002
{
1000
REACTOR
1002
}
1001
GENIUS_GENCEN_19
1002
{
1040
2.0
1002
}
  0
LINE
  5
1FA6
330
1F
100
AcDbEntity
  8
AM_7
  6
AM_ISO08W050x2
100
AcDbLine
 10
1784.214247475856
 20
1005.493982226025
 30
0.0
 11
1790.214247475856
 21
1005.493982226025
 31
0.0
1001
GENIUS_GENOREF_13
1005
1FAA
  0
LINE
  5
1FA7
330
1F
100
AcDbEntity
  8
AM_7
  6
AM_ISO08W050x2
100
AcDbLine
 10
1784.214247475856
 20
1005.493982226025
 30
0.0
 11
1784.214247475856
 21
1011.493982226025
 31
0.0
1001
GENIUS_GENOREF_13
1005
1FAA
  0
LINE
  5
1FA8
330
1F
100
AcDbEntity
  8
AM_7
  6
AM_ISO08W050x2
100
AcDbLine
 10
1784.214247475856
 20
1005.493982226025
 30
0.0
 11
1778.214247475856
 21
1005.493982226025
 31
0.0
1001
GENIUS_GENOREF_13
1005
1FAA
  0
LINE
  5
1FA9
330
1F
100
AcDbEntity
  8
AM_7
  6
AM_ISO08W050x2
100
AcDbLine
 10
1784.214247475856
 20
1005.493982226025
 30
0.0
 11
1784.214247475856
 21
999.4939822260251
 31
0.0
1001
GENIUS_GENOREF_13
1005
1FAA
  0
POINT
  5
1FAA
330
1F
100
AcDbEntity
  8
0
 60
     1
100
AcDbPoint
 10
0.0
 20
0.0
 30
0.0
1001
GENIUS_GENOLIS_13
1002
{
1000
ENT
1005
1FA9
1005
1FA8
1005
1FA7
1005
1FA6
1002
}
1001
GENIUS_GENODEF_13
1002
{
1000
HIER
1070
    10
1002
}
1002
{
1000
MANEDIT
1070
     0
1002
}
1002
{
1000
NOSEL
1070
     0
1002
}
1002
{
1000
BEHIND
1070
     0
1002
}
1002
{
1000
OTHER
1070
     0
1002
}
1002
{
1000
REACTOR
1002
}
1001
GENIUS_GENOBJ-N-CRS_13
1002
{
1000
OWNER
1000
GEN
1002
}
1001
GENIUS_GENOENT_13
1002
{
1000
MYREF
1005
1FAA
1002
}
1002
{
1000
GRP
1005
0
1002
}
  0
LINE
  5
1FB8
330
1F
100
AcDbEntity
  8
AM_7
  6
AM_ISO08W050x2
100
AcDbLine
 10
1814.214247475856
 20
1005.493982226025
 30
0.0
 11
1820.214247475855
 21
1005.493982226025
 31
0.0
1001
GENIUS_GENOREF_13
1005
1FBC
  0
LINE
  5
1FB9
330
1F
100
AcDbEntity
  8
AM_7
  6
AM_ISO08W050x2
100
AcDbLine
 10
1814.214247475856
 20
1005.493982226025
 30
0.0
 11
1814.214247475856
 21
1011.493982226025
 31
0.0
1001
GENIUS_GENOREF_13
1005
1FBC
  0
LINE
  5
1FBA
330
1F
100
AcDbEntity
  8
AM_7
  6
AM_ISO08W050x2
100
AcDbLine
 10
1814.214247475856
 20
1005.493982226025
 30
0.0
 11
1808.214247475856
 21
1005.493982226025
 31
0.0
1001
GENIUS_GENOREF_13
1005
1FBC
  0
LINE
  5
1FBB
330
1F
100
AcDbEntity
  8
AM_7
  6
AM_ISO08W050x2
100
AcDbLine
 10
1814.214247475856
 20
1005.493982226025
 30
0.0
 11
1814.214247475856
 21
999.4939822260251
 31
0.0
1001
GENIUS_GENOREF_13
1005
1FBC
  0
POINT
  5
1FBC
330
1F
100
AcDbEntity
  8
0
 60
     1
100
AcDbPoint
 10
0.0
 20
0.0
 30
0.0
1001
GENIUS_GENODEF_13
1002
{
1000
HIER
1070
    10
1002
}
1002
{
1000
MANEDIT
1070
     0
1002
}
1002
{
1000
NOSEL
1070
     0
1002
}
1002
{
1000
BEHIND
1070
     0
1002
}
1002
{
1000
OTHER
1070
     0
1002
}
1002
{
1000
REACTOR
1002
}
1001
GENIUS_GENOENT_13
1002
{
1000
MYREF
1005
1FBC
1002
}
1002
{
1000
GRP
1005
0
1002
}
1001
GENIUS_GENOBJ-N-CRS_13
1002
{
1000
OWNER
1000
GEN
1002
}
1001
GENIUS_GENOLIS_13
1002
{
1000
ENT
1005
1FBB
1005
1FBA
1005
1FB9
1005
1FB8
1002
}
  0
LINE
  5
1FCA
330
1F
100
AcDbEntity
  8
AM_7
  6
AM_ISO08W050x2
100
AcDbLine
 10
1814.214247475856
 20
981.4939822260251
 30
0.0
 11
1820.214247475855
 21
981.4939822260251
 31
0.0
1001
GENIUS_GENOREF_13
1005
1FCE
  0
LINE
  5
1FCB
330
1F
100
AcDbEntity
  8
AM_7
  6
AM_ISO08W050x2
100
AcDbLine
 10
1814.214247475856
 20
981.4939822260251
 30
0.0
 11
1814.214247475856
 21
987.493982226025
 31
0.0
1001
GENIUS_GENOREF_13
1005
1FCE
  0
LINE
  5
1FCC
330
1F
100
AcDbEntity
  8
AM_7
  6
AM_ISO08W050x2
100
AcDbLine
 10
1814.214247475856
 20
981.4939822260251
 30
0.0
 11
1808.214247475856
 21
981.4939822260251
 31
0.0
1001
GENIUS_GENOREF_13
1005
1FCE
  0
LINE
  5
1FCD
330
1F
100
AcDbEntity
  8
AM_7
  6
AM_ISO08W050x2
100
AcDbLine
 10
1814.214247475856
 20
981.4939822260251
 30
0.0
 11
1814.214247475856
 21
975.4939822260251
 31
0.0
1001
GENIUS_GENOREF_13
1005
1FCE
  0
POINT
  5
1FCE
330
1F
100
AcDbEntity
  8
0
 60
     1
100
AcDbPoint
 10
0.0
 20
0.0
 30
0.0
1001
GENIUS_GENOLIS_13
1002
{
1000
ENT
1005
1FCD
1005
1FCC
1005
1FCB
1005
1FCA
1002
}
1001
GENIUS_GENOBJ-N-CRS_13
1002
{
1000
OWNER
1000
GEN
1002
}
1001
GENIUS_GENODEF_13
1002
{
1000
HIER
1070
    10
1002
}
1002
{
1000
MANEDIT
1070
     0
1002
}
1002
{
1000
NOSEL
1070
     0
1002
}
1002
{
1000
BEHIND
1070
     0
1002
}
1002
{
1000
OTHER
1070
     0
1002
}
1002
{
1000
REACTOR
1002
}
1001
GENIUS_GENOENT_13
1002
{
1000
MYREF
1005
1FCE
1002
}
1002
{
1000
GRP
1005
0
1002
}
  0
LINE
  5
1FDC
330
1F
100
AcDbEntity
  8
AM_7
  6
AM_ISO08W050x2
100
AcDbLine
 10
1784.214247475856
 20
981.4939822260251
 30
0.0
 11
1790.214247475856
 21
981.4939822260251
 31
0.0
1001
GENIUS_GENOREF_13
1005
1FE0
  0
LINE
  5
1FDD
330
1F
100
AcDbEntity
  8
AM_7
  6
AM_ISO08W050x2
100
AcDbLine
 10
1784.214247475856
 20
981.4939822260251
 30
0.0
 11
1784.214247475856
 21
987.493982226025
 31
0.0
1001
GENIUS_GENOREF_13
1005
1FE0
  0
LINE
  5
1FDE
330
1F
100
AcDbEntity
  8
AM_7
  6
AM_ISO08W050x2
100
AcDbLine
 10
1784.214247475856
 20
981.4939822260251
 30
0.0
 11
1778.214247475856
 21
981.4939822260251
 31
0.0
1001
GENIUS_GENOREF_13
1005
1FE0
  0
LINE
  5
1FDF
330
1F
100
AcDbEntity
  8
AM_7
  6
AM_ISO08W050x2
100
AcDbLine
 10
1784.214247475856
 20
981.4939822260251
 30
0.0
 11
1784.214247475856
 21
975.4939822260251
 31
0.0
1001
GENIUS_GENOREF_13
1005
1FE0
  0
POINT
  5
1FE0
330
1F
100
AcDbEntity
  8
0
 60
     1
100
AcDbPoint
 10
0.0
 20
0.0
 30
0.0
1001
GENIUS_GENOLIS_13
1002
{
1000
ENT
1005
1FDF
1005
1FDE
1005
1FDD
1005
1FDC
1002
}
1001
GENIUS_GENOENT_13
1002
{
1000
MYREF
1005
1FE0
1002
}
1002
{
1000
GRP
1005
0
1002
}
1001
GENIUS_GENOBJ-N-CRS_13
1002
{
1000
OWNER
1000
GEN
1002
}
1001
GENIUS_GENODEF_13
1002
{
1000
HIER
1070
    10
1002
}
1002
{
1000
MANEDIT
1070
     0
1002
}
1002
{
1000
NOSEL
1070
     0
1002
}
1002
{
1000
BEHIND
1070
     0
1002
}
1002
{
1000
OTHER
1070
     0
1002
}
1002
{
1000
REACTOR
1002
}
  0
ARC
  5
1FF4
330
1F
100
AcDbEntity
  8
AM_4
100
AcDbCircle
 10
1778.214247475856
 20
922.1829502098138
 30
0.0
 40
2.5
100
AcDbArc
 50
260.0
 51
170.0
  0
CIRCLE
  5
1FF5
330
1F
100
AcDbEntity
  8
AM_0
100
AcDbCircle
 10
1778.214247475856
 20
922.1829502098138
 30
0.0
 40
2.066987298107819
  0
LINE
  5
1FF6
330
1F
100
AcDbEntity
  8
AM_7
  6
AM_ISO08W050x2
100
AcDbLine
 10
1773.714247475855
 20
922.1829502098138
 30
0.0
 11
1782.714247475855
 21
922.1829502098138
 31
0.0
  0
LINE
  5
1FF7
330
1F
100
AcDbEntity
  8
AM_7
  6
AM_ISO08W050x2
100
AcDbLine
 10
1778.214247475856
 20
917.6829502098138
 30
0.0
 11
1778.214247475856
 21
926.6829502098138
 31
0.0
  0
ARC
  5
1FF8
330
1F
100
AcDbEntity
  8
AM_4
100
AcDbCircle
 10
1820.214247475855
 20
922.1829502098138
 30
0.0
 40
2.5
100
AcDbArc
 50
260.0
 51
170.0
  0
CIRCLE
  5
1FF9
330
1F
100
AcDbEntity
  8
AM_0
100
AcDbCircle
 10
1820.214247475855
 20
922.1829502098138
 30
0.0
 40
2.066987298107819
  0
LINE
  5
1FFA
330
1F
100
AcDbEntity
  8
AM_7
  6
AM_ISO08W050x2
100
AcDbLine
 10
1815.714247475856
 20
922.1829502098138
 30
0.0
 11
1824.714247475856
 21
922.1829502098138
 31
0.0
  0
LINE
  5
1FFB
330
1F
100
AcDbEntity
  8
AM_7
  6
AM_ISO08W050x2
100
AcDbLine
 10
1820.214247475855
 20
917.6829502098138
 30
0.0
 11
1820.214247475855
 21
926.6829502098138
 31
0.0
  0
LINE
  5
1FFC
330
1F
100
AcDbEntity
  8
AM_VIS
100
AcDbLine
 10
1753.214247475856
 20
898.182950209814
 30
0.0
 11
1753.214247475856
 21
928.1829502098139
 31
0.0
  0
LINE
  5
1FFD
330
1F
100
AcDbEntity
  8
AM_VIS
100
AcDbLine
 10
1765.214247475856
 20
928.1829502098139
 30
0.0
 11
1765.214247475856
 21
898.182950209814
 31
0.0
  0
LINE
  5
1FFE
330
1F
100
AcDbEntity
  8
AM_VIS
100
AcDbLine
 10
1753.214247475856
 20
928.1829502098139
 30
0.0
 11
1765.214247475856
 21
928.1829502098139
 31
0.0
  0
LINE
  5
1FFF
330
1F
100
AcDbEntity
  8
AM_VIS
100
AcDbLine
 10
1753.214247475856
 20
898.1829502098138
 30
0.0
 11
1765.214247475856
 21
898.1829502098138
 31
0.0
  0
LINE
  5
2000
330
1F
100
AcDbEntity
  8
AM_VIS
100
AcDbLine
 10
1765.214247475856
 20
1071.68832154455
 30
0.0
 11
1767.214247475856
 21
1071.68832154455
 31
0.0
  0
LINE
  5
2001
330
1F
100
AcDbEntity
  8
AM_VIS
100
AcDbLine
 10
1765.214247475856
 20
1061.68832154455
 30
0.0
 11
1767.214247475856
 21
1061.68832154455
 31
0.0
  0
LINE
  5
2002
330
1F
100
AcDbEntity
  8
AM_VIS
100
AcDbLine
 10
1753.214247475856
 20
1050.688321544549
 30
0.0
 11
1753.214247475856
 21
1080.688321544549
 31
0.0
  0
LINE
  5
2003
330
1F
100
AcDbEntity
  8
AM_VIS
100
AcDbLine
 10
1753.214247475856
 20
1050.688321544549
 30
0.0
 11
1765.214247475856
 21
1050.688321544549
 31
0.0
  0
LINE
  5
2004
330
1F
100
AcDbEntity
  8
AM_VIS
100
AcDbLine
 10
1765.214247475856
 20
1080.688321544549
 30
0.0
 11
1765.214247475856
 21
1050.688321544549
 31
0.0
  0
LINE
  5
2005
330
1F
100
AcDbEntity
  8
AM_VIS
100
AcDbLine
 10
1753.214247475856
 20
1080.688321544549
 30
0.0
 11
1765.214247475856
 21
1080.688321544549
 31
0.0
  0
LINE
  5
2006
330
1F
100
AcDbEntity
  8
AM_VIS
100
AcDbLine
 10
1765.214247475856
 20
1124.69111275673
 30
0.0
 11
1767.214247475856
 21
1124.69111275673
 31
0.0
  0
LINE
  5
2007
330
1F
100
AcDbEntity
  8
AM_VIS
100
AcDbLine
 10
1765.214247475856
 20
1114.69111275673
 30
0.0
 11
1767.214247475856
 21
1114.69111275673
 31
0.0
  0
LINE
  5
2008
330
1F
100
AcDbEntity
  8
AM_VIS
100
AcDbLine
 10
1753.214247475856
 20
1174.69111275673
 30
0.0
 11
1765.214247475856
 21
1174.69111275673
 31
0.0
  0
LINE
  5
2009
330
1F
100
AcDbEntity
  8
AM_VIS
100
AcDbLine
 10
1753.214247475856
 20
1110.69111275673
 30
0.0
 11
1753.214247475856
 21
1174.69111275673
 31
0.0
  0
LINE
  5
200A
330
1F
100
AcDbEntity
  8
AM_VIS
100
AcDbLine
 10
1753.214247475856
 20
1110.69111275673
 30
0.0
 11
1765.214247475856
 21
1110.69111275673
 31
0.0
  0
LINE
  5
200B
330
1F
100
AcDbEntity
  8
AM_VIS
100
AcDbLine
 10
1765.214247475856
 20
1174.69111275673
 30
0.0
 11
1765.214247475856
 21
1110.69111275673
 31
0.0
  0
CIRCLE
  5
200C
330
1F
100
AcDbEntity
  8
AM_VIS
100
AcDbCircle
 10
1759.214247475856
 20
1158.69111275673
 30
0.0
 40
4.0
  0
CIRCLE
  5
200D
330
1F
100
AcDbEntity
  8
AM_VIS
100
AcDbCircle
 10
1759.214247475856
 20
1158.69111275673
 30
0.0
 40
2.25
  0
CIRCLE
  5
200E
330
1F
100
AcDbEntity
  8
AM_VIS
100
AcDbCircle
 10
1759.214247475856
 20
1126.69111275673
 30
0.0
 40
4.0
  0
CIRCLE
  5
200F
330
1F
100
AcDbEntity
  8
AM_VIS
100
AcDbCircle
 10
1759.214247475856
 20
1126.69111275673
 30
0.0
 40
2.25
  0
LINE
  5
2010
330
1F
100
AcDbEntity
  8
AM_VIS
100
AcDbLine
 10
1753.214247475856
 20
961.493982226025
 30
0.0
 11
1753.214247475856
 21
1025.493982226025
 31
0.0
  0
LINE
  5
2011
330
1F
100
AcDbEntity
  8
AM_VIS
100
AcDbLine
 10
1753.214247475856
 20
961.493982226025
 30
0.0
 11
1765.214247475856
 21
961.493982226025
 31
0.0
  0
LINE
  5
2012
330
1F
100
AcDbEntity
  8
AM_VIS
100
AcDbLine
 10
1765.214247475856
 20
1025.493982226025
 30
0.0
 11
1765.214247475856
 21
961.493982226025
 31
0.0
  0
LINE
  5
2013
330
1F
100
AcDbEntity
  8
AM_VIS
100
AcDbLine
 10
1753.214247475856
 20
1025.493982226025
 30
0.0
 11
1765.214247475856
 21
1025.493982226025
 31
0.0
  0
CIRCLE
  5
2014
330
1F
100
AcDbEntity
  8
AM_VIS
100
AcDbCircle
 10
1759.214247475856
 20
977.493982226025
 30
0.0
 40
2.25
  0
CIRCLE
  5
2015
330
1F
100
AcDbEntity
  8
AM_VIS
100
AcDbCircle
 10
1759.214247475856
 20
1009.493982226025
 30
0.0
 40
2.25
  0
CIRCLE
  5
2016
330
1F
100
AcDbEntity
  8
AM_VIS
100
AcDbCircle
 10
1759.214247475856
 20
1018.493982226025
 30
0.0
 40
2.5
  0
CIRCLE
  5
2017
330
1F
100
AcDbEntity
  8
AM_VIS
100
AcDbCircle
 10
1759.214247475856
 20
968.493982226025
 30
0.0
 40
2.5
  0
LINE
  5
2018
330
1F
100
AcDbEntity
  8
0
100
AcDbLine
 10
1767.214247475856
 20
1146.69111275673
 30
0.0
 11
1765.214247475856
 21
1146.69111275673
 31
0.0
  0
LINE
  5
2019
330
1F
100
AcDbEntity
  8
0
100
AcDbLine
 10
1767.214247475856
 20
1138.69111275673
 30
0.0
 11
1765.214247475856
 21
1138.69111275673
 31
0.0
  0
LINE
  5
201A
330
1F
100
AcDbEntity
  8
AM_VIS
100
AcDbLine
 10
1765.214247475856
 20
1160.69111275673
 30
0.0
 11
1767.214247475856
 21
1160.69111275673
 31
0.0
  0
LINE
  5
201B
330
1F
100
AcDbEntity
  8
AM_VIS
100
AcDbLine
 10
1765.214247475856
 20
1170.69111275673
 30
0.0
 11
1767.214247475856
 21
1170.69111275673
 31
0.0
  0
LINE
  5
201C
330
1F
100
AcDbEntity
  8
AM_VIS
100
AcDbLine
 10
1765.214247475856
 20
975.4939822260251
 30
0.0
 11
1767.214247475856
 21
975.4939822260251
 31
0.0
  0
LINE
  5
201D
330
1F
100
AcDbEntity
  8
AM_VIS
100
AcDbLine
 10
1765.214247475856
 20
965.4939822260251
 30
0.0
 11
1767.214247475856
 21
965.4939822260251
 31
0.0
  0
LINE
  5
201E
330
1F
100
AcDbEntity
  8
0
100
AcDbLine
 10
1767.214247475856
 20
997.4939822260251
 30
0.0
 11
1765.214247475856
 21
997.4939822260251
 31
0.0
  0
LINE
  5
201F
330
1F
100
AcDbEntity
  8
0
100
AcDbLine
 10
1767.214247475856
 20
989.4939822260251
 30
0.0
 11
1765.214247475856
 21
989.4939822260251
 31
0.0
  0
LINE
  5
2020
330
1F
100
AcDbEntity
  8
AM_VIS
100
AcDbLine
 10
1765.214247475856
 20
1011.493982226025
 30
0.0
 11
1767.214247475856
 21
1011.493982226025
 31
0.0
  0
LINE
  5
2021
330
1F
100
AcDbEntity
  8
AM_VIS
100
AcDbLine
 10
1765.214247475856
 20
1021.493982226025
 30
0.0
 11
1767.214247475856
 21
1021.493982226025
 31
0.0
  0
LINE
  5
2022
330
1F
100
AcDbEntity
  8
0
100
AcDbLine
 10
1767.214247475856
 20
917.1829502098137
 30
0.0
 11
1765.214247475856
 21
917.1829502098137
 31
0.0
  0
LINE
  5
2023
330
1F
100
AcDbEntity
  8
0
100
AcDbLine
 10
1767.214247475856
 20
907.1829502098138
 30
0.0
 11
1765.214247475856
 21
907.1829502098138
 31
0.0
  0
LINE
  5
202F
330
1F
100
AcDbEntity
  8
AM_VIS
100
AcDbLine
 10
1715.816443923691
 20
991.993982226025
 30
0.0
 11
1716.682020484165
 21
993.493982226025
 31
0.0
  0
LINE
  5
2030
330
1F
100
AcDbEntity
  8
AM_VIS
100
AcDbLine
 10
1715.816443923691
 20
994.9939822260251
 30
0.0
 11
1714.082597044639
 21
994.9939822260251
 31
0.0
  0
LINE
  5
2031
330
1F
100
AcDbEntity
  8
AM_VIS
100
AcDbLine
 10
1716.682020484165
 20
993.493982226025
 30
0.0
 11
1715.816443923691
 21
994.9939822260251
 31
0.0
  0
LINE
  5
2032
330
1F
100
AcDbEntity
  8
AM_VIS
100
AcDbLine
 10
1714.082597044639
 20
991.993982226025
 30
0.0
 11
1715.816443923691
 21
991.993982226025
 31
0.0
  0
LINE
  5
2033
330
1F
100
AcDbEntity
  8
AM_VIS
100
AcDbLine
 10
1713.217020484165
 20
993.493982226025
 30
0.0
 11
1714.082597044639
 21
991.993982226025
 31
0.0
  0
LINE
  5
2034
330
1F
100
AcDbEntity
  8
AM_VIS
100
AcDbLine
 10
1714.082597044639
 20
994.9939822260251
 30
0.0
 11
1713.217020484165
 21
993.493982226025
 31
0.0
  0
CIRCLE
  5
2035
330
1F
100
AcDbEntity
  8
AM_VIS
100
AcDbCircle
 10
1714.949520484166
 20
993.493982226025
 30
0.0
 40
4.750000000000029
  0
LINE
  5
2036
330
1F
100
AcDbEntity
  8
AM_VIS
100
AcDbLine
 10
1715.816443923691
 20
968.9939822260251
 30
0.0
 11
1716.682020484165
 21
970.493982226025
 31
0.0
  0
LINE
  5
2037
330
1F
100
AcDbEntity
  8
AM_VIS
100
AcDbLine
 10
1715.816443923691
 20
971.9939822260251
 30
0.0
 11
1714.082597044639
 21
971.9939822260251
 31
0.0
  0
LINE
  5
2038
330
1F
100
AcDbEntity
  8
AM_VIS
100
AcDbLine
 10
1716.682020484165
 20
970.493982226025
 30
0.0
 11
1715.816443923691
 21
971.9939822260251
 31
0.0
  0
LINE
  5
2039
330
1F
100
AcDbEntity
  8
AM_VIS
100
AcDbLine
 10
1714.082597044639
 20
968.9939822260251
 30
0.0
 11
1715.816443923691
 21
968.9939822260251
 31
0.0
  0
LINE
  5
203A
330
1F
100
AcDbEntity
  8
AM_VIS
100
AcDbLine
 10
1713.217020484165
 20
970.493982226025
 30
0.0
 11
1714.082597044639
 21
968.9939822260251
 31
0.0
  0
LINE
  5
203B
330
1F
100
AcDbEntity
  8
AM_VIS
100
AcDbLine
 10
1714.082597044639
 20
971.9939822260251
 30
0.0
 11
1713.217020484165
 21
970.493982226025
 31
0.0
  0
CIRCLE
  5
203C
330
1F
100
AcDbEntity
  8
AM_VIS
100
AcDbCircle
 10
1714.949520484166
 20
970.493982226025
 30
0.0
 40
4.750000000000029
  0
LINE
  5
203D
330
1F
100
AcDbEntity
  8
AM_VIS
100
AcDbLine
 10
1700.949520484165
 20
961.493982226025
 30
0.0
 11
1730.949520484166
 21
961.493982226025
 31
0.0
  0
LINE
  5
203E
330
1F
100
AcDbEntity
  8
AM_VIS
100
AcDbLine
 10
1730.949520484166
 20
961.493982226025
 30
0.0
 11
1730.949520484166
 21
1025.493982226025
 31
0.0
  0
LINE
  5
203F
330
1F
100
AcDbEntity
  8
AM_VIS
100
AcDbLine
 10
1730.949520484166
 20
1025.493982226025
 30
0.0
 11
1700.949520484165
 21
1025.493982226025
 31
0.0
  0
LINE
  5
2040
330
1F
100
AcDbEntity
  8
AM_VIS
100
AcDbLine
 10
1700.949520484165
 20
1025.493982226025
 30
0.0
 11
1700.949520484165
 21
961.493982226025
 31
0.0
  0
CIRCLE
  5
2042
330
1F
100
AcDbEntity
  8
AM_VIS
100
AcDbCircle
 10
1714.949520484166
 20
970.493982226025
 30
0.0
 40
5.25
  0
CIRCLE
  5
2043
330
1F
100
AcDbEntity
  8
AM_VIS
100
AcDbCircle
 10
1714.949520484166
 20
993.493982226025
 30
0.0
 40
5.25
  0
LINE
  5
2048
330
1F
100
AcDbEntity
  8
AM_VIS
100
AcDbLine
 10
1700.949520484165
 20
1025.493982226025
 30
0.0
 11
1700.649520484165
 21
1025.493982226025
 31
0.0
  0
LINE
  5
2049
330
1F
100
AcDbEntity
  8
AM_VIS
100
AcDbLine
 10
1700.249520484165
 20
1015.493982226025
 30
0.0
 11
1699.949520484165
 21
1015.793982226025
 31
0.0
  0
LINE
  5
204A
330
1F
100
AcDbEntity
  8
AM_VIS
100
AcDbLine
 10
1700.249520484165
 20
1011.893982226025
 30
0.0
 11
1700.249520484165
 21
1015.493982226025
 31
0.0
  0
LINE
  5
204B
330
1F
100
AcDbEntity
  8
AM_VIS
100
AcDbLine
 10
1700.949520484165
 20
1011.193982226025
 30
0.0
 11
1700.249520484165
 21
1011.893982226025
 31
0.0
  0
LINE
  5
204C
330
1F
100
AcDbEntity
  8
AM_VIS
100
AcDbLine
 10
1699.949520484165
 20
1009.793982226025
 30
0.0
 11
1700.949520484165
 21
1010.793982226025
 31
0.0
  0
LINE
  5
204D
330
1F
100
AcDbEntity
  8
AM_VIS
100
AcDbLine
 10
1699.949520484165
 20
1001.193982226025
 30
0.0
 11
1699.949520484165
 21
1009.793982226025
 31
0.0
  0
LINE
  5
204E
330
1F
100
AcDbEntity
  8
AM_VIS
100
AcDbLine
 10
1700.249520484165
 20
1000.893982226025
 30
0.0
 11
1699.949520484165
 21
1001.193982226025
 31
0.0
  0
LINE
  5
204F
330
1F
100
AcDbEntity
  8
AM_VIS
100
AcDbLine
 10
1700.249520484165
 20
999.1939822260251
 30
0.0
 11
1700.249520484165
 21
1000.893982226025
 31
0.0
  0
LINE
  5
2050
330
1F
100
AcDbEntity
  8
AM_VIS
100
AcDbLine
 10
1700.749520484165
 20
999.1939822260251
 30
0.0
 11
1700.249520484165
 21
999.1939822260251
 31
0.0
  0
LINE
  5
2051
330
1F
100
AcDbEntity
  8
AM_VIS
100
AcDbLine
 10
1700.949520484165
 20
999.3739822260252
 30
0.0
 11
1700.749520484165
 21
999.1939822260251
 31
0.0
  0
LINE
  5
2052
330
1F
100
AcDbEntity
  8
AM_VIS
100
AcDbLine
 10
1700.749520484165
 20
995.793982226025
 30
0.0
 11
1700.949520484165
 21
995.6139822260251
 31
0.0
  0
LINE
  5
2053
330
1F
100
AcDbEntity
  8
AM_VIS
100
AcDbLine
 10
1700.249520484165
 20
995.793982226025
 30
0.0
 11
1700.749520484165
 21
995.793982226025
 31
0.0
  0
LINE
  5
2054
330
1F
100
AcDbEntity
  8
AM_VIS
100
AcDbLine
 10
1700.249520484165
 20
991.1939822260251
 30
0.0
 11
1700.249520484165
 21
995.793982226025
 31
0.0
  0
LINE
  5
2055
330
1F
100
AcDbEntity
  8
AM_VIS
100
AcDbLine
 10
1700.749520484165
 20
991.1939822260251
 30
0.0
 11
1700.249520484165
 21
991.1939822260251
 31
0.0
  0
LINE
  5
2056
330
1F
100
AcDbEntity
  8
AM_VIS
100
AcDbLine
 10
1700.949520484165
 20
991.3739822260252
 30
0.0
 11
1700.749520484165
 21
991.1939822260251
 31
0.0
  0
LINE
  5
2057
330
1F
100
AcDbEntity
  8
AM_VIS
100
AcDbLine
 10
1700.749520484166
 20
987.793982226025
 30
0.0
 11
1700.949520484165
 21
987.6139822260249
 31
0.0
  0
LINE
  5
2058
330
1F
100
AcDbEntity
  8
AM_VIS
100
AcDbLine
 10
1700.249520484165
 20
987.793982226025
 30
0.0
 11
1700.749520484165
 21
987.793982226025
 31
0.0
  0
LINE
  5
2059
330
1F
100
AcDbEntity
  8
AM_VIS
100
AcDbLine
 10
1700.249520484165
 20
986.0939822260251
 30
0.0
 11
1700.249520484165
 21
987.793982226025
 31
0.0
  0
LINE
  5
205A
330
1F
100
AcDbEntity
  8
AM_VIS
100
AcDbLine
 10
1699.949520484165
 20
985.7939822260251
 30
0.0
 11
1700.249520484165
 21
986.0939822260251
 31
0.0
  0
LINE
  5
205B
330
1F
100
AcDbEntity
  8
AM_VIS
100
AcDbLine
 10
1699.949520484165
 20
977.193982226025
 30
0.0
 11
1699.949520484165
 21
985.7939822260251
 31
0.0
  0
LINE
  5
205C
330
1F
100
AcDbEntity
  8
AM_VIS
100
AcDbLine
 10
1700.949520484165
 20
976.193982226025
 30
0.0
 11
1699.949520484165
 21
977.193982226025
 31
0.0
  0
LINE
  5
205D
330
1F
100
AcDbEntity
  8
AM_VIS
100
AcDbLine
 10
1700.249520484165
 20
975.0939822260249
 30
0.0
 11
1700.949520484165
 21
975.7939822260251
 31
0.0
  0
LINE
  5
205E
330
1F
100
AcDbEntity
  8
AM_VIS
100
AcDbLine
 10
1700.249520484165
 20
971.493982226025
 30
0.0
 11
1700.249520484165
 21
975.0939822260251
 31
0.0
  0
LINE
  5
205F
330
1F
100
AcDbEntity
  8
AM_VIS
100
AcDbLine
 10
1699.949520484165
 20
971.193982226025
 30
0.0
 11
1700.249520484165
 21
971.493982226025
 31
0.0
  0
LINE
  5
2060
330
1F
100
AcDbEntity
  8
AM_VIS
100
AcDbLine
 10
1700.649520484165
 20
961.493982226025
 30
0.0
 11
1700.949520484165
 21
961.493982226025
 31
0.0
  0
LINE
  5
2061
330
1F
100
AcDbEntity
  8
AM_VIS
100
AcDbLine
 10
1699.949520484165
 20
961.7798393831709
 30
0.0
 11
1699.949520484165
 21
971.1939822260251
 31
0.0
  0
LINE
  5
2062
330
1F
100
AcDbEntity
  8
AM_VIS
100
AcDbLine
 10
1699.949520484165
 20
1015.793982226025
 30
0.0
 11
1699.949520484165
 21
1025.208125068879
 31
0.0
  0
ARC
  5
2063
330
1F
100
AcDbEntity
  8
AM_VIS
100
AcDbCircle
 10
1700.649520484165
 20
962.493982226025
 30
0.0
 40
0.9999999999999998
100
AcDbArc
 50
225.5729959992001
 51
270.0
  0
ARC
  5
2064
330
1F
100
AcDbEntity
  8
AM_VIS
100
AcDbCircle
 10
1700.649520484165
 20
1024.493982226025
 30
0.0
 40
0.9999999999999998
100
AcDbArc
 50
90.0
 51
134.4270040007998
  0
LINE
  5
2065
330
1F
100
AcDbEntity
  8
AM_7
100
AcDbLine
 10
1732.949520484165
 20
993.493982226025
 30
0.0
 11
1696.702402356583
 21
993.493982226025
 31
0.0
1001
GENIUS_GENOBJ-N-CEN_13
1002
{
1000
OWNER
1000
GEN
1002
}
1001
GENIUS_GENODEF_13
1002
{
1000
HIER
1070
     0
1002
}
1002
{
1000
MANEDIT
1070
     0
1002
}
1002
{
1000
NOSEL
1070
     0
1002
}
1002
{
1000
BEHIND
1070
     0
1002
}
1002
{
1000
OTHER
1070
     0
1002
}
1002
{
1000
REACTOR
1002
}
1001
GENIUS_GENCEN_19
1002
{
1040
2.0
1002
}
  0
CIRCLE
  5
2079
330
1F
100
AcDbEntity
  8
AM_VIS
100
AcDbCircle
 10
1714.949520484166
 20
1016.493982226025
 30
0.0
 40
5.25
  0
ARC
  5
2094
330
1F
100
AcDbEntity
  8
AM_4
100
AcDbCircle
 10
1706.949520484165
 20
967.4939822260251
 30
0.0
 40
2.5
100
AcDbArc
 50
260.0
 51
170.0
  0
CIRCLE
  5
2095
330
1F
100
AcDbEntity
  8
AM_0
100
AcDbCircle
 10
1706.949520484165
 20
967.4939822260251
 30
0.0
 40
2.066987298107819
  0
LINE
  5
2096
330
1F
100
AcDbEntity
  8
AM_7
  6
AM_ISO08W050x2
100
AcDbLine
 10
1702.449520484165
 20
967.4939822260251
 30
0.0
 11
1711.449520484165
 21
967.4939822260251
 31
0.0
  0
LINE
  5
2097
330
1F
100
AcDbEntity
  8
AM_7
  6
AM_ISO08W050x2
100
AcDbLine
 10
1706.949520484165
 20
962.9939822260251
 30
0.0
 11
1706.949520484165
 21
971.9939822260251
 31
0.0
  0
ARC
  5
2098
330
1F
100
AcDbEntity
  8
AM_4
100
AcDbCircle
 10
1722.949520484165
 20
967.4939822260251
 30
0.0
 40
2.5
100
AcDbArc
 50
260.0
 51
170.0
  0
CIRCLE
  5
2099
330
1F
100
AcDbEntity
  8
AM_0
100
AcDbCircle
 10
1722.949520484165
 20
967.4939822260251
 30
0.0
 40
2.066987298107819
  0
LINE
  5
209A
330
1F
100
AcDbEntity
  8
AM_7
  6
AM_ISO08W050x2
100
AcDbLine
 10
1718.449520484165
 20
967.4939822260251
 30
0.0
 11
1727.449520484166
 21
967.4939822260251
 31
0.0
  0
LINE
  5
209B
330
1F
100
AcDbEntity
  8
AM_7
  6
AM_ISO08W050x2
100
AcDbLine
 10
1722.949520484165
 20
962.9939822260251
 30
0.0
 11
1722.949520484165
 21
971.9939822260251
 31
0.0
  0
ARC
  5
209C
330
1F
100
AcDbEntity
  8
AM_4
100
AcDbCircle
 10
1706.949520484165
 20
1019.493982226025
 30
0.0
 40
2.5
100
AcDbArc
 50
260.0
 51
170.0
  0
CIRCLE
  5
209D
330
1F
100
AcDbEntity
  8
AM_0
100
AcDbCircle
 10
1706.949520484165
 20
1019.493982226025
 30
0.0
 40
2.066987298107819
  0
LINE
  5
209E
330
1F
100
AcDbEntity
  8
AM_7
  6
AM_ISO08W050x2
100
AcDbLine
 10
1702.449520484165
 20
1019.493982226025
 30
0.0
 11
1711.449520484165
 21
1019.493982226025
 31
0.0
  0
LINE
  5
209F
330
1F
100
AcDbEntity
  8
AM_7
  6
AM_ISO08W050x2
100
AcDbLine
 10
1706.949520484165
 20
1014.993982226025
 30
0.0
 11
1706.949520484165
 21
1023.993982226025
 31
0.0
  0
ARC
  5
20A0
330
1F
100
AcDbEntity
  8
AM_4
100
AcDbCircle
 10
1722.949520484165
 20
1019.493982226025
 30
0.0
 40
2.5
100
AcDbArc
 50
260.0
 51
170.0
  0
CIRCLE
  5
20A1
330
1F
100
AcDbEntity
  8
AM_0
100
AcDbCircle
 10
1722.949520484165
 20
1019.493982226025
 30
0.0
 40
2.066987298107819
  0
LINE
  5
20A2
330
1F
100
AcDbEntity
  8
AM_7
  6
AM_ISO08W050x2
100
AcDbLine
 10
1718.449520484165
 20
1019.493982226025
 30
0.0
 11
1727.449520484166
 21
1019.493982226025
 31
0.0
  0
LINE
  5
20A3
330
1F
100
AcDbEntity
  8
AM_7
  6
AM_ISO08W050x2
100
AcDbLine
 10
1722.949520484165
 20
1014.993982226025
 30
0.0
 11
1722.949520484165
 21
1023.993982226025
 31
0.0
  0
ARC
  5
20A5
330
1F
100
AcDbEntity
  8
AM_4
100
AcDbCircle
 10
1923.128393919816
 20
967.4939822260251
 30
0.0
 40
2.5
100
AcDbArc
 50
260.0
 51
170.0
  0
CIRCLE
  5
20A6
330
1F
100
AcDbEntity
  8
AM_0
100
AcDbCircle
 10
1923.128393919816
 20
967.4939822260251
 30
0.0
 40
2.066987298107819
  0
LINE
  5
20A7
330
1F
100
AcDbEntity
  8
AM_7
  6
AM_ISO08W050x2
100
AcDbLine
 10
1918.628393919816
 20
967.4939822260251
 30
0.0
 11
1927.628393919816
 21
967.4939822260251
 31
0.0
  0
LINE
  5
20A8
330
1F
100
AcDbEntity
  8
AM_7
  6
AM_ISO08W050x2
100
AcDbLine
 10
1923.128393919816
 20
962.9939822260251
 30
0.0
 11
1923.128393919816
 21
971.9939822260251
 31
0.0
  0
ARC
  5
20A9
330
1F
100
AcDbEntity
  8
AM_4
100
AcDbCircle
 10
1939.128393919816
 20
967.4939822260251
 30
0.0
 40
2.5
100
AcDbArc
 50
260.0
 51
170.0
  0
CIRCLE
  5
20AA
330
1F
100
AcDbEntity
  8
AM_0
100
AcDbCircle
 10
1939.128393919816
 20
967.4939822260251
 30
0.0
 40
2.066987298107819
  0
LINE
  5
20AB
330
1F
100
AcDbEntity
  8
AM_7
  6
AM_ISO08W050x2
100
AcDbLine
 10
1934.628393919816
 20
967.4939822260251
 30
0.0
 11
1943.628393919816
 21
967.4939822260251
 31
0.0
  0
LINE
  5
20AC
330
1F
100
AcDbEntity
  8
AM_7
  6
AM_ISO08W050x2
100
AcDbLine
 10
1939.128393919816
 20
962.9939822260251
 30
0.0
 11
1939.128393919816
 21
971.9939822260251
 31
0.0
  0
ARC
  5
20AD
330
1F
100
AcDbEntity
  8
AM_4
100
AcDbCircle
 10
1923.128393919816
 20
1019.493982226025
 30
0.0
 40
2.5
100
AcDbArc
 50
260.0
 51
170.0
  0
CIRCLE
  5
20AE
330
1F
100
AcDbEntity
  8
AM_0
100
AcDbCircle
 10
1923.128393919816
 20
1019.493982226025
 30
0.0
 40
2.066987298107819
  0
LINE
  5
20AF
330
1F
100
AcDbEntity
  8
AM_7
  6
AM_ISO08W050x2
100
AcDbLine
 10
1918.628393919816
 20
1019.493982226025
 30
0.0
 11
1927.628393919816
 21
1019.493982226025
 31
0.0
  0
LINE
  5
20B0
330
1F
100
AcDbEntity
  8
AM_7
  6
AM_ISO08W050x2
100
AcDbLine
 10
1923.128393919816
 20
1014.993982226025
 30
0.0
 11
1923.128393919816
 21
1023.993982226025
 31
0.0
  0
ARC
  5
20B1
330
1F
100
AcDbEntity
  8
AM_4
100
AcDbCircle
 10
1939.128393919816
 20
1019.493982226025
 30
0.0
 40
2.5
100
AcDbArc
 50
260.0
 51
170.0
  0
CIRCLE
  5
20B2
330
1F
100
AcDbEntity
  8
AM_0
100
AcDbCircle
 10
1939.128393919816
 20
1019.493982226025
 30
0.0
 40
2.066987298107819
  0
LINE
  5
20B3
330
1F
100
AcDbEntity
  8
AM_7
  6
AM_ISO08W050x2
100
AcDbLine
 10
1934.628393919816
 20
1019.493982226025
 30
0.0
 11
1943.628393919816
 21
1019.493982226025
 31
0.0
  0
LINE
  5
20B4
330
1F
100
AcDbEntity
  8
AM_7
  6
AM_ISO08W050x2
100
AcDbLine
 10
1939.128393919816
 20
1014.993982226025
 30
0.0
 11
1939.128393919816
 21
1023.993982226025
 31
0.0
  0
LINE
  5
20C2
330
1F
100
AcDbEntity
  8
AM_7
  6
AM_ISO08W050x2
100
AcDbLine
 10
1784.214247475856
 20
1154.69111275673
 30
0.0
 11
1788.364247475856
 21
1154.69111275673
 31
0.0
1001
GENIUS_GENOREF_13
1005
20C6
  0
LINE
  5
20C3
330
1F
100
AcDbEntity
  8
AM_7
  6
AM_ISO08W050x2
100
AcDbLine
 10
1784.214247475856
 20
1154.69111275673
 30
0.0
 11
1784.214247475856
 21
1158.84111275673
 31
0.0
1001
GENIUS_GENOREF_13
1005
20C6
  0
LINE
  5
20C4
330
1F
100
AcDbEntity
  8
AM_7
  6
AM_ISO08W050x2
100
AcDbLine
 10
1784.214247475856
 20
1154.69111275673
 30
0.0
 11
1780.064247475856
 21
1154.69111275673
 31
0.0
1001
GENIUS_GENOREF_13
1005
20C6
  0
LINE
  5
20C5
330
1F
100
AcDbEntity
  8
AM_7
  6
AM_ISO08W050x2
100
AcDbLine
 10
1784.214247475856
 20
1154.69111275673
 30
0.0
 11
1784.214247475856
 21
1150.54111275673
 31
0.0
1001
GENIUS_GENOREF_13
1005
20C6
  0
POINT
  5
20C6
330
1F
100
AcDbEntity
  8
0
 60
     1
100
AcDbPoint
 10
0.0
 20
0.0
 30
0.0
1001
GENIUS_GENODEF_13
1002
{
1000
HIER
1070
    10
1002
}
1002
{
1000
MANEDIT
1070
     0
1002
}
1002
{
1000
NOSEL
1070
     0
1002
}
1002
{
1000
BEHIND
1070
     0
1002
}
1002
{
1000
OTHER
1070
     0
1002
}
1002
{
1000
REACTOR
1002
}
1001
GENIUS_GENOENT_13
1002
{
1000
MYREF
1005
20C6
1002
}
1002
{
1000
GRP
1005
0
1002
}
1001
GENIUS_GENOBJ-N-CRS_13
1002
{
1000
OWNER
1000
GEN
1002
}
1001
GENIUS_GENOLIS_13
1002
{
1000
ENT
1005
20C5
1005
20C4
1005
20C3
1005
20C2
1002
}
  0
LINE
  5
20D4
330
1F
100
AcDbEntity
  8
AM_7
  6
AM_ISO08W050x2
100
AcDbLine
 10
1784.214247475856
 20
1130.69111275673
 30
0.0
 11
1788.364247475856
 21
1130.69111275673
 31
0.0
1001
GENIUS_GENOREF_13
1005
20D8
  0
LINE
  5
20D5
330
1F
100
AcDbEntity
  8
AM_7
  6
AM_ISO08W050x2
100
AcDbLine
 10
1784.214247475856
 20
1130.69111275673
 30
0.0
 11
1784.214247475856
 21
1134.84111275673
 31
0.0
1001
GENIUS_GENOREF_13
1005
20D8
  0
LINE
  5
20D6
330
1F
100
AcDbEntity
  8
AM_7
  6
AM_ISO08W050x2
100
AcDbLine
 10
1784.214247475856
 20
1130.69111275673
 30
0.0
 11
1780.064247475856
 21
1130.69111275673
 31
0.0
1001
GENIUS_GENOREF_13
1005
20D8
  0
LINE
  5
20D7
330
1F
100
AcDbEntity
  8
AM_7
  6
AM_ISO08W050x2
100
AcDbLine
 10
1784.214247475856
 20
1130.69111275673
 30
0.0
 11
1784.214247475856
 21
1126.54111275673
 31
0.0
1001
GENIUS_GENOREF_13
1005
20D8
  0
POINT
  5
20D8
330
1F
100
AcDbEntity
  8
0
 60
     1
100
AcDbPoint
 10
0.0
 20
0.0
 30
0.0
1001
GENIUS_GENOENT_13
1002
{
1000
MYREF
1005
20D8
1002
}
1002
{
1000
GRP
1005
0
1002
}
1001
GENIUS_GENOBJ-N-CRS_13
1002
{
1000
OWNER
1000
GEN
1002
}
1001
GENIUS_GENODEF_13
1002
{
1000
HIER
1070
    10
1002
}
1002
{
1000
MANEDIT
1070
     0
1002
}
1002
{
1000
NOSEL
1070
     0
1002
}
1002
{
1000
BEHIND
1070
     0
1002
}
1002
{
1000
OTHER
1070
     0
1002
}
1002
{
1000
REACTOR
1002
}
1001
GENIUS_GENOLIS_13
1002
{
1000
ENT
1005
20D7
1005
20D6
1005
20D5
1005
20D4
1002
}
  0
LINE
  5
20E6
330
1F
100
AcDbEntity
  8
AM_7
  6
AM_ISO08W050x2
100
AcDbLine
 10
1814.214247475856
 20
1130.69111275673
 30
0.0
 11
1818.364247475855
 21
1130.69111275673
 31
0.0
1001
GENIUS_GENOREF_13
1005
20EA
  0
LINE
  5
20E7
330
1F
100
AcDbEntity
  8
AM_7
  6
AM_ISO08W050x2
100
AcDbLine
 10
1814.214247475856
 20
1130.69111275673
 30
0.0
 11
1814.214247475856
 21
1134.84111275673
 31
0.0
1001
GENIUS_GENOREF_13
1005
20EA
  0
LINE
  5
20E8
330
1F
100
AcDbEntity
  8
AM_7
  6
AM_ISO08W050x2
100
AcDbLine
 10
1814.214247475856
 20
1130.69111275673
 30
0.0
 11
1810.064247475855
 21
1130.69111275673
 31
0.0
1001
GENIUS_GENOREF_13
1005
20EA
  0
LINE
  5
20E9
330
1F
100
AcDbEntity
  8
AM_7
  6
AM_ISO08W050x2
100
AcDbLine
 10
1814.214247475856
 20
1130.69111275673
 30
0.0
 11
1814.214247475856
 21
1126.54111275673
 31
0.0
1001
GENIUS_GENOREF_13
1005
20EA
  0
POINT
  5
20EA
330
1F
100
AcDbEntity
  8
0
 60
     1
100
AcDbPoint
 10
0.0
 20
0.0
 30
0.0
1001
GENIUS_GENOBJ-N-CRS_13
1002
{
1000
OWNER
1000
GEN
1002
}
1001
GENIUS_GENODEF_13
1002
{
1000
HIER
1070
    10
1002
}
1002
{
1000
MANEDIT
1070
     0
1002
}
1002
{
1000
NOSEL
1070
     0
1002
}
1002
{
1000
BEHIND
1070
     0
1002
}
1002
{
1000
OTHER
1070
     0
1002
}
1002
{
1000
REACTOR
1002
}
1001
GENIUS_GENOENT_13
1002
{
1000
MYREF
1005
20EA
1002
}
1002
{
1000
GRP
1005
0
1002
}
1001
GENIUS_GENOLIS_13
1002
{
1000
ENT
1005
20E9
1005
20E8
1005
20E7
1005
20E6
1002
}
  0
LINE
  5
20F8
330
1F
100
AcDbEntity
  8
AM_7
  6
AM_ISO08W050x2
100
AcDbLine
 10
1814.214247475856
 20
1154.69111275673
 30
0.0
 11
1818.364247475855
 21
1154.69111275673
 31
0.0
1001
GENIUS_GENOREF_13
1005
20FC
  0
LINE
  5
20F9
330
1F
100
AcDbEntity
  8
AM_7
  6
AM_ISO08W050x2
100
AcDbLine
 10
1814.214247475856
 20
1154.69111275673
 30
0.0
 11
1814.214247475856
 21
1158.84111275673
 31
0.0
1001
GENIUS_GENOREF_13
1005
20FC
  0
LINE
  5
20FA
330
1F
100
AcDbEntity
  8
AM_7
  6
AM_ISO08W050x2
100
AcDbLine
 10
1814.214247475856
 20
1154.69111275673
 30
0.0
 11
1810.064247475855
 21
1154.69111275673
 31
0.0
1001
GENIUS_GENOREF_13
1005
20FC
  0
LINE
  5
20FB
330
1F
100
AcDbEntity
  8
AM_7
  6
AM_ISO08W050x2
100
AcDbLine
 10
1814.214247475856
 20
1154.69111275673
 30
0.0
 11
1814.214247475856
 21
1150.54111275673
 31
0.0
1001
GENIUS_GENOREF_13
1005
20FC
  0
POINT
  5
20FC
330
1F
100
AcDbEntity
  8
0
 60
     1
100
AcDbPoint
 10
0.0
 20
0.0
 30
0.0
1001
GENIUS_GENODEF_13
1002
{
1000
HIER
1070
    10
1002
}
1002
{
1000
MANEDIT
1070
     0
1002
}
1002
{
1000
NOSEL
1070
     0
1002
}
1002
{
1000
BEHIND
1070
     0
1002
}
1002
{
1000
OTHER
1070
     0
1002
}
1002
{
1000
REACTOR
1002
}
1001
GENIUS_GENOBJ-N-CRS_13
1002
{
1000
OWNER
1000
GEN
1002
}
1001
GENIUS_GENOLIS_13
1002
{
1000
ENT
1005
20FB
1005
20FA
1005
20F9
1005
20F8
1002
}
1001
GENIUS_GENOENT_13
1002
{
1000
MYREF
1005
20FC
1002
}
1002
{
1000
GRP
1005
0
1002
}
  0
ARC
  5
20FD
330
1F
100
AcDbEntity
  8
AM_4
100
AcDbCircle
 10
1784.214247475856
 20
1154.69111275673
 30
0.0
 40
2.5
100
AcDbArc
 50
260.0
 51
170.0
  0
CIRCLE
  5
20FE
330
1F
100
AcDbEntity
  8
AM_0
100
AcDbCircle
 10
1784.214247475856
 20
1154.69111275673
 30
0.0
 40
2.066987298107819
  0
ARC
  5
20FF
330
1F
100
AcDbEntity
  8
AM_4
100
AcDbCircle
 10
1814.214247475856
 20
1154.69111275673
 30
0.0
 40
2.5
100
AcDbArc
 50
260.0
 51
170.0
  0
CIRCLE
  5
2100
330
1F
100
AcDbEntity
  8
AM_0
100
AcDbCircle
 10
1814.214247475856
 20
1154.69111275673
 30
0.0
 40
2.066987298107819
  0
ARC
  5
2101
330
1F
100
AcDbEntity
  8
AM_4
100
AcDbCircle
 10
1814.214247475856
 20
1130.69111275673
 30
0.0
 40
2.5
100
AcDbArc
 50
260.0
 51
170.0
  0
CIRCLE
  5
2102
330
1F
100
AcDbEntity
  8
AM_0
100
AcDbCircle
 10
1814.214247475856
 20
1130.69111275673
 30
0.0
 40
2.066987298107819
  0
ARC
  5
2103
330
1F
100
AcDbEntity
  8
AM_4
100
AcDbCircle
 10
1784.214247475856
 20
1130.69111275673
 30
0.0
 40
2.5
100
AcDbArc
 50
260.0
 51
170.0
  0
CIRCLE
  5
2104
330
1F
100
AcDbEntity
  8
AM_0
100
AcDbCircle
 10
1784.214247475856
 20
1130.69111275673
 30
0.0
 40
2.066987298107819
  0
LINE
  5
211E
330
1F
100
AcDbEntity
  8
AM_7
  6
AM_ISO08W050x2
100
AcDbLine
 10
1780.214247475855
 20
1115.69111275673
 30
0.0
 11
1784.364247475856
 21
1115.69111275673
 31
0.0
1001
GENIUS_GENOREF_13
1005
2124
  0
LINE
  5
211F
330
1F
100
AcDbEntity
  8
AM_7
  6
AM_ISO08W050x2
100
AcDbLine
 10
1780.214247475855
 20
1115.69111275673
 30
0.0
 11
1780.214247475855
 21
1119.84111275673
 31
0.0
1001
GENIUS_GENOREF_13
1005
2124
  0
LINE
  5
2120
330
1F
100
AcDbEntity
  8
AM_7
  6
AM_ISO08W050x2
100
AcDbLine
 10
1780.214247475855
 20
1115.69111275673
 30
0.0
 11
1776.064247475855
 21
1115.69111275673
 31
0.0
1001
GENIUS_GENOREF_13
1005
2124
  0
LINE
  5
2121
330
1F
100
AcDbEntity
  8
AM_7
  6
AM_ISO08W050x2
100
AcDbLine
 10
1780.214247475855
 20
1115.69111275673
 30
0.0
 11
1780.214247475855
 21
1111.54111275673
 31
0.0
1001
GENIUS_GENOREF_13
1005
2124
  0
ARC
  5
2122
330
1F
100
AcDbEntity
  8
AM_4
100
AcDbCircle
 10
1780.214247475855
 20
1115.69111275673
 30
0.0
 40
2.5
100
AcDbArc
 50
260.0
 51
170.0
  0
CIRCLE
  5
2123
330
1F
100
AcDbEntity
  8
AM_0
100
AcDbCircle
 10
1780.214247475855
 20
1115.69111275673
 30
0.0
 40
2.066987298107819
  0
POINT
  5
2124
330
1F
100
AcDbEntity
  8
0
 60
     1
100
AcDbPoint
 10
-4.0
 20
-15.0
 30
0.0
1001
GENIUS_GENOENT_13
1002
{
1000
MYREF
1005
2124
1002
}
1002
{
1000
GRP
1005
0
1002
}
1001
GENIUS_GENOBJ-N-CRS_13
1002
{
1000
OWNER
1000
GEN
1002
}
1001
GENIUS_GENODEF_13
1002
{
1000
HIER
1070
    10
1002
}
1002
{
1000
MANEDIT
1070
     0
1002
}
1002
{
1000
NOSEL
1070
     0
1002
}
1002
{
1000
BEHIND
1070
     0
1002
}
1002
{
1000
OTHER
1070
     0
1002
}
1002
{
1000
REACTOR
1002
}
1001
GENIUS_GENOLIS_13
1002
{
1000
ENT
1005
2121
1005
2120
1005
211F
1005
211E
1002
}
  0
LINE
  5
2125
330
1F
100
AcDbEntity
  8
AM_7
  6
AM_ISO08W050x2
100
AcDbLine
 10
1818.214247475856
 20
1115.69111275673
 30
0.0
 11
1822.364247475856
 21
1115.69111275673
 31
0.0
1001
GENIUS_GENOREF_13
1005
212B
  0
LINE
  5
2126
330
1F
100
AcDbEntity
  8
AM_7
  6
AM_ISO08W050x2
100
AcDbLine
 10
1818.214247475856
 20
1115.69111275673
 30
0.0
 11
1818.214247475856
 21
1119.84111275673
 31
0.0
1001
GENIUS_GENOREF_13
1005
212B
  0
LINE
  5
2127
330
1F
100
AcDbEntity
  8
AM_7
  6
AM_ISO08W050x2
100
AcDbLine
 10
1818.214247475856
 20
1115.69111275673
 30
0.0
 11
1814.064247475856
 21
1115.69111275673
 31
0.0
1001
GENIUS_GENOREF_13
1005
212B
  0
LINE
  5
2128
330
1F
100
AcDbEntity
  8
AM_7
  6
AM_ISO08W050x2
100
AcDbLine
 10
1818.214247475856
 20
1115.69111275673
 30
0.0
 11
1818.214247475856
 21
1111.54111275673
 31
0.0
1001
GENIUS_GENOREF_13
1005
212B
  0
ARC
  5
2129
330
1F
100
AcDbEntity
  8
AM_4
100
AcDbCircle
 10
1818.214247475856
 20
1115.69111275673
 30
0.0
 40
2.5
100
AcDbArc
 50
260.0
 51
170.0
  0
CIRCLE
  5
212A
330
1F
100
AcDbEntity
  8
AM_0
100
AcDbCircle
 10
1818.214247475856
 20
1115.69111275673
 30
0.0
 40
2.066987298107819
  0
POINT
  5
212B
330
1F
100
AcDbEntity
  8
0
 60
     1
100
AcDbPoint
 10
54.0
 20
-15.0
 30
0.0
1001
GENIUS_GENOENT_13
1002
{
1000
MYREF
1005
212B
1002
}
1002
{
1000
GRP
1005
0
1002
}
1001
GENIUS_GENOBJ-N-CRS_13
1002
{
1000
OWNER
1000
GEN
1002
}
1001
GENIUS_GENODEF_13
1002
{
1000
HIER
1070
    10
1002
}
1002
{
1000
MANEDIT
1070
     0
1002
}
1002
{
1000
NOSEL
1070
     0
1002
}
1002
{
1000
BEHIND
1070
     0
1002
}
1002
{
1000
OTHER
1070
     0
1002
}
1002
{
1000
REACTOR
1002
}
1001
GENIUS_GENOLIS_13
1002
{
1000
ENT
1005
2128
1005
2127
1005
2126
1005
2125
1002
}
  0
LINE
  5
212C
330
1F
100
AcDbEntity
  8
AM_7
  6
AM_ISO08W050x2
100
AcDbLine
 10
1818.214247475856
 20
1169.69111275673
 30
0.0
 11
1822.364247475856
 21
1169.69111275673
 31
0.0
1001
GENIUS_GENOREF_13
1005
2132
  0
LINE
  5
212D
330
1F
100
AcDbEntity
  8
AM_7
  6
AM_ISO08W050x2
100
AcDbLine
 10
1818.214247475856
 20
1169.69111275673
 30
0.0
 11
1818.214247475856
 21
1173.84111275673
 31
0.0
1001
GENIUS_GENOREF_13
1005
2132
  0
LINE
  5
212E
330
1F
100
AcDbEntity
  8
AM_7
  6
AM_ISO08W050x2
100
AcDbLine
 10
1818.214247475856
 20
1169.69111275673
 30
0.0
 11
1814.064247475856
 21
1169.69111275673
 31
0.0
1001
GENIUS_GENOREF_13
1005
2132
  0
LINE
  5
212F
330
1F
100
AcDbEntity
  8
AM_7
  6
AM_ISO08W050x2
100
AcDbLine
 10
1818.214247475856
 20
1169.69111275673
 30
0.0
 11
1818.214247475856
 21
1165.54111275673
 31
0.0
1001
GENIUS_GENOREF_13
1005
2132
  0
ARC
  5
2130
330
1F
100
AcDbEntity
  8
AM_4
100
AcDbCircle
 10
1818.214247475856
 20
1169.69111275673
 30
0.0
 40
2.5
100
AcDbArc
 50
260.0
 51
170.0
  0
CIRCLE
  5
2131
330
1F
100
AcDbEntity
  8
AM_0
100
AcDbCircle
 10
1818.214247475856
 20
1169.69111275673
 30
0.0
 40
2.066987298107819
  0
POINT
  5
2132
330
1F
100
AcDbEntity
  8
0
 60
     1
100
AcDbPoint
 10
54.0
 20
39.0
 30
0.0
1001
GENIUS_GENOENT_13
1002
{
1000
MYREF
1005
2132
1002
}
1002
{
1000
GRP
1005
0
1002
}
1001
GENIUS_GENOBJ-N-CRS_13
1002
{
1000
OWNER
1000
GEN
1002
}
1001
GENIUS_GENODEF_13
1002
{
1000
HIER
1070
    10
1002
}
1002
{
1000
MANEDIT
1070
     0
1002
}
1002
{
1000
NOSEL
1070
     0
1002
}
1002
{
1000
BEHIND
1070
     0
1002
}
1002
{
1000
OTHER
1070
     0
1002
}
1002
{
1000
REACTOR
1002
}
1001
GENIUS_GENOLIS_13
1002
{
1000
ENT
1005
212F
1005
212E
1005
212D
1005
212C
1002
}
  0
LINE
  5
2133
330
1F
100
AcDbEntity
  8
AM_7
  6
AM_ISO08W050x2
100
AcDbLine
 10
1780.214247475855
 20
1169.69111275673
 30
0.0
 11
1784.364247475856
 21
1169.69111275673
 31
0.0
1001
GENIUS_GENOREF_13
1005
2139
  0
LINE
  5
2134
330
1F
100
AcDbEntity
  8
AM_7
  6
AM_ISO08W050x2
100
AcDbLine
 10
1780.214247475855
 20
1169.69111275673
 30
0.0
 11
1780.214247475855
 21
1173.84111275673
 31
0.0
1001
GENIUS_GENOREF_13
1005
2139
  0
LINE
  5
2135
330
1F
100
AcDbEntity
  8
AM_7
  6
AM_ISO08W050x2
100
AcDbLine
 10
1780.214247475855
 20
1169.69111275673
 30
0.0
 11
1776.064247475855
 21
1169.69111275673
 31
0.0
1001
GENIUS_GENOREF_13
1005
2139
  0
LINE
  5
2136
330
1F
100
AcDbEntity
  8
AM_7
  6
AM_ISO08W050x2
100
AcDbLine
 10
1780.214247475855
 20
1169.69111275673
 30
0.0
 11
1780.214247475855
 21
1165.54111275673
 31
0.0
1001
GENIUS_GENOREF_13
1005
2139
  0
ARC
  5
2137
330
1F
100
AcDbEntity
  8
AM_4
100
AcDbCircle
 10
1780.214247475855
 20
1169.69111275673
 30
0.0
 40
2.5
100
AcDbArc
 50
260.0
 51
170.0
  0
CIRCLE
  5
2138
330
1F
100
AcDbEntity
  8
AM_0
100
AcDbCircle
 10
1780.214247475855
 20
1169.69111275673
 30
0.0
 40
2.066987298107819
  0
POINT
  5
2139
330
1F
100
AcDbEntity
  8
0
 60
     1
100
AcDbPoint
 10
-4.0
 20
39.0
 30
0.0
1001
GENIUS_GENOENT_13
1002
{
1000
MYREF
1005
2139
1002
}
1002
{
1000
GRP
1005
0
1002
}
1001
GENIUS_GENOBJ-N-CRS_13
1002
{
1000
OWNER
1000
GEN
1002
}
1001
GENIUS_GENODEF_13
1002
{
1000
HIER
1070
    10
1002
}
1002
{
1000
MANEDIT
1070
     0
1002
}
1002
{
1000
NOSEL
1070
     0
1002
}
1002
{
1000
BEHIND
1070
     0
1002
}
1002
{
1000
OTHER
1070
     0
1002
}
1002
{
1000
REACTOR
1002
}
1001
GENIUS_GENOLIS_13
1002
{
1000
ENT
1005
2136
1005
2135
1005
2134
1005
2133
1002
}
  0
LINE
  5
214D
330
1F
100
AcDbEntity
  8
AM_7
  6
AM_ISO08W050x2
100
AcDbLine
 10
1799.214247475856
 20
1169.69111275673
 30
0.0
 11
1803.714247475856
 21
1169.69111275673
 31
0.0
1001
GENIUS_GENOREF_13
1005
2151
  0
LINE
  5
214E
330
1F
100
AcDbEntity
  8
AM_7
  6
AM_ISO08W050x2
100
AcDbLine
 10
1799.214247475856
 20
1169.69111275673
 30
0.0
 11
1799.214247475856
 21
1174.19111275673
 31
0.0
1001
GENIUS_GENOREF_13
1005
2151
  0
LINE
  5
214F
330
1F
100
AcDbEntity
  8
AM_7
  6
AM_ISO08W050x2
100
AcDbLine
 10
1799.214247475856
 20
1169.69111275673
 30
0.0
 11
1794.714247475855
 21
1169.69111275673
 31
0.0
1001
GENIUS_GENOREF_13
1005
2151
  0
LINE
  5
2150
330
1F
100
AcDbEntity
  8
AM_7
  6
AM_ISO08W050x2
100
AcDbLine
 10
1799.214247475856
 20
1169.69111275673
 30
0.0
 11
1799.214247475856
 21
1165.19111275673
 31
0.0
1001
GENIUS_GENOREF_13
1005
2151
  0
POINT
  5
2151
330
1F
100
AcDbEntity
  8
0
 60
     1
100
AcDbPoint
 10
0.0
 20
0.0
 30
0.0
1001
GENIUS_GENODEF_13
1002
{
1000
HIER
1070
    10
1002
}
1002
{
1000
MANEDIT
1070
     0
1002
}
1002
{
1000
NOSEL
1070
     0
1002
}
1002
{
1000
BEHIND
1070
     0
1002
}
1002
{
1000
OTHER
1070
     0
1002
}
1002
{
1000
REACTOR
1002
}
1001
GENIUS_GENOLIS_13
1002
{
1000
ENT
1005
2150
1005
214F
1005
214E
1005
214D
1002
}
1001
GENIUS_GENOENT_13
1002
{
1000
MYREF
1005
2151
1002
}
1002
{
1000
GRP
1005
0
1002
}
1001
GENIUS_GENOBJ-N-CRS_13
1002
{
1000
OWNER
1000
GEN
1002
}
  0
LINE
  5
215F
330
1F
100
AcDbEntity
  8
AM_7
  6
AM_ISO08W050x2
100
AcDbLine
 10
1799.214247475856
 20
1115.69111275673
 30
0.0
 11
1803.714247475856
 21
1115.69111275673
 31
0.0
1001
GENIUS_GENOREF_13
1005
2163
  0
LINE
  5
2160
330
1F
100
AcDbEntity
  8
AM_7
  6
AM_ISO08W050x2
100
AcDbLine
 10
1799.214247475856
 20
1115.69111275673
 30
0.0
 11
1799.214247475856
 21
1120.19111275673
 31
0.0
1001
GENIUS_GENOREF_13
1005
2163
  0
LINE
  5
2161
330
1F
100
AcDbEntity
  8
AM_7
  6
AM_ISO08W050x2
100
AcDbLine
 10
1799.214247475856
 20
1115.69111275673
 30
0.0
 11
1794.714247475855
 21
1115.69111275673
 31
0.0
1001
GENIUS_GENOREF_13
1005
2163
  0
LINE
  5
2162
330
1F
100
AcDbEntity
  8
AM_7
  6
AM_ISO08W050x2
100
AcDbLine
 10
1799.214247475856
 20
1115.69111275673
 30
0.0
 11
1799.214247475856
 21
1111.19111275673
 31
0.0
1001
GENIUS_GENOREF_13
1005
2163
  0
POINT
  5
2163
330
1F
100
AcDbEntity
  8
0
 60
     1
100
AcDbPoint
 10
0.0
 20
0.0
 30
0.0
1001
GENIUS_GENOLIS_13
1002
{
1000
ENT
1005
2162
1005
2161
1005
2160
1005
215F
1002
}
1001
GENIUS_GENODEF_13
1002
{
1000
HIER
1070
    10
1002
}
1002
{
1000
MANEDIT
1070
     0
1002
}
1002
{
1000
NOSEL
1070
     0
1002
}
1002
{
1000
BEHIND
1070
     0
1002
}
1002
{
1000
OTHER
1070
     0
1002
}
1002
{
1000
REACTOR
1002
}
1001
GENIUS_GENOBJ-N-CRS_13
1002
{
1000
OWNER
1000
GEN
1002
}
1001
GENIUS_GENOENT_13
1002
{
1000
MYREF
1005
2163
1002
}
1002
{
1000
GRP
1005
0
1002
}
  0
LINE
  5
2171
330
1F
100
AcDbEntity
  8
AM_7
  6
AM_ISO08W050x2
100
AcDbLine
 10
1869.214247475856
 20
1158.69111275673
 30
0.0
 11
1875.214247475856
 21
1158.69111275673
 31
0.0
1001
GENIUS_GENOREF_13
1005
2175
  0
LINE
  5
2172
330
1F
100
AcDbEntity
  8
AM_7
  6
AM_ISO08W050x2
100
AcDbLine
 10
1869.214247475856
 20
1158.69111275673
 30
0.0
 11
1869.214247475856
 21
1164.69111275673
 31
0.0
1001
GENIUS_GENOREF_13
1005
2175
  0
LINE
  5
2173
330
1F
100
AcDbEntity
  8
AM_7
  6
AM_ISO08W050x2
100
AcDbLine
 10
1869.214247475856
 20
1158.69111275673
 30
0.0
 11
1863.214247475855
 21
1158.69111275673
 31
0.0
1001
GENIUS_GENOREF_13
1005
2175
  0
LINE
  5
2174
330
1F
100
AcDbEntity
  8
AM_7
  6
AM_ISO08W050x2
100
AcDbLine
 10
1869.214247475856
 20
1158.69111275673
 30
0.0
 11
1869.214247475856
 21
1152.69111275673
 31
0.0
1001
GENIUS_GENOREF_13
1005
2175
  0
POINT
  5
2175
330
1F
100
AcDbEntity
  8
0
 60
     1
100
AcDbPoint
 10
0.0
 20
0.0
 30
0.0
1001
GENIUS_GENODEF_13
1002
{
1000
HIER
1070
    10
1002
}
1002
{
1000
MANEDIT
1070
     0
1002
}
1002
{
1000
NOSEL
1070
     0
1002
}
1002
{
1000
BEHIND
1070
     0
1002
}
1002
{
1000
OTHER
1070
     0
1002
}
1002
{
1000
REACTOR
1002
}
1001
GENIUS_GENOENT_13
1002
{
1000
MYREF
1005
2175
1002
}
1002
{
1000
GRP
1005
0
1002
}
1001
GENIUS_GENOLIS_13
1002
{
1000
ENT
1005
2174
1005
2173
1005
2172
1005
2171
1002
}
1001
GENIUS_GENOBJ-N-CRS_13
1002
{
1000
OWNER
1000
GEN
1002
}
  0
LINE
  5
2183
330
1F
100
AcDbEntity
  8
AM_7
  6
AM_ISO08W050x2
100
AcDbLine
 10
1869.214247475856
 20
1126.69111275673
 30
0.0
 11
1875.214247475856
 21
1126.69111275673
 31
0.0
1001
GENIUS_GENOREF_13
1005
2187
  0
LINE
  5
2184
330
1F
100
AcDbEntity
  8
AM_7
  6
AM_ISO08W050x2
100
AcDbLine
 10
1869.214247475856
 20
1126.69111275673
 30
0.0
 11
1869.214247475856
 21
1132.69111275673
 31
0.0
1001
GENIUS_GENOREF_13
1005
2187
  0
LINE
  5
2185
330
1F
100
AcDbEntity
  8
AM_7
  6
AM_ISO08W050x2
100
AcDbLine
 10
1869.214247475856
 20
1126.69111275673
 30
0.0
 11
1863.214247475855
 21
1126.69111275673
 31
0.0
1001
GENIUS_GENOREF_13
1005
2187
  0
LINE
  5
2186
330
1F
100
AcDbEntity
  8
AM_7
  6
AM_ISO08W050x2
100
AcDbLine
 10
1869.214247475856
 20
1126.69111275673
 30
0.0
 11
1869.214247475856
 21
1120.69111275673
 31
0.0
1001
GENIUS_GENOREF_13
1005
2187
  0
POINT
  5
2187
330
1F
100
AcDbEntity
  8
0
 60
     1
100
AcDbPoint
 10
0.0
 20
0.0
 30
0.0
1001
GENIUS_GENOLIS_13
1002
{
1000
ENT
1005
2186
1005
2185
1005
2184
1005
2183
1002
}
1001
GENIUS_GENODEF_13
1002
{
1000
HIER
1070
    10
1002
}
1002
{
1000
MANEDIT
1070
     0
1002
}
1002
{
1000
NOSEL
1070
     0
1002
}
1002
{
1000
BEHIND
1070
     0
1002
}
1002
{
1000
OTHER
1070
     0
1002
}
1002
{
1000
REACTOR
1002
}
1001
GENIUS_GENOBJ-N-CRS_13
1002
{
1000
OWNER
1000
GEN
1002
}
1001
GENIUS_GENOENT_13
1002
{
1000
MYREF
1005
2187
1002
}
1002
{
1000
GRP
1005
0
1002
}
  0
LINE
  5
2195
330
1F
100
AcDbEntity
  8
AM_7
  6
AM_ISO08W050x2
100
AcDbLine
 10
1759.214247475856
 20
1158.69111275673
 30
0.0
 11
1765.214247475856
 21
1158.69111275673
 31
0.0
1001
GENIUS_GENOREF_13
1005
2199
  0
LINE
  5
2196
330
1F
100
AcDbEntity
  8
AM_7
  6
AM_ISO08W050x2
100
AcDbLine
 10
1759.214247475856
 20
1158.69111275673
 30
0.0
 11
1759.214247475856
 21
1164.69111275673
 31
0.0
1001
GENIUS_GENOREF_13
1005
2199
  0
LINE
  5
2197
330
1F
100
AcDbEntity
  8
AM_7
  6
AM_ISO08W050x2
100
AcDbLine
 10
1759.214247475856
 20
1158.69111275673
 30
0.0
 11
1753.214247475856
 21
1158.69111275673
 31
0.0
1001
GENIUS_GENOREF_13
1005
2199
  0
LINE
  5
2198
330
1F
100
AcDbEntity
  8
AM_7
  6
AM_ISO08W050x2
100
AcDbLine
 10
1759.214247475856
 20
1158.69111275673
 30
0.0
 11
1759.214247475856
 21
1152.69111275673
 31
0.0
1001
GENIUS_GENOREF_13
1005
2199
  0
POINT
  5
2199
330
1F
100
AcDbEntity
  8
0
 60
     1
100
AcDbPoint
 10
0.0
 20
0.0
 30
0.0
1001
GENIUS_GENODEF_13
1002
{
1000
HIER
1070
    10
1002
}
1002
{
1000
MANEDIT
1070
     0
1002
}
1002
{
1000
NOSEL
1070
     0
1002
}
1002
{
1000
BEHIND
1070
     0
1002
}
1002
{
1000
OTHER
1070
     0
1002
}
1002
{
1000
REACTOR
1002
}
1001
GENIUS_GENOBJ-N-CRS_13
1002
{
1000
OWNER
1000
GEN
1002
}
1001
GENIUS_GENOLIS_13
1002
{
1000
ENT
1005
2198
1005
2197
1005
2196
1005
2195
1002
}
1001
GENIUS_GENOENT_13
1002
{
1000
MYREF
1005
2199
1002
}
1002
{
1000
GRP
1005
0
1002
}
  0
LINE
  5
21A7
330
1F
100
AcDbEntity
  8
AM_7
  6
AM_ISO08W050x2
100
AcDbLine
 10
1759.214247475856
 20
1126.69111275673
 30
0.0
 11
1765.214247475856
 21
1126.69111275673
 31
0.0
1001
GENIUS_GENOREF_13
1005
21AB
  0
LINE
  5
21A8
330
1F
100
AcDbEntity
  8
AM_7
  6
AM_ISO08W050x2
100
AcDbLine
 10
1759.214247475856
 20
1126.69111275673
 30
0.0
 11
1759.214247475856
 21
1132.69111275673
 31
0.0
1001
GENIUS_GENOREF_13
1005
21AB
  0
LINE
  5
21A9
330
1F
100
AcDbEntity
  8
AM_7
  6
AM_ISO08W050x2
100
AcDbLine
 10
1759.214247475856
 20
1126.69111275673
 30
0.0
 11
1753.214247475856
 21
1126.69111275673
 31
0.0
1001
GENIUS_GENOREF_13
1005
21AB
  0
LINE
  5
21AA
330
1F
100
AcDbEntity
  8
AM_7
  6
AM_ISO08W050x2
100
AcDbLine
 10
1759.214247475856
 20
1126.69111275673
 30
0.0
 11
1759.214247475856
 21
1120.69111275673
 31
0.0
1001
GENIUS_GENOREF_13
1005
21AB
  0
POINT
  5
21AB
330
1F
100
AcDbEntity
  8
0
 60
     1
100
AcDbPoint
 10
0.0
 20
0.0
 30
0.0
1001
GENIUS_GENODEF_13
1002
{
1000
HIER
1070
    10
1002
}
1002
{
1000
MANEDIT
1070
     0
1002
}
1002
{
1000
NOSEL
1070
     0
1002
}
1002
{
1000
BEHIND
1070
     0
1002
}
1002
{
1000
OTHER
1070
     0
1002
}
1002
{
1000
REACTOR
1002
}
1001
GENIUS_GENOENT_13
1002
{
1000
MYREF
1005
21AB
1002
}
1002
{
1000
GRP
1005
0
1002
}
1001
GENIUS_GENOBJ-N-CRS_13
1002
{
1000
OWNER
1000
GEN
1002
}
1001
GENIUS_GENOLIS_13
1002
{
1000
ENT
1005
21AA
1005
21A9
1005
21A8
1005
21A7
1002
}
  0
LINE
  5
21B9
330
1F
100
AcDbEntity
  8
AM_7
  6
AM_ISO08W050x2
100
AcDbLine
 10
1869.214247475856
 20
1009.493982226025
 30
0.0
 11
1873.464247475856
 21
1009.493982226025
 31
0.0
1001
GENIUS_GENOREF_13
1005
21BD
  0
LINE
  5
21BA
330
1F
100
AcDbEntity
  8
AM_7
  6
AM_ISO08W050x2
100
AcDbLine
 10
1869.214247475856
 20
1009.493982226025
 30
0.0
 11
1869.214247475856
 21
1013.743982226025
 31
0.0
1001
GENIUS_GENOREF_13
1005
21BD
  0
LINE
  5
21BB
330
1F
100
AcDbEntity
  8
AM_7
  6
AM_ISO08W050x2
100
AcDbLine
 10
1869.214247475856
 20
1009.493982226025
 30
0.0
 11
1864.964247475856
 21
1009.493982226025
 31
0.0
1001
GENIUS_GENOREF_13
1005
21BD
  0
LINE
  5
21BC
330
1F
100
AcDbEntity
  8
AM_7
  6
AM_ISO08W050x2
100
AcDbLine
 10
1869.214247475856
 20
1009.493982226025
 30
0.0
 11
1869.214247475856
 21
1005.243982226025
 31
0.0
1001
GENIUS_GENOREF_13
1005
21BD
  0
POINT
  5
21BD
330
1F
100
AcDbEntity
  8
0
 60
     1
100
AcDbPoint
 10
0.0
 20
0.0
 30
0.0
1001
GENIUS_GENODEF_13
1002
{
1000
HIER
1070
    10
1002
}
1002
{
1000
MANEDIT
1070
     0
1002
}
1002
{
1000
NOSEL
1070
     0
1002
}
1002
{
1000
BEHIND
1070
     0
1002
}
1002
{
1000
OTHER
1070
     0
1002
}
1002
{
1000
REACTOR
1002
}
1001
GENIUS_GENOENT_13
1002
{
1000
MYREF
1005
21BD
1002
}
1002
{
1000
GRP
1005
0
1002
}
1001
GENIUS_GENOBJ-N-CRS_13
1002
{
1000
OWNER
1000
GEN
1002
}
1001
GENIUS_GENOLIS_13
1002
{
1000
ENT
1005
21BC
1005
21BB
1005
21BA
1005
21B9
1002
}
  0
LINE
  5
21CB
330
1F
100
AcDbEntity
  8
AM_7
  6
AM_ISO08W050x2
100
AcDbLine
 10
1869.214247475856
 20
1018.493982226025
 30
0.0
 11
1873.714247475855
 21
1018.493982226025
 31
0.0
1001
GENIUS_GENOREF_13
1005
21CF
  0
LINE
  5
21CC
330
1F
100
AcDbEntity
  8
AM_7
  6
AM_ISO08W050x2
100
AcDbLine
 10
1869.214247475856
 20
1018.493982226025
 30
0.0
 11
1869.214247475856
 21
1022.993982226025
 31
0.0
1001
GENIUS_GENOREF_13
1005
21CF
  0
LINE
  5
21CD
330
1F
100
AcDbEntity
  8
AM_7
  6
AM_ISO08W050x2
100
AcDbLine
 10
1869.214247475856
 20
1018.493982226025
 30
0.0
 11
1864.714247475856
 21
1018.493982226025
 31
0.0
1001
GENIUS_GENOREF_13
1005
21CF
  0
LINE
  5
21CE
330
1F
100
AcDbEntity
  8
AM_7
  6
AM_ISO08W050x2
100
AcDbLine
 10
1869.214247475856
 20
1018.493982226025
 30
0.0
 11
1869.214247475856
 21
1013.993982226025
 31
0.0
1001
GENIUS_GENOREF_13
1005
21CF
  0
POINT
  5
21CF
330
1F
100
AcDbEntity
  8
0
 60
     1
100
AcDbPoint
 10
0.0
 20
0.0
 30
0.0
1001
GENIUS_GENOBJ-N-CRS_13
1002
{
1000
OWNER
1000
GEN
1002
}
1001
GENIUS_GENOLIS_13
1002
{
1000
ENT
1005
21CE
1005
21CD
1005
21CC
1005
21CB
1002
}
1001
GENIUS_GENOENT_13
1002
{
1000
MYREF
1005
21CF
1002
}
1002
{
1000
GRP
1005
0
1002
}
1001
GENIUS_GENODEF_13
1002
{
1000
HIER
1070
    10
1002
}
1002
{
1000
MANEDIT
1070
     0
1002
}
1002
{
1000
NOSEL
1070
     0
1002
}
1002
{
1000
BEHIND
1070
     0
1002
}
1002
{
1000
OTHER
1070
     0
1002
}
1002
{
1000
REACTOR
1002
}
  0
LINE
  5
21DD
330
1F
100
AcDbEntity
  8
AM_7
  6
AM_ISO08W050x2
100
AcDbLine
 10
1869.214247475856
 20
977.493982226025
 30
0.0
 11
1873.464247475856
 21
977.493982226025
 31
0.0
1001
GENIUS_GENOREF_13
1005
21E1
  0
LINE
  5
21DE
330
1F
100
AcDbEntity
  8
AM_7
  6
AM_ISO08W050x2
100
AcDbLine
 10
1869.214247475856
 20
977.493982226025
 30
0.0
 11
1869.214247475856
 21
981.7439822260251
 31
0.0
1001
GENIUS_GENOREF_13
1005
21E1
  0
LINE
  5
21DF
330
1F
100
AcDbEntity
  8
AM_7
  6
AM_ISO08W050x2
100
AcDbLine
 10
1869.214247475856
 20
977.493982226025
 30
0.0
 11
1864.964247475856
 21
977.493982226025
 31
0.0
1001
GENIUS_GENOREF_13
1005
21E1
  0
LINE
  5
21E0
330
1F
100
AcDbEntity
  8
AM_7
  6
AM_ISO08W050x2
100
AcDbLine
 10
1869.214247475856
 20
977.493982226025
 30
0.0
 11
1869.214247475856
 21
973.243982226025
 31
0.0
1001
GENIUS_GENOREF_13
1005
21E1
  0
POINT
  5
21E1
330
1F
100
AcDbEntity
  8
0
 60
     1
100
AcDbPoint
 10
0.0
 20
0.0
 30
0.0
1001
GENIUS_GENOLIS_13
1002
{
1000
ENT
1005
21E0
1005
21DF
1005
21DE
1005
21DD
1002
}
1001
GENIUS_GENODEF_13
1002
{
1000
HIER
1070
    10
1002
}
1002
{
1000
MANEDIT
1070
     0
1002
}
1002
{
1000
NOSEL
1070
     0
1002
}
1002
{
1000
BEHIND
1070
     0
1002
}
1002
{
1000
OTHER
1070
     0
1002
}
1002
{
1000
REACTOR
1002
}
1001
GENIUS_GENOENT_13
1002
{
1000
MYREF
1005
21E1
1002
}
1002
{
1000
GRP
1005
0
1002
}
1001
GENIUS_GENOBJ-N-CRS_13
1002
{
1000
OWNER
1000
GEN
1002
}
  0
LINE
  5
21EF
330
1F
100
AcDbEntity
  8
AM_7
  6
AM_ISO08W050x2
100
AcDbLine
 10
1869.214247475856
 20
968.493982226025
 30
0.0
 11
1873.714247475855
 21
968.493982226025
 31
0.0
1001
GENIUS_GENOREF_13
1005
21F3
  0
LINE
  5
21F0
330
1F
100
AcDbEntity
  8
AM_7
  6
AM_ISO08W050x2
100
AcDbLine
 10
1869.214247475856
 20
968.493982226025
 30
0.0
 11
1869.214247475856
 21
972.993982226025
 31
0.0
1001
GENIUS_GENOREF_13
1005
21F3
  0
LINE
  5
21F1
330
1F
100
AcDbEntity
  8
AM_7
  6
AM_ISO08W050x2
100
AcDbLine
 10
1869.214247475856
 20
968.493982226025
 30
0.0
 11
1864.714247475856
 21
968.493982226025
 31
0.0
1001
GENIUS_GENOREF_13
1005
21F3
  0
LINE
  5
21F2
330
1F
100
AcDbEntity
  8
AM_7
  6
AM_ISO08W050x2
100
AcDbLine
 10
1869.214247475856
 20
968.493982226025
 30
0.0
 11
1869.214247475856
 21
963.9939822260251
 31
0.0
1001
GENIUS_GENOREF_13
1005
21F3
  0
POINT
  5
21F3
330
1F
100
AcDbEntity
  8
0
 60
     1
100
AcDbPoint
 10
0.0
 20
0.0
 30
0.0
1001
GENIUS_GENOBJ-N-CRS_13
1002
{
1000
OWNER
1000
GEN
1002
}
1001
GENIUS_GENOLIS_13
1002
{
1000
ENT
1005
21F2
1005
21F1
1005
21F0
1005
21EF
1002
}
1001
GENIUS_GENODEF_13
1002
{
1000
HIER
1070
    10
1002
}
1002
{
1000
MANEDIT
1070
     0
1002
}
1002
{
1000
NOSEL
1070
     0
1002
}
1002
{
1000
BEHIND
1070
     0
1002
}
1002
{
1000
OTHER
1070
     0
1002
}
1002
{
1000
REACTOR
1002
}
1001
GENIUS_GENOENT_13
1002
{
1000
MYREF
1005
21F3
1002
}
1002
{
1000
GRP
1005
0
1002
}
  0
LINE
  5
2201
330
1F
100
AcDbEntity
  8
AM_7
  6
AM_ISO08W050x2
100
AcDbLine
 10
1759.214247475856
 20
968.493982226025
 30
0.0
 11
1763.714247475856
 21
968.493982226025
 31
0.0
1001
GENIUS_GENOREF_13
1005
2205
  0
LINE
  5
2202
330
1F
100
AcDbEntity
  8
AM_7
  6
AM_ISO08W050x2
100
AcDbLine
 10
1759.214247475856
 20
968.493982226025
 30
0.0
 11
1759.214247475856
 21
972.993982226025
 31
0.0
1001
GENIUS_GENOREF_13
1005
2205
  0
LINE
  5
2203
330
1F
100
AcDbEntity
  8
AM_7
  6
AM_ISO08W050x2
100
AcDbLine
 10
1759.214247475856
 20
968.493982226025
 30
0.0
 11
1754.714247475856
 21
968.493982226025
 31
0.0
1001
GENIUS_GENOREF_13
1005
2205
  0
LINE
  5
2204
330
1F
100
AcDbEntity
  8
AM_7
  6
AM_ISO08W050x2
100
AcDbLine
 10
1759.214247475856
 20
968.493982226025
 30
0.0
 11
1759.214247475856
 21
963.9939822260251
 31
0.0
1001
GENIUS_GENOREF_13
1005
2205
  0
POINT
  5
2205
330
1F
100
AcDbEntity
  8
0
 60
     1
100
AcDbPoint
 10
0.0
 20
0.0
 30
0.0
1001
GENIUS_GENOLIS_13
1002
{
1000
ENT
1005
2204
1005
2203
1005
2202
1005
2201
1002
}
1001
GENIUS_GENOENT_13
1002
{
1000
MYREF
1005
2205
1002
}
1002
{
1000
GRP
1005
0
1002
}
1001
GENIUS_GENOBJ-N-CRS_13
1002
{
1000
OWNER
1000
GEN
1002
}
1001
GENIUS_GENODEF_13
1002
{
1000
HIER
1070
    10
1002
}
1002
{
1000
MANEDIT
1070
     0
1002
}
1002
{
1000
NOSEL
1070
     0
1002
}
1002
{
1000
BEHIND
1070
     0
1002
}
1002
{
1000
OTHER
1070
     0
1002
}
1002
{
1000
REACTOR
1002
}
  0
LINE
  5
2213
330
1F
100
AcDbEntity
  8
AM_7
  6
AM_ISO08W050x2
100
AcDbLine
 10
1759.214247475856
 20
977.493982226025
 30
0.0
 11
1763.464247475855
 21
977.493982226025
 31
0.0
1001
GENIUS_GENOREF_13
1005
2217
  0
LINE
  5
2214
330
1F
100
AcDbEntity
  8
AM_7
  6
AM_ISO08W050x2
100
AcDbLine
 10
1759.214247475856
 20
977.493982226025
 30
0.0
 11
1759.214247475856
 21
981.7439822260251
 31
0.0
1001
GENIUS_GENOREF_13
1005
2217
  0
LINE
  5
2215
330
1F
100
AcDbEntity
  8
AM_7
  6
AM_ISO08W050x2
100
AcDbLine
 10
1759.214247475856
 20
977.493982226025
 30
0.0
 11
1754.964247475855
 21
977.493982226025
 31
0.0
1001
GENIUS_GENOREF_13
1005
2217
  0
LINE
  5
2216
330
1F
100
AcDbEntity
  8
AM_7
  6
AM_ISO08W050x2
100
AcDbLine
 10
1759.214247475856
 20
977.493982226025
 30
0.0
 11
1759.214247475856
 21
973.243982226025
 31
0.0
1001
GENIUS_GENOREF_13
1005
2217
  0
POINT
  5
2217
330
1F
100
AcDbEntity
  8
0
 60
     1
100
AcDbPoint
 10
0.0
 20
0.0
 30
0.0
1001
GENIUS_GENODEF_13
1002
{
1000
HIER
1070
    10
1002
}
1002
{
1000
MANEDIT
1070
     0
1002
}
1002
{
1000
NOSEL
1070
     0
1002
}
1002
{
1000
BEHIND
1070
     0
1002
}
1002
{
1000
OTHER
1070
     0
1002
}
1002
{
1000
REACTOR
1002
}
1001
GENIUS_GENOLIS_13
1002
{
1000
ENT
1005
2216
1005
2215
1005
2214
1005
2213
1002
}
1001
GENIUS_GENOENT_13
1002
{
1000
MYREF
1005
2217
1002
}
1002
{
1000
GRP
1005
0
1002
}
1001
GENIUS_GENOBJ-N-CRS_13
1002
{
1000
OWNER
1000
GEN
1002
}
  0
LINE
  5
2225
330
1F
100
AcDbEntity
  8
AM_7
  6
AM_ISO08W050x2
100
AcDbLine
 10
1759.214247475856
 20
1009.493982226025
 30
0.0
 11
1763.464247475855
 21
1009.493982226025
 31
0.0
1001
GENIUS_GENOREF_13
1005
2229
  0
LINE
  5
2226
330
1F
100
AcDbEntity
  8
AM_7
  6
AM_ISO08W050x2
100
AcDbLine
 10
1759.214247475856
 20
1009.493982226025
 30
0.0
 11
1759.214247475856
 21
1013.743982226025
 31
0.0
1001
GENIUS_GENOREF_13
1005
2229
  0
LINE
  5
2227
330
1F
100
AcDbEntity
  8
AM_7
  6
AM_ISO08W050x2
100
AcDbLine
 10
1759.214247475856
 20
1009.493982226025
 30
0.0
 11
1754.964247475855
 21
1009.493982226025
 31
0.0
1001
GENIUS_GENOREF_13
1005
2229
  0
LINE
  5
2228
330
1F
100
AcDbEntity
  8
AM_7
  6
AM_ISO08W050x2
100
AcDbLine
 10
1759.214247475856
 20
1009.493982226025
 30
0.0
 11
1759.214247475856
 21
1005.243982226025
 31
0.0
1001
GENIUS_GENOREF_13
1005
2229
  0
POINT
  5
2229
330
1F
100
AcDbEntity
  8
0
 60
     1
100
AcDbPoint
 10
0.0
 20
0.0
 30
0.0
1001
GENIUS_GENOLIS_13
1002
{
1000
ENT
1005
2228
1005
2227
1005
2226
1005
2225
1002
}
1001
GENIUS_GENODEF_13
1002
{
1000
HIER
1070
    10
1002
}
1002
{
1000
MANEDIT
1070
     0
1002
}
1002
{
1000
NOSEL
1070
     0
1002
}
1002
{
1000
BEHIND
1070
     0
1002
}
1002
{
1000
OTHER
1070
     0
1002
}
1002
{
1000
REACTOR
1002
}
1001
GENIUS_GENOENT_13
1002
{
1000
MYREF
1005
2229
1002
}
1002
{
1000
GRP
1005
0
1002
}
1001
GENIUS_GENOBJ-N-CRS_13
1002
{
1000
OWNER
1000
GEN
1002
}
  0
LINE
  5
2237
330
1F
100
AcDbEntity
  8
AM_7
  6
AM_ISO08W050x2
100
AcDbLine
 10
1759.214247475856
 20
1018.493982226025
 30
0.0
 11
1763.714247475856
 21
1018.493982226025
 31
0.0
1001
GENIUS_GENOREF_13
1005
223B
  0
LINE
  5
2238
330
1F
100
AcDbEntity
  8
AM_7
  6
AM_ISO08W050x2
100
AcDbLine
 10
1759.214247475856
 20
1018.493982226025
 30
0.0
 11
1759.214247475856
 21
1022.993982226025
 31
0.0
1001
GENIUS_GENOREF_13
1005
223B
  0
LINE
  5
2239
330
1F
100
AcDbEntity
  8
AM_7
  6
AM_ISO08W050x2
100
AcDbLine
 10
1759.214247475856
 20
1018.493982226025
 30
0.0
 11
1754.714247475856
 21
1018.493982226025
 31
0.0
1001
GENIUS_GENOREF_13
1005
223B
  0
LINE
  5
223A
330
1F
100
AcDbEntity
  8
AM_7
  6
AM_ISO08W050x2
100
AcDbLine
 10
1759.214247475856
 20
1018.493982226025
 30
0.0
 11
1759.214247475856
 21
1013.993982226025
 31
0.0
1001
GENIUS_GENOREF_13
1005
223B
  0
POINT
  5
223B
330
1F
100
AcDbEntity
  8
0
 60
     1
100
AcDbPoint
 10
0.0
 20
0.0
 30
0.0
1001
GENIUS_GENOENT_13
1002
{
1000
MYREF
1005
223B
1002
}
1002
{
1000
GRP
1005
0
1002
}
1001
GENIUS_GENOBJ-N-CRS_13
1002
{
1000
OWNER
1000
GEN
1002
}
1001
GENIUS_GENOLIS_13
1002
{
1000
ENT
1005
223A
1005
2239
1005
2238
1005
2237
1002
}
1001
GENIUS_GENODEF_13
1002
{
1000
HIER
1070
    10
1002
}
1002
{
1000
MANEDIT
1070
     0
1002
}
1002
{
1000
NOSEL
1070
     0
1002
}
1002
{
1000
BEHIND
1070
     0
1002
}
1002
{
1000
OTHER
1070
     0
1002
}
1002
{
1000
REACTOR
1002
}
  0
DIMENSION
  5
223E
330
1F
100
AcDbEntity
  8
AM_5
100
AcDbDimension
  2
*D5
 10
1875.214247475856
 20
941.4939822260249
 30
0.0
 11
1814.214247475856
 21
943.9942775016156
 31
0.0
 70
    32
  1
62+2xstroke
 71
     5
 42
122.0
  3
AM_ISO
100
AcDbAlignedDimension
 13
1753.214247475856
 23
961.493982226025
 33
0.0
 14
1875.214247475856
 24
961.493982226025
 34
0.0
100
AcDbRotatedDimension
  0
TEXT
  5
22BF
330
1F
100
AcDbEntity
  8
AM_5
100
AcDbText
 10
1830.604274333576
 20
932.9108528769562
 30
0.0
 40
3.0
  1
2-M5
 41
0.8
100
AcDbText
  0
INSERT
  5
22C0
330
1F
100
AcDbEntity
  8
AM_5
100
AcDbBlockReference
  2
*S18
 10
0.0
 20
0.0
 30
0.0
  0
DIMENSION
  5
22C1
330
1F
100
AcDbEntity
  8
AM_5
100
AcDbDimension
  2
*D6
 10
1945.128393919817
 20
949.4939822260251
 30
0.0
 11
1930.128393919816
 21
951.9939822260251
 31
0.0
 70
    32
 71
     5
 42
30.0
  3
AM_ISO$0
100
AcDbAlignedDimension
 13
1915.128393919816
 23
961.493982226025
 33
0.0
 14
1945.128393919817
 24
961.493982226025
 34
0.0
100
AcDbRotatedDimension
  0
DIMENSION
  5
22C4
330
1F
100
AcDbEntity
  8
AM_5
100
AcDbDimension
  2
*D7
 10
1903.128392919817
 20
1025.493982226025
 30
0.0
 11
1903.128392919817
 21
993.493982226025
 31
0.0
 70
   160
 71
     5
 42
64.0
  3
AM_ISO$0
100
AcDbAlignedDimension
 13
1915.128393919816
 23
961.493982226025
 33
0.0
 14
1915.128393919816
 24
1025.493982226025
 34
0.0
 50
90.0
100
AcDbRotatedDimension
  0
TEXT
  5
22C7
330
1F
100
AcDbEntity
  8
AM_5
100
AcDbText
 10
1895.924409149213
 20
952.9331567618763
 30
0.0
 40
3.0
  1
2x4-M5
 41
0.8
100
AcDbText
  0
INSERT
  5
22C8
330
1F
100
AcDbEntity
  8
AM_5
100
AcDbBlockReference
  2
*S19
 10
0.0
 20
0.0
 30
0.0
  0
TEXT
  5
2318
330
1F
100
AcDbEntity
  8
AM_5
100
AcDbText
 10
1828.195910763401
 20
1036.518268121543
 30
0.0
 40
3.0
  1
4-%%c4.3 thru
 41
0.8
100
AcDbText
  0
INSERT
  5
2319
330
1F
100
AcDbEntity
  8
AM_5
100
AcDbBlockReference
  2
*S20
 10
0.0
 20
0.0
 30
0.0
  0
TEXT
  5
231A
330
1F
100
AcDbEntity
  8
AM_5
100
AcDbText
 10
1828.195910763401
 20
1032.186733412217
 30
0.0
 40
3.0
  1
4-%%c8x4.5 depth
 41
0.8
100
AcDbText
  0
INSERT
  5
233C
330
1F
100
AcDbEntity
  8
AM_5
100
AcDbBlockReference
  2
*S21
 10
0.0
 20
0.0
 30
0.0
  0
TEXT
  5
233D
330
1F
100
AcDbEntity
  8
AM_5
100
AcDbText
 10
1795.550318161214
 20
1102.772814712163
 30
0.0
 40
3.0
  1
4-M5x10 depth
 41
0.8
100
AcDbText
  0
TEXT
  5
233E
330
1F
100
AcDbEntity
  8
AM_5
100
AcDbText
 10
1831.262548216749
 20
1102.772814712163
 30
0.0
 40
3.0
  1
4-M5x7 depth
 41
0.8
100
AcDbText
  0
INSERT
  5
233F
330
1F
100
AcDbEntity
  8
AM_5
100
AcDbBlockReference
  2
*S22
 10
0.0
 20
0.0
 30
0.0
  0
TEXT
  5
2341
330
1F
100
AcDbEntity
  8
AM_5
100
AcDbText
 10
1883.757714705234
 20
1115.968069038924
 30
0.0
 40
3.0
  1
2x2-%%c4.5 thru
 41
0.8
100
AcDbText
  0
INSERT
  5
2342
330
1F
100
AcDbEntity
  8
AM_5
100
AcDbBlockReference
  2
*S23
 10
0.0
 20
0.0
 30
0.0
  0
TEXT
  5
2343
330
1F
100
AcDbEntity
  8
AM_5
100
AcDbText
 10
1883.757714705234
 20
1111.636534329597
 30
0.0
 40
3.0
  1
2x2-%%c8x4.5 depth
 41
0.8
100
AcDbText
  0
DIMENSION
  5
26B2
102
{ACAD_XDICTIONARY
360
26BF
102
}
102
{ACAD_REACTORS
330
26C0
102
}
330
1F
100
AcDbEntity
  8
AM_5
100
AcDbDimension
  2
*D8
 10
1831.214247475855
 20
949.4939822260251
 30
0.0
 11
1799.214247475856
 21
951.9939822260251
 31
0.0
 70
    32
  1
34+stroke
 71
     5
 42
64.0
  3
AM_ISO$0
100
AcDbAlignedDimension
 13
1767.214247475856
 23
961.493982226025
 33
0.0
 14
1831.214247475855
 24
961.493982226025
 34
0.0
 50
0.0000000000002036
100
AcDbRotatedDimension
1001
ACAD
1000
DSTYLE
1002
{
1070
    40
1040
1.0
1070
   144
1040
1.0
1070
   272
1070
     8
1002
}
  0
DIMENSION
  5
26E1
102
{ACAD_XDICTIONARY
360
26EE
102
}
102
{ACAD_REACTORS
330
26EF
102
}
330
1F
100
AcDbEntity
  8
AM_5
100
AcDbDimension
  2
*D9
 10
1863.214247475855
 20
949.4939822260251
 30
0.0
 11
1847.214247475855
 21
951.9942775016156
 31
0.0
 70
    32
  1
2+stroke
 71
     5
 42
32.0
  3
AM_ISO$0
100
AcDbAlignedDimension
 13
1831.214247475855
 23
961.493982226025
 33
0.0
 14
1863.214247475855
 24
961.493982226025
 34
0.0
 50
0.0000000000002036
100
AcDbRotatedDimension
1001
ACAD
1000
DSTYLE
1002
{
1070
    40
1040
1.0
1070
   144
1040
1.0
1070
   272
1070
     8
1002
}
  0
DIMENSION
  5
2707
102
{ACAD_XDICTIONARY
360
2714
102
}
102
{ACAD_REACTORS
330
2715
102
}
330
1F
100
AcDbEntity
  8
AM_5
100
AcDbDimension
  2
*D10
 10
1875.214247475856
 20
949.4939822260251
 30
0.0
 11
1869.214247475856
 21
951.9942775016158
 31
0.0
 70
    32
 71
     5
 42
12.0
  3
AM_ISO$0
100
AcDbAlignedDimension
 13
1863.214247475855
 23
961.493982226025
 33
0.0
 14
1875.214247475856
 24
961.493982226025
 34
0.0
 50
0.0000000000002036
100
AcDbRotatedDimension
1001
ACAD
1000
DSTYLE
1002
{
1070
    40
1040
1.0
1070
   144
1040
1.0
1070
   272
1070
     8
1002
}
  0
TEXT
  5
2744
330
1F
100
AcDbEntity
  8
0
100
AcDbText
 10
1689.604900355341
 20
1174.865431540193
 30
0.0
 40
6.479999999999999
  1
Stroke=30
 41
0.8
  7
CHINESET
100
AcDbText
  0
TEXT
  5
2745
330
1F
100
AcDbEntity
  8
0
100
AcDbText
 10
1986.604900355341
 20
1174.865431540193
 30
0.0
 40
6.479999999999999
  1
Stroke=30
 41
0.8
  7
CHINESET
100
AcDbText
  0
LINE
  5
29FB
330
1F
100
AcDbEntity
  8
AM_7
100
AcDbLine
 10
1749.33065786165
 20
1016.493982226025
 30
0.0
 11
1878.972879674471
 21
1016.493982226025
 31
0.0
1001
GENIUS_GENOBJ-N-CEN_13
1002
{
1000
OWNER
1000
GEN
1002
}
1001
GENIUS_GENODEF_13
1002
{
1000
HIER
1070
     0
1002
}
1002
{
1000
MANEDIT
1070
     0
1002
}
1002
{
1000
NOSEL
1070
     0
1002
}
1002
{
1000
BEHIND
1070
     0
1002
}
1002
{
1000
OTHER
1070
     0
1002
}
1002
{
1000
REACTOR
1002
}
1001
GENIUS_GENCEN_19
1002
{
1040
2.0
1002
}
  0
LINE
  5
29FC
330
1F
100
AcDbEntity
  8
AM_7
100
AcDbLine
 10
1749.33065786165
 20
970.493982226025
 30
0.0
 11
1878.972879674471
 21
970.493982226025
 31
0.0
1001
GENIUS_GENOBJ-N-CEN_13
1002
{
1000
OWNER
1000
GEN
1002
}
1001
GENIUS_GENODEF_13
1002
{
1000
HIER
1070
     0
1002
}
1002
{
1000
MANEDIT
1070
     0
1002
}
1002
{
1000
NOSEL
1070
     0
1002
}
1002
{
1000
BEHIND
1070
     0
1002
}
1002
{
1000
OTHER
1070
     0
1002
}
1002
{
1000
REACTOR
1002
}
1001
GENIUS_GENCEN_19
1002
{
1040
2.0
1002
}
  0
LINE
  5
29FD
330
1F
100
AcDbEntity
  8
AM_7
100
AcDbLine
 10
1749.33065786165
 20
1165.69111275673
 30
0.0
 11
1878.972879674471
 21
1165.69111275673
 31
0.0
1001
GENIUS_GENOBJ-N-CEN_13
1002
{
1000
OWNER
1000
GEN
1002
}
1001
GENIUS_GENODEF_13
1002
{
1000
HIER
1070
     0
1002
}
1002
{
1000
MANEDIT
1070
     0
1002
}
1002
{
1000
NOSEL
1070
     0
1002
}
1002
{
1000
BEHIND
1070
     0
1002
}
1002
{
1000
OTHER
1070
     0
1002
}
1002
{
1000
REACTOR
1002
}
1001
GENIUS_GENCEN_19
1002
{
1040
2.0
1002
}
  0
LINE
  5
29FE
330
1F
100
AcDbEntity
  8
AM_7
100
AcDbLine
 10
1749.33065786165
 20
1119.69111275673
 30
0.0
 11
1878.972879674471
 21
1119.69111275673
 31
0.0
1001
GENIUS_GENOBJ-N-CEN_13
1002
{
1000
OWNER
1000
GEN
1002
}
1001
GENIUS_GENODEF_13
1002
{
1000
HIER
1070
     0
1002
}
1002
{
1000
MANEDIT
1070
     0
1002
}
1002
{
1000
NOSEL
1070
     0
1002
}
1002
{
1000
BEHIND
1070
     0
1002
}
1002
{
1000
OTHER
1070
     0
1002
}
1002
{
1000
REACTOR
1002
}
1001
GENIUS_GENCEN_19
1002
{
1040
2.0
1002
}
  0
LINE
  5
2CB9
330
1F
100
AcDbEntity
  8
AM_VIS
100
AcDbLine
 10
2173.624662568985
 20
898.182950209814
 30
0.0
 11
2173.624662568985
 21
928.1829502098139
 31
0.0
  0
LINE
  5
2CBA
330
1F
100
AcDbEntity
  8
AM_VIS
100
AcDbLine
 10
2161.624662568985
 20
928.1829502098139
 30
0.0
 11
2161.624662568985
 21
898.182950209814
 31
0.0
  0
LINE
  5
2CBB
330
1F
100
AcDbEntity
  8
AM_VIS
100
AcDbLine
 10
2173.624662568985
 20
928.1829502098139
 30
0.0
 11
2161.624662568985
 21
928.1829502098139
 31
0.0
  0
LINE
  5
2CBC
330
1F
100
AcDbEntity
  8
AM_VIS
100
AcDbLine
 10
2173.624662568985
 20
898.1829502098138
 30
0.0
 11
2161.624662568985
 21
898.1829502098138
 31
0.0
  0
LINE
  5
2CBD
330
1F
100
AcDbEntity
  8
AM_VIS
100
AcDbLine
 10
2129.624662568985
 20
927.1829502098139
 30
0.0
 11
2065.624662568985
 21
927.1829502098139
 31
0.0
  0
LINE
  5
2CBE
330
1F
100
AcDbEntity
  8
AM_VIS
100
AcDbLine
 10
2065.624662568985
 20
926.1829502098139
 30
0.0
 11
2065.624662568985
 21
897.8829502098138
 31
0.0
  0
LINE
  5
2CBF
330
1F
100
AcDbEntity
  8
AM_VIS
100
AcDbLine
 10
2129.624662568985
 20
897.8829502098138
 30
0.0
 11
2129.624662568985
 21
926.1829502098139
 31
0.0
  0
LINE
  5
2CC0
330
1F
100
AcDbEntity
  8
AM_VIS
100
AcDbLine
 10
2065.624662568985
 20
897.1829502098136
 30
0.0
 11
2129.624662568985
 21
897.1829502098136
 31
0.0
  0
LINE
  5
2CC1
330
1F
100
AcDbEntity
  8
AM_VIS
100
AcDbLine
 10
2129.624662568985
 20
897.8829502098138
 30
0.0
 11
2129.624662568985
 21
897.1829502098136
 31
0.0
  0
LINE
  5
2CC2
330
1F
100
AcDbEntity
  8
AM_VIS
100
AcDbLine
 10
2129.624662568985
 20
927.1829502098139
 30
0.0
 11
2129.624662568985
 21
926.1829502098139
 31
0.0
  0
LINE
  5
2CC3
330
1F
100
AcDbEntity
  8
AM_VIS
100
AcDbLine
 10
2065.624662568985
 20
926.1829502098139
 30
0.0
 11
2065.624662568985
 21
927.1829502098139
 31
0.0
  0
LINE
  5
2CC4
330
1F
100
AcDbEntity
  8
AM_VIS
100
AcDbLine
 10
2065.624662568985
 20
897.1829502098136
 30
0.0
 11
2065.624662568985
 21
897.8829502098138
 31
0.0
  0
LINE
  5
2CC7
330
1F
100
AcDbEntity
  8
AM_VIS
100
AcDbLine
 10
2173.624662568985
 20
1050.688321544549
 30
0.0
 11
2173.624662568985
 21
1080.688321544549
 31
0.0
  0
LINE
  5
2CC8
330
1F
100
AcDbEntity
  8
AM_VIS
100
AcDbLine
 10
2173.624662568985
 20
1050.688321544549
 30
0.0
 11
2161.624662568985
 21
1050.688321544549
 31
0.0
  0
LINE
  5
2CC9
330
1F
100
AcDbEntity
  8
AM_VIS
100
AcDbLine
 10
2161.624662568985
 20
1080.688321544549
 30
0.0
 11
2161.624662568985
 21
1050.688321544549
 31
0.0
  0
LINE
  5
2CCA
330
1F
100
AcDbEntity
  8
AM_VIS
100
AcDbLine
 10
2173.624662568985
 20
1080.688321544549
 30
0.0
 11
2161.624662568985
 21
1080.688321544549
 31
0.0
  0
LINE
  5
2CCB
330
1F
100
AcDbEntity
  8
AM_VIS
100
AcDbLine
 10
2129.624662568985
 20
1052.688321544549
 30
0.0
 11
2129.624662568985
 21
1080.988321544549
 31
0.0
  0
LINE
  5
2CCC
330
1F
100
AcDbEntity
  8
AM_VIS
100
AcDbLine
 10
2065.624662568985
 20
1080.988321544549
 30
0.0
 11
2065.624662568985
 21
1052.688321544549
 31
0.0
  0
LINE
  5
2CCD
330
1F
100
AcDbEntity
  8
AM_VIS
100
AcDbLine
 10
2065.624662568985
 20
1051.688321544549
 30
0.0
 11
2129.624662568985
 21
1051.688321544549
 31
0.0
  0
LINE
  5
2CCE
330
1F
100
AcDbEntity
  8
AM_VIS
100
AcDbLine
 10
2129.624662568985
 20
1081.68832154455
 30
0.0
 11
2065.624662568985
 21
1081.68832154455
 31
0.0
  0
LINE
  5
2CCF
330
1F
100
AcDbEntity
  8
AM_VIS
100
AcDbLine
 10
2129.624662568985
 20
1052.688321544549
 30
0.0
 11
2129.624662568985
 21
1051.688321544549
 31
0.0
  0
LINE
  5
2CD0
330
1F
100
AcDbEntity
  8
AM_VIS
100
AcDbLine
 10
2129.624662568985
 20
1081.68832154455
 30
0.0
 11
2129.624662568985
 21
1080.988321544549
 31
0.0
  0
LINE
  5
2CD1
330
1F
100
AcDbEntity
  8
AM_VIS
100
AcDbLine
 10
2065.624662568985
 20
1080.988321544549
 30
0.0
 11
2065.624662568985
 21
1081.68832154455
 31
0.0
  0
LINE
  5
2CD2
330
1F
100
AcDbEntity
  8
AM_VIS
100
AcDbLine
 10
2065.624662568985
 20
1051.688321544549
 30
0.0
 11
2065.624662568985
 21
1052.688321544549
 31
0.0
  0
LINE
  5
2CD5
330
1F
100
AcDbEntity
  8
AM_VIS
100
AcDbLine
 10
2173.624662568985
 20
1174.69111275673
 30
0.0
 11
2161.624662568985
 21
1174.69111275673
 31
0.0
  0
LINE
  5
2CD6
330
1F
100
AcDbEntity
  8
AM_VIS
100
AcDbLine
 10
2173.624662568985
 20
1110.69111275673
 30
0.0
 11
2173.624662568985
 21
1174.69111275673
 31
0.0
  0
LINE
  5
2CD7
330
1F
100
AcDbEntity
  8
AM_VIS
100
AcDbLine
 10
2173.624662568985
 20
1110.69111275673
 30
0.0
 11
2161.624662568985
 21
1110.69111275673
 31
0.0
  0
LINE
  5
2CD8
330
1F
100
AcDbEntity
  8
AM_VIS
100
AcDbLine
 10
2161.624662568985
 20
1174.69111275673
 30
0.0
 11
2161.624662568985
 21
1110.69111275673
 31
0.0
  0
CIRCLE
  5
2CD9
330
1F
100
AcDbEntity
  8
AM_VIS
100
AcDbCircle
 10
2167.624662568985
 20
1158.69111275673
 30
0.0
 40
4.0
  0
CIRCLE
  5
2CDA
330
1F
100
AcDbEntity
  8
AM_VIS
100
AcDbCircle
 10
2167.624662568985
 20
1158.69111275673
 30
0.0
 40
2.25
  0
CIRCLE
  5
2CDB
330
1F
100
AcDbEntity
  8
AM_VIS
100
AcDbCircle
 10
2167.624662568985
 20
1126.69111275673
 30
0.0
 40
4.0
  0
CIRCLE
  5
2CDC
330
1F
100
AcDbEntity
  8
AM_VIS
100
AcDbCircle
 10
2167.624662568985
 20
1126.69111275673
 30
0.0
 40
2.25
  0
LINE
  5
2CDD
330
1F
100
AcDbEntity
  8
AM_VIS
100
AcDbLine
 10
2129.624662568985
 20
1135.29111275673
 30
0.0
 11
2065.624662568985
 21
1135.29111275673
 31
0.0
  0
LINE
  5
2CDE
330
1F
100
AcDbEntity
  8
AM_VIS
100
AcDbLine
 10
2065.624662568985
 20
1148.39111275673
 30
0.0
 11
2129.624662568985
 21
1148.39111275673
 31
0.0
  0
LINE
  5
2CDF
330
1F
100
AcDbEntity
  8
AM_VIS
100
AcDbLine
 10
2129.624662568985
 20
1144.99111275673
 30
0.0
 11
2065.624662568985
 21
1144.99111275673
 31
0.0
  0
LINE
  5
2CE0
330
1F
100
AcDbEntity
  8
AM_VIS
100
AcDbLine
 10
2129.624662568985
 20
1136.99111275673
 30
0.0
 11
2065.624662568985
 21
1136.99111275673
 31
0.0
  0
LINE
  5
2CE1
330
1F
100
AcDbEntity
  8
AM_VIS
100
AcDbLine
 10
2065.624662568985
 20
1140.39111275673
 30
0.0
 11
2129.624662568985
 21
1140.39111275673
 31
0.0
  0
LINE
  5
2CE2
330
1F
100
AcDbEntity
  8
AM_VIS
100
AcDbLine
 10
2129.624662568985
 20
1161.09111275673
 30
0.0
 11
2065.624662568985
 21
1161.09111275673
 31
0.0
  0
LINE
  5
2CE3
330
1F
100
AcDbEntity
  8
AM_VIS
100
AcDbLine
 10
2129.624662568985
 20
1160.19111275673
 30
0.0
 11
2065.624662568985
 21
1160.19111275673
 31
0.0
  0
LINE
  5
2CE4
330
1F
100
AcDbEntity
  8
AM_VIS
100
AcDbLine
 10
2129.624662568985
 20
1124.29111275673
 30
0.0
 11
2065.624662568985
 21
1124.29111275673
 31
0.0
  0
LINE
  5
2CE5
330
1F
100
AcDbEntity
  8
AM_VIS
100
AcDbLine
 10
2065.624662568985
 20
1110.69111275673
 30
0.0
 11
2129.624662568985
 21
1110.69111275673
 31
0.0
  0
LINE
  5
2CE6
330
1F
100
AcDbEntity
  8
AM_VIS
100
AcDbLine
 10
2129.624662568985
 20
1150.09111275673
 30
0.0
 11
2065.624662568985
 21
1150.09111275673
 31
0.0
  0
LINE
  5
2CE7
330
1F
100
AcDbEntity
  8
AM_VIS
100
AcDbLine
 10
2129.624662568985
 20
1125.19111275673
 30
0.0
 11
2065.624662568985
 21
1125.19111275673
 31
0.0
  0
LINE
  5
2CE8
330
1F
100
AcDbEntity
  8
AM_VIS
100
AcDbLine
 10
2129.624662568985
 20
1120.69111275673
 30
0.0
 11
2065.624662568985
 21
1120.69111275673
 31
0.0
  0
LINE
  5
2CE9
330
1F
100
AcDbEntity
  8
AM_VIS
100
AcDbLine
 10
2129.624662568985
 20
1164.69111275673
 30
0.0
 11
2065.624662568985
 21
1164.69111275673
 31
0.0
  0
LINE
  5
2CEA
330
1F
100
AcDbEntity
  8
AM_VIS
100
AcDbLine
 10
2129.624662568985
 20
1150.39111275673
 30
0.0
 11
2065.624662568985
 21
1150.39111275673
 31
0.0
  0
LINE
  5
2CEB
330
1F
100
AcDbEntity
  8
AM_VIS
100
AcDbLine
 10
2065.624662568985
 20
1158.99111275673
 30
0.0
 11
2129.624662568985
 21
1158.99111275673
 31
0.0
  0
LINE
  5
2CEC
330
1F
100
AcDbEntity
  8
AM_VIS
100
AcDbLine
 10
2129.624662568985
 20
1126.39111275673
 30
0.0
 11
2065.624662568985
 21
1126.39111275673
 31
0.0
  0
LINE
  5
2CED
330
1F
100
AcDbEntity
  8
AM_VIS
100
AcDbLine
 10
2065.624662568985
 20
1134.99111275673
 30
0.0
 11
2129.624662568985
 21
1134.99111275673
 31
0.0
  0
LINE
  5
2CEE
330
1F
100
AcDbEntity
  8
AM_VIS
100
AcDbLine
 10
2065.624662568985
 20
1164.69111275673
 30
0.0
 11
2065.624662568985
 21
1164.99111275673
 31
0.0
  0
LINE
  5
2CEF
330
1F
100
AcDbEntity
  8
AM_VIS
100
AcDbLine
 10
2065.624662568985
 20
1161.09111275673
 30
0.0
 11
2065.624662568985
 21
1164.69111275673
 31
0.0
  0
LINE
  5
2CF0
330
1F
100
AcDbEntity
  8
AM_VIS
100
AcDbLine
 10
2065.624662568985
 20
1160.19111275673
 30
0.0
 11
2065.624662568985
 21
1161.09111275673
 31
0.0
  0
LINE
  5
2CF1
330
1F
100
AcDbEntity
  8
AM_VIS
100
AcDbLine
 10
2065.624662568985
 20
1158.99111275673
 30
0.0
 11
2065.624662568985
 21
1160.19111275673
 31
0.0
  0
LINE
  5
2CF2
330
1F
100
AcDbEntity
  8
AM_VIS
100
AcDbLine
 10
2065.624662568985
 20
1150.39111275673
 30
0.0
 11
2065.624662568985
 21
1158.99111275673
 31
0.0
  0
LINE
  5
2CF3
330
1F
100
AcDbEntity
  8
AM_VIS
100
AcDbLine
 10
2065.624662568985
 20
1150.09111275673
 30
0.0
 11
2065.624662568985
 21
1150.39111275673
 31
0.0
  0
LINE
  5
2CF4
330
1F
100
AcDbEntity
  8
AM_VIS
100
AcDbLine
 10
2065.624662568985
 20
1148.39111275673
 30
0.0
 11
2065.624662568985
 21
1150.09111275673
 31
0.0
  0
LINE
  5
2CF5
330
1F
100
AcDbEntity
  8
AM_VIS
100
AcDbLine
 10
2065.624662568985
 20
1146.24111275673
 30
0.0
 11
2065.624662568985
 21
1147.14111275673
 31
0.0
  0
LINE
  5
2CF6
330
1F
100
AcDbEntity
  8
AM_VIS
100
AcDbLine
 10
2065.624662568985
 20
1140.39111275673
 30
0.0
 11
2065.624662568985
 21
1144.99111275673
 31
0.0
  0
LINE
  5
2CF7
330
1F
100
AcDbEntity
  8
AM_VIS
100
AcDbLine
 10
2065.624662568985
 20
1138.24111275673
 30
0.0
 11
2065.624662568985
 21
1139.14111275673
 31
0.0
  0
LINE
  5
2CF8
330
1F
100
AcDbEntity
  8
AM_VIS
100
AcDbLine
 10
2065.624662568985
 20
1135.29111275673
 30
0.0
 11
2065.624662568985
 21
1136.99111275673
 31
0.0
  0
LINE
  5
2CF9
330
1F
100
AcDbEntity
  8
AM_VIS
100
AcDbLine
 10
2065.624662568985
 20
1134.99111275673
 30
0.0
 11
2065.624662568985
 21
1135.29111275673
 31
0.0
  0
LINE
  5
2CFA
330
1F
100
AcDbEntity
  8
AM_VIS
100
AcDbLine
 10
2065.624662568985
 20
1126.39111275673
 30
0.0
 11
2065.624662568985
 21
1134.99111275673
 31
0.0
  0
LINE
  5
2CFB
330
1F
100
AcDbEntity
  8
AM_VIS
100
AcDbLine
 10
2065.624662568985
 20
1125.19111275673
 30
0.0
 11
2065.624662568985
 21
1126.39111275673
 31
0.0
  0
LINE
  5
2CFC
330
1F
100
AcDbEntity
  8
AM_VIS
100
AcDbLine
 10
2065.624662568985
 20
1124.29111275673
 30
0.0
 11
2065.624662568985
 21
1125.19111275673
 31
0.0
  0
LINE
  5
2CFD
330
1F
100
AcDbEntity
  8
AM_VIS
100
AcDbLine
 10
2065.624662568985
 20
1120.69111275673
 30
0.0
 11
2065.624662568985
 21
1124.29111275673
 31
0.0
  0
LINE
  5
2CFE
330
1F
100
AcDbEntity
  8
AM_VIS
100
AcDbLine
 10
2065.624662568985
 20
1120.39111275673
 30
0.0
 11
2065.624662568985
 21
1120.69111275673
 31
0.0
  0
LINE
  5
2CFF
330
1F
100
AcDbEntity
  8
AM_VIS
100
AcDbLine
 10
2129.624662568985
 20
1174.69111275673
 30
0.0
 11
2065.624662568985
 21
1174.69111275673
 31
0.0
  0
LINE
  5
2D00
330
1F
100
AcDbEntity
  8
AM_VIS
100
AcDbLine
 10
2065.624662568985
 20
1164.99111275673
 30
0.0
 11
2065.624662568985
 21
1174.405255599584
 31
0.0
  0
LINE
  5
2D01
330
1F
100
AcDbEntity
  8
AM_VIS
100
AcDbLine
 10
2129.624662568985
 20
1164.99111275673
 30
0.0
 11
2065.624662568985
 21
1164.99111275673
 31
0.0
  0
LINE
  5
2D02
330
1F
100
AcDbEntity
  8
AM_VIS
100
AcDbLine
 10
2065.624662568985
 20
1110.976969913876
 30
0.0
 11
2065.624662568985
 21
1120.39111275673
 31
0.0
  0
LINE
  5
2D03
330
1F
100
AcDbEntity
  8
AM_VIS
100
AcDbLine
 10
2065.624662568985
 20
1120.39111275673
 30
0.0
 11
2129.624662568985
 21
1120.39111275673
 31
0.0
  0
LINE
  5
2D04
330
1F
100
AcDbEntity
  8
AM_VIS
100
AcDbLine
 10
2129.624662568985
 20
1174.69111275673
 30
0.0
 11
2129.624662568985
 21
1110.976969913876
 31
0.0
  0
LINE
  5
2D05
330
1F
100
AcDbEntity
  8
AM_VIS
100
AcDbLine
 10
2098.624662568985
 20
1113.19111275673
 30
0.0
 11
2096.624662568984
 21
1113.19111275673
 31
0.0
  0
LINE
  5
2D06
330
1F
100
AcDbEntity
  8
AM_VIS
100
AcDbLine
 10
2096.624662568984
 20
1118.19111275673
 30
0.0
 11
2098.624662568985
 21
1118.19111275673
 31
0.0
  0
LINE
  5
2D07
330
1F
100
AcDbEntity
  8
AM_VIS
100
AcDbLine
 10
2129.624662568985
 20
1174.69111275673
 30
0.0
 11
2129.624662568985
 21
1174.405255599584
 31
0.0
  0
LINE
  5
2D08
330
1F
100
AcDbEntity
  8
AM_VIS
100
AcDbLine
 10
2129.624662568985
 20
1110.976969913876
 30
0.0
 11
2129.624662568985
 21
1110.69111275673
 31
0.0
  0
LINE
  5
2D09
330
1F
100
AcDbEntity
  8
AM_VIS
100
AcDbLine
 10
2065.624662568985
 20
1147.14111275673
 30
0.0
 11
2065.624662568985
 21
1148.39111275673
 31
0.0
  0
LINE
  5
2D0A
330
1F
100
AcDbEntity
  8
AM_VIS
100
AcDbLine
 10
2065.624662568985
 20
1144.99111275673
 30
0.0
 11
2065.624662568985
 21
1146.24111275673
 31
0.0
  0
LINE
  5
2D0B
330
1F
100
AcDbEntity
  8
AM_VIS
100
AcDbLine
 10
2065.624662568985
 20
1139.14111275673
 30
0.0
 11
2065.624662568985
 21
1140.39111275673
 31
0.0
  0
LINE
  5
2D0C
330
1F
100
AcDbEntity
  8
AM_VIS
100
AcDbLine
 10
2065.624662568985
 20
1136.99111275673
 30
0.0
 11
2065.624662568985
 21
1138.24111275673
 31
0.0
  0
LINE
  5
2D0D
330
1F
100
AcDbEntity
  8
AM_VIS
100
AcDbLine
 10
2065.624662568985
 20
1110.69111275673
 30
0.0
 11
2065.624662568985
 21
1110.976969913876
 31
0.0
  0
LINE
  5
2D0E
330
1F
100
AcDbEntity
  8
AM_VIS
100
AcDbLine
 10
2065.624662568985
 20
1174.405255599584
 30
0.0
 11
2065.624662568985
 21
1174.69111275673
 31
0.0
  0
CIRCLE
  5
2D0F
330
1F
100
AcDbEntity
  8
AM_VIS
100
AcDbCircle
 10
2097.624662568985
 20
1169.69111275673
 30
0.0
 40
2.5
  0
ARC
  5
2D10
330
1F
100
AcDbEntity
  8
AM_VIS
100
AcDbCircle
 10
2098.624662568985
 20
1115.69111275673
 30
0.0
 40
2.5
100
AcDbArc
 50
270.0
 51
90.0
  0
ARC
  5
2D11
330
1F
100
AcDbEntity
  8
AM_VIS
100
AcDbCircle
 10
2096.624662568984
 20
1115.69111275673
 30
0.0
 40
2.5
100
AcDbArc
 50
90.0
 51
270.0
  0
ARC
  5
2D12
330
1F
100
AcDbEntity
  8
AM_VIS
100
AcDbCircle
 10
2097.624662568985
 20
1115.69111275673
 30
0.0
 40
2.5
100
AcDbArc
 50
270.0
 51
90.0
  0
ARC
  5
2D13
330
1F
100
AcDbEntity
  8
AM_VIS
100
AcDbCircle
 10
2097.624662568985
 20
1115.69111275673
 30
0.0
 40
2.5
100
AcDbArc
 50
90.0
 51
270.0
  0
LINE
  5
2D14
330
1F
100
AcDbEntity
  8
AM_VIS
100
AcDbLine
 10
2173.624662568985
 20
961.493982226025
 30
0.0
 11
2173.624662568985
 21
1025.493982226025
 31
0.0
  0
LINE
  5
2D15
102
{ACAD_REACTORS
330
2EC2
102
}
330
1F
100
AcDbEntity
  8
AM_VIS
100
AcDbLine
 10
2173.624662568985
 20
961.493982226025
 30
0.0
 11
2161.624662568985
 21
961.493982226025
 31
0.0
  0
LINE
  5
2D16
102
{ACAD_REACTORS
330
2EBF
330
2EC2
102
}
330
1F
100
AcDbEntity
  8
AM_VIS
100
AcDbLine
 10
2161.624662568985
 20
1025.493982226025
 30
0.0
 11
2161.624662568985
 21
961.493982226025
 31
0.0
  0
LINE
  5
2D17
330
1F
100
AcDbEntity
  8
AM_VIS
100
AcDbLine
 10
2173.624662568985
 20
1025.493982226025
 30
0.0
 11
2161.624662568985
 21
1025.493982226025
 31
0.0
  0
CIRCLE
  5
2D18
330
1F
100
AcDbEntity
  8
AM_VIS
100
AcDbCircle
 10
2167.624662568985
 20
977.493982226025
 30
0.0
 40
2.25
  0
CIRCLE
  5
2D19
330
1F
100
AcDbEntity
  8
AM_VIS
100
AcDbCircle
 10
2167.624662568985
 20
1009.493982226025
 30
0.0
 40
2.25
  0
CIRCLE
  5
2D1A
330
1F
100
AcDbEntity
  8
AM_VIS
100
AcDbCircle
 10
2167.624662568985
 20
1018.493982226025
 30
0.0
 40
2.5
  0
CIRCLE
  5
2D1B
330
1F
100
AcDbEntity
  8
AM_VIS
100
AcDbCircle
 10
2167.624662568985
 20
968.493982226025
 30
0.0
 40
2.5
  0
LINE
  5
2D1C
330
1F
100
AcDbEntity
  8
AM_VIS
100
AcDbLine
 10
2116.624662568985
 20
981.4939822260251
 30
0.0
 11
2129.624662568985
 21
981.4939822260251
 31
0.0
  0
LINE
  5
2D1D
330
1F
100
AcDbEntity
  8
AM_VIS
100
AcDbLine
 10
2129.624662568985
 20
987.793982226025
 30
0.0
 11
2065.624662568985
 21
987.793982226025
 31
0.0
  0
LINE
  5
2D1E
330
1F
100
AcDbEntity
  8
AM_VIS
100
AcDbLine
 10
2065.624662568985
 20
991.1939822260251
 30
0.0
 11
2129.624662568985
 21
991.1939822260251
 31
0.0
  0
LINE
  5
2D1F
330
1F
100
AcDbEntity
  8
AM_VIS
100
AcDbLine
 10
2065.624662568985
 20
999.1939822260251
 30
0.0
 11
2129.624662568985
 21
999.1939822260251
 31
0.0
  0
LINE
  5
2D20
330
1F
100
AcDbEntity
  8
AM_VIS
100
AcDbLine
 10
2129.624662568985
 20
995.793982226025
 30
0.0
 11
2065.624662568985
 21
995.793982226025
 31
0.0
  0
LINE
  5
2D21
330
1F
100
AcDbEntity
  8
AM_VIS
100
AcDbLine
 10
2129.624662568985
 20
1025.493982226025
 30
0.0
 11
2065.624662568985
 21
1025.493982226025
 31
0.0
  0
LINE
  5
2D22
330
1F
100
AcDbEntity
  8
AM_VIS
100
AcDbLine
 10
2065.624662568985
 20
999.6939822260252
 30
0.0
 11
2065.624662568985
 21
999.993982226025
 31
0.0
  0
LINE
  5
2D23
330
1F
100
AcDbEntity
  8
AM_VIS
100
AcDbLine
 10
2065.624662568985
 20
999.1939822260251
 30
0.0
 11
2065.624662568985
 21
999.6939822260252
 31
0.0
  0
LINE
  5
2D24
330
1F
100
AcDbEntity
  8
AM_VIS
100
AcDbLine
 10
2065.624662568985
 20
997.0439822260249
 30
0.0
 11
2065.624662568985
 21
997.9439822260252
 31
0.0
  0
LINE
  5
2D25
330
1F
100
AcDbEntity
  8
AM_VIS
100
AcDbLine
 10
2065.624662568985
 20
991.1939822260251
 30
0.0
 11
2065.624662568985
 21
995.7939822260252
 31
0.0
  0
LINE
  5
2D26
330
1F
100
AcDbEntity
  8
AM_VIS
100
AcDbLine
 10
2065.624662568985
 20
989.0439822260249
 30
0.0
 11
2065.624662568985
 21
989.9439822260251
 31
0.0
  0
LINE
  5
2D27
330
1F
100
AcDbEntity
  8
AM_VIS
100
AcDbLine
 10
2065.624662568985
 20
987.2939822260251
 30
0.0
 11
2065.624662568985
 21
987.7939822260252
 31
0.0
  0
LINE
  5
2D28
330
1F
100
AcDbEntity
  8
AM_VIS
100
AcDbLine
 10
2065.624662568985
 20
986.9939822260251
 30
0.0
 11
2065.624662568985
 21
987.2939822260249
 31
0.0
  0
LINE
  5
2D29
330
1F
100
AcDbEntity
  8
AM_VIS
100
AcDbLine
 10
2065.624662568985
 20
981.4939822260251
 30
0.0
 11
2065.624662568985
 21
984.438468598892
 31
0.0
  0
LINE
  5
2D2A
330
1F
100
AcDbEntity
  8
AM_VIS
100
AcDbLine
 10
2065.624662568985
 20
978.5494958531581
 30
0.0
 11
2065.624662568985
 21
981.4939822260251
 31
0.0
  0
LINE
  5
2D2B
330
1F
100
AcDbEntity
  8
AM_VIS
100
AcDbLine
 10
2065.624662568985
 20
981.4939822260251
 30
0.0
 11
2078.624662568985
 21
981.4939822260251
 31
0.0
  0
LINE
  5
2D2C
330
1F
100
AcDbEntity
  8
AM_VIS
100
AcDbLine
 10
2129.624662568985
 20
978.5494958531579
 30
0.0
 11
2115.332059843121
 21
978.5494958531579
 31
0.0
  0
LINE
  5
2D2D
330
1F
100
AcDbEntity
  8
AM_VIS
100
AcDbLine
 10
2065.624662568985
 20
978.5494958531581
 30
0.0
 11
2065.624662568985
 21
962.493982226025
 31
0.0
  0
LINE
  5
2D2E
330
1F
100
AcDbEntity
  8
AM_VIS
100
AcDbLine
 10
2079.917265294848
 20
978.5494958531579
 30
0.0
 11
2065.624662568985
 21
978.5494958531579
 31
0.0
  0
ARC
  5
2D2F
330
1F
100
AcDbEntity
  8
AM_VIS
100
AcDbCircle
 10
2112.624662568984
 20
981.4939822260251
 30
0.0
 40
4.0
100
AcDbArc
 50
0.0
 51
47.40207441782193
  0
ARC
  5
2D30
330
1F
100
AcDbEntity
  8
AM_VIS
100
AcDbCircle
 10
2112.624662568984
 20
981.4939822260251
 30
0.0
 40
4.0
100
AcDbArc
 50
312.5979255821781
 51
0.0
  0
LINE
  5
2D31
330
1F
100
AcDbEntity
  8
AM_VIS
100
AcDbLine
 10
2065.624662568985
 20
1005.493982226025
 30
0.0
 11
2065.624662568985
 21
1008.438468598892
 31
0.0
  0
LINE
  5
2D32
330
1F
100
AcDbEntity
  8
AM_VIS
100
AcDbLine
 10
2116.624662568985
 20
1005.493982226025
 30
0.0
 11
2129.624662568985
 21
1005.493982226025
 31
0.0
  0
LINE
  5
2D33
330
1F
100
AcDbEntity
  8
AM_VIS
100
AcDbLine
 10
2065.624662568985
 20
1002.549495853158
 30
0.0
 11
2065.624662568985
 21
1005.493982226025
 31
0.0
  0
LINE
  5
2D34
330
1F
100
AcDbEntity
  8
AM_VIS
100
AcDbLine
 10
2065.624662568985
 20
1005.493982226025
 30
0.0
 11
2078.624662568985
 21
1005.493982226025
 31
0.0
  0
LINE
  5
2D35
330
1F
100
AcDbEntity
  8
AM_VIS
100
AcDbLine
 10
2129.624662568985
 20
1002.549495853158
 30
0.0
 11
2115.332059843121
 21
1002.549495853158
 31
0.0
  0
LINE
  5
2D36
330
1F
100
AcDbEntity
  8
AM_VIS
100
AcDbLine
 10
2065.624662568985
 20
999.993982226025
 30
0.0
 11
2129.624662568985
 21
999.993982226025
 31
0.0
  0
LINE
  5
2D37
330
1F
100
AcDbEntity
  8
AM_VIS
100
AcDbLine
 10
2065.624662568985
 20
1002.549495853158
 30
0.0
 11
2065.624662568985
 21
999.993982226025
 31
0.0
  0
LINE
  5
2D38
330
1F
100
AcDbEntity
  8
AM_VIS
100
AcDbLine
 10
2079.917265294848
 20
1002.549495853158
 30
0.0
 11
2065.624662568985
 21
1002.549495853158
 31
0.0
  0
ARC
  5
2D39
330
1F
100
AcDbEntity
  8
AM_VIS
100
AcDbCircle
 10
2112.624662568984
 20
1005.493982226025
 30
0.0
 40
4.0
100
AcDbArc
 50
0.0
 51
47.40207441782193
  0
ARC
  5
2D3A
330
1F
100
AcDbEntity
  8
AM_VIS
100
AcDbCircle
 10
2112.624662568984
 20
1005.493982226025
 30
0.0
 40
4.0
100
AcDbArc
 50
312.5979255821781
 51
0.0
  0
ARC
  5
2D3B
330
1F
100
AcDbEntity
  8
AM_VIS
100
AcDbCircle
 10
2112.624662568984
 20
981.4939822260251
 30
0.0
 40
4.0
100
AcDbArc
 50
180.0
 51
227.4020744178219
  0
LINE
  5
2D3C
330
1F
100
AcDbEntity
  8
AM_VIS
100
AcDbLine
 10
2109.917265294848
 20
978.5494958531579
 30
0.0
 11
2085.332059843121
 21
978.5494958531579
 31
0.0
  0
ARC
  5
2D3D
330
1F
100
AcDbEntity
  8
AM_VIS
100
AcDbCircle
 10
2112.624662568984
 20
981.4939822260251
 30
0.0
 40
4.0
100
AcDbArc
 50
132.597925582178
 51
180.0
  0
LINE
  5
2D3E
330
1F
100
AcDbEntity
  8
AM_VIS
100
AcDbLine
 10
2086.624662568985
 20
981.4939822260251
 30
0.0
 11
2108.624662568985
 21
981.4939822260251
 31
0.0
  0
LINE
  5
2D3F
330
1F
100
AcDbEntity
  8
AM_VIS
100
AcDbLine
 10
2065.624662568985
 20
984.4384685988922
 30
0.0
 11
2079.917265294848
 21
984.4384685988922
 31
0.0
  0
LINE
  5
2D40
330
1F
100
AcDbEntity
  8
AM_VIS
100
AcDbLine
 10
2065.624662568985
 20
986.9939822260251
 30
0.0
 11
2065.624662568985
 21
984.438468598892
 31
0.0
  0
LINE
  5
2D41
330
1F
100
AcDbEntity
  8
AM_VIS
100
AcDbLine
 10
2129.624662568985
 20
986.9939822260251
 30
0.0
 11
2065.624662568985
 21
986.9939822260251
 31
0.0
  0
LINE
  5
2D42
330
1F
100
AcDbEntity
  8
AM_VIS
100
AcDbLine
 10
2115.33205984312
 20
984.4384685988922
 30
0.0
 11
2129.624662568985
 21
984.4384685988922
 31
0.0
  0
LINE
  5
2D43
330
1F
100
AcDbEntity
  8
AM_VIS
100
AcDbLine
 10
2085.33205984312
 20
984.4384685988922
 30
0.0
 11
2109.917265294848
 21
984.4384685988922
 31
0.0
  0
ARC
  5
2D44
330
1F
100
AcDbEntity
  8
AM_VIS
100
AcDbCircle
 10
2082.624662568985
 20
981.4939822260251
 30
0.0
 40
4.0
100
AcDbArc
 50
0.0
 51
47.40207441782193
  0
ARC
  5
2D45
330
1F
100
AcDbEntity
  8
AM_VIS
100
AcDbCircle
 10
2082.624662568985
 20
981.4939822260251
 30
0.0
 40
4.0
100
AcDbArc
 50
312.5979255821781
 51
0.0
  0
ARC
  5
2D46
330
1F
100
AcDbEntity
  8
AM_VIS
100
AcDbCircle
 10
2082.624662568985
 20
981.4939822260251
 30
0.0
 40
4.0
100
AcDbArc
 50
180.0
 51
227.4020744178219
  0
ARC
  5
2D47
330
1F
100
AcDbEntity
  8
AM_VIS
100
AcDbCircle
 10
2082.624662568985
 20
981.4939822260251
 30
0.0
 40
4.0
100
AcDbArc
 50
132.597925582178
 51
180.0
  0
ARC
  5
2D48
330
1F
100
AcDbEntity
  8
AM_VIS
100
AcDbCircle
 10
2112.624662568984
 20
1005.493982226025
 30
0.0
 40
4.0
100
AcDbArc
 50
180.0
 51
227.4020744178219
  0
LINE
  5
2D49
330
1F
100
AcDbEntity
  8
AM_VIS
100
AcDbLine
 10
2109.917265294848
 20
1002.549495853158
 30
0.0
 11
2085.332059843121
 21
1002.549495853158
 31
0.0
  0
ARC
  5
2D4A
330
1F
100
AcDbEntity
  8
AM_VIS
100
AcDbCircle
 10
2112.624662568984
 20
1005.493982226025
 30
0.0
 40
4.0
100
AcDbArc
 50
132.597925582178
 51
180.0
  0
LINE
  5
2D4B
330
1F
100
AcDbEntity
  8
AM_VIS
100
AcDbLine
 10
2086.624662568985
 20
1005.493982226025
 30
0.0
 11
2108.624662568985
 21
1005.493982226025
 31
0.0
  0
LINE
  5
2D4C
330
1F
100
AcDbEntity
  8
AM_VIS
100
AcDbLine
 10
2065.624662568985
 20
1008.438468598892
 30
0.0
 11
2079.917265294848
 21
1008.438468598892
 31
0.0
  0
LINE
  5
2D4D
330
1F
100
AcDbEntity
  8
AM_VIS
100
AcDbLine
 10
2065.624662568985
 20
1024.493982226025
 30
0.0
 11
2065.624662568985
 21
1008.438468598892
 31
0.0
  0
LINE
  5
2D4E
330
1F
100
AcDbEntity
  8
AM_VIS
100
AcDbLine
 10
2129.624662568985
 20
961.493982226025
 30
0.0
 11
2129.624662568985
 21
1024.493982226025
 31
0.0
  0
LINE
  5
2D4F
330
1F
100
AcDbEntity
  8
AM_VIS
100
AcDbLine
 10
2115.332059843121
 20
1008.438468598892
 30
0.0
 11
2129.624662568985
 21
1008.438468598892
 31
0.0
  0
LINE
  5
2D50
330
1F
100
AcDbEntity
  8
AM_VIS
100
AcDbLine
 10
2085.332059843121
 20
1008.438468598892
 30
0.0
 11
2109.917265294848
 21
1008.438468598892
 31
0.0
  0
ARC
  5
2D51
330
1F
100
AcDbEntity
  8
AM_VIS
100
AcDbCircle
 10
2082.624662568985
 20
1005.493982226025
 30
0.0
 40
4.0
100
AcDbArc
 50
0.0
 51
47.40207441782193
  0
ARC
  5
2D52
330
1F
100
AcDbEntity
  8
AM_VIS
100
AcDbCircle
 10
2082.624662568985
 20
1005.493982226025
 30
0.0
 40
4.0
100
AcDbArc
 50
312.5979255821781
 51
0.0
  0
ARC
  5
2D53
330
1F
100
AcDbEntity
  8
AM_VIS
100
AcDbCircle
 10
2082.624662568985
 20
1005.493982226025
 30
0.0
 40
4.0
100
AcDbArc
 50
180.0
 51
227.4020744178219
  0
ARC
  5
2D54
330
1F
100
AcDbEntity
  8
AM_VIS
100
AcDbCircle
 10
2082.624662568985
 20
1005.493982226025
 30
0.0
 40
4.0
100
AcDbArc
 50
132.597925582178
 51
180.0
  0
LINE
  5
2D55
102
{ACAD_REACTORS
330
2EBC
330
2EBF
102
}
330
1F
100
AcDbEntity
  8
AM_VIS
100
AcDbLine
 10
2065.624662568985
 20
961.493982226025
 30
0.0
 11
2129.624662568985
 21
961.493982226025
 31
0.0
  0
LINE
  5
2D56
330
1F
100
AcDbEntity
  8
AM_VIS
100
AcDbLine
 10
2129.624662568985
 20
1025.493982226025
 30
0.0
 11
2129.624662568985
 21
1024.493982226025
 31
0.0
  0
LINE
  5
2D57
330
1F
100
AcDbEntity
  8
AM_VIS
100
AcDbLine
 10
2065.624662568985
 20
1024.493982226025
 30
0.0
 11
2065.624662568985
 21
1025.493982226025
 31
0.0
  0
LINE
  5
2D58
330
1F
100
AcDbEntity
  8
AM_VIS
100
AcDbLine
 10
2065.624662568985
 20
997.943982226025
 30
0.0
 11
2065.624662568985
 21
999.1939822260251
 31
0.0
  0
LINE
  5
2D59
330
1F
100
AcDbEntity
  8
AM_VIS
100
AcDbLine
 10
2065.624662568985
 20
995.793982226025
 30
0.0
 11
2065.624662568985
 21
997.0439822260249
 31
0.0
  0
LINE
  5
2D5A
330
1F
100
AcDbEntity
  8
AM_VIS
100
AcDbLine
 10
2065.624662568985
 20
989.943982226025
 30
0.0
 11
2065.624662568985
 21
991.1939822260251
 31
0.0
  0
LINE
  5
2D5B
330
1F
100
AcDbEntity
  8
AM_VIS
100
AcDbLine
 10
2065.624662568985
 20
987.793982226025
 30
0.0
 11
2065.624662568985
 21
989.0439822260249
 31
0.0
  0
LINE
  5
2D5C
102
{ACAD_REACTORS
330
2EBC
102
}
330
1F
100
AcDbEntity
  8
AM_VIS
100
AcDbLine
 10
2065.624662568985
 20
961.493982226025
 30
0.0
 11
2065.624662568985
 21
962.493982226025
 31
0.0
  0
ARC
  5
2D5D
330
1F
100
AcDbEntity
  8
AM_VIS
100
AcDbCircle
 10
2112.624662568984
 20
981.4939822260251
 30
0.0
 40
4.0
100
AcDbArc
 50
227.4020744178219
 51
312.5979255821781
  0
CIRCLE
  5
2D5E
330
1F
100
AcDbEntity
  8
AM_VIS
100
AcDbCircle
 10
2112.624662568984
 20
981.4939822260251
 30
0.0
 40
2.149999999999999
  0
ARC
  5
2D5F
330
1F
100
AcDbEntity
  8
AM_VIS
100
AcDbCircle
 10
2112.624662568984
 20
1005.493982226025
 30
0.0
 40
4.0
100
AcDbArc
 50
227.4020744178219
 51
312.5979255821781
  0
CIRCLE
  5
2D60
330
1F
100
AcDbEntity
  8
AM_VIS
100
AcDbCircle
 10
2112.624662568984
 20
1005.493982226025
 30
0.0
 40
2.149999999999999
  0
ARC
  5
2D61
330
1F
100
AcDbEntity
  8
AM_VIS
100
AcDbCircle
 10
2112.624662568984
 20
981.4939822260251
 30
0.0
 40
4.0
100
AcDbArc
 50
47.40207441782193
 51
132.597925582178
  0
ARC
  5
2D62
330
1F
100
AcDbEntity
  8
AM_VIS
100
AcDbCircle
 10
2082.624662568985
 20
981.4939822260251
 30
0.0
 40
4.0
100
AcDbArc
 50
47.40207441782193
 51
132.597925582178
  0
ARC
  5
2D63
330
1F
100
AcDbEntity
  8
AM_VIS
100
AcDbCircle
 10
2082.624662568985
 20
981.4939822260251
 30
0.0
 40
4.0
100
AcDbArc
 50
227.4020744178219
 51
312.5979255821781
  0
CIRCLE
  5
2D64
330
1F
100
AcDbEntity
  8
AM_VIS
100
AcDbCircle
 10
2082.624662568985
 20
981.4939822260251
 30
0.0
 40
2.149999999999999
  0
ARC
  5
2D65
330
1F
100
AcDbEntity
  8
AM_VIS
100
AcDbCircle
 10
2112.624662568984
 20
1005.493982226025
 30
0.0
 40
4.0
100
AcDbArc
 50
47.40207441782193
 51
132.597925582178
  0
ARC
  5
2D66
330
1F
100
AcDbEntity
  8
AM_VIS
100
AcDbCircle
 10
2082.624662568985
 20
1005.493982226025
 30
0.0
 40
4.0
100
AcDbArc
 50
47.40207441782193
 51
132.597925582178
  0
ARC
  5
2D67
330
1F
100
AcDbEntity
  8
AM_VIS
100
AcDbCircle
 10
2082.624662568985
 20
1005.493982226025
 30
0.0
 40
4.0
100
AcDbArc
 50
227.4020744178219
 51
312.5979255821781
  0
CIRCLE
  5
2D68
330
1F
100
AcDbEntity
  8
AM_VIS
100
AcDbCircle
 10
2082.624662568985
 20
1005.493982226025
 30
0.0
 40
2.149999999999999
  0
LINE
  5
2D69
330
1F
100
AcDbEntity
  8
AM_VIS
100
AcDbLine
 10
2228.671885573419
 20
991.993982226025
 30
0.0
 11
2227.806309012946
 21
993.493982226025
 31
0.0
  0
LINE
  5
2D6A
330
1F
100
AcDbEntity
  8
AM_VIS
100
AcDbLine
 10
2228.671885573419
 20
994.9939822260251
 30
0.0
 11
2230.405732452472
 21
994.9939822260251
 31
0.0
  0
LINE
  5
2D6B
330
1F
100
AcDbEntity
  8
AM_VIS
100
AcDbLine
 10
2227.806309012946
 20
993.493982226025
 30
0.0
 11
2228.671885573419
 21
994.9939822260251
 31
0.0
  0
LINE
  5
2D6C
330
1F
100
AcDbEntity
  8
AM_VIS
100
AcDbLine
 10
2230.405732452472
 20
991.993982226025
 30
0.0
 11
2228.671885573419
 21
991.993982226025
 31
0.0
  0
LINE
  5
2D6D
330
1F
100
AcDbEntity
  8
AM_VIS
100
AcDbLine
 10
2231.271309012946
 20
993.493982226025
 30
0.0
 11
2230.405732452472
 21
991.993982226025
 31
0.0
  0
LINE
  5
2D6E
330
1F
100
AcDbEntity
  8
AM_VIS
100
AcDbLine
 10
2230.405732452472
 20
994.9939822260251
 30
0.0
 11
2231.271309012946
 21
993.493982226025
 31
0.0
  0
CIRCLE
  5
2D6F
330
1F
100
AcDbEntity
  8
AM_VIS
100
AcDbCircle
 10
2229.538809012945
 20
993.493982226025
 30
0.0
 40
4.750000000000029
  0
LINE
  5
2D70
330
1F
100
AcDbEntity
  8
AM_VIS
100
AcDbLine
 10
2228.671885573419
 20
1014.993982226025
 30
0.0
 11
2227.806309012946
 21
1016.493982226025
 31
0.0
  0
LINE
  5
2D71
330
1F
100
AcDbEntity
  8
AM_VIS
100
AcDbLine
 10
2228.671885573419
 20
1017.993982226025
 30
0.0
 11
2230.405732452472
 21
1017.993982226025
 31
0.0
  0
LINE
  5
2D72
330
1F
100
AcDbEntity
  8
AM_VIS
100
AcDbLine
 10
2227.806309012946
 20
1016.493982226025
 30
0.0
 11
2228.671885573419
 21
1017.993982226025
 31
0.0
  0
LINE
  5
2D73
330
1F
100
AcDbEntity
  8
AM_VIS
100
AcDbLine
 10
2230.405732452472
 20
1014.993982226025
 30
0.0
 11
2228.671885573419
 21
1014.993982226025
 31
0.0
  0
LINE
  5
2D74
330
1F
100
AcDbEntity
  8
AM_VIS
100
AcDbLine
 10
2231.271309012946
 20
1016.493982226025
 30
0.0
 11
2230.405732452472
 21
1014.993982226025
 31
0.0
  0
LINE
  5
2D75
330
1F
100
AcDbEntity
  8
AM_VIS
100
AcDbLine
 10
2230.405732452472
 20
1017.993982226025
 30
0.0
 11
2231.271309012946
 21
1016.493982226025
 31
0.0
  0
CIRCLE
  5
2D76
330
1F
100
AcDbEntity
  8
AM_VIS
100
AcDbCircle
 10
2229.538809012945
 20
1016.493982226025
 30
0.0
 40
4.750000000000029
  0
LINE
  5
2D77
330
1F
100
AcDbEntity
  8
AM_VIS
100
AcDbLine
 10
2243.538809012946
 20
961.493982226025
 30
0.0
 11
2213.538809012945
 21
961.493982226025
 31
0.0
  0
LINE
  5
2D78
330
1F
100
AcDbEntity
  8
AM_VIS
100
AcDbLine
 10
2213.538809012945
 20
961.493982226025
 30
0.0
 11
2213.538809012945
 21
1025.493982226025
 31
0.0
  0
LINE
  5
2D79
330
1F
100
AcDbEntity
  8
AM_VIS
100
AcDbLine
 10
2213.538809012945
 20
1025.493982226025
 30
0.0
 11
2243.538809012946
 21
1025.493982226025
 31
0.0
  0
LINE
  5
2D7A
330
1F
100
AcDbEntity
  8
AM_VIS
100
AcDbLine
 10
2243.538809012946
 20
1025.493982226025
 30
0.0
 11
2243.538809012946
 21
961.493982226025
 31
0.0
  0
CIRCLE
  5
2D7B
330
1F
100
AcDbEntity
  8
AM_VIS
100
AcDbCircle
 10
2229.538809012945
 20
970.493982226025
 30
0.0
 40
5.25
  0
CIRCLE
  5
2D7C
330
1F
100
AcDbEntity
  8
AM_VIS
100
AcDbCircle
 10
2229.538809012945
 20
1016.493982226025
 30
0.0
 40
5.25
  0
CIRCLE
  5
2D7D
330
1F
100
AcDbEntity
  8
AM_VIS
100
AcDbCircle
 10
2229.538809012945
 20
993.493982226025
 30
0.0
 40
5.25
  0
LINE
  5
2D7E
330
1F
100
AcDbEntity
  8
AM_VIS
100
AcDbLine
 10
2243.538809012946
 20
1025.493982226025
 30
0.0
 11
2243.838809012946
 21
1025.493982226025
 31
0.0
  0
LINE
  5
2D7F
330
1F
100
AcDbEntity
  8
AM_VIS
100
AcDbLine
 10
2244.238809012945
 20
1015.493982226025
 30
0.0
 11
2244.538809012945
 21
1015.793982226025
 31
0.0
  0
LINE
  5
2D80
330
1F
100
AcDbEntity
  8
AM_VIS
100
AcDbLine
 10
2244.238809012945
 20
1011.893982226025
 30
0.0
 11
2244.238809012945
 21
1015.493982226025
 31
0.0
  0
LINE
  5
2D81
330
1F
100
AcDbEntity
  8
AM_VIS
100
AcDbLine
 10
2243.538809012946
 20
1011.193982226025
 30
0.0
 11
2244.238809012945
 21
1011.893982226025
 31
0.0
  0
LINE
  5
2D82
330
1F
100
AcDbEntity
  8
AM_VIS
100
AcDbLine
 10
2244.538809012945
 20
1009.793982226025
 30
0.0
 11
2243.538809012946
 21
1010.793982226025
 31
0.0
  0
LINE
  5
2D83
330
1F
100
AcDbEntity
  8
AM_VIS
100
AcDbLine
 10
2244.538809012945
 20
1001.193982226025
 30
0.0
 11
2244.538809012945
 21
1009.793982226025
 31
0.0
  0
LINE
  5
2D84
330
1F
100
AcDbEntity
  8
AM_VIS
100
AcDbLine
 10
2244.238809012945
 20
1000.893982226025
 30
0.0
 11
2244.538809012945
 21
1001.193982226025
 31
0.0
  0
LINE
  5
2D85
330
1F
100
AcDbEntity
  8
AM_VIS
100
AcDbLine
 10
2244.238809012945
 20
999.1939822260251
 30
0.0
 11
2244.238809012945
 21
1000.893982226025
 31
0.0
  0
LINE
  5
2D86
330
1F
100
AcDbEntity
  8
AM_VIS
100
AcDbLine
 10
2243.738809012945
 20
999.1939822260251
 30
0.0
 11
2244.238809012945
 21
999.1939822260251
 31
0.0
  0
LINE
  5
2D87
330
1F
100
AcDbEntity
  8
AM_VIS
100
AcDbLine
 10
2243.538809012946
 20
999.3739822260252
 30
0.0
 11
2243.738809012945
 21
999.1939822260251
 31
0.0
  0
LINE
  5
2D88
330
1F
100
AcDbEntity
  8
AM_VIS
100
AcDbLine
 10
2243.738809012945
 20
995.793982226025
 30
0.0
 11
2243.538809012946
 21
995.6139822260251
 31
0.0
  0
LINE
  5
2D89
330
1F
100
AcDbEntity
  8
AM_VIS
100
AcDbLine
 10
2244.238809012945
 20
995.793982226025
 30
0.0
 11
2243.738809012945
 21
995.793982226025
 31
0.0
  0
LINE
  5
2D8A
330
1F
100
AcDbEntity
  8
AM_VIS
100
AcDbLine
 10
2244.238809012945
 20
991.1939822260251
 30
0.0
 11
2244.238809012945
 21
995.793982226025
 31
0.0
  0
LINE
  5
2D8B
330
1F
100
AcDbEntity
  8
AM_VIS
100
AcDbLine
 10
2243.738809012945
 20
991.1939822260251
 30
0.0
 11
2244.238809012945
 21
991.1939822260251
 31
0.0
  0
LINE
  5
2D8C
330
1F
100
AcDbEntity
  8
AM_VIS
100
AcDbLine
 10
2243.538809012946
 20
991.3739822260252
 30
0.0
 11
2243.738809012945
 21
991.1939822260251
 31
0.0
  0
LINE
  5
2D8D
330
1F
100
AcDbEntity
  8
AM_VIS
100
AcDbLine
 10
2243.738809012945
 20
987.793982226025
 30
0.0
 11
2243.538809012946
 21
987.6139822260249
 31
0.0
  0
LINE
  5
2D8E
330
1F
100
AcDbEntity
  8
AM_VIS
100
AcDbLine
 10
2244.238809012945
 20
987.793982226025
 30
0.0
 11
2243.738809012945
 21
987.793982226025
 31
0.0
  0
LINE
  5
2D8F
330
1F
100
AcDbEntity
  8
AM_VIS
100
AcDbLine
 10
2244.238809012945
 20
986.0939822260251
 30
0.0
 11
2244.238809012945
 21
987.793982226025
 31
0.0
  0
LINE
  5
2D90
330
1F
100
AcDbEntity
  8
AM_VIS
100
AcDbLine
 10
2244.538809012945
 20
985.7939822260251
 30
0.0
 11
2244.238809012945
 21
986.0939822260251
 31
0.0
  0
LINE
  5
2D91
330
1F
100
AcDbEntity
  8
AM_VIS
100
AcDbLine
 10
2244.538809012945
 20
977.193982226025
 30
0.0
 11
2244.538809012945
 21
985.7939822260251
 31
0.0
  0
LINE
  5
2D92
330
1F
100
AcDbEntity
  8
AM_VIS
100
AcDbLine
 10
2243.538809012946
 20
976.193982226025
 30
0.0
 11
2244.538809012945
 21
977.193982226025
 31
0.0
  0
LINE
  5
2D93
330
1F
100
AcDbEntity
  8
AM_VIS
100
AcDbLine
 10
2244.238809012945
 20
975.0939822260249
 30
0.0
 11
2243.538809012946
 21
975.7939822260251
 31
0.0
  0
LINE
  5
2D94
330
1F
100
AcDbEntity
  8
AM_VIS
100
AcDbLine
 10
2244.238809012945
 20
971.493982226025
 30
0.0
 11
2244.238809012945
 21
975.0939822260251
 31
0.0
  0
LINE
  5
2D95
330
1F
100
AcDbEntity
  8
AM_VIS
100
AcDbLine
 10
2244.538809012945
 20
971.193982226025
 30
0.0
 11
2244.238809012945
 21
971.493982226025
 31
0.0
  0
LINE
  5
2D96
330
1F
100
AcDbEntity
  8
AM_VIS
100
AcDbLine
 10
2243.838809012946
 20
961.493982226025
 30
0.0
 11
2243.538809012946
 21
961.493982226025
 31
0.0
  0
LINE
  5
2D97
330
1F
100
AcDbEntity
  8
AM_VIS
100
AcDbLine
 10
2244.538809012945
 20
961.7798393831709
 30
0.0
 11
2244.538809012945
 21
971.1939822260251
 31
0.0
  0
LINE
  5
2D98
330
1F
100
AcDbEntity
  8
AM_VIS
100
AcDbLine
 10
2244.538809012945
 20
1015.793982226025
 30
0.0
 11
2244.538809012945
 21
1025.208125068879
 31
0.0
  0
ARC
  5
2D99
330
1F
100
AcDbEntity
  8
AM_VIS
100
AcDbCircle
 10
2243.838809012946
 20
962.493982226025
 30
0.0
 40
0.9999999999999998
100
AcDbArc
 50
270.0
 51
314.4270040007999
  0
ARC
  5
2D9A
330
1F
100
AcDbEntity
  8
AM_VIS
100
AcDbCircle
 10
2243.838809012946
 20
1024.493982226025
 30
0.0
 40
0.9999999999999998
100
AcDbArc
 50
45.5729959992001
 51
90.0
  0
LINE
  5
2D9B
330
1F
100
AcDbEntity
  8
0
100
AcDbLine
 10
2129.624662568985
 20
1146.69111275673
 30
0.0
 11
2161.624662568985
 21
1146.69111275673
 31
0.0
  0
LINE
  5
2D9C
330
1F
100
AcDbEntity
  8
0
100
AcDbLine
 10
2129.624662568985
 20
1138.69111275673
 30
0.0
 11
2161.624662568985
 21
1138.69111275673
 31
0.0
  0
LINE
  5
2DA1
330
1F
100
AcDbEntity
  8
0
100
AcDbLine
 10
2129.624662568985
 20
997.4939822260251
 30
0.0
 11
2161.624662568985
 21
997.4939822260251
 31
0.0
  0
LINE
  5
2DA2
330
1F
100
AcDbEntity
  8
0
100
AcDbLine
 10
2129.624662568985
 20
989.4939822260251
 30
0.0
 11
2161.624662568985
 21
989.4939822260251
 31
0.0
  0
LINE
  5
2DA7
330
1F
100
AcDbEntity
  8
AM_7
100
AcDbLine
 10
2178.259992274934
 20
912.1829502098137
 30
0.0
 11
2044.91828249327
 21
912.1829502098137
 31
0.0
1001
GENIUS_GENODEF_13
1002
{
1000
HIER
1070
     0
1002
}
1002
{
1000
MANEDIT
1070
     0
1002
}
1002
{
1000
NOSEL
1070
     0
1002
}
1002
{
1000
BEHIND
1070
     0
1002
}
1002
{
1000
OTHER
1070
     0
1002
}
1002
{
1000
REACTOR
1002
}
1001
GENIUS_GENOBJ-N-CEN_13
1002
{
1000
OWNER
1000
GEN
1002
}
1001
GENIUS_GENCEN_19
1002
{
1040
2.0
1002
}
  0
LINE
  5
2DA8
330
1F
100
AcDbEntity
  8
AM_7
100
AcDbLine
 10
2044.748471847991
 20
1066.688321544549
 30
0.0
 11
2178.44975566594
 21
1066.688321544549
 31
0.0
1001
GENIUS_GENODEF_13
1002
{
1000
HIER
1070
     0
1002
}
1002
{
1000
MANEDIT
1070
     0
1002
}
1002
{
1000
NOSEL
1070
     0
1002
}
1002
{
1000
BEHIND
1070
     0
1002
}
1002
{
1000
OTHER
1070
     0
1002
}
1002
{
1000
REACTOR
1002
}
1001
GENIUS_GENOBJ-N-CEN_13
1002
{
1000
OWNER
1000
GEN
1002
}
1001
GENIUS_GENCEN_19
1002
{
1040
2.0
1002
}
  0
LINE
  5
2DA9
330
1F
100
AcDbEntity
  8
AM_7
100
AcDbLine
 10
2047.617513890988
 20
993.493982226025
 30
0.0
 11
2177.259735703808
 21
993.493982226025
 31
0.0
1001
GENIUS_GENOBJ-N-CEN_13
1002
{
1000
OWNER
1000
GEN
1002
}
1001
GENIUS_GENODEF_13
1002
{
1000
HIER
1070
     0
1002
}
1002
{
1000
MANEDIT
1070
     0
1002
}
1002
{
1000
NOSEL
1070
     0
1002
}
1002
{
1000
BEHIND
1070
     0
1002
}
1002
{
1000
OTHER
1070
     0
1002
}
1002
{
1000
REACTOR
1002
}
1001
GENIUS_GENCEN_19
1002
{
1040
2.0
1002
}
  0
LINE
  5
2DAA
330
1F
100
AcDbEntity
  8
AM_7
100
AcDbLine
 10
2211.538809012945
 20
993.493982226025
 30
0.0
 11
2247.785927140528
 21
993.493982226025
 31
0.0
1001
GENIUS_GENOBJ-N-CEN_13
1002
{
1000
OWNER
1000
GEN
1002
}
1001
GENIUS_GENODEF_13
1002
{
1000
HIER
1070
     0
1002
}
1002
{
1000
MANEDIT
1070
     0
1002
}
1002
{
1000
NOSEL
1070
     0
1002
}
1002
{
1000
BEHIND
1070
     0
1002
}
1002
{
1000
OTHER
1070
     0
1002
}
1002
{
1000
REACTOR
1002
}
1001
GENIUS_GENCEN_19
1002
{
1040
2.0
1002
}
  0
LINE
  5
2DAB
330
1F
100
AcDbEntity
  8
AM_7
100
AcDbLine
 10
2046.095816872695
 20
1142.69111275673
 30
0.0
 11
2175.624662568985
 21
1142.69111275673
 31
0.0
1001
GENIUS_GENOBJ-N-CEN_13
1002
{
1000
OWNER
1000
GEN
1002
}
1001
GENIUS_GENODEF_13
1002
{
1000
HIER
1070
     0
1002
}
1002
{
1000
MANEDIT
1070
     0
1002
}
1002
{
1000
NOSEL
1070
     0
1002
}
1002
{
1000
BEHIND
1070
     0
1002
}
1002
{
1000
OTHER
1070
     0
1002
}
1002
{
1000
REACTOR
1002
}
1001
GENIUS_GENCEN_19
1002
{
1040
2.0
1002
}
  0
LINE
  5
2DAC
330
1F
100
AcDbEntity
  8
AM_7
  6
AM_ISO08W050x2
100
AcDbLine
 10
2082.624662568985
 20
1005.493982226025
 30
0.0
 11
2088.624662568985
 21
1005.493982226025
 31
0.0
1001
GENIUS_GENOREF_13
1005
2ECA
  0
LINE
  5
2DAD
330
1F
100
AcDbEntity
  8
AM_7
  6
AM_ISO08W050x2
100
AcDbLine
 10
2082.624662568985
 20
1005.493982226025
 30
0.0
 11
2082.624662568985
 21
1011.493982226025
 31
0.0
1001
GENIUS_GENOREF_13
1005
2ECA
  0
LINE
  5
2DAE
330
1F
100
AcDbEntity
  8
AM_7
  6
AM_ISO08W050x2
100
AcDbLine
 10
2082.624662568985
 20
1005.493982226025
 30
0.0
 11
2076.624662568985
 21
1005.493982226025
 31
0.0
1001
GENIUS_GENOREF_13
1005
2ECA
  0
LINE
  5
2DAF
330
1F
100
AcDbEntity
  8
AM_7
  6
AM_ISO08W050x2
100
AcDbLine
 10
2082.624662568985
 20
1005.493982226025
 30
0.0
 11
2082.624662568985
 21
999.4939822260251
 31
0.0
1001
GENIUS_GENOREF_13
1005
2ECA
  0
LINE
  5
2DB0
330
1F
100
AcDbEntity
  8
AM_7
  6
AM_ISO08W050x2
100
AcDbLine
 10
2112.624662568984
 20
1005.493982226025
 30
0.0
 11
2118.624662568985
 21
1005.493982226025
 31
0.0
1001
GENIUS_GENOREF_13
1005
2EC9
  0
LINE
  5
2DB1
330
1F
100
AcDbEntity
  8
AM_7
  6
AM_ISO08W050x2
100
AcDbLine
 10
2112.624662568984
 20
1005.493982226025
 30
0.0
 11
2112.624662568984
 21
1011.493982226025
 31
0.0
1001
GENIUS_GENOREF_13
1005
2EC9
  0
LINE
  5
2DB2
330
1F
100
AcDbEntity
  8
AM_7
  6
AM_ISO08W050x2
100
AcDbLine
 10
2112.624662568984
 20
1005.493982226025
 30
0.0
 11
2106.624662568985
 21
1005.493982226025
 31
0.0
1001
GENIUS_GENOREF_13
1005
2EC9
  0
LINE
  5
2DB3
330
1F
100
AcDbEntity
  8
AM_7
  6
AM_ISO08W050x2
100
AcDbLine
 10
2112.624662568984
 20
1005.493982226025
 30
0.0
 11
2112.624662568984
 21
999.4939822260251
 31
0.0
1001
GENIUS_GENOREF_13
1005
2EC9
  0
LINE
  5
2DB4
330
1F
100
AcDbEntity
  8
AM_7
  6
AM_ISO08W050x2
100
AcDbLine
 10
2112.624662568984
 20
981.4939822260251
 30
0.0
 11
2118.624662568985
 21
981.4939822260251
 31
0.0
1001
GENIUS_GENOREF_13
1005
2EC8
  0
LINE
  5
2DB5
330
1F
100
AcDbEntity
  8
AM_7
  6
AM_ISO08W050x2
100
AcDbLine
 10
2112.624662568984
 20
981.4939822260251
 30
0.0
 11
2112.624662568984
 21
987.493982226025
 31
0.0
1001
GENIUS_GENOREF_13
1005
2EC8
  0
LINE
  5
2DB6
330
1F
100
AcDbEntity
  8
AM_7
  6
AM_ISO08W050x2
100
AcDbLine
 10
2112.624662568984
 20
981.4939822260251
 30
0.0
 11
2106.624662568985
 21
981.4939822260251
 31
0.0
1001
GENIUS_GENOREF_13
1005
2EC8
  0
LINE
  5
2DB7
330
1F
100
AcDbEntity
  8
AM_7
  6
AM_ISO08W050x2
100
AcDbLine
 10
2112.624662568984
 20
981.4939822260251
 30
0.0
 11
2112.624662568984
 21
975.4939822260251
 31
0.0
1001
GENIUS_GENOREF_13
1005
2EC8
  0
LINE
  5
2DB8
330
1F
100
AcDbEntity
  8
AM_7
  6
AM_ISO08W050x2
100
AcDbLine
 10
2082.624662568985
 20
981.4939822260251
 30
0.0
 11
2088.624662568985
 21
981.4939822260251
 31
0.0
1001
GENIUS_GENOREF_13
1005
2EC7
  0
LINE
  5
2DB9
330
1F
100
AcDbEntity
  8
AM_7
  6
AM_ISO08W050x2
100
AcDbLine
 10
2082.624662568985
 20
981.4939822260251
 30
0.0
 11
2082.624662568985
 21
987.493982226025
 31
0.0
1001
GENIUS_GENOREF_13
1005
2EC7
  0
LINE
  5
2DBA
330
1F
100
AcDbEntity
  8
AM_7
  6
AM_ISO08W050x2
100
AcDbLine
 10
2082.624662568985
 20
981.4939822260251
 30
0.0
 11
2076.624662568985
 21
981.4939822260251
 31
0.0
1001
GENIUS_GENOREF_13
1005
2EC7
  0
LINE
  5
2DBB
330
1F
100
AcDbEntity
  8
AM_7
  6
AM_ISO08W050x2
100
AcDbLine
 10
2082.624662568985
 20
981.4939822260251
 30
0.0
 11
2082.624662568985
 21
975.4939822260251
 31
0.0
1001
GENIUS_GENOREF_13
1005
2EC7
  0
ARC
  5
2DBC
330
1F
100
AcDbEntity
  8
AM_4
100
AcDbCircle
 10
2076.624662568985
 20
922.1829502098138
 30
0.0
 40
2.5
100
AcDbArc
 50
260.0
 51
170.0
  0
CIRCLE
  5
2DBD
330
1F
100
AcDbEntity
  8
AM_0
100
AcDbCircle
 10
2076.624662568985
 20
922.1829502098138
 30
0.0
 40
2.066987298107819
  0
LINE
  5
2DBE
330
1F
100
AcDbEntity
  8
AM_7
  6
AM_ISO08W050x2
100
AcDbLine
 10
2072.124662568985
 20
922.1829502098138
 30
0.0
 11
2081.124662568985
 21
922.1829502098138
 31
0.0
  0
LINE
  5
2DBF
330
1F
100
AcDbEntity
  8
AM_7
  6
AM_ISO08W050x2
100
AcDbLine
 10
2076.624662568985
 20
917.6829502098138
 30
0.0
 11
2076.624662568985
 21
926.6829502098138
 31
0.0
  0
ARC
  5
2DC0
330
1F
100
AcDbEntity
  8
AM_4
100
AcDbCircle
 10
2118.624662568985
 20
922.1829502098138
 30
0.0
 40
2.5
100
AcDbArc
 50
260.0
 51
170.0
  0
CIRCLE
  5
2DC1
330
1F
100
AcDbEntity
  8
AM_0
100
AcDbCircle
 10
2118.624662568985
 20
922.1829502098138
 30
0.0
 40
2.066987298107819
  0
LINE
  5
2DC2
330
1F
100
AcDbEntity
  8
AM_7
  6
AM_ISO08W050x2
100
AcDbLine
 10
2114.124662568984
 20
922.1829502098138
 30
0.0
 11
2123.124662568985
 21
922.1829502098138
 31
0.0
  0
LINE
  5
2DC3
330
1F
100
AcDbEntity
  8
AM_7
  6
AM_ISO08W050x2
100
AcDbLine
 10
2118.624662568985
 20
917.6829502098138
 30
0.0
 11
2118.624662568985
 21
926.6829502098138
 31
0.0
  0
LINE
  5
2DC4
330
1F
100
AcDbEntity
  8
AM_VIS
100
AcDbLine
 10
2051.624662568984
 20
898.182950209814
 30
0.0
 11
2051.624662568984
 21
928.1829502098139
 31
0.0
  0
LINE
  5
2DC5
330
1F
100
AcDbEntity
  8
AM_VIS
100
AcDbLine
 10
2063.624662568985
 20
928.1829502098139
 30
0.0
 11
2063.624662568985
 21
898.182950209814
 31
0.0
  0
LINE
  5
2DC6
330
1F
100
AcDbEntity
  8
AM_VIS
100
AcDbLine
 10
2051.624662568984
 20
928.1829502098139
 30
0.0
 11
2063.624662568985
 21
928.1829502098139
 31
0.0
  0
LINE
  5
2DC7
330
1F
100
AcDbEntity
  8
AM_VIS
100
AcDbLine
 10
2051.624662568984
 20
898.1829502098138
 30
0.0
 11
2063.624662568985
 21
898.1829502098138
 31
0.0
  0
LINE
  5
2DCA
330
1F
100
AcDbEntity
  8
AM_VIS
100
AcDbLine
 10
2051.624662568984
 20
1050.688321544549
 30
0.0
 11
2051.624662568984
 21
1080.688321544549
 31
0.0
  0
LINE
  5
2DCB
330
1F
100
AcDbEntity
  8
AM_VIS
100
AcDbLine
 10
2051.624662568984
 20
1050.688321544549
 30
0.0
 11
2063.624662568985
 21
1050.688321544549
 31
0.0
  0
LINE
  5
2DCC
330
1F
100
AcDbEntity
  8
AM_VIS
100
AcDbLine
 10
2063.624662568985
 20
1080.688321544549
 30
0.0
 11
2063.624662568985
 21
1050.688321544549
 31
0.0
  0
LINE
  5
2DCD
330
1F
100
AcDbEntity
  8
AM_VIS
100
AcDbLine
 10
2051.624662568984
 20
1080.688321544549
 30
0.0
 11
2063.624662568985
 21
1080.688321544549
 31
0.0
  0
LINE
  5
2DD0
330
1F
100
AcDbEntity
  8
AM_VIS
100
AcDbLine
 10
2051.624662568984
 20
1174.69111275673
 30
0.0
 11
2063.624662568985
 21
1174.69111275673
 31
0.0
  0
LINE
  5
2DD1
330
1F
100
AcDbEntity
  8
AM_VIS
100
AcDbLine
 10
2051.624662568984
 20
1110.69111275673
 30
0.0
 11
2051.624662568984
 21
1174.69111275673
 31
0.0
  0
LINE
  5
2DD2
330
1F
100
AcDbEntity
  8
AM_VIS
100
AcDbLine
 10
2051.624662568984
 20
1110.69111275673
 30
0.0
 11
2063.624662568985
 21
1110.69111275673
 31
0.0
  0
LINE
  5
2DD3
330
1F
100
AcDbEntity
  8
AM_VIS
100
AcDbLine
 10
2063.624662568985
 20
1174.69111275673
 30
0.0
 11
2063.624662568985
 21
1110.69111275673
 31
0.0
  0
CIRCLE
  5
2DD4
330
1F
100
AcDbEntity
  8
AM_VIS
100
AcDbCircle
 10
2057.624662568985
 20
1158.69111275673
 30
0.0
 40
4.0
  0
CIRCLE
  5
2DD5
330
1F
100
AcDbEntity
  8
AM_VIS
100
AcDbCircle
 10
2057.624662568985
 20
1158.69111275673
 30
0.0
 40
2.25
  0
CIRCLE
  5
2DD6
330
1F
100
AcDbEntity
  8
AM_VIS
100
AcDbCircle
 10
2057.624662568985
 20
1126.69111275673
 30
0.0
 40
4.0
  0
CIRCLE
  5
2DD7
330
1F
100
AcDbEntity
  8
AM_VIS
100
AcDbCircle
 10
2057.624662568985
 20
1126.69111275673
 30
0.0
 40
2.25
  0
LINE
  5
2DD8
330
1F
100
AcDbEntity
  8
AM_VIS
100
AcDbLine
 10
2051.624662568984
 20
961.493982226025
 30
0.0
 11
2051.624662568984
 21
1025.493982226025
 31
0.0
  0
LINE
  5
2DD9
330
1F
100
AcDbEntity
  8
AM_VIS
100
AcDbLine
 10
2051.624662568984
 20
961.493982226025
 30
0.0
 11
2063.624662568985
 21
961.493982226025
 31
0.0
  0
LINE
  5
2DDA
330
1F
100
AcDbEntity
  8
AM_VIS
100
AcDbLine
 10
2063.624662568985
 20
1025.493982226025
 30
0.0
 11
2063.624662568985
 21
961.493982226025
 31
0.0
  0
LINE
  5
2DDB
330
1F
100
AcDbEntity
  8
AM_VIS
100
AcDbLine
 10
2051.624662568984
 20
1025.493982226025
 30
0.0
 11
2063.624662568985
 21
1025.493982226025
 31
0.0
  0
CIRCLE
  5
2DDC
330
1F
100
AcDbEntity
  8
AM_VIS
100
AcDbCircle
 10
2057.624662568985
 20
977.493982226025
 30
0.0
 40
2.25
  0
CIRCLE
  5
2DDD
330
1F
100
AcDbEntity
  8
AM_VIS
100
AcDbCircle
 10
2057.624662568985
 20
1009.493982226025
 30
0.0
 40
2.25
  0
CIRCLE
  5
2DDE
330
1F
100
AcDbEntity
  8
AM_VIS
100
AcDbCircle
 10
2057.624662568985
 20
1018.493982226025
 30
0.0
 40
2.5
  0
CIRCLE
  5
2DDF
330
1F
100
AcDbEntity
  8
AM_VIS
100
AcDbCircle
 10
2057.624662568985
 20
968.493982226025
 30
0.0
 40
2.5
  0
LINE
  5
2DE0
330
1F
100
AcDbEntity
  8
0
100
AcDbLine
 10
2065.624662568985
 20
1146.69111275673
 30
0.0
 11
2063.624662568985
 21
1146.69111275673
 31
0.0
  0
LINE
  5
2DE1
330
1F
100
AcDbEntity
  8
0
100
AcDbLine
 10
2065.624662568985
 20
1138.69111275673
 30
0.0
 11
2063.624662568985
 21
1138.69111275673
 31
0.0
  0
LINE
  5
2DE6
330
1F
100
AcDbEntity
  8
0
100
AcDbLine
 10
2065.624662568985
 20
997.4939822260251
 30
0.0
 11
2063.624662568985
 21
997.4939822260251
 31
0.0
  0
LINE
  5
2DE7
330
1F
100
AcDbEntity
  8
0
100
AcDbLine
 10
2065.624662568985
 20
989.4939822260251
 30
0.0
 11
2063.624662568985
 21
989.4939822260251
 31
0.0
  0
LINE
  5
2DEC
330
1F
100
AcDbEntity
  8
AM_VIS
100
AcDbLine
 10
2014.226859016821
 20
991.993982226025
 30
0.0
 11
2015.092435577294
 21
993.493982226025
 31
0.0
  0
LINE
  5
2DED
330
1F
100
AcDbEntity
  8
AM_VIS
100
AcDbLine
 10
2014.226859016821
 20
994.9939822260251
 30
0.0
 11
2012.493012137767
 21
994.9939822260251
 31
0.0
  0
LINE
  5
2DEE
330
1F
100
AcDbEntity
  8
AM_VIS
100
AcDbLine
 10
2015.092435577294
 20
993.493982226025
 30
0.0
 11
2014.226859016821
 21
994.9939822260251
 31
0.0
  0
LINE
  5
2DEF
330
1F
100
AcDbEntity
  8
AM_VIS
100
AcDbLine
 10
2012.493012137767
 20
991.993982226025
 30
0.0
 11
2014.226859016821
 21
991.993982226025
 31
0.0
  0
LINE
  5
2DF0
330
1F
100
AcDbEntity
  8
AM_VIS
100
AcDbLine
 10
2011.627435577294
 20
993.493982226025
 30
0.0
 11
2012.493012137767
 21
991.993982226025
 31
0.0
  0
LINE
  5
2DF1
330
1F
100
AcDbEntity
  8
AM_VIS
100
AcDbLine
 10
2012.493012137767
 20
994.9939822260251
 30
0.0
 11
2011.627435577294
 21
993.493982226025
 31
0.0
  0
CIRCLE
  5
2DF2
330
1F
100
AcDbEntity
  8
AM_VIS
100
AcDbCircle
 10
2013.359935577294
 20
993.493982226025
 30
0.0
 40
4.750000000000029
  0
LINE
  5
2DF3
330
1F
100
AcDbEntity
  8
AM_VIS
100
AcDbLine
 10
2014.226859016821
 20
968.9939822260251
 30
0.0
 11
2015.092435577294
 21
970.493982226025
 31
0.0
  0
LINE
  5
2DF4
330
1F
100
AcDbEntity
  8
AM_VIS
100
AcDbLine
 10
2014.226859016821
 20
971.9939822260251
 30
0.0
 11
2012.493012137767
 21
971.9939822260251
 31
0.0
  0
LINE
  5
2DF5
330
1F
100
AcDbEntity
  8
AM_VIS
100
AcDbLine
 10
2015.092435577294
 20
970.493982226025
 30
0.0
 11
2014.226859016821
 21
971.9939822260251
 31
0.0
  0
LINE
  5
2DF6
330
1F
100
AcDbEntity
  8
AM_VIS
100
AcDbLine
 10
2012.493012137767
 20
968.9939822260251
 30
0.0
 11
2014.226859016821
 21
968.9939822260251
 31
0.0
  0
LINE
  5
2DF7
330
1F
100
AcDbEntity
  8
AM_VIS
100
AcDbLine
 10
2011.627435577294
 20
970.493982226025
 30
0.0
 11
2012.493012137767
 21
968.9939822260251
 31
0.0
  0
LINE
  5
2DF8
330
1F
100
AcDbEntity
  8
AM_VIS
100
AcDbLine
 10
2012.493012137767
 20
971.9939822260251
 30
0.0
 11
2011.627435577294
 21
970.493982226025
 31
0.0
  0
CIRCLE
  5
2DF9
330
1F
100
AcDbEntity
  8
AM_VIS
100
AcDbCircle
 10
2013.359935577294
 20
970.493982226025
 30
0.0
 40
4.750000000000029
  0
LINE
  5
2DFA
330
1F
100
AcDbEntity
  8
AM_VIS
100
AcDbLine
 10
1999.359935577294
 20
961.493982226025
 30
0.0
 11
2029.359935577294
 21
961.493982226025
 31
0.0
  0
LINE
  5
2DFB
330
1F
100
AcDbEntity
  8
AM_VIS
100
AcDbLine
 10
2029.359935577294
 20
961.493982226025
 30
0.0
 11
2029.359935577294
 21
1025.493982226025
 31
0.0
  0
LINE
  5
2DFC
330
1F
100
AcDbEntity
  8
AM_VIS
100
AcDbLine
 10
2029.359935577294
 20
1025.493982226025
 30
0.0
 11
1999.359935577294
 21
1025.493982226025
 31
0.0
  0
LINE
  5
2DFD
330
1F
100
AcDbEntity
  8
AM_VIS
100
AcDbLine
 10
1999.359935577294
 20
1025.493982226025
 30
0.0
 11
1999.359935577294
 21
961.493982226025
 31
0.0
  0
CIRCLE
  5
2DFE
330
1F
100
AcDbEntity
  8
AM_VIS
100
AcDbCircle
 10
2013.359935577294
 20
970.493982226025
 30
0.0
 40
5.25
  0
CIRCLE
  5
2DFF
330
1F
100
AcDbEntity
  8
AM_VIS
100
AcDbCircle
 10
2013.359935577294
 20
993.493982226025
 30
0.0
 40
5.25
  0
LINE
  5
2E00
330
1F
100
AcDbEntity
  8
AM_VIS
100
AcDbLine
 10
1999.359935577294
 20
1025.493982226025
 30
0.0
 11
1999.059935577294
 21
1025.493982226025
 31
0.0
  0
LINE
  5
2E01
330
1F
100
AcDbEntity
  8
AM_VIS
100
AcDbLine
 10
1998.659935577294
 20
1015.493982226025
 30
0.0
 11
1998.359935577294
 21
1015.793982226025
 31
0.0
  0
LINE
  5
2E02
330
1F
100
AcDbEntity
  8
AM_VIS
100
AcDbLine
 10
1998.659935577294
 20
1011.893982226025
 30
0.0
 11
1998.659935577294
 21
1015.493982226025
 31
0.0
  0
LINE
  5
2E03
330
1F
100
AcDbEntity
  8
AM_VIS
100
AcDbLine
 10
1999.359935577294
 20
1011.193982226025
 30
0.0
 11
1998.659935577294
 21
1011.893982226025
 31
0.0
  0
LINE
  5
2E04
330
1F
100
AcDbEntity
  8
AM_VIS
100
AcDbLine
 10
1998.359935577294
 20
1009.793982226025
 30
0.0
 11
1999.359935577294
 21
1010.793982226025
 31
0.0
  0
LINE
  5
2E05
330
1F
100
AcDbEntity
  8
AM_VIS
100
AcDbLine
 10
1998.359935577294
 20
1001.193982226025
 30
0.0
 11
1998.359935577294
 21
1009.793982226025
 31
0.0
  0
LINE
  5
2E06
330
1F
100
AcDbEntity
  8
AM_VIS
100
AcDbLine
 10
1998.659935577294
 20
1000.893982226025
 30
0.0
 11
1998.359935577294
 21
1001.193982226025
 31
0.0
  0
LINE
  5
2E07
330
1F
100
AcDbEntity
  8
AM_VIS
100
AcDbLine
 10
1998.659935577294
 20
999.1939822260251
 30
0.0
 11
1998.659935577294
 21
1000.893982226025
 31
0.0
  0
LINE
  5
2E08
330
1F
100
AcDbEntity
  8
AM_VIS
100
AcDbLine
 10
1999.159935577294
 20
999.1939822260251
 30
0.0
 11
1998.659935577294
 21
999.1939822260251
 31
0.0
  0
LINE
  5
2E09
330
1F
100
AcDbEntity
  8
AM_VIS
100
AcDbLine
 10
1999.359935577294
 20
999.3739822260252
 30
0.0
 11
1999.159935577294
 21
999.1939822260251
 31
0.0
  0
LINE
  5
2E0A
330
1F
100
AcDbEntity
  8
AM_VIS
100
AcDbLine
 10
1999.159935577294
 20
995.793982226025
 30
0.0
 11
1999.359935577294
 21
995.6139822260251
 31
0.0
  0
LINE
  5
2E0B
330
1F
100
AcDbEntity
  8
AM_VIS
100
AcDbLine
 10
1998.659935577294
 20
995.793982226025
 30
0.0
 11
1999.159935577294
 21
995.793982226025
 31
0.0
  0
LINE
  5
2E0C
330
1F
100
AcDbEntity
  8
AM_VIS
100
AcDbLine
 10
1998.659935577294
 20
991.1939822260251
 30
0.0
 11
1998.659935577294
 21
995.793982226025
 31
0.0
  0
LINE
  5
2E0D
330
1F
100
AcDbEntity
  8
AM_VIS
100
AcDbLine
 10
1999.159935577294
 20
991.1939822260251
 30
0.0
 11
1998.659935577294
 21
991.1939822260251
 31
0.0
  0
LINE
  5
2E0E
330
1F
100
AcDbEntity
  8
AM_VIS
100
AcDbLine
 10
1999.359935577294
 20
991.3739822260252
 30
0.0
 11
1999.159935577294
 21
991.1939822260251
 31
0.0
  0
LINE
  5
2E0F
330
1F
100
AcDbEntity
  8
AM_VIS
100
AcDbLine
 10
1999.159935577294
 20
987.793982226025
 30
0.0
 11
1999.359935577294
 21
987.6139822260249
 31
0.0
  0
LINE
  5
2E10
330
1F
100
AcDbEntity
  8
AM_VIS
100
AcDbLine
 10
1998.659935577294
 20
987.793982226025
 30
0.0
 11
1999.159935577294
 21
987.793982226025
 31
0.0
  0
LINE
  5
2E11
330
1F
100
AcDbEntity
  8
AM_VIS
100
AcDbLine
 10
1998.659935577294
 20
986.0939822260251
 30
0.0
 11
1998.659935577294
 21
987.793982226025
 31
0.0
  0
LINE
  5
2E12
330
1F
100
AcDbEntity
  8
AM_VIS
100
AcDbLine
 10
1998.359935577294
 20
985.7939822260251
 30
0.0
 11
1998.659935577294
 21
986.0939822260251
 31
0.0
  0
LINE
  5
2E13
330
1F
100
AcDbEntity
  8
AM_VIS
100
AcDbLine
 10
1998.359935577294
 20
977.193982226025
 30
0.0
 11
1998.359935577294
 21
985.7939822260251
 31
0.0
  0
LINE
  5
2E14
330
1F
100
AcDbEntity
  8
AM_VIS
100
AcDbLine
 10
1999.359935577294
 20
976.193982226025
 30
0.0
 11
1998.359935577294
 21
977.193982226025
 31
0.0
  0
LINE
  5
2E15
330
1F
100
AcDbEntity
  8
AM_VIS
100
AcDbLine
 10
1998.659935577294
 20
975.0939822260249
 30
0.0
 11
1999.359935577294
 21
975.7939822260251
 31
0.0
  0
LINE
  5
2E16
330
1F
100
AcDbEntity
  8
AM_VIS
100
AcDbLine
 10
1998.659935577294
 20
971.493982226025
 30
0.0
 11
1998.659935577294
 21
975.0939822260251
 31
0.0
  0
LINE
  5
2E17
330
1F
100
AcDbEntity
  8
AM_VIS
100
AcDbLine
 10
1998.359935577294
 20
971.193982226025
 30
0.0
 11
1998.659935577294
 21
971.493982226025
 31
0.0
  0
LINE
  5
2E18
330
1F
100
AcDbEntity
  8
AM_VIS
100
AcDbLine
 10
1999.059935577294
 20
961.493982226025
 30
0.0
 11
1999.359935577294
 21
961.493982226025
 31
0.0
  0
LINE
  5
2E19
330
1F
100
AcDbEntity
  8
AM_VIS
100
AcDbLine
 10
1998.359935577294
 20
961.7798393831709
 30
0.0
 11
1998.359935577294
 21
971.1939822260251
 31
0.0
  0
LINE
  5
2E1A
330
1F
100
AcDbEntity
  8
AM_VIS
100
AcDbLine
 10
1998.359935577294
 20
1015.793982226025
 30
0.0
 11
1998.359935577294
 21
1025.208125068879
 31
0.0
  0
ARC
  5
2E1B
330
1F
100
AcDbEntity
  8
AM_VIS
100
AcDbCircle
 10
1999.059935577294
 20
962.493982226025
 30
0.0
 40
0.9999999999999998
100
AcDbArc
 50
225.5729959992001
 51
270.0
  0
ARC
  5
2E1C
330
1F
100
AcDbEntity
  8
AM_VIS
100
AcDbCircle
 10
1999.059935577294
 20
1024.493982226025
 30
0.0
 40
0.9999999999999998
100
AcDbArc
 50
90.0
 51
134.4270040007998
  0
LINE
  5
2E1D
330
1F
100
AcDbEntity
  8
AM_7
100
AcDbLine
 10
2031.359935577294
 20
993.493982226025
 30
0.0
 11
1995.112817449712
 21
993.493982226025
 31
0.0
1001
GENIUS_GENOBJ-N-CEN_13
1002
{
1000
OWNER
1000
GEN
1002
}
1001
GENIUS_GENODEF_13
1002
{
1000
HIER
1070
     0
1002
}
1002
{
1000
MANEDIT
1070
     0
1002
}
1002
{
1000
NOSEL
1070
     0
1002
}
1002
{
1000
BEHIND
1070
     0
1002
}
1002
{
1000
OTHER
1070
     0
1002
}
1002
{
1000
REACTOR
1002
}
1001
GENIUS_GENCEN_19
1002
{
1040
2.0
1002
}
  0
CIRCLE
  5
2E1E
330
1F
100
AcDbEntity
  8
AM_VIS
100
AcDbCircle
 10
2013.359935577294
 20
1016.493982226025
 30
0.0
 40
5.25
  0
ARC
  5
2E1F
330
1F
100
AcDbEntity
  8
AM_4
100
AcDbCircle
 10
2005.359935577294
 20
967.4939822260251
 30
0.0
 40
2.5
100
AcDbArc
 50
260.0
 51
170.0
  0
CIRCLE
  5
2E20
330
1F
100
AcDbEntity
  8
AM_0
100
AcDbCircle
 10
2005.359935577294
 20
967.4939822260251
 30
0.0
 40
2.066987298107819
  0
LINE
  5
2E21
330
1F
100
AcDbEntity
  8
AM_7
  6
AM_ISO08W050x2
100
AcDbLine
 10
2000.859935577294
 20
967.4939822260251
 30
0.0
 11
2009.859935577294
 21
967.4939822260251
 31
0.0
  0
LINE
  5
2E22
330
1F
100
AcDbEntity
  8
AM_7
  6
AM_ISO08W050x2
100
AcDbLine
 10
2005.359935577294
 20
962.9939822260251
 30
0.0
 11
2005.359935577294
 21
971.9939822260251
 31
0.0
  0
ARC
  5
2E23
330
1F
100
AcDbEntity
  8
AM_4
100
AcDbCircle
 10
2021.359935577294
 20
967.4939822260251
 30
0.0
 40
2.5
100
AcDbArc
 50
260.0
 51
170.0
  0
CIRCLE
  5
2E24
330
1F
100
AcDbEntity
  8
AM_0
100
AcDbCircle
 10
2021.359935577294
 20
967.4939822260251
 30
0.0
 40
2.066987298107819
  0
LINE
  5
2E25
330
1F
100
AcDbEntity
  8
AM_7
  6
AM_ISO08W050x2
100
AcDbLine
 10
2016.859935577294
 20
967.4939822260251
 30
0.0
 11
2025.859935577294
 21
967.4939822260251
 31
0.0
  0
LINE
  5
2E26
330
1F
100
AcDbEntity
  8
AM_7
  6
AM_ISO08W050x2
100
AcDbLine
 10
2021.359935577294
 20
962.9939822260251
 30
0.0
 11
2021.359935577294
 21
971.9939822260251
 31
0.0
  0
ARC
  5
2E27
330
1F
100
AcDbEntity
  8
AM_4
100
AcDbCircle
 10
2005.359935577294
 20
1019.493982226025
 30
0.0
 40
2.5
100
AcDbArc
 50
260.0
 51
170.0
  0
CIRCLE
  5
2E28
330
1F
100
AcDbEntity
  8
AM_0
100
AcDbCircle
 10
2005.359935577294
 20
1019.493982226025
 30
0.0
 40
2.066987298107819
  0
LINE
  5
2E29
330
1F
100
AcDbEntity
  8
AM_7
  6
AM_ISO08W050x2
100
AcDbLine
 10
2000.859935577294
 20
1019.493982226025
 30
0.0
 11
2009.859935577294
 21
1019.493982226025
 31
0.0
  0
LINE
  5
2E2A
330
1F
100
AcDbEntity
  8
AM_7
  6
AM_ISO08W050x2
100
AcDbLine
 10
2005.359935577294
 20
1014.993982226025
 30
0.0
 11
2005.359935577294
 21
1023.993982226025
 31
0.0
  0
ARC
  5
2E2B
330
1F
100
AcDbEntity
  8
AM_4
100
AcDbCircle
 10
2021.359935577294
 20
1019.493982226025
 30
0.0
 40
2.5
100
AcDbArc
 50
260.0
 51
170.0
  0
CIRCLE
  5
2E2C
330
1F
100
AcDbEntity
  8
AM_0
100
AcDbCircle
 10
2021.359935577294
 20
1019.493982226025
 30
0.0
 40
2.066987298107819
  0
LINE
  5
2E2D
330
1F
100
AcDbEntity
  8
AM_7
  6
AM_ISO08W050x2
100
AcDbLine
 10
2016.859935577294
 20
1019.493982226025
 30
0.0
 11
2025.859935577294
 21
1019.493982226025
 31
0.0
  0
LINE
  5
2E2E
330
1F
100
AcDbEntity
  8
AM_7
  6
AM_ISO08W050x2
100
AcDbLine
 10
2021.359935577294
 20
1014.993982226025
 30
0.0
 11
2021.359935577294
 21
1023.993982226025
 31
0.0
  0
ARC
  5
2E2F
330
1F
100
AcDbEntity
  8
AM_4
100
AcDbCircle
 10
2221.538809012946
 20
967.4939822260251
 30
0.0
 40
2.5
100
AcDbArc
 50
260.0
 51
170.0
  0
CIRCLE
  5
2E30
330
1F
100
AcDbEntity
  8
AM_0
100
AcDbCircle
 10
2221.538809012946
 20
967.4939822260251
 30
0.0
 40
2.066987298107819
  0
LINE
  5
2E31
330
1F
100
AcDbEntity
  8
AM_7
  6
AM_ISO08W050x2
100
AcDbLine
 10
2217.038809012946
 20
967.4939822260251
 30
0.0
 11
2226.038809012945
 21
967.4939822260251
 31
0.0
  0
LINE
  5
2E32
330
1F
100
AcDbEntity
  8
AM_7
  6
AM_ISO08W050x2
100
AcDbLine
 10
2221.538809012946
 20
962.9939822260251
 30
0.0
 11
2221.538809012946
 21
971.9939822260251
 31
0.0
  0
ARC
  5
2E33
330
1F
100
AcDbEntity
  8
AM_4
100
AcDbCircle
 10
2237.538809012946
 20
967.4939822260251
 30
0.0
 40
2.5
100
AcDbArc
 50
260.0
 51
170.0
  0
CIRCLE
  5
2E34
330
1F
100
AcDbEntity
  8
AM_0
100
AcDbCircle
 10
2237.538809012946
 20
967.4939822260251
 30
0.0
 40
2.066987298107819
  0
LINE
  5
2E35
330
1F
100
AcDbEntity
  8
AM_7
  6
AM_ISO08W050x2
100
AcDbLine
 10
2233.038809012946
 20
967.4939822260251
 30
0.0
 11
2242.038809012945
 21
967.4939822260251
 31
0.0
  0
LINE
  5
2E36
330
1F
100
AcDbEntity
  8
AM_7
  6
AM_ISO08W050x2
100
AcDbLine
 10
2237.538809012946
 20
962.9939822260251
 30
0.0
 11
2237.538809012946
 21
971.9939822260251
 31
0.0
  0
ARC
  5
2E37
330
1F
100
AcDbEntity
  8
AM_4
100
AcDbCircle
 10
2221.538809012946
 20
1019.493982226025
 30
0.0
 40
2.5
100
AcDbArc
 50
260.0
 51
170.0
  0
CIRCLE
  5
2E38
330
1F
100
AcDbEntity
  8
AM_0
100
AcDbCircle
 10
2221.538809012946
 20
1019.493982226025
 30
0.0
 40
2.066987298107819
  0
LINE
  5
2E39
330
1F
100
AcDbEntity
  8
AM_7
  6
AM_ISO08W050x2
100
AcDbLine
 10
2217.038809012946
 20
1019.493982226025
 30
0.0
 11
2226.038809012945
 21
1019.493982226025
 31
0.0
  0
LINE
  5
2E3A
330
1F
100
AcDbEntity
  8
AM_7
  6
AM_ISO08W050x2
100
AcDbLine
 10
2221.538809012946
 20
1014.993982226025
 30
0.0
 11
2221.538809012946
 21
1023.993982226025
 31
0.0
  0
ARC
  5
2E3B
330
1F
100
AcDbEntity
  8
AM_4
100
AcDbCircle
 10
2237.538809012946
 20
1019.493982226025
 30
0.0
 40
2.5
100
AcDbArc
 50
260.0
 51
170.0
  0
CIRCLE
  5
2E3C
330
1F
100
AcDbEntity
  8
AM_0
100
AcDbCircle
 10
2237.538809012946
 20
1019.493982226025
 30
0.0
 40
2.066987298107819
  0
LINE
  5
2E3D
330
1F
100
AcDbEntity
  8
AM_7
  6
AM_ISO08W050x2
100
AcDbLine
 10
2233.038809012946
 20
1019.493982226025
 30
0.0
 11
2242.038809012945
 21
1019.493982226025
 31
0.0
  0
LINE
  5
2E3E
330
1F
100
AcDbEntity
  8
AM_7
  6
AM_ISO08W050x2
100
AcDbLine
 10
2237.538809012946
 20
1014.993982226025
 30
0.0
 11
2237.538809012946
 21
1023.993982226025
 31
0.0
  0
LINE
  5
2E3F
330
1F
100
AcDbEntity
  8
AM_7
  6
AM_ISO08W050x2
100
AcDbLine
 10
2082.624662568985
 20
1154.69111275673
 30
0.0
 11
2086.774662568984
 21
1154.69111275673
 31
0.0
1001
GENIUS_GENOREF_13
1005
2EE0
  0
LINE
  5
2E40
330
1F
100
AcDbEntity
  8
AM_7
  6
AM_ISO08W050x2
100
AcDbLine
 10
2082.624662568985
 20
1154.69111275673
 30
0.0
 11
2082.624662568985
 21
1158.84111275673
 31
0.0
1001
GENIUS_GENOREF_13
1005
2EE0
  0
LINE
  5
2E41
330
1F
100
AcDbEntity
  8
AM_7
  6
AM_ISO08W050x2
100
AcDbLine
 10
2082.624662568985
 20
1154.69111275673
 30
0.0
 11
2078.474662568984
 21
1154.69111275673
 31
0.0
1001
GENIUS_GENOREF_13
1005
2EE0
  0
LINE
  5
2E42
330
1F
100
AcDbEntity
  8
AM_7
  6
AM_ISO08W050x2
100
AcDbLine
 10
2082.624662568985
 20
1154.69111275673
 30
0.0
 11
2082.624662568985
 21
1150.54111275673
 31
0.0
1001
GENIUS_GENOREF_13
1005
2EE0
  0
LINE
  5
2E43
330
1F
100
AcDbEntity
  8
AM_7
  6
AM_ISO08W050x2
100
AcDbLine
 10
2082.624662568985
 20
1130.69111275673
 30
0.0
 11
2086.774662568984
 21
1130.69111275673
 31
0.0
1001
GENIUS_GENOREF_13
1005
2EDF
  0
LINE
  5
2E44
330
1F
100
AcDbEntity
  8
AM_7
  6
AM_ISO08W050x2
100
AcDbLine
 10
2082.624662568985
 20
1130.69111275673
 30
0.0
 11
2082.624662568985
 21
1134.84111275673
 31
0.0
1001
GENIUS_GENOREF_13
1005
2EDF
  0
LINE
  5
2E45
330
1F
100
AcDbEntity
  8
AM_7
  6
AM_ISO08W050x2
100
AcDbLine
 10
2082.624662568985
 20
1130.69111275673
 30
0.0
 11
2078.474662568984
 21
1130.69111275673
 31
0.0
1001
GENIUS_GENOREF_13
1005
2EDF
  0
LINE
  5
2E46
330
1F
100
AcDbEntity
  8
AM_7
  6
AM_ISO08W050x2
100
AcDbLine
 10
2082.624662568985
 20
1130.69111275673
 30
0.0
 11
2082.624662568985
 21
1126.54111275673
 31
0.0
1001
GENIUS_GENOREF_13
1005
2EDF
  0
LINE
  5
2E47
330
1F
100
AcDbEntity
  8
AM_7
  6
AM_ISO08W050x2
100
AcDbLine
 10
2112.624662568984
 20
1130.69111275673
 30
0.0
 11
2116.774662568984
 21
1130.69111275673
 31
0.0
1001
GENIUS_GENOREF_13
1005
2EDE
  0
LINE
  5
2E48
330
1F
100
AcDbEntity
  8
AM_7
  6
AM_ISO08W050x2
100
AcDbLine
 10
2112.624662568984
 20
1130.69111275673
 30
0.0
 11
2112.624662568984
 21
1134.84111275673
 31
0.0
1001
GENIUS_GENOREF_13
1005
2EDE
  0
LINE
  5
2E49
330
1F
100
AcDbEntity
  8
AM_7
  6
AM_ISO08W050x2
100
AcDbLine
 10
2112.624662568984
 20
1130.69111275673
 30
0.0
 11
2108.474662568984
 21
1130.69111275673
 31
0.0
1001
GENIUS_GENOREF_13
1005
2EDE
  0
LINE
  5
2E4A
330
1F
100
AcDbEntity
  8
AM_7
  6
AM_ISO08W050x2
100
AcDbLine
 10
2112.624662568984
 20
1130.69111275673
 30
0.0
 11
2112.624662568984
 21
1126.54111275673
 31
0.0
1001
GENIUS_GENOREF_13
1005
2EDE
  0
LINE
  5
2E4B
330
1F
100
AcDbEntity
  8
AM_7
  6
AM_ISO08W050x2
100
AcDbLine
 10
2112.624662568984
 20
1154.69111275673
 30
0.0
 11
2116.774662568984
 21
1154.69111275673
 31
0.0
1001
GENIUS_GENOREF_13
1005
2EDD
  0
LINE
  5
2E4C
330
1F
100
AcDbEntity
  8
AM_7
  6
AM_ISO08W050x2
100
AcDbLine
 10
2112.624662568984
 20
1154.69111275673
 30
0.0
 11
2112.624662568984
 21
1158.84111275673
 31
0.0
1001
GENIUS_GENOREF_13
1005
2EDD
  0
LINE
  5
2E4D
330
1F
100
AcDbEntity
  8
AM_7
  6
AM_ISO08W050x2
100
AcDbLine
 10
2112.624662568984
 20
1154.69111275673
 30
0.0
 11
2108.474662568984
 21
1154.69111275673
 31
0.0
1001
GENIUS_GENOREF_13
1005
2EDD
  0
LINE
  5
2E4E
330
1F
100
AcDbEntity
  8
AM_7
  6
AM_ISO08W050x2
100
AcDbLine
 10
2112.624662568984
 20
1154.69111275673
 30
0.0
 11
2112.624662568984
 21
1150.54111275673
 31
0.0
1001
GENIUS_GENOREF_13
1005
2EDD
  0
ARC
  5
2E4F
330
1F
100
AcDbEntity
  8
AM_4
100
AcDbCircle
 10
2082.624662568985
 20
1154.69111275673
 30
0.0
 40
2.5
100
AcDbArc
 50
260.0
 51
170.0
  0
CIRCLE
  5
2E50
330
1F
100
AcDbEntity
  8
AM_0
100
AcDbCircle
 10
2082.624662568985
 20
1154.69111275673
 30
0.0
 40
2.066987298107819
  0
ARC
  5
2E51
330
1F
100
AcDbEntity
  8
AM_4
100
AcDbCircle
 10
2112.624662568984
 20
1154.69111275673
 30
0.0
 40
2.5
100
AcDbArc
 50
260.0
 51
170.0
  0
CIRCLE
  5
2E52
330
1F
100
AcDbEntity
  8
AM_0
100
AcDbCircle
 10
2112.624662568984
 20
1154.69111275673
 30
0.0
 40
2.066987298107819
  0
ARC
  5
2E53
330
1F
100
AcDbEntity
  8
AM_4
100
AcDbCircle
 10
2112.624662568984
 20
1130.69111275673
 30
0.0
 40
2.5
100
AcDbArc
 50
260.0
 51
170.0
  0
CIRCLE
  5
2E54
330
1F
100
AcDbEntity
  8
AM_0
100
AcDbCircle
 10
2112.624662568984
 20
1130.69111275673
 30
0.0
 40
2.066987298107819
  0
ARC
  5
2E55
330
1F
100
AcDbEntity
  8
AM_4
100
AcDbCircle
 10
2082.624662568985
 20
1130.69111275673
 30
0.0
 40
2.5
100
AcDbArc
 50
260.0
 51
170.0
  0
CIRCLE
  5
2E56
330
1F
100
AcDbEntity
  8
AM_0
100
AcDbCircle
 10
2082.624662568985
 20
1130.69111275673
 30
0.0
 40
2.066987298107819
  0
LINE
  5
2E57
330
1F
100
AcDbEntity
  8
AM_7
  6
AM_ISO08W050x2
100
AcDbLine
 10
2078.624662568985
 20
1115.69111275673
 30
0.0
 11
2082.774662568985
 21
1115.69111275673
 31
0.0
1001
GENIUS_GENOREF_13
1005
2EDC
  0
LINE
  5
2E58
330
1F
100
AcDbEntity
  8
AM_7
  6
AM_ISO08W050x2
100
AcDbLine
 10
2078.624662568985
 20
1115.69111275673
 30
0.0
 11
2078.624662568985
 21
1119.84111275673
 31
0.0
1001
GENIUS_GENOREF_13
1005
2EDC
  0
LINE
  5
2E59
330
1F
100
AcDbEntity
  8
AM_7
  6
AM_ISO08W050x2
100
AcDbLine
 10
2078.624662568985
 20
1115.69111275673
 30
0.0
 11
2074.474662568984
 21
1115.69111275673
 31
0.0
1001
GENIUS_GENOREF_13
1005
2EDC
  0
LINE
  5
2E5A
330
1F
100
AcDbEntity
  8
AM_7
  6
AM_ISO08W050x2
100
AcDbLine
 10
2078.624662568985
 20
1115.69111275673
 30
0.0
 11
2078.624662568985
 21
1111.54111275673
 31
0.0
1001
GENIUS_GENOREF_13
1005
2EDC
  0
ARC
  5
2E5B
330
1F
100
AcDbEntity
  8
AM_4
100
AcDbCircle
 10
2078.624662568985
 20
1115.69111275673
 30
0.0
 40
2.5
100
AcDbArc
 50
260.0
 51
170.0
  0
CIRCLE
  5
2E5C
330
1F
100
AcDbEntity
  8
AM_0
100
AcDbCircle
 10
2078.624662568985
 20
1115.69111275673
 30
0.0
 40
2.066987298107819
  0
LINE
  5
2E5D
330
1F
100
AcDbEntity
  8
AM_7
  6
AM_ISO08W050x2
100
AcDbLine
 10
2116.624662568985
 20
1115.69111275673
 30
0.0
 11
2120.774662568984
 21
1115.69111275673
 31
0.0
1001
GENIUS_GENOREF_13
1005
2EDB
  0
LINE
  5
2E5E
330
1F
100
AcDbEntity
  8
AM_7
  6
AM_ISO08W050x2
100
AcDbLine
 10
2116.624662568985
 20
1115.69111275673
 30
0.0
 11
2116.624662568985
 21
1119.84111275673
 31
0.0
1001
GENIUS_GENOREF_13
1005
2EDB
  0
LINE
  5
2E5F
330
1F
100
AcDbEntity
  8
AM_7
  6
AM_ISO08W050x2
100
AcDbLine
 10
2116.624662568985
 20
1115.69111275673
 30
0.0
 11
2112.474662568984
 21
1115.69111275673
 31
0.0
1001
GENIUS_GENOREF_13
1005
2EDB
  0
LINE
  5
2E60
330
1F
100
AcDbEntity
  8
AM_7
  6
AM_ISO08W050x2
100
AcDbLine
 10
2116.624662568985
 20
1115.69111275673
 30
0.0
 11
2116.624662568985
 21
1111.54111275673
 31
0.0
1001
GENIUS_GENOREF_13
1005
2EDB
  0
ARC
  5
2E61
330
1F
100
AcDbEntity
  8
AM_4
100
AcDbCircle
 10
2116.624662568985
 20
1115.69111275673
 30
0.0
 40
2.5
100
AcDbArc
 50
260.0
 51
170.0
  0
CIRCLE
  5
2E62
330
1F
100
AcDbEntity
  8
AM_0
100
AcDbCircle
 10
2116.624662568985
 20
1115.69111275673
 30
0.0
 40
2.066987298107819
  0
LINE
  5
2E63
330
1F
100
AcDbEntity
  8
AM_7
  6
AM_ISO08W050x2
100
AcDbLine
 10
2116.624662568985
 20
1169.69111275673
 30
0.0
 11
2120.774662568984
 21
1169.69111275673
 31
0.0
1001
GENIUS_GENOREF_13
1005
2EDA
  0
LINE
  5
2E64
330
1F
100
AcDbEntity
  8
AM_7
  6
AM_ISO08W050x2
100
AcDbLine
 10
2116.624662568985
 20
1169.69111275673
 30
0.0
 11
2116.624662568985
 21
1173.84111275673
 31
0.0
1001
GENIUS_GENOREF_13
1005
2EDA
  0
LINE
  5
2E65
330
1F
100
AcDbEntity
  8
AM_7
  6
AM_ISO08W050x2
100
AcDbLine
 10
2116.624662568985
 20
1169.69111275673
 30
0.0
 11
2112.474662568984
 21
1169.69111275673
 31
0.0
1001
GENIUS_GENOREF_13
1005
2EDA
  0
LINE
  5
2E66
330
1F
100
AcDbEntity
  8
AM_7
  6
AM_ISO08W050x2
100
AcDbLine
 10
2116.624662568985
 20
1169.69111275673
 30
0.0
 11
2116.624662568985
 21
1165.54111275673
 31
0.0
1001
GENIUS_GENOREF_13
1005
2EDA
  0
ARC
  5
2E67
330
1F
100
AcDbEntity
  8
AM_4
100
AcDbCircle
 10
2116.624662568985
 20
1169.69111275673
 30
0.0
 40
2.5
100
AcDbArc
 50
260.0
 51
170.0
  0
CIRCLE
  5
2E68
330
1F
100
AcDbEntity
  8
AM_0
100
AcDbCircle
 10
2116.624662568985
 20
1169.69111275673
 30
0.0
 40
2.066987298107819
  0
LINE
  5
2E69
330
1F
100
AcDbEntity
  8
AM_7
  6
AM_ISO08W050x2
100
AcDbLine
 10
2078.624662568985
 20
1169.69111275673
 30
0.0
 11
2082.774662568985
 21
1169.69111275673
 31
0.0
1001
GENIUS_GENOREF_13
1005
2ED9
  0
LINE
  5
2E6A
330
1F
100
AcDbEntity
  8
AM_7
  6
AM_ISO08W050x2
100
AcDbLine
 10
2078.624662568985
 20
1169.69111275673
 30
0.0
 11
2078.624662568985
 21
1173.84111275673
 31
0.0
1001
GENIUS_GENOREF_13
1005
2ED9
  0
LINE
  5
2E6B
330
1F
100
AcDbEntity
  8
AM_7
  6
AM_ISO08W050x2
100
AcDbLine
 10
2078.624662568985
 20
1169.69111275673
 30
0.0
 11
2074.474662568984
 21
1169.69111275673
 31
0.0
1001
GENIUS_GENOREF_13
1005
2ED9
  0
LINE
  5
2E6C
330
1F
100
AcDbEntity
  8
AM_7
  6
AM_ISO08W050x2
100
AcDbLine
 10
2078.624662568985
 20
1169.69111275673
 30
0.0
 11
2078.624662568985
 21
1165.54111275673
 31
0.0
1001
GENIUS_GENOREF_13
1005
2ED9
  0
ARC
  5
2E6D
330
1F
100
AcDbEntity
  8
AM_4
100
AcDbCircle
 10
2078.624662568985
 20
1169.69111275673
 30
0.0
 40
2.5
100
AcDbArc
 50
260.0
 51
170.0
  0
CIRCLE
  5
2E6E
330
1F
100
AcDbEntity
  8
AM_0
100
AcDbCircle
 10
2078.624662568985
 20
1169.69111275673
 30
0.0
 40
2.066987298107819
  0
LINE
  5
2E6F
330
1F
100
AcDbEntity
  8
AM_7
  6
AM_ISO08W050x2
100
AcDbLine
 10
2097.624662568985
 20
1169.69111275673
 30
0.0
 11
2102.124662568985
 21
1169.69111275673
 31
0.0
1001
GENIUS_GENOREF_13
1005
2ED8
  0
LINE
  5
2E70
330
1F
100
AcDbEntity
  8
AM_7
  6
AM_ISO08W050x2
100
AcDbLine
 10
2097.624662568985
 20
1169.69111275673
 30
0.0
 11
2097.624662568985
 21
1174.19111275673
 31
0.0
1001
GENIUS_GENOREF_13
1005
2ED8
  0
LINE
  5
2E71
330
1F
100
AcDbEntity
  8
AM_7
  6
AM_ISO08W050x2
100
AcDbLine
 10
2097.624662568985
 20
1169.69111275673
 30
0.0
 11
2093.124662568985
 21
1169.69111275673
 31
0.0
1001
GENIUS_GENOREF_13
1005
2ED8
  0
LINE
  5
2E72
330
1F
100
AcDbEntity
  8
AM_7
  6
AM_ISO08W050x2
100
AcDbLine
 10
2097.624662568985
 20
1169.69111275673
 30
0.0
 11
2097.624662568985
 21
1165.19111275673
 31
0.0
1001
GENIUS_GENOREF_13
1005
2ED8
  0
LINE
  5
2E73
330
1F
100
AcDbEntity
  8
AM_7
  6
AM_ISO08W050x2
100
AcDbLine
 10
2097.624662568985
 20
1115.69111275673
 30
0.0
 11
2102.124662568985
 21
1115.69111275673
 31
0.0
1001
GENIUS_GENOREF_13
1005
2ED7
  0
LINE
  5
2E74
330
1F
100
AcDbEntity
  8
AM_7
  6
AM_ISO08W050x2
100
AcDbLine
 10
2097.624662568985
 20
1115.69111275673
 30
0.0
 11
2097.624662568985
 21
1120.19111275673
 31
0.0
1001
GENIUS_GENOREF_13
1005
2ED7
  0
LINE
  5
2E75
330
1F
100
AcDbEntity
  8
AM_7
  6
AM_ISO08W050x2
100
AcDbLine
 10
2097.624662568985
 20
1115.69111275673
 30
0.0
 11
2093.124662568985
 21
1115.69111275673
 31
0.0
1001
GENIUS_GENOREF_13
1005
2ED7
  0
LINE
  5
2E76
330
1F
100
AcDbEntity
  8
AM_7
  6
AM_ISO08W050x2
100
AcDbLine
 10
2097.624662568985
 20
1115.69111275673
 30
0.0
 11
2097.624662568985
 21
1111.19111275673
 31
0.0
1001
GENIUS_GENOREF_13
1005
2ED7
  0
LINE
  5
2E77
330
1F
100
AcDbEntity
  8
AM_7
  6
AM_ISO08W050x2
100
AcDbLine
 10
2167.624662568985
 20
1158.69111275673
 30
0.0
 11
2173.624662568985
 21
1158.69111275673
 31
0.0
1001
GENIUS_GENOREF_13
1005
2ED6
  0
LINE
  5
2E78
330
1F
100
AcDbEntity
  8
AM_7
  6
AM_ISO08W050x2
100
AcDbLine
 10
2167.624662568985
 20
1158.69111275673
 30
0.0
 11
2167.624662568985
 21
1164.69111275673
 31
0.0
1001
GENIUS_GENOREF_13
1005
2ED6
  0
LINE
  5
2E79
330
1F
100
AcDbEntity
  8
AM_7
  6
AM_ISO08W050x2
100
AcDbLine
 10
2167.624662568985
 20
1158.69111275673
 30
0.0
 11
2161.624662568985
 21
1158.69111275673
 31
0.0
1001
GENIUS_GENOREF_13
1005
2ED6
  0
LINE
  5
2E7A
330
1F
100
AcDbEntity
  8
AM_7
  6
AM_ISO08W050x2
100
AcDbLine
 10
2167.624662568985
 20
1158.69111275673
 30
0.0
 11
2167.624662568985
 21
1152.69111275673
 31
0.0
1001
GENIUS_GENOREF_13
1005
2ED6
  0
LINE
  5
2E7B
330
1F
100
AcDbEntity
  8
AM_7
  6
AM_ISO08W050x2
100
AcDbLine
 10
2167.624662568985
 20
1126.69111275673
 30
0.0
 11
2173.624662568985
 21
1126.69111275673
 31
0.0
1001
GENIUS_GENOREF_13
1005
2ED5
  0
LINE
  5
2E7C
330
1F
100
AcDbEntity
  8
AM_7
  6
AM_ISO08W050x2
100
AcDbLine
 10
2167.624662568985
 20
1126.69111275673
 30
0.0
 11
2167.624662568985
 21
1132.69111275673
 31
0.0
1001
GENIUS_GENOREF_13
1005
2ED5
  0
LINE
  5
2E7D
330
1F
100
AcDbEntity
  8
AM_7
  6
AM_ISO08W050x2
100
AcDbLine
 10
2167.624662568985
 20
1126.69111275673
 30
0.0
 11
2161.624662568985
 21
1126.69111275673
 31
0.0
1001
GENIUS_GENOREF_13
1005
2ED5
  0
LINE
  5
2E7E
330
1F
100
AcDbEntity
  8
AM_7
  6
AM_ISO08W050x2
100
AcDbLine
 10
2167.624662568985
 20
1126.69111275673
 30
0.0
 11
2167.624662568985
 21
1120.69111275673
 31
0.0
1001
GENIUS_GENOREF_13
1005
2ED5
  0
LINE
  5
2E7F
330
1F
100
AcDbEntity
  8
AM_7
  6
AM_ISO08W050x2
100
AcDbLine
 10
2057.624662568985
 20
1158.69111275673
 30
0.0
 11
2063.624662568985
 21
1158.69111275673
 31
0.0
1001
GENIUS_GENOREF_13
1005
2ED4
  0
LINE
  5
2E80
330
1F
100
AcDbEntity
  8
AM_7
  6
AM_ISO08W050x2
100
AcDbLine
 10
2057.624662568985
 20
1158.69111275673
 30
0.0
 11
2057.624662568985
 21
1164.69111275673
 31
0.0
1001
GENIUS_GENOREF_13
1005
2ED4
  0
LINE
  5
2E81
330
1F
100
AcDbEntity
  8
AM_7
  6
AM_ISO08W050x2
100
AcDbLine
 10
2057.624662568985
 20
1158.69111275673
 30
0.0
 11
2051.624662568984
 21
1158.69111275673
 31
0.0
1001
GENIUS_GENOREF_13
1005
2ED4
  0
LINE
  5
2E82
330
1F
100
AcDbEntity
  8
AM_7
  6
AM_ISO08W050x2
100
AcDbLine
 10
2057.624662568985
 20
1158.69111275673
 30
0.0
 11
2057.624662568985
 21
1152.69111275673
 31
0.0
1001
GENIUS_GENOREF_13
1005
2ED4
  0
LINE
  5
2E83
330
1F
100
AcDbEntity
  8
AM_7
  6
AM_ISO08W050x2
100
AcDbLine
 10
2057.624662568985
 20
1126.69111275673
 30
0.0
 11
2063.624662568985
 21
1126.69111275673
 31
0.0
1001
GENIUS_GENOREF_13
1005
2ED3
  0
LINE
  5
2E84
330
1F
100
AcDbEntity
  8
AM_7
  6
AM_ISO08W050x2
100
AcDbLine
 10
2057.624662568985
 20
1126.69111275673
 30
0.0
 11
2057.624662568985
 21
1132.69111275673
 31
0.0
1001
GENIUS_GENOREF_13
1005
2ED3
  0
LINE
  5
2E85
330
1F
100
AcDbEntity
  8
AM_7
  6
AM_ISO08W050x2
100
AcDbLine
 10
2057.624662568985
 20
1126.69111275673
 30
0.0
 11
2051.624662568984
 21
1126.69111275673
 31
0.0
1001
GENIUS_GENOREF_13
1005
2ED3
  0
LINE
  5
2E86
330
1F
100
AcDbEntity
  8
AM_7
  6
AM_ISO08W050x2
100
AcDbLine
 10
2057.624662568985
 20
1126.69111275673
 30
0.0
 11
2057.624662568985
 21
1120.69111275673
 31
0.0
1001
GENIUS_GENOREF_13
1005
2ED3
  0
LINE
  5
2E87
330
1F
100
AcDbEntity
  8
AM_7
  6
AM_ISO08W050x2
100
AcDbLine
 10
2167.624662568985
 20
1009.493982226025
 30
0.0
 11
2171.874662568985
 21
1009.493982226025
 31
0.0
1001
GENIUS_GENOREF_13
1005
2ED2
  0
LINE
  5
2E88
330
1F
100
AcDbEntity
  8
AM_7
  6
AM_ISO08W050x2
100
AcDbLine
 10
2167.624662568985
 20
1009.493982226025
 30
0.0
 11
2167.624662568985
 21
1013.743982226025
 31
0.0
1001
GENIUS_GENOREF_13
1005
2ED2
  0
LINE
  5
2E89
330
1F
100
AcDbEntity
  8
AM_7
  6
AM_ISO08W050x2
100
AcDbLine
 10
2167.624662568985
 20
1009.493982226025
 30
0.0
 11
2163.374662568985
 21
1009.493982226025
 31
0.0
1001
GENIUS_GENOREF_13
1005
2ED2
  0
LINE
  5
2E8A
330
1F
100
AcDbEntity
  8
AM_7
  6
AM_ISO08W050x2
100
AcDbLine
 10
2167.624662568985
 20
1009.493982226025
 30
0.0
 11
2167.624662568985
 21
1005.243982226025
 31
0.0
1001
GENIUS_GENOREF_13
1005
2ED2
  0
LINE
  5
2E8B
330
1F
100
AcDbEntity
  8
AM_7
  6
AM_ISO08W050x2
100
AcDbLine
 10
2167.624662568985
 20
1018.493982226025
 30
0.0
 11
2172.124662568985
 21
1018.493982226025
 31
0.0
1001
GENIUS_GENOREF_13
1005
2ED1
  0
LINE
  5
2E8C
330
1F
100
AcDbEntity
  8
AM_7
  6
AM_ISO08W050x2
100
AcDbLine
 10
2167.624662568985
 20
1018.493982226025
 30
0.0
 11
2167.624662568985
 21
1022.993982226025
 31
0.0
1001
GENIUS_GENOREF_13
1005
2ED1
  0
LINE
  5
2E8D
330
1F
100
AcDbEntity
  8
AM_7
  6
AM_ISO08W050x2
100
AcDbLine
 10
2167.624662568985
 20
1018.493982226025
 30
0.0
 11
2163.124662568985
 21
1018.493982226025
 31
0.0
1001
GENIUS_GENOREF_13
1005
2ED1
  0
LINE
  5
2E8E
330
1F
100
AcDbEntity
  8
AM_7
  6
AM_ISO08W050x2
100
AcDbLine
 10
2167.624662568985
 20
1018.493982226025
 30
0.0
 11
2167.624662568985
 21
1013.993982226025
 31
0.0
1001
GENIUS_GENOREF_13
1005
2ED1
  0
LINE
  5
2E8F
330
1F
100
AcDbEntity
  8
AM_7
  6
AM_ISO08W050x2
100
AcDbLine
 10
2167.624662568985
 20
977.493982226025
 30
0.0
 11
2171.874662568985
 21
977.493982226025
 31
0.0
1001
GENIUS_GENOREF_13
1005
2ED0
  0
LINE
  5
2E90
330
1F
100
AcDbEntity
  8
AM_7
  6
AM_ISO08W050x2
100
AcDbLine
 10
2167.624662568985
 20
977.493982226025
 30
0.0
 11
2167.624662568985
 21
981.7439822260251
 31
0.0
1001
GENIUS_GENOREF_13
1005
2ED0
  0
LINE
  5
2E91
330
1F
100
AcDbEntity
  8
AM_7
  6
AM_ISO08W050x2
100
AcDbLine
 10
2167.624662568985
 20
977.493982226025
 30
0.0
 11
2163.374662568985
 21
977.493982226025
 31
0.0
1001
GENIUS_GENOREF_13
1005
2ED0
  0
LINE
  5
2E92
330
1F
100
AcDbEntity
  8
AM_7
  6
AM_ISO08W050x2
100
AcDbLine
 10
2167.624662568985
 20
977.493982226025
 30
0.0
 11
2167.624662568985
 21
973.243982226025
 31
0.0
1001
GENIUS_GENOREF_13
1005
2ED0
  0
LINE
  5
2E93
330
1F
100
AcDbEntity
  8
AM_7
  6
AM_ISO08W050x2
100
AcDbLine
 10
2167.624662568985
 20
968.493982226025
 30
0.0
 11
2172.124662568985
 21
968.493982226025
 31
0.0
1001
GENIUS_GENOREF_13
1005
2ECF
  0
LINE
  5
2E94
330
1F
100
AcDbEntity
  8
AM_7
  6
AM_ISO08W050x2
100
AcDbLine
 10
2167.624662568985
 20
968.493982226025
 30
0.0
 11
2167.624662568985
 21
972.993982226025
 31
0.0
1001
GENIUS_GENOREF_13
1005
2ECF
  0
LINE
  5
2E95
330
1F
100
AcDbEntity
  8
AM_7
  6
AM_ISO08W050x2
100
AcDbLine
 10
2167.624662568985
 20
968.493982226025
 30
0.0
 11
2163.124662568985
 21
968.493982226025
 31
0.0
1001
GENIUS_GENOREF_13
1005
2ECF
  0
LINE
  5
2E96
330
1F
100
AcDbEntity
  8
AM_7
  6
AM_ISO08W050x2
100
AcDbLine
 10
2167.624662568985
 20
968.493982226025
 30
0.0
 11
2167.624662568985
 21
963.9939822260251
 31
0.0
1001
GENIUS_GENOREF_13
1005
2ECF
  0
LINE
  5
2E97
330
1F
100
AcDbEntity
  8
AM_7
  6
AM_ISO08W050x2
100
AcDbLine
 10
2057.624662568985
 20
968.493982226025
 30
0.0
 11
2062.124662568985
 21
968.493982226025
 31
0.0
1001
GENIUS_GENOREF_13
1005
2ECE
  0
LINE
  5
2E98
330
1F
100
AcDbEntity
  8
AM_7
  6
AM_ISO08W050x2
100
AcDbLine
 10
2057.624662568985
 20
968.493982226025
 30
0.0
 11
2057.624662568985
 21
972.993982226025
 31
0.0
1001
GENIUS_GENOREF_13
1005
2ECE
  0
LINE
  5
2E99
330
1F
100
AcDbEntity
  8
AM_7
  6
AM_ISO08W050x2
100
AcDbLine
 10
2057.624662568985
 20
968.493982226025
 30
0.0
 11
2053.124662568984
 21
968.493982226025
 31
0.0
1001
GENIUS_GENOREF_13
1005
2ECE
  0
LINE
  5
2E9A
330
1F
100
AcDbEntity
  8
AM_7
  6
AM_ISO08W050x2
100
AcDbLine
 10
2057.624662568985
 20
968.493982226025
 30
0.0
 11
2057.624662568985
 21
963.9939822260251
 31
0.0
1001
GENIUS_GENOREF_13
1005
2ECE
  0
LINE
  5
2E9B
330
1F
100
AcDbEntity
  8
AM_7
  6
AM_ISO08W050x2
100
AcDbLine
 10
2057.624662568985
 20
977.493982226025
 30
0.0
 11
2061.874662568985
 21
977.493982226025
 31
0.0
1001
GENIUS_GENOREF_13
1005
2ECD
  0
LINE
  5
2E9C
330
1F
100
AcDbEntity
  8
AM_7
  6
AM_ISO08W050x2
100
AcDbLine
 10
2057.624662568985
 20
977.493982226025
 30
0.0
 11
2057.624662568985
 21
981.7439822260251
 31
0.0
1001
GENIUS_GENOREF_13
1005
2ECD
  0
LINE
  5
2E9D
330
1F
100
AcDbEntity
  8
AM_7
  6
AM_ISO08W050x2
100
AcDbLine
 10
2057.624662568985
 20
977.493982226025
 30
0.0
 11
2053.374662568985
 21
977.493982226025
 31
0.0
1001
GENIUS_GENOREF_13
1005
2ECD
  0
LINE
  5
2E9E
330
1F
100
AcDbEntity
  8
AM_7
  6
AM_ISO08W050x2
100
AcDbLine
 10
2057.624662568985
 20
977.493982226025
 30
0.0
 11
2057.624662568985
 21
973.243982226025
 31
0.0
1001
GENIUS_GENOREF_13
1005
2ECD
  0
LINE
  5
2E9F
330
1F
100
AcDbEntity
  8
AM_7
  6
AM_ISO08W050x2
100
AcDbLine
 10
2057.624662568985
 20
1009.493982226025
 30
0.0
 11
2061.874662568985
 21
1009.493982226025
 31
0.0
1001
GENIUS_GENOREF_13
1005
2ECC
  0
LINE
  5
2EA0
330
1F
100
AcDbEntity
  8
AM_7
  6
AM_ISO08W050x2
100
AcDbLine
 10
2057.624662568985
 20
1009.493982226025
 30
0.0
 11
2057.624662568985
 21
1013.743982226025
 31
0.0
1001
GENIUS_GENOREF_13
1005
2ECC
  0
LINE
  5
2EA1
330
1F
100
AcDbEntity
  8
AM_7
  6
AM_ISO08W050x2
100
AcDbLine
 10
2057.624662568985
 20
1009.493982226025
 30
0.0
 11
2053.374662568985
 21
1009.493982226025
 31
0.0
1001
GENIUS_GENOREF_13
1005
2ECC
  0
LINE
  5
2EA2
330
1F
100
AcDbEntity
  8
AM_7
  6
AM_ISO08W050x2
100
AcDbLine
 10
2057.624662568985
 20
1009.493982226025
 30
0.0
 11
2057.624662568985
 21
1005.243982226025
 31
0.0
1001
GENIUS_GENOREF_13
1005
2ECC
  0
LINE
  5
2EA3
330
1F
100
AcDbEntity
  8
AM_7
  6
AM_ISO08W050x2
100
AcDbLine
 10
2057.624662568985
 20
1018.493982226025
 30
0.0
 11
2062.124662568985
 21
1018.493982226025
 31
0.0
1001
GENIUS_GENOREF_13
1005
2ECB
  0
LINE
  5
2EA4
330
1F
100
AcDbEntity
  8
AM_7
  6
AM_ISO08W050x2
100
AcDbLine
 10
2057.624662568985
 20
1018.493982226025
 30
0.0
 11
2057.624662568985
 21
1022.993982226025
 31
0.0
1001
GENIUS_GENOREF_13
1005
2ECB
  0
LINE
  5
2EA5
330
1F
100
AcDbEntity
  8
AM_7
  6
AM_ISO08W050x2
100
AcDbLine
 10
2057.624662568985
 20
1018.493982226025
 30
0.0
 11
2053.124662568984
 21
1018.493982226025
 31
0.0
1001
GENIUS_GENOREF_13
1005
2ECB
  0
LINE
  5
2EA6
330
1F
100
AcDbEntity
  8
AM_7
  6
AM_ISO08W050x2
100
AcDbLine
 10
2057.624662568985
 20
1018.493982226025
 30
0.0
 11
2057.624662568985
 21
1013.993982226025
 31
0.0
1001
GENIUS_GENOREF_13
1005
2ECB
  0
DIMENSION
  5
2EA7
330
1F
100
AcDbEntity
  8
AM_5
100
AcDbDimension
  2
*D11
 10
2173.624662568985
 20
941.4939822260249
 30
0.0
 11
2112.624662568984
 21
943.9942775016156
 31
0.0
 70
    32
  1
62+2xstroke
 71
     5
 42
122.0
  3
AM_ISO
100
AcDbAlignedDimension
 13
2051.624662568984
 23
961.493982226025
 33
0.0
 14
2173.624662568985
 24
961.493982226025
 34
0.0
100
AcDbRotatedDimension
  0
TEXT
  5
2EAA
330
1F
100
AcDbEntity
  8
AM_5
100
AcDbText
 10
2129.014689426705
 20
932.9108528769562
 30
0.0
 40
3.0
  1
2-M5
 41
0.8
100
AcDbText
  0
INSERT
  5
2EAB
330
1F
100
AcDbEntity
  8
AM_5
100
AcDbBlockReference
  2
*S24
 10
0.0
 20
0.0
 30
0.0
  0
DIMENSION
  5
2EAC
330
1F
100
AcDbEntity
  8
AM_5
100
AcDbDimension
  2
*D12
 10
2243.538809012946
 20
949.4939822260251
 30
0.0
 11
2228.538809012945
 21
951.9939822260251
 31
0.0
 70
    32
 71
     5
 42
30.0
  3
AM_ISO$0
100
AcDbAlignedDimension
 13
2213.538809012945
 23
961.493982226025
 33
0.0
 14
2243.538809012946
 24
961.493982226025
 34
0.0
100
AcDbRotatedDimension
  0
DIMENSION
  5
2EAD
330
1F
100
AcDbEntity
  8
AM_5
100
AcDbDimension
  2
*D13
 10
2201.538808012946
 20
1025.493982226025
 30
0.0
 11
2201.538808012945
 21
993.493982226025
 31
0.0
 70
   160
 71
     5
 42
64.0
  3
AM_ISO$0
100
AcDbAlignedDimension
 13
2213.538809012945
 23
961.493982226025
 33
0.0
 14
2213.538809012945
 24
1025.493982226025
 34
0.0
 50
90.0
100
AcDbRotatedDimension
  0
TEXT
  5
2EAE
330
1F
100
AcDbEntity
  8
AM_5
100
AcDbText
 10
2194.334824242342
 20
952.9331567618763
 30
0.0
 40
3.0
  1
2x4-M5
 41
0.8
100
AcDbText
  0
INSERT
  5
2EAF
330
1F
100
AcDbEntity
  8
AM_5
100
AcDbBlockReference
  2
*S25
 10
0.0
 20
0.0
 30
0.0
  0
TEXT
  5
2EB0
330
1F
100
AcDbEntity
  8
AM_5
100
AcDbText
 10
2126.60632585653
 20
1036.518268121543
 30
0.0
 40
3.0
  1
4-%%c4.3 thru
 41
0.8
100
AcDbText
  0
INSERT
  5
2EB1
330
1F
100
AcDbEntity
  8
AM_5
100
AcDbBlockReference
  2
*S26
 10
0.0
 20
0.0
 30
0.0
  0
TEXT
  5
2EB2
330
1F
100
AcDbEntity
  8
AM_5
100
AcDbText
 10
2126.60632585653
 20
1032.186733412217
 30
0.0
 40
3.0
  1
4-%%c8x4.5 depth
 41
0.8
100
AcDbText
  0
INSERT
  5
2EB3
330
1F
100
AcDbEntity
  8
AM_5
100
AcDbBlockReference
  2
*S27
 10
0.0
 20
0.0
 30
0.0
  0
TEXT
  5
2EB4
330
1F
100
AcDbEntity
  8
AM_5
100
AcDbText
 10
2093.960733254343
 20
1102.772814712163
 30
0.0
 40
3.0
  1
4-M5x10 depth
 41
0.8
100
AcDbText
  0
TEXT
  5
2EB5
330
1F
100
AcDbEntity
  8
AM_5
100
AcDbText
 10
2129.672963309877
 20
1102.772814712163
 30
0.0
 40
3.0
  1
4-M5x7 depth
 41
0.8
100
AcDbText
  0
INSERT
  5
2EB6
330
1F
100
AcDbEntity
  8
AM_5
100
AcDbBlockReference
  2
*S28
 10
0.0
 20
0.0
 30
0.0
  0
TEXT
  5
2EB7
330
1F
100
AcDbEntity
  8
AM_5
100
AcDbText
 10
2182.168129798363
 20
1115.968069038924
 30
0.0
 40
3.0
  1
2x2-%%c4.5 thru
 41
0.8
100
AcDbText
  0
INSERT
  5
2EB8
330
1F
100
AcDbEntity
  8
AM_5
100
AcDbBlockReference
  2
*S29
 10
0.0
 20
0.0
 30
0.0
  0
TEXT
  5
2EB9
330
1F
100
AcDbEntity
  8
AM_5
100
AcDbText
 10
2182.168129798363
 20
1111.636534329597
 30
0.0
 40
3.0
  1
2x2-%%c8x4.5 depth
 41
0.8
100
AcDbText
  0
DIMENSION
  5
2EBA
102
{ACAD_XDICTIONARY
360
2EBB
102
}
102
{ACAD_REACTORS
330
2EBC
102
}
330
1F
100
AcDbEntity
  8
AM_5
100
AcDbDimension
  2
*D14
 10
2129.624662568985
 20
949.4939822260251
 30
0.0
 11
2097.624662568985
 21
951.9939822260251
 31
0.0
 70
    32
  1
34+stroke
 71
     5
 42
64.0
  3
AM_ISO$0
100
AcDbAlignedDimension
 13
2065.624662568985
 23
961.493982226025
 33
0.0
 14
2129.624662568985
 24
961.493982226025
 34
0.0
 50
0.0000000000002036
100
AcDbRotatedDimension
1001
ACAD
1000
DSTYLE
1002
{
1070
    40
1040
1.0
1070
   144
1040
1.0
1070
   272
1070
     8
1002
}
  0
DIMENSION
  5
2EBD
102
{ACAD_XDICTIONARY
360
2EBE
102
}
102
{ACAD_REACTORS
330
2EBF
102
}
330
1F
100
AcDbEntity
  8
AM_5
100
AcDbDimension
  2
*D15
 10
2161.624662568985
 20
949.4939822260251
 30
0.0
 11
2145.624662568985
 21
951.9942775016156
 31
0.0
 70
    32
  1
2+stroke
 71
     5
 42
32.0
  3
AM_ISO$0
100
AcDbAlignedDimension
 13
2129.624662568985
 23
961.493982226025
 33
0.0
 14
2161.624662568985
 24
961.493982226025
 34
0.0
 50
0.0000000000002036
100
AcDbRotatedDimension
1001
ACAD
1000
DSTYLE
1002
{
1070
    40
1040
1.0
1070
   144
1040
1.0
1070
   272
1070
     8
1002
}
  0
DIMENSION
  5
2EC0
102
{ACAD_XDICTIONARY
360
2EC1
102
}
102
{ACAD_REACTORS
330
2EC2
102
}
330
1F
100
AcDbEntity
  8
AM_5
100
AcDbDimension
  2
*D16
 10
2173.624662568985
 20
949.4939822260251
 30
0.0
 11
2167.624662568985
 21
951.9942775016158
 31
0.0
 70
    32
 71
     5
 42
12.0
  3
AM_ISO$0
100
AcDbAlignedDimension
 13
2161.624662568985
 23
961.493982226025
 33
0.0
 14
2173.624662568985
 24
961.493982226025
 34
0.0
 50
0.0000000000002036
100
AcDbRotatedDimension
1001
ACAD
1000
DSTYLE
1002
{
1070
    40
1040
1.0
1070
   144
1040
1.0
1070
   272
1070
     8
1002
}
  0
LINE
  5
2EC3
330
1F
100
AcDbEntity
  8
AM_7
100
AcDbLine
 10
2047.741072954778
 20
1016.493982226025
 30
0.0
 11
2177.3832947676
 21
1016.493982226025
 31
0.0
1001
GENIUS_GENOBJ-N-CEN_13
1002
{
1000
OWNER
1000
GEN
1002
}
1001
GENIUS_GENODEF_13
1002
{
1000
HIER
1070
     0
1002
}
1002
{
1000
MANEDIT
1070
     0
1002
}
1002
{
1000
NOSEL
1070
     0
1002
}
1002
{
1000
BEHIND
1070
     0
1002
}
1002
{
1000
OTHER
1070
     0
1002
}
1002
{
1000
REACTOR
1002
}
1001
GENIUS_GENCEN_19
1002
{
1040
2.0
1002
}
  0
LINE
  5
2EC4
330
1F
100
AcDbEntity
  8
AM_7
100
AcDbLine
 10
2047.741072954778
 20
970.493982226025
 30
0.0
 11
2177.3832947676
 21
970.493982226025
 31
0.0
1001
GENIUS_GENOBJ-N-CEN_13
1002
{
1000
OWNER
1000
GEN
1002
}
1001
GENIUS_GENODEF_13
1002
{
1000
HIER
1070
     0
1002
}
1002
{
1000
MANEDIT
1070
     0
1002
}
1002
{
1000
NOSEL
1070
     0
1002
}
1002
{
1000
BEHIND
1070
     0
1002
}
1002
{
1000
OTHER
1070
     0
1002
}
1002
{
1000
REACTOR
1002
}
1001
GENIUS_GENCEN_19
1002
{
1040
2.0
1002
}
  0
LINE
  5
2EC5
330
1F
100
AcDbEntity
  8
AM_7
100
AcDbLine
 10
2047.741072954778
 20
1165.69111275673
 30
0.0
 11
2177.3832947676
 21
1165.69111275673
 31
0.0
1001
GENIUS_GENOBJ-N-CEN_13
1002
{
1000
OWNER
1000
GEN
1002
}
1001
GENIUS_GENODEF_13
1002
{
1000
HIER
1070
     0
1002
}
1002
{
1000
MANEDIT
1070
     0
1002
}
1002
{
1000
NOSEL
1070
     0
1002
}
1002
{
1000
BEHIND
1070
     0
1002
}
1002
{
1000
OTHER
1070
     0
1002
}
1002
{
1000
REACTOR
1002
}
1001
GENIUS_GENCEN_19
1002
{
1040
2.0
1002
}
  0
LINE
  5
2EC6
330
1F
100
AcDbEntity
  8
AM_7
100
AcDbLine
 10
2047.741072954778
 20
1119.69111275673
 30
0.0
 11
2177.3832947676
 21
1119.69111275673
 31
0.0
1001
GENIUS_GENOBJ-N-CEN_13
1002
{
1000
OWNER
1000
GEN
1002
}
1001
GENIUS_GENODEF_13
1002
{
1000
HIER
1070
     0
1002
}
1002
{
1000
MANEDIT
1070
     0
1002
}
1002
{
1000
NOSEL
1070
     0
1002
}
1002
{
1000
BEHIND
1070
     0
1002
}
1002
{
1000
OTHER
1070
     0
1002
}
1002
{
1000
REACTOR
1002
}
1001
GENIUS_GENCEN_19
1002
{
1040
2.0
1002
}
  0
POINT
  5
2EC7
330
1F
100
AcDbEntity
  8
0
 60
     1
100
AcDbPoint
 10
338.3212176062257
 20
0.0
 30
0.0
1001
GENIUS_GENOLIS_13
1002
{
1000
ENT
1005
2DBB
1005
2DBA
1005
2DB9
1005
2DB8
1002
}
1001
GENIUS_GENOENT_13
1002
{
1000
MYREF
1005
2EC7
1002
}
1002
{
1000
GRP
1005
0
1002
}
1001
GENIUS_GENOBJ-N-CRS_13
1002
{
1000
OWNER
1000
GEN
1002
}
1001
GENIUS_GENODEF_13
1002
{
1000
HIER
1070
    10
1002
}
1002
{
1000
MANEDIT
1070
     0
1002
}
1002
{
1000
NOSEL
1070
     0
1002
}
1002
{
1000
BEHIND
1070
     0
1002
}
1002
{
1000
OTHER
1070
     0
1002
}
1002
{
1000
REACTOR
1002
}
  0
POINT
  5
2EC8
330
1F
100
AcDbEntity
  8
0
 60
     1
100
AcDbPoint
 10
338.3212176062257
 20
0.0
 30
0.0
1001
GENIUS_GENOLIS_13
1002
{
1000
ENT
1005
2DB7
1005
2DB6
1005
2DB5
1005
2DB4
1002
}
1001
GENIUS_GENOBJ-N-CRS_13
1002
{
1000
OWNER
1000
GEN
1002
}
1001
GENIUS_GENODEF_13
1002
{
1000
HIER
1070
    10
1002
}
1002
{
1000
MANEDIT
1070
     0
1002
}
1002
{
1000
NOSEL
1070
     0
1002
}
1002
{
1000
BEHIND
1070
     0
1002
}
1002
{
1000
OTHER
1070
     0
1002
}
1002
{
1000
REACTOR
1002
}
1001
GENIUS_GENOENT_13
1002
{
1000
MYREF
1005
2EC8
1002
}
1002
{
1000
GRP
1005
0
1002
}
  0
POINT
  5
2EC9
330
1F
100
AcDbEntity
  8
0
 60
     1
100
AcDbPoint
 10
338.3212176062257
 20
0.0
 30
0.0
1001
GENIUS_GENODEF_13
1002
{
1000
HIER
1070
    10
1002
}
1002
{
1000
MANEDIT
1070
     0
1002
}
1002
{
1000
NOSEL
1070
     0
1002
}
1002
{
1000
BEHIND
1070
     0
1002
}
1002
{
1000
OTHER
1070
     0
1002
}
1002
{
1000
REACTOR
1002
}
1001
GENIUS_GENOENT_13
1002
{
1000
MYREF
1005
2EC9
1002
}
1002
{
1000
GRP
1005
0
1002
}
1001
GENIUS_GENOBJ-N-CRS_13
1002
{
1000
OWNER
1000
GEN
1002
}
1001
GENIUS_GENOLIS_13
1002
{
1000
ENT
1005
2DB3
1005
2DB2
1005
2DB1
1005
2DB0
1002
}
  0
POINT
  5
2ECA
330
1F
100
AcDbEntity
  8
0
 60
     1
100
AcDbPoint
 10
338.3212176062257
 20
0.0
 30
0.0
1001
GENIUS_GENOLIS_13
1002
{
1000
ENT
1005
2DAF
1005
2DAE
1005
2DAD
1005
2DAC
1002
}
1001
GENIUS_GENODEF_13
1002
{
1000
HIER
1070
    10
1002
}
1002
{
1000
MANEDIT
1070
     0
1002
}
1002
{
1000
NOSEL
1070
     0
1002
}
1002
{
1000
BEHIND
1070
     0
1002
}
1002
{
1000
OTHER
1070
     0
1002
}
1002
{
1000
REACTOR
1002
}
1001
GENIUS_GENOBJ-N-CRS_13
1002
{
1000
OWNER
1000
GEN
1002
}
1001
GENIUS_GENOENT_13
1002
{
1000
MYREF
1005
2ECA
1002
}
1002
{
1000
GRP
1005
0
1002
}
  0
POINT
  5
2ECB
330
1F
100
AcDbEntity
  8
0
 60
     1
100
AcDbPoint
 10
338.3212176062257
 20
0.0
 30
0.0
1001
GENIUS_GENOENT_13
1002
{
1000
MYREF
1005
2ECB
1002
}
1002
{
1000
GRP
1005
0
1002
}
1001
GENIUS_GENOBJ-N-CRS_13
1002
{
1000
OWNER
1000
GEN
1002
}
1001
GENIUS_GENOLIS_13
1002
{
1000
ENT
1005
2EA6
1005
2EA5
1005
2EA4
1005
2EA3
1002
}
1001
GENIUS_GENODEF_13
1002
{
1000
HIER
1070
    10
1002
}
1002
{
1000
MANEDIT
1070
     0
1002
}
1002
{
1000
NOSEL
1070
     0
1002
}
1002
{
1000
BEHIND
1070
     0
1002
}
1002
{
1000
OTHER
1070
     0
1002
}
1002
{
1000
REACTOR
1002
}
  0
POINT
  5
2ECC
330
1F
100
AcDbEntity
  8
0
 60
     1
100
AcDbPoint
 10
338.3212176062257
 20
0.0
 30
0.0
1001
GENIUS_GENOLIS_13
1002
{
1000
ENT
1005
2EA2
1005
2EA1
1005
2EA0
1005
2E9F
1002
}
1001
GENIUS_GENODEF_13
1002
{
1000
HIER
1070
    10
1002
}
1002
{
1000
MANEDIT
1070
     0
1002
}
1002
{
1000
NOSEL
1070
     0
1002
}
1002
{
1000
BEHIND
1070
     0
1002
}
1002
{
1000
OTHER
1070
     0
1002
}
1002
{
1000
REACTOR
1002
}
1001
GENIUS_GENOENT_13
1002
{
1000
MYREF
1005
2ECC
1002
}
1002
{
1000
GRP
1005
0
1002
}
1001
GENIUS_GENOBJ-N-CRS_13
1002
{
1000
OWNER
1000
GEN
1002
}
  0
POINT
  5
2ECD
330
1F
100
AcDbEntity
  8
0
 60
     1
100
AcDbPoint
 10
338.3212176062257
 20
0.0
 30
0.0
1001
GENIUS_GENODEF_13
1002
{
1000
HIER
1070
    10
1002
}
1002
{
1000
MANEDIT
1070
     0
1002
}
1002
{
1000
NOSEL
1070
     0
1002
}
1002
{
1000
BEHIND
1070
     0
1002
}
1002
{
1000
OTHER
1070
     0
1002
}
1002
{
1000
REACTOR
1002
}
1001
GENIUS_GENOLIS_13
1002
{
1000
ENT
1005
2E9E
1005
2E9D
1005
2E9C
1005
2E9B
1002
}
1001
GENIUS_GENOENT_13
1002
{
1000
MYREF
1005
2ECD
1002
}
1002
{
1000
GRP
1005
0
1002
}
1001
GENIUS_GENOBJ-N-CRS_13
1002
{
1000
OWNER
1000
GEN
1002
}
  0
POINT
  5
2ECE
330
1F
100
AcDbEntity
  8
0
 60
     1
100
AcDbPoint
 10
338.3212176062257
 20
0.0
 30
0.0
1001
GENIUS_GENOLIS_13
1002
{
1000
ENT
1005
2E9A
1005
2E99
1005
2E98
1005
2E97
1002
}
1001
GENIUS_GENOENT_13
1002
{
1000
MYREF
1005
2ECE
1002
}
1002
{
1000
GRP
1005
0
1002
}
1001
GENIUS_GENOBJ-N-CRS_13
1002
{
1000
OWNER
1000
GEN
1002
}
1001
GENIUS_GENODEF_13
1002
{
1000
HIER
1070
    10
1002
}
1002
{
1000
MANEDIT
1070
     0
1002
}
1002
{
1000
NOSEL
1070
     0
1002
}
1002
{
1000
BEHIND
1070
     0
1002
}
1002
{
1000
OTHER
1070
     0
1002
}
1002
{
1000
REACTOR
1002
}
  0
POINT
  5
2ECF
330
1F
100
AcDbEntity
  8
0
 60
     1
100
AcDbPoint
 10
338.3212176062257
 20
0.0
 30
0.0
1001
GENIUS_GENOBJ-N-CRS_13
1002
{
1000
OWNER
1000
GEN
1002
}
1001
GENIUS_GENOLIS_13
1002
{
1000
ENT
1005
2E96
1005
2E95
1005
2E94
1005
2E93
1002
}
1001
GENIUS_GENODEF_13
1002
{
1000
HIER
1070
    10
1002
}
1002
{
1000
MANEDIT
1070
     0
1002
}
1002
{
1000
NOSEL
1070
     0
1002
}
1002
{
1000
BEHIND
1070
     0
1002
}
1002
{
1000
OTHER
1070
     0
1002
}
1002
{
1000
REACTOR
1002
}
1001
GENIUS_GENOENT_13
1002
{
1000
MYREF
1005
2ECF
1002
}
1002
{
1000
GRP
1005
0
1002
}
  0
POINT
  5
2ED0
330
1F
100
AcDbEntity
  8
0
 60
     1
100
AcDbPoint
 10
338.3212176062257
 20
0.0
 30
0.0
1001
GENIUS_GENOLIS_13
1002
{
1000
ENT
1005
2E92
1005
2E91
1005
2E90
1005
2E8F
1002
}
1001
GENIUS_GENODEF_13
1002
{
1000
HIER
1070
    10
1002
}
1002
{
1000
MANEDIT
1070
     0
1002
}
1002
{
1000
NOSEL
1070
     0
1002
}
1002
{
1000
BEHIND
1070
     0
1002
}
1002
{
1000
OTHER
1070
     0
1002
}
1002
{
1000
REACTOR
1002
}
1001
GENIUS_GENOENT_13
1002
{
1000
MYREF
1005
2ED0
1002
}
1002
{
1000
GRP
1005
0
1002
}
1001
GENIUS_GENOBJ-N-CRS_13
1002
{
1000
OWNER
1000
GEN
1002
}
  0
POINT
  5
2ED1
330
1F
100
AcDbEntity
  8
0
 60
     1
100
AcDbPoint
 10
338.3212176062257
 20
0.0
 30
0.0
1001
GENIUS_GENOBJ-N-CRS_13
1002
{
1000
OWNER
1000
GEN
1002
}
1001
GENIUS_GENOLIS_13
1002
{
1000
ENT
1005
2E8E
1005
2E8D
1005
2E8C
1005
2E8B
1002
}
1001
GENIUS_GENOENT_13
1002
{
1000
MYREF
1005
2ED1
1002
}
1002
{
1000
GRP
1005
0
1002
}
1001
GENIUS_GENODEF_13
1002
{
1000
HIER
1070
    10
1002
}
1002
{
1000
MANEDIT
1070
     0
1002
}
1002
{
1000
NOSEL
1070
     0
1002
}
1002
{
1000
BEHIND
1070
     0
1002
}
1002
{
1000
OTHER
1070
     0
1002
}
1002
{
1000
REACTOR
1002
}
  0
POINT
  5
2ED2
330
1F
100
AcDbEntity
  8
0
 60
     1
100
AcDbPoint
 10
338.3212176062257
 20
0.0
 30
0.0
1001
GENIUS_GENODEF_13
1002
{
1000
HIER
1070
    10
1002
}
1002
{
1000
MANEDIT
1070
     0
1002
}
1002
{
1000
NOSEL
1070
     0
1002
}
1002
{
1000
BEHIND
1070
     0
1002
}
1002
{
1000
OTHER
1070
     0
1002
}
1002
{
1000
REACTOR
1002
}
1001
GENIUS_GENOENT_13
1002
{
1000
MYREF
1005
2ED2
1002
}
1002
{
1000
GRP
1005
0
1002
}
1001
GENIUS_GENOBJ-N-CRS_13
1002
{
1000
OWNER
1000
GEN
1002
}
1001
GENIUS_GENOLIS_13
1002
{
1000
ENT
1005
2E8A
1005
2E89
1005
2E88
1005
2E87
1002
}
  0
POINT
  5
2ED3
330
1F
100
AcDbEntity
  8
0
 60
     1
100
AcDbPoint
 10
338.3212176062257
 20
0.0
 30
0.0
1001
GENIUS_GENODEF_13
1002
{
1000
HIER
1070
    10
1002
}
1002
{
1000
MANEDIT
1070
     0
1002
}
1002
{
1000
NOSEL
1070
     0
1002
}
1002
{
1000
BEHIND
1070
     0
1002
}
1002
{
1000
OTHER
1070
     0
1002
}
1002
{
1000
REACTOR
1002
}
1001
GENIUS_GENOENT_13
1002
{
1000
MYREF
1005
2ED3
1002
}
1002
{
1000
GRP
1005
0
1002
}
1001
GENIUS_GENOBJ-N-CRS_13
1002
{
1000
OWNER
1000
GEN
1002
}
1001
GENIUS_GENOLIS_13
1002
{
1000
ENT
1005
2E86
1005
2E85
1005
2E84
1005
2E83
1002
}
  0
POINT
  5
2ED4
330
1F
100
AcDbEntity
  8
0
 60
     1
100
AcDbPoint
 10
338.3212176062257
 20
0.0
 30
0.0
1001
GENIUS_GENODEF_13
1002
{
1000
HIER
1070
    10
1002
}
1002
{
1000
MANEDIT
1070
     0
1002
}
1002
{
1000
NOSEL
1070
     0
1002
}
1002
{
1000
BEHIND
1070
     0
1002
}
1002
{
1000
OTHER
1070
     0
1002
}
1002
{
1000
REACTOR
1002
}
1001
GENIUS_GENOBJ-N-CRS_13
1002
{
1000
OWNER
1000
GEN
1002
}
1001
GENIUS_GENOLIS_13
1002
{
1000
ENT
1005
2E82
1005
2E81
1005
2E80
1005
2E7F
1002
}
1001
GENIUS_GENOENT_13
1002
{
1000
MYREF
1005
2ED4
1002
}
1002
{
1000
GRP
1005
0
1002
}
  0
POINT
  5
2ED5
330
1F
100
AcDbEntity
  8
0
 60
     1
100
AcDbPoint
 10
338.3212176062257
 20
0.0
 30
0.0
1001
GENIUS_GENOLIS_13
1002
{
1000
ENT
1005
2E7E
1005
2E7D
1005
2E7C
1005
2E7B
1002
}
1001
GENIUS_GENODEF_13
1002
{
1000
HIER
1070
    10
1002
}
1002
{
1000
MANEDIT
1070
     0
1002
}
1002
{
1000
NOSEL
1070
     0
1002
}
1002
{
1000
BEHIND
1070
     0
1002
}
1002
{
1000
OTHER
1070
     0
1002
}
1002
{
1000
REACTOR
1002
}
1001
GENIUS_GENOBJ-N-CRS_13
1002
{
1000
OWNER
1000
GEN
1002
}
1001
GENIUS_GENOENT_13
1002
{
1000
MYREF
1005
2ED5
1002
}
1002
{
1000
GRP
1005
0
1002
}
  0
POINT
  5
2ED6
330
1F
100
AcDbEntity
  8
0
 60
     1
100
AcDbPoint
 10
338.3212176062257
 20
0.0
 30
0.0
1001
GENIUS_GENODEF_13
1002
{
1000
HIER
1070
    10
1002
}
1002
{
1000
MANEDIT
1070
     0
1002
}
1002
{
1000
NOSEL
1070
     0
1002
}
1002
{
1000
BEHIND
1070
     0
1002
}
1002
{
1000
OTHER
1070
     0
1002
}
1002
{
1000
REACTOR
1002
}
1001
GENIUS_GENOENT_13
1002
{
1000
MYREF
1005
2ED6
1002
}
1002
{
1000
GRP
1005
0
1002
}
1001
GENIUS_GENOLIS_13
1002
{
1000
ENT
1005
2E7A
1005
2E79
1005
2E78
1005
2E77
1002
}
1001
GENIUS_GENOBJ-N-CRS_13
1002
{
1000
OWNER
1000
GEN
1002
}
  0
POINT
  5
2ED7
330
1F
100
AcDbEntity
  8
0
 60
     1
100
AcDbPoint
 10
338.3212176062257
 20
0.0
 30
0.0
1001
GENIUS_GENOLIS_13
1002
{
1000
ENT
1005
2E76
1005
2E75
1005
2E74
1005
2E73
1002
}
1001
GENIUS_GENODEF_13
1002
{
1000
HIER
1070
    10
1002
}
1002
{
1000
MANEDIT
1070
     0
1002
}
1002
{
1000
NOSEL
1070
     0
1002
}
1002
{
1000
BEHIND
1070
     0
1002
}
1002
{
1000
OTHER
1070
     0
1002
}
1002
{
1000
REACTOR
1002
}
1001
GENIUS_GENOBJ-N-CRS_13
1002
{
1000
OWNER
1000
GEN
1002
}
1001
GENIUS_GENOENT_13
1002
{
1000
MYREF
1005
2ED7
1002
}
1002
{
1000
GRP
1005
0
1002
}
  0
POINT
  5
2ED8
330
1F
100
AcDbEntity
  8
0
 60
     1
100
AcDbPoint
 10
338.3212176062257
 20
0.0
 30
0.0
1001
GENIUS_GENODEF_13
1002
{
1000
HIER
1070
    10
1002
}
1002
{
1000
MANEDIT
1070
     0
1002
}
1002
{
1000
NOSEL
1070
     0
1002
}
1002
{
1000
BEHIND
1070
     0
1002
}
1002
{
1000
OTHER
1070
     0
1002
}
1002
{
1000
REACTOR
1002
}
1001
GENIUS_GENOLIS_13
1002
{
1000
ENT
1005
2E72
1005
2E71
1005
2E70
1005
2E6F
1002
}
1001
GENIUS_GENOENT_13
1002
{
1000
MYREF
1005
2ED8
1002
}
1002
{
1000
GRP
1005
0
1002
}
1001
GENIUS_GENOBJ-N-CRS_13
1002
{
1000
OWNER
1000
GEN
1002
}
  0
POINT
  5
2ED9
330
1F
100
AcDbEntity
  8
0
 60
     1
100
AcDbPoint
 10
334.3212176062257
 20
39.0
 30
0.0
1001
GENIUS_GENOENT_13
1002
{
1000
MYREF
1005
2ED9
1002
}
1002
{
1000
GRP
1005
0
1002
}
1001
GENIUS_GENOBJ-N-CRS_13
1002
{
1000
OWNER
1000
GEN
1002
}
1001
GENIUS_GENODEF_13
1002
{
1000
HIER
1070
    10
1002
}
1002
{
1000
MANEDIT
1070
     0
1002
}
1002
{
1000
NOSEL
1070
     0
1002
}
1002
{
1000
BEHIND
1070
     0
1002
}
1002
{
1000
OTHER
1070
     0
1002
}
1002
{
1000
REACTOR
1002
}
1001
GENIUS_GENOLIS_13
1002
{
1000
ENT
1005
2E6C
1005
2E6B
1005
2E6A
1005
2E69
1002
}
  0
POINT
  5
2EDA
330
1F
100
AcDbEntity
  8
0
 60
     1
100
AcDbPoint
 10
392.3212176062257
 20
39.0
 30
0.0
1001
GENIUS_GENOENT_13
1002
{
1000
MYREF
1005
2EDA
1002
}
1002
{
1000
GRP
1005
0
1002
}
1001
GENIUS_GENOBJ-N-CRS_13
1002
{
1000
OWNER
1000
GEN
1002
}
1001
GENIUS_GENODEF_13
1002
{
1000
HIER
1070
    10
1002
}
1002
{
1000
MANEDIT
1070
     0
1002
}
1002
{
1000
NOSEL
1070
     0
1002
}
1002
{
1000
BEHIND
1070
     0
1002
}
1002
{
1000
OTHER
1070
     0
1002
}
1002
{
1000
REACTOR
1002
}
1001
GENIUS_GENOLIS_13
1002
{
1000
ENT
1005
2E66
1005
2E65
1005
2E64
1005
2E63
1002
}
  0
POINT
  5
2EDB
330
1F
100
AcDbEntity
  8
0
 60
     1
100
AcDbPoint
 10
392.3212176062257
 20
-15.0
 30
0.0
1001
GENIUS_GENOENT_13
1002
{
1000
MYREF
1005
2EDB
1002
}
1002
{
1000
GRP
1005
0
1002
}
1001
GENIUS_GENOBJ-N-CRS_13
1002
{
1000
OWNER
1000
GEN
1002
}
1001
GENIUS_GENODEF_13
1002
{
1000
HIER
1070
    10
1002
}
1002
{
1000
MANEDIT
1070
     0
1002
}
1002
{
1000
NOSEL
1070
     0
1002
}
1002
{
1000
BEHIND
1070
     0
1002
}
1002
{
1000
OTHER
1070
     0
1002
}
1002
{
1000
REACTOR
1002
}
1001
GENIUS_GENOLIS_13
1002
{
1000
ENT
1005
2E60
1005
2E5F
1005
2E5E
1005
2E5D
1002
}
  0
POINT
  5
2EDC
330
1F
100
AcDbEntity
  8
0
 60
     1
100
AcDbPoint
 10
334.3212176062257
 20
-15.0
 30
0.0
1001
GENIUS_GENOENT_13
1002
{
1000
MYREF
1005
2EDC
1002
}
1002
{
1000
GRP
1005
0
1002
}
1001
GENIUS_GENOBJ-N-CRS_13
1002
{
1000
OWNER
1000
GEN
1002
}
1001
GENIUS_GENODEF_13
1002
{
1000
HIER
1070
    10
1002
}
1002
{
1000
MANEDIT
1070
     0
1002
}
1002
{
1000
NOSEL
1070
     0
1002
}
1002
{
1000
BEHIND
1070
     0
1002
}
1002
{
1000
OTHER
1070
     0
1002
}
1002
{
1000
REACTOR
1002
}
1001
GENIUS_GENOLIS_13
1002
{
1000
ENT
1005
2E5A
1005
2E59
1005
2E58
1005
2E57
1002
}
  0
POINT
  5
2EDD
330
1F
100
AcDbEntity
  8
0
 60
     1
100
AcDbPoint
 10
338.3212176062257
 20
0.0
 30
0.0
1001
GENIUS_GENODEF_13
1002
{
1000
HIER
1070
    10
1002
}
1002
{
1000
MANEDIT
1070
     0
1002
}
1002
{
1000
NOSEL
1070
     0
1002
}
1002
{
1000
BEHIND
1070
     0
1002
}
1002
{
1000
OTHER
1070
     0
1002
}
1002
{
1000
REACTOR
1002
}
1001
GENIUS_GENOBJ-N-CRS_13
1002
{
1000
OWNER
1000
GEN
1002
}
1001
GENIUS_GENOLIS_13
1002
{
1000
ENT
1005
2E4E
1005
2E4D
1005
2E4C
1005
2E4B
1002
}
1001
GENIUS_GENOENT_13
1002
{
1000
MYREF
1005
2EDD
1002
}
1002
{
1000
GRP
1005
0
1002
}
  0
POINT
  5
2EDE
330
1F
100
AcDbEntity
  8
0
 60
     1
100
AcDbPoint
 10
338.3212176062257
 20
0.0
 30
0.0
1001
GENIUS_GENOBJ-N-CRS_13
1002
{
1000
OWNER
1000
GEN
1002
}
1001
GENIUS_GENODEF_13
1002
{
1000
HIER
1070
    10
1002
}
1002
{
1000
MANEDIT
1070
     0
1002
}
1002
{
1000
NOSEL
1070
     0
1002
}
1002
{
1000
BEHIND
1070
     0
1002
}
1002
{
1000
OTHER
1070
     0
1002
}
1002
{
1000
REACTOR
1002
}
1001
GENIUS_GENOENT_13
1002
{
1000
MYREF
1005
2EDE
1002
}
1002
{
1000
GRP
1005
0
1002
}
1001
GENIUS_GENOLIS_13
1002
{
1000
ENT
1005
2E4A
1005
2E49
1005
2E48
1005
2E47
1002
}
  0
POINT
  5
2EDF
330
1F
100
AcDbEntity
  8
0
 60
     1
100
AcDbPoint
 10
338.3212176062257
 20
0.0
 30
0.0
1001
GENIUS_GENOENT_13
1002
{
1000
MYREF
1005
2EDF
1002
}
1002
{
1000
GRP
1005
0
1002
}
1001
GENIUS_GENOBJ-N-CRS_13
1002
{
1000
OWNER
1000
GEN
1002
}
1001
GENIUS_GENODEF_13
1002
{
1000
HIER
1070
    10
1002
}
1002
{
1000
MANEDIT
1070
     0
1002
}
1002
{
1000
NOSEL
1070
     0
1002
}
1002
{
1000
BEHIND
1070
     0
1002
}
1002
{
1000
OTHER
1070
     0
1002
}
1002
{
1000
REACTOR
1002
}
1001
GENIUS_GENOLIS_13
1002
{
1000
ENT
1005
2E46
1005
2E45
1005
2E44
1005
2E43
1002
}
  0
POINT
  5
2EE0
330
1F
100
AcDbEntity
  8
0
 60
     1
100
AcDbPoint
 10
338.3212176062257
 20
0.0
 30
0.0
1001
GENIUS_GENODEF_13
1002
{
1000
HIER
1070
    10
1002
}
1002
{
1000
MANEDIT
1070
     0
1002
}
1002
{
1000
NOSEL
1070
     0
1002
}
1002
{
1000
BEHIND
1070
     0
1002
}
1002
{
1000
OTHER
1070
     0
1002
}
1002
{
1000
REACTOR
1002
}
1001
GENIUS_GENOENT_13
1002
{
1000
MYREF
1005
2EE0
1002
}
1002
{
1000
GRP
1005
0
1002
}
1001
GENIUS_GENOBJ-N-CRS_13
1002
{
1000
OWNER
1000
GEN
1002
}
1001
GENIUS_GENOLIS_13
1002
{
1000
ENT
1005
2E42
1005
2E41
1005
2E40
1005
2E3F
1002
}
  0
LINE
  5
2F72
330
1F
100
AcDbEntity
  8
0
100
AcDbLine
 10
2129.624662568985
 20
1123.69111275673
 30
0.0
 11
2161.624662568985
 21
1123.69111275673
 31
0.0
  0
LINE
  5
2F73
330
1F
100
AcDbEntity
  8
0
100
AcDbLine
 10
2129.624662568985
 20
1115.69111275673
 30
0.0
 11
2161.624662568985
 21
1115.69111275673
 31
0.0
  0
LINE
  5
2F74
330
1F
100
AcDbEntity
  8
0
100
AcDbLine
 10
2065.624662568985
 20
1123.69111275673
 30
0.0
 11
2063.624662568985
 21
1123.69111275673
 31
0.0
  0
LINE
  5
2F75
330
1F
100
AcDbEntity
  8
0
100
AcDbLine
 10
2065.624662568985
 20
1115.69111275673
 30
0.0
 11
2063.624662568985
 21
1115.69111275673
 31
0.0
  0
LINE
  5
2F76
330
1F
100
AcDbEntity
  8
0
100
AcDbLine
 10
2129.624662568985
 20
1169.69111275673
 30
0.0
 11
2161.624662568985
 21
1169.69111275673
 31
0.0
  0
LINE
  5
2F77
330
1F
100
AcDbEntity
  8
0
100
AcDbLine
 10
2129.624662568985
 20
1161.69111275673
 30
0.0
 11
2161.624662568985
 21
1161.69111275673
 31
0.0
  0
LINE
  5
2F78
330
1F
100
AcDbEntity
  8
0
100
AcDbLine
 10
2065.624662568985
 20
1169.69111275673
 30
0.0
 11
2063.624662568985
 21
1169.69111275673
 31
0.0
  0
LINE
  5
2F79
330
1F
100
AcDbEntity
  8
0
100
AcDbLine
 10
2065.624662568985
 20
1161.69111275673
 30
0.0
 11
2063.624662568985
 21
1161.69111275673
 31
0.0
  0
LINE
  5
2F7A
330
1F
100
AcDbEntity
  8
0
100
AcDbLine
 10
2129.624662568985
 20
1070.688321544549
 30
0.0
 11
2161.624662568985
 21
1070.688321544549
 31
0.0
  0
LINE
  5
2F7B
330
1F
100
AcDbEntity
  8
0
100
AcDbLine
 10
2129.624662568985
 20
1062.688321544549
 30
0.0
 11
2161.624662568985
 21
1062.688321544549
 31
0.0
  0
LINE
  5
2F7C
330
1F
100
AcDbEntity
  8
0
100
AcDbLine
 10
2065.624662568985
 20
1070.688321544549
 30
0.0
 11
2063.624662568985
 21
1070.688321544549
 31
0.0
  0
LINE
  5
2F7D
330
1F
100
AcDbEntity
  8
0
100
AcDbLine
 10
2065.624662568985
 20
1062.688321544549
 30
0.0
 11
2063.624662568985
 21
1062.688321544549
 31
0.0
  0
LINE
  5
2F7E
330
1F
100
AcDbEntity
  8
0
100
AcDbLine
 10
2129.624662568985
 20
1020.493982226025
 30
0.0
 11
2161.624662568985
 21
1020.493982226025
 31
0.0
  0
LINE
  5
2F7F
330
1F
100
AcDbEntity
  8
0
100
AcDbLine
 10
2129.624662568985
 20
1012.493982226025
 30
0.0
 11
2161.624662568985
 21
1012.493982226025
 31
0.0
  0
LINE
  5
2F80
330
1F
100
AcDbEntity
  8
0
100
AcDbLine
 10
2065.624662568985
 20
1020.493982226025
 30
0.0
 11
2063.624662568985
 21
1020.493982226025
 31
0.0
  0
LINE
  5
2F81
330
1F
100
AcDbEntity
  8
0
100
AcDbLine
 10
2065.624662568985
 20
1012.493982226025
 30
0.0
 11
2063.624662568985
 21
1012.493982226025
 31
0.0
  0
LINE
  5
2F82
330
1F
100
AcDbEntity
  8
0
100
AcDbLine
 10
2129.624662568985
 20
974.4939822260251
 30
0.0
 11
2161.624662568985
 21
974.4939822260251
 31
0.0
  0
LINE
  5
2F83
330
1F
100
AcDbEntity
  8
0
100
AcDbLine
 10
2129.624662568985
 20
966.4939822260251
 30
0.0
 11
2161.624662568985
 21
966.4939822260251
 31
0.0
  0
LINE
  5
2F84
330
1F
100
AcDbEntity
  8
0
100
AcDbLine
 10
2065.624662568985
 20
974.4939822260251
 30
0.0
 11
2063.624662568985
 21
974.4939822260251
 31
0.0
  0
LINE
  5
2F85
330
1F
100
AcDbEntity
  8
0
100
AcDbLine
 10
2065.624662568985
 20
966.4939822260251
 30
0.0
 11
2063.624662568985
 21
966.4939822260251
 31
0.0
  0
LINE
  5
2F86
330
1F
100
AcDbEntity
  8
0
100
AcDbLine
 10
2129.624662568985
 20
916.1829502098138
 30
0.0
 11
2161.624662568985
 21
916.1829502098138
 31
0.0
  0
LINE
  5
2F87
330
1F
100
AcDbEntity
  8
0
100
AcDbLine
 10
2129.624662568985
 20
908.1829502098138
 30
0.0
 11
2161.624662568985
 21
908.1829502098138
 31
0.0
  0
LINE
  5
2F88
330
1F
100
AcDbEntity
  8
0
100
AcDbLine
 10
2065.624662568985
 20
916.1829502098138
 30
0.0
 11
2063.624662568985
 21
916.1829502098138
 31
0.0
  0
LINE
  5
2F89
330
1F
100
AcDbEntity
  8
0
100
AcDbLine
 10
2065.624662568985
 20
908.1829502098138
 30
0.0
 11
2063.624662568985
 21
908.1829502098138
 31
0.0
  0
INSERT
  5
322B
330
1F
100
AcDbEntity
  8
AM_5
100
AcDbBlockReference
  2
*S30
 10
0.0
 20
0.0
 30
0.0
  0
TEXT
  5
322C
330
1F
100
AcDbEntity
  8
AM_5
100
AcDbText
 10
2178.580730855411
 20
1035.810425781948
 30
0.0
 40
3.0
  1
2x2-%%c5    x5 depth
 41
0.8
100
AcDbText
  0
TEXT
  5
322D
330
1F
100
AcDbEntity
  8
AM_5
100
AcDbText
 10
2189.237539161803
 20
1035.997238429256
 30
0.0
 40
1.2
  1
+0
 41
0.8
100
AcDbText
  0
TEXT
  5
322E
330
1F
100
AcDbEntity
  8
AM_5
100
AcDbText
 10
2189.237539161803
 20
1037.51259847534
 30
0.0
 40
1.2
  1
+0.02
 41
0.8
100
AcDbText
  0
INSERT
  5
3230
330
1F
100
AcDbEntity
  8
AM_5
100
AcDbBlockReference
  2
*S31
 10
0.0
 20
0.0
 30
0.0
  0
TEXT
  5
3231
330
1F
100
AcDbEntity
  8
AM_5
100
AcDbText
 10
1880.170315762281
 20
1035.810425781948
 30
0.0
 40
3.0
  1
2x2-%%c5    x5 depth
 41
0.8
100
AcDbText
  0
TEXT
  5
3232
330
1F
100
AcDbEntity
  8
AM_5
100
AcDbText
 10
1890.827124068674
 20
1035.997238429256
 30
0.0
 40
1.2
  1
+0
 41
0.8
100
AcDbText
  0
TEXT
  5
3233
330
1F
100
AcDbEntity
  8
AM_5
100
AcDbText
 10
1890.827124068674
 20
1037.51259847534
 30
0.0
 40
1.2
  1
+0.02
 41
0.8
100
AcDbText
  0
ENDSEC
  0
SECTION
  2
OBJECTS
  0
DICTIONARY
  5
C
330
0
100
AcDbDictionary
281
     1
  3
ACAD_COLOR
350
BE
  3
ACAD_GROUP
350
D
  3
ACAD_LAYOUT
350
1A
  3
ACAD_MATERIAL
350
BD
  3
ACAD_MLINESTYLE
350
17
  3
ACAD_PLOTSETTINGS
350
19
  3
ACAD_PLOTSTYLENAME
350
E
  3
ACAD_TABLESTYLE
350
11A
  3
ACDBHEADERROUNDTRIPXREC
350
334C
  3
AcDbVariableDictionary
350
94
  3
AcmDictionary
350
5B
  3
AMG
350
41
  3
AMGSNAPSETTINGS
350
1B8
  3
DWGPROPS
350
334B
  0
DICTIONARY
  5
3F9
330
2
100
AcDbDictionary
280
     1
281
     1
  3
ACAD_LAYERFILTERS
360
5B7
  3
ACAD_LAYERSTATES
360
71D
  3
ACLYDICTIONARY
360
5B6
  0
DICTIONARY
  5
8F
330
1F
100
AcDbDictionary
280
     1
281
     1
  3
ACAD_SORTENTS
360
136C
  0
DICTIONARY
  5
26BF
330
26B2
100
AcDbDictionary
280
     1
281
     1
  3
ACAD_DIMASSOC
360
26C0
  0
DICTIONARY
  5
26EE
330
26E1
100
AcDbDictionary
280
     1
281
     1
  3
ACAD_DIMASSOC
360
26EF
  0
DICTIONARY
  5
2714
330
2707
100
AcDbDictionary
280
     1
281
     1
  3
ACAD_DIMASSOC
360
2715
  0
DICTIONARY
  5
2EBB
330
2EBA
100
AcDbDictionary
280
     1
281
     1
  3
ACAD_DIMASSOC
360
2EBC
  0
DICTIONARY
  5
2EBE
330
2EBD
100
AcDbDictionary
280
     1
281
     1
  3
ACAD_DIMASSOC
360
2EBF
  0
DICTIONARY
  5
2EC1
330
2EC0
100
AcDbDictionary
280
     1
281
     1
  3
ACAD_DIMASSOC
360
2EC2
  0
DICTIONARY
  5
BE
102
{ACAD_REACTORS
330
C
102
}
330
C
100
AcDbDictionary
281
     1
  0
DICTIONARY
  5
D
102
{ACAD_REACTORS
330
C
102
}
330
C
100
AcDbDictionary
281
     1
  0
DICTIONARY
  5
1A
102
{ACAD_REACTORS
330
C
102
}
330
C
100
AcDbDictionary
281
     1
  3
Model
350
22
  3
配置1
350
1E
  3
配置2
350
26
  0
DICTIONARY
  5
BD
102
{ACAD_REACTORS
330
C
102
}
330
C
100
AcDbDictionary
281
     1
  0
DICTIONARY
  5
17
102
{ACAD_REACTORS
330
C
102
}
330
C
100
AcDbDictionary
281
     1
  3
Standard
350
18
  0
DICTIONARY
  5
19
102
{ACAD_REACTORS
330
C
102
}
330
C
100
AcDbDictionary
281
     1
  0
ACDBDICTIONARYWDFLT
  5
E
102
{ACAD_REACTORS
330
C
102
}
330
C
100
AcDbDictionary
281
     1
  3
Normal
350
F
100
AcDbDictionaryWithDefault
340
F
  0
DICTIONARY
  5
11A
102
{ACAD_REACTORS
330
C
102
}
330
C
100
AcDbDictionary
281
     1
  3
Standard
350
11B
  0
DICTIONARY
  5
334C
102
{ACAD_REACTORS
330
C
102
}
330
C
100
AcDbDictionary
281
     1
  0
DICTIONARY
  5
94
102
{ACAD_REACTORS
330
C
102
}
330
C
100
AcDbDictionary
281
     1
  3
CTABLESTYLE
350
138
  3
DIMASSOC
350
96
  3
INDEXCTL
350
95
  3
PROJECTNAME
350
3349
  0
DICTIONARY
  5
5B
102
{ACAD_REACTORS
330
C
102
}
330
C
100
AcDbDictionary
281
     1
  3
AcmBOM
350
1B5
  3
AcmStdDictionary
350
61
  3
AMDTSECTSYM_ARROWCOLOR
350
123
  0
DICTIONARY
  5
41
102
{ACAD_REACTORS
330
C
102
}
330
C
100
AcDbDictionary
281
     1
  0
DICTIONARY
  5
1B8
102
{ACAD_REACTORS
330
C
102
}
330
C
100
AcDbDictionary
281
     1
  0
XRECORD
  5
334B
102
{ACAD_REACTORS
330
C
102
}
330
C
100
AcDbXrecord
280
     1
  1
DWGPROPS COOKIE
  2

  3

  4

  6

  7

  8

  9

300
AmdtFileType=84
301
=
302
=
303
=
304
=
305
=
306
=
307
=
308
=
309
=
 40
0.1354016550925926
 41
2453580.633342373
 42
2453584.698057176
  1

 90
        1
  0
DICTIONARY
  5
5B7
102
{ACAD_REACTORS
330
3F9
102
}
330
3F9
100
AcDbDictionary
281
     1
  0
DICTIONARY
  5
71D
102
{ACAD_REACTORS
330
3F9
102
}
330
3F9
100
AcDbDictionary
281
     1
  0
DICTIONARY
  5
5B6
102
{ACAD_REACTORS
330
3F9
102
}
330
3F9
100
AcDbDictionary
281
     1
1001
ACAD
1000
<All
  0
SORTENTSTABLE
  5
136C
102
{ACAD_REACTORS
330
8F
102
}
330
8F
100
AcDbSortentsTable
330
1F
331
F04
  5
F04
331
EF7
  5
EF7
331
E7A
  5
E7A
331
E3C
  5
E3C
331
EFA
  5
EFA
331
E3F
  5
E3F
331
EFD
  5
EFD
331
EE1
  5
EE1
331
E73
  5
E73
331
ED4
  5
ED4
331
F15
  5
F15
331
E42
  5
E42
331
EE4
  5
EE4
331
E76
  5
E76
331
ED7
  5
ED7
331
E5A
  5
E5A
331
E45
  5
E45
331
E86
  5
E86
331
EE7
  5
EE7
331
EDA
  5
EDA
331
E48
  5
E48
331
EEA
  5
EEA
331
EDD
  5
EDD
331
E60
  5
E60
331
E91
  5
E91
331
E4B
  5
E4B
331
E8C
  5
E8C
331
EED
  5
EED
331
E63
  5
E63
331
E94
  5
E94
331
E4E
  5
E4E
331
E8F
  5
E8F
331
EF0
  5
EF0
331
E66
  5
E66
331
E97
  5
E97
331
F00
  5
F00
331
EF3
  5
EF3
331
F03
  5
F03
331
EF6
  5
EF6
331
E79
  5
E79
331
EF9
  5
EF9
331
E6F
  5
E6F
331
E3E
  5
E3E
331
EFC
  5
EFC
331
EE0
  5
EE0
331
ED3
  5
ED3
331
F14
  5
F14
331
E41
  5
E41
331
EFF
  5
EFF
331
E82
  5
E82
331
EE3
  5
EE3
331
E75
  5
E75
331
ED6
  5
ED6
331
E59
  5
E59
331
E44
  5
E44
331
EE6
  5
EE6
331
ED9
  5
ED9
331
E47
  5
E47
331
E88
  5
E88
331
EE9
  5
EE9
331
EDC
  5
EDC
331
E5F
  5
E5F
331
E90
  5
E90
331
E4A
  5
E4A
331
EEC
  5
EEC
331
EDF
  5
EDF
331
E62
  5
E62
331
E93
  5
E93
331
E4D
  5
E4D
331
E8E
  5
E8E
331
EEF
  5
EEF
331
E65
  5
E65
331
E96
  5
E96
331
EF2
  5
EF2
331
F02
  5
F02
331
E1F
  5
E1F
331
EF5
  5
EF5
331
E78
  5
E78
331
EF8
  5
EF8
331
E6E
  5
E6E
331
E3D
  5
E3D
331
EFB
  5
EFB
331
E7E
  5
E7E
331
ED2
  5
ED2
331
E40
  5
E40
331
EFE
  5
EFE
331
E74
  5
E74
331
EE2
  5
EE2
331
ED5
  5
ED5
331
F16
  5
F16
331
E43
  5
E43
331
EE5
  5
EE5
331
E77
  5
E77
331
ED8
  5
ED8
331
E5B
  5
E5B
331
E46
  5
E46
331
E87
  5
E87
331
EE8
  5
EE8
331
EDB
  5
EDB
331
E5E
  5
E5E
331
E49
  5
E49
331
EEB
  5
EEB
331
EDE
  5
EDE
331
E61
  5
E61
331
E92
  5
E92
331
E4C
  5
E4C
331
E8D
  5
E8D
331
EEE
  5
EEE
331
E64
  5
E64
331
E95
  5
E95
331
EF1
  5
EF1
331
F01
  5
F01
331
EF4
  5
EF4
331
E6A
  5
E6A
331
E9B
  5
E9B
  0
DIMASSOC
  5
26C0
102
{ACAD_REACTORS
330
26BF
102
}
330
26BF
100
AcDbDimAssoc
330
26B2
 90
        3
 70
     0
 71
     0
  1
AcDbOsnapPointRef
 72
    13
331
1F05
 73
     0
 91
        0
 40
0.0
 10
0.0
 20
0.0
 30
2.000000000000000E+50
 75
     0
  1
AcDbOsnapPointRef
 72
     1
331
1EFE
 73
     0
 91
        0
 40
0.0
 10
0.0
 20
0.0
 30
2.000000000000000E+50
 75
     0
  0
DIMASSOC
  5
26EF
102
{ACAD_REACTORS
330
26EE
102
}
330
26EE
100
AcDbDimAssoc
330
26E1
 90
        3
 70
     0
 71
     0
  1
AcDbOsnapPointRef
 72
     1
331
1EFE
 73
     0
 91
        0
 40
0.0
 10
0.0
 20
0.0
 30
2.000000000000000E+50
 75
     0
  1
AcDbOsnapPointRef
 72
     1
331
1EBF
 73
     0
 91
        0
 40
0.0
 10
0.0
 20
0.0
 30
2.000000000000000E+50
 75
     0
  0
DIMASSOC
  5
2715
102
{ACAD_REACTORS
330
2714
102
}
330
2714
100
AcDbDimAssoc
330
2707
 90
        3
 70
     0
 71
     0
  1
AcDbOsnapPointRef
 72
     1
331
1EBF
 73
     0
 91
        0
 40
0.0
 10
0.0
 20
0.0
 30
2.000000000000000E+50
 75
     0
  1
AcDbOsnapPointRef
 72
    13
331
1EBE
 73
     0
 91
        0
 40
0.0
 10
0.0
 20
0.0
 30
2.000000000000000E+50
 75
     0
  0
DIMASSOC
  5
2EBC
102
{ACAD_REACTORS
330
2EBB
102
}
330
2EBB
100
AcDbDimAssoc
330
2EBA
 90
        3
 70
     0
 71
     0
  1
AcDbOsnapPointRef
 72
    13
331
2D5C
 73
     0
 91
        0
 40
0.0
 10
0.0
 20
0.0
 30
2.000000000000000E+50
 75
     0
  1
AcDbOsnapPointRef
 72
     1
331
2D55
 73
     0
 91
        0
 40
0.0
 10
0.0
 20
0.0
 30
2.000000000000000E+50
 75
     0
  0
DIMASSOC
  5
2EBF
102
{ACAD_REACTORS
330
2EBE
102
}
330
2EBE
100
AcDbDimAssoc
330
2EBD
 90
        3
 70
     0
 71
     0
  1
AcDbOsnapPointRef
 72
     1
331
2D55
 73
     0
 91
        0
 40
0.0
 10
0.0
 20
0.0
 30
2.000000000000000E+50
 75
     0
  1
AcDbOsnapPointRef
 72
     1
331
2D16
 73
     0
 91
        0
 40
0.0
 10
0.0
 20
0.0
 30
2.000000000000000E+50
 75
     0
  0
DIMASSOC
  5
2EC2
102
{ACAD_REACTORS
330
2EC1
102
}
330
2EC1
100
AcDbDimAssoc
330
2EC0
 90
        3
 70
     0
 71
     0
  1
AcDbOsnapPointRef
 72
     1
331
2D16
 73
     0
 91
        0
 40
0.0
 10
0.0
 20
0.0
 30
2.000000000000000E+50
 75
     0
  1
AcDbOsnapPointRef
 72
    13
331
2D15
 73
     0
 91
        0
 40
0.0
 10
0.0
 20
0.0
 30
2.000000000000000E+50
 75
     0
  0
LAYOUT
  5
22
102
{ACAD_XDICTIONARY
360
334F
102
}
102
{ACAD_REACTORS
330
1A
102
}
330
1A
100
AcDbPlotSettings
  1

  2
\\RD\EPSON Stylus C63 Series單色
  4
A4
  6

 40
3.757083177566528
 41
3.757076978683471
 42
3.757080078125
 43
3.757080078125
 44
209.9733276367187
 45
296.9683227539062
 46
0.0
 47
0.0
 48
0.0
 49
0.0
140
0.0
141
0.0
142
1.0
143
0.3405120737814363
 70
 11952
 72
     1
 73
     0
 74
     0
  7
單色出圖.ctb
 75
     0
147
2.936753428137963
148
-2047.07469463503
149
-1261.649717473083
100
AcDbLayout
  1
Model
 70
     1
 71
     0
 10
0.0
 20
0.0
 11
12.0
 21
9.0
 12
0.0
 22
0.0
 32
0.0
 14
0.0
 24
0.0
 34
0.0
 15
0.0
 25
0.0
 35
0.0
146
0.0
 13
0.0
 23
0.0
 33
0.0
 16
1.0
 26
0.0
 36
0.0
 17
0.0
 27
1.0
 37
0.0
 76
     0
330
1F
1001
ACAD_PSEXT
1000
\\RD\EPSON Stylus C63 Series單色
1000
EPSON Stylus C63 Series
1000
\\RD
1000

1070
     0
  0
LAYOUT
  5
1E
102
{ACAD_XDICTIONARY
360
334D
102
}
102
{ACAD_REACTORS
330
1A
102
}
330
1A
100
AcDbPlotSettings
  1

  2

  4

  6

 40
0.0
 41
0.0
 42
0.0
 43
0.0
 44
0.0
 45
0.0
 46
0.0
 47
0.0
 48
0.0
 49
0.0
140
0.0
141
0.0
142
1.0
143
1.0
 70
   688
 72
     0
 73
     0
 74
     5
  7
單色出圖.ctb
 75
    16
147
1.0
148
0.0
149
0.0
100
AcDbLayout
  1
配置1
 70
     1
 71
     1
 10
0.0
 20
0.0
 11
420.0
 21
297.0
 12
0.0
 22
0.0
 32
0.0
 14
1.000000000000000E+20
 24
1.000000000000000E+20
 34
1.000000000000000E+20
 15
-1.000000000000000E+20
 25
-1.000000000000000E+20
 35
-1.000000000000000E+20
146
0.0
 13
0.0
 23
0.0
 33
0.0
 16
1.0
 26
0.0
 36
0.0
 17
0.0
 27
1.0
 37
0.0
 76
     0
330
1B
  0
LAYOUT
  5
26
102
{ACAD_XDICTIONARY
360
3351
102
}
102
{ACAD_REACTORS
330
1A
102
}
330
1A
100
AcDbPlotSettings
  1

  2

  4

  6

 40
0.0
 41
0.0
 42
0.0
 43
0.0
 44
0.0
 45
0.0
 46
0.0
 47
0.0
 48
0.0
 49
0.0
140
0.0
141
0.0
142
1.0
143
1.0
 70
   688
 72
     0
 73
     0
 74
     5
  7
單色出圖.ctb
 75
    16
147
1.0
148
0.0
149
0.0
100
AcDbLayout
  1
配置2
 70
     1
 71
     2
 10
0.0
 20
0.0
 11
12.0
 21
9.0
 12
0.0
 22
0.0
 32
0.0
 14
0.0
 24
0.0
 34
0.0
 15
0.0
 25
0.0
 35
0.0
146
0.0
 13
0.0
 23
0.0
 33
0.0
 16
1.0
 26
0.0
 36
0.0
 17
0.0
 27
1.0
 37
0.0
 76
     0
330
23
  0
MLINESTYLE
  5
18
102
{ACAD_REACTORS
330
17
102
}
330
17
100
AcDbMlineStyle
  2
STANDARD
 70
     0
  3

 62
   256
 51
90.0
 52
90.0
 71
     2
 49
0.5
 62
   256
  6
BYLAYER
 49
-0.5
 62
   256
  6
BYLAYER
  0
ACDBPLACEHOLDER
  5
F
102
{ACAD_REACTORS
330
E
102
}
330
E
  0
TABLESTYLE
  5
11B
102
{ACAD_REACTORS
330
11A
102
}
330
11A
100
AcDbTableStyle
  3
Standard
 70
     0
 71
     0
 40
1.5
 41
1.5
280
     0
281
     0
  7
STANDARD
140
4.5
170
     2
 62
     0
 63
     7
283
     0
274
    -2
284
     1
 64
     0
275
    -2
285
     1
 65
     0
276
    -2
286
     1
 66
     0
277
    -2
287
     1
 67
     0
278
    -2
288
     1
 68
     0
279
    -2
289
     1
 69
     0
  7
STANDARD
140
6.0
170
     5
 62
     0
 63
     7
283
     0
274
    -2
284
     1
 64
     0
275
    -2
285
     1
 65
     0
276
    -2
286
     1
 66
     0
277
    -2
287
     1
 67
     0
278
    -2
288
     1
 68
     0
279
    -2
289
     1
 69
     0
  7
STANDARD
140
4.5
170
     5
 62
     0
 63
     7
283
     0
274
    -2
284
     1
 64
     0
275
    -2
285
     1
 65
     0
276
    -2
286
     1
 66
     0
277
    -2
287
     1
 67
     0
278
    -2
288
     1
 68
     0
279
    -2
289
     1
 69
     0
  0
DICTIONARYVAR
  5
138
102
{ACAD_REACTORS
330
94
102
}
330
94
100
DictionaryVariables
280
     0
  1
STANDARD
  0
DICTIONARYVAR
  5
96
102
{ACAD_REACTORS
330
94
102
}
330
94
100
DictionaryVariables
280
     0
  1
2
  0
DICTIONARYVAR
  5
95
102
{ACAD_REACTORS
330
94
102
}
330
94
100
DictionaryVariables
280
     0
  1
0
  0
DICTIONARYVAR
  5
3349
102
{ACAD_REACTORS
330
94
102
}
330
94
100
DictionaryVariables
280
     0
  1

  0
DICTIONARY
  5
1B5
102
{ACAD_REACTORS
330
5B
102
}
330
5B
100
AcDbDictionary
281
     1
  0
DICTIONARY
  5
61
102
{ACAD_REACTORS
330
5B
102
}
330
5B
100
AcDbDictionary
281
     1
  0
XRECORD
  5
123
102
{ACAD_REACTORS
330
5B
102
}
330
5B
100
AcDbXrecord
280
     1
 90
-1023410169
  0
DICTIONARY
  5
334F
330
22
100
AcDbDictionary
280
     1
281
     1
  3
ACAD_XREC_ROUNDTRIP
360
3350
  0
DICTIONARY
  5
334D
330
1E
100
AcDbDictionary
280
     1
281
     1
  3
ACAD_XREC_ROUNDTRIP
360
334E
  0
DICTIONARY
  5
3351
330
26
100
AcDbDictionary
280
     1
281
     1
  3
ACAD_XREC_ROUNDTRIP
360
3352
  0
XRECORD
  5
3350
102
{ACAD_REACTORS
330
334F
102
}
330
334F
100
AcDbXrecord
280
     1
102
SHADEPLOT
 70
     0
102
SHADEPLOTRESLEVEL
 70
     2
102
SHADEPLOTCUSTOMDPI
 70
   300
  0
XRECORD
  5
334E
102
{ACAD_REACTORS
330
334D
102
}
330
334D
100
AcDbXrecord
280
     1
102
SHADEPLOT
 70
     0
102
SHADEPLOTRESLEVEL
 70
     2
102
SHADEPLOTCUSTOMDPI
 70
   300
  0
XRECORD
  5
3352
102
{ACAD_REACTORS
330
3351
102
}
330
3351
100
AcDbXrecord
280
     1
102
SHADEPLOT
 70
     0
102
SHADEPLOTRESLEVEL
 70
     2
102
SHADEPLOTCUSTOMDPI
 70
   300
  0
ENDSEC
  0
EOF
