  0
SECTION
  2
HEADER
  9
$ACADVER
  1
AC1015
  9
$ACADMAINTVER
 70
    20
  9
$DWGCODEPAGE
  3
ANSI_950
  9
$INSBASE
 10
0.0
 20
0.0
 30
0.0
  9
$EXTMIN
 10
1960.390554136045
 20
1138.639341029788
 30
-0.0117375536977988
  9
$EXTMAX
 10
2530.729512692551
 20
1937.635212100378
 30
319.8646757282629
  9
$LIMMIN
 10
0.0
 20
0.0
  9
$LIMMAX
 10
420.0
 20
297.0
  9
$ORTHOMODE
 70
     0
  9
$REGENMODE
 70
     1
  9
$FILLMODE
 70
     1
  9
$QTEXTMODE
 70
     0
  9
$MIRRTEXT
 70
     1
  9
$LTSCALE
 40
1.0
  9
$ATTMODE
 70
     1
  9
$TEXTSIZE
 40
3.0
  9
$TRACEWID
 40
1.0
  9
$TEXTSTYLE
  7
CHINESET
  9
$CLAYER
  8
0
  9
$CELTYPE
  6
ByLayer
  9
$CECOLOR
 62
   256
  9
$CELTSCALE
 40
1.0
  9
$DISPSILH
 70
     0
  9
$DIMSCALE
 40
1.0
  9
$DIMASZ
 40
3.0
  9
$DIMEXO
 40
1.0
  9
$DIMDLI
 40
14.0
  9
$DIMRND
 40
0.0
  9
$DIMDLE
 40
0.0
  9
$DIMEXE
 40
1.5
  9
$DIMTP
 40
0.1
  9
$DIMTM
 40
0.1
  9
$DIMTXT
 40
3.0
  9
$DIMCEN
 40
0.0
  9
$DIMTSZ
 40
0.0
  9
$DIMTOL
 70
     0
  9
$DIMLIM
 70
     0
  9
$DIMTIH
 70
     0
  9
$DIMTOH
 70
     0
  9
$DIMSE1
 70
     0
  9
$DIMSE2
 70
     0
  9
$DIMTAD
 70
     1
  9
$DIMZIN
 70
     8
  9
$DIMBLK
  1

  9
$DIMASO
 70
     1
  9
$DIMSHO
 70
     1
  9
$DIMPOST
  1

  9
$DIMAPOST
  1
"
  9
$DIMALT
 70
     0
  9
$DIMALTD
 70
     2
  9
$DIMALTF
 40
0.0393701
  9
$DIMLFAC
 40
1.0
  9
$DIMTOFL
 70
     1
  9
$DIMTVP
 40
0.0
  9
$DIMTIX
 70
     0
  9
$DIMSOXD
 70
     0
  9
$DIMSAH
 70
     0
  9
$DIMBLK1
  1

  9
$DIMBLK2
  1

  9
$DIMSTYLE
  2
AM_ISO
  9
$DIMCLRD
 70
   256
  9
$DIMCLRE
 70
   256
  9
$DIMCLRT
 70
   256
  9
$DIMTFAC
 40
0.71
  9
$DIMGAP
 40
1.0
  9
$DIMJUST
 70
     0
  9
$DIMSD1
 70
     0
  9
$DIMSD2
 70
     0
  9
$DIMTOLJ
 70
     0
  9
$DIMTZIN
 70
     8
  9
$DIMALTZ
 70
     0
  9
$DIMALTTZ
 70
     0
  9
$DIMUPT
 70
     0
  9
$DIMDEC
 70
     2
  9
$DIMTDEC
 70
     8
  9
$DIMALTU
 70
     2
  9
$DIMALTTD
 70
     2
  9
$DIMTXSTY
  7
STANDARD
  9
$DIMAUNIT
 70
     0
  9
$DIMADEC
 70
     0
  9
$DIMALTRND
 40
0.0
  9
$DIMAZIN
 70
     2
  9
$DIMDSEP
 70
    46
  9
$DIMATFIT
 70
     3
  9
$DIMFRAC
 70
     0
  9
$DIMLDRBLK
  1

  9
$DIMLUNIT
 70
     2
  9
$DIMLWD
 70
    -1
  9
$DIMLWE
 70
    -1
  9
$DIMTMOVE
 70
     0
  9
$LUNITS
 70
     2
  9
$LUPREC
 70
     2
  9
$SKETCHINC
 40
1.0
  9
$FILLETRAD
 40
2.5
  9
$AUNITS
 70
     0
  9
$AUPREC
 70
     0
  9
$MENU
  1
.
  9
$ELEVATION
 40
0.0
  9
$PELEVATION
 40
0.0
  9
$THICKNESS
 40
0.0
  9
$LIMCHECK
 70
     0
  9
$CHAMFERA
 40
2.5
  9
$CHAMFERB
 40
2.5
  9
$CHAMFERC
 40
20.0
  9
$CHAMFERD
 40
0.0
  9
$SKPOLY
 70
     0
  9
$TDCREATE
 40
2453595.458965741
  9
$TDUCREATE
 40
2453595.125632408
  9
$TDUPDATE
 40
2453942.681301169
  9
$TDUUPDATE
 40
2453942.347967835
  9
$TDINDWG
 40
0.3877141088
  9
$TDUSRTIMER
 40
0.3877141088
  9
$USRTIMER
 70
     1
  9
$ANGBASE
 50
0.0
  9
$ANGDIR
 70
     0
  9
$PDMODE
 70
     0
  9
$PDSIZE
 40
0.0
  9
$PLINEWID
 40
0.0
  9
$SPLFRAME
 70
     0
  9
$SPLINETYPE
 70
     6
  9
$SPLINESEGS
 70
     8
  9
$HANDSEED
  5
4D4D
  9
$SURFTAB1
 70
     6
  9
$SURFTAB2
 70
     6
  9
$SURFTYPE
 70
     6
  9
$SURFU
 70
     6
  9
$SURFV
 70
     6
  9
$UCSBASE
  2

  9
$UCSNAME
  2

  9
$UCSORG
 10
0.0
 20
0.0
 30
0.0
  9
$UCSXDIR
 10
1.0
 20
0.0
 30
0.0
  9
$UCSYDIR
 10
0.0
 20
1.0
 30
0.0
  9
$UCSORTHOREF
  2

  9
$UCSORTHOVIEW
 70
     0
  9
$UCSORGTOP
 10
0.0
 20
0.0
 30
0.0
  9
$UCSORGBOTTOM
 10
0.0
 20
0.0
 30
0.0
  9
$UCSORGLEFT
 10
0.0
 20
0.0
 30
0.0
  9
$UCSORGRIGHT
 10
0.0
 20
0.0
 30
0.0
  9
$UCSORGFRONT
 10
0.0
 20
0.0
 30
0.0
  9
$UCSORGBACK
 10
0.0
 20
0.0
 30
0.0
  9
$PUCSBASE
  2

  9
$PUCSNAME
  2

  9
$PUCSORG
 10
0.0
 20
0.0
 30
0.0
  9
$PUCSXDIR
 10
1.0
 20
0.0
 30
0.0
  9
$PUCSYDIR
 10
0.0
 20
1.0
 30
0.0
  9
$PUCSORTHOREF
  2

  9
$PUCSORTHOVIEW
 70
     0
  9
$PUCSORGTOP
 10
0.0
 20
0.0
 30
0.0
  9
$PUCSORGBOTTOM
 10
0.0
 20
0.0
 30
0.0
  9
$PUCSORGLEFT
 10
0.0
 20
0.0
 30
0.0
  9
$PUCSORGRIGHT
 10
0.0
 20
0.0
 30
0.0
  9
$PUCSORGFRONT
 10
0.0
 20
0.0
 30
0.0
  9
$PUCSORGBACK
 10
0.0
 20
0.0
 30
0.0
  9
$USERI1
 70
     0
  9
$USERI2
 70
     0
  9
$USERI3
 70
     0
  9
$USERI4
 70
     0
  9
$USERI5
 70
     0
  9
$USERR1
 40
0.0
  9
$USERR2
 40
0.0
  9
$USERR3
 40
0.0
  9
$USERR4
 40
0.0
  9
$USERR5
 40
0.0
  9
$WORLDVIEW
 70
     1
  9
$SHADEDGE
 70
     3
  9
$SHADEDIF
 70
    70
  9
$TILEMODE
 70
     1
  9
$MAXACTVP
 70
    64
  9
$PINSBASE
 10
0.0
 20
0.0
 30
0.0
  9
$PLIMCHECK
 70
     0
  9
$PEXTMIN
 10
1.000000000000000E+20
 20
1.000000000000000E+20
 30
1.000000000000000E+20
  9
$PEXTMAX
 10
-1.000000000000000E+20
 20
-1.000000000000000E+20
 30
-1.000000000000000E+20
  9
$PLIMMIN
 10
0.0
 20
0.0
  9
$PLIMMAX
 10
420.0
 20
297.0
  9
$UNITMODE
 70
     0
  9
$VISRETAIN
 70
     1
  9
$PLINEGEN
 70
     0
  9
$PSLTSCALE
 70
     1
  9
$TREEDEPTH
 70
  3020
  9
$CMLSTYLE
  2
Standard
  9
$CMLJUST
 70
     0
  9
$CMLSCALE
 40
20.0
  9
$PROXYGRAPHICS
 70
     1
  9
$MEASUREMENT
 70
     1
  9
$CELWEIGHT
370
    -1
  9
$ENDCAPS
280
     0
  9
$JOINSTYLE
280
     0
  9
$LWDISPLAY
290
     0
  9
$INSUNITS
 70
     4
  9
$HYPERLINKBASE
  1

  9
$STYLESHEET
  1
彩色出圖.ctb
  9
$XEDIT
290
     1
  9
$CEPSNTYPE
380
     0
  9
$PSTYLEMODE
290
     1
  9
$FINGERPRINTGUID
  2
{9E01B807-D114-4957-B4FC-231A1635D619}
  9
$VERSIONGUID
  2
{77CA2C78-D62A-4841-AE61-65E991BF3F67}
  9
$EXTNAMES
290
     1
  9
$PSVPSCALE
 40
0.0
  9
$OLESTARTUP
290
     0
  0
ENDSEC
  0
SECTION
  2
CLASSES
  0
CLASS
  1
ACDBDICTIONARYWDFLT
  2
AcDbDictionaryWithDefault
  3
ObjectDBX Classes
 90
        0
280
     0
281
     0
  0
CLASS
  1
ACDBPLACEHOLDER
  2
AcDbPlaceHolder
  3
ObjectDBX Classes
 90
        0
280
     0
281
     0
  0
CLASS
  1
LAYOUT
  2
AcDbLayout
  3
ObjectDBX Classes
 90
        0
280
     0
281
     0
  0
CLASS
  1
ACME_DOCUMENT
  2
AcMeDbDoc
  3
AcMeServices
 90
        0
280
     0
281
     0
  0
CLASS
  1
AMGSETTINGSOBJ
  2
AmgSettingsObj
  3
"AcadM|Product Description: AutoCAD Mechanical 2000|Company: Autodesk"
 90
        0
280
     0
281
     0
  0
CLASS
  1
ACMESCOPE
  2
AcMeScope
  3
AcMeServices
 90
        0
280
     0
281
     0
  0
CLASS
  1
ACMECOMMANDHISTORY
  2
AcMeCommandHistory
  3
AcMeServices
 90
        0
280
     0
281
     0
  0
CLASS
  1
ACIMSYSVARMAN
  2
AcImSysVarManager
  3
AcMeServices
 90
        0
280
     0
281
     0
  0
CLASS
  1
ACIMREALSYSVAR
  2
AcImRealSysVar
  3
AcMeServices
 90
        0
280
     0
281
     0
  0
CLASS
  1
ACIMINTSYSVAR
  2
AcImIntSysVar
  3
AcMeServices
 90
        0
280
     0
281
     0
  0
CLASS
  1
ACMEDRAWINGMAN
  2
AcMeDrawingMan
  3
AcMeServices
 90
        0
280
     0
281
     0
  0
CLASS
  1
ACMEVIEW
  2
AcMeView
  3
AcMeServices
 90
        0
280
     0
281
     0
  0
CLASS
  1
ACDBENTITYCACHE
  2
AcMeEntityCache
  3
AcMeServices
 90
        0
280
     0
281
     0
  0
CLASS
  1
GSMANAGER
  2
AcMeGSManager
  3
AcMeServices
 90
        0
280
     0
281
     0
  0
CLASS
  1
AMDTINTERNALREACTOR
  2
AmdtInternalReactor
  3
AcMeServices
 90
        0
280
     0
281
     0
  0
CLASS
  1
ACMESTATEMGR
  2
AcMeStateMgr
  3
AcMeServices
 90
        0
280
     0
281
     0
  0
CLASS
  1
ACGREFMASTER
  2
AcGrefMaster
  3
AcAttribServices
 90
        0
280
     0
281
     0
  0
CLASS
  1
ACME_DATABASE
  2
AcMeDbDatabase
  3
AcMeServices
 90
        0
280
     0
281
     0
  0
CLASS
  1
ACRFINSADJUSTERMGR
  2
AcRfInsAdjusterMgr
  3
AcMeServices
 90
        0
280
     0
281
     0
  0
CLASS
  1
ACGREFACADMASTER
  2
AcGrefacadMaster
  3
AcGrefServices
 90
        0
280
     0
281
     0
  0
CLASS
  1
AMIMASTER
  2
AmiMaster
  3
AmiServices
 90
        0
280
     0
281
     0
  0
CLASS
  1
ACMDATADICTIONARY
  2
AcmDataDictionary
  3
"AcmSymBB|Product Description: AutoCAD Mechanical 2004 DX|Company: Autodesk"
 90
        0
280
     0
281
     0
  0
CLASS
  1
ACMDATAENTRYBLOCK
  2
AcmDataEntryBlock
  3
"AcmSymBB|Product Description: AutoCAD Mechanical 2004 DX|Company: Autodesk"
 90
        0
280
     0
281
     0
  0
CLASS
  1
ACIMSTRSYSVAR
  2
AcImStrSysVar
  3
AcMeServices
 90
        0
280
     0
281
     0
  0
CLASS
  1
ACMSTANDARDISO
  2
AcmStandardISO
  3
"Amdt_StdImp|Product Description: AutoCAD Mechanical 2004 DX|Company: Autodesk"
 90
        0
280
     0
281
     0
  0
CLASS
  1
AMGOBJPROPCFG
  2
AmgObjPropCfg
  3
"AmgLay|Product Description: AutoCAD Mechanical 2000|Company: Autodesk"
 90
        1
280
     0
281
     0
  0
CLASS
  1
AMDTEDGESTANDARDISO
  2
AmdtEdgeStdISO
  3
"Amdt_StdImp|Product Description: AutoCAD Mechanical 2004 DX|Company: Autodesk"
 90
        0
280
     0
281
     0
  0
CLASS
  1
ACMSURFSTANDARDISO
  2
AcmSurfTextStdISO
  3
"Amdt_StdImp|Product Description: AutoCAD Mechanical 2004 DX|Company: Autodesk"
 90
        0
280
     0
281
     0
  0
CLASS
  1
ACMFCFSTANDARDISO
  2
AcmFCFStdISO
  3
"Amdt_StdImp|Product Description: AutoCAD Mechanical 2004 DX|Company: Autodesk"
 90
        0
280
     0
281
     0
  0
CLASS
  1
ACMWELDSTANDARDISO
  2
AcmWeldingStdISO
  3
"Amdt_StdImp|Product Description: AutoCAD Mechanical 2004 DX|Company: Autodesk"
 90
        0
280
     0
281
     0
  0
CLASS
  1
ACMIDSTANDARDISO
  2
AcmIdStdISO
  3
"Amdt_StdImp|Product Description: AutoCAD Mechanical 2004 DX|Company: Autodesk"
 90
        0
280
     0
281
     0
  0
CLASS
  1
ACMDATUMSTANDARDISO
  2
AcmDatumStdISO
  3
"Amdt_StdImp|Product Description: AutoCAD Mechanical 2004 DX|Company: Autodesk"
 90
        0
280
     0
281
     0
  0
CLASS
  1
ACMBOMSTANDARDISO
  2
AcmBOMStdISO
  3
"Amdt_StdImp|Product Description: AutoCAD Mechanical 2004 DX|Company: Autodesk"
 90
        0
280
     0
281
     0
  0
CLASS
  1
ACMDETAILSTANDARDISO
  2
AmdtDetailSymStdISO
  3
"Amdt_StdImp|Product Description: AutoCAD Mechanical 2004 DX|Company: Autodesk"
 90
        0
280
     0
281
     0
  0
CLASS
  1
ACMSECTIONSTANDARDISO
  2
AmdtSectionSymStdISO
  3
"Amdt_StdImp|Product Description: AutoCAD Mechanical 2004 DX|Company: Autodesk"
 90
        0
280
     0
281
     0
  0
CLASS
  1
ACMCENTERLINESTANDARDISO
  2
AmdtCenterLineStdISO
  3
"Amdt_StdImp|Product Description: AutoCAD Mechanical 2004 DX|Company: Autodesk"
 90
        0
280
     0
281
     0
  0
CLASS
  1
ACMNOTESTANDARDISO
  2
AmdtNoteStdISO
  3
"Amdt_StdImp|Product Description: AutoCAD Mechanical 2004 DX|Company: Autodesk"
 90
        0
280
     0
281
     0
  0
CLASS
  1
ACAMGLAYSTD
  2
AcAmgLayStd
  3
"AcAmgLayStd|Product Description: AutoCAD Mechanical 2000|Company: Autodesk"
 90
        0
280
     0
281
     0
  0
CLASS
  1
ACAMGDIMSTD
  2
AcAmgDimStd
  3
"AcAmgDimStd|Product Description: AutoCAD Mechanical 2000|Company: Autodesk"
 90
        0
280
     0
281
     0
  0
CLASS
  1
ACAMGHOLECHARTSTDISO
  2
AcAmgHoleChartStdISO
  3
ACMSYMBB_MODULE_NAME
 90
        0
280
     0
281
     0
  0
CLASS
  1
ACAMGTITLESTD
  2
AcAmgTitleStd
  3
"TITLEAPP"
 90
        0
280
     0
281
     0
  0
CLASS
  1
LAYER_INDEX
  2
AcDbLayerIndex
  3
ObjectDBX Classes
 90
    32768
280
     0
281
     0
  0
CLASS
  1
IDBUFFER
  2
AcDbIdBuffer
  3
ObjectDBX Classes
 90
    32768
280
     0
281
     0
  0
CLASS
  1
DICTIONARYVAR
  2
AcDbDictionaryVar
  3
ObjectDBX Classes
 90
        0
280
     0
281
     0
  0
CLASS
  1
AM_DRAWING_MGR
  2
AcDmDwgMgr
  3
AcMechDwgViewMgmt
 90
        0
280
     0
281
     0
  0
CLASS
  1
AM_DWG_DOCUMENT
  2
AcDmDwgDocument
  3
AcMechDwgViewMgmt
 90
        0
280
     0
281
     0
  0
CLASS
  1
AM_DWG_SHEET
  2
AcDmSheet
  3
AcMechDwgViewMgmt
 90
        0
280
     0
281
     0
  0
CLASS
  1
AM_VIEWDIMPARMAP
  2
AcDmViewDimParMap
  3
AcMechDwgViewMgmt
 90
        0
280
     0
281
     0
  0
CLASS
  1
AM_DWGMGR_NAME
  2
AcDmDwgMgrName
  3
AcMechDwgViewMgmt
 90
        0
280
     0
281
     0
  0
CLASS
  1
AMDTMENUSTATEMGR
  2
AmdtMenuStateMgr
  3
McadcomServices
 90
        0
280
     0
281
     0
  0
CLASS
  1
AMDTMCOMMENUSTATE
  2
AmdtMcomMenuState
  3
McadcomServices
 90
        0
280
     0
281
     0
  0
CLASS
  1
MAPIAMMOUDLE
  2
MApiAmModule
  3
MApiAmServices
 90
        0
280
     0
281
     0
  0
CLASS
  1
AMDTADMENUSTATE
  2
AmdtAdMenuState
  3
DesignerServices
 90
        0
280
     0
281
     0
  0
CLASS
  1
ADAPPL
  2
AcAdAppl
  3
DesignerServices
 90
        0
280
     0
281
     0
  0
CLASS
  1
DEPMGR
  2
AcAdDepMgr
  3
DesignerServices
 90
        0
280
     0
281
     0
  0
CLASS
  1
PARAMMGR
  2
AcAdParamMgr
  3
DesignerServices
 90
        0
280
     0
281
     0
  0
CLASS
  1
PARAMSCOPE
  2
AcAdParamScope
  3
DesignerServices
 90
        0
280
     0
281
     0
  0
CLASS
  1
NAMEDAPPL
  2
AcAdNamedAppl
  3
DesignerServices
 90
        0
280
     0
281
     0
  0
CLASS
  1
AMDTDMMENUSTATE
  2
AmdtDmMenuState
  3
AcMechDwgViewMgmt
 90
        0
280
     0
281
     0
  0
CLASS
  1
AMDTAMMENUSTATE
  2
AmdtAmMenuState
  3
DesignerAssemblies
 90
        0
280
     0
281
     0
  0
CLASS
  1
ACAMPROJECT
  2
AcAmProject
  3
DesignerAssemblies
 90
        0
280
     0
281
     0
  0
CLASS
  1
ACAMGRCOMPDEF
  2
AcAmGrCompDef
  3
DesignerAssemblies
 90
        0
280
     0
281
     0
  0
CLASS
  1
ACCMCONTEXT
  2
AcCmContext
  3
DesignerAssemblies
 90
        0
280
     0
281
     0
  0
CLASS
  1
ACAMCOMPDEF
  2
AcAmCompDef
  3
DesignerAssemblies
 90
        0
280
     0
281
     0
  0
CLASS
  1
ACAMCOMPDEFMGR
  2
AcAmCompDefMgr
  3
DesignerAssemblies
 90
        0
280
     0
281
     0
  0
CLASS
  1
AMCONTEXTMGR
  2
AcAmContextMgr
  3
DesignerAssemblies
 90
        0
280
     0
281
     0
  0
CLASS
  1
ACAMCONTEXTMODELER
  2
AcAmContextModeler
  3
DesignerAssemblies
 90
        0
280
     0
281
     0
  0
CLASS
  1
ACMTHREADLINESTANDARDISO
  2
AmdtThreadLineStdISO
  3
"Amdt_StdImp|Product Description: AutoCAD Mechanical 2004 DX|Company: Autodesk"
 90
        0
280
     0
281
     0
  0
CLASS
  1
CATALOGSTATE
  2
AcAmCatalogState
  3
DesignerAssemblies
 90
        0
280
     0
281
     0
  0
CLASS
  1
ACAMGRCOMPDEFSET
  2
AcAmGrCompDefSet
  3
DesignerAssemblies
 90
        0
280
     0
281
     0
  0
CLASS
  1
AMDTBROWSERDBTAB
  2
AmdtBrowserDbTab
  3
McadcomServices
 90
        0
280
     0
281
     0
  0
CLASS
  1
CBROWSERAPPOBJECT
  2
CBrowserAppObject
  3
McadcomServices
 90
        0
280
     0
281
     0
  0
CLASS
  1
DM_PLACEHOLDER
  2
AcDmSelsetPlaceholder
  3
AcMechDwgViewMgmt
 90
        0
280
     0
281
     0
  0
CLASS
  1
TABLESTYLE
  2
AcDbTableStyle
  3
ObjectDBX Classes
 90
     2047
280
     0
281
     0
  0
CLASS
  1
VAACXREFPANELOBJECT
  2
VaAcXREFPanelObject
  3
VAAC_ADDIN
 90
    32768
280
     0
281
     0
  0
CLASS
  1
VAACIMAGEINVENTORY
  2
VaAcImageInventory
  3
VAAC_ADDIN
 90
    32768
280
     0
281
     0
  0
CLASS
  1
AMDTNOTETEMPLATEDB
  2
AmdtNoteTemplateDB
  3
AMDT_STDIMP_MODULE_NAME
 90
        0
280
     0
281
     0
  0
CLASS
  1
ACMBOM
  2
AcmBom
  3
"AcmSymBB|Product Description: AutoCAD Mechanical 2004 DX|Company: Autodesk"
 90
    32768
280
     0
281
     0
  0
CLASS
  1
AMDTFORMULAUPDATEDISPATCHER
  2
AmdtFormulaUpdateDispatcher
  3
AcMeServices
 90
    32768
280
     0
281
     0
  0
CLASS
  1
ACMPARTLIST
  2
AcmPartList
  3
"AcmSymBB|Product Description: AutoCAD Mechanical 2004 DX|Company: Autodesk"
 90
    33791
280
     0
281
     1
  0
CLASS
  1
ACAMGFILTERDAT
  2
AcAmgFilterDat
  3
"AcadM|Product Description: AutoCAD Mechanical 2000|Company: Autodesk"
 90
        0
280
     0
281
     0
  0
CLASS
  1
DIMASSOC
  2
AcDbDimAssoc
  3
"AcDbDimAssoc|Product Desc:     AcDim ARX App For Dimension|Company:          Autodesk, Inc.|WEB Address:      www.autodesk.com"
 90
    32768
280
     0
281
     0
  0
CLASS
  1
SORTENTSTABLE
  2
AcDbSortentsTable
  3
ObjectDBX Classes
 90
        0
280
     0
281
     0
  0
CLASS
  1
AMDTNOTE
  2
AmdtNote
  3
"AcmSymBB|Product Description: AutoCAD Mechanical 2004 DX|Company: Autodesk"
 90
     1023
280
     0
281
     1
  0
CLASS
  1
STDPART2D
  2
AmgStdPart
  3
"AmgStdPart|Product Description: AutoCAD Mechanical 2000|Company: Autodesk"
 90
    33791
280
     0
281
     1
  0
CLASS
  1
ACAMSTDPCOMPDEF
  2
AcAmStdpCompDef
  3
DesignerAssemblies
 90
    32768
280
     0
281
     0
  0
CLASS
  1
ACRFATTGENMGR
  2
AcRfAttGeneralMgr
  3
AcAttribServices
 90
        0
280
     0
281
     0
  0
CLASS
  1
ACRFOBJATTMGR
  2
AcRfObjAttGroupMgr
  3
AcAttribServices
 90
    32768
280
     0
281
     0
  0
CLASS
  1
ACRFMCADAPIATTHOLDER
  2
AcRfMCADAPIAttHolder
  3
AcAttribServices
 90
    32768
280
     0
281
     0
  0
CLASS
  1
AMDTSYSATTR
  2
AmdtSystemAttribute
  3
AcAttribServices
 90
    32768
280
     0
281
     0
  0
CLASS
  1
ACAMCOMP
  2
AcAmComp
  3
DesignerAssemblies
 90
    32768
280
     0
281
     0
  0
CLASS
  1
AC_AM_STDP_VIEW_DEF
  2
AcAmStdpViewDef
  3
DesignerAssemblies
 90
    32768
280
     0
281
     0
  0
CLASS
  1
AC_AM_MVD_DEP_MGR
  2
AcAmMVDdepMgr
  3
DesignerAssemblies
 90
        0
280
     0
281
     0
  0
CLASS
  1
AC_AM_MASTER_VIEW_DEF
  2
AcAmMasterViewDef
  3
DesignerAssemblies
 90
        0
280
     0
281
     0
  0
CLASS
  1
AC_AM_DIRTY_NODES
  2
AcAmDirtyNodes
  3
DesignerAssemblies
 90
        0
280
     0
281
     0
  0
CLASS
  1
AC_AM_MAPPER_CACHE
  2
AcAmMapperCache
  3
DesignerAssemblies
 90
        0
280
     0
281
     0
  0
CLASS
  1
ACAMMVDBACKUPOBJECT
  2
AcAmMVDBackupObject
  3
DesignerAssemblies
 90
        0
280
     0
281
     0
  0
CLASS
  1
AC_AM_COMP_VIEW_INST
  2
AcAmCompView
  3
DesignerAssemblies
 90
    32768
280
     0
281
     0
  0
CLASS
  1
AC_AM_2D_XREF_MGR
  2
AcAmXrefMgr2d
  3
DesignerAssemblies
 90
        0
280
     0
281
     0
  0
CLASS
  1
ACMSTANDARDANSI
  2
AcmStandardANSI
  3
"Amdt_StdImp|Product Description: AutoCAD Mechanical 2004 DX|Company: Autodesk"
 90
        0
280
     0
281
     0
  0
CLASS
  1
ACMSURFSTANDARDANSI
  2
AcmSurfTextStdANSI
  3
"Amdt_StdImp|Product Description: AutoCAD Mechanical 2004 DX|Company: Autodesk"
 90
        0
280
     0
281
     0
  0
CLASS
  1
ACMFCFSTANDARDANSI
  2
AcmFCFStdANSI
  3
"Amdt_StdImp|Product Description: AutoCAD Mechanical 2004 DX|Company: Autodesk"
 90
        0
280
     0
281
     0
  0
CLASS
  1
ACMWELDSTANDARDANSI
  2
AcmWeldingStdANSI
  3
"Amdt_StdImp|Product Description: AutoCAD Mechanical 2004 DX|Company: Autodesk"
 90
        0
280
     0
281
     0
  0
CLASS
  1
ACMIDSTANDARDANSI
  2
AcmIdStdANSI
  3
"Amdt_StdImp|Product Description: AutoCAD Mechanical 2004 DX|Company: Autodesk"
 90
        0
280
     0
281
     0
  0
CLASS
  1
ACMDATUMSTANDARDANSI
  2
AcmDatumStdANSI
  3
"Amdt_StdImp|Product Description: AutoCAD Mechanical 2004 DX|Company: Autodesk"
 90
        0
280
     0
281
     0
  0
CLASS
  1
ACMBOMSTANDARDANSI
  2
AcmBOMStdANSI
  3
"Amdt_StdImp|Product Description: AutoCAD Mechanical 2004 DX|Company: Autodesk"
 90
        0
280
     0
281
     0
  0
CLASS
  1
ACMDETAILSTANDARDANSI
  2
AmdtDetailSymStdANSI
  3
"Amdt_StdImp|Product Description: AutoCAD Mechanical 2004 DX|Company: Autodesk"
 90
        0
280
     0
281
     0
  0
CLASS
  1
ACMSECTIONSTANDARDANSI
  2
AmdtSectionSymStdANSI
  3
"Amdt_StdImp|Product Description: AutoCAD Mechanical 2004 DX|Company: Autodesk"
 90
        0
280
     0
281
     0
  0
CLASS
  1
ACMCENTERLINESTANDARDANSI
  2
AmdtCenterLineStdANSI
  3
"Amdt_StdImp|Product Description: AutoCAD Mechanical 2004 DX|Company: Autodesk"
 90
        0
280
     0
281
     0
  0
CLASS
  1
ACMTHREADLINESTANDARDANSI
  2
AmdtThreadLineStdANSI
  3
"Amdt_StdImp|Product Description: AutoCAD Mechanical 2004 DX|Company: Autodesk"
 90
        0
280
     0
281
     0
  0
CLASS
  1
ACMNOTESTANDARDANSI
  2
AmdtNoteStdANSI
  3
"Amdt_StdImp|Product Description: AutoCAD Mechanical 2004 DX|Company: Autodesk"
 90
        0
280
     0
281
     0
  0
CLASS
  1
ACAMGHOLECHARTSTDANSI
  2
AcAmgHoleChartStdANSI
  3
ACMSYMBB_MODULE_NAME
 90
        0
280
     0
281
     0
  0
ENDSEC
  0
SECTION
  2
TABLES
  0
TABLE
  2
VPORT
  5
8
330
0
100
AcDbSymbolTable
 70
     3
  0
VPORT
  5
4D44
330
8
100
AcDbSymbolTableRecord
100
AcDbViewportTableRecord
  2
*Active
 70
     0
 10
0.0
 20
0.0
 11
1.0
 21
1.0
 12
2245.588035000848
 22
1538.133770498448
 13
0.0
 23
0.0
 14
2.5
 24
2.5
 15
10.0
 25
10.0
 16
0.0
 26
0.0
 36
1.0
 17
0.0
 27
0.0
 37
0.0
 40
805.6288993074616
 41
1.609210526315789
 42
50.0
 43
0.0
 44
0.0
 50
0.0
 51
0.0
 71
     0
 72
   100
 73
     1
 74
     3
 75
     0
 76
     0
 77
     0
 78
     0
281
     0
 65
     1
110
0.0
120
0.0
130
0.0
111
1.0
121
0.0
131
0.0
112
0.0
122
1.0
132
0.0
 79
     0
146
0.0
  0
ENDTAB
  0
TABLE
  2
LTYPE
  5
5
330
0
100
AcDbSymbolTable
 70
    16
  0
LTYPE
  5
14
330
5
100
AcDbSymbolTableRecord
100
AcDbLinetypeTableRecord
  2
ByBlock
 70
     0
  3

 72
    65
 73
     0
 40
0.0
  0
LTYPE
  5
15
330
5
100
AcDbSymbolTableRecord
100
AcDbLinetypeTableRecord
  2
ByLayer
 70
     0
  3

 72
    65
 73
     0
 40
0.0
  0
LTYPE
  5
16
330
5
100
AcDbSymbolTableRecord
100
AcDbLinetypeTableRecord
  2
Continuous
 70
     0
  3
Solid line
 72
    65
 73
     0
 40
0.0
  0
LTYPE
  5
64
330
5
100
AcDbSymbolTableRecord
100
AcDbLinetypeTableRecord
  2
AM_ISO02W050
 70
     0
  3
__ __ __ __ __ __ __ __ __ __ __ __ __ __ __
 72
    65
 73
     2
 40
7.5
 49
6.0
 74
     0
 49
-1.5
 74
     0
  0
LTYPE
  5
65
330
5
100
AcDbSymbolTableRecord
100
AcDbLinetypeTableRecord
  2
AM_ISO08W050
 70
     0
  3
____ . ____ . ____ . ____ . ____ . ____ . ____
 72
    65
 73
     4
 40
18.0
 49
12.0
 74
     0
 49
-1.5
 74
     0
 49
3.0
 74
     0
 49
-1.5
 74
     0
  0
LTYPE
  5
66
330
5
100
AcDbSymbolTableRecord
100
AcDbLinetypeTableRecord
  2
AM_ISO09W050
 70
     0
  3
_____ . . _____ . . _____ . . ____ .. ____
 72
    65
 73
     6
 40
22.5
 49
12.0
 74
     0
 49
-1.5
 74
     0
 49
3.0
 74
     0
 49
-1.5
 74
     0
 49
3.0
 74
     0
 49
-1.5
 74
     0
  0
LTYPE
  5
67
330
5
100
AcDbSymbolTableRecord
100
AcDbLinetypeTableRecord
  2
Amconstr
 70
     0
  3
_______________________
 72
    65
 73
     2
 40
9999.0
 49
9999.0
 74
     0
 49
0.0
 74
     0
  0
LTYPE
  5
68
330
5
100
AcDbSymbolTableRecord
100
AcDbLinetypeTableRecord
  2
AM_ISO08W050x2
 70
     0
  3
__ . __ . __ . __ . __ . __
 72
    65
 73
     4
 40
9.0
 49
6.0
 74
     0
 49
-0.75
 74
     0
 49
1.5
 74
     0
 49
-0.75
 74
     0
  0
LTYPE
  5
69
330
5
100
AcDbSymbolTableRecord
100
AcDbLinetypeTableRecord
  2
AM_ISO02W050x2
 70
     0
  3
 _ _ _ _ _ _ _ _ _ _ _ _
 72
    65
 73
     2
 40
3.75
 49
3.0
 74
     0
 49
-0.75
 74
     0
  0
LTYPE
  5
6C
330
5
100
AcDbSymbolTableRecord
100
AcDbLinetypeTableRecord
  2
Amzigzag
 70
     0
  3
/\/-/\/-/\/-/\/-/\/-/\/
 72
    65
 73
     2
 40
11.0001
 49
0.0001
 74
     4
 75
   135
340
6B
 46
0.04
 50
0.0
 44
0.0
 45
0.0
 49
-11.0
 74
     0
  0
LTYPE
  5
7A
330
5
100
AcDbSymbolTableRecord
100
AcDbLinetypeTableRecord
  2
ACISOWELD
 70
     0
  3
_ _ _ _ _
 72
    65
 73
     2
 40
2.0
 49
2.0
 74
     0
 49
-1.0
 74
     0
  0
LTYPE
  5
7B
330
5
100
AcDbSymbolTableRecord
100
AcDbLinetypeTableRecord
  2
ACISOTGB
 70
     0
  3
__ . . __ . .
 72
    65
 73
     6
 40
9.0
 49
4.0
 74
     0
 49
-1.0
 74
     0
 49
1.0
 74
     0
 49
-1.0
 74
     0
 49
1.0
 74
     0
 49
-1.0
 74
     0
  0
LTYPE
  5
7C
330
5
100
AcDbSymbolTableRecord
100
AcDbLinetypeTableRecord
  2
ACISOTGL
 70
     0
  3
_ _ _ _ _
 72
    65
 73
     2
 40
3.0
 49
2.0
 74
     0
 49
-1.0
 74
     0
  0
LTYPE
  5
7E
330
5
100
AcDbSymbolTableRecord
100
AcDbLinetypeTableRecord
  2
CENTER
 70
     0
  3
__ . __
 72
    65
 73
     4
 40
7.0
 49
4.0
 74
     0
 49
-1.0
 74
     0
 49
1.0
 74
     0
 49
-1.0
 74
     0
  0
LTYPE
  5
D8
330
5
100
AcDbSymbolTableRecord
100
AcDbLinetypeTableRecord
  2
HIDDEN
 70
     0
  3
Hidden __ __ __ __ __ __ __ __ __ __ __ __ __ _
 72
    65
 73
     2
 40
9.524999999999998
 49
6.349999999999999
 74
     0
 49
-3.174999999999999
 74
     0
  0
LTYPE
  5
D9
330
5
100
AcDbSymbolTableRecord
100
AcDbLinetypeTableRecord
  2
PHANTOM2
 70
     0
  3
Phantom (.5x) ___ _ _ ___ _ _ ___ _ _ ___ _ _
 72
    65
 73
     6
 40
31.75
 49
15.875
 74
     0
 49
-3.174999999999999
 74
     0
 49
3.174999999999999
 74
     0
 49
-3.174999999999999
 74
     0
 49
3.174999999999999
 74
     0
 49
-3.174999999999999
 74
     0
  0
LTYPE
  5
4930
330
5
100
AcDbSymbolTableRecord
100
AcDbLinetypeTableRecord
  2
ACANSTGB
 70
     0
  3
__ . . __ . .
 72
    65
 73
     6
 40
0.35433070866
 49
0.15748031496
 74
     0
 49
-0.03937007874
 74
     0
 49
0.03937007874
 74
     0
 49
-0.03937007874
 74
     0
 49
0.03937007874
 74
     0
 49
-0.03937007874
 74
     0
  0
LTYPE
  5
4931
330
5
100
AcDbSymbolTableRecord
100
AcDbLinetypeTableRecord
  2
ACANSTGL
 70
     0
  3
_ _ _ _ _
 72
    65
 73
     2
 40
0.11811023622
 49
0.07874015748
 74
     0
 49
-0.03937007874
 74
     0
  0
ENDTAB
  0
TABLE
  2
LAYER
  5
2
102
{ACAD_XDICTIONARY
360
3F9
102
}
330
0
100
AcDbSymbolTable
 70
     8
  0
LAYER
  5
10
330
2
100
AcDbSymbolTableRecord
100
AcDbLayerTableRecord
  2
0
 70
     0
 62
     7
  6
Continuous
370
    -3
390
F
  0
LAYER
  5
206
330
2
100
AcDbSymbolTableRecord
100
AcDbLayerTableRecord
  2
Defpoints
 70
     0
 62
     7
  6
Continuous
290
     0
370
    -3
390
F
  0
LAYER
  5
5AE
330
2
100
AcDbSymbolTableRecord
100
AcDbLayerTableRecord
  2
AM_7
 70
     0
 62
     1
  6
CENTER
370
    25
390
F
  0
LAYER
  5
7C5
330
2
100
AcDbSymbolTableRecord
100
AcDbLayerTableRecord
  2
LOGO
 70
     0
 62
     7
  6
Continuous
370
    -3
390
F
  0
LAYER
  5
7C6
330
2
100
AcDbSymbolTableRecord
100
AcDbLayerTableRecord
  2
AM_5
 70
     0
 62
     5
  6
Continuous
370
    50
390
F
  0
LAYER
  5
7C7
330
2
100
AcDbSymbolTableRecord
100
AcDbLayerTableRecord
  2
AM_VIS
 70
     0
 62
     7
  6
Continuous
370
    50
390
F
  0
LAYER
  5
7C8
330
2
100
AcDbSymbolTableRecord
100
AcDbLayerTableRecord
  2
AM_0
 70
     0
 62
     7
  6
Continuous
370
    50
390
F
  0
LAYER
  5
7C9
330
2
100
AcDbSymbolTableRecord
100
AcDbLayerTableRecord
  2
AM_4
 70
     0
 62
     3
  6
Continuous
370
    25
390
F
  0
ENDTAB
  0
TABLE
  2
STYLE
  5
3
330
0
100
AcDbSymbolTable
 70
     9
  0
STYLE
  5
11
330
3
100
AcDbSymbolTableRecord
100
AcDbTextStyleTableRecord
  2
STANDARD
 70
     0
 40
0.0
 41
1.0
 50
0.0
 71
     0
 42
3.0
  3
ISOCP.SHX
  4
CHINESET.SHX
  0
STYLE
  5
6B
330
3
100
AcDbSymbolTableRecord
100
AcDbTextStyleTableRecord
  2

 70
     1
 40
0.0
 41
1.0
 50
0.0
 71
     0
 42
2.5
  3
ltypeshp.shx
  4

  0
STYLE
  5
6D
330
3
100
AcDbSymbolTableRecord
100
AcDbTextStyleTableRecord
  2
ACISOTS
 70
     0
 40
1.0
 41
1.0
 50
0.0
 71
     0
 42
1.0
  3
isocp.shx
  4
chineset.shx
  0
STYLE
  5
79
330
3
100
AcDbSymbolTableRecord
100
AcDbTextStyleTableRecord
  2
ACISOGDT
 70
     0
 40
0.0
 41
1.0
 50
0.0
 71
     0
 42
2.5
  3
amgdt.shx
  4
chineset.shx
  0
STYLE
  5
60C
330
3
100
AcDbSymbolTableRecord
100
AcDbTextStyleTableRecord
  2
CHINESET
 70
     0
 40
0.0
 41
1.0
 50
0.0
 71
     0
 42
3.0
  3
simplex.shx
  4
CHINESET.SHX
  0
STYLE
  5
40C5
330
3
100
AcDbSymbolTableRecord
100
AcDbTextStyleTableRecord
  2
DAYUS
 70
     0
 40
0.0
 41
1.0
 50
0.0
 71
     0
 42
3.0
  3
simplex.shx
  4
dayus.shx
  0
STYLE
  5
4935
330
3
100
AcDbSymbolTableRecord
100
AcDbTextStyleTableRecord
  2
ACANSTS
 70
     0
 40
1.0
 41
1.0
 50
0.0
 71
     0
 42
4.0
  3
romans.shx
  4
chineset.shx
  0
STYLE
  5
4936
330
3
100
AcDbSymbolTableRecord
100
AcDbTextStyleTableRecord
  2
ACANSGDT
 70
     0
 40
0.0
 41
1.0
 50
0.0
 71
     0
 42
4.0
  3
amgdtans.shx
  4

  0
ENDTAB
  0
TABLE
  2
VIEW
  5
6
330
0
100
AcDbSymbolTable
 70
     0
  0
ENDTAB
  0
TABLE
  2
UCS
  5
7
330
0
100
AcDbSymbolTable
 70
     0
  0
ENDTAB
  0
TABLE
  2
APPID
  5
9
330
0
100
AcDbSymbolTable
 70
    28
  0
APPID
  5
12
330
9
100
AcDbSymbolTableRecord
100
AcDbRegAppTableRecord
  2
ACAD
 70
     0
  0
APPID
  5
46
330
9
100
AcDbSymbolTableRecord
100
AcDbRegAppTableRecord
  2
MCAD_NO_VIS
 70
     0
  0
APPID
  5
47
330
9
100
AcDbSymbolTableRecord
100
AcDbRegAppTableRecord
  2
ACAD_TEMP_GRAPHIC
 70
     0
  0
APPID
  5
58
330
9
100
AcDbSymbolTableRecord
100
AcDbRegAppTableRecord
  2
ACATTRIBSERVICES
 70
     0
  0
APPID
  5
EE
330
9
100
AcDbSymbolTableRecord
100
AcDbRegAppTableRecord
  2
AD_DRAW
 70
     0
  0
APPID
  5
10C
330
9
100
AcDbSymbolTableRecord
100
AcDbRegAppTableRecord
  2
DESIGNERASSEMBLIES
 70
     0
  0
APPID
  5
111
330
9
100
AcDbSymbolTableRecord
100
AcDbRegAppTableRecord
  2
ACADM_DIM_EDIT
 70
     0
  0
APPID
  5
112
330
9
100
AcDbSymbolTableRecord
100
AcDbRegAppTableRecord
  2
AMDT_DM_ADJ
 70
     0
  0
APPID
  5
22C
330
9
100
AcDbSymbolTableRecord
100
AcDbRegAppTableRecord
  2
ACAD_DSTYLE_DIMTEXT_FILL
 70
     0
  0
APPID
  5
452
330
9
100
AcDbSymbolTableRecord
100
AcDbRegAppTableRecord
  2
GENIUS_GENOENT_13
 70
     0
  0
APPID
  5
453
330
9
100
AcDbSymbolTableRecord
100
AcDbRegAppTableRecord
  2
GENIUS_GENOBJ-N-CRS_13
 70
     0
  0
APPID
  5
454
330
9
100
AcDbSymbolTableRecord
100
AcDbRegAppTableRecord
  2
GENIUS_GENOLIS_13
 70
     0
  0
APPID
  5
455
330
9
100
AcDbSymbolTableRecord
100
AcDbRegAppTableRecord
  2
GENIUS_GENODEF_13
 70
     0
  0
APPID
  5
456
330
9
100
AcDbSymbolTableRecord
100
AcDbRegAppTableRecord
  2
GENIUS_GENOREF_13
 70
     0
  0
APPID
  5
6F3
330
9
100
AcDbSymbolTableRecord
100
AcDbRegAppTableRecord
  2
ACAD_PSEXT
 70
     0
  0
APPID
  5
7CB
330
9
100
AcDbSymbolTableRecord
100
AcDbRegAppTableRecord
  2
GENIUS_GENREC_14
 70
     0
  0
APPID
  5
7CC
330
9
100
AcDbSymbolTableRecord
100
AcDbRegAppTableRecord
  2
GENIUS_GENOBJ-N-REC_13
 70
     0
  0
APPID
  5
7CD
330
9
100
AcDbSymbolTableRecord
100
AcDbRegAppTableRecord
  2
GENIUS_GENOBJ-N-CEN_13
 70
     0
  0
APPID
  5
7CE
330
9
100
AcDbSymbolTableRecord
100
AcDbRegAppTableRecord
  2
GENIUS_GENCEN_19
 70
     0
  0
APPID
  5
245E
330
9
100
AcDbSymbolTableRecord
100
AcDbRegAppTableRecord
  2
GEVID1124068070
 70
     0
  0
APPID
  5
245F
330
9
100
AcDbSymbolTableRecord
100
AcDbRegAppTableRecord
  2
GEVDC
 70
     0
  0
APPID
  5
2468
330
9
100
AcDbSymbolTableRecord
100
AcDbRegAppTableRecord
  2
AMG_2DHIDE
 70
     0
  0
APPID
  5
2469
330
9
100
AcDbSymbolTableRecord
100
AcDbRegAppTableRecord
  2
AMG_2DSTRUCT_BTR
 70
     0
  0
APPID
  5
247A
330
9
100
AcDbSymbolTableRecord
100
AcDbRegAppTableRecord
  2
ACADM_2DVIEW_IGN_NOTIFY
 70
     0
  0
APPID
  5
2576
330
9
100
AcDbSymbolTableRecord
100
AcDbRegAppTableRecord
  2
GEVID1124068071
 70
     0
  0
APPID
  5
2577
330
9
100
AcDbSymbolTableRecord
100
AcDbRegAppTableRecord
  2
GEVRADREF
 70
     0
  0
APPID
  5
3843
330
9
100
AcDbSymbolTableRecord
100
AcDbRegAppTableRecord
  2
GEVID1124068072
 70
     0
  0
APPID
  5
451E
330
9
100
AcDbSymbolTableRecord
100
AcDbRegAppTableRecord
  2
GEVID1124068073
 70
     0
  0
ENDTAB
  0
TABLE
  2
DIMSTYLE
  5
A
330
0
100
AcDbSymbolTable
 70
    15
100
AcDbDimStyleTable
 71
     3
340
81
340
8B
340
86
  0
DIMSTYLE
105
81
330
A
100
AcDbSymbolTableRecord
100
AcDbDimStyleTableRecord
  2
AM_ISO
 70
     0
  4
"
 41
3.0
 42
1.0
 43
14.0
 44
1.5
 47
0.1
 48
0.1
 73
     0
 74
     0
 77
     1
 78
     8
 79
     2
140
3.0
141
0.0
143
0.0393701
146
0.71
147
1.0
172
     1
176
   256
177
   256
178
   256
271
     2
272
     2
283
     0
284
     8
340
11
371
    -1
372
    -1
  0
DIMSTYLE
105
82
330
A
100
AcDbSymbolTableRecord
100
AcDbDimStyleTableRecord
  2
AM_ISO$3
 70
     0
  4
"
 41
3.0
 42
1.0
 43
14.0
 44
1.5
 47
0.1
 48
0.1
 73
     0
 77
     1
 78
     8
 79
     2
140
3.0
141
0.0
143
0.0393701
146
0.71
147
1.0
176
   256
177
   256
178
   256
271
     2
272
     2
283
     0
284
     8
288
     1
289
     0
340
11
371
    -1
372
    -1
  0
DIMSTYLE
105
83
330
A
100
AcDbSymbolTableRecord
100
AcDbDimStyleTableRecord
  2
AM_ISO$4
 70
     0
  4
"
 41
3.0
 42
1.0
 43
14.0
 44
1.5
 47
0.1
 48
0.1
 73
     0
 77
     1
 78
     8
 79
     2
140
3.0
141
0.0
143
0.0393701
146
0.71
147
1.0
176
   256
177
   256
178
   256
271
     2
272
     2
283
     0
284
     8
288
     1
289
     0
340
11
371
    -1
372
    -1
  0
DIMSTYLE
105
84
330
A
100
AcDbSymbolTableRecord
100
AcDbDimStyleTableRecord
  2
AM_ISO$6
 70
     0
  4
"
 41
3.0
 42
1.0
 43
14.0
 44
1.5
 47
0.1
 48
0.1
 73
     0
 74
     0
 78
     8
 79
     2
140
3.0
141
0.0
143
0.0393701
146
0.71
147
1.0
172
     1
176
   256
177
   256
178
   256
271
     2
272
     2
283
     0
284
     8
340
11
371
    -1
372
    -1
  0
DIMSTYLE
105
85
330
A
100
AcDbSymbolTableRecord
100
AcDbDimStyleTableRecord
  2
AM_ISO$7
 70
     0
  4
"
 41
3.0
 42
1.0
 43
14.0
 44
1.5
 47
0.1
 48
0.1
 73
     0
 74
     0
 77
     1
 78
     8
 79
     2
140
5.0
141
0.0
143
0.0393701
146
0.71
147
1.0
172
     1
176
   256
177
   256
178
   256
271
     2
272
     2
283
     0
284
     8
340
11
371
    -1
372
    -1
  0
DIMSTYLE
105
86
330
A
100
AcDbSymbolTableRecord
100
AcDbDimStyleTableRecord
  2
AM_ISO$SF
 70
     0
  4
"
 41
2.5
 42
1.0
 43
10.0
 44
1.0
 47
0.1
 48
0.1
 73
     0
 74
     0
 75
     1
 76
     1
 77
     1
 78
     8
 79
     2
140
3.5
141
0.0
143
0.0393701
146
0.71
147
1.5
172
     1
176
   256
177
   256
178
     2
271
     2
272
     3
274
     4
283
     0
284
     8
340
11
371
    -1
372
    -1
  0
DIMSTYLE
105
8B
330
A
100
AcDbSymbolTableRecord
100
AcDbDimStyleTableRecord
  2
AM_ISO$SH
 70
     0
  4
"
 41
2.5
 42
1.0
 43
10.0
 44
1.0
 47
0.1
 48
0.1
 73
     0
 74
     0
 75
     1
 76
     1
 77
     1
 78
     8
 79
     2
140
3.5
141
0.0
143
0.0393701
144
2.0
146
0.71
147
1.5
172
     1
173
     1
176
   256
177
   256
178
     2
271
     2
272
     3
274
     4
283
     0
284
     8
340
11
343
87
371
    -1
372
    -1
  0
DIMSTYLE
105
40B
102
{ACAD_REACTORS
330
484D
330
484E
330
484F
330
48DE
330
48DF
330
48E0
102
}
330
A
100
AcDbSymbolTableRecord
100
AcDbDimStyleTableRecord
  2
AM_ISO$0
 70
     0
  4
"
 41
3.0
 42
1.0
 43
14.0
 44
1.5
 47
0.1
 48
0.1
 73
     0
 74
     0
 77
     1
 78
     8
 79
     2
140
3.0
141
0.0
143
0.0393701
146
0.71
147
1.0
172
     1
176
   256
177
   256
178
   256
271
     2
272
     2
283
     0
284
     8
340
11
371
    -1
372
    -1
  0
DIMSTYLE
105
40C6
330
A
100
AcDbSymbolTableRecord
100
AcDbDimStyleTableRecord
  2
AM_ANSI
 70
     0
  4
"
 41
3.0
 42
1.5
 43
8.0
 44
2.0
 47
0.1
 48
0.1
 73
     0
 74
     0
 77
     3
 78
     8
 79
     2
140
3.0
141
3.0
143
0.0393701
146
0.6
147
0.8
172
     1
176
   256
177
   256
178
   256
271
     2
272
     8
284
     8
340
40C5
371
    -1
372
    -1
  0
DIMSTYLE
105
4937
330
A
100
AcDbSymbolTableRecord
100
AcDbDimStyleTableRecord
  2
AM_ANSI$3
 70
     0
  4
mm
 41
0.1
 42
0.05
 43
0.5
 44
0.1
 47
0.1
 48
0.1
 78
     7
140
0.12
141
0.0
146
0.71
147
0.06
176
   256
177
   256
178
     2
274
     4
284
     7
288
     1
340
11
  0
DIMSTYLE
105
4938
330
A
100
AcDbSymbolTableRecord
100
AcDbDimStyleTableRecord
  2
AM_ANSI$4
 70
     0
  4
mm
 41
0.1
 42
0.05
 43
0.5
 44
0.1
 47
0.1
 48
0.1
 78
     7
140
0.12
141
0.0
146
0.71
147
0.06
176
   256
177
   256
178
     2
274
     4
284
     7
288
     1
340
11
  0
DIMSTYLE
105
4939
330
A
100
AcDbSymbolTableRecord
100
AcDbDimStyleTableRecord
  2
AM_ANSI$7
 70
     0
  4
mm
 41
0.1
 42
0.05
 43
0.5
 44
0.1
 47
0.1
 48
0.1
 78
     7
140
0.24
141
0.0
146
0.71
147
0.06
176
   256
177
   256
178
     2
274
     4
284
     7
340
11
  0
DIMSTYLE
105
493A
330
A
100
AcDbSymbolTableRecord
100
AcDbDimStyleTableRecord
  2
AM_ANSI$SF
 70
     0
  4
mm
 41
0.1
 42
0.05
 43
0.5
 44
0.1
 47
0.1
 48
0.1
 75
     1
 76
     1
 78
     7
140
0.12
141
0.0
146
0.71
147
0.06
176
   256
177
   256
178
     2
274
     4
284
     7
340
11
  0
DIMSTYLE
105
493B
330
A
100
AcDbSymbolTableRecord
100
AcDbDimStyleTableRecord
  2
AM_ANSI$SH
 70
     0
  4
mm
 41
0.1
 42
0.05
 43
0.5
 44
0.1
 47
0.1
 48
0.1
 75
     1
 76
     1
 78
     7
140
0.12
141
0.0
146
0.71
147
0.06
173
     1
176
   256
177
   256
178
     2
274
     4
284
     7
340
11
341
87
343
87
  0
ENDTAB
  0
TABLE
  2
BLOCK_RECORD
  5
1
330
0
100
AcDbSymbolTable
 70
    14
  0
BLOCK_RECORD
  5
1F
102
{ACAD_XDICTIONARY
360
8F
102
}
330
1
100
AcDbSymbolTableRecord
100
AcDbBlockTableRecord
  2
*Model_Space
340
22
  0
BLOCK_RECORD
  5
1B
330
1
100
AcDbSymbolTableRecord
100
AcDbBlockTableRecord
  2
*Paper_Space
340
1E
  0
BLOCK_RECORD
  5
23
330
1
100
AcDbSymbolTableRecord
100
AcDbBlockTableRecord
  2
*Paper_Space0
340
26
  0
BLOCK_RECORD
  5
87
330
1
100
AcDbSymbolTableRecord
100
AcDbBlockTableRecord
  2
GENAXEH
340
0
  0
BLOCK_RECORD
  5
247E
330
1
100
AcDbSymbolTableRecord
100
AcDbBlockTableRecord
  2
*U4
340
0
  0
BLOCK_RECORD
  5
4850
330
1
100
AcDbSymbolTableRecord
100
AcDbBlockTableRecord
  2
*D5
340
0
  0
BLOCK_RECORD
  5
485C
330
1
100
AcDbSymbolTableRecord
100
AcDbBlockTableRecord
  2
*D6
340
0
  0
BLOCK_RECORD
  5
4868
330
1
100
AcDbSymbolTableRecord
100
AcDbBlockTableRecord
  2
*D7
340
0
  0
BLOCK_RECORD
  5
48E3
330
1
100
AcDbSymbolTableRecord
100
AcDbBlockTableRecord
  2
*D8
340
0
  0
BLOCK_RECORD
  5
48EF
330
1
100
AcDbSymbolTableRecord
100
AcDbBlockTableRecord
  2
*D9
340
0
  0
BLOCK_RECORD
  5
48FB
330
1
100
AcDbSymbolTableRecord
100
AcDbBlockTableRecord
  2
*D10
340
0
  0
BLOCK_RECORD
  5
4D32
330
1
100
AcDbSymbolTableRecord
100
AcDbBlockTableRecord
  2
*S12
340
0
  0
BLOCK_RECORD
  5
4D3A
330
1
100
AcDbSymbolTableRecord
100
AcDbBlockTableRecord
  2
*S13
340
0
  0
ENDTAB
  0
ENDSEC
  0
SECTION
  2
BLOCKS
  0
BLOCK
  5
20
330
1F
100
AcDbEntity
  8
0
100
AcDbBlockBegin
  2
*Model_Space
 70
     0
 10
0.0
 20
0.0
 30
0.0
  3
*Model_Space
  1

  0
ENDBLK
  5
21
330
1F
100
AcDbEntity
  8
0
100
AcDbBlockEnd
  0
BLOCK
  5
1C
330
1B
100
AcDbEntity
 67
     1
  8
0
100
AcDbBlockBegin
  2
*Paper_Space
 70
     0
 10
0.0
 20
0.0
 30
0.0
  3
*Paper_Space
  1

  0
ENDBLK
  5
1D
330
1B
100
AcDbEntity
 67
     1
  8
0
100
AcDbBlockEnd
  0
BLOCK
  5
24
330
23
100
AcDbEntity
  8
0
100
AcDbBlockBegin
  2
*Paper_Space0
 70
     0
 10
0.0
 20
0.0
 30
0.0
  3
*Paper_Space0
  1

  0
ENDBLK
  5
25
330
23
100
AcDbEntity
  8
0
100
AcDbBlockEnd
  0
BLOCK
  5
89
330
87
100
AcDbEntity
  8
0
100
AcDbBlockBegin
  2
GENAXEH
 70
     0
 10
0.0
 20
0.0
 30
0.0
  3
GENAXEH
  1

  0
LINE
  5
88
330
87
100
AcDbEntity
  8
0
100
AcDbLine
 10
-1.0
 20
0.0
 30
0.0
 11
1.0
 21
0.0
 31
0.0
  0
ENDBLK
  5
8A
330
87
100
AcDbEntity
  8
0
100
AcDbBlockEnd
  0
BLOCK
  5
247F
330
247E
100
AcDbEntity
  8
0
100
AcDbBlockBegin
  2
*U4
 70
     1
 10
0.0
 20
0.0
 30
0.0
  3
*U4
  1

  0
ENDBLK
  5
2480
330
247E
100
AcDbEntity
  8
0
100
AcDbBlockEnd
  0
BLOCK
  5
485A
330
4850
100
AcDbEntity
  8
0
100
AcDbBlockBegin
  2
*D5
 70
     1
 10
0.0
 20
0.0
 30
0.0
  3
*D5
  1

  0
LINE
  5
4AC4
330
4850
100
AcDbEntity
  8
AM_5
100
AcDbLine
 10
2216.347121320781
 20
1684.578916144012
 30
0.0
 11
2256.758698596202
 21
1684.578916144012
 31
0.0
  0
LINE
  5
4AC5
330
4850
100
AcDbEntity
  8
AM_5
100
AcDbLine
 10
2225.347121320781
 20
1704.578916144012
 30
0.0
 11
2256.758698596202
 21
1704.578916144012
 31
0.0
  0
LINE
  5
4AC6
330
4850
100
AcDbEntity
  8
AM_5
100
AcDbLine
 10
2254.508698596202
 20
1689.078916144012
 30
0.0
 11
2254.508698596202
 21
1700.078916144011
 31
0.0
  0
SOLID
  5
4AC7
330
4850
100
AcDbEntity
  8
AM_5
100
AcDbTrace
 10
2253.758698596202
 20
1689.078916144012
 30
0.0
 11
2255.258698596202
 21
1689.078916144012
 31
0.0
 12
2254.508698596202
 22
1684.578916144012
 32
0.0
 13
2254.508698596202
 23
1684.578916144012
 33
0.0
  0
SOLID
  5
4AC8
330
4850
100
AcDbEntity
  8
AM_5
100
AcDbTrace
 10
2253.758698596202
 20
1700.078916144011
 30
0.0
 11
2255.258698596202
 21
1700.078916144011
 31
0.0
 12
2254.508698596202
 22
1704.578916144012
 32
0.0
 13
2254.508698596202
 23
1704.578916144012
 33
0.0
  0
MTEXT
  5
4AC9
330
4850
100
AcDbEntity
  8
AM_5
100
AcDbMText
 10
2250.758255682816
 20
1694.578916144012
 30
0.0
 40
4.5
 41
0.0
 71
     5
 72
     1
  1
L2
 11
0.0000000000000001
 21
1.0
 31
0.0
 73
     1
 44
1.0
1001
ACAD
1000
MTEXTBEGIN
1070
    73
1070
     1
1070
    44
1040
1.0
1070
    74
1070
     0
1000
MTEXTEND
  0
POINT
  5
4ACA
330
4850
100
AcDbEntity
  8
Defpoints
 62
     0
100
AcDbPoint
 10
2214.847121320781
 20
1684.578916144012
 30
0.0
  0
POINT
  5
4ACB
330
4850
100
AcDbEntity
  8
Defpoints
 62
     0
100
AcDbPoint
 10
2223.847121320781
 20
1704.578916144012
 30
0.0
  0
POINT
  5
4ACC
330
4850
100
AcDbEntity
  8
Defpoints
 62
     0
100
AcDbPoint
 10
2254.508698596202
 20
1704.578916144012
 30
0.0
  0
ENDBLK
  5
485B
330
4850
100
AcDbEntity
  8
0
100
AcDbBlockEnd
  0
BLOCK
  5
4866
330
485C
100
AcDbEntity
  8
0
100
AcDbBlockBegin
  2
*D6
 70
     1
 10
0.0
 20
0.0
 30
0.0
  3
*D6
  1

  0
LINE
  5
4ACD
330
485C
100
AcDbEntity
  8
AM_5
100
AcDbLine
 10
2225.347121320781
 20
1704.578916144012
 30
0.0
 11
2242.758698596202
 21
1704.578916144012
 31
0.0
  0
LINE
  5
4ACE
330
485C
100
AcDbEntity
  8
AM_5
100
AcDbLine
 10
2225.347121320781
 20
1763.078916144012
 30
0.0
 11
2242.758698596202
 21
1763.078916144012
 31
0.0
  0
LINE
  5
4ACF
330
485C
100
AcDbEntity
  8
AM_5
100
AcDbLine
 10
2240.508698596201
 20
1709.078916144012
 30
0.0
 11
2240.508698596201
 21
1758.578916144012
 31
0.0
  0
SOLID
  5
4AD0
330
485C
100
AcDbEntity
  8
AM_5
100
AcDbTrace
 10
2239.758698596202
 20
1709.078916144012
 30
0.0
 11
2241.258698596201
 21
1709.078916144012
 31
0.0
 12
2240.508698596201
 22
1704.578916144012
 32
0.0
 13
2240.508698596201
 23
1704.578916144012
 33
0.0
  0
SOLID
  5
4AD1
330
485C
100
AcDbEntity
  8
AM_5
100
AcDbTrace
 10
2239.758698596202
 20
1758.578916144012
 30
0.0
 11
2241.258698596201
 21
1758.578916144012
 31
0.0
 12
2240.508698596201
 22
1763.078916144012
 32
0.0
 13
2240.508698596201
 23
1763.078916144012
 33
0.0
  0
MTEXT
  5
4AD2
330
485C
100
AcDbEntity
  8
AM_5
100
AcDbMText
 10
2236.758698596201
 20
1733.828916144012
 30
0.0
 40
4.5
 41
0.0
 71
     5
 72
     1
  1
L1
 11
0.0000000000000001
 21
1.0
 31
0.0
 73
     1
 44
1.0
1001
ACAD
1000
MTEXTBEGIN
1070
    73
1070
     1
1070
    44
1040
1.0
1070
    74
1070
     0
1000
MTEXTEND
  0
POINT
  5
4AD3
330
485C
100
AcDbEntity
  8
Defpoints
 62
     0
100
AcDbPoint
 10
2223.847121320781
 20
1704.578916144012
 30
0.0
  0
POINT
  5
4AD4
330
485C
100
AcDbEntity
  8
Defpoints
 62
     0
100
AcDbPoint
 10
2223.847121320781
 20
1763.078916144012
 30
0.0
  0
POINT
  5
4AD5
330
485C
100
AcDbEntity
  8
Defpoints
 62
     0
100
AcDbPoint
 10
2240.508698596201
 20
1763.078916144012
 30
0.0
  0
ENDBLK
  5
4867
330
485C
100
AcDbEntity
  8
0
100
AcDbBlockEnd
  0
BLOCK
  5
4872
330
4868
100
AcDbEntity
  8
0
100
AcDbBlockBegin
  2
*D7
 70
     1
 10
0.0
 20
0.0
 30
0.0
  3
*D7
  1

  0
LINE
  5
4AD6
330
4868
100
AcDbEntity
  8
AM_5
100
AcDbLine
 10
2225.347121320781
 20
1704.578916144012
 30
0.0
 11
2256.758698596202
 21
1704.578916144012
 31
0.0
  0
LINE
  5
4AD7
330
4868
100
AcDbEntity
  8
AM_5
100
AcDbLine
 10
2222.847121320781
 20
1777.078916144011
 30
0.0
 11
2256.758698596202
 21
1777.078916144011
 31
0.0
  0
LINE
  5
4AD8
330
4868
100
AcDbEntity
  8
AM_5
100
AcDbLine
 10
2254.508698596202
 20
1709.078916144012
 30
0.0
 11
2254.508698596202
 21
1772.578916144012
 31
0.0
  0
SOLID
  5
4AD9
330
4868
100
AcDbEntity
  8
AM_5
100
AcDbTrace
 10
2253.758698596202
 20
1709.078916144012
 30
0.0
 11
2255.258698596202
 21
1709.078916144012
 31
0.0
 12
2254.508698596202
 22
1704.578916144012
 32
0.0
 13
2254.508698596202
 23
1704.578916144012
 33
0.0
  0
SOLID
  5
4ADA
330
4868
100
AcDbEntity
  8
AM_5
100
AcDbTrace
 10
2253.758698596202
 20
1772.578916144012
 30
0.0
 11
2255.258698596202
 21
1772.578916144012
 31
0.0
 12
2254.508698596202
 22
1777.078916144011
 32
0.0
 13
2254.508698596202
 23
1777.078916144011
 33
0.0
  0
MTEXT
  5
4ADB
330
4868
100
AcDbEntity
  8
AM_5
100
AcDbMText
 10
2250.758698596201
 20
1740.828916144012
 30
0.0
 40
4.5
 41
0.0
 71
     5
 72
     1
  1
L
 11
0.0000000000000001
 21
1.0
 31
0.0
 73
     1
 44
1.0
1001
ACAD
1000
MTEXTBEGIN
1070
    73
1070
     1
1070
    44
1040
1.0
1070
    74
1070
     0
1000
MTEXTEND
  0
POINT
  5
4ADC
330
4868
100
AcDbEntity
  8
Defpoints
 62
     0
100
AcDbPoint
 10
2223.847121320781
 20
1704.578916144012
 30
0.0
  0
POINT
  5
4ADD
330
4868
100
AcDbEntity
  8
Defpoints
 62
     0
100
AcDbPoint
 10
2221.347121320781
 20
1777.078916144011
 30
0.0
  0
POINT
  5
4ADE
330
4868
100
AcDbEntity
  8
Defpoints
 62
     0
100
AcDbPoint
 10
2254.508698596202
 20
1777.078916144011
 30
0.0
  0
ENDBLK
  5
4873
330
4868
100
AcDbEntity
  8
0
100
AcDbBlockEnd
  0
BLOCK
  5
48ED
330
48E3
100
AcDbEntity
  8
0
100
AcDbBlockBegin
  2
*D8
 70
     1
 10
0.0
 20
0.0
 30
0.0
  3
*D8
  1

  0
LINE
  5
4B18
330
48E3
100
AcDbEntity
  8
AM_5
100
AcDbLine
 10
2216.347121320781
 20
1328.54829851168
 30
0.0
 11
2256.758698596203
 21
1328.54829851168
 31
0.0
  0
LINE
  5
4B19
330
48E3
100
AcDbEntity
  8
AM_5
100
AcDbLine
 10
2225.347121320781
 20
1336.54829851168
 30
0.0
 11
2256.758698596203
 21
1336.54829851168
 31
0.0
  0
LINE
  5
4B1A
330
48E3
100
AcDbEntity
  8
AM_5
100
AcDbLine
 10
2254.508698596203
 20
1324.048298511681
 30
0.0
 11
2254.508698596203
 21
1319.548298511681
 31
0.0
  0
LINE
  5
4B1B
330
48E3
100
AcDbEntity
  8
AM_5
100
AcDbLine
 10
2254.508698596203
 20
1341.048298511681
 30
0.0
 11
2254.508698596203
 21
1345.548298511681
 31
0.0
  0
LINE
  5
4B1C
330
48E3
100
AcDbEntity
  8
AM_5
100
AcDbLine
 10
2254.508698596203
 20
1328.54829851168
 30
0.0
 11
2254.508698596203
 21
1336.54829851168
 31
0.0
  0
SOLID
  5
4B1D
330
48E3
100
AcDbEntity
  8
AM_5
100
AcDbTrace
 10
2253.758698596203
 20
1324.048298511681
 30
0.0
 11
2255.258698596203
 21
1324.048298511681
 31
0.0
 12
2254.508698596203
 22
1328.54829851168
 32
0.0
 13
2254.508698596203
 23
1328.54829851168
 33
0.0
  0
SOLID
  5
4B1E
330
48E3
100
AcDbEntity
  8
AM_5
100
AcDbTrace
 10
2253.758698596203
 20
1341.048298511681
 30
0.0
 11
2255.258698596203
 21
1341.048298511681
 31
0.0
 12
2254.508698596203
 22
1336.54829851168
 32
0.0
 13
2254.508698596203
 23
1336.54829851168
 33
0.0
  0
MTEXT
  5
4B1F
330
48E3
100
AcDbEntity
  8
AM_5
100
AcDbMText
 10
2250.758255682816
 20
1332.548298511681
 30
0.0
 40
4.5
 41
0.0
 71
     5
 72
     1
  1
L2
 11
0.0000000000000001
 21
1.0
 31
0.0
 73
     1
 44
1.0
1001
ACAD
1000
MTEXTBEGIN
1070
    73
1070
     1
1070
    44
1040
1.0
1070
    74
1070
     0
1000
MTEXTEND
  0
POINT
  5
4B20
330
48E3
100
AcDbEntity
  8
Defpoints
 62
     0
100
AcDbPoint
 10
2214.847121320781
 20
1328.54829851168
 30
0.0
  0
POINT
  5
4B21
330
48E3
100
AcDbEntity
  8
Defpoints
 62
     0
100
AcDbPoint
 10
2223.847121320781
 20
1336.54829851168
 30
0.0
  0
POINT
  5
4B22
330
48E3
100
AcDbEntity
  8
Defpoints
 62
     0
100
AcDbPoint
 10
2254.508698596203
 20
1336.54829851168
 30
0.0
  0
ENDBLK
  5
48EE
330
48E3
100
AcDbEntity
  8
0
100
AcDbBlockEnd
  0
BLOCK
  5
48F9
330
48EF
100
AcDbEntity
  8
0
100
AcDbBlockBegin
  2
*D9
 70
     1
 10
0.0
 20
0.0
 30
0.0
  3
*D9
  1

  0
LINE
  5
4AEA
330
48EF
100
AcDbEntity
  8
AM_5
100
AcDbLine
 10
2225.347121320781
 20
1336.54829851168
 30
0.0
 11
2242.758698596202
 21
1336.54829851168
 31
0.0
  0
LINE
  5
4AEB
330
48EF
100
AcDbEntity
  8
AM_5
100
AcDbLine
 10
2225.347121320781
 20
1395.048298511681
 30
0.0
 11
2242.758698596202
 21
1395.048298511681
 31
0.0
  0
LINE
  5
4AEC
330
48EF
100
AcDbEntity
  8
AM_5
100
AcDbLine
 10
2240.508698596201
 20
1341.048298511681
 30
0.0
 11
2240.508698596201
 21
1390.548298511681
 31
0.0
  0
SOLID
  5
4AED
330
48EF
100
AcDbEntity
  8
AM_5
100
AcDbTrace
 10
2239.758698596202
 20
1341.048298511681
 30
0.0
 11
2241.258698596201
 21
1341.048298511681
 31
0.0
 12
2240.508698596201
 22
1336.54829851168
 32
0.0
 13
2240.508698596201
 23
1336.54829851168
 33
0.0
  0
SOLID
  5
4AEE
330
48EF
100
AcDbEntity
  8
AM_5
100
AcDbTrace
 10
2239.758698596202
 20
1390.548298511681
 30
0.0
 11
2241.258698596201
 21
1390.548298511681
 31
0.0
 12
2240.508698596201
 22
1395.048298511681
 32
0.0
 13
2240.508698596201
 23
1395.048298511681
 33
0.0
  0
MTEXT
  5
4AEF
330
48EF
100
AcDbEntity
  8
AM_5
100
AcDbMText
 10
2236.758698596201
 20
1365.798298511681
 30
0.0
 40
4.5
 41
0.0
 71
     5
 72
     1
  1
L1
 11
0.0000000000000001
 21
1.0
 31
0.0
 73
     1
 44
1.0
1001
ACAD
1000
MTEXTBEGIN
1070
    73
1070
     1
1070
    44
1040
1.0
1070
    74
1070
     0
1000
MTEXTEND
  0
POINT
  5
4AF0
330
48EF
100
AcDbEntity
  8
Defpoints
 62
     0
100
AcDbPoint
 10
2223.847121320781
 20
1336.54829851168
 30
0.0
  0
POINT
  5
4AF1
330
48EF
100
AcDbEntity
  8
Defpoints
 62
     0
100
AcDbPoint
 10
2223.847121320781
 20
1395.048298511681
 30
0.0
  0
POINT
  5
4AF2
330
48EF
100
AcDbEntity
  8
Defpoints
 62
     0
100
AcDbPoint
 10
2240.508698596201
 20
1395.048298511681
 30
0.0
  0
ENDBLK
  5
48FA
330
48EF
100
AcDbEntity
  8
0
100
AcDbBlockEnd
  0
BLOCK
  5
4905
330
48FB
100
AcDbEntity
  8
0
100
AcDbBlockBegin
  2
*D10
 70
     1
 10
0.0
 20
0.0
 30
0.0
  3
*D10
  1

  0
LINE
  5
4AF3
330
48FB
100
AcDbEntity
  8
AM_5
100
AcDbLine
 10
2225.347121320781
 20
1336.54829851168
 30
0.0
 11
2256.758698596202
 21
1336.54829851168
 31
0.0
  0
LINE
  5
4AF4
330
48FB
100
AcDbEntity
  8
AM_5
100
AcDbLine
 10
2222.847121320781
 20
1409.048298511681
 30
0.0
 11
2256.758698596202
 21
1409.048298511681
 31
0.0
  0
LINE
  5
4AF5
330
48FB
100
AcDbEntity
  8
AM_5
100
AcDbLine
 10
2254.508698596202
 20
1341.048298511681
 30
0.0
 11
2254.508698596202
 21
1404.548298511681
 31
0.0
  0
SOLID
  5
4AF6
330
48FB
100
AcDbEntity
  8
AM_5
100
AcDbTrace
 10
2253.758698596202
 20
1341.048298511681
 30
0.0
 11
2255.258698596202
 21
1341.048298511681
 31
0.0
 12
2254.508698596202
 22
1336.54829851168
 32
0.0
 13
2254.508698596202
 23
1336.54829851168
 33
0.0
  0
SOLID
  5
4AF7
330
48FB
100
AcDbEntity
  8
AM_5
100
AcDbTrace
 10
2253.758698596202
 20
1404.548298511681
 30
0.0
 11
2255.258698596202
 21
1404.548298511681
 31
0.0
 12
2254.508698596202
 22
1409.048298511681
 32
0.0
 13
2254.508698596202
 23
1409.048298511681
 33
0.0
  0
MTEXT
  5
4AF8
330
48FB
100
AcDbEntity
  8
AM_5
100
AcDbMText
 10
2250.758698596201
 20
1372.798298511681
 30
0.0
 40
4.5
 41
0.0
 71
     5
 72
     1
  1
L
 11
0.0000000000000001
 21
1.0
 31
0.0
 73
     1
 44
1.0
1001
ACAD
1000
MTEXTBEGIN
1070
    73
1070
     1
1070
    44
1040
1.0
1070
    74
1070
     0
1000
MTEXTEND
  0
POINT
  5
4AF9
330
48FB
100
AcDbEntity
  8
Defpoints
 62
     0
100
AcDbPoint
 10
2223.847121320781
 20
1336.54829851168
 30
0.0
  0
POINT
  5
4AFA
330
48FB
100
AcDbEntity
  8
Defpoints
 62
     0
100
AcDbPoint
 10
2221.347121320781
 20
1409.048298511681
 30
0.0
  0
POINT
  5
4AFB
330
48FB
100
AcDbEntity
  8
Defpoints
 62
     0
100
AcDbPoint
 10
2254.508698596202
 20
1409.048298511681
 30
0.0
  0
ENDBLK
  5
4906
330
48FB
100
AcDbEntity
  8
0
100
AcDbBlockEnd
  0
BLOCK
  5
4D37
330
4D32
100
AcDbEntity
  8
0
100
AcDbBlockBegin
  2
*S12
 70
     1
 10
0.0
 20
0.0
 30
0.0
  3
*S12
  1

  0
LINE
  5
4D33
330
4D32
100
AcDbEntity
  8
AM_5
 62
     5
100
AcDbLine
 10
2088.404036095394
 20
1695.60949506165
 30
0.0
 11
2068.509565483109
 21
1695.60949506165
 31
0.0
  0
LINE
  5
4D34
330
4D32
100
AcDbEntity
  8
AM_5
 62
     5
100
AcDbLine
 10
2068.509565483109
 20
1695.60949506165
 30
0.0
 11
2061.01149970089
 21
1721.263618177727
 31
0.0
  0
TRACE
  5
4D35
330
4D32
100
AcDbEntity
  8
AM_5
 62
     5
370
    35
100
AcDbTrace
 10
2061.674919650701
 20
1721.457519423247
 30
0.0
 11
2060.348079751078
 21
1721.069716932207
 31
0.0
 12
2059.5386735112
 22
1726.302793012456
 32
0.0
 13
2059.5386735112
 23
1726.302793012456
 33
0.0
  0
MTEXT
  5
4D36
330
4D32
100
AcDbEntity
  8
AM_5
 62
     2
100
AcDbMText
 10
2088.404036095394
 20
1703.259796089735
 30
0.0
 40
5.25
 41
0.0
 71
     7
 72
     5
  1

  7
ACISOTS
 73
     1
 44
1.0
1001
ACAD
1000
MTEXTBEGIN
1070
    73
1070
     1
1070
    44
1040
1.0
1070
    74
1070
     0
1000
MTEXTEND
  0
ENDBLK
  5
4D38
330
4D32
100
AcDbEntity
  8
0
100
AcDbBlockEnd
  0
BLOCK
  5
4D3F
330
4D3A
100
AcDbEntity
  8
0
100
AcDbBlockBegin
  2
*S13
 70
     1
 10
0.0
 20
0.0
 30
0.0
  3
*S13
  1

  0
LINE
  5
4D3B
330
4D3A
100
AcDbEntity
  8
AM_5
 62
     5
100
AcDbLine
 10
2088.404036095394
 20
1327.57887742932
 30
0.0
 11
2068.509565483109
 21
1327.57887742932
 31
0.0
  0
LINE
  5
4D3C
330
4D3A
100
AcDbEntity
  8
AM_5
 62
     5
100
AcDbLine
 10
2068.509565483109
 20
1327.57887742932
 30
0.0
 11
2061.01149970089
 21
1353.233000545396
 31
0.0
  0
TRACE
  5
4D3D
330
4D3A
100
AcDbEntity
  8
AM_5
 62
     5
370
    35
100
AcDbTrace
 10
2061.674919650701
 20
1353.426901790915
 30
0.0
 11
2060.348079751078
 21
1353.039099299876
 31
0.0
 12
2059.5386735112
 22
1358.272175380124
 32
0.0
 13
2059.5386735112
 23
1358.272175380124
 33
0.0
  0
MTEXT
  5
4D3E
330
4D3A
100
AcDbEntity
  8
AM_5
 62
     2
100
AcDbMText
 10
2088.404036095394
 20
1335.229178457403
 30
0.0
 40
5.25
 41
0.0
 71
     7
 72
     5
  1

  7
ACISOTS
 73
     1
 44
1.0
1001
ACAD
1000
MTEXTBEGIN
1070
    73
1070
     1
1070
    44
1040
1.0
1070
    74
1070
     0
1000
MTEXTEND
  0
ENDBLK
  5
4D40
330
4D3A
100
AcDbEntity
  8
0
100
AcDbBlockEnd
  0
ENDSEC
  0
SECTION
  2
ENTITIES
  0
LINE
  5
D9C
330
1F
100
AcDbEntity
  8
LOGO
 62
     1
100
AcDbLine
 10
2530.547793816399
 20
1187.504375673715
 30
0.0
 11
1960.579553207196
 21
1187.504375673715
 31
0.0
  0
LWPOLYLINE
  5
DB0
330
1F
100
AcDbEntity
  8
0
 62
     4
100
AcDbPolyline
 90
        4
 70
     1
 43
0.0
 10
1960.579553207197
 20
1187.504375673715
 10
2530.5477938164
 20
1187.504375673715
 10
2530.5477938164
 20
1937.540148102435
 10
1960.579553207197
 20
1937.540148102435
1001
GENIUS_GENREC_14
1002
{
1000
PYDIR
1011
1960.579553207197
1021
1937.540148102435
1031
0.0
1002
}
1002
{
1000
PXDIR
1011
2530.5477938164
1021
1187.504375673715
1031
0.0
1002
}
1002
{
1000
PORI
1011
1960.579553207197
1021
1187.504375673715
1031
0.0
1002
}
1002
{
1000
PINS
1011
1960.579553207197
1021
1187.504375673715
1031
0.0
1002
}
1002
{
1000
PINS2
1011
2530.5477938164
1021
1937.540148102435
1031
0.0
1002
}
1002
{
1000
C
1070
     1
1002
}
1001
GENIUS_GENODEF_13
1002
{
1000
HIER
1070
     0
1002
}
1002
{
1000
MANEDIT
1070
     0
1002
}
1002
{
1000
NOSEL
1070
     0
1002
}
1002
{
1000
BEHIND
1070
     0
1002
}
1002
{
1000
OTHER
1070
     0
1002
}
1002
{
1000
REACTOR
1002
}
1001
GENIUS_GENOBJ-N-REC_13
1002
{
1000
OWNER
1000
GEN
1002
}
  0
LINE
  5
DEE
330
1F
100
AcDbEntity
  8
LOGO
 62
     4
100
AcDbLine
 10
2170.847509843653
 20
1142.776350828398
 30
0.0
 11
2138.311054368176
 21
1142.776350828398
 31
0.0
  0
LINE
  5
DEF
330
1F
100
AcDbEntity
  8
LOGO
 62
     4
100
AcDbLine
 10
2170.847509843653
 20
1160.671401339912
 30
0.0
 11
2138.311054368176
 21
1160.671401339912
 31
0.0
  0
LINE
  5
DF0
330
1F
100
AcDbEntity
  8
LOGO
 62
     4
100
AcDbLine
 10
2174.101155391201
 20
1167.992103821894
 30
0.0
 11
2135.057408820628
 21
1167.992103821894
 31
0.0
  0
LINE
  5
DF1
330
1F
100
AcDbEntity
  8
LOGO
 62
     4
100
AcDbLine
 10
2174.101155391201
 20
1182.633508785859
 30
0.0
 11
2135.057408820628
 21
1182.633508785859
 31
0.0
  0
TEXT
  5
DF2
330
1F
100
AcDbEntity
  8
LOGO
  6
Continuous
 62
     7
100
AcDbText
 10
2138.312615439247
 20
1171.042806303877
 30
0.0
 40
8.539999999999999
  1
MCGB
  7
CHINESET
 72
     1
 11
2154.579282105913
 21
1175.312806303877
 31
0.0
100
AcDbText
 73
     2
  0
LINE
  5
DF3
330
1F
100
AcDbEntity
  8
LOGO
 62
     4
100
AcDbLine
 10
2135.057408820628
 20
1182.633508785859
 30
0.0
 11
2135.057408820628
 21
1167.992103821894
 31
0.0
  0
LINE
  5
DF4
330
1F
100
AcDbEntity
  8
LOGO
 62
     4
100
AcDbLine
 10
2138.311054368176
 20
1160.671401339912
 30
0.0
 11
2138.311054368176
 21
1142.776350828398
 31
0.0
  0
TEXT
  5
DF5
330
1F
100
AcDbEntity
  8
LOGO
  6
Continuous
100
AcDbText
 10
2149.002139248771
 20
1145.013407762834
 30
319.8578536775513
 40
3.66
  1
Model
 41
0.8
  7
CHINESET
 72
     4
 11
2154.579282105913
 21
1146.843407762834
 31
319.8578536775513
100
AcDbText
  0
TEXT
  5
DF6
330
1F
100
AcDbEntity
  8
LOGO
100
AcDbText
 10
2148.479282105914
 20
1152.083623993907
 30
319.8578536775513
 40
6.099999999999999
  1
型式
  7
CHINESET
 72
     4
 11
2154.579282105913
 21
1154.977521631703
 31
319.8578536775513
100
AcDbText
  0
LINE
  5
DF7
330
1F
100
AcDbEntity
  8
LOGO
 62
     4
100
AcDbLine
 10
2154.579282105913
 20
1167.992103821894
 30
0.0
 11
2154.579282105913
 21
1160.671401339912
 31
0.0
  0
LINE
  5
DF8
330
1F
100
AcDbEntity
  8
LOGO
 62
     4
100
AcDbLine
 10
2174.101155391201
 20
1182.633508785859
 30
0.0
 11
2174.101155391201
 21
1167.992103821894
 31
0.0
  0
LINE
  5
DF9
330
1F
100
AcDbEntity
  8
LOGO
 62
     4
100
AcDbLine
 10
2228.00828911364
 20
1182.633508785859
 30
0.0
 11
2228.00828911364
 21
1167.992103821894
 31
0.0
  0
LINE
  5
DFA
330
1F
100
AcDbEntity
  8
LOGO
 62
     4
100
AcDbLine
 10
2185.620764478692
 20
1182.633508785859
 30
0.0
 11
2185.620764478692
 21
1167.992103821894
 31
0.0
  0
TEXT
  5
DFB
330
1F
100
AcDbEntity
  8
LOGO
  6
Continuous
100
AcDbText
 10
2193.080812510452
 20
1145.623407762834
 30
319.8578536775513
 40
3.66
  1
Bearing type
 41
0.8
  7
CHINESET
 72
     4
 11
2206.814526796167
 21
1146.843407762834
 31
319.8578536775513
100
AcDbText
  0
TEXT
  5
DFC
330
1F
100
AcDbEntity
  8
LOGO
100
AcDbText
 10
2194.678068462833
 20
1152.083623993907
 30
319.8578536775513
 40
6.099999999999999
  1
軸承型式
  7
CHINESET
 72
     4
 11
2206.814526796167
 21
1154.977521631703
 31
319.8578536775513
100
AcDbText
  0
LINE
  5
DFD
330
1F
100
AcDbEntity
  8
LOGO
 62
     4
100
AcDbLine
 10
2228.00828911364
 20
1167.992103821894
 30
0.0
 11
2185.620764478692
 21
1167.992103821894
 31
0.0
  0
LINE
  5
DFE
330
1F
100
AcDbEntity
  8
LOGO
 62
     4
100
AcDbLine
 10
2228.00828911364
 20
1160.671401339912
 30
0.0
 11
2185.620764478692
 21
1160.671401339912
 31
0.0
  0
LINE
  5
DFF
330
1F
100
AcDbEntity
  8
LOGO
 62
     4
100
AcDbLine
 10
2228.00828911364
 20
1142.776350828398
 30
0.0
 11
2185.620764478692
 21
1142.776350828398
 31
0.0
  0
LINE
  5
E00
330
1F
100
AcDbEntity
  8
LOGO
 62
     4
100
AcDbLine
 10
2170.847509843653
 20
1160.671401339912
 30
0.0
 11
2170.847509843653
 21
1142.776350828398
 31
0.0
  0
LINE
  5
E01
330
1F
100
AcDbEntity
  8
LOGO
 62
     4
100
AcDbLine
 10
2185.620764478692
 20
1160.671401339912
 30
0.0
 11
2185.620764478692
 21
1142.776350828398
 31
0.0
  0
LINE
  5
E02
330
1F
100
AcDbEntity
  8
LOGO
 62
     4
100
AcDbLine
 10
2228.00828911364
 20
1160.671401339912
 30
0.0
 11
2228.00828911364
 21
1142.776350828398
 31
0.0
  0
LINE
  5
E03
330
1F
100
AcDbEntity
  8
LOGO
 62
     4
100
AcDbLine
 10
2206.814526796167
 20
1167.992103821894
 30
0.0
 11
2206.814526796167
 21
1160.671401339912
 31
0.0
  0
LINE
  5
E04
330
1F
100
AcDbEntity
  8
LOGO
 62
     4
100
AcDbLine
 10
2228.00828911364
 20
1182.633508785859
 30
0.0
 11
2185.620764478692
 21
1182.633508785859
 31
0.0
  0
LINE
  5
E05
330
1F
100
AcDbEntity
  8
LOGO
  6
Continuous
 62
     7
100
AcDbLine
 10
2176.62364942822
 20
1175.260944133606
 30
0.0
 11
2183.088759619179
 21
1175.260944133606
 31
0.0
  0
TEXT
  5
E06
330
1F
100
AcDbEntity
  8
LOGO
  6
Continuous
 62
     7
100
AcDbText
 10
2187.294526796167
 20
1170.950564940051
 30
0.0
 40
8.539999999999999
  1
03/23
  7
CHINESET
 72
     1
 11
2206.814526796167
 21
1175.220564940051
 31
0.0
100
AcDbText
 73
     2
  0
TEXT
  5
E07
330
1F
100
AcDbEntity
  8
LOGO
  6
Continuous
 62
     7
100
AcDbText
 10
2284.562802041743
 20
1170.950564940051
 30
0.0
 40
8.539999999999999
  1
25
  7
CHINESET
 72
     1
 11
2291.476135375076
 21
1175.220564940051
 31
0.0
100
AcDbText
 73
     2
  0
TEXT
  5
E08
330
1F
100
AcDbEntity
  8
LOGO
  6
Continuous
100
AcDbText
 10
2284.094094061604
 20
1145.013407762834
 30
319.8578536775513
 40
3.66
  1
Stroke
 41
0.8
  7
CHINESET
 72
     4
 11
2290.716951204462
 21
1146.843407762834
 31
319.8578536775513
100
AcDbText
  0
LINE
  5
E09
330
1F
100
AcDbEntity
  8
LOGO
 62
     4
100
AcDbLine
 10
2304.267098223094
 20
1182.633508785859
 30
0.0
 11
2277.16680418583
 21
1182.633508785859
 31
0.0
  0
TEXT
  5
E0A
330
1F
100
AcDbEntity
  8
LOGO
100
AcDbText
 10
2284.616951204462
 20
1151.927521631703
 30
319.8578536775513
 40
6.099999999999999
  1
行程
  7
CHINESET
 72
     4
 11
2290.716951204462
 21
1154.977521631703
 31
319.8578536775513
100
AcDbText
  0
LINE
  5
E0B
330
1F
100
AcDbEntity
  8
LOGO
 62
     4
100
AcDbLine
 10
2302.640275449321
 20
1142.776350828398
 30
0.0
 11
2278.793626959604
 21
1142.776350828398
 31
0.0
  0
LINE
  5
E0C
330
1F
100
AcDbEntity
  8
LOGO
 62
     4
100
AcDbLine
 10
2304.267098223094
 20
1167.992103821894
 30
0.0
 11
2277.16680418583
 21
1167.992103821894
 31
0.0
  0
LINE
  5
E0D
330
1F
100
AcDbEntity
  8
LOGO
 62
     4
100
AcDbLine
 10
2302.640275449321
 20
1160.671401339912
 30
0.0
 11
2278.793626959604
 21
1160.671401339912
 31
0.0
  0
LINE
  5
E0E
330
1F
100
AcDbEntity
  8
LOGO
 62
     4
100
AcDbLine
 10
2265.64719509834
 20
1182.63350878586
 30
0.0
 11
2265.64719509834
 21
1167.992103821894
 31
0.0
  0
LINE
  5
E0F
330
1F
100
AcDbEntity
  8
LOGO
 62
     4
100
AcDbLine
 10
2239.52789820113
 20
1182.633508785859
 30
0.0
 11
2239.52789820113
 21
1167.992103821894
 31
0.0
  0
LINE
  5
E10
330
1F
100
AcDbEntity
  8
LOGO
 62
     4
100
AcDbLine
 10
2277.16680418583
 20
1182.633508785859
 30
0.0
 11
2277.16680418583
 21
1167.992103821894
 31
0.0
  0
LINE
  5
E11
330
1F
100
AcDbEntity
  8
LOGO
 62
     4
100
AcDbLine
 10
2265.64719509834
 20
1142.776350828399
 30
0.0
 11
2239.52789820113
 21
1142.776350828398
 31
0.0
  0
LINE
  5
E12
330
1F
100
AcDbEntity
  8
LOGO
 62
     4
100
AcDbLine
 10
2265.64719509834
 20
1167.992103821894
 30
0.0
 11
2239.52789820113
 21
1167.992103821894
 31
0.0
  0
LINE
  5
E13
330
1F
100
AcDbEntity
  8
LOGO
 62
     4
100
AcDbLine
 10
2265.64719509834
 20
1160.671401339912
 30
0.0
 11
2239.52789820113
 21
1160.671401339912
 31
0.0
  0
LINE
  5
E14
330
1F
100
AcDbEntity
  8
LOGO
 62
     4
100
AcDbLine
 10
2239.52789820113
 20
1160.671401339912
 30
0.0
 11
2239.52789820113
 21
1142.776350828399
 31
0.0
  0
TEXT
  5
E15
330
1F
100
AcDbEntity
  8
LOGO
  6
Continuous
100
AcDbText
 10
2248.056118078307
 20
1145.013407762834
 30
319.8578536775513
 40
3.66
  1
Bore
 41
0.8
  7
CHINESET
 72
     4
 11
2252.587546649735
 21
1146.843407762834
 31
319.8578536775513
100
AcDbText
  0
TEXT
  5
E16
330
1F
100
AcDbEntity
  8
LOGO
100
AcDbText
 10
2246.106296649735
 20
1151.927521631703
 30
319.8578536775513
 40
6.099999999999999
  1
內徑
  7
CHINESET
 72
     4
 11
2252.587546649735
 21
1154.977521631703
 31
319.8578536775513
100
AcDbText
  0
LINE
  5
E17
330
1F
100
AcDbEntity
  8
LOGO
 62
     4
100
AcDbLine
 10
2252.587546274615
 20
1167.992103821894
 30
0.0
 11
2252.587546274615
 21
1160.671401339912
 31
0.0
  0
LINE
  5
E18
330
1F
100
AcDbEntity
  8
LOGO
 62
     4
100
AcDbLine
 10
2265.64719509834
 20
1160.671401339912
 30
0.0
 11
2265.64719509834
 21
1142.776350828399
 31
0.0
  0
LINE
  5
E19
330
1F
100
AcDbEntity
  8
LOGO
 62
     4
100
AcDbLine
 10
2278.793626959604
 20
1160.671401339912
 30
0.0
 11
2278.793626959604
 21
1142.776350828398
 31
0.0
  0
LINE
  5
E1A
330
1F
100
AcDbEntity
  8
LOGO
 62
     4
100
AcDbLine
 10
2265.64719509834
 20
1182.63350878586
 30
0.0
 11
2239.52789820113
 21
1182.633508785859
 31
0.0
  0
LINE
  5
E1B
330
1F
100
AcDbEntity
  8
LOGO
  6
Continuous
 62
     7
100
AcDbLine
 10
2230.530783150659
 20
1175.260944133606
 30
0.0
 11
2236.995893341619
 21
1175.260944133606
 31
0.0
  0
TEXT
  5
E1C
330
1F
100
AcDbEntity
  8
LOGO
  6
Continuous
 62
     7
100
AcDbText
 10
2246.433397487015
 20
1170.950564940051
 30
0.0
 40
8.539999999999999
  1
32
  7
CHINESET
 72
     1
 11
2253.346730820348
 21
1175.220564940051
 31
0.0
100
AcDbText
 73
     2
  0
LINE
  5
E1D
330
1F
100
AcDbEntity
  8
LOGO
  6
Continuous
 62
     7
100
AcDbLine
 10
2268.16968913536
 20
1175.260944133606
 30
0.0
 11
2274.634799326317
 21
1175.260944133606
 31
0.0
  0
LINE
  5
E1E
330
1F
100
AcDbEntity
  8
LOGO
 62
     4
100
AcDbLine
 10
2304.267098223094
 20
1182.633508785859
 30
0.0
 11
2304.267098223094
 21
1167.992103821894
 31
0.0
  0
LINE
  5
E1F
330
1F
100
AcDbEntity
  8
LOGO
 62
     4
100
AcDbLine
 10
2302.640275449321
 20
1160.671401339912
 30
0.0
 11
2302.640275449321
 21
1142.708874622155
 31
0.0
  0
LINE
  5
E20
330
1F
100
AcDbEntity
  8
LOGO
 62
     4
100
AcDbLine
 10
2291.061497496633
 20
1167.992103821894
 30
0.0
 11
2291.061497496633
 21
1160.671401339912
 31
0.0
  0
LINE
  5
E21
330
1F
100
AcDbEntity
  8
0
 62
     4
100
AcDbLine
 10
1960.579553207198
 20
1562.522261888075
 30
0.0
 11
2530.5477938164
 21
1562.522261888075
 31
0.0
  0
LINE
  5
42A7
330
1F
100
AcDbEntity
  8
AM_VIS
100
AcDbLine
 10
2215.847121320781
 20
1685.578916144011
 30
0.0
 11
2215.847121320781
 21
1704.578916144012
 31
0.0
  0
LINE
  5
42A8
330
1F
100
AcDbEntity
  8
AM_VIS
100
AcDbLine
 10
2215.847121320781
 20
1763.078916144012
 30
0.0
 11
2215.847121320781
 21
1765.078916144012
 31
0.0
  0
LINE
  5
42A9
330
1F
100
AcDbEntity
  8
AM_VIS
100
AcDbLine
 10
2195.847121320781
 20
1685.578916144011
 30
0.0
 11
2195.847121320781
 21
1704.578916144012
 31
0.0
  0
LINE
  5
42AA
330
1F
100
AcDbEntity
  8
AM_VIS
100
AcDbLine
 10
2195.847121320781
 20
1763.078916144012
 30
0.0
 11
2195.847121320781
 21
1765.078916144012
 31
0.0
  0
LINE
  5
42AB
330
1F
100
AcDbEntity
  8
AM_VIS
100
AcDbLine
 10
2214.847121320781
 20
1684.578916144012
 30
0.0
 11
2215.847121320781
 21
1685.578916144011
 31
0.0
  0
LINE
  5
42AC
330
1F
100
AcDbEntity
  8
AM_VIS
100
AcDbLine
 10
2196.847121320781
 20
1684.578916144012
 30
0.0
 11
2195.847121320781
 21
1685.578916144011
 31
0.0
  0
LINE
  5
42AD
330
1F
100
AcDbEntity
  8
AM_VIS
100
AcDbLine
 10
2214.847121320781
 20
1684.578916144012
 30
0.0
 11
2196.847121320781
 21
1684.578916144012
 31
0.0
  0
LINE
  5
42AE
330
1F
100
AcDbEntity
  8
AM_VIS
100
AcDbLine
 10
2221.347121320781
 20
1777.078916144011
 30
0.0
 11
2221.847121320781
 21
1776.578916144012
 31
0.0
  0
LINE
  5
42AF
330
1F
100
AcDbEntity
  8
AM_VIS
100
AcDbLine
 10
2221.847121320781
 20
1765.578916144012
 30
0.0
 11
2221.847121320781
 21
1776.578916144012
 31
0.0
  0
LINE
  5
42B0
330
1F
100
AcDbEntity
  8
AM_VIS
100
AcDbLine
 10
2221.847121320781
 20
1765.578916144012
 30
0.0
 11
2221.347121320781
 21
1765.078916144012
 31
0.0
  0
LINE
  5
42B1
330
1F
100
AcDbEntity
  8
AM_VIS
100
AcDbLine
 10
2109.847121320781
 20
1776.578916144012
 30
0.0
 11
2109.847121320781
 21
1765.578916144012
 31
0.0
  0
LINE
  5
42B2
330
1F
100
AcDbEntity
  8
AM_VIS
100
AcDbLine
 10
2109.847121320781
 20
1776.578916144012
 30
0.0
 11
2110.347121320781
 21
1777.078916144011
 31
0.0
  0
LINE
  5
42B3
330
1F
100
AcDbEntity
  8
AM_VIS
100
AcDbLine
 10
2110.347121320781
 20
1765.078916144012
 30
0.0
 11
2109.847121320781
 21
1765.578916144012
 31
0.0
  0
LINE
  5
42B4
330
1F
100
AcDbEntity
  8
AM_VIS
100
AcDbLine
 10
2221.347121320781
 20
1777.078916144011
 30
0.0
 11
2110.347121320781
 21
1777.078916144011
 31
0.0
  0
LINE
  5
42B5
330
1F
100
AcDbEntity
  8
AM_VIS
100
AcDbLine
 10
2110.347121320781
 20
1765.078916144012
 30
0.0
 11
2221.347121320781
 21
1765.078916144012
 31
0.0
  0
LINE
  5
42B6
330
1F
100
AcDbEntity
  8
AM_VIS
100
AcDbLine
 10
2173.847121320781
 20
1763.078916144012
 30
0.0
 11
2173.847121320781
 21
1765.078916144012
 31
0.0
  0
LINE
  5
42B7
330
1F
100
AcDbEntity
  8
AM_VIS
100
AcDbLine
 10
2157.847121320781
 20
1763.078916144012
 30
0.0
 11
2157.847121320781
 21
1765.078916144012
 31
0.0
  0
LINE
  5
42B8
330
1F
100
AcDbEntity
  8
AM_VIS
100
AcDbLine
 10
2135.847121320781
 20
1685.578916144011
 30
0.0
 11
2135.847121320781
 21
1704.578916144012
 31
0.0
  0
LINE
  5
42B9
330
1F
100
AcDbEntity
  8
AM_VIS
100
AcDbLine
 10
2135.847121320781
 20
1763.078916144012
 30
0.0
 11
2135.847121320781
 21
1765.078916144012
 31
0.0
  0
LINE
  5
42BA
330
1F
100
AcDbEntity
  8
AM_VIS
100
AcDbLine
 10
2115.847121320781
 20
1685.578916144011
 30
0.0
 11
2115.847121320781
 21
1704.578916144012
 31
0.0
  0
LINE
  5
42BB
330
1F
100
AcDbEntity
  8
AM_VIS
100
AcDbLine
 10
2115.847121320781
 20
1763.078916144012
 30
0.0
 11
2115.847121320781
 21
1765.078916144012
 31
0.0
  0
LINE
  5
42BC
330
1F
100
AcDbEntity
  8
AM_VIS
100
AcDbLine
 10
2134.847121320781
 20
1684.578916144012
 30
0.0
 11
2135.847121320781
 21
1685.578916144011
 31
0.0
  0
LINE
  5
42BD
330
1F
100
AcDbEntity
  8
AM_VIS
100
AcDbLine
 10
2116.847121320781
 20
1684.578916144012
 30
0.0
 11
2115.847121320781
 21
1685.578916144011
 31
0.0
  0
LINE
  5
42BE
330
1F
100
AcDbEntity
  8
AM_VIS
100
AcDbLine
 10
2134.847121320781
 20
1684.578916144012
 30
0.0
 11
2116.847121320781
 21
1684.578916144012
 31
0.0
  0
LINE
  5
42BF
330
1F
100
AcDbEntity
  8
AM_VIS
100
AcDbLine
 10
2183.047121320781
 20
1737.102737073598
 30
0.0
 11
2183.047121320781
 21
1723.055095214426
 31
0.0
  0
LINE
  5
42C0
330
1F
100
AcDbEntity
  8
AM_VIS
100
AcDbLine
 10
2174.047121320781
 20
1763.078916144012
 30
0.0
 11
2174.047121320781
 21
1704.578916144012
 31
0.0
  0
LINE
  5
42C1
330
1F
100
AcDbEntity
  8
AM_VIS
100
AcDbLine
 10
2170.647121320781
 20
1704.578916144012
 30
0.0
 11
2170.647121320781
 21
1763.078916144012
 31
0.0
  0
LINE
  5
42C2
330
1F
100
AcDbEntity
  8
AM_VIS
100
AcDbLine
 10
2148.647121320781
 20
1715.102737073598
 30
0.0
 11
2148.647121320781
 21
1704.578916144012
 31
0.0
  0
LINE
  5
42C3
330
1F
100
AcDbEntity
  8
AM_VIS
100
AcDbLine
 10
2161.047121320781
 20
1763.078916144012
 30
0.0
 11
2161.047121320781
 21
1704.578916144012
 31
0.0
  0
LINE
  5
42C4
330
1F
100
AcDbEntity
  8
AM_VIS
100
AcDbLine
 10
2157.647121320781
 20
1704.578916144012
 30
0.0
 11
2157.647121320781
 21
1763.078916144012
 31
0.0
  0
LINE
  5
42C5
330
1F
100
AcDbEntity
  8
AM_VIS
100
AcDbLine
 10
2223.847121320781
 20
1704.578916144012
 30
0.0
 11
2223.847121320781
 21
1763.078916144012
 31
0.0
  0
LINE
  5
42C6
330
1F
100
AcDbEntity
  8
AM_VIS
100
AcDbLine
 10
2148.647121320781
 20
1763.078916144012
 30
0.0
 11
2148.647121320781
 21
1745.055095214426
 31
0.0
  0
ARC
  5
42C7
330
1F
100
AcDbEntity
  8
AM_VIS
100
AcDbCircle
 10
2144.847121320781
 20
1741.078916144012
 30
0.0
 40
5.500000000000001
100
AcDbArc
 50
46.29788556264878
 51
56.94426884914591
  0
LINE
  5
42C8
330
1F
100
AcDbEntity
  8
AM_VIS
100
AcDbLine
 10
2183.047121320781
 20
1715.102737073598
 30
0.0
 11
2183.047121320781
 21
1704.578916144012
 31
0.0
  0
LINE
  5
42C9
330
1F
100
AcDbEntity
  8
AM_VIS
100
AcDbLine
 10
2183.047121320781
 20
1763.078916144012
 30
0.0
 11
2183.047121320781
 21
1745.055095214426
 31
0.0
  0
LINE
  5
42CA
330
1F
100
AcDbEntity
  8
AM_VIS
100
AcDbLine
 10
2183.847121320781
 20
1736.469143915365
 30
0.0
 11
2183.847121320781
 21
1723.688688372658
 31
0.0
  0
LINE
  5
42CB
330
1F
100
AcDbEntity
  8
AM_VIS
100
AcDbLine
 10
2183.847121320781
 20
1763.078916144012
 30
0.0
 11
2183.847121320781
 21
1745.688688372658
 31
0.0
  0
LINE
  5
42CC
330
1F
100
AcDbEntity
  8
AM_VIS
100
AcDbLine
 10
2183.847121320781
 20
1714.469143915365
 30
0.0
 11
2183.847121320781
 21
1704.578916144012
 31
0.0
  0
ARC
  5
42CD
330
1F
100
AcDbEntity
  8
AM_VIS
100
AcDbCircle
 10
2144.847121320781
 20
1741.078916144012
 30
0.0
 40
5.500000000000001
100
AcDbArc
 50
303.0557311508541
 51
313.7021144373512
  0
LINE
  5
42CE
330
1F
100
AcDbEntity
  8
AM_VIS
100
AcDbLine
 10
2148.647121320781
 20
1737.102737073598
 30
0.0
 11
2148.647121320781
 21
1723.055095214426
 31
0.0
  0
ARC
  5
42CF
330
1F
100
AcDbEntity
  8
AM_VIS
100
AcDbCircle
 10
2186.847121320781
 20
1741.078916144012
 30
0.0
 40
5.499999999999998
100
AcDbArc
 50
226.2978855626488
 51
236.9442688491459
  0
ARC
  5
42D0
330
1F
100
AcDbEntity
  8
AM_VIS
100
AcDbCircle
 10
2186.847121320781
 20
1741.078916144012
 30
0.0
 40
5.499999999999998
100
AcDbArc
 50
123.0557311508541
 51
133.7021144373512
  0
ARC
  5
42D1
330
1F
100
AcDbEntity
  8
AM_VIS
100
AcDbCircle
 10
2144.847121320781
 20
1719.078916144012
 30
0.0
 40
5.500000000000001
100
AcDbArc
 50
46.29788556264878
 51
56.94426884914591
  0
ARC
  5
42D2
330
1F
100
AcDbEntity
  8
AM_VIS
100
AcDbCircle
 10
2144.847121320781
 20
1719.078916144012
 30
0.0
 40
5.500000000000001
100
AcDbArc
 50
303.0557311508541
 51
313.7021144373512
  0
ARC
  5
42D3
330
1F
100
AcDbEntity
  8
AM_VIS
100
AcDbCircle
 10
2186.847121320781
 20
1719.078916144012
 30
0.0
 40
5.499999999999998
100
AcDbArc
 50
226.2978855626488
 51
236.9442688491459
  0
ARC
  5
42D4
330
1F
100
AcDbEntity
  8
AM_VIS
100
AcDbCircle
 10
2186.847121320781
 20
1719.078916144012
 30
0.0
 40
5.499999999999998
100
AcDbArc
 50
123.0557311508541
 51
133.7021144373512
  0
LINE
  5
42D5
330
1F
100
AcDbEntity
  8
AM_VIS
100
AcDbLine
 10
2183.847121320781
 20
1763.078916144012
 30
0.0
 11
2222.347121320781
 21
1763.078916144012
 31
0.0
  0
LINE
  5
42D6
330
1F
100
AcDbEntity
  8
AM_VIS
100
AcDbLine
 10
2183.047121320781
 20
1763.078916144012
 30
0.0
 11
2183.847121320781
 21
1763.078916144012
 31
0.0
  0
LINE
  5
42D7
330
1F
100
AcDbEntity
  8
AM_VIS
100
AcDbLine
 10
2174.047121320781
 20
1763.078916144012
 30
0.0
 11
2183.047121320781
 21
1763.078916144012
 31
0.0
  0
LINE
  5
42D8
330
1F
100
AcDbEntity
  8
AM_VIS
100
AcDbLine
 10
2171.897121320781
 20
1763.078916144012
 30
0.0
 11
2172.797121320781
 21
1763.078916144012
 31
0.0
  0
LINE
  5
42D9
330
1F
100
AcDbEntity
  8
AM_VIS
100
AcDbLine
 10
2161.047121320781
 20
1763.078916144012
 30
0.0
 11
2170.647121320781
 21
1763.078916144012
 31
0.0
  0
LINE
  5
42DA
330
1F
100
AcDbEntity
  8
AM_VIS
100
AcDbLine
 10
2158.897121320781
 20
1763.078916144012
 30
0.0
 11
2159.797121320781
 21
1763.078916144012
 31
0.0
  0
LINE
  5
42DB
330
1F
100
AcDbEntity
  8
AM_VIS
100
AcDbLine
 10
2148.647121320781
 20
1763.078916144012
 30
0.0
 11
2157.647121320781
 21
1763.078916144012
 31
0.0
  0
LINE
  5
42DC
330
1F
100
AcDbEntity
  8
AM_VIS
100
AcDbLine
 10
2147.847121320781
 20
1763.078916144012
 30
0.0
 11
2148.647121320781
 21
1763.078916144012
 31
0.0
  0
LINE
  5
42DD
330
1F
100
AcDbEntity
  8
AM_VIS
100
AcDbLine
 10
2147.847121320781
 20
1704.578916144012
 30
0.0
 11
2147.847121320781
 21
1714.469143915366
 31
0.0
  0
LINE
  5
42DE
330
1F
100
AcDbEntity
  8
AM_VIS
100
AcDbLine
 10
2109.347121320781
 20
1763.078916144012
 30
0.0
 11
2147.847121320781
 21
1763.078916144012
 31
0.0
  0
LINE
  5
42DF
330
1F
100
AcDbEntity
  8
AM_VIS
100
AcDbLine
 10
2147.847121320781
 20
1745.688688372658
 30
0.0
 11
2147.847121320781
 21
1763.078916144012
 31
0.0
  0
LINE
  5
42E0
330
1F
100
AcDbEntity
  8
AM_VIS
100
AcDbLine
 10
2147.847121320781
 20
1723.688688372658
 30
0.0
 11
2147.847121320781
 21
1736.469143915365
 31
0.0
  0
LINE
  5
42E3
330
1F
100
AcDbEntity
  8
AM_VIS
100
AcDbLine
 10
2107.847121320781
 20
1763.078916144012
 30
0.0
 11
2107.847121320781
 21
1704.578916144012
 31
0.0
  0
LINE
  5
42E6
330
1F
100
AcDbEntity
  8
AM_VIS
100
AcDbLine
 10
2109.347121320781
 20
1704.578916144012
 30
0.0
 11
2147.847121320781
 21
1704.578916144012
 31
0.0
  0
LINE
  5
42E7
330
1F
100
AcDbEntity
  8
AM_VIS
100
AcDbLine
 10
2148.647121320781
 20
1704.578916144012
 30
0.0
 11
2147.847121320781
 21
1704.578916144012
 31
0.0
  0
LINE
  5
42E8
330
1F
100
AcDbEntity
  8
AM_VIS
100
AcDbLine
 10
2157.647121320781
 20
1704.578916144012
 30
0.0
 11
2148.647121320781
 21
1704.578916144012
 31
0.0
  0
LINE
  5
42E9
330
1F
100
AcDbEntity
  8
AM_VIS
100
AcDbLine
 10
2159.797121320781
 20
1704.578916144012
 30
0.0
 11
2158.897121320781
 21
1704.578916144012
 31
0.0
  0
LINE
  5
42EA
330
1F
100
AcDbEntity
  8
AM_VIS
100
AcDbLine
 10
2170.647121320781
 20
1704.578916144012
 30
0.0
 11
2161.047121320781
 21
1704.578916144012
 31
0.0
  0
LINE
  5
42EB
330
1F
100
AcDbEntity
  8
AM_VIS
100
AcDbLine
 10
2172.797121320781
 20
1704.578916144012
 30
0.0
 11
2171.897121320781
 21
1704.578916144012
 31
0.0
  0
LINE
  5
42EC
330
1F
100
AcDbEntity
  8
AM_VIS
100
AcDbLine
 10
2183.047121320781
 20
1704.578916144012
 30
0.0
 11
2174.047121320781
 21
1704.578916144012
 31
0.0
  0
LINE
  5
42ED
330
1F
100
AcDbEntity
  8
AM_VIS
100
AcDbLine
 10
2183.847121320781
 20
1704.578916144012
 30
0.0
 11
2183.047121320781
 21
1704.578916144012
 31
0.0
  0
LINE
  5
42EE
330
1F
100
AcDbEntity
  8
AM_VIS
100
AcDbLine
 10
2183.847121320781
 20
1704.578916144012
 30
0.0
 11
2222.347121320781
 21
1704.578916144012
 31
0.0
  0
ARC
  5
42EF
330
1F
100
AcDbEntity
  8
AM_VIS
100
AcDbCircle
 10
2144.847121320781
 20
1741.078916144012
 30
0.0
 40
5.5
100
AcDbArc
 50
313.7021144373512
 51
46.29788556264878
  0
CIRCLE
  5
42F0
330
1F
100
AcDbEntity
  8
AM_VIS
100
AcDbCircle
 10
2144.847121320781
 20
1741.078916144012
 30
0.0
 40
3.399999999999999
  0
ARC
  5
42F1
330
1F
100
AcDbEntity
  8
AM_VIS
100
AcDbCircle
 10
2186.847121320781
 20
1741.078916144012
 30
0.0
 40
5.5
100
AcDbArc
 50
236.9442688491459
 51
123.0557311508541
  0
ARC
  5
42F2
330
1F
100
AcDbEntity
  8
AM_VIS
100
AcDbCircle
 10
2186.847121320781
 20
1741.078916144012
 30
0.0
 40
5.5
100
AcDbArc
 50
133.7021144373512
 51
226.2978855626488
  0
CIRCLE
  5
42F3
330
1F
100
AcDbEntity
  8
AM_VIS
100
AcDbCircle
 10
2186.847121320781
 20
1741.078916144012
 30
0.0
 40
3.399999999999999
  0
ARC
  5
42F4
330
1F
100
AcDbEntity
  8
AM_VIS
100
AcDbCircle
 10
2144.847121320781
 20
1719.078916144012
 30
0.0
 40
5.5
100
AcDbArc
 50
313.7021144373512
 51
46.29788556264878
  0
CIRCLE
  5
42F5
330
1F
100
AcDbEntity
  8
AM_VIS
100
AcDbCircle
 10
2144.847121320781
 20
1719.078916144012
 30
0.0
 40
3.399999999999999
  0
ARC
  5
42F6
330
1F
100
AcDbEntity
  8
AM_VIS
100
AcDbCircle
 10
2186.847121320781
 20
1719.078916144012
 30
0.0
 40
5.5
100
AcDbArc
 50
236.9442688491459
 51
123.0557311508541
  0
ARC
  5
42F7
330
1F
100
AcDbEntity
  8
AM_VIS
100
AcDbCircle
 10
2186.847121320781
 20
1719.078916144012
 30
0.0
 40
5.5
100
AcDbArc
 50
133.7021144373512
 51
226.2978855626488
  0
CIRCLE
  5
42F8
330
1F
100
AcDbEntity
  8
AM_VIS
100
AcDbCircle
 10
2186.847121320781
 20
1719.078916144012
 30
0.0
 40
3.399999999999999
  0
LINE
  5
42F9
330
1F
100
AcDbEntity
  8
AM_VIS
100
AcDbLine
 10
2222.347121320781
 20
1763.078916144012
 30
0.0
 11
2223.847121320781
 21
1763.078916144012
 31
0.0
  0
LINE
  5
42FA
330
1F
100
AcDbEntity
  8
AM_VIS
100
AcDbLine
 10
2174.047121320781
 20
1763.078916144012
 30
0.0
 11
2172.797121320781
 21
1763.078916144012
 31
0.0
  0
LINE
  5
42FB
330
1F
100
AcDbEntity
  8
AM_VIS
100
AcDbLine
 10
2171.897121320781
 20
1763.078916144012
 30
0.0
 11
2170.647121320781
 21
1763.078916144012
 31
0.0
  0
LINE
  5
42FC
330
1F
100
AcDbEntity
  8
AM_VIS
100
AcDbLine
 10
2161.047121320781
 20
1763.078916144012
 30
0.0
 11
2159.797121320781
 21
1763.078916144012
 31
0.0
  0
LINE
  5
42FD
330
1F
100
AcDbEntity
  8
AM_VIS
100
AcDbLine
 10
2158.897121320781
 20
1763.078916144012
 30
0.0
 11
2157.647121320781
 21
1763.078916144012
 31
0.0
  0
LINE
  5
42FE
330
1F
100
AcDbEntity
  8
AM_VIS
100
AcDbLine
 10
2107.847121320781
 20
1763.078916144012
 30
0.0
 11
2109.347121320781
 21
1763.078916144012
 31
0.0
  0
ARC
  5
42FF
330
1F
100
AcDbEntity
  8
AM_VIS
100
AcDbCircle
 10
2144.847121320781
 20
1741.078916144012
 30
0.0
 40
5.5
100
AcDbArc
 50
56.94426884914591
 51
303.0557311508541
  0
ARC
  5
4300
330
1F
100
AcDbEntity
  8
AM_VIS
100
AcDbCircle
 10
2144.847121320781
 20
1719.078916144012
 30
0.0
 40
5.5
100
AcDbArc
 50
56.94426884914591
 51
303.0557311508541
  0
LINE
  5
4305
330
1F
100
AcDbEntity
  8
AM_VIS
100
AcDbLine
 10
2157.647121320781
 20
1704.578916144012
 30
0.0
 11
2158.897121320781
 21
1704.578916144012
 31
0.0
  0
LINE
  5
4306
330
1F
100
AcDbEntity
  8
AM_VIS
100
AcDbLine
 10
2159.797121320781
 20
1704.578916144012
 30
0.0
 11
2161.047121320781
 21
1704.578916144012
 31
0.0
  0
LINE
  5
4307
330
1F
100
AcDbEntity
  8
AM_VIS
100
AcDbLine
 10
2170.647121320781
 20
1704.578916144012
 30
0.0
 11
2171.897121320781
 21
1704.578916144012
 31
0.0
  0
LINE
  5
4308
330
1F
100
AcDbEntity
  8
AM_VIS
100
AcDbLine
 10
2172.797121320781
 20
1704.578916144012
 30
0.0
 11
2174.047121320781
 21
1704.578916144012
 31
0.0
  0
LINE
  5
4309
330
1F
100
AcDbEntity
  8
AM_VIS
100
AcDbLine
 10
2223.847121320781
 20
1704.578916144012
 30
0.0
 11
2222.347121320781
 21
1704.578916144012
 31
0.0
  0
LINE
  5
430A
330
1F
100
AcDbEntity
  8
AM_VIS
100
AcDbLine
 10
2109.347121320781
 20
1704.578916144012
 30
0.0
 11
2107.847121320781
 21
1704.578916144012
 31
0.0
  0
LINE
  5
430B
330
1F
100
AcDbEntity
  8
AM_VIS
100
AcDbLine
 10
2204.458020892446
 20
1840.834712873238
 30
0.0
 11
2202.987121320781
 21
1843.334712873238
 31
0.0
  0
LINE
  5
430C
330
1F
100
AcDbEntity
  8
AM_VIS
100
AcDbLine
 10
2204.458020892446
 20
1845.834712873239
 30
0.0
 11
2207.236221749116
 21
1845.834712873239
 31
0.0
  0
LINE
  5
430D
330
1F
100
AcDbEntity
  8
AM_VIS
100
AcDbLine
 10
2202.987121320781
 20
1843.334712873238
 30
0.0
 11
2204.458020892446
 21
1845.834712873239
 31
0.0
  0
LINE
  5
430E
330
1F
100
AcDbEntity
  8
AM_VIS
100
AcDbLine
 10
2207.236221749116
 20
1840.834712873238
 30
0.0
 11
2204.458020892446
 21
1840.834712873238
 31
0.0
  0
LINE
  5
430F
330
1F
100
AcDbEntity
  8
AM_VIS
100
AcDbLine
 10
2208.707121320781
 20
1843.334712873238
 30
0.0
 11
2207.236221749116
 21
1840.834712873238
 31
0.0
  0
LINE
  5
4310
330
1F
100
AcDbEntity
  8
AM_VIS
100
AcDbLine
 10
2207.236221749116
 20
1845.834712873239
 30
0.0
 11
2208.707121320781
 21
1843.334712873238
 31
0.0
  0
CIRCLE
  5
4311
330
1F
100
AcDbEntity
  8
AM_VIS
100
AcDbCircle
 10
2205.847121320781
 20
1843.334712873238
 30
0.0
 40
7.0
  0
LINE
  5
4312
330
1F
100
AcDbEntity
  8
AM_VIS
100
AcDbLine
 10
2124.458020892447
 20
1840.834712873238
 30
0.0
 11
2122.987121320781
 21
1843.334712873238
 31
0.0
  0
LINE
  5
4313
330
1F
100
AcDbEntity
  8
AM_VIS
100
AcDbLine
 10
2124.458020892447
 20
1845.834712873239
 30
0.0
 11
2127.236221749116
 21
1845.834712873239
 31
0.0
  0
LINE
  5
4314
330
1F
100
AcDbEntity
  8
AM_VIS
100
AcDbLine
 10
2122.987121320781
 20
1843.334712873238
 30
0.0
 11
2124.458020892447
 21
1845.834712873239
 31
0.0
  0
LINE
  5
4315
330
1F
100
AcDbEntity
  8
AM_VIS
100
AcDbLine
 10
2127.236221749116
 20
1840.834712873238
 30
0.0
 11
2124.458020892447
 21
1840.834712873238
 31
0.0
  0
LINE
  5
4316
330
1F
100
AcDbEntity
  8
AM_VIS
100
AcDbLine
 10
2128.707121320781
 20
1843.334712873238
 30
0.0
 11
2127.236221749116
 21
1840.834712873238
 31
0.0
  0
LINE
  5
4317
330
1F
100
AcDbEntity
  8
AM_VIS
100
AcDbLine
 10
2127.236221749116
 20
1845.834712873239
 30
0.0
 11
2128.707121320781
 21
1843.334712873238
 31
0.0
  0
CIRCLE
  5
4318
330
1F
100
AcDbEntity
  8
AM_VIS
100
AcDbCircle
 10
2125.847121320781
 20
1843.334712873238
 30
0.0
 40
7.0
  0
LINE
  5
4319
330
1F
100
AcDbEntity
  8
AM_VIS
100
AcDbLine
 10
2164.458020892446
 20
1840.834712873238
 30
0.0
 11
2162.987121320781
 21
1843.334712873238
 31
0.0
  0
LINE
  5
431A
330
1F
100
AcDbEntity
  8
AM_VIS
100
AcDbLine
 10
2164.458020892446
 20
1845.834712873239
 30
0.0
 11
2167.236221749116
 21
1845.834712873239
 31
0.0
  0
LINE
  5
431B
330
1F
100
AcDbEntity
  8
AM_VIS
100
AcDbLine
 10
2162.987121320781
 20
1843.334712873238
 30
0.0
 11
2164.458020892446
 21
1845.834712873239
 31
0.0
  0
LINE
  5
431C
330
1F
100
AcDbEntity
  8
AM_VIS
100
AcDbLine
 10
2167.236221749116
 20
1840.834712873238
 30
0.0
 11
2164.458020892446
 21
1840.834712873238
 31
0.0
  0
LINE
  5
431D
330
1F
100
AcDbEntity
  8
AM_VIS
100
AcDbLine
 10
2168.707121320781
 20
1843.334712873238
 30
0.0
 11
2167.236221749116
 21
1840.834712873238
 31
0.0
  0
LINE
  5
431E
330
1F
100
AcDbEntity
  8
AM_VIS
100
AcDbLine
 10
2167.236221749116
 20
1845.834712873239
 30
0.0
 11
2168.707121320781
 21
1843.334712873238
 31
0.0
  0
CIRCLE
  5
431F
330
1F
100
AcDbEntity
  8
AM_VIS
100
AcDbCircle
 10
2165.847121320781
 20
1843.334712873238
 30
0.0
 40
7.0
  0
LINE
  5
4320
330
1F
100
AcDbEntity
  8
AM_VIS
100
AcDbLine
 10
2220.847121320781
 20
1867.334712873239
 30
0.0
 11
2110.847121320781
 21
1867.334712873239
 31
0.0
  0
LINE
  5
4321
330
1F
100
AcDbEntity
  8
AM_VIS
100
AcDbLine
 10
2109.847121320781
 20
1866.334712873238
 30
0.0
 11
2109.847121320781
 21
1820.334712873238
 31
0.0
  0
LINE
  5
4322
330
1F
100
AcDbEntity
  8
AM_VIS
100
AcDbLine
 10
2110.847121320781
 20
1819.334712873239
 30
0.0
 11
2220.847121320781
 21
1819.334712873239
 31
0.0
  0
LINE
  5
4323
330
1F
100
AcDbEntity
  8
AM_VIS
100
AcDbLine
 10
2220.847121320781
 20
1819.334712873239
 30
0.0
 11
2221.347121320781
 21
1819.834712873239
 31
0.0
  0
LINE
  5
4324
330
1F
100
AcDbEntity
  8
AM_VIS
100
AcDbLine
 10
2221.347121320781
 20
1819.834712873239
 30
0.0
 11
2221.847121320781
 21
1820.334712873238
 31
0.0
  0
LINE
  5
4325
330
1F
100
AcDbEntity
  8
AM_VIS
100
AcDbLine
 10
2221.847121320781
 20
1866.334712873238
 30
0.0
 11
2221.347121320781
 21
1866.834712873239
 31
0.0
  0
LINE
  5
4326
330
1F
100
AcDbEntity
  8
AM_VIS
100
AcDbLine
 10
2221.347121320781
 20
1866.834712873239
 30
0.0
 11
2220.847121320781
 21
1867.334712873239
 31
0.0
  0
LINE
  5
4327
330
1F
100
AcDbEntity
  8
AM_VIS
100
AcDbLine
 10
2221.847121320781
 20
1820.334712873238
 30
0.0
 11
2221.847121320781
 21
1866.334712873238
 31
0.0
  0
LINE
  5
4328
330
1F
100
AcDbEntity
  8
AM_VIS
100
AcDbLine
 10
2109.847121320781
 20
1820.334712873238
 30
0.0
 11
2110.347121320781
 21
1819.834712873239
 31
0.0
  0
LINE
  5
4329
330
1F
100
AcDbEntity
  8
AM_VIS
100
AcDbLine
 10
2110.347121320781
 20
1819.834712873239
 30
0.0
 11
2110.847121320781
 21
1819.334712873239
 31
0.0
  0
LINE
  5
432A
330
1F
100
AcDbEntity
  8
AM_VIS
100
AcDbLine
 10
2110.847121320781
 20
1867.334712873239
 30
0.0
 11
2110.347121320781
 21
1866.834712873239
 31
0.0
  0
LINE
  5
432B
330
1F
100
AcDbEntity
  8
AM_VIS
100
AcDbLine
 10
2110.347121320781
 20
1866.834712873239
 30
0.0
 11
2109.847121320781
 21
1866.334712873238
 31
0.0
  0
LINE
  5
4330
330
1F
100
AcDbEntity
  8
AM_VIS
100
AcDbLine
 10
2109.347121320781
 20
1837.834712873238
 30
0.0
 11
2107.847121320781
 21
1836.334712873238
 31
0.0
  0
LINE
  5
4331
330
1F
100
AcDbEntity
  8
AM_VIS
100
AcDbLine
 10
2109.347121320781
 20
1852.834712873239
 30
0.0
 11
2109.347121320781
 21
1837.834712873238
 31
0.0
  0
LINE
  5
4332
330
1F
100
AcDbEntity
  8
AM_VIS
100
AcDbLine
 10
2107.847121320781
 20
1854.334712873239
 30
0.0
 11
2109.347121320781
 21
1852.834712873239
 31
0.0
  0
LINE
  5
4333
330
1F
100
AcDbEntity
  8
AM_VIS
100
AcDbLine
 10
2107.847121320781
 20
1867.834712873238
 30
0.0
 11
2107.847121320781
 21
1854.334712873239
 31
0.0
  0
LINE
  5
4334
330
1F
100
AcDbEntity
  8
AM_VIS
100
AcDbLine
 10
2121.047121320781
 20
1869.334712873239
 30
0.0
 11
2109.347121320781
 21
1869.334712873239
 31
0.0
  0
LINE
  5
4335
330
1F
100
AcDbEntity
  8
AM_VIS
100
AcDbLine
 10
2121.847121320781
 20
1868.534712873239
 30
0.0
 11
2121.047121320781
 21
1869.334712873239
 31
0.0
  0
LINE
  5
4336
330
1F
100
AcDbEntity
  8
AM_VIS
100
AcDbLine
 10
2129.647121320781
 20
1868.534712873239
 30
0.0
 11
2121.847121320781
 21
1868.534712873239
 31
0.0
  0
LINE
  5
4337
330
1F
100
AcDbEntity
  8
AM_VIS
100
AcDbLine
 10
2130.847121320781
 20
1867.334712873239
 30
0.0
 11
2129.647121320781
 21
1868.534712873239
 31
0.0
  0
LINE
  5
4338
330
1F
100
AcDbEntity
  8
AM_VIS
100
AcDbLine
 10
2138.847121320781
 20
1869.334712873238
 30
0.0
 11
2136.847121320781
 21
1867.334712873239
 31
0.0
  0
LINE
  5
4339
330
1F
100
AcDbEntity
  8
AM_VIS
100
AcDbLine
 10
2150.847121320781
 20
1869.334712873239
 30
0.0
 11
2138.847121320781
 21
1869.334712873239
 31
0.0
  0
LINE
  5
433A
330
1F
100
AcDbEntity
  8
AM_VIS
100
AcDbLine
 10
2152.847121320781
 20
1867.334712873239
 30
0.0
 11
2150.847121320781
 21
1869.334712873239
 31
0.0
  0
LINE
  5
433B
330
1F
100
AcDbEntity
  8
AM_VIS
100
AcDbLine
 10
2180.847121320781
 20
1869.334712873239
 30
0.0
 11
2178.847121320781
 21
1867.334712873239
 31
0.0
  0
LINE
  5
433C
330
1F
100
AcDbEntity
  8
AM_VIS
100
AcDbLine
 10
2192.847121320781
 20
1869.334712873239
 30
0.0
 11
2180.847121320781
 21
1869.334712873239
 31
0.0
  0
LINE
  5
433D
330
1F
100
AcDbEntity
  8
AM_VIS
100
AcDbLine
 10
2194.847121320781
 20
1867.334712873239
 30
0.0
 11
2192.847121320781
 21
1869.334712873239
 31
0.0
  0
LINE
  5
433E
330
1F
100
AcDbEntity
  8
AM_VIS
100
AcDbLine
 10
2202.047121320781
 20
1868.534712873239
 30
0.0
 11
2200.847121320781
 21
1867.334712873239
 31
0.0
  0
LINE
  5
433F
330
1F
100
AcDbEntity
  8
AM_VIS
100
AcDbLine
 10
2209.847121320781
 20
1868.534712873239
 30
0.0
 11
2202.047121320781
 21
1868.534712873239
 31
0.0
  0
LINE
  5
4340
330
1F
100
AcDbEntity
  8
AM_VIS
100
AcDbLine
 10
2210.647121320781
 20
1869.334712873239
 30
0.0
 11
2209.847121320781
 21
1868.534712873239
 31
0.0
  0
LINE
  5
4341
330
1F
100
AcDbEntity
  8
AM_VIS
100
AcDbLine
 10
2222.347121320781
 20
1869.334712873239
 30
0.0
 11
2210.647121320781
 21
1869.334712873239
 31
0.0
  0
LINE
  5
4342
330
1F
100
AcDbEntity
  8
AM_VIS
100
AcDbLine
 10
2223.847121320781
 20
1854.334712873239
 30
0.0
 11
2223.847121320781
 21
1867.834712873239
 31
0.0
  0
LINE
  5
4343
330
1F
100
AcDbEntity
  8
AM_VIS
100
AcDbLine
 10
2222.347121320781
 20
1852.834712873239
 30
0.0
 11
2223.847121320781
 21
1854.334712873239
 31
0.0
  0
LINE
  5
4344
330
1F
100
AcDbEntity
  8
AM_VIS
100
AcDbLine
 10
2222.347121320781
 20
1837.834712873238
 30
0.0
 11
2222.347121320781
 21
1852.834712873238
 31
0.0
  0
LINE
  5
4345
330
1F
100
AcDbEntity
  8
AM_VIS
100
AcDbLine
 10
2223.847121320781
 20
1836.334712873238
 30
0.0
 11
2222.347121320781
 21
1837.834712873238
 31
0.0
  0
LINE
  5
4346
330
1F
100
AcDbEntity
  8
AM_VIS
100
AcDbLine
 10
2223.847121320781
 20
1819.834712873239
 30
0.0
 11
2223.847121320781
 21
1836.334712873238
 31
0.0
  0
LINE
  5
4347
330
1F
100
AcDbEntity
  8
AM_VIS
100
AcDbLine
 10
2183.847121320781
 20
1818.334712873238
 30
0.0
 11
2222.347121320781
 21
1818.334712873238
 31
0.0
  0
LINE
  5
4348
330
1F
100
AcDbEntity
  8
AM_VIS
100
AcDbLine
 10
2183.047121320781
 20
1819.134712873239
 30
0.0
 11
2183.847121320781
 21
1818.334712873239
 31
0.0
  0
LINE
  5
4349
330
1F
100
AcDbEntity
  8
AM_VIS
100
AcDbLine
 10
2174.047121320781
 20
1819.134712873239
 30
0.0
 11
2183.047121320781
 21
1819.134712873239
 31
0.0
  0
LINE
  5
434A
330
1F
100
AcDbEntity
  8
AM_VIS
100
AcDbLine
 10
2174.047121320781
 20
1819.334712873239
 30
0.0
 11
2174.047121320781
 21
1819.134712873239
 31
0.0
  0
LINE
  5
434B
330
1F
100
AcDbEntity
  8
AM_VIS
100
AcDbLine
 10
2170.647121320781
 20
1819.134712873239
 30
0.0
 11
2170.647121320781
 21
1819.334712873239
 31
0.0
  0
LINE
  5
434C
330
1F
100
AcDbEntity
  8
AM_VIS
100
AcDbLine
 10
2161.047121320781
 20
1819.134712873238
 30
0.0
 11
2170.647121320781
 21
1819.134712873239
 31
0.0
  0
LINE
  5
434D
330
1F
100
AcDbEntity
  8
AM_VIS
100
AcDbLine
 10
2161.047121320781
 20
1819.334712873239
 30
0.0
 11
2161.047121320781
 21
1819.134712873239
 31
0.0
  0
LINE
  5
434E
330
1F
100
AcDbEntity
  8
AM_VIS
100
AcDbLine
 10
2157.647121320781
 20
1819.134712873239
 30
0.0
 11
2157.647121320781
 21
1819.334712873239
 31
0.0
  0
LINE
  5
434F
330
1F
100
AcDbEntity
  8
AM_VIS
100
AcDbLine
 10
2148.647121320781
 20
1819.134712873238
 30
0.0
 11
2157.647121320781
 21
1819.134712873238
 31
0.0
  0
LINE
  5
4350
330
1F
100
AcDbEntity
  8
AM_VIS
100
AcDbLine
 10
2147.847121320781
 20
1818.334712873238
 30
0.0
 11
2148.647121320781
 21
1819.134712873238
 31
0.0
  0
LINE
  5
4351
330
1F
100
AcDbEntity
  8
AM_VIS
100
AcDbLine
 10
2109.347121320781
 20
1818.334712873238
 30
0.0
 11
2147.847121320781
 21
1818.334712873238
 31
0.0
  0
LINE
  5
4352
330
1F
100
AcDbEntity
  8
AM_VIS
100
AcDbLine
 10
2107.847121320781
 20
1836.334712873238
 30
0.0
 11
2107.847121320781
 21
1819.834712873239
 31
0.0
  0
ARC
  5
4353
330
1F
100
AcDbEntity
  8
AM_VIS
100
AcDbCircle
 10
2109.347121320781
 20
1867.834712873239
 30
0.0
 40
1.5
100
AcDbArc
 50
90.0
 51
180.0
  0
ARC
  5
4354
330
1F
100
AcDbEntity
  8
AM_VIS
100
AcDbCircle
 10
2222.347121320781
 20
1867.834712873239
 30
0.0
 40
1.5
100
AcDbArc
 50
0.0
 51
90.0
  0
ARC
  5
4355
330
1F
100
AcDbEntity
  8
AM_VIS
100
AcDbCircle
 10
2222.347121320781
 20
1819.834712873239
 30
0.0
 40
1.5
100
AcDbArc
 50
270.0
 51
0.0
  0
ARC
  5
4356
330
1F
100
AcDbEntity
  8
AM_VIS
100
AcDbCircle
 10
2109.347121320781
 20
1819.834712873239
 30
0.0
 40
1.5
100
AcDbArc
 50
180.0
 51
270.0
  0
LINE
  5
4357
330
1F
100
AcDbEntity
  8
AM_VIS
100
AcDbLine
 10
2174.047121320781
 20
1648.344315795789
 30
0.0
 11
2170.647121320781
 21
1648.344315795789
 31
0.0
  0
LINE
  5
4358
330
1F
100
AcDbEntity
  8
AM_VIS
100
AcDbLine
 10
2161.047121320781
 20
1648.344315795789
 30
0.0
 11
2157.647121320781
 21
1648.344315795789
 31
0.0
  0
LINE
  5
4359
330
1F
100
AcDbEntity
  8
AM_VIS
100
AcDbLine
 10
2130.847121320781
 20
1600.344315795789
 30
0.0
 11
2136.847121320781
 21
1600.344315795789
 31
0.0
  0
LINE
  5
435A
330
1F
100
AcDbEntity
  8
AM_VIS
100
AcDbLine
 10
2152.847121320781
 20
1600.344315795789
 30
0.0
 11
2178.847121320781
 21
1600.344315795789
 31
0.0
  0
LINE
  5
435B
330
1F
100
AcDbEntity
  8
AM_VIS
100
AcDbLine
 10
2194.847121320781
 20
1600.344315795789
 30
0.0
 11
2200.847121320781
 21
1600.344315795789
 31
0.0
  0
LINE
  5
4364
330
1F
100
AcDbEntity
  8
AM_VIS
100
AcDbLine
 10
2109.347121320781
 20
1649.344315795789
 30
0.0
 11
2147.847121320781
 21
1649.344315795789
 31
0.0
  0
LINE
  5
4365
330
1F
100
AcDbEntity
  8
AM_VIS
100
AcDbLine
 10
2148.647121320781
 20
1648.544315795789
 30
0.0
 11
2147.847121320781
 21
1649.344315795789
 31
0.0
  0
LINE
  5
4366
330
1F
100
AcDbEntity
  8
AM_VIS
100
AcDbLine
 10
2157.647121320781
 20
1648.544315795789
 30
0.0
 11
2148.647121320781
 21
1648.544315795789
 31
0.0
  0
LINE
  5
4367
330
1F
100
AcDbEntity
  8
AM_VIS
100
AcDbLine
 10
2157.647121320781
 20
1648.044315795789
 30
0.0
 11
2157.647121320781
 21
1648.544315795789
 31
0.0
  0
LINE
  5
4368
330
1F
100
AcDbEntity
  8
AM_VIS
100
AcDbLine
 10
2157.197121320781
 20
1647.544315795789
 30
0.0
 11
2157.647121320781
 21
1648.044315795789
 31
0.0
  0
LINE
  5
4369
330
1F
100
AcDbEntity
  8
AM_VIS
100
AcDbLine
 10
2157.197121320781
 20
1645.444315795789
 30
0.0
 11
2157.197121320781
 21
1647.544315795789
 31
0.0
  0
LINE
  5
436A
330
1F
100
AcDbEntity
  8
AM_VIS
100
AcDbLine
 10
2159.797121320781
 20
1643.744315795788
 30
0.0
 11
2158.897121320781
 21
1643.744315795788
 31
0.0
  0
LINE
  5
436B
330
1F
100
AcDbEntity
  8
AM_VIS
100
AcDbLine
 10
2161.497121320781
 20
1647.544315795789
 30
0.0
 11
2161.497121320781
 21
1645.444315795789
 31
0.0
  0
LINE
  5
436C
330
1F
100
AcDbEntity
  8
AM_VIS
100
AcDbLine
 10
2161.04712132078
 20
1648.044315795789
 30
0.0
 11
2161.497121320781
 21
1647.544315795789
 31
0.0
  0
LINE
  5
436D
330
1F
100
AcDbEntity
  8
AM_VIS
100
AcDbLine
 10
2161.047121320781
 20
1648.544315795789
 30
0.0
 11
2161.047121320781
 21
1648.044315795789
 31
0.0
  0
LINE
  5
436E
330
1F
100
AcDbEntity
  8
AM_VIS
100
AcDbLine
 10
2170.647121320781
 20
1648.544315795789
 30
0.0
 11
2161.047121320781
 21
1648.544315795789
 31
0.0
  0
LINE
  5
436F
330
1F
100
AcDbEntity
  8
AM_VIS
100
AcDbLine
 10
2170.647121320781
 20
1648.044315795789
 30
0.0
 11
2170.647121320781
 21
1648.544315795789
 31
0.0
  0
LINE
  5
4370
330
1F
100
AcDbEntity
  8
AM_VIS
100
AcDbLine
 10
2170.197121320781
 20
1647.544315795789
 30
0.0
 11
2170.647121320781
 21
1648.044315795789
 31
0.0
  0
LINE
  5
4371
330
1F
100
AcDbEntity
  8
AM_VIS
100
AcDbLine
 10
2170.197121320781
 20
1645.444315795789
 30
0.0
 11
2170.197121320781
 21
1647.544315795789
 31
0.0
  0
LINE
  5
4372
330
1F
100
AcDbEntity
  8
AM_VIS
100
AcDbLine
 10
2172.797121320781
 20
1643.744315795789
 30
0.0
 11
2171.897121320781
 21
1643.744315795789
 31
0.0
  0
LINE
  5
4373
330
1F
100
AcDbEntity
  8
AM_VIS
100
AcDbLine
 10
2174.497121320781
 20
1647.544315795789
 30
0.0
 11
2174.497121320781
 21
1645.444315795789
 31
0.0
  0
LINE
  5
4374
330
1F
100
AcDbEntity
  8
AM_VIS
100
AcDbLine
 10
2174.047121320781
 20
1648.044315795789
 30
0.0
 11
2174.497121320781
 21
1647.544315795789
 31
0.0
  0
LINE
  5
4375
330
1F
100
AcDbEntity
  8
AM_VIS
100
AcDbLine
 10
2174.047121320781
 20
1648.544315795789
 30
0.0
 11
2174.047121320781
 21
1648.044315795789
 31
0.0
  0
LINE
  5
4376
330
1F
100
AcDbEntity
  8
AM_VIS
100
AcDbLine
 10
2183.047121320781
 20
1648.544315795789
 30
0.0
 11
2174.047121320781
 21
1648.544315795789
 31
0.0
  0
LINE
  5
4377
330
1F
100
AcDbEntity
  8
AM_VIS
100
AcDbLine
 10
2183.847121320781
 20
1649.344315795789
 30
0.0
 11
2183.047121320781
 21
1648.544315795789
 31
0.0
  0
LINE
  5
4378
330
1F
100
AcDbEntity
  8
AM_VIS
100
AcDbLine
 10
2183.847121320781
 20
1649.344315795789
 30
0.0
 11
2222.347121320781
 21
1649.344315795789
 31
0.0
  0
LINE
  5
4379
330
1F
100
AcDbEntity
  8
AM_VIS
100
AcDbLine
 10
2223.847121320781
 20
1647.844315795789
 30
0.0
 11
2223.847121320781
 21
1631.344315795789
 31
0.0
  0
LINE
  5
437A
330
1F
100
AcDbEntity
  8
AM_VIS
100
AcDbLine
 10
2222.347121320781
 20
1629.844315795789
 30
0.0
 11
2223.847121320781
 21
1631.344315795789
 31
0.0
  0
LINE
  5
437B
330
1F
100
AcDbEntity
  8
AM_VIS
100
AcDbLine
 10
2222.347121320781
 20
1614.844315795789
 30
0.0
 11
2222.347121320781
 21
1629.844315795789
 31
0.0
  0
LINE
  5
437C
330
1F
100
AcDbEntity
  8
AM_VIS
100
AcDbLine
 10
2223.847121320781
 20
1613.344315795789
 30
0.0
 11
2222.347121320781
 21
1614.844315795789
 31
0.0
  0
LINE
  5
437D
330
1F
100
AcDbEntity
  8
AM_VIS
100
AcDbLine
 10
2223.847121320781
 20
1613.344315795789
 30
0.0
 11
2223.847121320781
 21
1599.844315795789
 31
0.0
  0
LINE
  5
437E
330
1F
100
AcDbEntity
  8
AM_VIS
100
AcDbLine
 10
2222.347121320781
 20
1598.344315795789
 30
0.0
 11
2210.647121320781
 21
1598.344315795789
 31
0.0
  0
LINE
  5
437F
330
1F
100
AcDbEntity
  8
AM_VIS
100
AcDbLine
 10
2209.847121320781
 20
1599.144315795789
 30
0.0
 11
2210.647121320781
 21
1598.344315795789
 31
0.0
  0
LINE
  5
4380
330
1F
100
AcDbEntity
  8
AM_VIS
100
AcDbLine
 10
2202.047121320781
 20
1599.144315795789
 30
0.0
 11
2209.847121320781
 21
1599.144315795789
 31
0.0
  0
LINE
  5
4381
330
1F
100
AcDbEntity
  8
AM_VIS
100
AcDbLine
 10
2197.847121320781
 20
1603.344315795789
 30
0.0
 11
2202.047121320781
 21
1599.144315795789
 31
0.0
  0
LINE
  5
4382
330
1F
100
AcDbEntity
  8
AM_VIS
100
AcDbLine
 10
2192.847121320781
 20
1598.344315795789
 30
0.0
 11
2197.847121320781
 21
1603.344315795789
 31
0.0
  0
LINE
  5
4383
330
1F
100
AcDbEntity
  8
AM_VIS
100
AcDbLine
 10
2192.847121320781
 20
1598.344315795789
 30
0.0
 11
2180.847121320781
 21
1598.344315795789
 31
0.0
  0
LINE
  5
4384
330
1F
100
AcDbEntity
  8
AM_VIS
100
AcDbLine
 10
2177.747121320781
 20
1601.444315795789
 30
0.0
 11
2180.847121320781
 21
1598.344315795789
 31
0.0
  0
LINE
  5
4385
330
1F
100
AcDbEntity
  8
AM_VIS
100
AcDbLine
 10
2174.047121320781
 20
1601.444315795789
 30
0.0
 11
2177.747121320781
 21
1601.444315795789
 31
0.0
  0
LINE
  5
4386
330
1F
100
AcDbEntity
  8
AM_VIS
100
AcDbLine
 10
2174.047121320781
 20
1601.944315795789
 30
0.0
 11
2174.047121320781
 21
1601.444315795789
 31
0.0
  0
LINE
  5
4387
330
1F
100
AcDbEntity
  8
AM_VIS
100
AcDbLine
 10
2174.497121320781
 20
1602.444315795789
 30
0.0
 11
2174.047121320781
 21
1601.944315795789
 31
0.0
  0
LINE
  5
4388
330
1F
100
AcDbEntity
  8
AM_VIS
100
AcDbLine
 10
2174.497121320781
 20
1604.544315795789
 30
0.0
 11
2174.497121320781
 21
1602.444315795789
 31
0.0
  0
LINE
  5
4389
330
1F
100
AcDbEntity
  8
AM_VIS
100
AcDbLine
 10
2171.897121320781
 20
1606.244315795789
 30
0.0
 11
2172.797121320781
 21
1606.244315795789
 31
0.0
  0
LINE
  5
438A
330
1F
100
AcDbEntity
  8
AM_VIS
100
AcDbLine
 10
2170.197121320781
 20
1602.444315795789
 30
0.0
 11
2170.197121320781
 21
1604.544315795789
 31
0.0
  0
LINE
  5
438B
330
1F
100
AcDbEntity
  8
AM_VIS
100
AcDbLine
 10
2170.647121320781
 20
1601.944315795789
 30
0.0
 11
2170.197121320781
 21
1602.444315795789
 31
0.0
  0
LINE
  5
438C
330
1F
100
AcDbEntity
  8
AM_VIS
100
AcDbLine
 10
2170.647121320781
 20
1601.444315795789
 30
0.0
 11
2170.647121320781
 21
1601.944315795789
 31
0.0
  0
LINE
  5
438D
330
1F
100
AcDbEntity
  8
AM_VIS
100
AcDbLine
 10
2161.047121320781
 20
1601.444315795789
 30
0.0
 11
2170.647121320781
 21
1601.444315795789
 31
0.0
  0
LINE
  5
438E
330
1F
100
AcDbEntity
  8
AM_VIS
100
AcDbLine
 10
2161.047121320781
 20
1601.944315795789
 30
0.0
 11
2161.047121320781
 21
1601.444315795789
 31
0.0
  0
LINE
  5
438F
330
1F
100
AcDbEntity
  8
AM_VIS
100
AcDbLine
 10
2161.497121320781
 20
1602.444315795789
 30
0.0
 11
2161.047121320781
 21
1601.944315795789
 31
0.0
  0
LINE
  5
4390
330
1F
100
AcDbEntity
  8
AM_VIS
100
AcDbLine
 10
2161.497121320781
 20
1604.544315795789
 30
0.0
 11
2161.497121320781
 21
1602.444315795789
 31
0.0
  0
LINE
  5
4391
330
1F
100
AcDbEntity
  8
AM_VIS
100
AcDbLine
 10
2158.897121320781
 20
1606.244315795789
 30
0.0
 11
2159.797121320781
 21
1606.244315795789
 31
0.0
  0
LINE
  5
4392
330
1F
100
AcDbEntity
  8
AM_VIS
100
AcDbLine
 10
2157.197121320781
 20
1602.444315795789
 30
0.0
 11
2157.197121320781
 21
1604.544315795789
 31
0.0
  0
LINE
  5
4393
330
1F
100
AcDbEntity
  8
AM_VIS
100
AcDbLine
 10
2157.647121320781
 20
1601.944315795789
 30
0.0
 11
2157.197121320781
 21
1602.444315795789
 31
0.0
  0
LINE
  5
4394
330
1F
100
AcDbEntity
  8
AM_VIS
100
AcDbLine
 10
2157.647121320781
 20
1601.444315795789
 30
0.0
 11
2157.647121320781
 21
1601.944315795789
 31
0.0
  0
LINE
  5
4395
330
1F
100
AcDbEntity
  8
AM_VIS
100
AcDbLine
 10
2153.947121320781
 20
1601.444315795789
 30
0.0
 11
2157.647121320781
 21
1601.444315795789
 31
0.0
  0
LINE
  5
4396
330
1F
100
AcDbEntity
  8
AM_VIS
100
AcDbLine
 10
2150.847121320781
 20
1598.344315795789
 30
0.0
 11
2153.947121320781
 21
1601.444315795789
 31
0.0
  0
LINE
  5
4397
330
1F
100
AcDbEntity
  8
AM_VIS
100
AcDbLine
 10
2150.847121320781
 20
1598.344315795789
 30
0.0
 11
2138.847121320781
 21
1598.344315795789
 31
0.0
  0
LINE
  5
4398
330
1F
100
AcDbEntity
  8
AM_VIS
100
AcDbLine
 10
2133.847121320781
 20
1603.344315795789
 30
0.0
 11
2138.847121320781
 21
1598.344315795789
 31
0.0
  0
LINE
  5
4399
330
1F
100
AcDbEntity
  8
AM_VIS
100
AcDbLine
 10
2129.647121320781
 20
1599.144315795789
 30
0.0
 11
2133.847121320781
 21
1603.344315795789
 31
0.0
  0
LINE
  5
439A
330
1F
100
AcDbEntity
  8
AM_VIS
100
AcDbLine
 10
2121.847121320781
 20
1599.144315795789
 30
0.0
 11
2129.647121320781
 21
1599.144315795789
 31
0.0
  0
LINE
  5
439B
330
1F
100
AcDbEntity
  8
AM_VIS
100
AcDbLine
 10
2121.047121320781
 20
1598.344315795789
 30
0.0
 11
2121.847121320781
 21
1599.144315795789
 31
0.0
  0
LINE
  5
439C
330
1F
100
AcDbEntity
  8
AM_VIS
100
AcDbLine
 10
2121.047121320781
 20
1598.344315795789
 30
0.0
 11
2109.347121320781
 21
1598.344315795789
 31
0.0
  0
LINE
  5
439D
330
1F
100
AcDbEntity
  8
AM_VIS
100
AcDbLine
 10
2107.847121320781
 20
1599.844315795789
 30
0.0
 11
2107.847121320781
 21
1613.344315795789
 31
0.0
  0
LINE
  5
439E
330
1F
100
AcDbEntity
  8
AM_VIS
100
AcDbLine
 10
2109.347121320781
 20
1614.844315795789
 30
0.0
 11
2107.847121320781
 21
1613.344315795789
 31
0.0
  0
LINE
  5
439F
330
1F
100
AcDbEntity
  8
AM_VIS
100
AcDbLine
 10
2109.347121320781
 20
1629.844315795789
 30
0.0
 11
2109.347121320781
 21
1614.844315795789
 31
0.0
  0
LINE
  5
43A0
330
1F
100
AcDbEntity
  8
AM_VIS
100
AcDbLine
 10
2107.847121320781
 20
1631.344315795789
 30
0.0
 11
2109.347121320781
 21
1629.844315795789
 31
0.0
  0
LINE
  5
43A1
330
1F
100
AcDbEntity
  8
AM_VIS
100
AcDbLine
 10
2107.847121320781
 20
1631.344315795789
 30
0.0
 11
2107.847121320781
 21
1647.844315795789
 31
0.0
  0
ARC
  5
43AA
330
1F
100
AcDbEntity
  8
AM_VIS
100
AcDbCircle
 10
2158.897121320781
 20
1645.444315795789
 30
0.0
 40
1.699999999999999
100
AcDbArc
 50
180.0
 51
270.0
  0
ARC
  5
43AB
330
1F
100
AcDbEntity
  8
AM_VIS
100
AcDbCircle
 10
2159.797121320781
 20
1645.444315795789
 30
0.0
 40
1.7
100
AcDbArc
 50
270.0
 51
0.0
  0
ARC
  5
43AC
330
1F
100
AcDbEntity
  8
AM_VIS
100
AcDbCircle
 10
2171.897121320781
 20
1645.444315795789
 30
0.0
 40
1.699999999999999
100
AcDbArc
 50
180.0
 51
270.0
  0
ARC
  5
43AD
330
1F
100
AcDbEntity
  8
AM_VIS
100
AcDbCircle
 10
2172.797121320781
 20
1645.444315795789
 30
0.0
 40
1.699999999999999
100
AcDbArc
 50
270.0
 51
0.0
  0
ARC
  5
43AE
330
1F
100
AcDbEntity
  8
AM_VIS
100
AcDbCircle
 10
2222.347121320781
 20
1647.844315795789
 30
0.0
 40
1.5
100
AcDbArc
 50
0.0
 51
90.0
  0
ARC
  5
43AF
330
1F
100
AcDbEntity
  8
AM_VIS
100
AcDbCircle
 10
2222.347121320781
 20
1599.844315795789
 30
0.0
 40
1.5
100
AcDbArc
 50
270.0
 51
0.0
  0
ARC
  5
43B0
330
1F
100
AcDbEntity
  8
AM_VIS
100
AcDbCircle
 10
2172.797121320781
 20
1604.544315795789
 30
0.0
 40
1.7
100
AcDbArc
 50
0.0
 51
90.0
  0
ARC
  5
43B1
330
1F
100
AcDbEntity
  8
AM_VIS
100
AcDbCircle
 10
2171.897121320781
 20
1604.544315795789
 30
0.0
 40
1.7
100
AcDbArc
 50
90.0
 51
180.0
  0
ARC
  5
43B2
330
1F
100
AcDbEntity
  8
AM_VIS
100
AcDbCircle
 10
2159.797121320781
 20
1604.544315795789
 30
0.0
 40
1.7
100
AcDbArc
 50
0.0
 51
90.0
  0
ARC
  5
43B3
330
1F
100
AcDbEntity
  8
AM_VIS
100
AcDbCircle
 10
2158.897121320781
 20
1604.544315795789
 30
0.0
 40
1.7
100
AcDbArc
 50
90.0
 51
180.0
  0
ARC
  5
43B4
330
1F
100
AcDbEntity
  8
AM_VIS
100
AcDbCircle
 10
2109.347121320781
 20
1599.844315795789
 30
0.0
 40
1.5
100
AcDbArc
 50
180.0
 51
270.0
  0
ARC
  5
43B5
330
1F
100
AcDbEntity
  8
AM_VIS
100
AcDbCircle
 10
2109.347121320781
 20
1647.844315795789
 30
0.0
 40
1.5
100
AcDbArc
 50
90.0
 51
180.0
  0
LINE
  5
43BB
330
1F
100
AcDbEntity
  8
AM_VIS
100
AcDbLine
 10
2063.4434665315
 20
1777.078916144011
 30
0.0
 11
2063.943466531499
 21
1776.578916144012
 31
0.0
  0
LINE
  5
43BC
330
1F
100
AcDbEntity
  8
AM_VIS
100
AcDbLine
 10
2063.943466531499
 20
1765.578916144012
 30
0.0
 11
2063.943466531499
 21
1776.578916144012
 31
0.0
  0
LINE
  5
43BD
330
1F
100
AcDbEntity
  8
AM_VIS
100
AcDbLine
 10
2063.943466531499
 20
1765.578916144012
 30
0.0
 11
2063.4434665315
 21
1765.078916144012
 31
0.0
  0
LINE
  5
43BE
330
1F
100
AcDbEntity
  8
AM_VIS
100
AcDbLine
 10
2016.443466531499
 20
1765.078916144012
 30
0.0
 11
2015.943466531499
 21
1765.578916144012
 31
0.0
  0
LINE
  5
43BF
330
1F
100
AcDbEntity
  8
AM_VIS
100
AcDbLine
 10
2015.943466531499
 20
1776.578916144012
 30
0.0
 11
2015.943466531499
 21
1765.578916144012
 31
0.0
  0
LINE
  5
43C0
330
1F
100
AcDbEntity
  8
AM_VIS
100
AcDbLine
 10
2015.943466531499
 20
1776.578916144012
 30
0.0
 11
2016.443466531499
 21
1777.078916144011
 31
0.0
  0
LINE
  5
43C1
330
1F
100
AcDbEntity
  8
AM_VIS
100
AcDbLine
 10
2063.4434665315
 20
1777.078916144011
 30
0.0
 11
2016.443466531499
 21
1777.078916144011
 31
0.0
  0
LINE
  5
43C2
330
1F
100
AcDbEntity
  8
AM_VIS
100
AcDbLine
 10
2016.443466531499
 20
1765.078916144012
 30
0.0
 11
2063.4434665315
 21
1765.078916144012
 31
0.0
  0
LINE
  5
43C3
330
1F
100
AcDbEntity
  8
AM_VIS
100
AcDbLine
 10
2049.943466531499
 20
1685.578916144011
 30
0.0
 11
2049.943466531499
 21
1704.578916144012
 31
0.0
  0
LINE
  5
43C4
330
1F
100
AcDbEntity
  8
AM_VIS
100
AcDbLine
 10
2049.943466531499
 20
1763.078916144012
 30
0.0
 11
2049.943466531499
 21
1765.078916144012
 31
0.0
  0
LINE
  5
43C5
330
1F
100
AcDbEntity
  8
AM_VIS
100
AcDbLine
 10
2029.943466531499
 20
1685.578916144011
 30
0.0
 11
2029.943466531499
 21
1704.578916144012
 31
0.0
  0
LINE
  5
43C6
330
1F
100
AcDbEntity
  8
AM_VIS
100
AcDbLine
 10
2029.943466531499
 20
1763.078916144012
 30
0.0
 11
2029.943466531499
 21
1765.078916144012
 31
0.0
  0
LINE
  5
43C7
330
1F
100
AcDbEntity
  8
AM_VIS
100
AcDbLine
 10
2048.9434665315
 20
1684.578916144012
 30
0.0
 11
2049.943466531499
 21
1685.578916144011
 31
0.0
  0
LINE
  5
43C8
330
1F
100
AcDbEntity
  8
AM_VIS
100
AcDbLine
 10
2030.943466531499
 20
1684.578916144012
 30
0.0
 11
2029.943466531499
 21
1685.578916144011
 31
0.0
  0
LINE
  5
43C9
330
1F
100
AcDbEntity
  8
AM_VIS
100
AcDbLine
 10
2048.9434665315
 20
1684.578916144012
 30
0.0
 11
2030.943466531499
 21
1684.578916144012
 31
0.0
  0
LINE
  5
43CA
330
1F
100
AcDbEntity
  8
AM_VIS
100
AcDbLine
 10
2030.443466531499
 20
1763.078916144012
 30
0.0
 11
2030.443466531499
 21
1704.578916144012
 31
0.0
  0
LINE
  5
43CB
330
1F
100
AcDbEntity
  8
AM_VIS
100
AcDbLine
 10
2045.4434665315
 20
1763.078916144012
 30
0.0
 11
2045.4434665315
 21
1704.578916144012
 31
0.0
  0
LINE
  5
43CC
330
1F
100
AcDbEntity
  8
AM_VIS
100
AcDbLine
 10
2028.943466531499
 20
1704.578916144012
 30
0.0
 11
2028.943466531499
 21
1763.078916144012
 31
0.0
  0
LINE
  5
43CD
330
1F
100
AcDbEntity
  8
AM_VIS
100
AcDbLine
 10
2013.943466531499
 20
1763.078916144012
 30
0.0
 11
2013.943466531499
 21
1704.578916144012
 31
0.0
  0
LINE
  5
43CE
330
1F
100
AcDbEntity
  8
AM_VIS
100
AcDbLine
 10
2045.4434665315
 20
1763.078916144012
 30
0.0
 11
2046.943466531499
 21
1763.078916144012
 31
0.0
  0
LINE
  5
43CF
330
1F
100
AcDbEntity
  8
AM_VIS
100
AcDbLine
 10
2030.443466531499
 20
1763.078916144012
 30
0.0
 11
2045.4434665315
 21
1763.078916144012
 31
0.0
  0
LINE
  5
43D0
330
1F
100
AcDbEntity
  8
AM_VIS
100
AcDbLine
 10
2028.943466531499
 20
1763.078916144012
 30
0.0
 11
2030.443466531499
 21
1763.078916144012
 31
0.0
  0
LINE
  5
43D1
330
1F
100
AcDbEntity
  8
AM_VIS
100
AcDbLine
 10
2015.443466531499
 20
1763.078916144012
 30
0.0
 11
2028.943466531499
 21
1763.078916144012
 31
0.0
  0
LINE
  5
43D2
330
1F
100
AcDbEntity
  8
AM_VIS
100
AcDbLine
 10
2064.9434665315
 20
1704.578916144012
 30
0.0
 11
2064.9434665315
 21
1763.078916144012
 31
0.0
  0
LINE
  5
43D3
330
1F
100
AcDbEntity
  8
AM_VIS
100
AcDbLine
 10
2046.943466531499
 20
1763.078916144012
 30
0.0
 11
2046.943466531499
 21
1704.578916144012
 31
0.0
  0
LINE
  5
43D4
330
1F
100
AcDbEntity
  8
AM_VIS
100
AcDbLine
 10
2046.943466531499
 20
1763.078916144012
 30
0.0
 11
2063.4434665315
 21
1763.078916144012
 31
0.0
  0
LINE
  5
43D5
330
1F
100
AcDbEntity
  8
AM_VIS
100
AcDbLine
 10
2015.443466531499
 20
1704.578916144012
 30
0.0
 11
2028.943466531499
 21
1704.578916144012
 31
0.0
  0
LINE
  5
43D6
330
1F
100
AcDbEntity
  8
AM_VIS
100
AcDbLine
 10
2030.443466531499
 20
1704.578916144012
 30
0.0
 11
2028.943466531499
 21
1704.578916144012
 31
0.0
  0
LINE
  5
43D7
330
1F
100
AcDbEntity
  8
AM_VIS
100
AcDbLine
 10
2045.4434665315
 20
1704.578916144012
 30
0.0
 11
2030.443466531499
 21
1704.578916144012
 31
0.0
  0
LINE
  5
43D8
330
1F
100
AcDbEntity
  8
AM_VIS
100
AcDbLine
 10
2046.943466531499
 20
1704.578916144012
 30
0.0
 11
2045.4434665315
 21
1704.578916144012
 31
0.0
  0
LINE
  5
43D9
330
1F
100
AcDbEntity
  8
AM_VIS
100
AcDbLine
 10
2046.943466531499
 20
1704.578916144012
 30
0.0
 11
2063.4434665315
 21
1704.578916144012
 31
0.0
  0
LINE
  5
43DA
330
1F
100
AcDbEntity
  8
AM_VIS
100
AcDbLine
 10
2013.943466531499
 20
1763.078916144012
 30
0.0
 11
2015.443466531499
 21
1763.078916144012
 31
0.0
  0
LINE
  5
43DB
330
1F
100
AcDbEntity
  8
AM_VIS
100
AcDbLine
 10
2063.4434665315
 20
1763.078916144012
 30
0.0
 11
2064.9434665315
 21
1763.078916144012
 31
0.0
  0
LINE
  5
43E0
330
1F
100
AcDbEntity
  8
AM_VIS
100
AcDbLine
 10
2015.443466531499
 20
1704.578916144012
 30
0.0
 11
2013.943466531499
 21
1704.578916144012
 31
0.0
  0
LINE
  5
43E1
330
1F
100
AcDbEntity
  8
AM_VIS
100
AcDbLine
 10
2064.9434665315
 20
1704.578916144012
 30
0.0
 11
2063.4434665315
 21
1704.578916144012
 31
0.0
  0
LINE
  5
43E2
330
1F
100
AcDbEntity
  8
AM_VIS
100
AcDbLine
 10
2313.441173743832
 20
1685.578916144011
 30
0.0
 11
2313.441173743832
 21
1704.578916144012
 31
0.0
  0
LINE
  5
43E3
330
1F
100
AcDbEntity
  8
AM_VIS
100
AcDbLine
 10
2313.441173743832
 20
1763.078916144012
 30
0.0
 11
2313.441173743832
 21
1765.078916144012
 31
0.0
  0
LINE
  5
43E4
330
1F
100
AcDbEntity
  8
AM_VIS
100
AcDbLine
 10
2293.441173743832
 20
1685.578916144011
 30
0.0
 11
2293.441173743832
 21
1704.578916144012
 31
0.0
  0
LINE
  5
43E5
330
1F
100
AcDbEntity
  8
AM_VIS
100
AcDbLine
 10
2293.441173743832
 20
1763.078916144012
 30
0.0
 11
2293.441173743832
 21
1765.078916144012
 31
0.0
  0
LINE
  5
43E6
330
1F
100
AcDbEntity
  8
AM_VIS
100
AcDbLine
 10
2312.441173743832
 20
1684.578916144012
 30
0.0
 11
2313.441173743832
 21
1685.578916144011
 31
0.0
  0
LINE
  5
43E7
330
1F
100
AcDbEntity
  8
AM_VIS
100
AcDbLine
 10
2294.441173743832
 20
1684.578916144012
 30
0.0
 11
2293.441173743832
 21
1685.578916144011
 31
0.0
  0
LINE
  5
43E8
330
1F
100
AcDbEntity
  8
AM_VIS
100
AcDbLine
 10
2312.441173743832
 20
1684.578916144012
 30
0.0
 11
2294.441173743832
 21
1684.578916144012
 31
0.0
  0
LINE
  5
43E9
330
1F
100
AcDbEntity
  8
AM_VIS
100
AcDbLine
 10
2279.441173743832
 20
1776.578916144012
 30
0.0
 11
2279.441173743832
 21
1765.578916144012
 31
0.0
  0
LINE
  5
43EA
330
1F
100
AcDbEntity
  8
AM_VIS
100
AcDbLine
 10
2279.441173743832
 20
1776.578916144012
 30
0.0
 11
2279.941173743832
 21
1777.078916144011
 31
0.0
  0
LINE
  5
43EB
330
1F
100
AcDbEntity
  8
AM_VIS
100
AcDbLine
 10
2326.941173743832
 20
1777.078916144011
 30
0.0
 11
2327.441173743832
 21
1776.578916144012
 31
0.0
  0
LINE
  5
43EC
330
1F
100
AcDbEntity
  8
AM_VIS
100
AcDbLine
 10
2327.441173743832
 20
1765.578916144012
 30
0.0
 11
2327.441173743832
 21
1776.578916144012
 31
0.0
  0
LINE
  5
43ED
330
1F
100
AcDbEntity
  8
AM_VIS
100
AcDbLine
 10
2279.941173743832
 20
1765.078916144012
 30
0.0
 11
2279.441173743832
 21
1765.578916144012
 31
0.0
  0
LINE
  5
43EE
330
1F
100
AcDbEntity
  8
AM_VIS
100
AcDbLine
 10
2327.441173743832
 20
1765.578916144012
 30
0.0
 11
2326.941173743832
 21
1765.078916144012
 31
0.0
  0
LINE
  5
43EF
330
1F
100
AcDbEntity
  8
AM_VIS
100
AcDbLine
 10
2326.941173743832
 20
1777.078916144011
 30
0.0
 11
2279.941173743832
 21
1777.078916144011
 31
0.0
  0
LINE
  5
43F0
330
1F
100
AcDbEntity
  8
AM_VIS
100
AcDbLine
 10
2279.941173743832
 20
1765.078916144012
 30
0.0
 11
2326.941173743832
 21
1765.078916144012
 31
0.0
  0
LINE
  5
43F1
330
1F
100
AcDbEntity
  8
AM_VIS
100
AcDbLine
 10
2297.941173743832
 20
1763.078916144012
 30
0.0
 11
2297.941173743832
 21
1704.578916144012
 31
0.0
  0
LINE
  5
43F2
330
1F
100
AcDbEntity
  8
AM_VIS
100
AcDbLine
 10
2312.941173743832
 20
1763.078916144012
 30
0.0
 11
2312.941173743832
 21
1704.578916144012
 31
0.0
  0
LINE
  5
43F3
330
1F
100
AcDbEntity
  8
AM_VIS
100
AcDbLine
 10
2296.441173743832
 20
1704.578916144012
 30
0.0
 11
2296.441173743832
 21
1763.078916144012
 31
0.0
  0
LINE
  5
43F4
330
1F
100
AcDbEntity
  8
AM_VIS
100
AcDbLine
 10
2314.441173743832
 20
1763.078916144012
 30
0.0
 11
2314.441173743832
 21
1704.578916144012
 31
0.0
  0
LINE
  5
43F5
330
1F
100
AcDbEntity
  8
AM_VIS
100
AcDbLine
 10
2278.441173743832
 20
1763.078916144012
 30
0.0
 11
2278.441173743832
 21
1704.578916144012
 31
0.0
  0
LINE
  5
43F6
330
1F
100
AcDbEntity
  8
AM_VIS
100
AcDbLine
 10
2329.441173743832
 20
1704.578916144012
 30
0.0
 11
2329.441173743832
 21
1763.078916144012
 31
0.0
  0
LINE
  5
43F7
330
1F
100
AcDbEntity
  8
AM_VIS
100
AcDbLine
 10
2314.441173743832
 20
1763.078916144012
 30
0.0
 11
2327.941173743832
 21
1763.078916144012
 31
0.0
  0
LINE
  5
43F8
330
1F
100
AcDbEntity
  8
AM_VIS
100
AcDbLine
 10
2312.941173743832
 20
1763.078916144012
 30
0.0
 11
2314.441173743832
 21
1763.078916144012
 31
0.0
  0
LINE
  5
43F9
330
1F
100
AcDbEntity
  8
AM_VIS
100
AcDbLine
 10
2297.941173743832
 20
1763.078916144012
 30
0.0
 11
2312.941173743832
 21
1763.078916144012
 31
0.0
  0
LINE
  5
43FA
330
1F
100
AcDbEntity
  8
AM_VIS
100
AcDbLine
 10
2296.441173743832
 20
1763.078916144012
 30
0.0
 11
2297.941173743832
 21
1763.078916144012
 31
0.0
  0
LINE
  5
43FB
330
1F
100
AcDbEntity
  8
AM_VIS
100
AcDbLine
 10
2279.941173743832
 20
1763.078916144012
 30
0.0
 11
2296.441173743832
 21
1763.078916144012
 31
0.0
  0
LINE
  5
43FC
330
1F
100
AcDbEntity
  8
AM_VIS
100
AcDbLine
 10
2279.941173743832
 20
1704.578916144012
 30
0.0
 11
2296.441173743832
 21
1704.578916144012
 31
0.0
  0
LINE
  5
43FD
330
1F
100
AcDbEntity
  8
AM_VIS
100
AcDbLine
 10
2297.941173743832
 20
1704.578916144012
 30
0.0
 11
2296.441173743832
 21
1704.578916144012
 31
0.0
  0
LINE
  5
43FE
330
1F
100
AcDbEntity
  8
AM_VIS
100
AcDbLine
 10
2312.941173743832
 20
1704.578916144012
 30
0.0
 11
2297.941173743832
 21
1704.578916144012
 31
0.0
  0
LINE
  5
43FF
330
1F
100
AcDbEntity
  8
AM_VIS
100
AcDbLine
 10
2314.441173743832
 20
1704.578916144012
 30
0.0
 11
2312.941173743832
 21
1704.578916144012
 31
0.0
  0
LINE
  5
4400
330
1F
100
AcDbEntity
  8
AM_VIS
100
AcDbLine
 10
2314.441173743832
 20
1704.578916144012
 30
0.0
 11
2327.941173743832
 21
1704.578916144012
 31
0.0
  0
LINE
  5
4401
330
1F
100
AcDbEntity
  8
AM_VIS
100
AcDbLine
 10
2327.941173743832
 20
1763.078916144012
 30
0.0
 11
2329.441173743832
 21
1763.078916144012
 31
0.0
  0
LINE
  5
4402
330
1F
100
AcDbEntity
  8
AM_VIS
100
AcDbLine
 10
2278.441173743832
 20
1763.078916144012
 30
0.0
 11
2279.941173743832
 21
1763.078916144012
 31
0.0
  0
LINE
  5
4403
330
1F
100
AcDbEntity
  8
AM_VIS
100
AcDbLine
 10
2279.941173743832
 20
1704.578916144012
 30
0.0
 11
2278.441173743832
 21
1704.578916144012
 31
0.0
  0
LINE
  5
4404
330
1F
100
AcDbEntity
  8
AM_VIS
100
AcDbLine
 10
2329.441173743832
 20
1704.578916144012
 30
0.0
 11
2327.941173743832
 21
1704.578916144012
 31
0.0
  0
LINE
  5
4405
330
1F
100
AcDbEntity
  8
AM_VIS
100
AcDbLine
 10
2394.442587312018
 20
1685.578916144011
 30
0.0
 11
2394.442587312018
 21
1704.578916144012
 31
0.0
  0
LINE
  5
4406
330
1F
100
AcDbEntity
  8
AM_VIS
100
AcDbLine
 10
2394.442587312018
 20
1763.078916144012
 30
0.0
 11
2394.442587312018
 21
1765.078916144012
 31
0.0
  0
LINE
  5
4407
330
1F
100
AcDbEntity
  8
AM_VIS
100
AcDbLine
 10
2374.442587312017
 20
1685.578916144011
 30
0.0
 11
2374.442587312017
 21
1704.578916144012
 31
0.0
  0
LINE
  5
4408
330
1F
100
AcDbEntity
  8
AM_VIS
100
AcDbLine
 10
2374.442587312017
 20
1763.078916144012
 30
0.0
 11
2374.442587312017
 21
1765.078916144012
 31
0.0
  0
LINE
  5
4409
330
1F
100
AcDbEntity
  8
AM_VIS
100
AcDbLine
 10
2393.442587312017
 20
1684.578916144012
 30
0.0
 11
2394.442587312018
 21
1685.578916144011
 31
0.0
  0
LINE
  5
440A
330
1F
100
AcDbEntity
  8
AM_VIS
100
AcDbLine
 10
2375.442587312018
 20
1684.578916144012
 30
0.0
 11
2374.442587312017
 21
1685.578916144011
 31
0.0
  0
LINE
  5
440B
330
1F
100
AcDbEntity
  8
AM_VIS
100
AcDbLine
 10
2393.442587312017
 20
1684.578916144012
 30
0.0
 11
2375.442587312018
 21
1684.578916144012
 31
0.0
  0
LINE
  5
440C
330
1F
100
AcDbEntity
  8
AM_VIS
100
AcDbLine
 10
2368.442587312018
 20
1776.578916144012
 30
0.0
 11
2368.942587312018
 21
1777.078916144011
 31
0.0
  0
LINE
  5
440D
330
1F
100
AcDbEntity
  8
AM_VIS
100
AcDbLine
 10
2368.442587312018
 20
1776.578916144012
 30
0.0
 11
2368.442587312018
 21
1765.578916144012
 31
0.0
  0
LINE
  5
440E
330
1F
100
AcDbEntity
  8
AM_VIS
100
AcDbLine
 10
2368.942587312018
 20
1765.078916144012
 30
0.0
 11
2368.442587312018
 21
1765.578916144012
 31
0.0
  0
LINE
  5
440F
330
1F
100
AcDbEntity
  8
AM_VIS
100
AcDbLine
 10
2479.942587312018
 20
1777.078916144011
 30
0.0
 11
2480.442587312018
 21
1776.578916144012
 31
0.0
  0
LINE
  5
4410
330
1F
100
AcDbEntity
  8
AM_VIS
100
AcDbLine
 10
2480.442587312018
 20
1765.578916144012
 30
0.0
 11
2480.442587312018
 21
1776.578916144012
 31
0.0
  0
LINE
  5
4411
330
1F
100
AcDbEntity
  8
AM_VIS
100
AcDbLine
 10
2480.442587312018
 20
1765.578916144012
 30
0.0
 11
2479.942587312018
 21
1765.078916144012
 31
0.0
  0
LINE
  5
4412
330
1F
100
AcDbEntity
  8
AM_VIS
100
AcDbLine
 10
2479.942587312018
 20
1777.078916144011
 30
0.0
 11
2368.942587312018
 21
1777.078916144011
 31
0.0
  0
LINE
  5
4413
330
1F
100
AcDbEntity
  8
AM_VIS
100
AcDbLine
 10
2368.942587312018
 20
1765.078916144012
 30
0.0
 11
2479.942587312018
 21
1765.078916144012
 31
0.0
  0
LINE
  5
4414
330
1F
100
AcDbEntity
  8
AM_VIS
100
AcDbLine
 10
2432.442587312018
 20
1763.078916144012
 30
0.0
 11
2432.442587312018
 21
1765.078916144012
 31
0.0
  0
LINE
  5
4415
330
1F
100
AcDbEntity
  8
AM_VIS
100
AcDbLine
 10
2416.442587312018
 20
1763.078916144012
 30
0.0
 11
2416.442587312018
 21
1765.078916144012
 31
0.0
  0
LINE
  5
4416
330
1F
100
AcDbEntity
  8
AM_VIS
100
AcDbLine
 10
2474.442587312018
 20
1685.578916144011
 30
0.0
 11
2474.442587312018
 21
1704.578916144012
 31
0.0
  0
LINE
  5
4417
330
1F
100
AcDbEntity
  8
AM_VIS
100
AcDbLine
 10
2474.442587312018
 20
1763.078916144012
 30
0.0
 11
2474.442587312018
 21
1765.078916144012
 31
0.0
  0
LINE
  5
4418
330
1F
100
AcDbEntity
  8
AM_VIS
100
AcDbLine
 10
2454.442587312018
 20
1685.578916144011
 30
0.0
 11
2454.442587312018
 21
1704.578916144012
 31
0.0
  0
LINE
  5
4419
330
1F
100
AcDbEntity
  8
AM_VIS
100
AcDbLine
 10
2454.442587312018
 20
1763.078916144012
 30
0.0
 11
2454.442587312018
 21
1765.078916144012
 31
0.0
  0
LINE
  5
441A
330
1F
100
AcDbEntity
  8
AM_VIS
100
AcDbLine
 10
2473.442587312018
 20
1684.578916144012
 30
0.0
 11
2474.442587312018
 21
1685.578916144011
 31
0.0
  0
LINE
  5
441B
330
1F
100
AcDbEntity
  8
AM_VIS
100
AcDbLine
 10
2455.442587312018
 20
1684.578916144012
 30
0.0
 11
2454.442587312018
 21
1685.578916144011
 31
0.0
  0
LINE
  5
441C
330
1F
100
AcDbEntity
  8
AM_VIS
100
AcDbLine
 10
2473.442587312018
 20
1684.578916144012
 30
0.0
 11
2455.442587312018
 21
1684.578916144012
 31
0.0
  0
LINE
  5
441D
330
1F
100
AcDbEntity
  8
AM_VIS
100
AcDbLine
 10
2388.242587312018
 20
1763.078916144012
 30
0.0
 11
2388.242587312018
 21
1704.578916144012
 31
0.0
  0
LINE
  5
441E
330
1F
100
AcDbEntity
  8
AM_VIS
100
AcDbLine
 10
2392.442587312018
 20
1763.078916144012
 30
0.0
 11
2392.442587312018
 21
1704.578916144012
 31
0.0
  0
LINE
  5
441F
330
1F
100
AcDbEntity
  8
AM_VIS
100
AcDbLine
 10
2380.442587312018
 20
1763.078916144012
 30
0.0
 11
2380.442587312018
 21
1704.578916144012
 31
0.0
  0
LINE
  5
4420
330
1F
100
AcDbEntity
  8
AM_VIS
100
AcDbLine
 10
2468.442587312018
 20
1763.078916144012
 30
0.0
 11
2468.442587312018
 21
1704.578916144012
 31
0.0
  0
LINE
  5
4421
330
1F
100
AcDbEntity
  8
AM_VIS
100
AcDbLine
 10
2456.442587312018
 20
1763.078916144012
 30
0.0
 11
2456.442587312018
 21
1704.578916144012
 31
0.0
  0
LINE
  5
4422
330
1F
100
AcDbEntity
  8
AM_VIS
100
AcDbLine
 10
2460.642587312018
 20
1763.078916144012
 30
0.0
 11
2460.642587312018
 21
1704.578916144012
 31
0.0
  0
LINE
  5
4423
330
1F
100
AcDbEntity
  8
AM_VIS
100
AcDbLine
 10
2436.342587312018
 20
1763.078916144012
 30
0.0
 11
2436.342587312018
 21
1704.578916144012
 31
0.0
  0
LINE
  5
4424
330
1F
100
AcDbEntity
  8
AM_VIS
100
AcDbLine
 10
2412.542587312018
 20
1763.078916144012
 30
0.0
 11
2412.542587312018
 21
1704.578916144012
 31
0.0
  0
LINE
  5
4425
330
1F
100
AcDbEntity
  8
AM_VIS
100
AcDbLine
 10
2416.242587312018
 20
1704.578916144012
 30
0.0
 11
2416.242587312018
 21
1763.078916144012
 31
0.0
  0
LINE
  5
4426
330
1F
100
AcDbEntity
  8
AM_VIS
100
AcDbLine
 10
2419.642587312018
 20
1763.078916144012
 30
0.0
 11
2419.642587312018
 21
1704.578916144012
 31
0.0
  0
LINE
  5
4427
330
1F
100
AcDbEntity
  8
AM_VIS
100
AcDbLine
 10
2432.642587312018
 20
1763.078916144012
 30
0.0
 11
2432.642587312018
 21
1704.578916144012
 31
0.0
  0
LINE
  5
4428
330
1F
100
AcDbEntity
  8
AM_VIS
100
AcDbLine
 10
2429.242587312018
 20
1704.578916144012
 30
0.0
 11
2429.242587312018
 21
1763.078916144012
 31
0.0
  0
LINE
  5
4429
330
1F
100
AcDbEntity
  8
AM_VIS
100
AcDbLine
 10
2366.442587312018
 20
1763.078916144012
 30
0.0
 11
2366.442587312018
 21
1704.578916144012
 31
0.0
  0
LINE
  5
442A
330
1F
100
AcDbEntity
  8
AM_VIS
100
AcDbLine
 10
2482.442587312018
 20
1704.578916144012
 30
0.0
 11
2482.442587312018
 21
1763.078916144012
 31
0.0
  0
LINE
  5
442B
330
1F
100
AcDbEntity
  8
AM_VIS
100
AcDbLine
 10
2451.442587312018
 20
1704.578916144012
 30
0.0
 11
2451.442587312018
 21
1763.078916144012
 31
0.0
  0
LINE
  5
442C
330
1F
100
AcDbEntity
  8
AM_VIS
100
AcDbLine
 10
2439.442587312018
 20
1763.078916144012
 30
0.0
 11
2439.442587312018
 21
1704.578916144012
 31
0.0
  0
LINE
  5
442D
330
1F
100
AcDbEntity
  8
AM_VIS
100
AcDbLine
 10
2397.442587312017
 20
1763.078916144012
 30
0.0
 11
2397.442587312017
 21
1704.578916144012
 31
0.0
  0
LINE
  5
442E
330
1F
100
AcDbEntity
  8
AM_VIS
100
AcDbLine
 10
2409.442587312018
 20
1704.578916144012
 30
0.0
 11
2409.442587312018
 21
1763.078916144012
 31
0.0
  0
LINE
  5
442F
330
1F
100
AcDbEntity
  8
AM_VIS
100
AcDbLine
 10
2379.642587312018
 20
1704.578916144012
 30
0.0
 11
2379.642587312018
 21
1763.078916144012
 31
0.0
  0
LINE
  5
4430
330
1F
100
AcDbEntity
  8
AM_VIS
100
AcDbLine
 10
2469.242587312018
 20
1763.078916144012
 30
0.0
 11
2469.242587312018
 21
1704.578916144012
 31
0.0
  0
LINE
  5
4431
330
1F
100
AcDbEntity
  8
AM_VIS
100
AcDbLine
 10
2469.242587312018
 20
1763.078916144012
 30
0.0
 11
2480.942587312018
 21
1763.078916144012
 31
0.0
  0
LINE
  5
4432
330
1F
100
AcDbEntity
  8
AM_VIS
100
AcDbLine
 10
2468.442587312018
 20
1763.078916144012
 30
0.0
 11
2469.242587312018
 21
1763.078916144012
 31
0.0
  0
LINE
  5
4433
330
1F
100
AcDbEntity
  8
AM_VIS
100
AcDbLine
 10
2460.642587312018
 20
1763.078916144012
 30
0.0
 11
2468.442587312018
 21
1763.078916144012
 31
0.0
  0
LINE
  5
4434
330
1F
100
AcDbEntity
  8
AM_VIS
100
AcDbLine
 10
2456.442587312018
 20
1763.078916144012
 30
0.0
 11
2460.642587312018
 21
1763.078916144012
 31
0.0
  0
LINE
  5
4435
330
1F
100
AcDbEntity
  8
AM_VIS
100
AcDbLine
 10
2451.442587312018
 20
1763.078916144012
 30
0.0
 11
2456.442587312018
 21
1763.078916144012
 31
0.0
  0
LINE
  5
4436
330
1F
100
AcDbEntity
  8
AM_VIS
100
AcDbLine
 10
2439.442587312018
 20
1763.078916144012
 30
0.0
 11
2451.442587312018
 21
1763.078916144012
 31
0.0
  0
LINE
  5
4437
330
1F
100
AcDbEntity
  8
AM_VIS
100
AcDbLine
 10
2436.342587312018
 20
1763.078916144012
 30
0.0
 11
2439.442587312018
 21
1763.078916144012
 31
0.0
  0
LINE
  5
4438
330
1F
100
AcDbEntity
  8
AM_VIS
100
AcDbLine
 10
2432.642587312018
 20
1763.078916144012
 30
0.0
 11
2436.342587312018
 21
1763.078916144012
 31
0.0
  0
LINE
  5
4439
330
1F
100
AcDbEntity
  8
AM_VIS
100
AcDbLine
 10
2430.492587312018
 20
1763.078916144012
 30
0.0
 11
2431.392587312018
 21
1763.078916144012
 31
0.0
  0
LINE
  5
443A
330
1F
100
AcDbEntity
  8
AM_VIS
100
AcDbLine
 10
2419.642587312018
 20
1763.078916144012
 30
0.0
 11
2429.242587312018
 21
1763.078916144012
 31
0.0
  0
LINE
  5
443B
330
1F
100
AcDbEntity
  8
AM_VIS
100
AcDbLine
 10
2417.492587312018
 20
1763.078916144012
 30
0.0
 11
2418.392587312018
 21
1763.078916144012
 31
0.0
  0
LINE
  5
443C
330
1F
100
AcDbEntity
  8
AM_VIS
100
AcDbLine
 10
2412.542587312018
 20
1763.078916144012
 30
0.0
 11
2416.242587312018
 21
1763.078916144012
 31
0.0
  0
LINE
  5
443D
330
1F
100
AcDbEntity
  8
AM_VIS
100
AcDbLine
 10
2409.442587312018
 20
1763.078916144012
 30
0.0
 11
2412.542587312018
 21
1763.078916144012
 31
0.0
  0
LINE
  5
443E
330
1F
100
AcDbEntity
  8
AM_VIS
100
AcDbLine
 10
2397.442587312017
 20
1763.078916144012
 30
0.0
 11
2409.442587312018
 21
1763.078916144012
 31
0.0
  0
LINE
  5
443F
330
1F
100
AcDbEntity
  8
AM_VIS
100
AcDbLine
 10
2392.442587312018
 20
1763.078916144012
 30
0.0
 11
2397.442587312017
 21
1763.078916144012
 31
0.0
  0
LINE
  5
4440
330
1F
100
AcDbEntity
  8
AM_VIS
100
AcDbLine
 10
2388.242587312018
 20
1763.078916144012
 30
0.0
 11
2392.442587312018
 21
1763.078916144012
 31
0.0
  0
LINE
  5
4441
330
1F
100
AcDbEntity
  8
AM_VIS
100
AcDbLine
 10
2380.442587312018
 20
1763.078916144012
 30
0.0
 11
2388.242587312018
 21
1763.078916144012
 31
0.0
  0
LINE
  5
4442
330
1F
100
AcDbEntity
  8
AM_VIS
100
AcDbLine
 10
2379.642587312018
 20
1763.078916144012
 30
0.0
 11
2380.442587312018
 21
1763.078916144012
 31
0.0
  0
LINE
  5
4443
330
1F
100
AcDbEntity
  8
AM_VIS
100
AcDbLine
 10
2367.942587312018
 20
1763.078916144012
 30
0.0
 11
2379.642587312018
 21
1763.078916144012
 31
0.0
  0
LINE
  5
4444
330
1F
100
AcDbEntity
  8
AM_VIS
100
AcDbLine
 10
2367.942587312018
 20
1704.578916144012
 30
0.0
 11
2379.642587312018
 21
1704.578916144012
 31
0.0
  0
LINE
  5
4445
330
1F
100
AcDbEntity
  8
AM_VIS
100
AcDbLine
 10
2380.442587312018
 20
1704.578916144012
 30
0.0
 11
2379.642587312018
 21
1704.578916144012
 31
0.0
  0
LINE
  5
4446
330
1F
100
AcDbEntity
  8
AM_VIS
100
AcDbLine
 10
2388.242587312018
 20
1704.578916144012
 30
0.0
 11
2380.442587312018
 21
1704.578916144012
 31
0.0
  0
LINE
  5
4447
330
1F
100
AcDbEntity
  8
AM_VIS
100
AcDbLine
 10
2392.442587312018
 20
1704.578916144012
 30
0.0
 11
2388.242587312018
 21
1704.578916144012
 31
0.0
  0
LINE
  5
4448
330
1F
100
AcDbEntity
  8
AM_VIS
100
AcDbLine
 10
2397.442587312017
 20
1704.578916144012
 30
0.0
 11
2392.442587312018
 21
1704.578916144012
 31
0.0
  0
LINE
  5
4449
330
1F
100
AcDbEntity
  8
AM_VIS
100
AcDbLine
 10
2397.442587312017
 20
1704.578916144012
 30
0.0
 11
2409.442587312018
 21
1704.578916144012
 31
0.0
  0
LINE
  5
444A
330
1F
100
AcDbEntity
  8
AM_VIS
100
AcDbLine
 10
2412.542587312018
 20
1704.578916144012
 30
0.0
 11
2409.442587312018
 21
1704.578916144012
 31
0.0
  0
LINE
  5
444B
330
1F
100
AcDbEntity
  8
AM_VIS
100
AcDbLine
 10
2416.242587312018
 20
1704.578916144012
 30
0.0
 11
2412.542587312018
 21
1704.578916144012
 31
0.0
  0
LINE
  5
444C
330
1F
100
AcDbEntity
  8
AM_VIS
100
AcDbLine
 10
2418.392587312018
 20
1704.578916144012
 30
0.0
 11
2417.492587312018
 21
1704.578916144012
 31
0.0
  0
LINE
  5
444D
330
1F
100
AcDbEntity
  8
AM_VIS
100
AcDbLine
 10
2429.242587312018
 20
1704.578916144012
 30
0.0
 11
2419.642587312018
 21
1704.578916144012
 31
0.0
  0
LINE
  5
444E
330
1F
100
AcDbEntity
  8
AM_VIS
100
AcDbLine
 10
2431.392587312018
 20
1704.578916144012
 30
0.0
 11
2430.492587312018
 21
1704.578916144012
 31
0.0
  0
LINE
  5
444F
330
1F
100
AcDbEntity
  8
AM_VIS
100
AcDbLine
 10
2436.342587312018
 20
1704.578916144012
 30
0.0
 11
2432.642587312018
 21
1704.578916144012
 31
0.0
  0
LINE
  5
4450
330
1F
100
AcDbEntity
  8
AM_VIS
100
AcDbLine
 10
2439.442587312018
 20
1704.578916144012
 30
0.0
 11
2436.342587312018
 21
1704.578916144012
 31
0.0
  0
LINE
  5
4451
330
1F
100
AcDbEntity
  8
AM_VIS
100
AcDbLine
 10
2439.442587312018
 20
1704.578916144012
 30
0.0
 11
2451.442587312018
 21
1704.578916144012
 31
0.0
  0
LINE
  5
4452
330
1F
100
AcDbEntity
  8
AM_VIS
100
AcDbLine
 10
2456.442587312018
 20
1704.578916144012
 30
0.0
 11
2451.442587312018
 21
1704.578916144012
 31
0.0
  0
LINE
  5
4453
330
1F
100
AcDbEntity
  8
AM_VIS
100
AcDbLine
 10
2460.642587312018
 20
1704.578916144012
 30
0.0
 11
2456.442587312018
 21
1704.578916144012
 31
0.0
  0
LINE
  5
4454
330
1F
100
AcDbEntity
  8
AM_VIS
100
AcDbLine
 10
2468.442587312018
 20
1704.578916144012
 30
0.0
 11
2460.642587312018
 21
1704.578916144012
 31
0.0
  0
LINE
  5
4455
330
1F
100
AcDbEntity
  8
AM_VIS
100
AcDbLine
 10
2469.242587312018
 20
1704.578916144012
 30
0.0
 11
2468.442587312018
 21
1704.578916144012
 31
0.0
  0
LINE
  5
4456
330
1F
100
AcDbEntity
  8
AM_VIS
100
AcDbLine
 10
2469.242587312018
 20
1704.578916144012
 30
0.0
 11
2480.942587312018
 21
1704.578916144012
 31
0.0
  0
LINE
  5
446B
330
1F
100
AcDbEntity
  8
AM_VIS
100
AcDbLine
 10
2480.942587312018
 20
1763.078916144012
 30
0.0
 11
2482.442587312018
 21
1763.078916144012
 31
0.0
  0
LINE
  5
446C
330
1F
100
AcDbEntity
  8
AM_VIS
100
AcDbLine
 10
2432.642587312018
 20
1763.078916144012
 30
0.0
 11
2431.392587312018
 21
1763.078916144012
 31
0.0
  0
LINE
  5
446D
330
1F
100
AcDbEntity
  8
AM_VIS
100
AcDbLine
 10
2430.492587312018
 20
1763.078916144012
 30
0.0
 11
2429.242587312018
 21
1763.078916144012
 31
0.0
  0
LINE
  5
446E
330
1F
100
AcDbEntity
  8
AM_VIS
100
AcDbLine
 10
2419.642587312018
 20
1763.078916144012
 30
0.0
 11
2418.392587312018
 21
1763.078916144012
 31
0.0
  0
LINE
  5
446F
330
1F
100
AcDbEntity
  8
AM_VIS
100
AcDbLine
 10
2417.492587312018
 20
1763.078916144012
 30
0.0
 11
2416.242587312018
 21
1763.078916144012
 31
0.0
  0
LINE
  5
4470
330
1F
100
AcDbEntity
  8
AM_VIS
100
AcDbLine
 10
2366.442587312018
 20
1763.078916144012
 30
0.0
 11
2367.942587312018
 21
1763.078916144012
 31
0.0
  0
LINE
  5
4471
330
1F
100
AcDbEntity
  8
AM_VIS
100
AcDbLine
 10
2367.942587312018
 20
1704.578916144012
 30
0.0
 11
2366.442587312018
 21
1704.578916144012
 31
0.0
  0
LINE
  5
4472
330
1F
100
AcDbEntity
  8
AM_VIS
100
AcDbLine
 10
2416.242587312018
 20
1704.578916144012
 30
0.0
 11
2417.492587312018
 21
1704.578916144012
 31
0.0
  0
LINE
  5
4473
330
1F
100
AcDbEntity
  8
AM_VIS
100
AcDbLine
 10
2418.392587312018
 20
1704.578916144012
 30
0.0
 11
2419.642587312018
 21
1704.578916144012
 31
0.0
  0
LINE
  5
4474
330
1F
100
AcDbEntity
  8
AM_VIS
100
AcDbLine
 10
2429.242587312018
 20
1704.578916144012
 30
0.0
 11
2430.492587312018
 21
1704.578916144012
 31
0.0
  0
LINE
  5
4475
330
1F
100
AcDbEntity
  8
AM_VIS
100
AcDbLine
 10
2431.392587312018
 20
1704.578916144012
 30
0.0
 11
2432.642587312018
 21
1704.578916144012
 31
0.0
  0
LINE
  5
4476
330
1F
100
AcDbEntity
  8
AM_VIS
100
AcDbLine
 10
2482.442587312018
 20
1704.578916144012
 30
0.0
 11
2480.942587312018
 21
1704.578916144012
 31
0.0
  0
LINE
  5
4477
330
1F
100
AcDbEntity
  8
AM_7
  6
AM_ISO08W050x2
100
AcDbLine
 10
2039.9434665315
 20
1768.078916144012
 30
0.0
 11
2039.9434665315
 21
1760.078916144012
 31
0.0
1001
GENIUS_GENOBJ-N-CEN_13
1002
{
1000
OWNER
1000
GEN
1002
}
1001
GENIUS_GENODEF_13
1002
{
1000
HIER
1070
     0
1002
}
1002
{
1000
MANEDIT
1070
     0
1002
}
1002
{
1000
NOSEL
1070
     0
1002
}
1002
{
1000
BEHIND
1070
     0
1002
}
1002
{
1000
OTHER
1070
     0
1002
}
1002
{
1000
REACTOR
1002
}
1001
GENIUS_GENCEN_19
1002
{
1040
3.0
1002
}
  0
LINE
  5
4478
330
1F
100
AcDbEntity
  8
AM_7
  6
AM_ISO08W050x2
100
AcDbLine
 10
2125.847121320781
 20
1768.078916144012
 30
0.0
 11
2125.847121320781
 21
1760.078916144012
 31
0.0
1001
GENIUS_GENODEF_13
1002
{
1000
HIER
1070
     0
1002
}
1002
{
1000
MANEDIT
1070
     0
1002
}
1002
{
1000
NOSEL
1070
     0
1002
}
1002
{
1000
BEHIND
1070
     0
1002
}
1002
{
1000
OTHER
1070
     0
1002
}
1002
{
1000
REACTOR
1002
}
1001
GENIUS_GENOBJ-N-CEN_13
1002
{
1000
OWNER
1000
GEN
1002
}
1001
GENIUS_GENCEN_19
1002
{
1040
3.0
1002
}
  0
LINE
  5
4479
330
1F
100
AcDbEntity
  8
AM_7
  6
AM_ISO08W050x2
100
AcDbLine
 10
2205.847121320781
 20
1768.078916144012
 30
0.0
 11
2205.847121320781
 21
1760.078916144012
 31
0.0
1001
GENIUS_GENODEF_13
1002
{
1000
HIER
1070
     0
1002
}
1002
{
1000
MANEDIT
1070
     0
1002
}
1002
{
1000
NOSEL
1070
     0
1002
}
1002
{
1000
BEHIND
1070
     0
1002
}
1002
{
1000
OTHER
1070
     0
1002
}
1002
{
1000
REACTOR
1002
}
1001
GENIUS_GENOBJ-N-CEN_13
1002
{
1000
OWNER
1000
GEN
1002
}
1001
GENIUS_GENCEN_19
1002
{
1040
3.0
1002
}
  0
LINE
  5
447A
330
1F
100
AcDbEntity
  8
AM_7
  6
AM_ISO08W050x2
100
AcDbLine
 10
2165.847121320781
 20
1768.078916144012
 30
0.0
 11
2165.847121320782
 21
1760.078916144012
 31
0.0
1001
GENIUS_GENODEF_13
1002
{
1000
HIER
1070
     0
1002
}
1002
{
1000
MANEDIT
1070
     0
1002
}
1002
{
1000
NOSEL
1070
     0
1002
}
1002
{
1000
BEHIND
1070
     0
1002
}
1002
{
1000
OTHER
1070
     0
1002
}
1002
{
1000
REACTOR
1002
}
1001
GENIUS_GENOBJ-N-CEN_13
1002
{
1000
OWNER
1000
GEN
1002
}
1001
GENIUS_GENCEN_19
1002
{
1040
3.0
1002
}
  0
LINE
  5
447B
330
1F
100
AcDbEntity
  8
AM_7
  6
AM_ISO08W050x2
100
AcDbLine
 10
2303.441173743832
 20
1768.078916144012
 30
0.0
 11
2303.441173743832
 21
1760.078916144012
 31
0.0
1001
GENIUS_GENOBJ-N-CEN_13
1002
{
1000
OWNER
1000
GEN
1002
}
1001
GENIUS_GENODEF_13
1002
{
1000
HIER
1070
     0
1002
}
1002
{
1000
MANEDIT
1070
     0
1002
}
1002
{
1000
NOSEL
1070
     0
1002
}
1002
{
1000
BEHIND
1070
     0
1002
}
1002
{
1000
OTHER
1070
     0
1002
}
1002
{
1000
REACTOR
1002
}
1001
GENIUS_GENCEN_19
1002
{
1040
3.0
1002
}
  0
LINE
  5
447C
330
1F
100
AcDbEntity
  8
AM_7
  6
AM_ISO08W050x2
100
AcDbLine
 10
2384.442587312018
 20
1768.078916144012
 30
0.0
 11
2384.442587312018
 21
1760.078916144012
 31
0.0
1001
GENIUS_GENODEF_13
1002
{
1000
HIER
1070
     0
1002
}
1002
{
1000
MANEDIT
1070
     0
1002
}
1002
{
1000
NOSEL
1070
     0
1002
}
1002
{
1000
BEHIND
1070
     0
1002
}
1002
{
1000
OTHER
1070
     0
1002
}
1002
{
1000
REACTOR
1002
}
1001
GENIUS_GENOBJ-N-CEN_13
1002
{
1000
OWNER
1000
GEN
1002
}
1001
GENIUS_GENCEN_19
1002
{
1040
3.0
1002
}
  0
LINE
  5
447D
330
1F
100
AcDbEntity
  8
AM_7
  6
AM_ISO08W050x2
100
AcDbLine
 10
2424.442587312018
 20
1768.078916144012
 30
0.0
 11
2424.442587312019
 21
1760.078916144012
 31
0.0
1001
GENIUS_GENOBJ-N-CEN_13
1002
{
1000
OWNER
1000
GEN
1002
}
1001
GENIUS_GENODEF_13
1002
{
1000
HIER
1070
     0
1002
}
1002
{
1000
MANEDIT
1070
     0
1002
}
1002
{
1000
NOSEL
1070
     0
1002
}
1002
{
1000
BEHIND
1070
     0
1002
}
1002
{
1000
OTHER
1070
     0
1002
}
1002
{
1000
REACTOR
1002
}
1001
GENIUS_GENCEN_19
1002
{
1040
3.0
1002
}
  0
LINE
  5
447E
330
1F
100
AcDbEntity
  8
AM_7
  6
AM_ISO08W050x2
100
AcDbLine
 10
2464.442587312018
 20
1768.078916144012
 30
0.0
 11
2464.442587312018
 21
1760.078916144012
 31
0.0
1001
GENIUS_GENOBJ-N-CEN_13
1002
{
1000
OWNER
1000
GEN
1002
}
1001
GENIUS_GENODEF_13
1002
{
1000
HIER
1070
     0
1002
}
1002
{
1000
MANEDIT
1070
     0
1002
}
1002
{
1000
NOSEL
1070
     0
1002
}
1002
{
1000
BEHIND
1070
     0
1002
}
1002
{
1000
OTHER
1070
     0
1002
}
1002
{
1000
REACTOR
1002
}
1001
GENIUS_GENCEN_19
1002
{
1040
3.0
1002
}
  0
CIRCLE
  5
447F
330
1F
100
AcDbEntity
  8
AM_VIS
100
AcDbCircle
 10
2125.847121320781
 20
1624.344315795789
 30
0.0
 40
10.0
  0
CIRCLE
  5
4480
330
1F
100
AcDbEntity
  8
AM_VIS
100
AcDbCircle
 10
2205.847121320781
 20
1624.344315795789
 30
0.0
 40
10.0
  0
ARC
  5
449C
330
1F
100
AcDbEntity
  8
AM_4
100
AcDbCircle
 10
2055.943466531499
 20
1751.578916144012
 30
0.0
 40
4.863999999999999
100
AcDbArc
 50
260.0
 51
170.0
  0
LINE
  5
449D
330
1F
100
AcDbEntity
  8
AM_7
  6
AM_ISO08W050x2
100
AcDbLine
 10
2055.943466531499
 20
1758.442916144012
 30
0.0
 11
2055.943466531499
 21
1744.714916144012
 31
0.0
  0
CIRCLE
  5
449E
330
1F
100
AcDbEntity
  8
AM_0
100
AcDbCircle
 10
2055.943466531499
 20
1751.578916144012
 30
0.0
 40
4.283
  0
LINE
  5
449F
330
1F
100
AcDbEntity
  8
AM_7
  6
AM_ISO08W050x2
100
AcDbLine
 10
2049.079466531499
 20
1751.578916144012
 30
0.0
 11
2062.807466531499
 21
1751.578916144012
 31
0.0
  0
ARC
  5
44A0
330
1F
100
AcDbEntity
  8
AM_4
100
AcDbCircle
 10
2055.943466531499
 20
1729.578916144012
 30
0.0
 40
4.863999999999999
100
AcDbArc
 50
260.0
 51
170.0
  0
LINE
  5
44A1
330
1F
100
AcDbEntity
  8
AM_7
  6
AM_ISO08W050x2
100
AcDbLine
 10
2055.943466531499
 20
1736.442916144012
 30
0.0
 11
2055.943466531499
 21
1722.714916144012
 31
0.0
  0
CIRCLE
  5
44A2
330
1F
100
AcDbEntity
  8
AM_0
100
AcDbCircle
 10
2055.943466531499
 20
1729.578916144012
 30
0.0
 40
4.283
  0
LINE
  5
44A3
330
1F
100
AcDbEntity
  8
AM_7
  6
AM_ISO08W050x2
100
AcDbLine
 10
2049.079466531499
 20
1729.578916144012
 30
0.0
 11
2062.807466531499
 21
1729.578916144012
 31
0.0
  0
ARC
  5
44A4
330
1F
100
AcDbEntity
  8
AM_4
100
AcDbCircle
 10
2134.847121320781
 20
1751.578916144012
 30
0.0
 40
4.863999999999999
100
AcDbArc
 50
260.0
 51
170.0
  0
LINE
  5
44A5
330
1F
100
AcDbEntity
  8
AM_7
  6
AM_ISO08W050x2
100
AcDbLine
 10
2134.847121320781
 20
1758.442916144012
 30
0.0
 11
2134.847121320781
 21
1744.714916144012
 31
0.0
  0
CIRCLE
  5
44A6
330
1F
100
AcDbEntity
  8
AM_0
100
AcDbCircle
 10
2134.847121320781
 20
1751.578916144012
 30
0.0
 40
4.283
  0
LINE
  5
44A7
330
1F
100
AcDbEntity
  8
AM_7
  6
AM_ISO08W050x2
100
AcDbLine
 10
2127.983121320781
 20
1751.578916144012
 30
0.0
 11
2141.711121320781
 21
1751.578916144012
 31
0.0
  0
ARC
  5
44A8
330
1F
100
AcDbEntity
  8
AM_4
100
AcDbCircle
 10
2134.847121320781
 20
1729.578916144012
 30
0.0
 40
4.863999999999999
100
AcDbArc
 50
260.0
 51
170.0
  0
LINE
  5
44A9
330
1F
100
AcDbEntity
  8
AM_7
  6
AM_ISO08W050x2
100
AcDbLine
 10
2134.847121320781
 20
1736.442916144012
 30
0.0
 11
2134.847121320781
 21
1722.714916144012
 31
0.0
  0
CIRCLE
  5
44AA
330
1F
100
AcDbEntity
  8
AM_0
100
AcDbCircle
 10
2134.847121320781
 20
1729.578916144012
 30
0.0
 40
4.283
  0
LINE
  5
44AB
330
1F
100
AcDbEntity
  8
AM_7
  6
AM_ISO08W050x2
100
AcDbLine
 10
2127.983121320781
 20
1729.578916144012
 30
0.0
 11
2141.711121320781
 21
1729.578916144012
 31
0.0
  0
LINE
  5
44AC
330
1F
100
AcDbEntity
  8
AM_7
  6
AM_ISO08W050x2
100
AcDbLine
 10
2039.9434665315
 20
1706.61082661973
 30
0.0
 11
2039.9434665315
 21
1682.3836524681
 31
0.0
1001
GENIUS_GENOBJ-N-CEN_13
1002
{
1000
OWNER
1000
GEN
1002
}
1001
GENIUS_GENODEF_13
1002
{
1000
HIER
1070
     0
1002
}
1002
{
1000
MANEDIT
1070
     0
1002
}
1002
{
1000
NOSEL
1070
     0
1002
}
1002
{
1000
BEHIND
1070
     0
1002
}
1002
{
1000
OTHER
1070
     0
1002
}
1002
{
1000
REACTOR
1002
}
1001
GENIUS_GENCEN_19
1002
{
1040
3.0
1002
}
  0
LINE
  5
44AD
330
1F
100
AcDbEntity
  8
AM_7
  6
AM_ISO08W050x2
100
AcDbLine
 10
2125.847121320781
 20
1706.61082661973
 30
0.0
 11
2125.847121320781
 21
1682.3836524681
 31
0.0
1001
GENIUS_GENOBJ-N-CEN_13
1002
{
1000
OWNER
1000
GEN
1002
}
1001
GENIUS_GENODEF_13
1002
{
1000
HIER
1070
     0
1002
}
1002
{
1000
MANEDIT
1070
     0
1002
}
1002
{
1000
NOSEL
1070
     0
1002
}
1002
{
1000
BEHIND
1070
     0
1002
}
1002
{
1000
OTHER
1070
     0
1002
}
1002
{
1000
REACTOR
1002
}
1001
GENIUS_GENCEN_19
1002
{
1040
3.0
1002
}
  0
LINE
  5
44AE
330
1F
100
AcDbEntity
  8
AM_7
  6
AM_ISO08W050x2
100
AcDbLine
 10
2205.847121320781
 20
1706.61082661973
 30
0.0
 11
2205.847121320781
 21
1682.3836524681
 31
0.0
1001
GENIUS_GENOBJ-N-CEN_13
1002
{
1000
OWNER
1000
GEN
1002
}
1001
GENIUS_GENODEF_13
1002
{
1000
HIER
1070
     0
1002
}
1002
{
1000
MANEDIT
1070
     0
1002
}
1002
{
1000
NOSEL
1070
     0
1002
}
1002
{
1000
BEHIND
1070
     0
1002
}
1002
{
1000
OTHER
1070
     0
1002
}
1002
{
1000
REACTOR
1002
}
1001
GENIUS_GENCEN_19
1002
{
1040
3.0
1002
}
  0
LINE
  5
44AF
330
1F
100
AcDbEntity
  8
AM_7
  6
AM_ISO08W050x2
100
AcDbLine
 10
2303.441173743832
 20
1706.61082661973
 30
0.0
 11
2303.441173743832
 21
1682.3836524681
 31
0.0
1001
GENIUS_GENOBJ-N-CEN_13
1002
{
1000
OWNER
1000
GEN
1002
}
1001
GENIUS_GENODEF_13
1002
{
1000
HIER
1070
     0
1002
}
1002
{
1000
MANEDIT
1070
     0
1002
}
1002
{
1000
NOSEL
1070
     0
1002
}
1002
{
1000
BEHIND
1070
     0
1002
}
1002
{
1000
OTHER
1070
     0
1002
}
1002
{
1000
REACTOR
1002
}
1001
GENIUS_GENCEN_19
1002
{
1040
3.0
1002
}
  0
LINE
  5
44B0
330
1F
100
AcDbEntity
  8
AM_7
  6
AM_ISO08W050x2
100
AcDbLine
 10
2384.442587312018
 20
1706.61082661973
 30
0.0
 11
2384.442587312018
 21
1682.3836524681
 31
0.0
1001
GENIUS_GENOBJ-N-CEN_13
1002
{
1000
OWNER
1000
GEN
1002
}
1001
GENIUS_GENODEF_13
1002
{
1000
HIER
1070
     0
1002
}
1002
{
1000
MANEDIT
1070
     0
1002
}
1002
{
1000
NOSEL
1070
     0
1002
}
1002
{
1000
BEHIND
1070
     0
1002
}
1002
{
1000
OTHER
1070
     0
1002
}
1002
{
1000
REACTOR
1002
}
1001
GENIUS_GENCEN_19
1002
{
1040
3.0
1002
}
  0
LINE
  5
44B1
330
1F
100
AcDbEntity
  8
AM_7
  6
AM_ISO08W050x2
100
AcDbLine
 10
2464.442587312018
 20
1706.61082661973
 30
0.0
 11
2464.442587312018
 21
1682.3836524681
 31
0.0
1001
GENIUS_GENOBJ-N-CEN_13
1002
{
1000
OWNER
1000
GEN
1002
}
1001
GENIUS_GENODEF_13
1002
{
1000
HIER
1070
     0
1002
}
1002
{
1000
MANEDIT
1070
     0
1002
}
1002
{
1000
NOSEL
1070
     0
1002
}
1002
{
1000
BEHIND
1070
     0
1002
}
1002
{
1000
OTHER
1070
     0
1002
}
1002
{
1000
REACTOR
1002
}
1001
GENIUS_GENCEN_19
1002
{
1040
3.0
1002
}
  0
LINE
  5
44BF
330
1F
100
AcDbEntity
  8
AM_7
  6
AM_ISO08W050x2
100
AcDbLine
 10
2144.847121320781
 20
1741.078916144012
 30
0.0
 11
2152.347121320781
 21
1741.078916144012
 31
0.0
1001
GENIUS_GENOREF_13
1005
44C3
  0
LINE
  5
44C0
330
1F
100
AcDbEntity
  8
AM_7
  6
AM_ISO08W050x2
100
AcDbLine
 10
2144.847121320781
 20
1741.078916144012
 30
0.0
 11
2144.847121320781
 21
1748.578916144012
 31
0.0
1001
GENIUS_GENOREF_13
1005
44C3
  0
LINE
  5
44C1
330
1F
100
AcDbEntity
  8
AM_7
  6
AM_ISO08W050x2
100
AcDbLine
 10
2144.847121320781
 20
1741.078916144012
 30
0.0
 11
2137.347121320781
 21
1741.078916144012
 31
0.0
1001
GENIUS_GENOREF_13
1005
44C3
  0
LINE
  5
44C2
330
1F
100
AcDbEntity
  8
AM_7
  6
AM_ISO08W050x2
100
AcDbLine
 10
2144.847121320781
 20
1741.078916144012
 30
0.0
 11
2144.847121320781
 21
1733.578916144012
 31
0.0
1001
GENIUS_GENOREF_13
1005
44C3
  0
POINT
  5
44C3
330
1F
100
AcDbEntity
  8
0
 60
     1
100
AcDbPoint
 10
0.0
 20
0.0
 30
0.0
1001
GENIUS_GENOBJ-N-CRS_13
1002
{
1000
OWNER
1000
GEN
1002
}
1001
GENIUS_GENODEF_13
1002
{
1000
HIER
1070
    10
1002
}
1002
{
1000
MANEDIT
1070
     0
1002
}
1002
{
1000
NOSEL
1070
     0
1002
}
1002
{
1000
BEHIND
1070
     0
1002
}
1002
{
1000
OTHER
1070
     0
1002
}
1002
{
1000
REACTOR
1002
}
1001
GENIUS_GENOLIS_13
1002
{
1000
ENT
1005
44C2
1005
44C1
1005
44C0
1005
44BF
1002
}
1001
GENIUS_GENOENT_13
1002
{
1000
MYREF
1005
44C3
1002
}
1002
{
1000
GRP
1005
0
1002
}
  0
LINE
  5
44D1
330
1F
100
AcDbEntity
  8
AM_7
  6
AM_ISO08W050x2
100
AcDbLine
 10
2144.847121320781
 20
1719.078916144012
 30
0.0
 11
2152.347121320781
 21
1719.078916144012
 31
0.0
1001
GENIUS_GENOREF_13
1005
44D5
  0
LINE
  5
44D2
330
1F
100
AcDbEntity
  8
AM_7
  6
AM_ISO08W050x2
100
AcDbLine
 10
2144.847121320781
 20
1719.078916144012
 30
0.0
 11
2144.847121320781
 21
1726.578916144012
 31
0.0
1001
GENIUS_GENOREF_13
1005
44D5
  0
LINE
  5
44D3
330
1F
100
AcDbEntity
  8
AM_7
  6
AM_ISO08W050x2
100
AcDbLine
 10
2144.847121320781
 20
1719.078916144012
 30
0.0
 11
2137.347121320781
 21
1719.078916144012
 31
0.0
1001
GENIUS_GENOREF_13
1005
44D5
  0
LINE
  5
44D4
330
1F
100
AcDbEntity
  8
AM_7
  6
AM_ISO08W050x2
100
AcDbLine
 10
2144.847121320781
 20
1719.078916144012
 30
0.0
 11
2144.847121320781
 21
1711.578916144012
 31
0.0
1001
GENIUS_GENOREF_13
1005
44D5
  0
POINT
  5
44D5
330
1F
100
AcDbEntity
  8
0
 60
     1
100
AcDbPoint
 10
0.0
 20
0.0
 30
0.0
1001
GENIUS_GENOLIS_13
1002
{
1000
ENT
1005
44D4
1005
44D3
1005
44D2
1005
44D1
1002
}
1001
GENIUS_GENOENT_13
1002
{
1000
MYREF
1005
44D5
1002
}
1002
{
1000
GRP
1005
0
1002
}
1001
GENIUS_GENODEF_13
1002
{
1000
HIER
1070
    10
1002
}
1002
{
1000
MANEDIT
1070
     0
1002
}
1002
{
1000
NOSEL
1070
     0
1002
}
1002
{
1000
BEHIND
1070
     0
1002
}
1002
{
1000
OTHER
1070
     0
1002
}
1002
{
1000
REACTOR
1002
}
1001
GENIUS_GENOBJ-N-CRS_13
1002
{
1000
OWNER
1000
GEN
1002
}
  0
LINE
  5
44E3
330
1F
100
AcDbEntity
  8
AM_7
  6
AM_ISO08W050x2
100
AcDbLine
 10
2186.847121320781
 20
1719.078916144012
 30
0.0
 11
2194.347121320781
 21
1719.078916144012
 31
0.0
1001
GENIUS_GENOREF_13
1005
44E7
  0
LINE
  5
44E4
330
1F
100
AcDbEntity
  8
AM_7
  6
AM_ISO08W050x2
100
AcDbLine
 10
2186.847121320781
 20
1719.078916144012
 30
0.0
 11
2186.847121320781
 21
1726.578916144012
 31
0.0
1001
GENIUS_GENOREF_13
1005
44E7
  0
LINE
  5
44E5
330
1F
100
AcDbEntity
  8
AM_7
  6
AM_ISO08W050x2
100
AcDbLine
 10
2186.847121320781
 20
1719.078916144012
 30
0.0
 11
2179.347121320781
 21
1719.078916144012
 31
0.0
1001
GENIUS_GENOREF_13
1005
44E7
  0
LINE
  5
44E6
330
1F
100
AcDbEntity
  8
AM_7
  6
AM_ISO08W050x2
100
AcDbLine
 10
2186.847121320781
 20
1719.078916144012
 30
0.0
 11
2186.847121320781
 21
1711.578916144012
 31
0.0
1001
GENIUS_GENOREF_13
1005
44E7
  0
POINT
  5
44E7
330
1F
100
AcDbEntity
  8
0
 60
     1
100
AcDbPoint
 10
0.0
 20
0.0
 30
0.0
1001
GENIUS_GENOENT_13
1002
{
1000
MYREF
1005
44E7
1002
}
1002
{
1000
GRP
1005
0
1002
}
1001
GENIUS_GENOLIS_13
1002
{
1000
ENT
1005
44E6
1005
44E5
1005
44E4
1005
44E3
1002
}
1001
GENIUS_GENOBJ-N-CRS_13
1002
{
1000
OWNER
1000
GEN
1002
}
1001
GENIUS_GENODEF_13
1002
{
1000
HIER
1070
    10
1002
}
1002
{
1000
MANEDIT
1070
     0
1002
}
1002
{
1000
NOSEL
1070
     0
1002
}
1002
{
1000
BEHIND
1070
     0
1002
}
1002
{
1000
OTHER
1070
     0
1002
}
1002
{
1000
REACTOR
1002
}
  0
LINE
  5
44F5
330
1F
100
AcDbEntity
  8
AM_7
  6
AM_ISO08W050x2
100
AcDbLine
 10
2186.847121320781
 20
1741.078916144012
 30
0.0
 11
2194.347121320781
 21
1741.078916144012
 31
0.0
1001
GENIUS_GENOREF_13
1005
44F9
  0
LINE
  5
44F6
330
1F
100
AcDbEntity
  8
AM_7
  6
AM_ISO08W050x2
100
AcDbLine
 10
2186.847121320781
 20
1741.078916144012
 30
0.0
 11
2186.847121320781
 21
1748.578916144012
 31
0.0
1001
GENIUS_GENOREF_13
1005
44F9
  0
LINE
  5
44F7
330
1F
100
AcDbEntity
  8
AM_7
  6
AM_ISO08W050x2
100
AcDbLine
 10
2186.847121320781
 20
1741.078916144012
 30
0.0
 11
2179.347121320781
 21
1741.078916144012
 31
0.0
1001
GENIUS_GENOREF_13
1005
44F9
  0
LINE
  5
44F8
330
1F
100
AcDbEntity
  8
AM_7
  6
AM_ISO08W050x2
100
AcDbLine
 10
2186.847121320781
 20
1741.078916144012
 30
0.0
 11
2186.847121320781
 21
1733.578916144012
 31
0.0
1001
GENIUS_GENOREF_13
1005
44F9
  0
POINT
  5
44F9
330
1F
100
AcDbEntity
  8
0
 60
     1
100
AcDbPoint
 10
0.0
 20
0.0
 30
0.0
1001
GENIUS_GENODEF_13
1002
{
1000
HIER
1070
    10
1002
}
1002
{
1000
MANEDIT
1070
     0
1002
}
1002
{
1000
NOSEL
1070
     0
1002
}
1002
{
1000
BEHIND
1070
     0
1002
}
1002
{
1000
OTHER
1070
     0
1002
}
1002
{
1000
REACTOR
1002
}
1001
GENIUS_GENOLIS_13
1002
{
1000
ENT
1005
44F8
1005
44F7
1005
44F6
1005
44F5
1002
}
1001
GENIUS_GENOENT_13
1002
{
1000
MYREF
1005
44F9
1002
}
1002
{
1000
GRP
1005
0
1002
}
1001
GENIUS_GENOBJ-N-CRS_13
1002
{
1000
OWNER
1000
GEN
1002
}
  0
ARC
  5
453C
330
1F
100
AcDbEntity
  8
AM_4
100
AcDbCircle
 10
2374.442587312017
 20
1721.078916144012
 30
0.0
 40
4.0
100
AcDbArc
 50
260.0
 51
170.0
  0
CIRCLE
  5
453D
330
1F
100
AcDbEntity
  8
AM_0
100
AcDbCircle
 10
2374.442587312017
 20
1721.078916144012
 30
0.0
 40
3.323417653293459
  0
LINE
  5
453E
330
1F
100
AcDbEntity
  8
AM_7
  6
AM_ISO08W050x2
100
AcDbLine
 10
2368.442587312018
 20
1721.078916144012
 30
0.0
 11
2380.442587312018
 21
1721.078916144012
 31
0.0
  0
LINE
  5
453F
330
1F
100
AcDbEntity
  8
AM_7
  6
AM_ISO08W050x2
100
AcDbLine
 10
2374.442587312017
 20
1715.078916144012
 30
0.0
 11
2374.442587312017
 21
1727.078916144012
 31
0.0
  0
ARC
  5
4540
330
1F
100
AcDbEntity
  8
AM_4
100
AcDbCircle
 10
2374.442587312017
 20
1751.078916144012
 30
0.0
 40
4.0
100
AcDbArc
 50
260.0
 51
170.0
  0
CIRCLE
  5
4541
330
1F
100
AcDbEntity
  8
AM_0
100
AcDbCircle
 10
2374.442587312017
 20
1751.078916144012
 30
0.0
 40
3.323417653293459
  0
LINE
  5
4542
330
1F
100
AcDbEntity
  8
AM_7
  6
AM_ISO08W050x2
100
AcDbLine
 10
2368.442587312018
 20
1751.078916144012
 30
0.0
 11
2380.442587312018
 21
1751.078916144012
 31
0.0
  0
LINE
  5
4543
330
1F
100
AcDbEntity
  8
AM_7
  6
AM_ISO08W050x2
100
AcDbLine
 10
2374.442587312017
 20
1745.078916144012
 30
0.0
 11
2374.442587312017
 21
1757.078916144012
 31
0.0
  0
ARC
  5
4544
330
1F
100
AcDbEntity
  8
AM_4
100
AcDbCircle
 10
2474.442587312018
 20
1751.078916144012
 30
0.0
 40
4.0
100
AcDbArc
 50
260.0
 51
170.0
  0
CIRCLE
  5
4545
330
1F
100
AcDbEntity
  8
AM_0
100
AcDbCircle
 10
2474.442587312018
 20
1751.078916144012
 30
0.0
 40
3.323417653293459
  0
LINE
  5
4546
330
1F
100
AcDbEntity
  8
AM_7
  6
AM_ISO08W050x2
100
AcDbLine
 10
2468.442587312018
 20
1751.078916144012
 30
0.0
 11
2480.442587312018
 21
1751.078916144012
 31
0.0
  0
LINE
  5
4547
330
1F
100
AcDbEntity
  8
AM_7
  6
AM_ISO08W050x2
100
AcDbLine
 10
2474.442587312018
 20
1745.078916144012
 30
0.0
 11
2474.442587312018
 21
1757.078916144012
 31
0.0
  0
ARC
  5
4548
330
1F
100
AcDbEntity
  8
AM_4
100
AcDbCircle
 10
2474.442587312018
 20
1721.078916144012
 30
0.0
 40
4.0
100
AcDbArc
 50
260.0
 51
170.0
  0
CIRCLE
  5
4549
330
1F
100
AcDbEntity
  8
AM_0
100
AcDbCircle
 10
2474.442587312018
 20
1721.078916144012
 30
0.0
 40
3.323417653293459
  0
LINE
  5
454A
330
1F
100
AcDbEntity
  8
AM_7
  6
AM_ISO08W050x2
100
AcDbLine
 10
2468.442587312018
 20
1721.078916144012
 30
0.0
 11
2480.442587312018
 21
1721.078916144012
 31
0.0
  0
LINE
  5
454B
330
1F
100
AcDbEntity
  8
AM_7
  6
AM_ISO08W050x2
100
AcDbLine
 10
2474.442587312018
 20
1715.078916144012
 30
0.0
 11
2474.442587312018
 21
1727.078916144012
 31
0.0
  0
ARC
  5
457F
330
1F
100
AcDbEntity
  8
AM_4
100
AcDbCircle
 10
2403.442587312018
 20
1719.078916144012
 30
0.0
 40
4.0
100
AcDbArc
 50
260.0
 51
170.0
  0
CIRCLE
  5
4580
330
1F
100
AcDbEntity
  8
AM_0
100
AcDbCircle
 10
2403.442587312018
 20
1719.078916144012
 30
0.0
 40
3.323417653293459
  0
LINE
  5
4581
330
1F
100
AcDbEntity
  8
AM_7
  6
AM_ISO08W050x2
100
AcDbLine
 10
2397.442587312017
 20
1719.078916144012
 30
0.0
 11
2409.442587312018
 21
1719.078916144012
 31
0.0
  0
LINE
  5
4582
330
1F
100
AcDbEntity
  8
AM_7
  6
AM_ISO08W050x2
100
AcDbLine
 10
2403.442587312018
 20
1713.078916144012
 30
0.0
 11
2403.442587312018
 21
1725.078916144012
 31
0.0
  0
ARC
  5
4583
330
1F
100
AcDbEntity
  8
AM_4
100
AcDbCircle
 10
2445.442587312018
 20
1719.078916144012
 30
0.0
 40
4.0
100
AcDbArc
 50
260.0
 51
170.0
  0
CIRCLE
  5
4584
330
1F
100
AcDbEntity
  8
AM_0
100
AcDbCircle
 10
2445.442587312018
 20
1719.078916144012
 30
0.0
 40
3.323417653293459
  0
LINE
  5
4585
330
1F
100
AcDbEntity
  8
AM_7
  6
AM_ISO08W050x2
100
AcDbLine
 10
2439.442587312018
 20
1719.078916144012
 30
0.0
 11
2451.442587312018
 21
1719.078916144012
 31
0.0
  0
LINE
  5
4586
330
1F
100
AcDbEntity
  8
AM_7
  6
AM_ISO08W050x2
100
AcDbLine
 10
2445.442587312018
 20
1713.078916144012
 30
0.0
 11
2445.442587312018
 21
1725.078916144012
 31
0.0
  0
ARC
  5
4587
330
1F
100
AcDbEntity
  8
AM_4
100
AcDbCircle
 10
2445.442587312018
 20
1741.078916144012
 30
0.0
 40
4.0
100
AcDbArc
 50
260.0
 51
170.0
  0
CIRCLE
  5
4588
330
1F
100
AcDbEntity
  8
AM_0
100
AcDbCircle
 10
2445.442587312018
 20
1741.078916144012
 30
0.0
 40
3.323417653293459
  0
LINE
  5
4589
330
1F
100
AcDbEntity
  8
AM_7
  6
AM_ISO08W050x2
100
AcDbLine
 10
2439.442587312018
 20
1741.078916144012
 30
0.0
 11
2451.442587312018
 21
1741.078916144012
 31
0.0
  0
LINE
  5
458A
330
1F
100
AcDbEntity
  8
AM_7
  6
AM_ISO08W050x2
100
AcDbLine
 10
2445.442587312018
 20
1735.078916144012
 30
0.0
 11
2445.442587312018
 21
1747.078916144012
 31
0.0
  0
ARC
  5
458B
330
1F
100
AcDbEntity
  8
AM_4
100
AcDbCircle
 10
2403.442587312018
 20
1741.078916144012
 30
0.0
 40
4.0
100
AcDbArc
 50
260.0
 51
170.0
  0
CIRCLE
  5
458C
330
1F
100
AcDbEntity
  8
AM_0
100
AcDbCircle
 10
2403.442587312018
 20
1741.078916144012
 30
0.0
 40
3.323417653293459
  0
LINE
  5
458D
330
1F
100
AcDbEntity
  8
AM_7
  6
AM_ISO08W050x2
100
AcDbLine
 10
2397.442587312017
 20
1741.078916144012
 30
0.0
 11
2409.442587312018
 21
1741.078916144012
 31
0.0
  0
LINE
  5
458E
330
1F
100
AcDbEntity
  8
AM_7
  6
AM_ISO08W050x2
100
AcDbLine
 10
2403.442587312018
 20
1735.078916144012
 30
0.0
 11
2403.442587312018
 21
1747.078916144012
 31
0.0
  0
ARC
  5
45A8
330
1F
100
AcDbEntity
  8
AM_4
100
AcDbCircle
 10
2117.847121320781
 20
1858.334712873238
 30
0.0
 40
4.0
100
AcDbArc
 50
260.0
 51
170.0
  0
CIRCLE
  5
45A9
330
1F
100
AcDbEntity
  8
AM_0
100
AcDbCircle
 10
2117.847121320781
 20
1858.334712873238
 30
0.0
 40
3.323417653293459
  0
LINE
  5
45AA
330
1F
100
AcDbEntity
  8
AM_7
  6
AM_ISO08W050x2
100
AcDbLine
 10
2111.847121320781
 20
1858.334712873238
 30
0.0
 11
2123.847121320781
 21
1858.334712873238
 31
0.0
  0
LINE
  5
45AB
330
1F
100
AcDbEntity
  8
AM_7
  6
AM_ISO08W050x2
100
AcDbLine
 10
2117.847121320781
 20
1852.334712873238
 30
0.0
 11
2117.847121320781
 21
1864.334712873239
 31
0.0
  0
ARC
  5
45AC
330
1F
100
AcDbEntity
  8
AM_4
100
AcDbCircle
 10
2117.847121320781
 20
1828.334712873239
 30
0.0
 40
4.0
100
AcDbArc
 50
260.0
 51
170.0
  0
CIRCLE
  5
45AD
330
1F
100
AcDbEntity
  8
AM_0
100
AcDbCircle
 10
2117.847121320781
 20
1828.334712873239
 30
0.0
 40
3.323417653293459
  0
LINE
  5
45AE
330
1F
100
AcDbEntity
  8
AM_7
  6
AM_ISO08W050x2
100
AcDbLine
 10
2111.847121320781
 20
1828.334712873239
 30
0.0
 11
2123.847121320781
 21
1828.334712873239
 31
0.0
  0
LINE
  5
45AF
330
1F
100
AcDbEntity
  8
AM_7
  6
AM_ISO08W050x2
100
AcDbLine
 10
2117.847121320781
 20
1822.334712873239
 30
0.0
 11
2117.847121320781
 21
1834.334712873238
 31
0.0
  0
ARC
  5
45B0
330
1F
100
AcDbEntity
  8
AM_4
100
AcDbCircle
 10
2213.847121320781
 20
1828.334712873239
 30
0.0
 40
4.0
100
AcDbArc
 50
260.0
 51
170.0
  0
CIRCLE
  5
45B1
330
1F
100
AcDbEntity
  8
AM_0
100
AcDbCircle
 10
2213.847121320781
 20
1828.334712873239
 30
0.0
 40
3.323417653293459
  0
LINE
  5
45B2
330
1F
100
AcDbEntity
  8
AM_7
  6
AM_ISO08W050x2
100
AcDbLine
 10
2207.847121320781
 20
1828.334712873239
 30
0.0
 11
2219.847121320781
 21
1828.334712873239
 31
0.0
  0
LINE
  5
45B3
330
1F
100
AcDbEntity
  8
AM_7
  6
AM_ISO08W050x2
100
AcDbLine
 10
2213.847121320781
 20
1822.334712873239
 30
0.0
 11
2213.847121320781
 21
1834.334712873238
 31
0.0
  0
ARC
  5
45B4
330
1F
100
AcDbEntity
  8
AM_4
100
AcDbCircle
 10
2213.847121320781
 20
1858.334712873238
 30
0.0
 40
4.0
100
AcDbArc
 50
260.0
 51
170.0
  0
CIRCLE
  5
45B5
330
1F
100
AcDbEntity
  8
AM_0
100
AcDbCircle
 10
2213.847121320781
 20
1858.334712873238
 30
0.0
 40
3.323417653293459
  0
LINE
  5
45B6
330
1F
100
AcDbEntity
  8
AM_7
  6
AM_ISO08W050x2
100
AcDbLine
 10
2207.847121320781
 20
1858.334712873238
 30
0.0
 11
2219.847121320781
 21
1858.334712873238
 31
0.0
  0
LINE
  5
45B7
330
1F
100
AcDbEntity
  8
AM_7
  6
AM_ISO08W050x2
100
AcDbLine
 10
2213.847121320781
 20
1852.334712873238
 30
0.0
 11
2213.847121320781
 21
1864.334712873239
 31
0.0
  0
ARC
  5
45D1
330
1F
100
AcDbEntity
  8
AM_4
100
AcDbCircle
 10
2125.847121320781
 20
1643.344315795789
 30
0.0
 40
4.0
100
AcDbArc
 50
260.0
 51
170.0
  0
CIRCLE
  5
45D2
330
1F
100
AcDbEntity
  8
AM_0
100
AcDbCircle
 10
2125.847121320781
 20
1643.344315795789
 30
0.0
 40
3.323417653293459
  0
LINE
  5
45D3
330
1F
100
AcDbEntity
  8
AM_7
  6
AM_ISO08W050x2
100
AcDbLine
 10
2119.847121320781
 20
1643.344315795789
 30
0.0
 11
2131.847121320781
 21
1643.344315795789
 31
0.0
  0
LINE
  5
45D4
330
1F
100
AcDbEntity
  8
AM_7
  6
AM_ISO08W050x2
100
AcDbLine
 10
2125.847121320781
 20
1637.344315795789
 30
0.0
 11
2125.847121320781
 21
1649.344315795789
 31
0.0
  0
ARC
  5
45D5
330
1F
100
AcDbEntity
  8
AM_4
100
AcDbCircle
 10
2125.847121320781
 20
1605.344315795789
 30
0.0
 40
4.0
100
AcDbArc
 50
260.0
 51
170.0
  0
CIRCLE
  5
45D6
330
1F
100
AcDbEntity
  8
AM_0
100
AcDbCircle
 10
2125.847121320781
 20
1605.344315795789
 30
0.0
 40
3.323417653293459
  0
LINE
  5
45D7
330
1F
100
AcDbEntity
  8
AM_7
  6
AM_ISO08W050x2
100
AcDbLine
 10
2119.847121320781
 20
1605.344315795789
 30
0.0
 11
2131.847121320781
 21
1605.344315795789
 31
0.0
  0
LINE
  5
45D8
330
1F
100
AcDbEntity
  8
AM_7
  6
AM_ISO08W050x2
100
AcDbLine
 10
2125.847121320781
 20
1599.344315795789
 30
0.0
 11
2125.847121320781
 21
1611.344315795789
 31
0.0
  0
ARC
  5
45D9
330
1F
100
AcDbEntity
  8
AM_4
100
AcDbCircle
 10
2205.847121320781
 20
1605.344315795789
 30
0.0
 40
4.0
100
AcDbArc
 50
260.0
 51
170.0
  0
CIRCLE
  5
45DA
330
1F
100
AcDbEntity
  8
AM_0
100
AcDbCircle
 10
2205.847121320781
 20
1605.344315795789
 30
0.0
 40
3.323417653293459
  0
LINE
  5
45DB
330
1F
100
AcDbEntity
  8
AM_7
  6
AM_ISO08W050x2
100
AcDbLine
 10
2199.847121320781
 20
1605.344315795789
 30
0.0
 11
2211.847121320781
 21
1605.344315795789
 31
0.0
  0
LINE
  5
45DC
330
1F
100
AcDbEntity
  8
AM_7
  6
AM_ISO08W050x2
100
AcDbLine
 10
2205.847121320781
 20
1599.344315795789
 30
0.0
 11
2205.847121320781
 21
1611.344315795789
 31
0.0
  0
ARC
  5
45DD
330
1F
100
AcDbEntity
  8
AM_4
100
AcDbCircle
 10
2205.847121320781
 20
1643.344315795789
 30
0.0
 40
4.0
100
AcDbArc
 50
260.0
 51
170.0
  0
CIRCLE
  5
45DE
330
1F
100
AcDbEntity
  8
AM_0
100
AcDbCircle
 10
2205.847121320781
 20
1643.344315795789
 30
0.0
 40
3.323417653293459
  0
LINE
  5
45DF
330
1F
100
AcDbEntity
  8
AM_7
  6
AM_ISO08W050x2
100
AcDbLine
 10
2199.847121320781
 20
1643.344315795789
 30
0.0
 11
2211.847121320781
 21
1643.344315795789
 31
0.0
  0
LINE
  5
45E0
330
1F
100
AcDbEntity
  8
AM_7
  6
AM_ISO08W050x2
100
AcDbLine
 10
2205.847121320781
 20
1637.344315795789
 30
0.0
 11
2205.847121320781
 21
1649.344315795789
 31
0.0
  0
LINE
  5
45EE
330
1F
100
AcDbEntity
  8
AM_7
100
AcDbLine
 10
2125.847121320781
 20
1624.344315795789
 30
0.0
 11
2137.847121320781
 21
1624.344315795789
 31
0.0
1001
GENIUS_GENOREF_13
1005
45F2
  0
LINE
  5
45EF
330
1F
100
AcDbEntity
  8
AM_7
100
AcDbLine
 10
2125.847121320781
 20
1624.344315795789
 30
0.0
 11
2125.847121320781
 21
1636.344315795789
 31
0.0
1001
GENIUS_GENOREF_13
1005
45F2
  0
LINE
  5
45F0
330
1F
100
AcDbEntity
  8
AM_7
100
AcDbLine
 10
2125.847121320781
 20
1624.344315795789
 30
0.0
 11
2113.847121320781
 21
1624.344315795789
 31
0.0
1001
GENIUS_GENOREF_13
1005
45F2
  0
LINE
  5
45F1
330
1F
100
AcDbEntity
  8
AM_7
100
AcDbLine
 10
2125.847121320781
 20
1624.344315795789
 30
0.0
 11
2125.847121320781
 21
1612.344315795789
 31
0.0
1001
GENIUS_GENOREF_13
1005
45F2
  0
POINT
  5
45F2
330
1F
100
AcDbEntity
  8
0
 60
     1
100
AcDbPoint
 10
0.0
 20
0.0
 30
0.0
1001
GENIUS_GENODEF_13
1002
{
1000
HIER
1070
    10
1002
}
1002
{
1000
MANEDIT
1070
     0
1002
}
1002
{
1000
NOSEL
1070
     0
1002
}
1002
{
1000
BEHIND
1070
     0
1002
}
1002
{
1000
OTHER
1070
     0
1002
}
1002
{
1000
REACTOR
1002
}
1001
GENIUS_GENOLIS_13
1002
{
1000
ENT
1005
45F1
1005
45F0
1005
45EF
1005
45EE
1002
}
1001
GENIUS_GENOBJ-N-CRS_13
1002
{
1000
OWNER
1000
GEN
1002
}
1001
GENIUS_GENOENT_13
1002
{
1000
MYREF
1005
45F2
1002
}
1002
{
1000
GRP
1005
0
1002
}
  0
LINE
  5
4600
330
1F
100
AcDbEntity
  8
AM_7
100
AcDbLine
 10
2205.847121320781
 20
1624.344315795789
 30
0.0
 11
2217.847121320781
 21
1624.344315795789
 31
0.0
1001
GENIUS_GENOREF_13
1005
4604
  0
LINE
  5
4601
330
1F
100
AcDbEntity
  8
AM_7
100
AcDbLine
 10
2205.847121320781
 20
1624.344315795789
 30
0.0
 11
2205.847121320781
 21
1636.344315795789
 31
0.0
1001
GENIUS_GENOREF_13
1005
4604
  0
LINE
  5
4602
330
1F
100
AcDbEntity
  8
AM_7
100
AcDbLine
 10
2205.847121320781
 20
1624.344315795789
 30
0.0
 11
2193.847121320781
 21
1624.344315795789
 31
0.0
1001
GENIUS_GENOREF_13
1005
4604
  0
LINE
  5
4603
330
1F
100
AcDbEntity
  8
AM_7
100
AcDbLine
 10
2205.847121320781
 20
1624.344315795789
 30
0.0
 11
2205.847121320781
 21
1612.344315795789
 31
0.0
1001
GENIUS_GENOREF_13
1005
4604
  0
POINT
  5
4604
330
1F
100
AcDbEntity
  8
0
 60
     1
100
AcDbPoint
 10
0.0
 20
0.0
 30
0.0
1001
GENIUS_GENODEF_13
1002
{
1000
HIER
1070
    10
1002
}
1002
{
1000
MANEDIT
1070
     0
1002
}
1002
{
1000
NOSEL
1070
     0
1002
}
1002
{
1000
BEHIND
1070
     0
1002
}
1002
{
1000
OTHER
1070
     0
1002
}
1002
{
1000
REACTOR
1002
}
1001
GENIUS_GENOENT_13
1002
{
1000
MYREF
1005
4604
1002
}
1002
{
1000
GRP
1005
0
1002
}
1001
GENIUS_GENOBJ-N-CRS_13
1002
{
1000
OWNER
1000
GEN
1002
}
1001
GENIUS_GENOLIS_13
1002
{
1000
ENT
1005
4603
1005
4602
1005
4601
1005
4600
1002
}
  0
CIRCLE
  5
4610
330
1F
100
AcDbEntity
  8
0
100
AcDbCircle
 10
2165.847121320781
 20
1624.344315795789
 30
0.0
 40
17.0
  0
LINE
  5
461A
330
1F
100
AcDbEntity
  8
AM_VIS
100
AcDbLine
 10
2221.347121320781
 20
1409.048298511681
 30
0.0
 11
2221.847121320781
 21
1408.548298511681
 31
0.0
  0
LINE
  5
461B
330
1F
100
AcDbEntity
  8
AM_VIS
100
AcDbLine
 10
2221.847121320781
 20
1397.54829851168
 30
0.0
 11
2221.847121320781
 21
1408.548298511681
 31
0.0
  0
LINE
  5
461C
330
1F
100
AcDbEntity
  8
AM_VIS
100
AcDbLine
 10
2221.847121320781
 20
1397.54829851168
 30
0.0
 11
2221.347121320781
 21
1397.048298511681
 31
0.0
  0
LINE
  5
461D
330
1F
100
AcDbEntity
  8
AM_VIS
100
AcDbLine
 10
2109.847121320781
 20
1408.548298511681
 30
0.0
 11
2109.847121320781
 21
1397.54829851168
 31
0.0
  0
LINE
  5
461E
330
1F
100
AcDbEntity
  8
AM_VIS
100
AcDbLine
 10
2109.847121320781
 20
1408.548298511681
 30
0.0
 11
2110.347121320781
 21
1409.048298511681
 31
0.0
  0
LINE
  5
461F
330
1F
100
AcDbEntity
  8
AM_VIS
100
AcDbLine
 10
2110.347121320781
 20
1397.048298511681
 30
0.0
 11
2109.847121320781
 21
1397.54829851168
 31
0.0
  0
LINE
  5
4620
330
1F
100
AcDbEntity
  8
AM_VIS
100
AcDbLine
 10
2221.347121320781
 20
1409.048298511681
 30
0.0
 11
2110.347121320781
 21
1409.048298511681
 31
0.0
  0
LINE
  5
4621
330
1F
100
AcDbEntity
  8
AM_VIS
100
AcDbLine
 10
2110.347121320781
 20
1397.048298511681
 30
0.0
 11
2221.347121320781
 21
1397.048298511681
 31
0.0
  0
LINE
  5
4622
330
1F
100
AcDbEntity
  8
AM_VIS
100
AcDbLine
 10
2173.847121320781
 20
1395.048298511681
 30
0.0
 11
2173.847121320781
 21
1397.048298511681
 31
0.0
  0
LINE
  5
4623
330
1F
100
AcDbEntity
  8
AM_VIS
100
AcDbLine
 10
2157.847121320781
 20
1395.048298511681
 30
0.0
 11
2157.847121320781
 21
1397.048298511681
 31
0.0
  0
LINE
  5
462B
330
1F
100
AcDbEntity
  8
AM_VIS
100
AcDbLine
 10
2183.047121320781
 20
1369.072119441266
 30
0.0
 11
2183.047121320781
 21
1355.024477582095
 31
0.0
  0
LINE
  5
462C
330
1F
100
AcDbEntity
  8
AM_VIS
100
AcDbLine
 10
2174.047121320781
 20
1395.048298511681
 30
0.0
 11
2174.047121320781
 21
1336.54829851168
 31
0.0
  0
LINE
  5
462D
330
1F
100
AcDbEntity
  8
AM_VIS
100
AcDbLine
 10
2170.647121320781
 20
1336.54829851168
 30
0.0
 11
2170.647121320781
 21
1395.048298511681
 31
0.0
  0
LINE
  5
462E
330
1F
100
AcDbEntity
  8
AM_VIS
100
AcDbLine
 10
2148.647121320781
 20
1347.072119441267
 30
0.0
 11
2148.647121320781
 21
1336.54829851168
 31
0.0
  0
LINE
  5
462F
330
1F
100
AcDbEntity
  8
AM_VIS
100
AcDbLine
 10
2161.047121320781
 20
1395.048298511681
 30
0.0
 11
2161.047121320781
 21
1336.54829851168
 31
0.0
  0
LINE
  5
4630
330
1F
100
AcDbEntity
  8
AM_VIS
100
AcDbLine
 10
2157.647121320781
 20
1336.54829851168
 30
0.0
 11
2157.647121320781
 21
1395.048298511681
 31
0.0
  0
LINE
  5
4631
330
1F
100
AcDbEntity
  8
AM_VIS
100
AcDbLine
 10
2223.847121320781
 20
1336.54829851168
 30
0.0
 11
2223.847121320781
 21
1395.048298511681
 31
0.0
  0
LINE
  5
4632
330
1F
100
AcDbEntity
  8
AM_VIS
100
AcDbLine
 10
2148.647121320781
 20
1395.048298511681
 30
0.0
 11
2148.647121320781
 21
1377.024477582095
 31
0.0
  0
ARC
  5
4633
330
1F
100
AcDbEntity
  8
AM_VIS
100
AcDbCircle
 10
2144.847121320781
 20
1373.048298511681
 30
0.0
 40
5.500000000000001
100
AcDbArc
 50
46.29788556264878
 51
56.94426884914591
  0
LINE
  5
4634
330
1F
100
AcDbEntity
  8
AM_VIS
100
AcDbLine
 10
2183.047121320781
 20
1347.072119441267
 30
0.0
 11
2183.047121320781
 21
1336.54829851168
 31
0.0
  0
LINE
  5
4635
330
1F
100
AcDbEntity
  8
AM_VIS
100
AcDbLine
 10
2183.047121320781
 20
1395.048298511681
 30
0.0
 11
2183.047121320781
 21
1377.024477582095
 31
0.0
  0
LINE
  5
4636
330
1F
100
AcDbEntity
  8
AM_VIS
100
AcDbLine
 10
2183.847121320781
 20
1368.438526283034
 30
0.0
 11
2183.847121320781
 21
1355.658070740327
 31
0.0
  0
LINE
  5
4637
330
1F
100
AcDbEntity
  8
AM_VIS
100
AcDbLine
 10
2183.847121320781
 20
1395.048298511681
 30
0.0
 11
2183.847121320781
 21
1377.658070740327
 31
0.0
  0
LINE
  5
4638
330
1F
100
AcDbEntity
  8
AM_VIS
100
AcDbLine
 10
2183.847121320781
 20
1346.438526283034
 30
0.0
 11
2183.847121320781
 21
1336.54829851168
 31
0.0
  0
ARC
  5
4639
330
1F
100
AcDbEntity
  8
AM_VIS
100
AcDbCircle
 10
2144.847121320781
 20
1373.048298511681
 30
0.0
 40
5.500000000000001
100
AcDbArc
 50
303.0557311508541
 51
313.7021144373512
  0
LINE
  5
463A
330
1F
100
AcDbEntity
  8
AM_VIS
100
AcDbLine
 10
2148.647121320781
 20
1369.072119441266
 30
0.0
 11
2148.647121320781
 21
1355.024477582095
 31
0.0
  0
ARC
  5
463B
330
1F
100
AcDbEntity
  8
AM_VIS
100
AcDbCircle
 10
2186.847121320781
 20
1373.048298511681
 30
0.0
 40
5.499999999999998
100
AcDbArc
 50
226.2978855626488
 51
236.9442688491459
  0
ARC
  5
463C
330
1F
100
AcDbEntity
  8
AM_VIS
100
AcDbCircle
 10
2186.847121320781
 20
1373.048298511681
 30
0.0
 40
5.499999999999998
100
AcDbArc
 50
123.0557311508541
 51
133.7021144373512
  0
ARC
  5
463D
330
1F
100
AcDbEntity
  8
AM_VIS
100
AcDbCircle
 10
2144.847121320781
 20
1351.04829851168
 30
0.0
 40
5.500000000000001
100
AcDbArc
 50
46.29788556264878
 51
56.94426884914591
  0
ARC
  5
463E
330
1F
100
AcDbEntity
  8
AM_VIS
100
AcDbCircle
 10
2144.847121320781
 20
1351.04829851168
 30
0.0
 40
5.500000000000001
100
AcDbArc
 50
303.0557311508541
 51
313.7021144373512
  0
ARC
  5
463F
330
1F
100
AcDbEntity
  8
AM_VIS
100
AcDbCircle
 10
2186.847121320781
 20
1351.04829851168
 30
0.0
 40
5.499999999999998
100
AcDbArc
 50
226.2978855626488
 51
236.9442688491459
  0
ARC
  5
4640
330
1F
100
AcDbEntity
  8
AM_VIS
100
AcDbCircle
 10
2186.847121320781
 20
1351.04829851168
 30
0.0
 40
5.499999999999998
100
AcDbArc
 50
123.0557311508541
 51
133.7021144373512
  0
LINE
  5
4641
330
1F
100
AcDbEntity
  8
AM_VIS
100
AcDbLine
 10
2183.847121320781
 20
1395.048298511681
 30
0.0
 11
2222.347121320781
 21
1395.048298511681
 31
0.0
  0
LINE
  5
4642
330
1F
100
AcDbEntity
  8
AM_VIS
100
AcDbLine
 10
2183.047121320781
 20
1395.048298511681
 30
0.0
 11
2183.847121320781
 21
1395.048298511681
 31
0.0
  0
LINE
  5
4643
330
1F
100
AcDbEntity
  8
AM_VIS
100
AcDbLine
 10
2174.047121320781
 20
1395.048298511681
 30
0.0
 11
2183.047121320781
 21
1395.048298511681
 31
0.0
  0
LINE
  5
4644
330
1F
100
AcDbEntity
  8
AM_VIS
100
AcDbLine
 10
2171.897121320781
 20
1395.048298511681
 30
0.0
 11
2172.797121320781
 21
1395.048298511681
 31
0.0
  0
LINE
  5
4645
330
1F
100
AcDbEntity
  8
AM_VIS
100
AcDbLine
 10
2161.047121320781
 20
1395.048298511681
 30
0.0
 11
2170.647121320781
 21
1395.048298511681
 31
0.0
  0
LINE
  5
4646
330
1F
100
AcDbEntity
  8
AM_VIS
100
AcDbLine
 10
2158.897121320781
 20
1395.048298511681
 30
0.0
 11
2159.797121320781
 21
1395.048298511681
 31
0.0
  0
LINE
  5
4647
330
1F
100
AcDbEntity
  8
AM_VIS
100
AcDbLine
 10
2148.647121320781
 20
1395.048298511681
 30
0.0
 11
2157.647121320781
 21
1395.048298511681
 31
0.0
  0
LINE
  5
4648
330
1F
100
AcDbEntity
  8
AM_VIS
100
AcDbLine
 10
2147.847121320781
 20
1395.048298511681
 30
0.0
 11
2148.647121320781
 21
1395.048298511681
 31
0.0
  0
LINE
  5
4649
330
1F
100
AcDbEntity
  8
AM_VIS
100
AcDbLine
 10
2147.847121320781
 20
1336.54829851168
 30
0.0
 11
2147.847121320781
 21
1346.438526283035
 31
0.0
  0
LINE
  5
464A
330
1F
100
AcDbEntity
  8
AM_VIS
100
AcDbLine
 10
2109.347121320781
 20
1395.048298511681
 30
0.0
 11
2147.847121320781
 21
1395.048298511681
 31
0.0
  0
LINE
  5
464B
330
1F
100
AcDbEntity
  8
AM_VIS
100
AcDbLine
 10
2147.847121320781
 20
1377.658070740327
 30
0.0
 11
2147.847121320781
 21
1395.048298511681
 31
0.0
  0
LINE
  5
464C
330
1F
100
AcDbEntity
  8
AM_VIS
100
AcDbLine
 10
2147.847121320781
 20
1355.658070740327
 30
0.0
 11
2147.847121320781
 21
1368.438526283034
 31
0.0
  0
LINE
  5
464D
330
1F
100
AcDbEntity
  8
AM_VIS
100
AcDbLine
 10
2107.847121320781
 20
1395.048298511681
 30
0.0
 11
2107.847121320781
 21
1336.54829851168
 31
0.0
  0
LINE
  5
464E
330
1F
100
AcDbEntity
  8
AM_VIS
100
AcDbLine
 10
2109.347121320781
 20
1336.54829851168
 30
0.0
 11
2147.847121320781
 21
1336.54829851168
 31
0.0
  0
LINE
  5
464F
330
1F
100
AcDbEntity
  8
AM_VIS
100
AcDbLine
 10
2148.647121320781
 20
1336.54829851168
 30
0.0
 11
2147.847121320781
 21
1336.54829851168
 31
0.0
  0
LINE
  5
4650
330
1F
100
AcDbEntity
  8
AM_VIS
100
AcDbLine
 10
2157.647121320781
 20
1336.54829851168
 30
0.0
 11
2148.647121320781
 21
1336.54829851168
 31
0.0
  0
LINE
  5
4651
330
1F
100
AcDbEntity
  8
AM_VIS
100
AcDbLine
 10
2159.797121320781
 20
1336.54829851168
 30
0.0
 11
2158.897121320781
 21
1336.54829851168
 31
0.0
  0
LINE
  5
4652
330
1F
100
AcDbEntity
  8
AM_VIS
100
AcDbLine
 10
2170.647121320781
 20
1336.54829851168
 30
0.0
 11
2161.047121320781
 21
1336.54829851168
 31
0.0
  0
LINE
  5
4653
330
1F
100
AcDbEntity
  8
AM_VIS
100
AcDbLine
 10
2172.797121320781
 20
1336.54829851168
 30
0.0
 11
2171.897121320781
 21
1336.54829851168
 31
0.0
  0
LINE
  5
4654
330
1F
100
AcDbEntity
  8
AM_VIS
100
AcDbLine
 10
2183.047121320781
 20
1336.54829851168
 30
0.0
 11
2174.047121320781
 21
1336.54829851168
 31
0.0
  0
LINE
  5
4655
330
1F
100
AcDbEntity
  8
AM_VIS
100
AcDbLine
 10
2183.847121320781
 20
1336.54829851168
 30
0.0
 11
2183.047121320781
 21
1336.54829851168
 31
0.0
  0
LINE
  5
4656
330
1F
100
AcDbEntity
  8
AM_VIS
100
AcDbLine
 10
2183.847121320781
 20
1336.54829851168
 30
0.0
 11
2222.347121320781
 21
1336.54829851168
 31
0.0
  0
ARC
  5
4657
330
1F
100
AcDbEntity
  8
AM_VIS
100
AcDbCircle
 10
2144.847121320781
 20
1373.048298511681
 30
0.0
 40
5.5
100
AcDbArc
 50
313.7021144373512
 51
46.29788556264878
  0
CIRCLE
  5
4658
330
1F
100
AcDbEntity
  8
AM_VIS
100
AcDbCircle
 10
2144.847121320781
 20
1373.048298511681
 30
0.0
 40
3.399999999999999
  0
ARC
  5
4659
330
1F
100
AcDbEntity
  8
AM_VIS
100
AcDbCircle
 10
2186.847121320781
 20
1373.048298511681
 30
0.0
 40
5.5
100
AcDbArc
 50
236.9442688491459
 51
123.0557311508541
  0
ARC
  5
465A
330
1F
100
AcDbEntity
  8
AM_VIS
100
AcDbCircle
 10
2186.847121320781
 20
1373.048298511681
 30
0.0
 40
5.5
100
AcDbArc
 50
133.7021144373512
 51
226.2978855626488
  0
CIRCLE
  5
465B
330
1F
100
AcDbEntity
  8
AM_VIS
100
AcDbCircle
 10
2186.847121320781
 20
1373.048298511681
 30
0.0
 40
3.399999999999999
  0
ARC
  5
465C
330
1F
100
AcDbEntity
  8
AM_VIS
100
AcDbCircle
 10
2144.847121320781
 20
1351.04829851168
 30
0.0
 40
5.5
100
AcDbArc
 50
313.7021144373512
 51
46.29788556264878
  0
CIRCLE
  5
465D
330
1F
100
AcDbEntity
  8
AM_VIS
100
AcDbCircle
 10
2144.847121320781
 20
1351.04829851168
 30
0.0
 40
3.399999999999999
  0
ARC
  5
465E
330
1F
100
AcDbEntity
  8
AM_VIS
100
AcDbCircle
 10
2186.847121320781
 20
1351.04829851168
 30
0.0
 40
5.5
100
AcDbArc
 50
236.9442688491459
 51
123.0557311508541
  0
ARC
  5
465F
330
1F
100
AcDbEntity
  8
AM_VIS
100
AcDbCircle
 10
2186.847121320781
 20
1351.04829851168
 30
0.0
 40
5.5
100
AcDbArc
 50
133.7021144373512
 51
226.2978855626488
  0
CIRCLE
  5
4660
330
1F
100
AcDbEntity
  8
AM_VIS
100
AcDbCircle
 10
2186.847121320781
 20
1351.04829851168
 30
0.0
 40
3.399999999999999
  0
LINE
  5
4661
330
1F
100
AcDbEntity
  8
AM_VIS
100
AcDbLine
 10
2222.347121320781
 20
1395.048298511681
 30
0.0
 11
2223.847121320781
 21
1395.048298511681
 31
0.0
  0
LINE
  5
4662
330
1F
100
AcDbEntity
  8
AM_VIS
100
AcDbLine
 10
2174.047121320781
 20
1395.048298511681
 30
0.0
 11
2172.797121320781
 21
1395.048298511681
 31
0.0
  0
LINE
  5
4663
330
1F
100
AcDbEntity
  8
AM_VIS
100
AcDbLine
 10
2171.897121320781
 20
1395.048298511681
 30
0.0
 11
2170.647121320781
 21
1395.048298511681
 31
0.0
  0
LINE
  5
4664
330
1F
100
AcDbEntity
  8
AM_VIS
100
AcDbLine
 10
2161.047121320781
 20
1395.048298511681
 30
0.0
 11
2159.797121320781
 21
1395.048298511681
 31
0.0
  0
LINE
  5
4665
330
1F
100
AcDbEntity
  8
AM_VIS
100
AcDbLine
 10
2158.897121320781
 20
1395.048298511681
 30
0.0
 11
2157.647121320781
 21
1395.048298511681
 31
0.0
  0
LINE
  5
4666
330
1F
100
AcDbEntity
  8
AM_VIS
100
AcDbLine
 10
2107.847121320781
 20
1395.048298511681
 30
0.0
 11
2109.347121320781
 21
1395.048298511681
 31
0.0
  0
ARC
  5
4667
330
1F
100
AcDbEntity
  8
AM_VIS
100
AcDbCircle
 10
2144.847121320781
 20
1373.048298511681
 30
0.0
 40
5.5
100
AcDbArc
 50
56.94426884914591
 51
303.0557311508541
  0
ARC
  5
4668
330
1F
100
AcDbEntity
  8
AM_VIS
100
AcDbCircle
 10
2144.847121320781
 20
1351.04829851168
 30
0.0
 40
5.5
100
AcDbArc
 50
56.94426884914591
 51
303.0557311508541
  0
LINE
  5
4669
330
1F
100
AcDbEntity
  8
AM_VIS
100
AcDbLine
 10
2157.647121320781
 20
1336.54829851168
 30
0.0
 11
2158.897121320781
 21
1336.54829851168
 31
0.0
  0
LINE
  5
466A
330
1F
100
AcDbEntity
  8
AM_VIS
100
AcDbLine
 10
2159.797121320781
 20
1336.54829851168
 30
0.0
 11
2161.047121320781
 21
1336.54829851168
 31
0.0
  0
LINE
  5
466B
330
1F
100
AcDbEntity
  8
AM_VIS
100
AcDbLine
 10
2170.647121320781
 20
1336.54829851168
 30
0.0
 11
2171.897121320781
 21
1336.54829851168
 31
0.0
  0
LINE
  5
466C
330
1F
100
AcDbEntity
  8
AM_VIS
100
AcDbLine
 10
2172.797121320781
 20
1336.54829851168
 30
0.0
 11
2174.047121320781
 21
1336.54829851168
 31
0.0
  0
LINE
  5
466D
330
1F
100
AcDbEntity
  8
AM_VIS
100
AcDbLine
 10
2223.847121320781
 20
1336.54829851168
 30
0.0
 11
2222.347121320781
 21
1336.54829851168
 31
0.0
  0
LINE
  5
466E
330
1F
100
AcDbEntity
  8
AM_VIS
100
AcDbLine
 10
2109.347121320781
 20
1336.54829851168
 30
0.0
 11
2107.847121320781
 21
1336.54829851168
 31
0.0
  0
LINE
  5
466F
330
1F
100
AcDbEntity
  8
AM_VIS
100
AcDbLine
 10
2204.458020892446
 20
1472.804095240907
 30
0.0
 11
2202.987121320781
 21
1475.304095240907
 31
0.0
  0
LINE
  5
4670
330
1F
100
AcDbEntity
  8
AM_VIS
100
AcDbLine
 10
2204.458020892446
 20
1477.804095240907
 30
0.0
 11
2207.236221749116
 21
1477.804095240907
 31
0.0
  0
LINE
  5
4671
330
1F
100
AcDbEntity
  8
AM_VIS
100
AcDbLine
 10
2202.987121320781
 20
1475.304095240907
 30
0.0
 11
2204.458020892446
 21
1477.804095240907
 31
0.0
  0
LINE
  5
4672
330
1F
100
AcDbEntity
  8
AM_VIS
100
AcDbLine
 10
2207.236221749116
 20
1472.804095240907
 30
0.0
 11
2204.458020892446
 21
1472.804095240907
 31
0.0
  0
LINE
  5
4673
330
1F
100
AcDbEntity
  8
AM_VIS
100
AcDbLine
 10
2208.707121320781
 20
1475.304095240907
 30
0.0
 11
2207.236221749116
 21
1472.804095240907
 31
0.0
  0
LINE
  5
4674
330
1F
100
AcDbEntity
  8
AM_VIS
100
AcDbLine
 10
2207.236221749116
 20
1477.804095240907
 30
0.0
 11
2208.707121320781
 21
1475.304095240907
 31
0.0
  0
CIRCLE
  5
4675
330
1F
100
AcDbEntity
  8
AM_VIS
100
AcDbCircle
 10
2205.847121320781
 20
1475.304095240907
 30
0.0
 40
7.0
  0
LINE
  5
4676
330
1F
100
AcDbEntity
  8
AM_VIS
100
AcDbLine
 10
2124.458020892447
 20
1472.804095240907
 30
0.0
 11
2122.987121320781
 21
1475.304095240907
 31
0.0
  0
LINE
  5
4677
330
1F
100
AcDbEntity
  8
AM_VIS
100
AcDbLine
 10
2124.458020892447
 20
1477.804095240907
 30
0.0
 11
2127.236221749116
 21
1477.804095240907
 31
0.0
  0
LINE
  5
4678
330
1F
100
AcDbEntity
  8
AM_VIS
100
AcDbLine
 10
2122.987121320781
 20
1475.304095240907
 30
0.0
 11
2124.458020892447
 21
1477.804095240907
 31
0.0
  0
LINE
  5
4679
330
1F
100
AcDbEntity
  8
AM_VIS
100
AcDbLine
 10
2127.236221749116
 20
1472.804095240907
 30
0.0
 11
2124.458020892447
 21
1472.804095240907
 31
0.0
  0
LINE
  5
467A
330
1F
100
AcDbEntity
  8
AM_VIS
100
AcDbLine
 10
2128.707121320781
 20
1475.304095240907
 30
0.0
 11
2127.236221749116
 21
1472.804095240907
 31
0.0
  0
LINE
  5
467B
330
1F
100
AcDbEntity
  8
AM_VIS
100
AcDbLine
 10
2127.236221749116
 20
1477.804095240907
 30
0.0
 11
2128.707121320781
 21
1475.304095240907
 31
0.0
  0
CIRCLE
  5
467C
330
1F
100
AcDbEntity
  8
AM_VIS
100
AcDbCircle
 10
2125.847121320781
 20
1475.304095240907
 30
0.0
 40
7.0
  0
LINE
  5
467D
330
1F
100
AcDbEntity
  8
AM_VIS
100
AcDbLine
 10
2164.458020892446
 20
1472.804095240907
 30
0.0
 11
2162.987121320781
 21
1475.304095240907
 31
0.0
  0
LINE
  5
467E
330
1F
100
AcDbEntity
  8
AM_VIS
100
AcDbLine
 10
2164.458020892446
 20
1477.804095240907
 30
0.0
 11
2167.236221749116
 21
1477.804095240907
 31
0.0
  0
LINE
  5
467F
330
1F
100
AcDbEntity
  8
AM_VIS
100
AcDbLine
 10
2162.987121320781
 20
1475.304095240907
 30
0.0
 11
2164.458020892446
 21
1477.804095240907
 31
0.0
  0
LINE
  5
4680
330
1F
100
AcDbEntity
  8
AM_VIS
100
AcDbLine
 10
2167.236221749116
 20
1472.804095240907
 30
0.0
 11
2164.458020892446
 21
1472.804095240907
 31
0.0
  0
LINE
  5
4681
330
1F
100
AcDbEntity
  8
AM_VIS
100
AcDbLine
 10
2168.707121320781
 20
1475.304095240907
 30
0.0
 11
2167.236221749116
 21
1472.804095240907
 31
0.0
  0
LINE
  5
4682
330
1F
100
AcDbEntity
  8
AM_VIS
100
AcDbLine
 10
2167.236221749116
 20
1477.804095240907
 30
0.0
 11
2168.707121320781
 21
1475.304095240907
 31
0.0
  0
CIRCLE
  5
4683
330
1F
100
AcDbEntity
  8
AM_VIS
100
AcDbCircle
 10
2165.847121320781
 20
1475.304095240907
 30
0.0
 40
7.0
  0
LINE
  5
4684
330
1F
100
AcDbEntity
  8
AM_VIS
100
AcDbLine
 10
2220.847121320781
 20
1499.304095240908
 30
0.0
 11
2110.847121320781
 21
1499.304095240908
 31
0.0
  0
LINE
  5
4685
330
1F
100
AcDbEntity
  8
AM_VIS
100
AcDbLine
 10
2109.847121320781
 20
1498.304095240907
 30
0.0
 11
2109.847121320781
 21
1452.304095240907
 31
0.0
  0
LINE
  5
4686
330
1F
100
AcDbEntity
  8
AM_VIS
100
AcDbLine
 10
2110.847121320781
 20
1451.304095240907
 30
0.0
 11
2220.847121320781
 21
1451.304095240907
 31
0.0
  0
LINE
  5
4687
330
1F
100
AcDbEntity
  8
AM_VIS
100
AcDbLine
 10
2220.847121320781
 20
1451.304095240907
 30
0.0
 11
2221.347121320781
 21
1451.804095240907
 31
0.0
  0
LINE
  5
4688
330
1F
100
AcDbEntity
  8
AM_VIS
100
AcDbLine
 10
2221.347121320781
 20
1451.804095240907
 30
0.0
 11
2221.847121320781
 21
1452.304095240907
 31
0.0
  0
LINE
  5
4689
330
1F
100
AcDbEntity
  8
AM_VIS
100
AcDbLine
 10
2221.847121320781
 20
1498.304095240907
 30
0.0
 11
2221.347121320781
 21
1498.804095240908
 31
0.0
  0
LINE
  5
468A
330
1F
100
AcDbEntity
  8
AM_VIS
100
AcDbLine
 10
2221.347121320781
 20
1498.804095240907
 30
0.0
 11
2220.847121320781
 21
1499.304095240908
 31
0.0
  0
LINE
  5
468B
330
1F
100
AcDbEntity
  8
AM_VIS
100
AcDbLine
 10
2221.847121320781
 20
1452.304095240907
 30
0.0
 11
2221.847121320781
 21
1498.304095240907
 31
0.0
  0
LINE
  5
468C
330
1F
100
AcDbEntity
  8
AM_VIS
100
AcDbLine
 10
2109.847121320781
 20
1452.304095240907
 30
0.0
 11
2110.347121320781
 21
1451.804095240907
 31
0.0
  0
LINE
  5
468D
330
1F
100
AcDbEntity
  8
AM_VIS
100
AcDbLine
 10
2110.347121320781
 20
1451.804095240907
 30
0.0
 11
2110.847121320781
 21
1451.304095240907
 31
0.0
  0
LINE
  5
468E
330
1F
100
AcDbEntity
  8
AM_VIS
100
AcDbLine
 10
2110.847121320781
 20
1499.304095240908
 30
0.0
 11
2110.347121320781
 21
1498.804095240907
 31
0.0
  0
LINE
  5
468F
330
1F
100
AcDbEntity
  8
AM_VIS
100
AcDbLine
 10
2110.347121320781
 20
1498.804095240907
 30
0.0
 11
2109.847121320781
 21
1498.304095240907
 31
0.0
  0
LINE
  5
4690
330
1F
100
AcDbEntity
  8
AM_VIS
100
AcDbLine
 10
2109.347121320781
 20
1469.804095240907
 30
0.0
 11
2107.847121320781
 21
1468.304095240907
 31
0.0
  0
LINE
  5
4691
330
1F
100
AcDbEntity
  8
AM_VIS
100
AcDbLine
 10
2109.347121320781
 20
1484.804095240908
 30
0.0
 11
2109.347121320781
 21
1469.804095240907
 31
0.0
  0
LINE
  5
4692
330
1F
100
AcDbEntity
  8
AM_VIS
100
AcDbLine
 10
2107.847121320781
 20
1486.304095240907
 30
0.0
 11
2109.347121320781
 21
1484.804095240908
 31
0.0
  0
LINE
  5
4693
330
1F
100
AcDbEntity
  8
AM_VIS
100
AcDbLine
 10
2107.847121320781
 20
1499.804095240907
 30
0.0
 11
2107.847121320781
 21
1486.304095240907
 31
0.0
  0
LINE
  5
4694
330
1F
100
AcDbEntity
  8
AM_VIS
100
AcDbLine
 10
2121.047121320781
 20
1501.304095240907
 30
0.0
 11
2109.347121320781
 21
1501.304095240907
 31
0.0
  0
LINE
  5
4695
330
1F
100
AcDbEntity
  8
AM_VIS
100
AcDbLine
 10
2121.847121320781
 20
1500.504095240908
 30
0.0
 11
2121.047121320781
 21
1501.304095240907
 31
0.0
  0
LINE
  5
4696
330
1F
100
AcDbEntity
  8
AM_VIS
100
AcDbLine
 10
2129.647121320781
 20
1500.504095240908
 30
0.0
 11
2121.847121320781
 21
1500.504095240908
 31
0.0
  0
LINE
  5
4697
330
1F
100
AcDbEntity
  8
AM_VIS
100
AcDbLine
 10
2130.847121320781
 20
1499.304095240908
 30
0.0
 11
2129.647121320781
 21
1500.504095240908
 31
0.0
  0
LINE
  5
4698
330
1F
100
AcDbEntity
  8
AM_VIS
100
AcDbLine
 10
2138.847121320781
 20
1501.304095240907
 30
0.0
 11
2136.847121320781
 21
1499.304095240908
 31
0.0
  0
LINE
  5
4699
330
1F
100
AcDbEntity
  8
AM_VIS
100
AcDbLine
 10
2150.847121320781
 20
1501.304095240907
 30
0.0
 11
2138.847121320781
 21
1501.304095240907
 31
0.0
  0
LINE
  5
469A
330
1F
100
AcDbEntity
  8
AM_VIS
100
AcDbLine
 10
2152.847121320781
 20
1499.304095240908
 30
0.0
 11
2150.847121320781
 21
1501.304095240907
 31
0.0
  0
LINE
  5
469B
330
1F
100
AcDbEntity
  8
AM_VIS
100
AcDbLine
 10
2180.847121320781
 20
1501.304095240907
 30
0.0
 11
2178.847121320781
 21
1499.304095240908
 31
0.0
  0
LINE
  5
469C
330
1F
100
AcDbEntity
  8
AM_VIS
100
AcDbLine
 10
2192.847121320781
 20
1501.304095240907
 30
0.0
 11
2180.847121320781
 21
1501.304095240907
 31
0.0
  0
LINE
  5
469D
330
1F
100
AcDbEntity
  8
AM_VIS
100
AcDbLine
 10
2194.847121320781
 20
1499.304095240908
 30
0.0
 11
2192.847121320781
 21
1501.304095240907
 31
0.0
  0
LINE
  5
469E
330
1F
100
AcDbEntity
  8
AM_VIS
100
AcDbLine
 10
2202.047121320781
 20
1500.504095240908
 30
0.0
 11
2200.847121320781
 21
1499.304095240908
 31
0.0
  0
LINE
  5
469F
330
1F
100
AcDbEntity
  8
AM_VIS
100
AcDbLine
 10
2209.847121320781
 20
1500.504095240908
 30
0.0
 11
2202.047121320781
 21
1500.504095240908
 31
0.0
  0
LINE
  5
46A0
330
1F
100
AcDbEntity
  8
AM_VIS
100
AcDbLine
 10
2210.647121320781
 20
1501.304095240907
 30
0.0
 11
2209.847121320781
 21
1500.504095240908
 31
0.0
  0
LINE
  5
46A1
330
1F
100
AcDbEntity
  8
AM_VIS
100
AcDbLine
 10
2222.347121320781
 20
1501.304095240907
 30
0.0
 11
2210.647121320781
 21
1501.304095240907
 31
0.0
  0
LINE
  5
46A2
330
1F
100
AcDbEntity
  8
AM_VIS
100
AcDbLine
 10
2223.847121320781
 20
1486.304095240907
 30
0.0
 11
2223.847121320781
 21
1499.804095240907
 31
0.0
  0
LINE
  5
46A3
330
1F
100
AcDbEntity
  8
AM_VIS
100
AcDbLine
 10
2222.347121320781
 20
1484.804095240908
 30
0.0
 11
2223.847121320781
 21
1486.304095240907
 31
0.0
  0
LINE
  5
46A4
330
1F
100
AcDbEntity
  8
AM_VIS
100
AcDbLine
 10
2222.347121320781
 20
1469.804095240907
 30
0.0
 11
2222.347121320781
 21
1484.804095240907
 31
0.0
  0
LINE
  5
46A5
330
1F
100
AcDbEntity
  8
AM_VIS
100
AcDbLine
 10
2223.847121320781
 20
1468.304095240907
 30
0.0
 11
2222.347121320781
 21
1469.804095240907
 31
0.0
  0
LINE
  5
46A6
330
1F
100
AcDbEntity
  8
AM_VIS
100
AcDbLine
 10
2223.847121320781
 20
1451.804095240907
 30
0.0
 11
2223.847121320781
 21
1468.304095240907
 31
0.0
  0
LINE
  5
46A7
330
1F
100
AcDbEntity
  8
AM_VIS
100
AcDbLine
 10
2183.847121320781
 20
1450.304095240907
 30
0.0
 11
2222.347121320781
 21
1450.304095240907
 31
0.0
  0
LINE
  5
46A8
330
1F
100
AcDbEntity
  8
AM_VIS
100
AcDbLine
 10
2183.047121320781
 20
1451.104095240908
 30
0.0
 11
2183.847121320781
 21
1450.304095240908
 31
0.0
  0
LINE
  5
46A9
330
1F
100
AcDbEntity
  8
AM_VIS
100
AcDbLine
 10
2174.047121320781
 20
1451.104095240907
 30
0.0
 11
2183.047121320781
 21
1451.104095240908
 31
0.0
  0
LINE
  5
46AA
330
1F
100
AcDbEntity
  8
AM_VIS
100
AcDbLine
 10
2174.047121320781
 20
1451.304095240907
 30
0.0
 11
2174.047121320781
 21
1451.104095240907
 31
0.0
  0
LINE
  5
46AB
330
1F
100
AcDbEntity
  8
AM_VIS
100
AcDbLine
 10
2170.647121320781
 20
1451.104095240907
 30
0.0
 11
2170.647121320781
 21
1451.304095240907
 31
0.0
  0
LINE
  5
46AC
330
1F
100
AcDbEntity
  8
AM_VIS
100
AcDbLine
 10
2161.047121320781
 20
1451.104095240907
 30
0.0
 11
2170.647121320781
 21
1451.104095240907
 31
0.0
  0
LINE
  5
46AD
330
1F
100
AcDbEntity
  8
AM_VIS
100
AcDbLine
 10
2161.047121320781
 20
1451.304095240907
 30
0.0
 11
2161.047121320781
 21
1451.104095240907
 31
0.0
  0
LINE
  5
46AE
330
1F
100
AcDbEntity
  8
AM_VIS
100
AcDbLine
 10
2157.647121320781
 20
1451.104095240907
 30
0.0
 11
2157.647121320781
 21
1451.304095240907
 31
0.0
  0
LINE
  5
46AF
330
1F
100
AcDbEntity
  8
AM_VIS
100
AcDbLine
 10
2148.647121320781
 20
1451.104095240907
 30
0.0
 11
2157.647121320781
 21
1451.104095240907
 31
0.0
  0
LINE
  5
46B0
330
1F
100
AcDbEntity
  8
AM_VIS
100
AcDbLine
 10
2147.847121320781
 20
1450.304095240907
 30
0.0
 11
2148.647121320781
 21
1451.104095240907
 31
0.0
  0
LINE
  5
46B1
330
1F
100
AcDbEntity
  8
AM_VIS
100
AcDbLine
 10
2109.347121320781
 20
1450.304095240907
 30
0.0
 11
2147.847121320781
 21
1450.304095240907
 31
0.0
  0
LINE
  5
46B2
330
1F
100
AcDbEntity
  8
AM_VIS
100
AcDbLine
 10
2107.847121320781
 20
1468.304095240907
 30
0.0
 11
2107.847121320781
 21
1451.804095240907
 31
0.0
  0
ARC
  5
46B3
330
1F
100
AcDbEntity
  8
AM_VIS
100
AcDbCircle
 10
2109.347121320781
 20
1499.804095240907
 30
0.0
 40
1.5
100
AcDbArc
 50
90.0
 51
180.0
  0
ARC
  5
46B4
330
1F
100
AcDbEntity
  8
AM_VIS
100
AcDbCircle
 10
2222.347121320781
 20
1499.804095240907
 30
0.0
 40
1.5
100
AcDbArc
 50
0.0
 51
90.0
  0
ARC
  5
46B5
330
1F
100
AcDbEntity
  8
AM_VIS
100
AcDbCircle
 10
2222.347121320781
 20
1451.804095240907
 30
0.0
 40
1.5
100
AcDbArc
 50
270.0
 51
0.0
  0
ARC
  5
46B6
330
1F
100
AcDbEntity
  8
AM_VIS
100
AcDbCircle
 10
2109.347121320781
 20
1451.804095240907
 30
0.0
 40
1.5
100
AcDbArc
 50
180.0
 51
270.0
  0
LINE
  5
46B7
330
1F
100
AcDbEntity
  8
AM_VIS
100
AcDbLine
 10
2174.047121320781
 20
1280.313698163458
 30
0.0
 11
2170.647121320781
 21
1280.313698163458
 31
0.0
  0
LINE
  5
46B8
330
1F
100
AcDbEntity
  8
AM_VIS
100
AcDbLine
 10
2161.047121320781
 20
1280.313698163458
 30
0.0
 11
2157.647121320781
 21
1280.313698163458
 31
0.0
  0
LINE
  5
46B9
330
1F
100
AcDbEntity
  8
AM_VIS
100
AcDbLine
 10
2130.847121320781
 20
1232.313698163458
 30
0.0
 11
2136.847121320781
 21
1232.313698163458
 31
0.0
  0
LINE
  5
46BA
330
1F
100
AcDbEntity
  8
AM_VIS
100
AcDbLine
 10
2152.847121320781
 20
1232.313698163458
 30
0.0
 11
2178.847121320781
 21
1232.313698163458
 31
0.0
  0
LINE
  5
46BB
330
1F
100
AcDbEntity
  8
AM_VIS
100
AcDbLine
 10
2194.847121320781
 20
1232.313698163458
 30
0.0
 11
2200.847121320781
 21
1232.313698163458
 31
0.0
  0
LINE
  5
46BC
330
1F
100
AcDbEntity
  8
AM_VIS
100
AcDbLine
 10
2109.347121320781
 20
1281.313698163458
 30
0.0
 11
2147.847121320781
 21
1281.313698163458
 31
0.0
  0
LINE
  5
46BD
330
1F
100
AcDbEntity
  8
AM_VIS
100
AcDbLine
 10
2148.647121320781
 20
1280.513698163458
 30
0.0
 11
2147.847121320781
 21
1281.313698163458
 31
0.0
  0
LINE
  5
46BE
330
1F
100
AcDbEntity
  8
AM_VIS
100
AcDbLine
 10
2157.647121320781
 20
1280.513698163457
 30
0.0
 11
2148.647121320781
 21
1280.513698163458
 31
0.0
  0
LINE
  5
46BF
330
1F
100
AcDbEntity
  8
AM_VIS
100
AcDbLine
 10
2157.647121320781
 20
1280.013698163458
 30
0.0
 11
2157.647121320781
 21
1280.513698163457
 31
0.0
  0
LINE
  5
46C0
330
1F
100
AcDbEntity
  8
AM_VIS
100
AcDbLine
 10
2157.197121320781
 20
1279.513698163458
 30
0.0
 11
2157.647121320781
 21
1280.013698163458
 31
0.0
  0
LINE
  5
46C1
330
1F
100
AcDbEntity
  8
AM_VIS
100
AcDbLine
 10
2157.197121320781
 20
1277.413698163458
 30
0.0
 11
2157.197121320781
 21
1279.513698163458
 31
0.0
  0
LINE
  5
46C2
330
1F
100
AcDbEntity
  8
AM_VIS
100
AcDbLine
 10
2159.797121320781
 20
1275.713698163457
 30
0.0
 11
2158.897121320781
 21
1275.713698163457
 31
0.0
  0
LINE
  5
46C3
330
1F
100
AcDbEntity
  8
AM_VIS
100
AcDbLine
 10
2161.497121320781
 20
1279.513698163458
 30
0.0
 11
2161.497121320781
 21
1277.413698163458
 31
0.0
  0
LINE
  5
46C4
330
1F
100
AcDbEntity
  8
AM_VIS
100
AcDbLine
 10
2161.04712132078
 20
1280.013698163458
 30
0.0
 11
2161.497121320781
 21
1279.513698163458
 31
0.0
  0
LINE
  5
46C5
330
1F
100
AcDbEntity
  8
AM_VIS
100
AcDbLine
 10
2161.047121320781
 20
1280.513698163457
 30
0.0
 11
2161.047121320781
 21
1280.013698163458
 31
0.0
  0
LINE
  5
46C6
330
1F
100
AcDbEntity
  8
AM_VIS
100
AcDbLine
 10
2170.647121320781
 20
1280.513698163457
 30
0.0
 11
2161.047121320781
 21
1280.513698163457
 31
0.0
  0
LINE
  5
46C7
330
1F
100
AcDbEntity
  8
AM_VIS
100
AcDbLine
 10
2170.647121320781
 20
1280.013698163458
 30
0.0
 11
2170.647121320781
 21
1280.513698163457
 31
0.0
  0
LINE
  5
46C8
330
1F
100
AcDbEntity
  8
AM_VIS
100
AcDbLine
 10
2170.197121320781
 20
1279.513698163458
 30
0.0
 11
2170.647121320781
 21
1280.013698163458
 31
0.0
  0
LINE
  5
46C9
330
1F
100
AcDbEntity
  8
AM_VIS
100
AcDbLine
 10
2170.197121320781
 20
1277.413698163458
 30
0.0
 11
2170.197121320781
 21
1279.513698163458
 31
0.0
  0
LINE
  5
46CA
330
1F
100
AcDbEntity
  8
AM_VIS
100
AcDbLine
 10
2172.797121320781
 20
1275.713698163458
 30
0.0
 11
2171.897121320781
 21
1275.713698163458
 31
0.0
  0
LINE
  5
46CB
330
1F
100
AcDbEntity
  8
AM_VIS
100
AcDbLine
 10
2174.497121320781
 20
1279.513698163458
 30
0.0
 11
2174.497121320781
 21
1277.413698163458
 31
0.0
  0
LINE
  5
46CC
330
1F
100
AcDbEntity
  8
AM_VIS
100
AcDbLine
 10
2174.047121320781
 20
1280.013698163458
 30
0.0
 11
2174.497121320781
 21
1279.513698163458
 31
0.0
  0
LINE
  5
46CD
330
1F
100
AcDbEntity
  8
AM_VIS
100
AcDbLine
 10
2174.047121320781
 20
1280.513698163457
 30
0.0
 11
2174.047121320781
 21
1280.013698163458
 31
0.0
  0
LINE
  5
46CE
330
1F
100
AcDbEntity
  8
AM_VIS
100
AcDbLine
 10
2183.047121320781
 20
1280.513698163457
 30
0.0
 11
2174.047121320781
 21
1280.513698163457
 31
0.0
  0
LINE
  5
46CF
330
1F
100
AcDbEntity
  8
AM_VIS
100
AcDbLine
 10
2183.847121320781
 20
1281.313698163458
 30
0.0
 11
2183.047121320781
 21
1280.513698163457
 31
0.0
  0
LINE
  5
46D0
330
1F
100
AcDbEntity
  8
AM_VIS
100
AcDbLine
 10
2183.847121320781
 20
1281.313698163458
 30
0.0
 11
2222.347121320781
 21
1281.313698163458
 31
0.0
  0
LINE
  5
46D1
330
1F
100
AcDbEntity
  8
AM_VIS
100
AcDbLine
 10
2223.847121320781
 20
1279.813698163458
 30
0.0
 11
2223.847121320781
 21
1263.313698163458
 31
0.0
  0
LINE
  5
46D2
330
1F
100
AcDbEntity
  8
AM_VIS
100
AcDbLine
 10
2222.347121320781
 20
1261.813698163458
 30
0.0
 11
2223.847121320781
 21
1263.313698163458
 31
0.0
  0
LINE
  5
46D3
330
1F
100
AcDbEntity
  8
AM_VIS
100
AcDbLine
 10
2222.347121320781
 20
1246.813698163458
 30
0.0
 11
2222.347121320781
 21
1261.813698163458
 31
0.0
  0
LINE
  5
46D4
330
1F
100
AcDbEntity
  8
AM_VIS
100
AcDbLine
 10
2223.847121320781
 20
1245.313698163458
 30
0.0
 11
2222.347121320781
 21
1246.813698163458
 31
0.0
  0
LINE
  5
46D5
330
1F
100
AcDbEntity
  8
AM_VIS
100
AcDbLine
 10
2223.847121320781
 20
1245.313698163458
 30
0.0
 11
2223.847121320781
 21
1231.813698163458
 31
0.0
  0
LINE
  5
46D6
330
1F
100
AcDbEntity
  8
AM_VIS
100
AcDbLine
 10
2222.347121320781
 20
1230.313698163458
 30
0.0
 11
2210.647121320781
 21
1230.313698163458
 31
0.0
  0
LINE
  5
46D7
330
1F
100
AcDbEntity
  8
AM_VIS
100
AcDbLine
 10
2209.847121320781
 20
1231.113698163458
 30
0.0
 11
2210.647121320781
 21
1230.313698163458
 31
0.0
  0
LINE
  5
46D8
330
1F
100
AcDbEntity
  8
AM_VIS
100
AcDbLine
 10
2202.047121320781
 20
1231.113698163458
 30
0.0
 11
2209.847121320781
 21
1231.113698163458
 31
0.0
  0
LINE
  5
46D9
330
1F
100
AcDbEntity
  8
AM_VIS
100
AcDbLine
 10
2197.847121320781
 20
1235.313698163458
 30
0.0
 11
2202.047121320781
 21
1231.113698163458
 31
0.0
  0
LINE
  5
46DA
330
1F
100
AcDbEntity
  8
AM_VIS
100
AcDbLine
 10
2192.847121320781
 20
1230.313698163458
 30
0.0
 11
2197.847121320781
 21
1235.313698163458
 31
0.0
  0
LINE
  5
46DB
330
1F
100
AcDbEntity
  8
AM_VIS
100
AcDbLine
 10
2192.847121320781
 20
1230.313698163458
 30
0.0
 11
2180.847121320781
 21
1230.313698163458
 31
0.0
  0
LINE
  5
46DC
330
1F
100
AcDbEntity
  8
AM_VIS
100
AcDbLine
 10
2177.747121320781
 20
1233.413698163458
 30
0.0
 11
2180.847121320781
 21
1230.313698163458
 31
0.0
  0
LINE
  5
46DD
330
1F
100
AcDbEntity
  8
AM_VIS
100
AcDbLine
 10
2174.047121320781
 20
1233.413698163458
 30
0.0
 11
2177.747121320781
 21
1233.413698163458
 31
0.0
  0
LINE
  5
46DE
330
1F
100
AcDbEntity
  8
AM_VIS
100
AcDbLine
 10
2174.047121320781
 20
1233.913698163458
 30
0.0
 11
2174.047121320781
 21
1233.413698163458
 31
0.0
  0
LINE
  5
46DF
330
1F
100
AcDbEntity
  8
AM_VIS
100
AcDbLine
 10
2174.497121320781
 20
1234.413698163458
 30
0.0
 11
2174.047121320781
 21
1233.913698163458
 31
0.0
  0
LINE
  5
46E0
330
1F
100
AcDbEntity
  8
AM_VIS
100
AcDbLine
 10
2174.497121320781
 20
1236.513698163458
 30
0.0
 11
2174.497121320781
 21
1234.413698163458
 31
0.0
  0
LINE
  5
46E1
330
1F
100
AcDbEntity
  8
AM_VIS
100
AcDbLine
 10
2171.897121320781
 20
1238.213698163458
 30
0.0
 11
2172.797121320781
 21
1238.213698163458
 31
0.0
  0
LINE
  5
46E2
330
1F
100
AcDbEntity
  8
AM_VIS
100
AcDbLine
 10
2170.197121320781
 20
1234.413698163458
 30
0.0
 11
2170.197121320781
 21
1236.513698163458
 31
0.0
  0
LINE
  5
46E3
330
1F
100
AcDbEntity
  8
AM_VIS
100
AcDbLine
 10
2170.647121320781
 20
1233.913698163458
 30
0.0
 11
2170.197121320781
 21
1234.413698163458
 31
0.0
  0
LINE
  5
46E4
330
1F
100
AcDbEntity
  8
AM_VIS
100
AcDbLine
 10
2170.647121320781
 20
1233.413698163458
 30
0.0
 11
2170.647121320781
 21
1233.913698163458
 31
0.0
  0
LINE
  5
46E5
330
1F
100
AcDbEntity
  8
AM_VIS
100
AcDbLine
 10
2161.047121320781
 20
1233.413698163458
 30
0.0
 11
2170.647121320781
 21
1233.413698163458
 31
0.0
  0
LINE
  5
46E6
330
1F
100
AcDbEntity
  8
AM_VIS
100
AcDbLine
 10
2161.047121320781
 20
1233.913698163458
 30
0.0
 11
2161.047121320781
 21
1233.413698163458
 31
0.0
  0
LINE
  5
46E7
330
1F
100
AcDbEntity
  8
AM_VIS
100
AcDbLine
 10
2161.497121320781
 20
1234.413698163458
 30
0.0
 11
2161.047121320781
 21
1233.913698163458
 31
0.0
  0
LINE
  5
46E8
330
1F
100
AcDbEntity
  8
AM_VIS
100
AcDbLine
 10
2161.497121320781
 20
1236.513698163458
 30
0.0
 11
2161.497121320781
 21
1234.413698163458
 31
0.0
  0
LINE
  5
46E9
330
1F
100
AcDbEntity
  8
AM_VIS
100
AcDbLine
 10
2158.897121320781
 20
1238.213698163458
 30
0.0
 11
2159.797121320781
 21
1238.213698163458
 31
0.0
  0
LINE
  5
46EA
330
1F
100
AcDbEntity
  8
AM_VIS
100
AcDbLine
 10
2157.197121320781
 20
1234.413698163458
 30
0.0
 11
2157.197121320781
 21
1236.513698163458
 31
0.0
  0
LINE
  5
46EB
330
1F
100
AcDbEntity
  8
AM_VIS
100
AcDbLine
 10
2157.647121320781
 20
1233.913698163458
 30
0.0
 11
2157.197121320781
 21
1234.413698163458
 31
0.0
  0
LINE
  5
46EC
330
1F
100
AcDbEntity
  8
AM_VIS
100
AcDbLine
 10
2157.647121320781
 20
1233.413698163458
 30
0.0
 11
2157.647121320781
 21
1233.913698163458
 31
0.0
  0
LINE
  5
46ED
330
1F
100
AcDbEntity
  8
AM_VIS
100
AcDbLine
 10
2153.947121320781
 20
1233.413698163458
 30
0.0
 11
2157.647121320781
 21
1233.413698163458
 31
0.0
  0
LINE
  5
46EE
330
1F
100
AcDbEntity
  8
AM_VIS
100
AcDbLine
 10
2150.847121320781
 20
1230.313698163458
 30
0.0
 11
2153.947121320781
 21
1233.413698163458
 31
0.0
  0
LINE
  5
46EF
330
1F
100
AcDbEntity
  8
AM_VIS
100
AcDbLine
 10
2150.847121320781
 20
1230.313698163458
 30
0.0
 11
2138.847121320781
 21
1230.313698163458
 31
0.0
  0
LINE
  5
46F0
330
1F
100
AcDbEntity
  8
AM_VIS
100
AcDbLine
 10
2133.847121320781
 20
1235.313698163458
 30
0.0
 11
2138.847121320781
 21
1230.313698163458
 31
0.0
  0
LINE
  5
46F1
330
1F
100
AcDbEntity
  8
AM_VIS
100
AcDbLine
 10
2129.647121320781
 20
1231.113698163458
 30
0.0
 11
2133.847121320781
 21
1235.313698163458
 31
0.0
  0
LINE
  5
46F2
330
1F
100
AcDbEntity
  8
AM_VIS
100
AcDbLine
 10
2121.847121320781
 20
1231.113698163458
 30
0.0
 11
2129.647121320781
 21
1231.113698163458
 31
0.0
  0
LINE
  5
46F3
330
1F
100
AcDbEntity
  8
AM_VIS
100
AcDbLine
 10
2121.047121320781
 20
1230.313698163458
 30
0.0
 11
2121.847121320781
 21
1231.113698163458
 31
0.0
  0
LINE
  5
46F4
330
1F
100
AcDbEntity
  8
AM_VIS
100
AcDbLine
 10
2121.047121320781
 20
1230.313698163458
 30
0.0
 11
2109.347121320781
 21
1230.313698163458
 31
0.0
  0
LINE
  5
46F5
330
1F
100
AcDbEntity
  8
AM_VIS
100
AcDbLine
 10
2107.847121320781
 20
1231.813698163458
 30
0.0
 11
2107.847121320781
 21
1245.313698163458
 31
0.0
  0
LINE
  5
46F6
330
1F
100
AcDbEntity
  8
AM_VIS
100
AcDbLine
 10
2109.347121320781
 20
1246.813698163458
 30
0.0
 11
2107.847121320781
 21
1245.313698163458
 31
0.0
  0
LINE
  5
46F7
330
1F
100
AcDbEntity
  8
AM_VIS
100
AcDbLine
 10
2109.347121320781
 20
1261.813698163458
 30
0.0
 11
2109.347121320781
 21
1246.813698163458
 31
0.0
  0
LINE
  5
46F8
330
1F
100
AcDbEntity
  8
AM_VIS
100
AcDbLine
 10
2107.847121320781
 20
1263.313698163458
 30
0.0
 11
2109.347121320781
 21
1261.813698163458
 31
0.0
  0
LINE
  5
46F9
330
1F
100
AcDbEntity
  8
AM_VIS
100
AcDbLine
 10
2107.847121320781
 20
1263.313698163458
 30
0.0
 11
2107.847121320781
 21
1279.813698163458
 31
0.0
  0
ARC
  5
46FA
330
1F
100
AcDbEntity
  8
AM_VIS
100
AcDbCircle
 10
2158.897121320781
 20
1277.413698163458
 30
0.0
 40
1.699999999999999
100
AcDbArc
 50
180.0
 51
270.0
  0
ARC
  5
46FB
330
1F
100
AcDbEntity
  8
AM_VIS
100
AcDbCircle
 10
2159.797121320781
 20
1277.413698163458
 30
0.0
 40
1.7
100
AcDbArc
 50
270.0
 51
0.0
  0
ARC
  5
46FC
330
1F
100
AcDbEntity
  8
AM_VIS
100
AcDbCircle
 10
2171.897121320781
 20
1277.413698163458
 30
0.0
 40
1.699999999999999
100
AcDbArc
 50
180.0
 51
270.0
  0
ARC
  5
46FD
330
1F
100
AcDbEntity
  8
AM_VIS
100
AcDbCircle
 10
2172.797121320781
 20
1277.413698163458
 30
0.0
 40
1.699999999999999
100
AcDbArc
 50
270.0
 51
0.0
  0
ARC
  5
46FE
330
1F
100
AcDbEntity
  8
AM_VIS
100
AcDbCircle
 10
2222.347121320781
 20
1279.813698163458
 30
0.0
 40
1.5
100
AcDbArc
 50
0.0
 51
90.0
  0
ARC
  5
46FF
330
1F
100
AcDbEntity
  8
AM_VIS
100
AcDbCircle
 10
2222.347121320781
 20
1231.813698163458
 30
0.0
 40
1.5
100
AcDbArc
 50
270.0
 51
0.0
  0
ARC
  5
4700
330
1F
100
AcDbEntity
  8
AM_VIS
100
AcDbCircle
 10
2172.797121320781
 20
1236.513698163458
 30
0.0
 40
1.7
100
AcDbArc
 50
0.0
 51
90.0
  0
ARC
  5
4701
330
1F
100
AcDbEntity
  8
AM_VIS
100
AcDbCircle
 10
2171.897121320781
 20
1236.513698163458
 30
0.0
 40
1.7
100
AcDbArc
 50
90.0
 51
180.0
  0
ARC
  5
4702
330
1F
100
AcDbEntity
  8
AM_VIS
100
AcDbCircle
 10
2159.797121320781
 20
1236.513698163458
 30
0.0
 40
1.7
100
AcDbArc
 50
0.0
 51
90.0
  0
ARC
  5
4703
330
1F
100
AcDbEntity
  8
AM_VIS
100
AcDbCircle
 10
2158.897121320781
 20
1236.513698163458
 30
0.0
 40
1.7
100
AcDbArc
 50
90.0
 51
180.0
  0
ARC
  5
4704
330
1F
100
AcDbEntity
  8
AM_VIS
100
AcDbCircle
 10
2109.347121320781
 20
1231.813698163458
 30
0.0
 40
1.5
100
AcDbArc
 50
180.0
 51
270.0
  0
ARC
  5
4705
330
1F
100
AcDbEntity
  8
AM_VIS
100
AcDbCircle
 10
2109.347121320781
 20
1279.813698163458
 30
0.0
 40
1.5
100
AcDbArc
 50
90.0
 51
180.0
  0
LINE
  5
4706
330
1F
100
AcDbEntity
  8
AM_VIS
100
AcDbLine
 10
2063.4434665315
 20
1409.048298511681
 30
0.0
 11
2063.943466531499
 21
1408.548298511681
 31
0.0
  0
LINE
  5
4707
330
1F
100
AcDbEntity
  8
AM_VIS
100
AcDbLine
 10
2063.943466531499
 20
1397.54829851168
 30
0.0
 11
2063.943466531499
 21
1408.548298511681
 31
0.0
  0
LINE
  5
4708
330
1F
100
AcDbEntity
  8
AM_VIS
100
AcDbLine
 10
2063.943466531499
 20
1397.54829851168
 30
0.0
 11
2063.4434665315
 21
1397.048298511681
 31
0.0
  0
LINE
  5
4709
330
1F
100
AcDbEntity
  8
AM_VIS
100
AcDbLine
 10
2016.443466531499
 20
1397.048298511681
 30
0.0
 11
2015.943466531499
 21
1397.54829851168
 31
0.0
  0
LINE
  5
470A
330
1F
100
AcDbEntity
  8
AM_VIS
100
AcDbLine
 10
2015.943466531499
 20
1408.548298511681
 30
0.0
 11
2015.943466531499
 21
1397.54829851168
 31
0.0
  0
LINE
  5
470B
330
1F
100
AcDbEntity
  8
AM_VIS
100
AcDbLine
 10
2015.943466531499
 20
1408.548298511681
 30
0.0
 11
2016.443466531499
 21
1409.048298511681
 31
0.0
  0
LINE
  5
470C
330
1F
100
AcDbEntity
  8
AM_VIS
100
AcDbLine
 10
2063.4434665315
 20
1409.048298511681
 30
0.0
 11
2016.443466531499
 21
1409.048298511681
 31
0.0
  0
LINE
  5
470D
330
1F
100
AcDbEntity
  8
AM_VIS
100
AcDbLine
 10
2016.443466531499
 20
1397.048298511681
 30
0.0
 11
2063.4434665315
 21
1397.048298511681
 31
0.0
  0
LINE
  5
470E
330
1F
100
AcDbEntity
  8
AM_VIS
100
AcDbLine
 10
2047.943466531499
 20
1329.548298511681
 30
0.0
 11
2047.943466531499
 21
1336.54829851168
 31
0.0
  0
LINE
  5
470F
330
1F
100
AcDbEntity
  8
AM_VIS
100
AcDbLine
 10
2047.943466531499
 20
1395.048298511681
 30
0.0
 11
2047.943466531499
 21
1397.048298511681
 31
0.0
  0
LINE
  5
4710
330
1F
100
AcDbEntity
  8
AM_VIS
100
AcDbLine
 10
2031.943466531499
 20
1329.548298511681
 30
0.0
 11
2031.943466531499
 21
1336.54829851168
 31
0.0
  0
LINE
  5
4711
330
1F
100
AcDbEntity
  8
AM_VIS
100
AcDbLine
 10
2031.943466531499
 20
1395.048298511681
 30
0.0
 11
2031.943466531499
 21
1397.048298511681
 31
0.0
  0
LINE
  5
4712
330
1F
100
AcDbEntity
  8
AM_VIS
100
AcDbLine
 10
2046.943466531499
 20
1328.54829851168
 30
0.0
 11
2047.943466531499
 21
1329.548298511681
 31
0.0
  0
LINE
  5
4713
330
1F
100
AcDbEntity
  8
AM_VIS
100
AcDbLine
 10
2032.9434665315
 20
1328.54829851168
 30
0.0
 11
2031.943466531499
 21
1329.548298511681
 31
0.0
  0
LINE
  5
4714
330
1F
100
AcDbEntity
  8
AM_VIS
100
AcDbLine
 10
2046.943466531499
 20
1328.54829851168
 30
0.0
 11
2032.9434665315
 21
1328.54829851168
 31
0.0
  0
LINE
  5
4715
330
1F
100
AcDbEntity
  8
AM_VIS
100
AcDbLine
 10
2030.443466531499
 20
1395.048298511681
 30
0.0
 11
2030.443466531499
 21
1336.54829851168
 31
0.0
  0
LINE
  5
4716
330
1F
100
AcDbEntity
  8
AM_VIS
100
AcDbLine
 10
2045.4434665315
 20
1395.048298511681
 30
0.0
 11
2045.4434665315
 21
1336.54829851168
 31
0.0
  0
LINE
  5
4717
330
1F
100
AcDbEntity
  8
AM_VIS
100
AcDbLine
 10
2028.943466531499
 20
1336.54829851168
 30
0.0
 11
2028.943466531499
 21
1395.048298511681
 31
0.0
  0
LINE
  5
4718
330
1F
100
AcDbEntity
  8
AM_VIS
100
AcDbLine
 10
2013.943466531499
 20
1395.048298511681
 30
0.0
 11
2013.943466531499
 21
1336.54829851168
 31
0.0
  0
LINE
  5
4719
330
1F
100
AcDbEntity
  8
AM_VIS
100
AcDbLine
 10
2045.4434665315
 20
1395.048298511681
 30
0.0
 11
2046.943466531499
 21
1395.048298511681
 31
0.0
  0
LINE
  5
471A
330
1F
100
AcDbEntity
  8
AM_VIS
100
AcDbLine
 10
2030.443466531499
 20
1395.048298511681
 30
0.0
 11
2045.4434665315
 21
1395.048298511681
 31
0.0
  0
LINE
  5
471B
330
1F
100
AcDbEntity
  8
AM_VIS
100
AcDbLine
 10
2028.943466531499
 20
1395.048298511681
 30
0.0
 11
2030.443466531499
 21
1395.048298511681
 31
0.0
  0
LINE
  5
471C
330
1F
100
AcDbEntity
  8
AM_VIS
100
AcDbLine
 10
2015.443466531499
 20
1395.048298511681
 30
0.0
 11
2028.943466531499
 21
1395.048298511681
 31
0.0
  0
LINE
  5
471D
330
1F
100
AcDbEntity
  8
AM_VIS
100
AcDbLine
 10
2064.9434665315
 20
1336.54829851168
 30
0.0
 11
2064.9434665315
 21
1395.048298511681
 31
0.0
  0
LINE
  5
471E
330
1F
100
AcDbEntity
  8
AM_VIS
100
AcDbLine
 10
2046.943466531499
 20
1395.048298511681
 30
0.0
 11
2046.943466531499
 21
1336.54829851168
 31
0.0
  0
LINE
  5
471F
330
1F
100
AcDbEntity
  8
AM_VIS
100
AcDbLine
 10
2046.943466531499
 20
1395.048298511681
 30
0.0
 11
2063.4434665315
 21
1395.048298511681
 31
0.0
  0
LINE
  5
4720
330
1F
100
AcDbEntity
  8
AM_VIS
100
AcDbLine
 10
2015.443466531499
 20
1336.54829851168
 30
0.0
 11
2028.943466531499
 21
1336.54829851168
 31
0.0
  0
LINE
  5
4721
330
1F
100
AcDbEntity
  8
AM_VIS
100
AcDbLine
 10
2030.443466531499
 20
1336.54829851168
 30
0.0
 11
2028.943466531499
 21
1336.54829851168
 31
0.0
  0
LINE
  5
4722
330
1F
100
AcDbEntity
  8
AM_VIS
100
AcDbLine
 10
2045.4434665315
 20
1336.54829851168
 30
0.0
 11
2030.443466531499
 21
1336.54829851168
 31
0.0
  0
LINE
  5
4723
330
1F
100
AcDbEntity
  8
AM_VIS
100
AcDbLine
 10
2046.943466531499
 20
1336.54829851168
 30
0.0
 11
2045.4434665315
 21
1336.54829851168
 31
0.0
  0
LINE
  5
4724
330
1F
100
AcDbEntity
  8
AM_VIS
100
AcDbLine
 10
2046.943466531499
 20
1336.54829851168
 30
0.0
 11
2063.4434665315
 21
1336.54829851168
 31
0.0
  0
LINE
  5
4725
330
1F
100
AcDbEntity
  8
AM_VIS
100
AcDbLine
 10
2013.943466531499
 20
1395.048298511681
 30
0.0
 11
2015.443466531499
 21
1395.048298511681
 31
0.0
  0
LINE
  5
4726
330
1F
100
AcDbEntity
  8
AM_VIS
100
AcDbLine
 10
2063.4434665315
 20
1395.048298511681
 30
0.0
 11
2064.9434665315
 21
1395.048298511681
 31
0.0
  0
LINE
  5
4727
330
1F
100
AcDbEntity
  8
AM_VIS
100
AcDbLine
 10
2015.443466531499
 20
1336.54829851168
 30
0.0
 11
2013.943466531499
 21
1336.54829851168
 31
0.0
  0
LINE
  5
4728
330
1F
100
AcDbEntity
  8
AM_VIS
100
AcDbLine
 10
2064.9434665315
 20
1336.54829851168
 30
0.0
 11
2063.4434665315
 21
1336.54829851168
 31
0.0
  0
LINE
  5
4730
330
1F
100
AcDbEntity
  8
AM_VIS
100
AcDbLine
 10
2279.441173743832
 20
1408.548298511681
 30
0.0
 11
2279.441173743832
 21
1397.54829851168
 31
0.0
  0
LINE
  5
4731
330
1F
100
AcDbEntity
  8
AM_VIS
100
AcDbLine
 10
2279.441173743832
 20
1408.548298511681
 30
0.0
 11
2279.941173743832
 21
1409.048298511681
 31
0.0
  0
LINE
  5
4732
330
1F
100
AcDbEntity
  8
AM_VIS
100
AcDbLine
 10
2326.941173743832
 20
1409.048298511681
 30
0.0
 11
2327.441173743832
 21
1408.548298511681
 31
0.0
  0
LINE
  5
4733
330
1F
100
AcDbEntity
  8
AM_VIS
100
AcDbLine
 10
2327.441173743832
 20
1397.54829851168
 30
0.0
 11
2327.441173743832
 21
1408.548298511681
 31
0.0
  0
LINE
  5
4734
330
1F
100
AcDbEntity
  8
AM_VIS
100
AcDbLine
 10
2279.941173743832
 20
1397.048298511681
 30
0.0
 11
2279.441173743832
 21
1397.54829851168
 31
0.0
  0
LINE
  5
4735
330
1F
100
AcDbEntity
  8
AM_VIS
100
AcDbLine
 10
2327.441173743832
 20
1397.54829851168
 30
0.0
 11
2326.941173743832
 21
1397.048298511681
 31
0.0
  0
LINE
  5
4736
330
1F
100
AcDbEntity
  8
AM_VIS
100
AcDbLine
 10
2326.941173743832
 20
1409.048298511681
 30
0.0
 11
2279.941173743832
 21
1409.048298511681
 31
0.0
  0
LINE
  5
4737
330
1F
100
AcDbEntity
  8
AM_VIS
100
AcDbLine
 10
2279.941173743832
 20
1397.048298511681
 30
0.0
 11
2326.941173743832
 21
1397.048298511681
 31
0.0
  0
LINE
  5
4738
330
1F
100
AcDbEntity
  8
AM_VIS
100
AcDbLine
 10
2297.941173743832
 20
1395.048298511681
 30
0.0
 11
2297.941173743832
 21
1336.54829851168
 31
0.0
  0
LINE
  5
4739
330
1F
100
AcDbEntity
  8
AM_VIS
100
AcDbLine
 10
2312.941173743832
 20
1395.048298511681
 30
0.0
 11
2312.941173743832
 21
1336.54829851168
 31
0.0
  0
LINE
  5
473A
330
1F
100
AcDbEntity
  8
AM_VIS
100
AcDbLine
 10
2296.441173743832
 20
1336.54829851168
 30
0.0
 11
2296.441173743832
 21
1395.048298511681
 31
0.0
  0
LINE
  5
473B
330
1F
100
AcDbEntity
  8
AM_VIS
100
AcDbLine
 10
2314.441173743832
 20
1395.048298511681
 30
0.0
 11
2314.441173743832
 21
1336.54829851168
 31
0.0
  0
LINE
  5
473C
330
1F
100
AcDbEntity
  8
AM_VIS
100
AcDbLine
 10
2278.441173743832
 20
1395.048298511681
 30
0.0
 11
2278.441173743832
 21
1336.54829851168
 31
0.0
  0
LINE
  5
473D
330
1F
100
AcDbEntity
  8
AM_VIS
100
AcDbLine
 10
2329.441173743832
 20
1336.54829851168
 30
0.0
 11
2329.441173743832
 21
1395.048298511681
 31
0.0
  0
LINE
  5
473E
330
1F
100
AcDbEntity
  8
AM_VIS
100
AcDbLine
 10
2303.441173743832
 20
1395.048298511681
 30
0.0
 11
2327.941173743832
 21
1395.048298511681
 31
0.0
  0
LINE
  5
4742
330
1F
100
AcDbEntity
  8
AM_VIS
100
AcDbLine
 10
2279.941173743832
 20
1395.048298511681
 30
0.0
 11
2303.441173743832
 21
1395.048298511681
 31
0.0
  0
LINE
  5
4743
330
1F
100
AcDbEntity
  8
AM_VIS
100
AcDbLine
 10
2279.941173743832
 20
1336.54829851168
 30
0.0
 11
2296.441173743832
 21
1336.54829851168
 31
0.0
  0
LINE
  5
4744
330
1F
100
AcDbEntity
  8
AM_VIS
100
AcDbLine
 10
2297.941173743832
 20
1336.54829851168
 30
0.0
 11
2296.441173743832
 21
1336.54829851168
 31
0.0
  0
LINE
  5
4745
330
1F
100
AcDbEntity
  8
AM_VIS
100
AcDbLine
 10
2312.941173743832
 20
1336.54829851168
 30
0.0
 11
2297.941173743832
 21
1336.54829851168
 31
0.0
  0
LINE
  5
4746
330
1F
100
AcDbEntity
  8
AM_VIS
100
AcDbLine
 10
2314.441173743832
 20
1336.54829851168
 30
0.0
 11
2312.941173743832
 21
1336.54829851168
 31
0.0
  0
LINE
  5
4747
330
1F
100
AcDbEntity
  8
AM_VIS
100
AcDbLine
 10
2314.441173743832
 20
1336.54829851168
 30
0.0
 11
2327.941173743832
 21
1336.54829851168
 31
0.0
  0
LINE
  5
4748
330
1F
100
AcDbEntity
  8
AM_VIS
100
AcDbLine
 10
2327.941173743832
 20
1395.048298511681
 30
0.0
 11
2329.441173743832
 21
1395.048298511681
 31
0.0
  0
LINE
  5
4749
330
1F
100
AcDbEntity
  8
AM_VIS
100
AcDbLine
 10
2278.441173743832
 20
1395.048298511681
 30
0.0
 11
2279.941173743832
 21
1395.048298511681
 31
0.0
  0
LINE
  5
474A
330
1F
100
AcDbEntity
  8
AM_VIS
100
AcDbLine
 10
2279.941173743832
 20
1336.54829851168
 30
0.0
 11
2278.441173743832
 21
1336.54829851168
 31
0.0
  0
LINE
  5
474B
330
1F
100
AcDbEntity
  8
AM_VIS
100
AcDbLine
 10
2329.441173743832
 20
1336.54829851168
 30
0.0
 11
2327.941173743832
 21
1336.54829851168
 31
0.0
  0
LINE
  5
4753
330
1F
100
AcDbEntity
  8
AM_VIS
100
AcDbLine
 10
2368.442587312018
 20
1408.548298511681
 30
0.0
 11
2368.942587312018
 21
1409.048298511681
 31
0.0
  0
LINE
  5
4754
330
1F
100
AcDbEntity
  8
AM_VIS
100
AcDbLine
 10
2368.442587312018
 20
1408.548298511681
 30
0.0
 11
2368.442587312018
 21
1397.54829851168
 31
0.0
  0
LINE
  5
4755
330
1F
100
AcDbEntity
  8
AM_VIS
100
AcDbLine
 10
2368.942587312018
 20
1397.048298511681
 30
0.0
 11
2368.442587312018
 21
1397.54829851168
 31
0.0
  0
LINE
  5
4756
330
1F
100
AcDbEntity
  8
AM_VIS
100
AcDbLine
 10
2479.942587312018
 20
1409.048298511681
 30
0.0
 11
2480.442587312018
 21
1408.548298511681
 31
0.0
  0
LINE
  5
4757
330
1F
100
AcDbEntity
  8
AM_VIS
100
AcDbLine
 10
2480.442587312018
 20
1397.54829851168
 30
0.0
 11
2480.442587312018
 21
1408.548298511681
 31
0.0
  0
LINE
  5
4758
330
1F
100
AcDbEntity
  8
AM_VIS
100
AcDbLine
 10
2480.442587312018
 20
1397.54829851168
 30
0.0
 11
2479.942587312018
 21
1397.048298511681
 31
0.0
  0
LINE
  5
4759
330
1F
100
AcDbEntity
  8
AM_VIS
100
AcDbLine
 10
2479.942587312018
 20
1409.048298511681
 30
0.0
 11
2368.942587312018
 21
1409.048298511681
 31
0.0
  0
LINE
  5
475A
330
1F
100
AcDbEntity
  8
AM_VIS
100
AcDbLine
 10
2368.942587312018
 20
1397.048298511681
 30
0.0
 11
2479.942587312018
 21
1397.048298511681
 31
0.0
  0
LINE
  5
475B
330
1F
100
AcDbEntity
  8
AM_VIS
100
AcDbLine
 10
2432.442587312018
 20
1395.048298511681
 30
0.0
 11
2432.442587312018
 21
1397.048298511681
 31
0.0
  0
LINE
  5
475C
330
1F
100
AcDbEntity
  8
AM_VIS
100
AcDbLine
 10
2416.442587312018
 20
1395.048298511681
 30
0.0
 11
2416.442587312018
 21
1397.048298511681
 31
0.0
  0
LINE
  5
4764
330
1F
100
AcDbEntity
  8
AM_VIS
100
AcDbLine
 10
2388.242587312018
 20
1395.048298511681
 30
0.0
 11
2388.242587312018
 21
1336.54829851168
 31
0.0
  0
LINE
  5
4765
330
1F
100
AcDbEntity
  8
AM_VIS
100
AcDbLine
 10
2392.442587312018
 20
1395.048298511681
 30
0.0
 11
2392.442587312018
 21
1336.54829851168
 31
0.0
  0
LINE
  5
4766
330
1F
100
AcDbEntity
  8
AM_VIS
100
AcDbLine
 10
2380.442587312018
 20
1395.048298511681
 30
0.0
 11
2380.442587312018
 21
1336.54829851168
 31
0.0
  0
LINE
  5
4767
330
1F
100
AcDbEntity
  8
AM_VIS
100
AcDbLine
 10
2468.442587312018
 20
1395.048298511681
 30
0.0
 11
2468.442587312018
 21
1336.54829851168
 31
0.0
  0
LINE
  5
4768
330
1F
100
AcDbEntity
  8
AM_VIS
100
AcDbLine
 10
2456.442587312018
 20
1395.048298511681
 30
0.0
 11
2456.442587312018
 21
1336.54829851168
 31
0.0
  0
LINE
  5
4769
330
1F
100
AcDbEntity
  8
AM_VIS
100
AcDbLine
 10
2460.642587312018
 20
1395.048298511681
 30
0.0
 11
2460.642587312018
 21
1336.54829851168
 31
0.0
  0
LINE
  5
476A
330
1F
100
AcDbEntity
  8
AM_VIS
100
AcDbLine
 10
2436.342587312018
 20
1395.048298511681
 30
0.0
 11
2436.342587312018
 21
1336.54829851168
 31
0.0
  0
LINE
  5
476B
330
1F
100
AcDbEntity
  8
AM_VIS
100
AcDbLine
 10
2412.542587312018
 20
1395.048298511681
 30
0.0
 11
2412.542587312018
 21
1336.54829851168
 31
0.0
  0
LINE
  5
476C
330
1F
100
AcDbEntity
  8
AM_VIS
100
AcDbLine
 10
2416.242587312018
 20
1336.54829851168
 30
0.0
 11
2416.242587312018
 21
1395.048298511681
 31
0.0
  0
LINE
  5
476D
330
1F
100
AcDbEntity
  8
AM_VIS
100
AcDbLine
 10
2419.642587312018
 20
1395.048298511681
 30
0.0
 11
2419.642587312018
 21
1336.54829851168
 31
0.0
  0
LINE
  5
476E
330
1F
100
AcDbEntity
  8
AM_VIS
100
AcDbLine
 10
2432.642587312018
 20
1395.048298511681
 30
0.0
 11
2432.642587312018
 21
1336.54829851168
 31
0.0
  0
LINE
  5
476F
330
1F
100
AcDbEntity
  8
AM_VIS
100
AcDbLine
 10
2429.242587312018
 20
1336.54829851168
 30
0.0
 11
2429.242587312018
 21
1395.048298511681
 31
0.0
  0
LINE
  5
4770
330
1F
100
AcDbEntity
  8
AM_VIS
100
AcDbLine
 10
2366.442587312018
 20
1395.048298511681
 30
0.0
 11
2366.442587312018
 21
1336.54829851168
 31
0.0
  0
LINE
  5
4771
330
1F
100
AcDbEntity
  8
AM_VIS
100
AcDbLine
 10
2482.442587312018
 20
1336.54829851168
 30
0.0
 11
2482.442587312018
 21
1395.048298511681
 31
0.0
  0
LINE
  5
4772
330
1F
100
AcDbEntity
  8
AM_VIS
100
AcDbLine
 10
2451.442587312018
 20
1336.54829851168
 30
0.0
 11
2451.442587312018
 21
1395.048298511681
 31
0.0
  0
LINE
  5
4773
330
1F
100
AcDbEntity
  8
AM_VIS
100
AcDbLine
 10
2439.442587312018
 20
1395.048298511681
 30
0.0
 11
2439.442587312018
 21
1336.54829851168
 31
0.0
  0
LINE
  5
4774
330
1F
100
AcDbEntity
  8
AM_VIS
100
AcDbLine
 10
2397.442587312017
 20
1395.048298511681
 30
0.0
 11
2397.442587312017
 21
1336.54829851168
 31
0.0
  0
LINE
  5
4775
330
1F
100
AcDbEntity
  8
AM_VIS
100
AcDbLine
 10
2409.442587312018
 20
1336.54829851168
 30
0.0
 11
2409.442587312018
 21
1395.048298511681
 31
0.0
  0
LINE
  5
4776
330
1F
100
AcDbEntity
  8
AM_VIS
100
AcDbLine
 10
2379.642587312018
 20
1336.54829851168
 30
0.0
 11
2379.642587312018
 21
1395.048298511681
 31
0.0
  0
LINE
  5
4777
330
1F
100
AcDbEntity
  8
AM_VIS
100
AcDbLine
 10
2469.242587312018
 20
1395.048298511681
 30
0.0
 11
2469.242587312018
 21
1336.54829851168
 31
0.0
  0
LINE
  5
4778
330
1F
100
AcDbEntity
  8
AM_VIS
100
AcDbLine
 10
2469.242587312018
 20
1395.048298511681
 30
0.0
 11
2480.942587312018
 21
1395.048298511681
 31
0.0
  0
LINE
  5
4779
330
1F
100
AcDbEntity
  8
AM_VIS
100
AcDbLine
 10
2468.442587312018
 20
1395.048298511681
 30
0.0
 11
2469.242587312018
 21
1395.048298511681
 31
0.0
  0
LINE
  5
477A
330
1F
100
AcDbEntity
  8
AM_VIS
100
AcDbLine
 10
2460.642587312018
 20
1395.048298511681
 30
0.0
 11
2468.442587312018
 21
1395.048298511681
 31
0.0
  0
LINE
  5
477B
330
1F
100
AcDbEntity
  8
AM_VIS
100
AcDbLine
 10
2456.442587312018
 20
1395.048298511681
 30
0.0
 11
2460.642587312018
 21
1395.048298511681
 31
0.0
  0
LINE
  5
477C
330
1F
100
AcDbEntity
  8
AM_VIS
100
AcDbLine
 10
2451.442587312018
 20
1395.048298511681
 30
0.0
 11
2456.442587312018
 21
1395.048298511681
 31
0.0
  0
LINE
  5
477D
330
1F
100
AcDbEntity
  8
AM_VIS
100
AcDbLine
 10
2439.442587312018
 20
1395.048298511681
 30
0.0
 11
2451.442587312018
 21
1395.048298511681
 31
0.0
  0
LINE
  5
477E
330
1F
100
AcDbEntity
  8
AM_VIS
100
AcDbLine
 10
2436.342587312018
 20
1395.048298511681
 30
0.0
 11
2439.442587312018
 21
1395.048298511681
 31
0.0
  0
LINE
  5
477F
330
1F
100
AcDbEntity
  8
AM_VIS
100
AcDbLine
 10
2432.642587312018
 20
1395.048298511681
 30
0.0
 11
2436.342587312018
 21
1395.048298511681
 31
0.0
  0
LINE
  5
4780
330
1F
100
AcDbEntity
  8
AM_VIS
100
AcDbLine
 10
2430.492587312018
 20
1395.048298511681
 30
0.0
 11
2431.392587312018
 21
1395.048298511681
 31
0.0
  0
LINE
  5
4781
330
1F
100
AcDbEntity
  8
AM_VIS
100
AcDbLine
 10
2419.642587312018
 20
1395.048298511681
 30
0.0
 11
2429.242587312018
 21
1395.048298511681
 31
0.0
  0
LINE
  5
4782
330
1F
100
AcDbEntity
  8
AM_VIS
100
AcDbLine
 10
2417.492587312018
 20
1395.048298511681
 30
0.0
 11
2418.392587312018
 21
1395.048298511681
 31
0.0
  0
LINE
  5
4783
330
1F
100
AcDbEntity
  8
AM_VIS
100
AcDbLine
 10
2412.542587312018
 20
1395.048298511681
 30
0.0
 11
2416.242587312018
 21
1395.048298511681
 31
0.0
  0
LINE
  5
4784
330
1F
100
AcDbEntity
  8
AM_VIS
100
AcDbLine
 10
2409.442587312018
 20
1395.048298511681
 30
0.0
 11
2412.542587312018
 21
1395.048298511681
 31
0.0
  0
LINE
  5
4785
330
1F
100
AcDbEntity
  8
AM_VIS
100
AcDbLine
 10
2397.442587312017
 20
1395.048298511681
 30
0.0
 11
2409.442587312018
 21
1395.048298511681
 31
0.0
  0
LINE
  5
4786
330
1F
100
AcDbEntity
  8
AM_VIS
100
AcDbLine
 10
2392.442587312018
 20
1395.048298511681
 30
0.0
 11
2397.442587312017
 21
1395.048298511681
 31
0.0
  0
LINE
  5
4787
330
1F
100
AcDbEntity
  8
AM_VIS
100
AcDbLine
 10
2388.242587312018
 20
1395.048298511681
 30
0.0
 11
2392.442587312018
 21
1395.048298511681
 31
0.0
  0
LINE
  5
4788
330
1F
100
AcDbEntity
  8
AM_VIS
100
AcDbLine
 10
2380.442587312018
 20
1395.048298511681
 30
0.0
 11
2388.242587312018
 21
1395.048298511681
 31
0.0
  0
LINE
  5
4789
330
1F
100
AcDbEntity
  8
AM_VIS
100
AcDbLine
 10
2379.642587312018
 20
1395.048298511681
 30
0.0
 11
2380.442587312018
 21
1395.048298511681
 31
0.0
  0
LINE
  5
478A
330
1F
100
AcDbEntity
  8
AM_VIS
100
AcDbLine
 10
2367.942587312018
 20
1395.048298511681
 30
0.0
 11
2379.642587312018
 21
1395.048298511681
 31
0.0
  0
LINE
  5
478B
330
1F
100
AcDbEntity
  8
AM_VIS
100
AcDbLine
 10
2367.942587312018
 20
1336.54829851168
 30
0.0
 11
2379.642587312018
 21
1336.54829851168
 31
0.0
  0
LINE
  5
478C
330
1F
100
AcDbEntity
  8
AM_VIS
100
AcDbLine
 10
2380.442587312018
 20
1336.54829851168
 30
0.0
 11
2379.642587312018
 21
1336.54829851168
 31
0.0
  0
LINE
  5
478D
330
1F
100
AcDbEntity
  8
AM_VIS
100
AcDbLine
 10
2388.242587312018
 20
1336.54829851168
 30
0.0
 11
2380.442587312018
 21
1336.54829851168
 31
0.0
  0
LINE
  5
478E
330
1F
100
AcDbEntity
  8
AM_VIS
100
AcDbLine
 10
2392.442587312018
 20
1336.54829851168
 30
0.0
 11
2388.242587312018
 21
1336.54829851168
 31
0.0
  0
LINE
  5
478F
330
1F
100
AcDbEntity
  8
AM_VIS
100
AcDbLine
 10
2397.442587312017
 20
1336.54829851168
 30
0.0
 11
2392.442587312018
 21
1336.54829851168
 31
0.0
  0
LINE
  5
4790
330
1F
100
AcDbEntity
  8
AM_VIS
100
AcDbLine
 10
2397.442587312017
 20
1336.54829851168
 30
0.0
 11
2409.442587312018
 21
1336.54829851168
 31
0.0
  0
LINE
  5
4791
330
1F
100
AcDbEntity
  8
AM_VIS
100
AcDbLine
 10
2412.542587312018
 20
1336.54829851168
 30
0.0
 11
2409.442587312018
 21
1336.54829851168
 31
0.0
  0
LINE
  5
4792
330
1F
100
AcDbEntity
  8
AM_VIS
100
AcDbLine
 10
2416.242587312018
 20
1336.54829851168
 30
0.0
 11
2412.542587312018
 21
1336.54829851168
 31
0.0
  0
LINE
  5
4793
330
1F
100
AcDbEntity
  8
AM_VIS
100
AcDbLine
 10
2418.392587312018
 20
1336.54829851168
 30
0.0
 11
2417.492587312018
 21
1336.54829851168
 31
0.0
  0
LINE
  5
4794
330
1F
100
AcDbEntity
  8
AM_VIS
100
AcDbLine
 10
2429.242587312018
 20
1336.54829851168
 30
0.0
 11
2419.642587312018
 21
1336.54829851168
 31
0.0
  0
LINE
  5
4795
330
1F
100
AcDbEntity
  8
AM_VIS
100
AcDbLine
 10
2431.392587312018
 20
1336.54829851168
 30
0.0
 11
2430.492587312018
 21
1336.54829851168
 31
0.0
  0
LINE
  5
4796
330
1F
100
AcDbEntity
  8
AM_VIS
100
AcDbLine
 10
2436.342587312018
 20
1336.54829851168
 30
0.0
 11
2432.642587312018
 21
1336.54829851168
 31
0.0
  0
LINE
  5
4797
330
1F
100
AcDbEntity
  8
AM_VIS
100
AcDbLine
 10
2439.442587312018
 20
1336.54829851168
 30
0.0
 11
2436.342587312018
 21
1336.54829851168
 31
0.0
  0
LINE
  5
4798
330
1F
100
AcDbEntity
  8
AM_VIS
100
AcDbLine
 10
2439.442587312018
 20
1336.54829851168
 30
0.0
 11
2451.442587312018
 21
1336.54829851168
 31
0.0
  0
LINE
  5
4799
330
1F
100
AcDbEntity
  8
AM_VIS
100
AcDbLine
 10
2456.442587312018
 20
1336.54829851168
 30
0.0
 11
2451.442587312018
 21
1336.54829851168
 31
0.0
  0
LINE
  5
479A
330
1F
100
AcDbEntity
  8
AM_VIS
100
AcDbLine
 10
2460.642587312018
 20
1336.54829851168
 30
0.0
 11
2456.442587312018
 21
1336.54829851168
 31
0.0
  0
LINE
  5
479B
330
1F
100
AcDbEntity
  8
AM_VIS
100
AcDbLine
 10
2468.442587312018
 20
1336.54829851168
 30
0.0
 11
2460.642587312018
 21
1336.54829851168
 31
0.0
  0
LINE
  5
479C
330
1F
100
AcDbEntity
  8
AM_VIS
100
AcDbLine
 10
2469.242587312018
 20
1336.54829851168
 30
0.0
 11
2468.442587312018
 21
1336.54829851168
 31
0.0
  0
LINE
  5
479D
330
1F
100
AcDbEntity
  8
AM_VIS
100
AcDbLine
 10
2469.242587312018
 20
1336.54829851168
 30
0.0
 11
2480.942587312018
 21
1336.54829851168
 31
0.0
  0
LINE
  5
479E
330
1F
100
AcDbEntity
  8
AM_VIS
100
AcDbLine
 10
2480.942587312018
 20
1395.048298511681
 30
0.0
 11
2482.442587312018
 21
1395.048298511681
 31
0.0
  0
LINE
  5
479F
330
1F
100
AcDbEntity
  8
AM_VIS
100
AcDbLine
 10
2432.642587312018
 20
1395.048298511681
 30
0.0
 11
2431.392587312018
 21
1395.048298511681
 31
0.0
  0
LINE
  5
47A0
330
1F
100
AcDbEntity
  8
AM_VIS
100
AcDbLine
 10
2430.492587312018
 20
1395.048298511681
 30
0.0
 11
2429.242587312018
 21
1395.048298511681
 31
0.0
  0
LINE
  5
47A1
330
1F
100
AcDbEntity
  8
AM_VIS
100
AcDbLine
 10
2419.642587312018
 20
1395.048298511681
 30
0.0
 11
2418.392587312018
 21
1395.048298511681
 31
0.0
  0
LINE
  5
47A2
330
1F
100
AcDbEntity
  8
AM_VIS
100
AcDbLine
 10
2417.492587312018
 20
1395.048298511681
 30
0.0
 11
2416.242587312018
 21
1395.048298511681
 31
0.0
  0
LINE
  5
47A3
330
1F
100
AcDbEntity
  8
AM_VIS
100
AcDbLine
 10
2366.442587312018
 20
1395.048298511681
 30
0.0
 11
2367.942587312018
 21
1395.048298511681
 31
0.0
  0
LINE
  5
47A4
330
1F
100
AcDbEntity
  8
AM_VIS
100
AcDbLine
 10
2367.942587312018
 20
1336.54829851168
 30
0.0
 11
2366.442587312018
 21
1336.54829851168
 31
0.0
  0
LINE
  5
47A5
330
1F
100
AcDbEntity
  8
AM_VIS
100
AcDbLine
 10
2416.242587312018
 20
1336.54829851168
 30
0.0
 11
2417.492587312018
 21
1336.54829851168
 31
0.0
  0
LINE
  5
47A6
330
1F
100
AcDbEntity
  8
AM_VIS
100
AcDbLine
 10
2418.392587312018
 20
1336.54829851168
 30
0.0
 11
2419.642587312018
 21
1336.54829851168
 31
0.0
  0
LINE
  5
47A7
330
1F
100
AcDbEntity
  8
AM_VIS
100
AcDbLine
 10
2429.242587312018
 20
1336.54829851168
 30
0.0
 11
2430.492587312018
 21
1336.54829851168
 31
0.0
  0
LINE
  5
47A8
330
1F
100
AcDbEntity
  8
AM_VIS
100
AcDbLine
 10
2431.392587312018
 20
1336.54829851168
 30
0.0
 11
2432.642587312018
 21
1336.54829851168
 31
0.0
  0
LINE
  5
47A9
330
1F
100
AcDbEntity
  8
AM_VIS
100
AcDbLine
 10
2482.442587312018
 20
1336.54829851168
 30
0.0
 11
2480.942587312018
 21
1336.54829851168
 31
0.0
  0
LINE
  5
47AA
330
1F
100
AcDbEntity
  8
AM_7
  6
AM_ISO08W050x2
100
AcDbLine
 10
2039.9434665315
 20
1400.048298511681
 30
0.0
 11
2039.9434665315
 21
1392.048298511681
 31
0.0
1001
GENIUS_GENOBJ-N-CEN_13
1002
{
1000
OWNER
1000
GEN
1002
}
1001
GENIUS_GENODEF_13
1002
{
1000
HIER
1070
     0
1002
}
1002
{
1000
MANEDIT
1070
     0
1002
}
1002
{
1000
NOSEL
1070
     0
1002
}
1002
{
1000
BEHIND
1070
     0
1002
}
1002
{
1000
OTHER
1070
     0
1002
}
1002
{
1000
REACTOR
1002
}
1001
GENIUS_GENCEN_19
1002
{
1040
3.0
1002
}
  0
LINE
  5
47AB
330
1F
100
AcDbEntity
  8
AM_7
  6
AM_ISO08W050x2
100
AcDbLine
 10
2125.847121320781
 20
1400.048298511681
 30
0.0
 11
2125.847121320781
 21
1392.048298511681
 31
0.0
1001
GENIUS_GENODEF_13
1002
{
1000
HIER
1070
     0
1002
}
1002
{
1000
MANEDIT
1070
     0
1002
}
1002
{
1000
NOSEL
1070
     0
1002
}
1002
{
1000
BEHIND
1070
     0
1002
}
1002
{
1000
OTHER
1070
     0
1002
}
1002
{
1000
REACTOR
1002
}
1001
GENIUS_GENOBJ-N-CEN_13
1002
{
1000
OWNER
1000
GEN
1002
}
1001
GENIUS_GENCEN_19
1002
{
1040
3.0
1002
}
  0
LINE
  5
47AC
330
1F
100
AcDbEntity
  8
AM_7
  6
AM_ISO08W050x2
100
AcDbLine
 10
2205.847121320781
 20
1400.048298511681
 30
0.0
 11
2205.847121320781
 21
1392.048298511681
 31
0.0
1001
GENIUS_GENODEF_13
1002
{
1000
HIER
1070
     0
1002
}
1002
{
1000
MANEDIT
1070
     0
1002
}
1002
{
1000
NOSEL
1070
     0
1002
}
1002
{
1000
BEHIND
1070
     0
1002
}
1002
{
1000
OTHER
1070
     0
1002
}
1002
{
1000
REACTOR
1002
}
1001
GENIUS_GENOBJ-N-CEN_13
1002
{
1000
OWNER
1000
GEN
1002
}
1001
GENIUS_GENCEN_19
1002
{
1040
3.0
1002
}
  0
LINE
  5
47AD
330
1F
100
AcDbEntity
  8
AM_7
  6
AM_ISO08W050x2
100
AcDbLine
 10
2165.847121320781
 20
1400.048298511681
 30
0.0
 11
2165.847121320782
 21
1392.048298511681
 31
0.0
1001
GENIUS_GENODEF_13
1002
{
1000
HIER
1070
     0
1002
}
1002
{
1000
MANEDIT
1070
     0
1002
}
1002
{
1000
NOSEL
1070
     0
1002
}
1002
{
1000
BEHIND
1070
     0
1002
}
1002
{
1000
OTHER
1070
     0
1002
}
1002
{
1000
REACTOR
1002
}
1001
GENIUS_GENOBJ-N-CEN_13
1002
{
1000
OWNER
1000
GEN
1002
}
1001
GENIUS_GENCEN_19
1002
{
1040
3.0
1002
}
  0
LINE
  5
47AE
330
1F
100
AcDbEntity
  8
AM_7
  6
AM_ISO08W050x2
100
AcDbLine
 10
2303.441173743832
 20
1400.048298511681
 30
0.0
 11
2303.441173743832
 21
1392.048298511681
 31
0.0
1001
GENIUS_GENOBJ-N-CEN_13
1002
{
1000
OWNER
1000
GEN
1002
}
1001
GENIUS_GENODEF_13
1002
{
1000
HIER
1070
     0
1002
}
1002
{
1000
MANEDIT
1070
     0
1002
}
1002
{
1000
NOSEL
1070
     0
1002
}
1002
{
1000
BEHIND
1070
     0
1002
}
1002
{
1000
OTHER
1070
     0
1002
}
1002
{
1000
REACTOR
1002
}
1001
GENIUS_GENCEN_19
1002
{
1040
3.0
1002
}
  0
LINE
  5
47AF
330
1F
100
AcDbEntity
  8
AM_7
  6
AM_ISO08W050x2
100
AcDbLine
 10
2384.442587312018
 20
1400.048298511681
 30
0.0
 11
2384.442587312018
 21
1392.048298511681
 31
0.0
1001
GENIUS_GENODEF_13
1002
{
1000
HIER
1070
     0
1002
}
1002
{
1000
MANEDIT
1070
     0
1002
}
1002
{
1000
NOSEL
1070
     0
1002
}
1002
{
1000
BEHIND
1070
     0
1002
}
1002
{
1000
OTHER
1070
     0
1002
}
1002
{
1000
REACTOR
1002
}
1001
GENIUS_GENOBJ-N-CEN_13
1002
{
1000
OWNER
1000
GEN
1002
}
1001
GENIUS_GENCEN_19
1002
{
1040
3.0
1002
}
  0
LINE
  5
47B0
330
1F
100
AcDbEntity
  8
AM_7
  6
AM_ISO08W050x2
100
AcDbLine
 10
2424.442587312018
 20
1400.048298511681
 30
0.0
 11
2424.442587312019
 21
1392.048298511681
 31
0.0
1001
GENIUS_GENOBJ-N-CEN_13
1002
{
1000
OWNER
1000
GEN
1002
}
1001
GENIUS_GENODEF_13
1002
{
1000
HIER
1070
     0
1002
}
1002
{
1000
MANEDIT
1070
     0
1002
}
1002
{
1000
NOSEL
1070
     0
1002
}
1002
{
1000
BEHIND
1070
     0
1002
}
1002
{
1000
OTHER
1070
     0
1002
}
1002
{
1000
REACTOR
1002
}
1001
GENIUS_GENCEN_19
1002
{
1040
3.0
1002
}
  0
LINE
  5
47B1
330
1F
100
AcDbEntity
  8
AM_7
  6
AM_ISO08W050x2
100
AcDbLine
 10
2464.442587312018
 20
1400.048298511681
 30
0.0
 11
2464.442587312018
 21
1392.048298511681
 31
0.0
1001
GENIUS_GENOBJ-N-CEN_13
1002
{
1000
OWNER
1000
GEN
1002
}
1001
GENIUS_GENODEF_13
1002
{
1000
HIER
1070
     0
1002
}
1002
{
1000
MANEDIT
1070
     0
1002
}
1002
{
1000
NOSEL
1070
     0
1002
}
1002
{
1000
BEHIND
1070
     0
1002
}
1002
{
1000
OTHER
1070
     0
1002
}
1002
{
1000
REACTOR
1002
}
1001
GENIUS_GENCEN_19
1002
{
1040
3.0
1002
}
  0
CIRCLE
  5
47B2
330
1F
100
AcDbEntity
  8
AM_VIS
100
AcDbCircle
 10
2125.847121320781
 20
1256.313698163458
 30
0.0
 40
10.0
  0
CIRCLE
  5
47B3
330
1F
100
AcDbEntity
  8
AM_VIS
100
AcDbCircle
 10
2205.847121320781
 20
1256.313698163458
 30
0.0
 40
10.0
  0
ARC
  5
47B4
330
1F
100
AcDbEntity
  8
AM_4
100
AcDbCircle
 10
2055.943466531499
 20
1383.548298511681
 30
0.0
 40
4.863999999999999
100
AcDbArc
 50
260.0
 51
170.0
  0
LINE
  5
47B5
330
1F
100
AcDbEntity
  8
AM_7
  6
AM_ISO08W050x2
100
AcDbLine
 10
2055.943466531499
 20
1390.412298511681
 30
0.0
 11
2055.943466531499
 21
1376.684298511681
 31
0.0
  0
CIRCLE
  5
47B6
330
1F
100
AcDbEntity
  8
AM_0
100
AcDbCircle
 10
2055.943466531499
 20
1383.548298511681
 30
0.0
 40
4.283
  0
LINE
  5
47B7
330
1F
100
AcDbEntity
  8
AM_7
  6
AM_ISO08W050x2
100
AcDbLine
 10
2049.079466531499
 20
1383.548298511681
 30
0.0
 11
2062.807466531499
 21
1383.548298511681
 31
0.0
  0
ARC
  5
47B8
330
1F
100
AcDbEntity
  8
AM_4
100
AcDbCircle
 10
2055.943466531499
 20
1361.548298511681
 30
0.0
 40
4.863999999999999
100
AcDbArc
 50
260.0
 51
170.0
  0
LINE
  5
47B9
330
1F
100
AcDbEntity
  8
AM_7
  6
AM_ISO08W050x2
100
AcDbLine
 10
2055.943466531499
 20
1368.412298511681
 30
0.0
 11
2055.943466531499
 21
1354.684298511681
 31
0.0
  0
CIRCLE
  5
47BA
330
1F
100
AcDbEntity
  8
AM_0
100
AcDbCircle
 10
2055.943466531499
 20
1361.548298511681
 30
0.0
 40
4.283
  0
LINE
  5
47BB
330
1F
100
AcDbEntity
  8
AM_7
  6
AM_ISO08W050x2
100
AcDbLine
 10
2049.079466531499
 20
1361.548298511681
 30
0.0
 11
2062.807466531499
 21
1361.548298511681
 31
0.0
  0
ARC
  5
47BC
330
1F
100
AcDbEntity
  8
AM_4
100
AcDbCircle
 10
2134.847121320781
 20
1383.548298511681
 30
0.0
 40
4.863999999999999
100
AcDbArc
 50
260.0
 51
170.0
  0
LINE
  5
47BD
330
1F
100
AcDbEntity
  8
AM_7
  6
AM_ISO08W050x2
100
AcDbLine
 10
2134.847121320781
 20
1390.412298511681
 30
0.0
 11
2134.847121320781
 21
1376.684298511681
 31
0.0
  0
CIRCLE
  5
47BE
330
1F
100
AcDbEntity
  8
AM_0
100
AcDbCircle
 10
2134.847121320781
 20
1383.548298511681
 30
0.0
 40
4.283
  0
LINE
  5
47BF
330
1F
100
AcDbEntity
  8
AM_7
  6
AM_ISO08W050x2
100
AcDbLine
 10
2127.983121320781
 20
1383.548298511681
 30
0.0
 11
2141.711121320781
 21
1383.548298511681
 31
0.0
  0
ARC
  5
47C0
330
1F
100
AcDbEntity
  8
AM_4
100
AcDbCircle
 10
2134.847121320781
 20
1361.548298511681
 30
0.0
 40
4.863999999999999
100
AcDbArc
 50
260.0
 51
170.0
  0
LINE
  5
47C1
330
1F
100
AcDbEntity
  8
AM_7
  6
AM_ISO08W050x2
100
AcDbLine
 10
2134.847121320781
 20
1368.412298511681
 30
0.0
 11
2134.847121320781
 21
1354.684298511681
 31
0.0
  0
CIRCLE
  5
47C2
330
1F
100
AcDbEntity
  8
AM_0
100
AcDbCircle
 10
2134.847121320781
 20
1361.548298511681
 30
0.0
 40
4.283
  0
LINE
  5
47C3
330
1F
100
AcDbEntity
  8
AM_7
  6
AM_ISO08W050x2
100
AcDbLine
 10
2127.983121320781
 20
1361.548298511681
 30
0.0
 11
2141.711121320781
 21
1361.548298511681
 31
0.0
  0
LINE
  5
47C4
330
1F
100
AcDbEntity
  8
AM_7
  6
AM_ISO08W050x2
100
AcDbLine
 10
2039.9434665315
 20
1338.580208987399
 30
0.0
 11
2039.9434665315
 21
1326.353034835769
 31
0.0
1001
GENIUS_GENOBJ-N-CEN_13
1002
{
1000
OWNER
1000
GEN
1002
}
1001
GENIUS_GENODEF_13
1002
{
1000
HIER
1070
     0
1002
}
1002
{
1000
MANEDIT
1070
     0
1002
}
1002
{
1000
NOSEL
1070
     0
1002
}
1002
{
1000
BEHIND
1070
     0
1002
}
1002
{
1000
OTHER
1070
     0
1002
}
1002
{
1000
REACTOR
1002
}
1001
GENIUS_GENCEN_19
1002
{
1040
3.0
1002
}
  0
LINE
  5
47C5
330
1F
100
AcDbEntity
  8
AM_7
  6
AM_ISO08W050x2
100
AcDbLine
 10
2125.847121320781
 20
1338.580208987399
 30
0.0
 11
2125.847121320781
 21
1326.353034835769
 31
0.0
1001
GENIUS_GENOBJ-N-CEN_13
1002
{
1000
OWNER
1000
GEN
1002
}
1001
GENIUS_GENODEF_13
1002
{
1000
HIER
1070
     0
1002
}
1002
{
1000
MANEDIT
1070
     0
1002
}
1002
{
1000
NOSEL
1070
     0
1002
}
1002
{
1000
BEHIND
1070
     0
1002
}
1002
{
1000
OTHER
1070
     0
1002
}
1002
{
1000
REACTOR
1002
}
1001
GENIUS_GENCEN_19
1002
{
1040
3.0
1002
}
  0
LINE
  5
47C6
330
1F
100
AcDbEntity
  8
AM_7
  6
AM_ISO08W050x2
100
AcDbLine
 10
2205.847121320781
 20
1338.580208987399
 30
0.0
 11
2205.847121320781
 21
1326.353034835769
 31
0.0
1001
GENIUS_GENOBJ-N-CEN_13
1002
{
1000
OWNER
1000
GEN
1002
}
1001
GENIUS_GENODEF_13
1002
{
1000
HIER
1070
     0
1002
}
1002
{
1000
MANEDIT
1070
     0
1002
}
1002
{
1000
NOSEL
1070
     0
1002
}
1002
{
1000
BEHIND
1070
     0
1002
}
1002
{
1000
OTHER
1070
     0
1002
}
1002
{
1000
REACTOR
1002
}
1001
GENIUS_GENCEN_19
1002
{
1040
3.0
1002
}
  0
LINE
  5
47C7
330
1F
100
AcDbEntity
  8
AM_7
  6
AM_ISO08W050x2
100
AcDbLine
 10
2303.441173743832
 20
1338.580208987399
 30
0.0
 11
2303.441173743832
 21
1326.353034835769
 31
0.0
1001
GENIUS_GENOBJ-N-CEN_13
1002
{
1000
OWNER
1000
GEN
1002
}
1001
GENIUS_GENODEF_13
1002
{
1000
HIER
1070
     0
1002
}
1002
{
1000
MANEDIT
1070
     0
1002
}
1002
{
1000
NOSEL
1070
     0
1002
}
1002
{
1000
BEHIND
1070
     0
1002
}
1002
{
1000
OTHER
1070
     0
1002
}
1002
{
1000
REACTOR
1002
}
1001
GENIUS_GENCEN_19
1002
{
1040
3.0
1002
}
  0
LINE
  5
47C8
330
1F
100
AcDbEntity
  8
AM_7
  6
AM_ISO08W050x2
100
AcDbLine
 10
2384.442587312018
 20
1338.580208987399
 30
0.0
 11
2384.442587312018
 21
1326.353034835769
 31
0.0
1001
GENIUS_GENOBJ-N-CEN_13
1002
{
1000
OWNER
1000
GEN
1002
}
1001
GENIUS_GENODEF_13
1002
{
1000
HIER
1070
     0
1002
}
1002
{
1000
MANEDIT
1070
     0
1002
}
1002
{
1000
NOSEL
1070
     0
1002
}
1002
{
1000
BEHIND
1070
     0
1002
}
1002
{
1000
OTHER
1070
     0
1002
}
1002
{
1000
REACTOR
1002
}
1001
GENIUS_GENCEN_19
1002
{
1040
3.0
1002
}
  0
LINE
  5
47C9
330
1F
100
AcDbEntity
  8
AM_7
  6
AM_ISO08W050x2
100
AcDbLine
 10
2464.442587312018
 20
1338.580208987399
 30
0.0
 11
2464.442587312018
 21
1326.353034835769
 31
0.0
1001
GENIUS_GENOBJ-N-CEN_13
1002
{
1000
OWNER
1000
GEN
1002
}
1001
GENIUS_GENODEF_13
1002
{
1000
HIER
1070
     0
1002
}
1002
{
1000
MANEDIT
1070
     0
1002
}
1002
{
1000
NOSEL
1070
     0
1002
}
1002
{
1000
BEHIND
1070
     0
1002
}
1002
{
1000
OTHER
1070
     0
1002
}
1002
{
1000
REACTOR
1002
}
1001
GENIUS_GENCEN_19
1002
{
1040
3.0
1002
}
  0
LINE
  5
47CA
330
1F
100
AcDbEntity
  8
AM_7
  6
AM_ISO08W050x2
100
AcDbLine
 10
2144.847121320781
 20
1373.048298511681
 30
0.0
 11
2152.347121320781
 21
1373.048298511681
 31
0.0
1001
GENIUS_GENOREF_13
1005
4828
  0
LINE
  5
47CB
330
1F
100
AcDbEntity
  8
AM_7
  6
AM_ISO08W050x2
100
AcDbLine
 10
2144.847121320781
 20
1373.048298511681
 30
0.0
 11
2144.847121320781
 21
1380.548298511681
 31
0.0
1001
GENIUS_GENOREF_13
1005
4828
  0
LINE
  5
47CC
330
1F
100
AcDbEntity
  8
AM_7
  6
AM_ISO08W050x2
100
AcDbLine
 10
2144.847121320781
 20
1373.048298511681
 30
0.0
 11
2137.347121320781
 21
1373.048298511681
 31
0.0
1001
GENIUS_GENOREF_13
1005
4828
  0
LINE
  5
47CD
330
1F
100
AcDbEntity
  8
AM_7
  6
AM_ISO08W050x2
100
AcDbLine
 10
2144.847121320781
 20
1373.048298511681
 30
0.0
 11
2144.847121320781
 21
1365.54829851168
 31
0.0
1001
GENIUS_GENOREF_13
1005
4828
  0
LINE
  5
47CE
330
1F
100
AcDbEntity
  8
AM_7
  6
AM_ISO08W050x2
100
AcDbLine
 10
2144.847121320781
 20
1351.04829851168
 30
0.0
 11
2152.347121320781
 21
1351.04829851168
 31
0.0
1001
GENIUS_GENOREF_13
1005
4827
  0
LINE
  5
47CF
330
1F
100
AcDbEntity
  8
AM_7
  6
AM_ISO08W050x2
100
AcDbLine
 10
2144.847121320781
 20
1351.04829851168
 30
0.0
 11
2144.847121320781
 21
1358.548298511681
 31
0.0
1001
GENIUS_GENOREF_13
1005
4827
  0
LINE
  5
47D0
330
1F
100
AcDbEntity
  8
AM_7
  6
AM_ISO08W050x2
100
AcDbLine
 10
2144.847121320781
 20
1351.04829851168
 30
0.0
 11
2137.347121320781
 21
1351.04829851168
 31
0.0
1001
GENIUS_GENOREF_13
1005
4827
  0
LINE
  5
47D1
330
1F
100
AcDbEntity
  8
AM_7
  6
AM_ISO08W050x2
100
AcDbLine
 10
2144.847121320781
 20
1351.04829851168
 30
0.0
 11
2144.847121320781
 21
1343.548298511681
 31
0.0
1001
GENIUS_GENOREF_13
1005
4827
  0
LINE
  5
47D2
330
1F
100
AcDbEntity
  8
AM_7
  6
AM_ISO08W050x2
100
AcDbLine
 10
2186.847121320781
 20
1351.04829851168
 30
0.0
 11
2194.347121320781
 21
1351.04829851168
 31
0.0
1001
GENIUS_GENOREF_13
1005
4826
  0
LINE
  5
47D3
330
1F
100
AcDbEntity
  8
AM_7
  6
AM_ISO08W050x2
100
AcDbLine
 10
2186.847121320781
 20
1351.04829851168
 30
0.0
 11
2186.847121320781
 21
1358.548298511681
 31
0.0
1001
GENIUS_GENOREF_13
1005
4826
  0
LINE
  5
47D4
330
1F
100
AcDbEntity
  8
AM_7
  6
AM_ISO08W050x2
100
AcDbLine
 10
2186.847121320781
 20
1351.04829851168
 30
0.0
 11
2179.347121320781
 21
1351.04829851168
 31
0.0
1001
GENIUS_GENOREF_13
1005
4826
  0
LINE
  5
47D5
330
1F
100
AcDbEntity
  8
AM_7
  6
AM_ISO08W050x2
100
AcDbLine
 10
2186.847121320781
 20
1351.04829851168
 30
0.0
 11
2186.847121320781
 21
1343.548298511681
 31
0.0
1001
GENIUS_GENOREF_13
1005
4826
  0
LINE
  5
47D6
330
1F
100
AcDbEntity
  8
AM_7
  6
AM_ISO08W050x2
100
AcDbLine
 10
2186.847121320781
 20
1373.048298511681
 30
0.0
 11
2194.347121320781
 21
1373.048298511681
 31
0.0
1001
GENIUS_GENOREF_13
1005
4825
  0
LINE
  5
47D7
330
1F
100
AcDbEntity
  8
AM_7
  6
AM_ISO08W050x2
100
AcDbLine
 10
2186.847121320781
 20
1373.048298511681
 30
0.0
 11
2186.847121320781
 21
1380.548298511681
 31
0.0
1001
GENIUS_GENOREF_13
1005
4825
  0
LINE
  5
47D8
330
1F
100
AcDbEntity
  8
AM_7
  6
AM_ISO08W050x2
100
AcDbLine
 10
2186.847121320781
 20
1373.048298511681
 30
0.0
 11
2179.347121320781
 21
1373.048298511681
 31
0.0
1001
GENIUS_GENOREF_13
1005
4825
  0
LINE
  5
47D9
330
1F
100
AcDbEntity
  8
AM_7
  6
AM_ISO08W050x2
100
AcDbLine
 10
2186.847121320781
 20
1373.048298511681
 30
0.0
 11
2186.847121320781
 21
1365.54829851168
 31
0.0
1001
GENIUS_GENOREF_13
1005
4825
  0
ARC
  5
47DA
330
1F
100
AcDbEntity
  8
AM_4
100
AcDbCircle
 10
2374.442587312017
 20
1353.04829851168
 30
0.0
 40
4.0
100
AcDbArc
 50
260.0
 51
170.0
  0
CIRCLE
  5
47DB
330
1F
100
AcDbEntity
  8
AM_0
100
AcDbCircle
 10
2374.442587312017
 20
1353.04829851168
 30
0.0
 40
3.323417653293459
  0
LINE
  5
47DC
330
1F
100
AcDbEntity
  8
AM_7
  6
AM_ISO08W050x2
100
AcDbLine
 10
2368.442587312018
 20
1353.04829851168
 30
0.0
 11
2380.442587312018
 21
1353.04829851168
 31
0.0
  0
LINE
  5
47DD
330
1F
100
AcDbEntity
  8
AM_7
  6
AM_ISO08W050x2
100
AcDbLine
 10
2374.442587312017
 20
1347.048298511681
 30
0.0
 11
2374.442587312017
 21
1359.04829851168
 31
0.0
  0
ARC
  5
47DE
330
1F
100
AcDbEntity
  8
AM_4
100
AcDbCircle
 10
2374.442587312017
 20
1383.04829851168
 30
0.0
 40
4.0
100
AcDbArc
 50
260.0
 51
170.0
  0
CIRCLE
  5
47DF
330
1F
100
AcDbEntity
  8
AM_0
100
AcDbCircle
 10
2374.442587312017
 20
1383.04829851168
 30
0.0
 40
3.323417653293459
  0
LINE
  5
47E0
330
1F
100
AcDbEntity
  8
AM_7
  6
AM_ISO08W050x2
100
AcDbLine
 10
2368.442587312018
 20
1383.04829851168
 30
0.0
 11
2380.442587312018
 21
1383.04829851168
 31
0.0
  0
LINE
  5
47E1
330
1F
100
AcDbEntity
  8
AM_7
  6
AM_ISO08W050x2
100
AcDbLine
 10
2374.442587312017
 20
1377.04829851168
 30
0.0
 11
2374.442587312017
 21
1389.048298511681
 31
0.0
  0
ARC
  5
47E2
330
1F
100
AcDbEntity
  8
AM_4
100
AcDbCircle
 10
2474.442587312018
 20
1383.04829851168
 30
0.0
 40
4.0
100
AcDbArc
 50
260.0
 51
170.0
  0
CIRCLE
  5
47E3
330
1F
100
AcDbEntity
  8
AM_0
100
AcDbCircle
 10
2474.442587312018
 20
1383.04829851168
 30
0.0
 40
3.323417653293459
  0
LINE
  5
47E4
330
1F
100
AcDbEntity
  8
AM_7
  6
AM_ISO08W050x2
100
AcDbLine
 10
2468.442587312018
 20
1383.04829851168
 30
0.0
 11
2480.442587312018
 21
1383.04829851168
 31
0.0
  0
LINE
  5
47E5
330
1F
100
AcDbEntity
  8
AM_7
  6
AM_ISO08W050x2
100
AcDbLine
 10
2474.442587312018
 20
1377.04829851168
 30
0.0
 11
2474.442587312018
 21
1389.048298511681
 31
0.0
  0
ARC
  5
47E6
330
1F
100
AcDbEntity
  8
AM_4
100
AcDbCircle
 10
2474.442587312018
 20
1353.04829851168
 30
0.0
 40
4.0
100
AcDbArc
 50
260.0
 51
170.0
  0
CIRCLE
  5
47E7
330
1F
100
AcDbEntity
  8
AM_0
100
AcDbCircle
 10
2474.442587312018
 20
1353.04829851168
 30
0.0
 40
3.323417653293459
  0
LINE
  5
47E8
330
1F
100
AcDbEntity
  8
AM_7
  6
AM_ISO08W050x2
100
AcDbLine
 10
2468.442587312018
 20
1353.04829851168
 30
0.0
 11
2480.442587312018
 21
1353.04829851168
 31
0.0
  0
LINE
  5
47E9
330
1F
100
AcDbEntity
  8
AM_7
  6
AM_ISO08W050x2
100
AcDbLine
 10
2474.442587312018
 20
1347.048298511681
 30
0.0
 11
2474.442587312018
 21
1359.04829851168
 31
0.0
  0
ARC
  5
47EA
330
1F
100
AcDbEntity
  8
AM_4
100
AcDbCircle
 10
2403.442587312018
 20
1351.04829851168
 30
0.0
 40
4.0
100
AcDbArc
 50
260.0
 51
170.0
  0
CIRCLE
  5
47EB
330
1F
100
AcDbEntity
  8
AM_0
100
AcDbCircle
 10
2403.442587312018
 20
1351.04829851168
 30
0.0
 40
3.323417653293459
  0
LINE
  5
47EC
330
1F
100
AcDbEntity
  8
AM_7
  6
AM_ISO08W050x2
100
AcDbLine
 10
2397.442587312017
 20
1351.04829851168
 30
0.0
 11
2409.442587312018
 21
1351.04829851168
 31
0.0
  0
LINE
  5
47ED
330
1F
100
AcDbEntity
  8
AM_7
  6
AM_ISO08W050x2
100
AcDbLine
 10
2403.442587312018
 20
1345.04829851168
 30
0.0
 11
2403.442587312018
 21
1357.048298511681
 31
0.0
  0
ARC
  5
47EE
330
1F
100
AcDbEntity
  8
AM_4
100
AcDbCircle
 10
2445.442587312018
 20
1351.04829851168
 30
0.0
 40
4.0
100
AcDbArc
 50
260.0
 51
170.0
  0
CIRCLE
  5
47EF
330
1F
100
AcDbEntity
  8
AM_0
100
AcDbCircle
 10
2445.442587312018
 20
1351.04829851168
 30
0.0
 40
3.323417653293459
  0
LINE
  5
47F0
330
1F
100
AcDbEntity
  8
AM_7
  6
AM_ISO08W050x2
100
AcDbLine
 10
2439.442587312018
 20
1351.04829851168
 30
0.0
 11
2451.442587312018
 21
1351.04829851168
 31
0.0
  0
LINE
  5
47F1
330
1F
100
AcDbEntity
  8
AM_7
  6
AM_ISO08W050x2
100
AcDbLine
 10
2445.442587312018
 20
1345.04829851168
 30
0.0
 11
2445.442587312018
 21
1357.048298511681
 31
0.0
  0
ARC
  5
47F2
330
1F
100
AcDbEntity
  8
AM_4
100
AcDbCircle
 10
2445.442587312018
 20
1373.048298511681
 30
0.0
 40
4.0
100
AcDbArc
 50
260.0
 51
170.0
  0
CIRCLE
  5
47F3
330
1F
100
AcDbEntity
  8
AM_0
100
AcDbCircle
 10
2445.442587312018
 20
1373.048298511681
 30
0.0
 40
3.323417653293459
  0
LINE
  5
47F4
330
1F
100
AcDbEntity
  8
AM_7
  6
AM_ISO08W050x2
100
AcDbLine
 10
2439.442587312018
 20
1373.048298511681
 30
0.0
 11
2451.442587312018
 21
1373.048298511681
 31
0.0
  0
LINE
  5
47F5
330
1F
100
AcDbEntity
  8
AM_7
  6
AM_ISO08W050x2
100
AcDbLine
 10
2445.442587312018
 20
1367.04829851168
 30
0.0
 11
2445.442587312018
 21
1379.048298511681
 31
0.0
  0
ARC
  5
47F6
330
1F
100
AcDbEntity
  8
AM_4
100
AcDbCircle
 10
2403.442587312018
 20
1373.048298511681
 30
0.0
 40
4.0
100
AcDbArc
 50
260.0
 51
170.0
  0
CIRCLE
  5
47F7
330
1F
100
AcDbEntity
  8
AM_0
100
AcDbCircle
 10
2403.442587312018
 20
1373.048298511681
 30
0.0
 40
3.323417653293459
  0
LINE
  5
47F8
330
1F
100
AcDbEntity
  8
AM_7
  6
AM_ISO08W050x2
100
AcDbLine
 10
2397.442587312017
 20
1373.048298511681
 30
0.0
 11
2409.442587312018
 21
1373.048298511681
 31
0.0
  0
LINE
  5
47F9
330
1F
100
AcDbEntity
  8
AM_7
  6
AM_ISO08W050x2
100
AcDbLine
 10
2403.442587312018
 20
1367.04829851168
 30
0.0
 11
2403.442587312018
 21
1379.048298511681
 31
0.0
  0
ARC
  5
47FA
330
1F
100
AcDbEntity
  8
AM_4
100
AcDbCircle
 10
2117.847121320781
 20
1490.304095240907
 30
0.0
 40
4.0
100
AcDbArc
 50
260.0
 51
170.0
  0
CIRCLE
  5
47FB
330
1F
100
AcDbEntity
  8
AM_0
100
AcDbCircle
 10
2117.847121320781
 20
1490.304095240907
 30
0.0
 40
3.323417653293459
  0
LINE
  5
47FC
330
1F
100
AcDbEntity
  8
AM_7
  6
AM_ISO08W050x2
100
AcDbLine
 10
2111.847121320781
 20
1490.304095240907
 30
0.0
 11
2123.847121320781
 21
1490.304095240907
 31
0.0
  0
LINE
  5
47FD
330
1F
100
AcDbEntity
  8
AM_7
  6
AM_ISO08W050x2
100
AcDbLine
 10
2117.847121320781
 20
1484.304095240907
 30
0.0
 11
2117.847121320781
 21
1496.304095240907
 31
0.0
  0
ARC
  5
47FE
330
1F
100
AcDbEntity
  8
AM_4
100
AcDbCircle
 10
2117.847121320781
 20
1460.304095240907
 30
0.0
 40
4.0
100
AcDbArc
 50
260.0
 51
170.0
  0
CIRCLE
  5
47FF
330
1F
100
AcDbEntity
  8
AM_0
100
AcDbCircle
 10
2117.847121320781
 20
1460.304095240907
 30
0.0
 40
3.323417653293459
  0
LINE
  5
4800
330
1F
100
AcDbEntity
  8
AM_7
  6
AM_ISO08W050x2
100
AcDbLine
 10
2111.847121320781
 20
1460.304095240907
 30
0.0
 11
2123.847121320781
 21
1460.304095240907
 31
0.0
  0
LINE
  5
4801
330
1F
100
AcDbEntity
  8
AM_7
  6
AM_ISO08W050x2
100
AcDbLine
 10
2117.847121320781
 20
1454.304095240907
 30
0.0
 11
2117.847121320781
 21
1466.304095240907
 31
0.0
  0
ARC
  5
4802
330
1F
100
AcDbEntity
  8
AM_4
100
AcDbCircle
 10
2213.847121320781
 20
1460.304095240907
 30
0.0
 40
4.0
100
AcDbArc
 50
260.0
 51
170.0
  0
CIRCLE
  5
4803
330
1F
100
AcDbEntity
  8
AM_0
100
AcDbCircle
 10
2213.847121320781
 20
1460.304095240907
 30
0.0
 40
3.323417653293459
  0
LINE
  5
4804
330
1F
100
AcDbEntity
  8
AM_7
  6
AM_ISO08W050x2
100
AcDbLine
 10
2207.847121320781
 20
1460.304095240907
 30
0.0
 11
2219.847121320781
 21
1460.304095240907
 31
0.0
  0
LINE
  5
4805
330
1F
100
AcDbEntity
  8
AM_7
  6
AM_ISO08W050x2
100
AcDbLine
 10
2213.847121320781
 20
1454.304095240907
 30
0.0
 11
2213.847121320781
 21
1466.304095240907
 31
0.0
  0
ARC
  5
4806
330
1F
100
AcDbEntity
  8
AM_4
100
AcDbCircle
 10
2213.847121320781
 20
1490.304095240907
 30
0.0
 40
4.0
100
AcDbArc
 50
260.0
 51
170.0
  0
CIRCLE
  5
4807
330
1F
100
AcDbEntity
  8
AM_0
100
AcDbCircle
 10
2213.847121320781
 20
1490.304095240907
 30
0.0
 40
3.323417653293459
  0
LINE
  5
4808
330
1F
100
AcDbEntity
  8
AM_7
  6
AM_ISO08W050x2
100
AcDbLine
 10
2207.847121320781
 20
1490.304095240907
 30
0.0
 11
2219.847121320781
 21
1490.304095240907
 31
0.0
  0
LINE
  5
4809
330
1F
100
AcDbEntity
  8
AM_7
  6
AM_ISO08W050x2
100
AcDbLine
 10
2213.847121320781
 20
1484.304095240907
 30
0.0
 11
2213.847121320781
 21
1496.304095240907
 31
0.0
  0
ARC
  5
480A
330
1F
100
AcDbEntity
  8
AM_4
100
AcDbCircle
 10
2125.847121320781
 20
1275.313698163458
 30
0.0
 40
4.0
100
AcDbArc
 50
260.0
 51
170.0
  0
CIRCLE
  5
480B
330
1F
100
AcDbEntity
  8
AM_0
100
AcDbCircle
 10
2125.847121320781
 20
1275.313698163458
 30
0.0
 40
3.323417653293459
  0
LINE
  5
480C
330
1F
100
AcDbEntity
  8
AM_7
  6
AM_ISO08W050x2
100
AcDbLine
 10
2119.847121320781
 20
1275.313698163458
 30
0.0
 11
2131.847121320781
 21
1275.313698163458
 31
0.0
  0
LINE
  5
480D
330
1F
100
AcDbEntity
  8
AM_7
  6
AM_ISO08W050x2
100
AcDbLine
 10
2125.847121320781
 20
1269.313698163458
 30
0.0
 11
2125.847121320781
 21
1281.313698163458
 31
0.0
  0
ARC
  5
480E
330
1F
100
AcDbEntity
  8
AM_4
100
AcDbCircle
 10
2125.847121320781
 20
1237.313698163458
 30
0.0
 40
4.0
100
AcDbArc
 50
260.0
 51
170.0
  0
CIRCLE
  5
480F
330
1F
100
AcDbEntity
  8
AM_0
100
AcDbCircle
 10
2125.847121320781
 20
1237.313698163458
 30
0.0
 40
3.323417653293459
  0
LINE
  5
4810
330
1F
100
AcDbEntity
  8
AM_7
  6
AM_ISO08W050x2
100
AcDbLine
 10
2119.847121320781
 20
1237.313698163458
 30
0.0
 11
2131.847121320781
 21
1237.313698163458
 31
0.0
  0
LINE
  5
4811
330
1F
100
AcDbEntity
  8
AM_7
  6
AM_ISO08W050x2
100
AcDbLine
 10
2125.847121320781
 20
1231.313698163458
 30
0.0
 11
2125.847121320781
 21
1243.313698163458
 31
0.0
  0
ARC
  5
4812
330
1F
100
AcDbEntity
  8
AM_4
100
AcDbCircle
 10
2205.847121320781
 20
1237.313698163458
 30
0.0
 40
4.0
100
AcDbArc
 50
260.0
 51
170.0
  0
CIRCLE
  5
4813
330
1F
100
AcDbEntity
  8
AM_0
100
AcDbCircle
 10
2205.847121320781
 20
1237.313698163458
 30
0.0
 40
3.323417653293459
  0
LINE
  5
4814
330
1F
100
AcDbEntity
  8
AM_7
  6
AM_ISO08W050x2
100
AcDbLine
 10
2199.847121320781
 20
1237.313698163458
 30
0.0
 11
2211.847121320781
 21
1237.313698163458
 31
0.0
  0
LINE
  5
4815
330
1F
100
AcDbEntity
  8
AM_7
  6
AM_ISO08W050x2
100
AcDbLine
 10
2205.847121320781
 20
1231.313698163458
 30
0.0
 11
2205.847121320781
 21
1243.313698163458
 31
0.0
  0
ARC
  5
4816
330
1F
100
AcDbEntity
  8
AM_4
100
AcDbCircle
 10
2205.847121320781
 20
1275.313698163458
 30
0.0
 40
4.0
100
AcDbArc
 50
260.0
 51
170.0
  0
CIRCLE
  5
4817
330
1F
100
AcDbEntity
  8
AM_0
100
AcDbCircle
 10
2205.847121320781
 20
1275.313698163458
 30
0.0
 40
3.323417653293459
  0
LINE
  5
4818
330
1F
100
AcDbEntity
  8
AM_7
  6
AM_ISO08W050x2
100
AcDbLine
 10
2199.847121320781
 20
1275.313698163458
 30
0.0
 11
2211.847121320781
 21
1275.313698163458
 31
0.0
  0
LINE
  5
4819
330
1F
100
AcDbEntity
  8
AM_7
  6
AM_ISO08W050x2
100
AcDbLine
 10
2205.847121320781
 20
1269.313698163458
 30
0.0
 11
2205.847121320781
 21
1281.313698163458
 31
0.0
  0
LINE
  5
481A
330
1F
100
AcDbEntity
  8
AM_7
100
AcDbLine
 10
2125.847121320781
 20
1256.313698163458
 30
0.0
 11
2137.847121320781
 21
1256.313698163458
 31
0.0
1001
GENIUS_GENOREF_13
1005
4824
  0
LINE
  5
481B
330
1F
100
AcDbEntity
  8
AM_7
100
AcDbLine
 10
2125.847121320781
 20
1256.313698163458
 30
0.0
 11
2125.847121320781
 21
1268.313698163458
 31
0.0
1001
GENIUS_GENOREF_13
1005
4824
  0
LINE
  5
481C
330
1F
100
AcDbEntity
  8
AM_7
100
AcDbLine
 10
2125.847121320781
 20
1256.313698163458
 30
0.0
 11
2113.847121320781
 21
1256.313698163458
 31
0.0
1001
GENIUS_GENOREF_13
1005
4824
  0
LINE
  5
481D
330
1F
100
AcDbEntity
  8
AM_7
100
AcDbLine
 10
2125.847121320781
 20
1256.313698163458
 30
0.0
 11
2125.847121320781
 21
1244.313698163458
 31
0.0
1001
GENIUS_GENOREF_13
1005
4824
  0
LINE
  5
481E
330
1F
100
AcDbEntity
  8
AM_7
100
AcDbLine
 10
2205.847121320781
 20
1256.313698163458
 30
0.0
 11
2217.847121320781
 21
1256.313698163458
 31
0.0
1001
GENIUS_GENOREF_13
1005
4823
  0
LINE
  5
481F
330
1F
100
AcDbEntity
  8
AM_7
100
AcDbLine
 10
2205.847121320781
 20
1256.313698163458
 30
0.0
 11
2205.847121320781
 21
1268.313698163458
 31
0.0
1001
GENIUS_GENOREF_13
1005
4823
  0
LINE
  5
4820
330
1F
100
AcDbEntity
  8
AM_7
100
AcDbLine
 10
2205.847121320781
 20
1256.313698163458
 30
0.0
 11
2193.847121320781
 21
1256.313698163458
 31
0.0
1001
GENIUS_GENOREF_13
1005
4823
  0
LINE
  5
4821
330
1F
100
AcDbEntity
  8
AM_7
100
AcDbLine
 10
2205.847121320781
 20
1256.313698163458
 30
0.0
 11
2205.847121320781
 21
1244.313698163458
 31
0.0
1001
GENIUS_GENOREF_13
1005
4823
  0
CIRCLE
  5
4822
330
1F
100
AcDbEntity
  8
0
100
AcDbCircle
 10
2165.847121320781
 20
1256.313698163458
 30
0.0
 40
17.0
  0
POINT
  5
4823
330
1F
100
AcDbEntity
  8
0
 60
     1
100
AcDbPoint
 10
0.0
 20
-368.0306176323311
 30
0.0
1001
GENIUS_GENODEF_13
1002
{
1000
HIER
1070
    10
1002
}
1002
{
1000
MANEDIT
1070
     0
1002
}
1002
{
1000
NOSEL
1070
     0
1002
}
1002
{
1000
BEHIND
1070
     0
1002
}
1002
{
1000
OTHER
1070
     0
1002
}
1002
{
1000
REACTOR
1002
}
1001
GENIUS_GENOENT_13
1002
{
1000
MYREF
1005
4823
1002
}
1002
{
1000
GRP
1005
0
1002
}
1001
GENIUS_GENOBJ-N-CRS_13
1002
{
1000
OWNER
1000
GEN
1002
}
1001
GENIUS_GENOLIS_13
1002
{
1000
ENT
1005
4821
1005
4820
1005
481F
1005
481E
1002
}
  0
POINT
  5
4824
330
1F
100
AcDbEntity
  8
0
 60
     1
100
AcDbPoint
 10
0.0
 20
-368.0306176323311
 30
0.0
1001
GENIUS_GENODEF_13
1002
{
1000
HIER
1070
    10
1002
}
1002
{
1000
MANEDIT
1070
     0
1002
}
1002
{
1000
NOSEL
1070
     0
1002
}
1002
{
1000
BEHIND
1070
     0
1002
}
1002
{
1000
OTHER
1070
     0
1002
}
1002
{
1000
REACTOR
1002
}
1001
GENIUS_GENOLIS_13
1002
{
1000
ENT
1005
481D
1005
481C
1005
481B
1005
481A
1002
}
1001
GENIUS_GENOBJ-N-CRS_13
1002
{
1000
OWNER
1000
GEN
1002
}
1001
GENIUS_GENOENT_13
1002
{
1000
MYREF
1005
4824
1002
}
1002
{
1000
GRP
1005
0
1002
}
  0
POINT
  5
4825
330
1F
100
AcDbEntity
  8
0
 60
     1
100
AcDbPoint
 10
0.0
 20
-368.0306176323311
 30
0.0
1001
GENIUS_GENODEF_13
1002
{
1000
HIER
1070
    10
1002
}
1002
{
1000
MANEDIT
1070
     0
1002
}
1002
{
1000
NOSEL
1070
     0
1002
}
1002
{
1000
BEHIND
1070
     0
1002
}
1002
{
1000
OTHER
1070
     0
1002
}
1002
{
1000
REACTOR
1002
}
1001
GENIUS_GENOLIS_13
1002
{
1000
ENT
1005
47D9
1005
47D8
1005
47D7
1005
47D6
1002
}
1001
GENIUS_GENOENT_13
1002
{
1000
MYREF
1005
4825
1002
}
1002
{
1000
GRP
1005
0
1002
}
1001
GENIUS_GENOBJ-N-CRS_13
1002
{
1000
OWNER
1000
GEN
1002
}
  0
POINT
  5
4826
330
1F
100
AcDbEntity
  8
0
 60
     1
100
AcDbPoint
 10
0.0
 20
-368.0306176323311
 30
0.0
1001
GENIUS_GENOENT_13
1002
{
1000
MYREF
1005
4826
1002
}
1002
{
1000
GRP
1005
0
1002
}
1001
GENIUS_GENOLIS_13
1002
{
1000
ENT
1005
47D5
1005
47D4
1005
47D3
1005
47D2
1002
}
1001
GENIUS_GENOBJ-N-CRS_13
1002
{
1000
OWNER
1000
GEN
1002
}
1001
GENIUS_GENODEF_13
1002
{
1000
HIER
1070
    10
1002
}
1002
{
1000
MANEDIT
1070
     0
1002
}
1002
{
1000
NOSEL
1070
     0
1002
}
1002
{
1000
BEHIND
1070
     0
1002
}
1002
{
1000
OTHER
1070
     0
1002
}
1002
{
1000
REACTOR
1002
}
  0
POINT
  5
4827
330
1F
100
AcDbEntity
  8
0
 60
     1
100
AcDbPoint
 10
0.0
 20
-368.0306176323311
 30
0.0
1001
GENIUS_GENOLIS_13
1002
{
1000
ENT
1005
47D1
1005
47D0
1005
47CF
1005
47CE
1002
}
1001
GENIUS_GENOENT_13
1002
{
1000
MYREF
1005
4827
1002
}
1002
{
1000
GRP
1005
0
1002
}
1001
GENIUS_GENODEF_13
1002
{
1000
HIER
1070
    10
1002
}
1002
{
1000
MANEDIT
1070
     0
1002
}
1002
{
1000
NOSEL
1070
     0
1002
}
1002
{
1000
BEHIND
1070
     0
1002
}
1002
{
1000
OTHER
1070
     0
1002
}
1002
{
1000
REACTOR
1002
}
1001
GENIUS_GENOBJ-N-CRS_13
1002
{
1000
OWNER
1000
GEN
1002
}
  0
POINT
  5
4828
330
1F
100
AcDbEntity
  8
0
 60
     1
100
AcDbPoint
 10
0.0
 20
-368.0306176323311
 30
0.0
1001
GENIUS_GENOBJ-N-CRS_13
1002
{
1000
OWNER
1000
GEN
1002
}
1001
GENIUS_GENODEF_13
1002
{
1000
HIER
1070
    10
1002
}
1002
{
1000
MANEDIT
1070
     0
1002
}
1002
{
1000
NOSEL
1070
     0
1002
}
1002
{
1000
BEHIND
1070
     0
1002
}
1002
{
1000
OTHER
1070
     0
1002
}
1002
{
1000
REACTOR
1002
}
1001
GENIUS_GENOLIS_13
1002
{
1000
ENT
1005
47CD
1005
47CC
1005
47CB
1005
47CA
1002
}
1001
GENIUS_GENOENT_13
1002
{
1000
MYREF
1005
4828
1002
}
1002
{
1000
GRP
1005
0
1002
}
  0
LINE
  5
4829
330
1F
100
AcDbEntity
  8
AM_VIS
100
AcDbLine
 10
2133.847121320781
 20
1329.548298511681
 30
0.0
 11
2133.847121320781
 21
1336.54829851168
 31
0.0
  0
LINE
  5
482A
330
1F
100
AcDbEntity
  8
AM_VIS
100
AcDbLine
 10
2133.847121320781
 20
1395.048298511681
 30
0.0
 11
2133.847121320781
 21
1397.048298511681
 31
0.0
  0
LINE
  5
482B
330
1F
100
AcDbEntity
  8
AM_VIS
100
AcDbLine
 10
2117.847121320781
 20
1329.548298511681
 30
0.0
 11
2117.847121320781
 21
1336.54829851168
 31
0.0
  0
LINE
  5
482C
330
1F
100
AcDbEntity
  8
AM_VIS
100
AcDbLine
 10
2117.847121320781
 20
1395.048298511681
 30
0.0
 11
2117.847121320781
 21
1397.048298511681
 31
0.0
  0
LINE
  5
482D
330
1F
100
AcDbEntity
  8
AM_VIS
100
AcDbLine
 10
2132.847121320781
 20
1328.54829851168
 30
0.0
 11
2133.847121320781
 21
1329.548298511681
 31
0.0
  0
LINE
  5
482E
330
1F
100
AcDbEntity
  8
AM_VIS
100
AcDbLine
 10
2118.847121320781
 20
1328.54829851168
 30
0.0
 11
2117.847121320781
 21
1329.548298511681
 31
0.0
  0
LINE
  5
482F
330
1F
100
AcDbEntity
  8
AM_VIS
100
AcDbLine
 10
2132.847121320781
 20
1328.54829851168
 30
0.0
 11
2118.847121320781
 21
1328.54829851168
 31
0.0
  0
LINE
  5
4830
330
1F
100
AcDbEntity
  8
AM_VIS
100
AcDbLine
 10
2213.847121320781
 20
1329.548298511681
 30
0.0
 11
2213.847121320781
 21
1336.54829851168
 31
0.0
  0
LINE
  5
4831
330
1F
100
AcDbEntity
  8
AM_VIS
100
AcDbLine
 10
2213.847121320781
 20
1395.048298511681
 30
0.0
 11
2213.847121320781
 21
1397.048298511681
 31
0.0
  0
LINE
  5
4832
330
1F
100
AcDbEntity
  8
AM_VIS
100
AcDbLine
 10
2197.847121320781
 20
1329.548298511681
 30
0.0
 11
2197.847121320781
 21
1336.54829851168
 31
0.0
  0
LINE
  5
4833
330
1F
100
AcDbEntity
  8
AM_VIS
100
AcDbLine
 10
2197.847121320781
 20
1395.048298511681
 30
0.0
 11
2197.847121320781
 21
1397.048298511681
 31
0.0
  0
LINE
  5
4834
330
1F
100
AcDbEntity
  8
AM_VIS
100
AcDbLine
 10
2212.847121320781
 20
1328.54829851168
 30
0.0
 11
2213.847121320781
 21
1329.548298511681
 31
0.0
  0
LINE
  5
4835
330
1F
100
AcDbEntity
  8
AM_VIS
100
AcDbLine
 10
2198.847121320781
 20
1328.54829851168
 30
0.0
 11
2197.847121320781
 21
1329.548298511681
 31
0.0
  0
LINE
  5
4836
330
1F
100
AcDbEntity
  8
AM_VIS
100
AcDbLine
 10
2212.847121320781
 20
1328.54829851168
 30
0.0
 11
2198.847121320781
 21
1328.54829851168
 31
0.0
  0
LINE
  5
4837
330
1F
100
AcDbEntity
  8
AM_VIS
100
AcDbLine
 10
2311.441173743832
 20
1329.548298511681
 30
0.0
 11
2311.441173743832
 21
1336.54829851168
 31
0.0
  0
LINE
  5
4838
330
1F
100
AcDbEntity
  8
AM_VIS
100
AcDbLine
 10
2311.441173743832
 20
1395.048298511681
 30
0.0
 11
2311.441173743832
 21
1397.048298511681
 31
0.0
  0
LINE
  5
4839
330
1F
100
AcDbEntity
  8
AM_VIS
100
AcDbLine
 10
2295.441173743832
 20
1329.548298511681
 30
0.0
 11
2295.441173743832
 21
1336.54829851168
 31
0.0
  0
LINE
  5
483A
330
1F
100
AcDbEntity
  8
AM_VIS
100
AcDbLine
 10
2295.441173743832
 20
1395.048298511681
 30
0.0
 11
2295.441173743832
 21
1397.048298511681
 31
0.0
  0
LINE
  5
483B
330
1F
100
AcDbEntity
  8
AM_VIS
100
AcDbLine
 10
2310.441173743832
 20
1328.54829851168
 30
0.0
 11
2311.441173743832
 21
1329.548298511681
 31
0.0
  0
LINE
  5
483C
330
1F
100
AcDbEntity
  8
AM_VIS
100
AcDbLine
 10
2296.441173743832
 20
1328.54829851168
 30
0.0
 11
2295.441173743832
 21
1329.548298511681
 31
0.0
  0
LINE
  5
483D
330
1F
100
AcDbEntity
  8
AM_VIS
100
AcDbLine
 10
2310.441173743832
 20
1328.54829851168
 30
0.0
 11
2296.441173743832
 21
1328.54829851168
 31
0.0
  0
LINE
  5
483E
330
1F
100
AcDbEntity
  8
AM_VIS
100
AcDbLine
 10
2392.442587312018
 20
1329.548298511681
 30
0.0
 11
2392.442587312018
 21
1336.54829851168
 31
0.0
  0
LINE
  5
483F
330
1F
100
AcDbEntity
  8
AM_VIS
100
AcDbLine
 10
2392.442587312018
 20
1395.048298511681
 30
0.0
 11
2392.442587312018
 21
1397.048298511681
 31
0.0
  0
LINE
  5
4840
330
1F
100
AcDbEntity
  8
AM_VIS
100
AcDbLine
 10
2376.442587312018
 20
1329.548298511681
 30
0.0
 11
2376.442587312018
 21
1336.54829851168
 31
0.0
  0
LINE
  5
4841
330
1F
100
AcDbEntity
  8
AM_VIS
100
AcDbLine
 10
2376.442587312018
 20
1395.048298511681
 30
0.0
 11
2376.442587312018
 21
1397.048298511681
 31
0.0
  0
LINE
  5
4842
330
1F
100
AcDbEntity
  8
AM_VIS
100
AcDbLine
 10
2391.442587312018
 20
1328.54829851168
 30
0.0
 11
2392.442587312018
 21
1329.548298511681
 31
0.0
  0
LINE
  5
4843
330
1F
100
AcDbEntity
  8
AM_VIS
100
AcDbLine
 10
2377.442587312017
 20
1328.54829851168
 30
0.0
 11
2376.442587312018
 21
1329.548298511681
 31
0.0
  0
LINE
  5
4844
330
1F
100
AcDbEntity
  8
AM_VIS
100
AcDbLine
 10
2391.442587312018
 20
1328.54829851168
 30
0.0
 11
2377.442587312017
 21
1328.54829851168
 31
0.0
  0
LINE
  5
4845
330
1F
100
AcDbEntity
  8
AM_VIS
100
AcDbLine
 10
2472.442587312018
 20
1329.548298511681
 30
0.0
 11
2472.442587312018
 21
1336.54829851168
 31
0.0
  0
LINE
  5
4846
330
1F
100
AcDbEntity
  8
AM_VIS
100
AcDbLine
 10
2472.442587312018
 20
1395.048298511681
 30
0.0
 11
2472.442587312018
 21
1397.048298511681
 31
0.0
  0
LINE
  5
4847
330
1F
100
AcDbEntity
  8
AM_VIS
100
AcDbLine
 10
2456.442587312018
 20
1329.548298511681
 30
0.0
 11
2456.442587312018
 21
1336.54829851168
 31
0.0
  0
LINE
  5
4848
330
1F
100
AcDbEntity
  8
AM_VIS
100
AcDbLine
 10
2456.442587312018
 20
1395.048298511681
 30
0.0
 11
2456.442587312018
 21
1397.048298511681
 31
0.0
  0
LINE
  5
4849
330
1F
100
AcDbEntity
  8
AM_VIS
100
AcDbLine
 10
2471.442587312018
 20
1328.54829851168
 30
0.0
 11
2472.442587312018
 21
1329.548298511681
 31
0.0
  0
LINE
  5
484A
330
1F
100
AcDbEntity
  8
AM_VIS
100
AcDbLine
 10
2457.442587312018
 20
1328.54829851168
 30
0.0
 11
2456.442587312018
 21
1329.548298511681
 31
0.0
  0
LINE
  5
484B
330
1F
100
AcDbEntity
  8
AM_VIS
100
AcDbLine
 10
2471.442587312018
 20
1328.54829851168
 30
0.0
 11
2457.442587312018
 21
1328.54829851168
 31
0.0
  0
DIMENSION
  5
484D
330
1F
100
AcDbEntity
  8
AM_5
100
AcDbDimension
  2
*D5
 10
2254.508698596202
 20
1704.578916144012
 30
0.0
 11
2254.508698596202
 21
1694.578916144012
 31
0.0
 70
   160
  1
L2
 71
     5
 42
20.0
  3
AM_ISO$0
100
AcDbAlignedDimension
 13
2214.847121320781
 23
1684.578916144012
 33
0.0
 14
2223.847121320781
 24
1704.578916144012
 34
0.0
 50
90.0
100
AcDbRotatedDimension
1001
ACAD
1000
DSTYLE
1002
{
1070
    40
1040
1.5
1070
   272
1070
     8
1002
}
  0
DIMENSION
  5
484E
330
1F
100
AcDbEntity
  8
AM_5
100
AcDbDimension
  2
*D6
 10
2240.508698596201
 20
1763.078916144012
 30
0.0
 11
2236.758698596201
 21
1733.828916144012
 31
0.0
 70
    32
  1
L1
 71
     5
 42
58.5
  3
AM_ISO$0
100
AcDbAlignedDimension
 13
2223.847121320781
 23
1704.578916144012
 33
0.0
 14
2223.847121320781
 24
1763.078916144012
 34
0.0
 50
90.0
100
AcDbRotatedDimension
1001
ACAD
1000
DSTYLE
1002
{
1070
    40
1040
1.5
1070
   144
1040
1.0
1070
   272
1070
     8
1002
}
  0
DIMENSION
  5
484F
330
1F
100
AcDbEntity
  8
AM_5
100
AcDbDimension
  2
*D7
 10
2254.508698596202
 20
1777.078916144011
 30
0.0
 11
2250.758698596201
 21
1740.828916144012
 31
0.0
 70
    32
  1
L
 71
     5
 42
72.5
  3
AM_ISO$0
100
AcDbAlignedDimension
 13
2223.847121320781
 23
1704.578916144012
 33
0.0
 14
2221.347121320781
 24
1777.078916144011
 34
0.0
 50
90.0
100
AcDbRotatedDimension
1001
ACAD
1000
DSTYLE
1002
{
1070
    40
1040
1.5
1070
   272
1070
     8
1002
}
  0
INSERT
  5
48CF
330
1F
100
AcDbEntity
  8
AM_5
100
AcDbBlockReference
  2
*S12
 10
0.0
 20
0.0
 30
0.0
  0
TEXT
  5
48D0
330
1F
100
AcDbEntity
  8
AM_5
100
AcDbText
 10
2069.513833195818
 20
1696.84254694761
 30
0.0
 40
4.5
  1
PT1/8
100
AcDbText
  0
DIMENSION
  5
48DE
330
1F
100
AcDbEntity
  8
AM_5
100
AcDbDimension
  2
*D8
 10
2254.508698596203
 20
1336.54829851168
 30
0.0
 11
2254.508698596202
 21
1332.548298511681
 31
0.0
 70
   160
  1
L2
 71
     5
 42
8.0
  3
AM_ISO$0
100
AcDbAlignedDimension
 13
2214.847121320781
 23
1328.54829851168
 33
0.0
 14
2223.847121320781
 24
1336.54829851168
 34
0.0
 50
90.0
100
AcDbRotatedDimension
1001
ACAD
1000
DSTYLE
1002
{
1070
    40
1040
1.5
1070
   272
1070
     8
1002
}
  0
DIMENSION
  5
48DF
330
1F
100
AcDbEntity
  8
AM_5
100
AcDbDimension
  2
*D9
 10
2240.508698596201
 20
1395.048298511681
 30
0.0
 11
2236.758698596201
 21
1365.798298511681
 31
0.0
 70
    32
  1
L1
 71
     5
 42
58.5
  3
AM_ISO$0
100
AcDbAlignedDimension
 13
2223.847121320781
 23
1336.54829851168
 33
0.0
 14
2223.847121320781
 24
1395.048298511681
 34
0.0
 50
90.0
100
AcDbRotatedDimension
1001
ACAD
1000
DSTYLE
1002
{
1070
    40
1040
1.5
1070
   144
1040
1.0
1070
   272
1070
     8
1002
}
  0
DIMENSION
  5
48E0
330
1F
100
AcDbEntity
  8
AM_5
100
AcDbDimension
  2
*D10
 10
2254.508698596202
 20
1409.048298511681
 30
0.0
 11
2250.758698596201
 21
1372.798298511681
 31
0.0
 70
    32
  1
L
 71
     5
 42
72.5
  3
AM_ISO$0
100
AcDbAlignedDimension
 13
2223.847121320781
 23
1336.54829851168
 33
0.0
 14
2221.347121320781
 24
1409.048298511681
 34
0.0
 50
90.0
100
AcDbRotatedDimension
1001
ACAD
1000
DSTYLE
1002
{
1070
    40
1040
1.5
1070
   272
1070
     8
1002
}
  0
INSERT
  5
48E1
330
1F
100
AcDbEntity
  8
AM_5
100
AcDbBlockReference
  2
*S13
 10
0.0
 20
0.0
 30
0.0
  0
TEXT
  5
48E2
330
1F
100
AcDbEntity
  8
AM_5
100
AcDbText
 10
2069.513833195818
 20
1328.811929315279
 30
0.0
 40
4.5
  1
PT1/8
100
AcDbText
  0
LINE
  5
49D6
330
1F
100
AcDbEntity
  8
0
100
AcDbLine
 10
2402.826493511707
 20
1851.793206377196
 30
0.0
 11
2462.826493511706
 21
1851.793206377196
 31
0.0
  0
LINE
  5
49D7
330
1F
100
AcDbEntity
  8
0
100
AcDbLine
 10
2402.826493511707
 20
1877.393206377196
 30
0.0
 11
2462.826493511706
 21
1877.393206377196
 31
0.0
  0
LINE
  5
49D8
330
1F
100
AcDbEntity
  8
0
100
AcDbLine
 10
2402.826493511707
 20
1870.993206377196
 30
0.0
 11
2462.826493511706
 21
1870.993206377196
 31
0.0
  0
LINE
  5
49D9
330
1F
100
AcDbEntity
  8
0
100
AcDbLine
 10
2402.826493511707
 20
1883.793206377196
 30
0.0
 11
2462.826493511706
 21
1883.793206377196
 31
0.0
  0
LINE
  5
49DA
330
1F
100
AcDbEntity
  8
0
100
AcDbLine
 10
2402.826493511707
 20
1819.793206377196
 30
0.0
 11
2462.826493511706
 21
1819.793206377196
 31
0.0
  0
LINE
  5
49DB
330
1F
100
AcDbEntity
  8
0
100
AcDbLine
 10
2402.826493511707
 20
1826.193206377196
 30
0.0
 11
2462.826493511706
 21
1826.193206377196
 31
0.0
  0
LINE
  5
49DC
330
1F
100
AcDbEntity
  8
0
100
AcDbLine
 10
2402.826493511707
 20
1832.593206377196
 30
0.0
 11
2462.826493511706
 21
1832.593206377196
 31
0.0
  0
LINE
  5
49DD
330
1F
100
AcDbEntity
  8
0
100
AcDbLine
 10
2402.826493511707
 20
1838.993206377196
 30
0.0
 11
2462.826493511706
 21
1838.993206377196
 31
0.0
  0
LINE
  5
49DE
330
1F
100
AcDbEntity
  8
0
100
AcDbLine
 10
2402.826493511707
 20
1845.393206377196
 30
0.0
 11
2462.826493511706
 21
1845.393206377196
 31
0.0
  0
LINE
  5
49DF
330
1F
100
AcDbEntity
  8
0
100
AcDbLine
 10
2402.826493511707
 20
1813.393206377196
 30
0.0
 11
2462.826493511706
 21
1813.393206377196
 31
0.0
  0
LINE
  5
49E0
330
1F
100
AcDbEntity
  8
0
100
AcDbLine
 10
2418.826493511707
 20
1883.793206377196
 30
0.0
 11
2418.826493511707
 21
1813.393206377196
 31
0.0
  0
LINE
  5
49E1
330
1F
100
AcDbEntity
  8
0
100
AcDbLine
 10
2434.826493511707
 20
1883.793206377196
 30
0.0
 11
2434.826493511707
 21
1813.393206377196
 31
0.0
  0
LINE
  5
49E2
330
1F
100
AcDbEntity
  8
0
100
AcDbLine
 10
2402.826493511707
 20
1883.793206377196
 30
0.0
 11
2402.826493511707
 21
1813.393206377196
 31
0.0
  0
TEXT
  5
49E3
330
1F
100
AcDbEntity
  8
0
100
AcDbText
 10
2407.740779225992
 20
1815.093206377196
 30
0.0
 40
3.0
  1
200
 41
0.8
  7
CHINESET
 72
     4
 11
2410.826493511706
 21
1816.593206377196
 31
0.0
100
AcDbText
  0
TEXT
  5
49E4
330
1F
100
AcDbEntity
  8
0
100
AcDbText
 10
2422.026493511706
 20
1815.093206377196
 30
0.0
 40
3.0
  1
247.5
 41
0.8
  7
CHINESET
 72
     4
 11
2426.826493511706
 21
1816.593206377196
 31
0.0
100
AcDbText
  0
TEXT
  5
49E5
330
1F
100
AcDbEntity
  8
0
100
AcDbText
 10
2407.969350654564
 20
1821.493206377196
 30
0.0
 40
3.0
  1
175
 41
0.8
  7
CHINESET
 72
     4
 11
2410.826493511706
 21
1822.993206377196
 31
0.0
100
AcDbText
  0
TEXT
  5
49E6
330
1F
100
AcDbEntity
  8
0
100
AcDbText
 10
2422.026493511706
 20
1821.493206377196
 30
0.0
 40
3.0
  1
222.5
 41
0.8
  7
CHINESET
 72
     4
 11
2426.826493511706
 21
1822.993206377196
 31
0.0
100
AcDbText
  0
TEXT
  5
49E7
330
1F
100
AcDbEntity
  8
0
100
AcDbText
 10
2407.969350654564
 20
1827.893206377196
 30
0.0
 40
3.0
  1
150
 41
0.8
  7
CHINESET
 72
     4
 11
2410.826493511706
 21
1829.393206377196
 31
0.0
100
AcDbText
  0
TEXT
  5
49E8
330
1F
100
AcDbEntity
  8
0
100
AcDbText
 10
2422.255064940278
 20
1827.893206377196
 30
0.0
 40
3.0
  1
197.5
 41
0.8
  7
CHINESET
 72
     4
 11
2426.826493511706
 21
1829.393206377196
 31
0.0
100
AcDbText
  0
TEXT
  5
49E9
330
1F
100
AcDbEntity
  8
0
100
AcDbText
 10
2407.969350654564
 20
1834.293206377196
 30
0.0
 40
3.0
  1
125
 41
0.8
  7
CHINESET
 72
     4
 11
2410.826493511706
 21
1835.793206377196
 31
0.0
100
AcDbText
  0
TEXT
  5
49EA
330
1F
100
AcDbEntity
  8
0
100
AcDbText
 10
2422.255064940278
 20
1834.293206377196
 30
0.0
 40
3.0
  1
172.5
 41
0.8
  7
CHINESET
 72
     4
 11
2426.826493511706
 21
1835.793206377196
 31
0.0
100
AcDbText
  0
TEXT
  5
49EB
330
1F
100
AcDbEntity
  8
0
100
AcDbText
 10
2407.969350654564
 20
1840.693206377196
 30
0.0
 40
3.0
  1
100
 41
0.8
  7
CHINESET
 72
     4
 11
2410.826493511706
 21
1842.193206377196
 31
0.0
100
AcDbText
  0
TEXT
  5
49EC
330
1F
100
AcDbEntity
  8
0
100
AcDbText
 10
2422.255064940278
 20
1840.693206377196
 30
0.0
 40
3.0
  1
147.5
 41
0.8
  7
CHINESET
 72
     4
 11
2426.826493511706
 21
1842.193206377196
 31
0.0
100
AcDbText
  0
TEXT
  5
49ED
330
1F
100
AcDbEntity
  8
0
100
AcDbText
 10
2408.883636368849
 20
1847.093206377196
 30
0.0
 40
3.0
  1
75
 41
0.8
  7
CHINESET
 72
     4
 11
2410.826493511706
 21
1848.593206377196
 31
0.0
100
AcDbText
  0
TEXT
  5
49EE
330
1F
100
AcDbEntity
  8
0
100
AcDbText
 10
2422.255064940278
 20
1847.093206377196
 30
0.0
 40
3.0
  1
122.5
 41
0.8
  7
CHINESET
 72
     4
 11
2426.826493511706
 21
1848.593206377196
 31
0.0
100
AcDbText
  0
TEXT
  5
49EF
330
1F
100
AcDbEntity
  8
0
100
AcDbText
 10
2408.883636368849
 20
1853.493206377196
 30
0.0
 40
3.0
  1
50
 41
0.8
  7
CHINESET
 72
     4
 11
2410.826493511706
 21
1854.993206377196
 31
0.0
100
AcDbText
  0
TEXT
  5
49F0
330
1F
100
AcDbEntity
  8
0
100
AcDbText
 10
2423.169350654564
 20
1853.493206377196
 30
0.0
 40
3.0
  1
97.5
 41
0.8
  7
CHINESET
 72
     4
 11
2426.826493511706
 21
1854.993206377196
 31
0.0
100
AcDbText
  0
TEXT
  5
49F1
330
1F
100
AcDbEntity
  8
0
100
AcDbText
 10
2408.883636368849
 20
1872.693206377196
 30
0.0
 40
3.0
  1
25
 41
0.8
  7
CHINESET
 72
     4
 11
2410.826493511706
 21
1874.193206377196
 31
0.0
100
AcDbText
  0
TEXT
  5
49F2
330
1F
100
AcDbEntity
  8
0
100
AcDbText
 10
2423.169350654564
 20
1872.693206377196
 30
0.0
 40
3.0
  1
72.5
 41
0.8
  7
CHINESET
 72
     4
 11
2426.826493511706
 21
1874.193206377196
 31
0.0
100
AcDbText
  0
TEXT
  5
49F4
330
1F
100
AcDbEntity
  8
0
100
AcDbText
 10
2425.226232775844
 20
1878.874045044441
 30
0.0
 40
3.0
  1
L
 41
0.8
  7
CHINESET
100
AcDbText
  0
LINE
  5
49F5
330
1F
100
AcDbEntity
  8
0
100
AcDbLine
 10
2418.826493511707
 20
1508.775320162835
 30
0.0
 11
2418.826493511707
 21
1438.375320162836
 31
0.0
  0
LINE
  5
49F6
330
1F
100
AcDbEntity
  8
0
100
AcDbLine
 10
2450.826493511707
 20
1508.775320162835
 30
0.0
 11
2450.826493511707
 21
1438.375320162836
 31
0.0
  0
LINE
  5
49F7
330
1F
100
AcDbEntity
  8
0
100
AcDbLine
 10
2434.826493511707
 20
1508.775320162835
 30
0.0
 11
2434.826493511707
 21
1438.375320162836
 31
0.0
  0
LINE
  5
49F8
330
1F
100
AcDbEntity
  8
0
100
AcDbLine
 10
2402.826493511707
 20
1508.775320162835
 30
0.0
 11
2402.826493511707
 21
1438.375320162836
 31
0.0
  0
LINE
  5
49F9
330
1F
100
AcDbEntity
  8
0
100
AcDbLine
 10
2450.826493511707
 20
1883.793206377196
 30
0.0
 11
2450.826493511707
 21
1813.393206377196
 31
0.0
  0
LINE
  5
49FA
330
1F
100
AcDbEntity
  8
0
100
AcDbLine
 10
2402.826493511707
 20
1444.775320162836
 30
0.0
 11
2462.826493511707
 21
1444.775320162836
 31
0.0
  0
LINE
  5
49FB
330
1F
100
AcDbEntity
  8
0
100
AcDbLine
 10
2402.826493511707
 20
1438.375320162836
 30
0.0
 11
2462.826493511707
 21
1438.375320162836
 31
0.0
  0
TEXT
  5
49FC
330
1F
100
AcDbEntity
  8
0
100
AcDbText
 10
2454.88363636885
 20
1815.093206377196
 30
0.0
 40
3.0
  1
42
 41
0.8
  7
CHINESET
 72
     4
 11
2456.826493511707
 21
1816.593206377196
 31
0.0
100
AcDbText
  0
TEXT
  5
49FD
330
1F
100
AcDbEntity
  8
0
100
AcDbText
 10
2438.026493511706
 20
1815.093206377196
 30
0.0
 40
3.0
  1
233.5
 41
0.8
  7
CHINESET
 72
     4
 11
2442.826493511706
 21
1816.593206377196
 31
0.0
100
AcDbText
  0
TEXT
  5
49FE
330
1F
100
AcDbEntity
  8
0
100
AcDbText
 10
2454.88363636885
 20
1821.493206377196
 30
0.0
 40
3.0
  1
42
 41
0.8
  7
CHINESET
 72
     4
 11
2456.826493511707
 21
1822.993206377196
 31
0.0
100
AcDbText
  0
TEXT
  5
49FF
330
1F
100
AcDbEntity
  8
0
100
AcDbText
 10
2438.026493511706
 20
1821.493206377196
 30
0.0
 40
3.0
  1
208.5
 41
0.8
  7
CHINESET
 72
     4
 11
2442.826493511706
 21
1822.993206377196
 31
0.0
100
AcDbText
  0
TEXT
  5
4A00
330
1F
100
AcDbEntity
  8
0
100
AcDbText
 10
2407.740779225993
 20
1440.075320162836
 30
0.0
 40
3.0
  1
200
 41
0.8
  7
CHINESET
 72
     4
 11
2410.826493511708
 21
1441.575320162836
 31
0.0
100
AcDbText
  0
TEXT
  5
4A01
330
1F
100
AcDbEntity
  8
0
100
AcDbText
 10
2422.026493511707
 20
1440.075320162836
 30
0.0
 40
3.0
  1
247.5
 41
0.8
  7
CHINESET
 72
     4
 11
2426.826493511707
 21
1441.575320162836
 31
0.0
100
AcDbText
  0
TEXT
  5
4A02
330
1F
100
AcDbEntity
  8
0
100
AcDbText
 10
2407.969350654564
 20
1446.475320162836
 30
0.0
 40
3.0
  1
175
 41
0.8
  7
CHINESET
 72
     4
 11
2410.826493511708
 21
1447.975320162836
 31
0.0
100
AcDbText
  0
TEXT
  5
4A03
330
1F
100
AcDbEntity
  8
0
100
AcDbText
 10
2422.026493511707
 20
1446.475320162836
 30
0.0
 40
3.0
  1
222.5
 41
0.8
  7
CHINESET
 72
     4
 11
2426.826493511707
 21
1447.975320162836
 31
0.0
100
AcDbText
  0
TEXT
  5
4A04
330
1F
100
AcDbEntity
  8
0
100
AcDbText
 10
2438.026493511707
 20
1440.075320162836
 30
0.0
 40
3.0
  1
233.5
 41
0.8
  7
CHINESET
 72
     4
 11
2442.826493511707
 21
1441.575320162836
 31
0.0
100
AcDbText
  0
TEXT
  5
4A05
330
1F
100
AcDbEntity
  8
0
100
AcDbText
 10
2454.88363636885
 20
1440.075320162836
 30
0.0
 40
3.0
  1
55
 41
0.8
  7
CHINESET
 72
     4
 11
2456.826493511707
 21
1441.575320162836
 31
0.0
100
AcDbText
  0
TEXT
  5
4A06
330
1F
100
AcDbEntity
  8
0
100
AcDbText
 10
2438.026493511707
 20
1446.475320162836
 30
0.0
 40
3.0
  1
208.5
 41
0.8
  7
CHINESET
 72
     4
 11
2442.826493511707
 21
1447.975320162836
 31
0.0
100
AcDbText
  0
TEXT
  5
4A07
330
1F
100
AcDbEntity
  8
0
100
AcDbText
 10
2454.88363636885
 20
1446.475320162836
 30
0.0
 40
3.0
  1
55
 41
0.8
  7
CHINESET
 72
     4
 11
2456.826493511707
 21
1447.975320162836
 31
0.0
100
AcDbText
  0
LINE
  5
4A08
330
1F
100
AcDbEntity
  8
0
100
AcDbLine
 10
2402.826493511707
 20
1476.775320162835
 30
0.0
 11
2462.826493511707
 21
1476.775320162835
 31
0.0
  0
LINE
  5
4A09
330
1F
100
AcDbEntity
  8
0
100
AcDbLine
 10
2402.826493511707
 20
1502.375320162835
 30
0.0
 11
2462.826493511707
 21
1502.375320162835
 31
0.0
  0
LINE
  5
4A0A
330
1F
100
AcDbEntity
  8
0
100
AcDbLine
 10
2402.826493511707
 20
1495.975320162836
 30
0.0
 11
2462.826493511707
 21
1495.975320162836
 31
0.0
  0
LINE
  5
4A0B
330
1F
100
AcDbEntity
  8
0
100
AcDbLine
 10
2402.826493511707
 20
1508.775320162835
 30
0.0
 11
2462.826493511707
 21
1508.775320162835
 31
0.0
  0
LINE
  5
4A0C
330
1F
100
AcDbEntity
  8
0
100
AcDbLine
 10
2402.826493511707
 20
1451.175320162836
 30
0.0
 11
2462.826493511707
 21
1451.175320162836
 31
0.0
  0
LINE
  5
4A0D
330
1F
100
AcDbEntity
  8
0
100
AcDbLine
 10
2402.826493511707
 20
1457.575320162836
 30
0.0
 11
2462.826493511707
 21
1457.575320162836
 31
0.0
  0
LINE
  5
4A0E
330
1F
100
AcDbEntity
  8
0
100
AcDbLine
 10
2402.826493511707
 20
1463.975320162836
 30
0.0
 11
2462.826493511707
 21
1463.975320162836
 31
0.0
  0
LINE
  5
4A0F
330
1F
100
AcDbEntity
  8
0
100
AcDbLine
 10
2402.826493511707
 20
1470.375320162836
 30
0.0
 11
2462.826493511707
 21
1470.375320162836
 31
0.0
  0
TEXT
  5
4A10
330
1F
100
AcDbEntity
  8
0
100
AcDbText
 10
2454.88363636885
 20
1827.893206377196
 30
0.0
 40
3.0
  1
42
 41
0.8
  7
CHINESET
 72
     4
 11
2456.826493511707
 21
1829.393206377196
 31
0.0
100
AcDbText
  0
TEXT
  5
4A11
330
1F
100
AcDbEntity
  8
0
100
AcDbText
 10
2438.255064940278
 20
1827.893206377196
 30
0.0
 40
3.0
  1
183.5
 41
0.8
  7
CHINESET
 72
     4
 11
2442.826493511706
 21
1829.393206377196
 31
0.0
100
AcDbText
  0
TEXT
  5
4A12
330
1F
100
AcDbEntity
  8
0
100
AcDbText
 10
2454.88363636885
 20
1834.293206377196
 30
0.0
 40
3.0
  1
42
 41
0.8
  7
CHINESET
 72
     4
 11
2456.826493511707
 21
1835.793206377196
 31
0.0
100
AcDbText
  0
TEXT
  5
4A13
330
1F
100
AcDbEntity
  8
0
100
AcDbText
 10
2438.255064940278
 20
1834.293206377196
 30
0.0
 40
3.0
  1
158.5
 41
0.8
  7
CHINESET
 72
     4
 11
2442.826493511706
 21
1835.793206377196
 31
0.0
100
AcDbText
  0
TEXT
  5
4A14
330
1F
100
AcDbEntity
  8
0
100
AcDbText
 10
2454.88363636885
 20
1840.693206377196
 30
0.0
 40
3.0
  1
20
 41
0.8
  7
CHINESET
 72
     4
 11
2456.826493511707
 21
1842.193206377196
 31
0.0
100
AcDbText
  0
TEXT
  5
4A15
330
1F
100
AcDbEntity
  8
0
100
AcDbText
 10
2438.255064940278
 20
1840.693206377196
 30
0.0
 40
3.0
  1
133.5
 41
0.8
  7
CHINESET
 72
     4
 11
2442.826493511706
 21
1842.193206377196
 31
0.0
100
AcDbText
  0
TEXT
  5
4A16
330
1F
100
AcDbEntity
  8
0
100
AcDbText
 10
2454.88363636885
 20
1847.093206377196
 30
0.0
 40
3.0
  1
20
 41
0.8
  7
CHINESET
 72
     4
 11
2456.826493511707
 21
1848.593206377196
 31
0.0
100
AcDbText
  0
TEXT
  5
4A17
330
1F
100
AcDbEntity
  8
0
100
AcDbText
 10
2438.255064940278
 20
1847.093206377196
 30
0.0
 40
3.0
  1
108.5
 41
0.8
  7
CHINESET
 72
     4
 11
2442.826493511706
 21
1848.593206377196
 31
0.0
100
AcDbText
  0
TEXT
  5
4A18
330
1F
100
AcDbEntity
  8
0
100
AcDbText
 10
2454.88363636885
 20
1853.493206377196
 30
0.0
 40
3.0
  1
20
 41
0.8
  7
CHINESET
 72
     4
 11
2456.826493511707
 21
1854.993206377196
 31
0.0
100
AcDbText
  0
TEXT
  5
4A19
330
1F
100
AcDbEntity
  8
0
100
AcDbText
 10
2439.169350654564
 20
1853.493206377196
 30
0.0
 40
3.0
  1
83.5
 41
0.8
  7
CHINESET
 72
     4
 11
2442.826493511706
 21
1854.993206377196
 31
0.0
100
AcDbText
  0
TEXT
  5
4A1A
330
1F
100
AcDbEntity
  8
0
100
AcDbText
 10
2454.88363636885
 20
1872.693206377196
 30
0.0
 40
3.0
  1
20
 41
0.8
  7
CHINESET
 72
     4
 11
2456.826493511707
 21
1874.193206377196
 31
0.0
100
AcDbText
  0
TEXT
  5
4A1B
330
1F
100
AcDbEntity
  8
0
100
AcDbText
 10
2439.169350654564
 20
1872.693206377196
 30
0.0
 40
3.0
  1
58.5
 41
0.8
  7
CHINESET
 72
     4
 11
2442.826493511706
 21
1874.193206377196
 31
0.0
100
AcDbText
  0
TEXT
  5
4A1C
330
1F
100
AcDbEntity
  8
0
100
AcDbText
 10
2454.332230365838
 20
1878.87404504444
 30
0.0
 40
3.0
  1
L
 41
0.8
  7
CHINESET
100
AcDbText
  0
TEXT
  5
4A1D
330
1F
100
AcDbEntity
  8
0
100
AcDbText
 10
2443.331307674703
 20
1878.901198550282
 30
0.0
 40
3.0
  1
1
 41
0.8
  7
CHINESET
100
AcDbText
  0
TEXT
  5
4A1E
330
1F
100
AcDbEntity
  8
0
100
AcDbText
 10
2440.36145155887
 20
1878.87404504444
 30
0.0
 40
3.0
  1
L
 41
0.8
  7
CHINESET
100
AcDbText
  0
TEXT
  5
4A1F
330
1F
100
AcDbEntity
  8
0
100
AcDbText
 10
2457.09277239993
 20
1878.904834984733
 30
0.0
 40
3.0
  1
2
 41
0.8
  7
CHINESET
100
AcDbText
  0
TEXT
  5
4A20
330
1F
100
AcDbEntity
  8
0
100
AcDbText
 10
2407.969350654564
 20
1452.875320162836
 30
0.0
 40
3.0
  1
150
 41
0.8
  7
CHINESET
 72
     4
 11
2410.826493511708
 21
1454.375320162836
 31
0.0
100
AcDbText
  0
TEXT
  5
4A21
330
1F
100
AcDbEntity
  8
0
100
AcDbText
 10
2422.255064940279
 20
1452.875320162836
 30
0.0
 40
3.0
  1
197.5
 41
0.8
  7
CHINESET
 72
     4
 11
2426.826493511707
 21
1454.375320162836
 31
0.0
100
AcDbText
  0
TEXT
  5
4A22
330
1F
100
AcDbEntity
  8
0
100
AcDbText
 10
2407.969350654564
 20
1459.275320162835
 30
0.0
 40
3.0
  1
125
 41
0.8
  7
CHINESET
 72
     4
 11
2410.826493511708
 21
1460.775320162835
 31
0.0
100
AcDbText
  0
TEXT
  5
4A23
330
1F
100
AcDbEntity
  8
0
100
AcDbText
 10
2422.255064940279
 20
1459.275320162835
 30
0.0
 40
3.0
  1
172.5
 41
0.8
  7
CHINESET
 72
     4
 11
2426.826493511707
 21
1460.775320162835
 31
0.0
100
AcDbText
  0
TEXT
  5
4A24
330
1F
100
AcDbEntity
  8
0
100
AcDbText
 10
2407.969350654564
 20
1465.675320162836
 30
0.0
 40
3.0
  1
100
 41
0.8
  7
CHINESET
 72
     4
 11
2410.826493511708
 21
1467.175320162836
 31
0.0
100
AcDbText
  0
TEXT
  5
4A25
330
1F
100
AcDbEntity
  8
0
100
AcDbText
 10
2422.255064940279
 20
1465.675320162836
 30
0.0
 40
3.0
  1
147.5
 41
0.8
  7
CHINESET
 72
     4
 11
2426.826493511707
 21
1467.175320162836
 31
0.0
100
AcDbText
  0
TEXT
  5
4A26
330
1F
100
AcDbEntity
  8
0
100
AcDbText
 10
2408.88363636885
 20
1472.075320162836
 30
0.0
 40
3.0
  1
75
 41
0.8
  7
CHINESET
 72
     4
 11
2410.826493511708
 21
1473.575320162836
 31
0.0
100
AcDbText
  0
TEXT
  5
4A27
330
1F
100
AcDbEntity
  8
0
100
AcDbText
 10
2422.255064940279
 20
1472.075320162836
 30
0.0
 40
3.0
  1
122.5
 41
0.8
  7
CHINESET
 72
     4
 11
2426.826493511707
 21
1473.575320162836
 31
0.0
100
AcDbText
  0
TEXT
  5
4A28
330
1F
100
AcDbEntity
  8
0
100
AcDbText
 10
2408.88363636885
 20
1478.475320162836
 30
0.0
 40
3.0
  1
50
 41
0.8
  7
CHINESET
 72
     4
 11
2410.826493511708
 21
1479.975320162836
 31
0.0
100
AcDbText
  0
TEXT
  5
4A29
330
1F
100
AcDbEntity
  8
0
100
AcDbText
 10
2423.169350654564
 20
1478.475320162836
 30
0.0
 40
3.0
  1
97.5
 41
0.8
  7
CHINESET
 72
     4
 11
2426.826493511707
 21
1479.975320162836
 31
0.0
100
AcDbText
  0
TEXT
  5
4A2A
330
1F
100
AcDbEntity
  8
0
100
AcDbText
 10
2408.88363636885
 20
1497.675320162836
 30
0.0
 40
3.0
  1
25
 41
0.8
  7
CHINESET
 72
     4
 11
2410.826493511708
 21
1499.175320162836
 31
0.0
100
AcDbText
  0
TEXT
  5
4A2B
330
1F
100
AcDbEntity
  8
0
100
AcDbText
 10
2423.169350654564
 20
1497.675320162836
 30
0.0
 40
3.0
  1
72.5
 41
0.8
  7
CHINESET
 72
     4
 11
2426.826493511707
 21
1499.175320162836
 31
0.0
100
AcDbText
  0
TEXT
  5
4A2D
330
1F
100
AcDbEntity
  8
0
100
AcDbText
 10
2425.226232775845
 20
1503.85615883008
 30
0.0
 40
3.0
  1
L
 41
0.8
  7
CHINESET
100
AcDbText
  0
TEXT
  5
4A2E
330
1F
100
AcDbEntity
  8
0
100
AcDbText
 10
2438.255064940279
 20
1452.875320162836
 30
0.0
 40
3.0
  1
183.5
 41
0.8
  7
CHINESET
 72
     4
 11
2442.826493511707
 21
1454.375320162836
 31
0.0
100
AcDbText
  0
TEXT
  5
4A2F
330
1F
100
AcDbEntity
  8
0
100
AcDbText
 10
2454.88363636885
 20
1452.875320162836
 30
0.0
 40
3.0
  1
55
 41
0.8
  7
CHINESET
 72
     4
 11
2456.826493511707
 21
1454.375320162836
 31
0.0
100
AcDbText
  0
TEXT
  5
4A30
330
1F
100
AcDbEntity
  8
0
100
AcDbText
 10
2438.255064940279
 20
1459.275320162835
 30
0.0
 40
3.0
  1
158.5
 41
0.8
  7
CHINESET
 72
     4
 11
2442.826493511707
 21
1460.775320162835
 31
0.0
100
AcDbText
  0
TEXT
  5
4A31
330
1F
100
AcDbEntity
  8
0
100
AcDbText
 10
2454.88363636885
 20
1459.275320162835
 30
0.0
 40
3.0
  1
55
 41
0.8
  7
CHINESET
 72
     4
 11
2456.826493511707
 21
1460.775320162835
 31
0.0
100
AcDbText
  0
TEXT
  5
4A32
330
1F
100
AcDbEntity
  8
0
100
AcDbText
 10
2438.255064940279
 20
1465.675320162836
 30
0.0
 40
3.0
  1
133.5
 41
0.8
  7
CHINESET
 72
     4
 11
2442.826493511707
 21
1467.175320162836
 31
0.0
100
AcDbText
  0
TEXT
  5
4A33
330
1F
100
AcDbEntity
  8
0
100
AcDbText
 10
2454.88363636885
 20
1465.675320162836
 30
0.0
 40
3.0
  1
42
 41
0.8
  7
CHINESET
 72
     4
 11
2456.826493511707
 21
1467.175320162836
 31
0.0
100
AcDbText
  0
TEXT
  5
4A34
330
1F
100
AcDbEntity
  8
0
100
AcDbText
 10
2438.255064940279
 20
1472.075320162836
 30
0.0
 40
3.0
  1
108.5
 41
0.8
  7
CHINESET
 72
     4
 11
2442.826493511707
 21
1473.575320162836
 31
0.0
100
AcDbText
  0
TEXT
  5
4A35
330
1F
100
AcDbEntity
  8
0
100
AcDbText
 10
2454.88363636885
 20
1472.075320162836
 30
0.0
 40
3.0
  1
42
 41
0.8
  7
CHINESET
 72
     4
 11
2456.826493511707
 21
1473.575320162836
 31
0.0
100
AcDbText
  0
TEXT
  5
4A36
330
1F
100
AcDbEntity
  8
0
100
AcDbText
 10
2439.169350654564
 20
1478.475320162836
 30
0.0
 40
3.0
  1
83.5
 41
0.8
  7
CHINESET
 72
     4
 11
2442.826493511707
 21
1479.975320162836
 31
0.0
100
AcDbText
  0
TEXT
  5
4A37
330
1F
100
AcDbEntity
  8
0
100
AcDbText
 10
2456.026493511707
 20
1478.475320162836
 30
0.0
 40
3.0
  1
8
 41
0.8
  7
CHINESET
 72
     4
 11
2456.826493511707
 21
1479.975320162836
 31
0.0
100
AcDbText
  0
TEXT
  5
4A38
330
1F
100
AcDbEntity
  8
0
100
AcDbText
 10
2439.169350654564
 20
1497.675320162836
 30
0.0
 40
3.0
  1
58.5
 41
0.8
  7
CHINESET
 72
     4
 11
2442.826493511707
 21
1499.175320162836
 31
0.0
100
AcDbText
  0
TEXT
  5
4A39
330
1F
100
AcDbEntity
  8
0
100
AcDbText
 10
2456.026493511707
 20
1497.675320162836
 30
0.0
 40
3.0
  1
8
 41
0.8
  7
CHINESET
 72
     4
 11
2456.826493511707
 21
1499.175320162836
 31
0.0
100
AcDbText
  0
TEXT
  5
4A3A
330
1F
100
AcDbEntity
  8
0
100
AcDbText
 10
2443.331307674703
 20
1503.883312335922
 30
0.0
 40
3.0
  1
1
 41
0.8
  7
CHINESET
100
AcDbText
  0
TEXT
  5
4A3B
330
1F
100
AcDbEntity
  8
0
100
AcDbText
 10
2440.36145155887
 20
1503.85615883008
 30
0.0
 40
3.0
  1
L
 41
0.8
  7
CHINESET
100
AcDbText
  0
TEXT
  5
4A3C
330
1F
100
AcDbEntity
  8
0
100
AcDbText
 10
2457.09277239993
 20
1503.886948770373
 30
0.0
 40
3.0
  1
2
 41
0.8
  7
CHINESET
100
AcDbText
  0
TEXT
  5
4A3D
330
1F
100
AcDbEntity
  8
0
100
AcDbText
 10
2454.332230365839
 20
1503.85615883008
 30
0.0
 40
3.0
  1
L
 41
0.8
  7
CHINESET
100
AcDbText
  0
LINE
  5
4A3E
330
1F
100
AcDbEntity
  8
0
100
AcDbLine
 10
2462.826493511706
 20
1883.793206377196
 30
0.0
 11
2462.826493511706
 21
1813.393206377196
 31
0.0
  0
LINE
  5
4A3F
330
1F
100
AcDbEntity
  8
0
100
AcDbLine
 10
2462.826493511707
 20
1508.775320162835
 30
0.0
 11
2462.826493511707
 21
1438.375320162836
 31
0.0
  0
LINE
  5
4A40
330
1F
100
AcDbEntity
  8
0
100
AcDbLine
 10
2402.826493511707
 20
1864.593206377196
 30
0.0
 11
2462.826493511706
 21
1864.593206377196
 31
0.0
  0
TEXT
  5
4A41
330
1F
100
AcDbEntity
  8
0
100
AcDbText
 10
2408.883636368849
 20
1866.293206377196
 30
0.0
 40
3.0
  1
30
 41
0.8
  7
CHINESET
 72
     4
 11
2410.826493511706
 21
1867.793206377196
 31
0.0
100
AcDbText
  0
TEXT
  5
4A42
330
1F
100
AcDbEntity
  8
0
100
AcDbText
 10
2423.169350654564
 20
1866.293206377196
 30
0.0
 40
3.0
  1
77.5
 41
0.8
  7
CHINESET
 72
     4
 11
2426.826493511706
 21
1867.793206377196
 31
0.0
100
AcDbText
  0
TEXT
  5
4A43
330
1F
100
AcDbEntity
  8
0
100
AcDbText
 10
2439.169350654564
 20
1866.293206377196
 30
0.0
 40
3.0
  1
63.5
 41
0.8
  7
CHINESET
 72
     4
 11
2442.826493511706
 21
1867.793206377196
 31
0.0
100
AcDbText
  0
TEXT
  5
4A44
330
1F
100
AcDbEntity
  8
0
100
AcDbText
 10
2454.88363636885
 20
1866.293206377196
 30
0.0
 40
3.0
  1
20
 41
0.8
  7
CHINESET
 72
     4
 11
2456.826493511707
 21
1867.793206377196
 31
0.0
100
AcDbText
  0
LINE
  5
4A45
330
1F
100
AcDbEntity
  8
0
100
AcDbLine
 10
2402.826493511707
 20
1858.193206377196
 30
0.0
 11
2462.826493511706
 21
1858.193206377196
 31
0.0
  0
TEXT
  5
4A46
330
1F
100
AcDbEntity
  8
0
100
AcDbText
 10
2408.883636368849
 20
1859.893206377196
 30
0.0
 40
3.0
  1
40
 41
0.8
  7
CHINESET
 72
     4
 11
2410.826493511706
 21
1861.393206377196
 31
0.0
100
AcDbText
  0
TEXT
  5
4A47
330
1F
100
AcDbEntity
  8
0
100
AcDbText
 10
2423.169350654564
 20
1859.893206377196
 30
0.0
 40
3.0
  1
87.5
 41
0.8
  7
CHINESET
 72
     4
 11
2426.826493511706
 21
1861.393206377196
 31
0.0
100
AcDbText
  0
TEXT
  5
4A48
330
1F
100
AcDbEntity
  8
0
100
AcDbText
 10
2439.169350654564
 20
1859.893206377196
 30
0.0
 40
3.0
  1
73.5
 41
0.8
  7
CHINESET
 72
     4
 11
2442.826493511706
 21
1861.393206377196
 31
0.0
100
AcDbText
  0
TEXT
  5
4A49
330
1F
100
AcDbEntity
  8
0
100
AcDbText
 10
2454.88363636885
 20
1859.893206377196
 30
0.0
 40
3.0
  1
20
 41
0.8
  7
CHINESET
 72
     4
 11
2456.826493511707
 21
1861.393206377196
 31
0.0
100
AcDbText
  0
LINE
  5
4A4A
330
1F
100
AcDbEntity
  8
0
100
AcDbLine
 10
2402.826493511707
 20
1483.175320162836
 30
0.0
 11
2462.826493511707
 21
1483.175320162836
 31
0.0
  0
LINE
  5
4A4B
330
1F
100
AcDbEntity
  8
0
100
AcDbLine
 10
2402.826493511707
 20
1489.575320162836
 30
0.0
 11
2462.826493511707
 21
1489.575320162836
 31
0.0
  0
TEXT
  5
4A4C
330
1F
100
AcDbEntity
  8
0
100
AcDbText
 10
2408.88363636885
 20
1491.275320162836
 30
0.0
 40
3.0
  1
30
 41
0.8
  7
CHINESET
 72
     4
 11
2410.826493511708
 21
1492.775320162836
 31
0.0
100
AcDbText
  0
TEXT
  5
4A4D
330
1F
100
AcDbEntity
  8
0
100
AcDbText
 10
2408.88363636885
 20
1484.875320162836
 30
0.0
 40
3.0
  1
40
 41
0.8
  7
CHINESET
 72
     4
 11
2410.826493511708
 21
1486.375320162836
 31
0.0
100
AcDbText
  0
TEXT
  5
4A4E
330
1F
100
AcDbEntity
  8
0
100
AcDbText
 10
2423.169350654564
 20
1491.275320162836
 30
0.0
 40
3.0
  1
77.5
 41
0.8
  7
CHINESET
 72
     4
 11
2426.826493511707
 21
1492.775320162836
 31
0.0
100
AcDbText
  0
TEXT
  5
4A4F
330
1F
100
AcDbEntity
  8
0
100
AcDbText
 10
2423.169350654564
 20
1484.875320162836
 30
0.0
 40
3.0
  1
87.5
 41
0.8
  7
CHINESET
 72
     4
 11
2426.826493511707
 21
1486.375320162836
 31
0.0
100
AcDbText
  0
TEXT
  5
4A50
330
1F
100
AcDbEntity
  8
0
100
AcDbText
 10
2439.169350654564
 20
1491.275320162836
 30
0.0
 40
3.0
  1
63.5
 41
0.8
  7
CHINESET
 72
     4
 11
2442.826493511707
 21
1492.775320162836
 31
0.0
100
AcDbText
  0
TEXT
  5
4A51
330
1F
100
AcDbEntity
  8
0
100
AcDbText
 10
2439.169350654564
 20
1484.875320162836
 30
0.0
 40
3.0
  1
73.5
 41
0.8
  7
CHINESET
 72
     4
 11
2442.826493511707
 21
1486.375320162836
 31
0.0
100
AcDbText
  0
TEXT
  5
4A52
330
1F
100
AcDbEntity
  8
0
100
AcDbText
 10
2456.026493511707
 20
1491.275320162836
 30
0.0
 40
3.0
  1
8
 41
0.8
  7
CHINESET
 72
     4
 11
2456.826493511707
 21
1492.775320162836
 31
0.0
100
AcDbText
  0
TEXT
  5
4A53
330
1F
100
AcDbEntity
  8
0
100
AcDbText
 10
2456.026493511707
 20
1484.875320162836
 30
0.0
 40
3.0
  1
8
 41
0.8
  7
CHINESET
 72
     4
 11
2456.826493511707
 21
1486.375320162836
 31
0.0
100
AcDbText
  0
TEXT
  5
4AFC
330
1F
100
AcDbEntity
  8
0
100
AcDbText
 10
2319.447373362248
 20
1878.692176418674
 30
0.0
 40
5.740720128000002
  1
Model : MCGB-03
 41
0.8
  7
CHINESET
100
AcDbText
  0
TEXT
  5
4AFD
330
1F
100
AcDbEntity
  8
0
100
AcDbText
 10
2319.447373362248
 20
1868.415636330967
 30
0.0
 40
5.740720128000002
  1
Tube I.D. : %%C32
 41
0.8
  7
CHINESET
100
AcDbText
  0
TEXT
  5
4AFE
330
1F
100
AcDbEntity
  8
0
100
AcDbText
 10
2319.447373362248
 20
1858.528790183189
 30
0.0
 40
5.740720128000002
  1
Stroke : 25
 41
0.8
  7
CHINESET
100
AcDbText
  0
TEXT
  5
4AFF
330
1F
100
AcDbEntity
  8
0
100
AcDbText
 10
2404.206108691455
 20
1879.176845509741
 30
0.0
 40
3.5
  1
Stroke
 41
0.8
  7
CHINESET
100
AcDbText
  0
TEXT
  5
4B06
330
1F
100
AcDbEntity
  8
0
100
AcDbText
 10
2319.447373362248
 20
1503.674290204314
 30
0.0
 40
5.740720128000002
  1
Model : MCGB-23
 41
0.8
  7
CHINESET
100
AcDbText
  0
TEXT
  5
4B07
330
1F
100
AcDbEntity
  8
0
100
AcDbText
 10
2319.447373362248
 20
1493.397750116607
 30
0.0
 40
5.740720128000002
  1
Tube I.D. : %%C32
 41
0.8
  7
CHINESET
100
AcDbText
  0
TEXT
  5
4B08
330
1F
100
AcDbEntity
  8
0
100
AcDbText
 10
2319.447373362248
 20
1483.510903968828
 30
0.0
 40
5.740720128000002
  1
Stroke : 25
 41
0.8
  7
CHINESET
100
AcDbText
  0
TEXT
  5
4B0B
330
1F
100
AcDbEntity
  8
0
100
AcDbText
 10
2404.206108691456
 20
1504.15895929538
 30
0.0
 40
3.5
  1
Stroke
 41
0.8
  7
CHINESET
100
AcDbText
  0
CIRCLE
  5
4B16
330
1F
100
AcDbEntity
  8
0
100
AcDbCircle
 10
2398.62619563801
 20
1874.251194698064
 30
0.0
 40
1.690375069165384
  0
CIRCLE
  5
4B17
330
1F
100
AcDbEntity
  8
0
100
AcDbCircle
 10
2398.626195638011
 20
1499.233308483703
 30
0.0
 40
1.690375069165384
  0
TEXT
  5
4B51
330
1F
100
AcDbEntity
  8
0
100
AcDbText
 10
1970.593093626279
 20
1920.091509180687
 30
0.0
 40
8.611080192000002
  1
Slide bearing type
 41
0.8
  7
CHINESET
100
AcDbText
  0
TEXT
  5
4B55
330
1F
100
AcDbEntity
  8
0
100
AcDbText
 10
1970.593093626279
 20
1545.073622966327
 30
0.0
 40
8.611080192000002
  1
Linear bush bearing type
 41
0.8
  7
CHINESET
100
AcDbText
  0
LWPOLYLINE
  5
4C8F
330
1F
100
AcDbEntity
  8
LOGO
 62
     4
100
AcDbPolyline
 90
        4
 70
     1
 43
0.0
 10
1960.579553207196
 20
1187.504375673715
 10
2530.547793816399
 20
1187.504375673715
 10
2530.547793816399
 20
1138.711441737062
 10
1960.579553207196
 20
1138.711441737062
1001
GENIUS_GENREC_14
1002
{
1000
PYDIR
1011
1960.579553207196
1021
1138.711441737062
1031
0.0
1002
}
1002
{
1000
PXDIR
1011
2530.547793816399
1021
1187.504375673715
1031
0.0
1002
}
1002
{
1000
PORI
1011
1960.579553207196
1021
1187.504375673715
1031
0.0
1002
}
1002
{
1000
PINS
1011
1960.579553207196
1021
1187.504375673715
1031
0.0
1002
}
1002
{
1000
PINS2
1011
2530.547793816399
1021
1138.711441737062
1031
0.0
1002
}
1002
{
1000
C
1070
     1
1002
}
1001
GENIUS_GENOBJ-N-REC_13
1002
{
1000
OWNER
1000
GEN
1002
}
1001
GENIUS_GENODEF_13
1002
{
1000
HIER
1070
     0
1002
}
1002
{
1000
MANEDIT
1070
     0
1002
}
1002
{
1000
NOSEL
1070
     0
1002
}
1002
{
1000
BEHIND
1070
     0
1002
}
1002
{
1000
OTHER
1070
     0
1002
}
1002
{
1000
REACTOR
1002
}
  0
TEXT
  5
4C90
330
1F
100
AcDbEntity
  8
LOGO
 62
     7
100
AcDbText
 10
2070.750767240042
 20
1166.129021598786
 30
0.0
 40
6.505724524886876
  1
Order example:
 41
0.8
  7
CHINESET
100
AcDbText
  0
TEXT
  5
4C91
330
1F
100
AcDbEntity
  8
LOGO
 62
     7
100
AcDbText
 10
2071.917948019959
 20
1175.287734702376
 30
0.0
 40
9.758586787330315
  1
訂購代號：
  7
CHINESET
100
AcDbText
  0
LINE
  5
4C92
330
1F
100
AcDbEntity
  8
LOGO
 62
     4
100
AcDbLine
 10
2067.92400786783
 20
1138.711441737063
 30
0.0
 11
2067.92400786783
 21
1187.504375673715
 31
0.0
  0
TEXT
  5
4C93
330
1F
100
AcDbEntity
  8
LOGO
  6
Continuous
100
AcDbText
 10
1978.106194405724
 20
1148.296739973961
 30
0.0
 40
7.318940090497737
  1
金器工業股份有限公司
  7
CHINESET
100
AcDbText
  0
TEXT
  5
4C94
330
1F
100
AcDbEntity
  8
LOGO
  6
Continuous
100
AcDbText
 10
1964.662749440368
 20
1140.976365945032
 30
0.0
 40
4.879293393665157
  1
MINDMAN INDUSTRIAL CO., LTD.
 41
0.85
  7
CHINESET
100
AcDbText
  0
LINE
  5
4C95
330
1F
100
AcDbEntity
  8
LOGO
 62
     4
100
AcDbLine
 10
2067.92400786783
 20
1177.745788886384
 30
0.0
 11
1996.361038094073
 21
1177.745788886384
 31
0.0
  0
LINE
  5
4C96
330
1F
100
AcDbEntity
  8
LOGO
 62
     4
100
AcDbLine
 10
2067.92400786783
 20
1167.987202099054
 30
0.0
 11
1996.361038094073
 21
1167.987202099054
 31
0.0
  0
LINE
  5
4C97
330
1F
100
AcDbEntity
  8
LOGO
 62
     4
100
AcDbLine
 10
2067.92400786783
 20
1158.228615311724
 30
0.0
 11
1960.579553207196
 21
1158.228615311724
 31
0.0
  0
LINE
  5
4C98
330
1F
100
AcDbEntity
  8
LOGO
 62
     4
100
AcDbLine
 10
1996.361038094073
 20
1158.228615311724
 30
0.0
 11
1996.361038094073
 21
1187.504375673715
 31
0.0
  0
TEXT
  5
4C99
330
1F
100
AcDbEntity
  8
LOGO
100
AcDbText
 10
2045.270950213712
 20
1160.668262008556
 30
0.0
 40
4.879293393665157
  1
mm
  7
CHINESET
 72
     1
 11
2051.311980129678
 21
1163.107908705389
 31
0.0
100
AcDbText
 73
     2
  0
TEXT
  5
4C9A
330
1F
100
AcDbEntity
  8
LOGO
100
AcDbText
 10
2042.715129864649
 20
1180.185435583217
 30
0.0
 40
4.879293393665157
  1
1 : 1
  7
CHINESET
 72
     1
 11
2051.311980129678
 21
1182.625082280049
 31
0.0
100
AcDbText
 73
     2
  0
LINE
  5
4C9B
330
1F
100
AcDbEntity
  8
LOGO
 62
     4
100
AcDbLine
 10
2035.395385243395
 20
1158.228615311724
 30
0.0
 11
2035.395385243395
 21
1187.504375673715
 31
0.0
  0
CIRCLE
  5
4C9C
330
1F
100
AcDbEntity
  8
LOGO
  6
Continuous
100
AcDbCircle
 10
2044.430007254136
 20
1172.876932336994
 30
0.0
 40
2.83303258998234
  0
CIRCLE
  5
4C9D
330
1F
100
AcDbEntity
  8
LOGO
  6
Continuous
100
AcDbCircle
 10
2044.430007254136
 20
1172.876932336994
 30
0.0
 40
1.659906303544056
  0
LINE
  5
4C9E
330
1F
100
AcDbEntity
  8
LOGO
100
AcDbLine
 10
2062.233112780786
 20
1170.043899747011
 30
0.0
 11
2062.233112780786
 21
1175.709964926977
 31
0.0
  0
LINE
  5
4C9F
330
1F
100
AcDbEntity
  8
LOGO
100
AcDbLine
 10
2053.35171823502
 20
1171.217026033451
 30
0.0
 11
2053.35171823502
 21
1174.536838640539
 31
0.0
  0
LINE
  5
4CA0
330
1F
100
AcDbEntity
  8
LOGO
  6
Continuous
100
AcDbLine
 10
2053.35171823502
 20
1174.536838640539
 30
0.0
 11
2062.233112780786
 21
1175.709964926977
 31
0.0
  0
LINE
  5
4CA1
330
1F
100
AcDbEntity
  8
LOGO
  6
Continuous
100
AcDbLine
 10
2053.35171823502
 20
1171.217026033451
 30
0.0
 11
2062.233112780786
 21
1170.043899747011
 31
0.0
  0
TEXT
  5
4CA2
330
1F
100
AcDbEntity
  8
LOGO
100
AcDbText
 10
2000.384276887869
 20
1180.18783681028
 30
319.7808508545215
 40
4.879293393665157
  1
比例 Scale:
 41
0.9
  7
CHINESET
 72
     4
 11
2015.878211668735
 21
1182.625082280049
 31
319.7808508545215
100
AcDbText
  0
TEXT
  5
4CA3
330
1F
100
AcDbEntity
  8
LOGO
100
AcDbText
 10
2000.103281866537
 20
1170.49548386946
 30
319.7808508545215
 40
4.879293393665157
  1
投影  View:
 41
0.9
  7
CHINESET
 72
     4
 11
2015.878211668735
 21
1172.866495492719
 31
319.7808508545215
100
AcDbText
  0
TEXT
  5
4CA4
330
1F
100
AcDbEntity
  8
LOGO
100
AcDbText
 10
2000.580319926007
 20
1160.668262008556
 30
319.7808508545215
 40
4.879293393665157
  1
單位  Unit:
 41
0.9
  7
CHINESET
 72
     4
 11
2015.878211668735
 21
1163.107908705389
 31
319.7808508545215
100
AcDbText
  0
SOLID
  5
4CA5
330
1F
100
AcDbEntity
  8
LOGO
 62
     5
100
AcDbTrace
 10
1965.641898409827
 20
1166.339746065967
 30
0.0
 11
1967.751576840589
 21
1166.339746065967
 31
0.0
 12
1976.554028224113
 22
1186.345317392161
 32
0.0
 13
1978.663706654876
 23
1186.34531739216
 33
0.0
  0
SOLID
  5
4CA6
330
1F
100
AcDbEntity
  8
LOGO
 62
     5
100
AcDbTrace
 10
1968.624547225734
 20
1166.339746065967
 30
0.0
 11
1970.734225656496
 21
1166.339746065967
 31
0.0
 12
1978.663706654876
 22
1184.744871686064
 32
0.0
 13
1976.554028224113
 23
1177.009384106603
 33
0.0
  0
SOLID
  5
4CA7
330
1F
100
AcDbEntity
  8
LOGO
 62
     2
100
AcDbTrace
 10
1967.751576840589
 20
1166.339746065967
 30
0.0
 11
1968.624547225734
 21
1166.339746065967
 31
0.0
 12
1978.663706654876
 22
1186.34531739216
 32
0.0
 13
1979.536677040021
 23
1186.34531739216
 33
0.0
  0
SOLID
  5
4CA8
330
1F
100
AcDbEntity
  8
LOGO
 62
     5
100
AcDbTrace
 10
1962.25956652879
 20
1159.064992856443
 30
0.0
 11
1962.987041849744
 21
1159.064992856443
 31
0.0
 12
1965.035668975699
 22
1162.702369461205
 32
0.0
 13
1965.763144296651
 23
1162.702369461205
 33
0.0
  0
SOLID
  5
4CA9
330
1F
100
AcDbEntity
  8
LOGO
 62
     5
100
AcDbTrace
 10
1965.035668975699
 20
1162.702369461205
 30
0.0
 11
1965.763144296651
 21
1162.702369461205
 31
0.0
 12
1965.035668975699
 22
1159.064992856443
 32
0.0
 13
1965.763144296651
 23
1159.064992856443
 33
0.0
  0
SOLID
  5
4CAA
330
1F
100
AcDbEntity
  8
LOGO
 62
     5
100
AcDbTrace
 10
1965.035668975699
 20
1159.064992856443
 30
0.0
 11
1965.763144296651
 21
1159.064992856443
 31
0.0
 12
1967.81177142261
 22
1162.702369461205
 32
0.0
 13
1968.539246743562
 23
1162.702369461205
 33
0.0
  0
SOLID
  5
4CAB
330
1F
100
AcDbEntity
  8
LOGO
 62
     5
100
AcDbTrace
 10
1967.81177142261
 20
1162.702369461205
 30
0.0
 11
1968.539246743562
 21
1162.702369461205
 31
0.0
 12
1967.81177142261
 22
1159.064992856443
 32
0.0
 13
1968.539246743562
 23
1159.064992856443
 33
0.0
  0
POLYLINE
  5
4CAC
330
1F
100
AcDbEntity
  8
LOGO
 62
     5
100
AcDb2dPolyline
 66
     1
 10
0.0
 20
0.0
 30
0.0
 40
0.7286411467873302
 41
0.7286411467873302
  0
VERTEX
  5
4CAD
330
4CAC
100
AcDbEntity
  8
LOGO
 62
     5
100
AcDbVertex
100
AcDb2dVertex
 10
1992.196496363344
 20
1161.2474188193
 30
0.0
 42
1.0
  0
VERTEX
  5
4CAE
330
4CAC
100
AcDbEntity
  8
LOGO
 62
     5
100
AcDbVertex
100
AcDb2dVertex
 10
1990.010572922983
 20
1161.2474188193
 30
0.0
 42
1.0
  0
SEQEND
  5
4CAF
330
4CAC
100
AcDbEntity
  8
LOGO
 62
     5
  0
POLYLINE
  5
4CB0
330
1F
100
AcDbEntity
  8
LOGO
 62
     5
100
AcDb2dPolyline
 66
     1
 10
0.0
 20
0.0
 30
0.0
 70
     1
  0
VERTEX
  5
4CB1
330
4CB0
100
AcDbEntity
  8
LOGO
 62
     5
100
AcDbVertex
100
AcDb2dVertex
 10
1985.890010008025
 20
1160.883681158823
 30
0.0
 42
1.000000057330635
  0
VERTEX
  5
4CB2
330
4CB0
100
AcDbEntity
  8
LOGO
 62
     5
100
AcDbVertex
100
AcDb2dVertex
 10
1988.072435970881
 20
1160.883681158823
 30
0.0
 42
1.000000057330635
  0
SEQEND
  5
4CB3
330
4CB0
100
AcDbEntity
  8
LOGO
 62
     5
  0
CIRCLE
  5
4CB4
330
1F
100
AcDbEntity
  8
LOGO
 62
     5
100
AcDbCircle
 10
1986.981222989455
 20
1160.883681158823
 30
0.0
 40
1.091212981428705
  0
POLYLINE
  5
4CB5
330
1F
100
AcDbEntity
  8
LOGO
 62
     5
100
AcDb2dPolyline
 66
     1
 10
0.0
 20
0.0
 30
0.0
 70
     1
 40
0.7286411467873302
 41
0.7286411467873302
  0
VERTEX
  5
4CB6
330
4CB5
100
AcDbEntity
  8
LOGO
 62
     5
100
AcDbVertex
100
AcDb2dVertex
 10
1985.52394069588
 20
1160.883681158823
 30
0.0
 42
1.0
  0
VERTEX
  5
4CB7
330
4CB5
100
AcDbEntity
  8
LOGO
 62
     5
100
AcDbVertex
100
AcDb2dVertex
 10
1988.438505283029
 20
1160.883681158823
 30
0.0
 42
1.0
  0
SEQEND
  5
4CB8
330
4CB5
100
AcDbEntity
  8
LOGO
 62
     5
  0
LINE
  5
4CB9
330
1F
100
AcDbEntity
  8
LOGO
100
AcDbLine
 10
1992.558485285067
 20
1159.064992856443
 30
0.0
 11
1992.558485285067
 21
1161.2474188193
 31
0.0
  0
SOLID
  5
4CBA
330
1F
100
AcDbEntity
  8
LOGO
 62
     5
100
AcDbTrace
 10
1988.072363223354
 20
1162.702369461205
 30
0.0
 11
1988.799838544304
 21
1162.702369461205
 31
0.0
 12
1988.072363223354
 22
1159.064992856443
 32
0.0
 13
1988.799838544304
 23
1159.064992856443
 33
0.0
  0
SOLID
  5
4CBB
330
1F
100
AcDbEntity
  8
LOGO
 62
     5
100
AcDbTrace
 10
1989.648584001258
 20
1159.064992856443
 30
0.0
 11
1990.376059322211
 21
1159.064992856443
 31
0.0
 12
1989.648584001258
 22
1162.702369461205
 32
0.0
 13
1990.376059322211
 23
1162.702369461205
 33
0.0
  0
SOLID
  5
4CBC
330
1F
100
AcDbEntity
  8
LOGO
 62
     5
100
AcDbTrace
 10
1991.831009964117
 20
1161.2474188193
 30
0.0
 11
1992.558485285067
 21
1161.2474188193
 31
0.0
 12
1991.831009964117
 22
1159.064992856443
 32
0.0
 13
1992.558485285067
 23
1159.064992856443
 33
0.0
  0
SOLID
  5
4CBD
330
1F
100
AcDbEntity
  8
LOGO
 62
     5
100
AcDbTrace
 10
1989.575836469162
 20
1184.744871686064
 30
0.0
 11
1987.466158038402
 21
1177.009384106603
 31
0.0
 12
1989.575836469162
 22
1166.339746065967
 32
0.0
 13
1987.466158038402
 23
1166.339746065967
 33
0.0
  0
SOLID
  5
4CBE
330
1F
100
AcDbEntity
  8
LOGO
 62
     5
100
AcDbTrace
 10
1990.448806854307
 20
1166.339746065967
 30
0.0
 11
1992.558485285067
 21
1166.339746065967
 31
0.0
 12
1990.448806854307
 22
1186.34531739216
 32
0.0
 13
1992.558485285067
 23
1186.345317392161
 33
0.0
  0
SOLID
  5
4CBF
330
1F
100
AcDbEntity
  8
LOGO
 62
     2
100
AcDbTrace
 10
1989.575836469162
 20
1186.345317392161
 30
0.0
 11
1990.448806854307
 21
1186.34531739216
 31
0.0
 12
1989.575836469162
 22
1166.339746065967
 32
0.0
 13
1990.448806854307
 23
1166.339746065967
 33
0.0
  0
POLYLINE
  5
4CC0
330
1F
100
AcDbEntity
  8
LOGO
 62
     5
100
AcDb2dPolyline
 66
     1
 10
0.0
 20
0.0
 30
0.0
 40
0.7286411467873302
 41
0.7286411467873302
  0
VERTEX
  5
4CC1
330
4CC0
100
AcDbEntity
  8
LOGO
 62
     5
100
AcDbVertex
100
AcDb2dVertex
 10
1981.769301598005
 20
1161.2474188193
 30
0.0
 42
1.0
  0
VERTEX
  5
4CC2
330
4CC0
100
AcDbEntity
  8
LOGO
 62
     5
100
AcDbVertex
100
AcDb2dVertex
 10
1979.583378157643
 20
1161.2474188193
 30
0.0
 42
1.0
  0
SEQEND
  5
4CC3
330
4CC0
100
AcDbEntity
  8
LOGO
 62
     5
  0
POLYLINE
  5
4CC4
330
1F
100
AcDbEntity
  8
LOGO
 62
     5
100
AcDb2dPolyline
 66
     1
 10
0.0
 20
0.0
 30
0.0
 40
0.7286411467873302
 41
0.7286411467873302
  0
VERTEX
  5
4CC5
330
4CC4
100
AcDbEntity
  8
LOGO
 62
     5
100
AcDbVertex
100
AcDb2dVertex
 10
1983.951727560861
 20
1161.2474188193
 30
0.0
 42
1.0
  0
VERTEX
  5
4CC6
330
4CC4
100
AcDbEntity
  8
LOGO
 62
     5
100
AcDbVertex
100
AcDb2dVertex
 10
1981.7658041205
 20
1161.2474188193
 30
0.0
 42
1.0
  0
SEQEND
  5
4CC7
330
4CC4
100
AcDbEntity
  8
LOGO
 62
     5
  0
POLYLINE
  5
4CC8
330
1F
100
AcDbEntity
  8
LOGO
 62
     5
100
AcDb2dPolyline
 66
     1
 10
0.0
 20
0.0
 30
0.0
 40
0.7286411467873302
 41
0.7286411467873302
  0
VERTEX
  5
4CC9
330
4CC8
100
AcDbEntity
  8
LOGO
 62
     5
100
AcDbVertex
100
AcDb2dVertex
 10
1973.524532795521
 20
1161.2474188193
 30
0.0
 42
1.0
  0
VERTEX
  5
4CCA
330
4CC8
100
AcDbEntity
  8
LOGO
 62
     5
100
AcDbVertex
100
AcDb2dVertex
 10
1971.33860935516
 20
1161.2474188193
 30
0.0
 42
1.0
  0
SEQEND
  5
4CCB
330
4CC8
100
AcDbEntity
  8
LOGO
 62
     5
  0
SOLID
  5
4CCC
330
1F
100
AcDbEntity
  8
LOGO
 62
     5
100
AcDbTrace
 10
1970.976620433435
 20
1162.702369461205
 30
0.0
 11
1971.704095754387
 21
1162.702369461205
 31
0.0
 12
1970.976620433435
 22
1159.064992856443
 32
0.0
 13
1971.704095754387
 23
1159.064992856443
 33
0.0
  0
SOLID
  5
4CCD
330
1F
100
AcDbEntity
  8
LOGO
 62
     5
100
AcDbTrace
 10
1973.159046396293
 20
1161.2474188193
 30
0.0
 11
1973.886521717246
 21
1161.2474188193
 31
0.0
 12
1973.159046396293
 22
1159.064992856443
 32
0.0
 13
1973.886521717246
 23
1159.064992856443
 33
0.0
  0
POLYLINE
  5
4CCE
330
1F
100
AcDbEntity
  8
LOGO
 62
     5
100
AcDb2dPolyline
 66
     1
 10
0.0
 20
0.0
 30
0.0
 70
     1
 40
0.7286411467873302
 41
0.7286411467873302
  0
VERTEX
  5
4CCF
330
4CCE
100
AcDbEntity
  8
LOGO
 62
     5
100
AcDbVertex
100
AcDb2dVertex
 10
1975.096745930537
 20
1160.883681158823
 30
0.0
 42
1.0
  0
VERTEX
  5
4CD0
330
4CCE
100
AcDbEntity
  8
LOGO
 62
     5
100
AcDbVertex
100
AcDb2dVertex
 10
1978.011310517689
 20
1160.883681158823
 30
0.0
 42
1.0
  0
SEQEND
  5
4CD1
330
4CCE
100
AcDbEntity
  8
LOGO
 62
     5
  0
SOLID
  5
4CD2
330
1F
100
AcDbEntity
  8
LOGO
 62
     5
100
AcDbTrace
 10
1977.645168458012
 20
1163.793582442634
 30
0.0
 11
1978.372643778964
 21
1163.793582442634
 31
0.0
 12
1977.645168458012
 22
1159.064992856443
 32
0.0
 13
1978.372643778964
 23
1159.064992856443
 33
0.0
  0
SOLID
  5
4CD3
330
1F
100
AcDbEntity
  8
LOGO
 62
     5
100
AcDbTrace
 10
1979.221389235921
 20
1162.702369461205
 30
0.0
 11
1979.94886455687
 21
1162.702369461205
 31
0.0
 12
1979.221389235921
 22
1159.064992856443
 32
0.0
 13
1979.94886455687
 23
1159.064992856443
 33
0.0
  0
SOLID
  5
4CD4
330
1F
100
AcDbEntity
  8
LOGO
 62
     5
100
AcDbTrace
 10
1981.403815198775
 20
1161.2474188193
 30
0.0
 11
1982.131290519729
 21
1161.2474188193
 31
0.0
 12
1981.403815198775
 22
1159.064992856443
 32
0.0
 13
1982.131290519729
 23
1159.064992856443
 33
0.0
  0
SOLID
  5
4CD5
330
1F
100
AcDbEntity
  8
LOGO
 62
     5
100
AcDbTrace
 10
1983.586241161633
 20
1161.2474188193
 30
0.0
 11
1984.313716482586
 21
1161.2474188193
 31
0.0
 12
1983.586241161633
 22
1159.064992856442
 32
0.0
 13
1984.313716482586
 23
1159.064992856442
 33
0.0
  0
SOLID
  5
4CD6
330
1F
100
AcDbEntity
  8
LOGO
 62
     5
100
AcDbTrace
 10
1969.400399655528
 20
1163.211602185872
 30
0.0
 11
1970.127874976482
 21
1163.211602185872
 31
0.0
 12
1969.400399655528
 22
1163.793582442634
 32
0.0
 13
1970.127874976482
 23
1163.793582442634
 33
0.0
  0
SOLID
  5
4CD7
330
1F
100
AcDbEntity
  8
LOGO
 62
     5
100
AcDbTrace
 10
1969.400399655528
 20
1162.702369461205
 30
0.0
 11
1970.127874976482
 21
1162.702369461205
 31
0.0
 12
1969.400399655528
 22
1159.064992856442
 32
0.0
 13
1970.127874976482
 23
1159.064992856443
 33
0.0
  0
SOLID
  5
4CD8
330
1F
100
AcDbEntity
  8
LOGO
 62
     5
100
AcDbTrace
 10
1976.554028224113
 20
1166.339746065967
 30
0.0
 11
1978.663706654876
 21
1166.339746065967
 31
0.0
 12
1976.554028224113
 22
1177.009384106603
 32
0.0
 13
1978.663706654876
 23
1184.744871686064
 33
0.0
  0
SOLID
  5
4CD9
330
1F
100
AcDbEntity
  8
LOGO
 62
     5
100
AcDbTrace
 10
1979.536677040021
 20
1186.34531739216
 30
0.0
 11
1981.64635547078
 21
1186.345317392161
 31
0.0
 12
1979.536677040021
 22
1167.940191772062
 32
0.0
 13
1981.64635547078
 23
1175.675679351524
 33
0.0
  0
SOLID
  5
4CDA
330
1F
100
AcDbEntity
  8
LOGO
 62
     2
100
AcDbTrace
 10
1978.663706654876
 20
1186.34531739216
 30
0.0
 11
1979.536677040021
 21
1186.34531739216
 31
0.0
 12
1978.663706654876
 22
1166.339746065967
 32
0.0
 13
1979.536677040021
 23
1166.339746065967
 33
0.0
  0
SOLID
  5
4CDB
330
1F
100
AcDbEntity
  8
LOGO
 62
     5
100
AcDbTrace
 10
1979.536677040021
 20
1167.940191772062
 30
0.0
 11
1981.64635547078
 21
1175.675679351524
 31
0.0
 12
1989.575836469162
 22
1186.345317392161
 32
0.0
 13
1987.466158038402
 23
1186.345317392161
 33
0.0
  0
SOLID
  5
4CDC
330
1F
100
AcDbEntity
  8
LOGO
 62
     5
100
AcDbTrace
 10
1979.536677040021
 20
1166.339746065967
 30
0.0
 11
1981.64635547078
 21
1166.339746065967
 31
0.0
 12
1989.575836469162
 22
1184.744871686064
 32
0.0
 13
1987.466158038402
 23
1177.009384106603
 33
0.0
  0
SOLID
  5
4CDD
330
1F
100
AcDbEntity
  8
LOGO
 62
     2
100
AcDbTrace
 10
1978.663706654876
 20
1166.339746065967
 30
0.0
 11
1979.536677040021
 21
1166.339746065967
 31
0.0
 12
1989.575836469162
 22
1186.345317392161
 32
0.0
 13
1990.448806854307
 23
1186.34531739216
 33
0.0
  0
TEXT
  5
4CDE
330
1F
100
AcDbEntity
  8
LOGO
100
AcDbText
 10
2070.266088043783
 20
1141.307206564231
 30
0.0
 40
4.879999999999999
  1
10607166
 41
0.7
  7
CHINESET
 72
     1
 11
2082.059421377117
 21
1141.307206564231
 31
0.0
100
AcDbText
  0
LINE
  5
4CDF
330
1F
100
AcDbEntity
  8
LOGO
 62
     4
100
AcDbLine
 10
2097.204007867828
 20
1148.470028524394
 30
0.0
 11
2097.20400786783
 21
1138.711441737064
 31
0.0
  0
LINE
  5
4CE0
330
1F
100
AcDbEntity
  8
LOGO
 62
     4
100
AcDbLine
 10
2097.204007867828
 20
1148.470028524394
 30
0.0
 11
2067.92400786783
 21
1148.470028524394
 31
0.0
  0
LINE
  5
4CE1
330
1F
100
AcDbEntity
  8
LOGO
  6
AM_ISO08W050x2
 48
0.3
100
AcDbLine
 10
2040.524629407524
 20
1172.876932336994
 30
0.0
 11
2048.33538510075
 21
1172.876932336994
 31
0.0
1001
GENIUS_GENOREF_13
1005
4CE6
  0
LINE
  5
4CE2
330
1F
100
AcDbEntity
  8
LOGO
  6
AM_ISO08W050x2
 48
0.3
100
AcDbLine
 10
2044.430007254136
 20
1168.971554490381
 30
0.0
 11
2044.430007254136
 21
1176.782310183607
 31
0.0
1001
GENIUS_GENOREF_13
1005
4CE5
  0
LINE
  5
4CE3
330
1F
100
AcDbEntity
  8
LOGO
  6
CENTER
 48
0.5
100
AcDbLine
 10
2052.641453528567
 20
1172.876932336994
 30
0.0
 11
2063.127440460988
 21
1172.876932336994
 31
0.0
1001
GENIUS_GENOREF_13
1005
4CE4
  0
POINT
  5
4CE4
330
1F
100
AcDbEntity
  8
0
 60
     1
100
AcDbPoint
 10
-111.7616065327861
 20
200.5781394313366
 30
0.0
1001
GENIUS_GENOBJ-N-CRS_13
1002
{
1000
OWNER
1000
GEN
1002
}
1001
GENIUS_GENOLIS_13
1002
{
1000
ENT
1005
0
1005
0
1005
0
1005
4CE3
1002
}
1001
GENIUS_GENOENT_13
1002
{
1000
MYREF
1005
4CE4
1002
}
1002
{
1000
GRP
1005
0
1002
}
1001
GENIUS_GENODEF_13
1002
{
1000
HIER
1070
    10
1002
}
1002
{
1000
MANEDIT
1070
     1
1002
}
1002
{
1000
NOSEL
1070
     0
1002
}
1002
{
1000
BEHIND
1070
     0
1002
}
1002
{
1000
OTHER
1070
     0
1002
}
1002
{
1000
REACTOR
1002
}
  0
POINT
  5
4CE5
330
1F
100
AcDbEntity
  8
0
 60
     1
100
AcDbPoint
 10
-123.0861917556408
 20
209.4537259099728
 30
0.0
1001
GENIUS_GENOBJ-N-CRS_13
1002
{
1000
OWNER
1000
GEN
1002
}
1001
GENIUS_GENOLIS_13
1002
{
1000
ENT
1005
0
1005
0
1005
0
1005
4CE2
1002
}
1001
GENIUS_GENOENT_13
1002
{
1000
MYREF
1005
4CE5
1002
}
1002
{
1000
GRP
1005
0
1002
}
1001
GENIUS_GENODEF_13
1002
{
1000
HIER
1070
    10
1002
}
1002
{
1000
MANEDIT
1070
     1
1002
}
1002
{
1000
NOSEL
1070
     0
1002
}
1002
{
1000
BEHIND
1070
     0
1002
}
1002
{
1000
OTHER
1070
     0
1002
}
1002
{
1000
REACTOR
1002
}
  0
POINT
  5
4CE6
330
1F
100
AcDbEntity
  8
0
 60
     1
100
AcDbPoint
 10
-116.727518057804
 20
200.5781394313366
 30
0.0
1001
GENIUS_GENOBJ-N-CRS_13
1002
{
1000
OWNER
1000
GEN
1002
}
1001
GENIUS_GENOLIS_13
1002
{
1000
ENT
1005
0
1005
0
1005
0
1005
4CE1
1002
}
1001
GENIUS_GENOENT_13
1002
{
1000
MYREF
1005
4CE6
1002
}
1002
{
1000
GRP
1005
0
1002
}
1001
GENIUS_GENODEF_13
1002
{
1000
HIER
1070
    10
1002
}
1002
{
1000
MANEDIT
1070
     1
1002
}
1002
{
1000
NOSEL
1070
     0
1002
}
1002
{
1000
BEHIND
1070
     0
1002
}
1002
{
1000
OTHER
1070
     0
1002
}
1002
{
1000
REACTOR
1002
}
  0
ENDSEC
  0
SECTION
  2
OBJECTS
  0
DICTIONARY
  5
C
330
0
100
AcDbDictionary
281
     1
  3
ACAD_COLOR
350
BE
  3
ACAD_GROUP
350
D
  3
ACAD_LAYOUT
350
1A
  3
ACAD_MATERIAL
350
BD
  3
ACAD_MLINESTYLE
350
17
  3
ACAD_PLOTSETTINGS
350
19
  3
ACAD_PLOTSTYLENAME
350
E
  3
ACAD_TABLESTYLE
350
11A
  3
ACDBHEADERROUNDTRIPXREC
350
4D46
  3
AcDbVariableDictionary
350
94
  3
AcmDictionary
350
5B
  3
AMG
350
41
  3
AMGSNAPSETTINGS
350
1B8
  3
DWGPROPS
350
4D45
  0
DICTIONARY
  5
3F9
330
2
100
AcDbDictionary
280
     1
281
     1
  3
ACAD_LAYERFILTERS
360
5B7
  3
ACAD_LAYERSTATES
360
7CF
  3
ACLYDICTIONARY
360
5B6
  0
DICTIONARY
  5
8F
330
1F
100
AcDbDictionary
280
     1
281
     1
  3
ACAD_SORTENTS
360
2489
  0
DICTIONARY
  5
BE
102
{ACAD_REACTORS
330
C
102
}
330
C
100
AcDbDictionary
281
     1
  0
DICTIONARY
  5
D
102
{ACAD_REACTORS
330
C
102
}
330
C
100
AcDbDictionary
281
     1
  0
DICTIONARY
  5
1A
102
{ACAD_REACTORS
330
C
102
}
330
C
100
AcDbDictionary
281
     1
  3
Model
350
22
  3
配置1
350
1E
  3
配置2
350
26
  0
DICTIONARY
  5
BD
102
{ACAD_REACTORS
330
C
102
}
330
C
100
AcDbDictionary
281
     1
  0
DICTIONARY
  5
17
102
{ACAD_REACTORS
330
C
102
}
330
C
100
AcDbDictionary
281
     1
  3
Standard
350
18
  0
DICTIONARY
  5
19
102
{ACAD_REACTORS
330
C
102
}
330
C
100
AcDbDictionary
281
     1
  0
ACDBDICTIONARYWDFLT
  5
E
102
{ACAD_REACTORS
330
C
102
}
330
C
100
AcDbDictionary
281
     1
  3
Normal
350
F
100
AcDbDictionaryWithDefault
340
F
  0
DICTIONARY
  5
11A
102
{ACAD_REACTORS
330
C
102
}
330
C
100
AcDbDictionary
281
     1
  3
Standard
350
11B
  0
DICTIONARY
  5
4D46
102
{ACAD_REACTORS
330
C
102
}
330
C
100
AcDbDictionary
281
     1
  0
DICTIONARY
  5
94
102
{ACAD_REACTORS
330
C
102
}
330
C
100
AcDbDictionary
281
     1
  3
CTABLESTYLE
350
138
  3
DIMASSOC
350
96
  3
INDEXCTL
350
95
  3
PROJECTNAME
350
4D43
  0
DICTIONARY
  5
5B
102
{ACAD_REACTORS
330
C
102
}
330
C
100
AcDbDictionary
281
     1
  3
AcmBOM
350
1B5
  3
AcmStdDictionary
350
61
  3
AMDTSECTSYM_ARROWCOLOR
350
123
  0
DICTIONARY
  5
41
102
{ACAD_REACTORS
330
C
102
}
330
C
100
AcDbDictionary
281
     1
  0
DICTIONARY
  5
1B8
102
{ACAD_REACTORS
330
C
102
}
330
C
100
AcDbDictionary
281
     1
  0
XRECORD
  5
4D45
102
{ACAD_REACTORS
330
C
102
}
330
C
100
AcDbXrecord
280
     1
  1
DWGPROPS COOKIE
  2

  3

  4

  6

  7

  8

  9

300
AmdtFileType=84
301
=
302
=
303
=
304
=
305
=
306
=
307
=
308
=
309
=
 40
0.3877137384259259
 41
2453595.458965741
 42
2453942.681301169
  1

 90
        1
  0
DICTIONARY
  5
5B7
102
{ACAD_REACTORS
330
3F9
102
}
330
3F9
100
AcDbDictionary
281
     1
  0
DICTIONARY
  5
7CF
102
{ACAD_REACTORS
330
3F9
102
}
330
3F9
100
AcDbDictionary
281
     1
  0
DICTIONARY
  5
5B6
102
{ACAD_REACTORS
330
3F9
102
}
330
3F9
100
AcDbDictionary
281
     1
1001
ACAD
1000
<All
  0
SORTENTSTABLE
  5
2489
102
{ACAD_REACTORS
330
8F
102
}
330
8F
100
AcDbSortentsTable
330
1F
331
42D5
  5
42D5
331
DF0
  5
DF0
331
42DD
  5
42DD
331
DF8
  5
DF8
331
E00
  5
E00
331
42AE
  5
42AE
331
4328
  5
4328
331
42E9
  5
42E9
331
441C
  5
441C
331
4453
  5
4453
331
4330
  5
4330
331
4367
  5
4367
331
42F1
  5
42F1
331
4424
  5
4424
331
446B
  5
446B
331
43AE
  5
43AE
331
43E5
  5
43E5
331
4338
  5
4338
331
436F
  5
436F
331
42F9
  5
42F9
331
4473
  5
4473
331
44C2
  5
44C2
331
43ED
  5
43ED
331
4377
  5
4377
331
4340
  5
4340
331
442C
  5
442C
331
44D2
  5
44D2
331
4434
  5
4434
331
447B
  5
447B
331
43BE
  5
43BE
331
43F5
  5
43F5
331
437F
  5
437F
331
E08
  5
E08
331
42B6
  5
42B6
331
E10
  5
E10
331
42BE
  5
42BE
331
E18
  5
E18
331
42C6
  5
42C6
331
E20
  5
E20
331
42CE
  5
42CE
331
4348
  5
4348
331
4309
  5
4309
331
443C
  5
443C
331
43C6
  5
43C6
331
43FD
  5
43FD
331
4350
  5
4350
331
4387
  5
4387
331
4311
  5
4311
331
4444
  5
4444
331
43CE
  5
43CE
331
4405
  5
4405
331
4358
  5
4358
331
438F
  5
438F
331
4319
  5
4319
331
44A3
  5
44A3
331
440D
  5
440D
331
444C
  5
444C
331
4397
  5
4397
331
4321
  5
4321
331
43D6
  5
43D6
331
44AB
  5
44AB
331
4415
  5
4415
331
439F
  5
439F
331
42D6
  5
42D6
331
DF1
  5
DF1
331
42DE
  5
42DE
331
DF9
  5
DF9
331
42E6
  5
42E6
331
42A7
  5
42A7
331
E01
  5
E01
331
42AF
  5
42AF
331
4329
  5
4329
331
42EA
  5
42EA
331
441D
  5
441D
331
4454
  5
4454
331
4331
  5
4331
331
4368
  5
4368
331
42F2
  5
42F2
331
4425
  5
4425
331
446C
  5
446C
331
43AF
  5
43AF
331
43E6
  5
43E6
331
4339
  5
4339
331
4370
  5
4370
331
42FA
  5
42FA
331
4474
  5
4474
331
43EE
  5
43EE
331
4378
  5
4378
331
4341
  5
4341
331
442D
  5
442D
331
44D3
  5
44D3
331
4435
  5
4435
331
447C
  5
447C
331
43BF
  5
43BF
331
43F6
  5
43F6
331
E09
  5
E09
331
42B7
  5
42B7
331
E11
  5
E11
331
42BF
  5
42BF
331
E19
  5
E19
331
42C7
  5
42C7
331
E21
  5
E21
331
42CF
  5
42CF
331
4349
  5
4349
331
4380
  5
4380
331
430A
  5
430A
331
44E3
  5
44E3
331
443D
  5
443D
331
43C7
  5
43C7
331
43FE
  5
43FE
331
4351
  5
4351
331
4388
  5
4388
331
4312
  5
4312
331
4445
  5
4445
331
449C
  5
449C
331
43CF
  5
43CF
331
4406
  5
4406
331
4359
  5
4359
331
4390
  5
4390
331
431A
  5
431A
331
44A4
  5
44A4
331
440E
  5
440E
331
444D
  5
444D
331
4398
  5
4398
331
4322
  5
4322
331
43D7
  5
43D7
331
44AC
  5
44AC
331
4416
  5
4416
331
42D7
  5
42D7
331
DF2
  5
DF2
331
42DF
  5
42DF
331
DFA
  5
DFA
331
42E7
  5
42E7
331
42A8
  5
42A8
331
E02
  5
E02
331
43A0
  5
43A0
331
432A
  5
432A
331
42EB
  5
42EB
331
441E
  5
441E
331
4455
  5
4455
331
4332
  5
4332
331
4369
  5
4369
331
42F3
  5
42F3
331
4426
  5
4426
331
446D
  5
446D
331
43B0
  5
43B0
331
43E7
  5
43E7
331
433A
  5
433A
331
4371
  5
4371
331
42FB
  5
42FB
331
4475
  5
4475
331
43EF
  5
43EF
331
4379
  5
4379
331
4342
  5
4342
331
442E
  5
442E
331
44D4
  5
44D4
331
4436
  5
4436
331
447D
  5
447D
331
43F7
  5
43F7
331
42B0
  5
42B0
331
E0A
  5
E0A
331
42B8
  5
42B8
331
E12
  5
E12
331
42C0
  5
42C0
331
E1A
  5
E1A
331
42C8
  5
42C8
331
43C0
  5
43C0
331
434A
  5
434A
331
4381
  5
4381
331
430B
  5
430B
331
44E4
  5
44E4
331
443E
  5
443E
331
43C8
  5
43C8
331
43FF
  5
43FF
331
4352
  5
4352
331
4389
  5
4389
331
4313
  5
4313
331
4446
  5
4446
331
449D
  5
449D
331
43D0
  5
43D0
331
4407
  5
4407
331
435A
  5
435A
331
4391
  5
4391
331
431B
  5
431B
331
440F
  5
440F
331
4399
  5
4399
331
4323
  5
4323
331
444E
  5
444E
331
44A5
  5
44A5
331
44AD
  5
44AD
331
4417
  5
4417
331
42D0
  5
42D0
331
42D8
  5
42D8
331
DF3
  5
DF3
331
42E0
  5
42E0
331
DFB
  5
DFB
331
42A9
  5
42A9
331
E03
  5
E03
331
43A1
  5
43A1
331
432B
  5
432B
331
43D8
  5
43D8
331
42EC
  5
42EC
331
441F
  5
441F
331
4456
  5
4456
331
43E0
  5
43E0
331
4333
  5
4333
331
436A
  5
436A
331
42F4
  5
42F4
331
4427
  5
4427
331
446E
  5
446E
331
43B1
  5
43B1
331
43E8
  5
43E8
331
433B
  5
433B
331
4372
  5
4372
331
42FC
  5
42FC
331
43F0
  5
43F0
331
437A
  5
437A
331
4343
  5
4343
331
442F
  5
442F
331
4476
  5
4476
331
4437
  5
4437
331
447E
  5
447E
331
42B1
  5
42B1
331
E0B
  5
E0B
331
42B9
  5
42B9
331
E13
  5
E13
331
42C1
  5
42C1
331
E1B
  5
E1B
331
D9C
  5
D9C
331
42C9
  5
42C9
331
43C1
  5
43C1
331
43F8
  5
43F8
331
434B
  5
434B
331
4382
  5
4382
331
430C
  5
430C
331
44E5
  5
44E5
331
443F
  5
443F
331
43C9
  5
43C9
331
4400
  5
4400
331
4353
  5
4353
331
438A
  5
438A
331
4314
  5
4314
331
449E
  5
449E
331
44F5
  5
44F5
331
43D1
  5
43D1
331
4408
  5
4408
331
435B
  5
435B
331
4392
  5
4392
331
431C
  5
431C
331
4447
  5
4447
331
4410
  5
4410
331
439A
  5
439A
331
4324
  5
4324
331
444F
  5
444F
331
44A6
  5
44A6
331
44AE
  5
44AE
331
42D1
  5
42D1
331
42D9
  5
42D9
331
DF4
  5
DF4
331
DFC
  5
DFC
331
42AA
  5
42AA
331
E04
  5
E04
331
4418
  5
4418
331
43D9
  5
43D9
331
42ED
  5
42ED
331
4420
  5
4420
331
43AA
  5
43AA
331
43E1
  5
43E1
331
4334
  5
4334
331
436B
  5
436B
331
42F5
  5
42F5
331
446F
  5
446F
331
43B2
  5
43B2
331
43E9
  5
43E9
331
433C
  5
433C
331
4373
  5
4373
331
42FD
  5
42FD
331
4428
  5
4428
331
43F1
  5
43F1
331
437B
  5
437B
331
4430
  5
4430
331
4305
  5
4305
331
4344
  5
4344
331
4477
  5
4477
331
447F
  5
447F
331
42B2
  5
42B2
331
E0C
  5
E0C
331
42BA
  5
42BA
331
E14
  5
E14
331
42C2
  5
42C2
331
E1C
  5
E1C
331
42CA
  5
42CA
331
4438
  5
4438
331
43C2
  5
43C2
331
43F9
  5
43F9
331
434C
  5
434C
331
4383
  5
4383
331
430D
  5
430D
331
44E6
  5
44E6
331
4440
  5
4440
331
43CA
  5
43CA
331
4401
  5
4401
331
4354
  5
4354
331
438B
  5
438B
331
4315
  5
4315
331
449F
  5
449F
331
44F6
  5
44F6
331
43D2
  5
43D2
331
4409
  5
4409
331
4393
  5
4393
331
431D
  5
431D
331
4448
  5
4448
331
4411
  5
4411
331
439B
  5
439B
331
4325
  5
4325
331
44A7
  5
44A7
331
44AF
  5
44AF
331
42D2
  5
42D2
331
42DA
  5
42DA
331
DF5
  5
DF5
331
DFD
  5
DFD
331
42AB
  5
42AB
331
E05
  5
E05
331
4419
  5
4419
331
4450
  5
4450
331
43DA
  5
43DA
331
4364
  5
4364
331
42EE
  5
42EE
331
4421
  5
4421
331
43AB
  5
43AB
331
43E2
  5
43E2
331
4335
  5
4335
331
436C
  5
436C
331
42F6
  5
42F6
331
4470
  5
4470
331
44BF
  5
44BF
331
43B3
  5
43B3
331
43EA
  5
43EA
331
433D
  5
433D
331
4374
  5
4374
331
42FE
  5
42FE
331
4429
  5
4429
331
4431
  5
4431
331
4478
  5
4478
331
437C
  5
437C
331
43BB
  5
43BB
331
4306
  5
4306
331
4345
  5
4345
331
43F2
  5
43F2
331
42B3
  5
42B3
331
E0D
  5
E0D
331
42BB
  5
42BB
331
E15
  5
E15
331
42C3
  5
42C3
331
E1D
  5
E1D
331
42CB
  5
42CB
331
4439
  5
4439
331
4480
  5
4480
331
43C3
  5
43C3
331
43FA
  5
43FA
331
434D
  5
434D
331
4384
  5
4384
331
430E
  5
430E
331
4441
  5
4441
331
43CB
  5
43CB
331
4402
  5
4402
331
4355
  5
4355
331
438C
  5
438C
331
4316
  5
4316
331
44A0
  5
44A0
331
44F7
  5
44F7
331
440A
  5
440A
331
4449
  5
4449
331
4394
  5
4394
331
431E
  5
431E
331
43D3
  5
43D3
331
44A8
  5
44A8
331
4412
  5
4412
331
439C
  5
439C
331
4326
  5
4326
331
42D3
  5
42D3
331
DEE
  5
DEE
331
42DB
  5
42DB
331
DF6
  5
DF6
331
42E3
  5
42E3
331
DFE
  5
DFE
331
42AC
  5
42AC
331
E06
  5
E06
331
44B0
  5
44B0
331
441A
  5
441A
331
4451
  5
4451
331
43DB
  5
43DB
331
4365
  5
4365
331
42EF
  5
42EF
331
4422
  5
4422
331
43AC
  5
43AC
331
43E3
  5
43E3
331
4336
  5
4336
331
436D
  5
436D
331
42F7
  5
42F7
331
4471
  5
4471
331
44C0
  5
44C0
331
43EB
  5
43EB
331
442A
  5
442A
331
433E
  5
433E
331
4375
  5
4375
331
42FF
  5
42FF
331
43B4
  5
43B4
331
4432
  5
4432
331
4479
  5
4479
331
437D
  5
437D
331
43BC
  5
43BC
331
4307
  5
4307
331
4346
  5
4346
331
43F3
  5
43F3
331
42B4
  5
42B4
331
E0E
  5
E0E
331
42BC
  5
42BC
331
E16
  5
E16
331
42C4
  5
42C4
331
E1E
  5
E1E
331
42CC
  5
42CC
331
443A
  5
443A
331
43C4
  5
43C4
331
43FB
  5
43FB
331
434E
  5
434E
331
4385
  5
4385
331
430F
  5
430F
331
4442
  5
4442
331
43CC
  5
43CC
331
4403
  5
4403
331
4356
  5
4356
331
438D
  5
438D
331
4317
  5
4317
331
44A1
  5
44A1
331
44F8
  5
44F8
331
440B
  5
440B
331
444A
  5
444A
331
4395
  5
4395
331
431F
  5
431F
331
43D4
  5
43D4
331
44A9
  5
44A9
331
4413
  5
4413
331
439D
  5
439D
331
4327
  5
4327
331
42D4
  5
42D4
331
DEF
  5
DEF
331
42DC
  5
42DC
331
DF7
  5
DF7
331
DFF
  5
DFF
331
42AD
  5
42AD
331
E07
  5
E07
331
42E8
  5
42E8
331
44B1
  5
44B1
331
441B
  5
441B
331
4452
  5
4452
331
4366
  5
4366
331
42F0
  5
42F0
331
4423
  5
4423
331
43AD
  5
43AD
331
43E4
  5
43E4
331
4337
  5
4337
331
436E
  5
436E
331
42F8
  5
42F8
331
4472
  5
4472
331
44C1
  5
44C1
331
43EC
  5
43EC
331
442B
  5
442B
331
433F
  5
433F
331
4376
  5
4376
331
4300
  5
4300
331
43B5
  5
43B5
331
44D1
  5
44D1
331
4433
  5
4433
331
447A
  5
447A
331
43BD
  5
43BD
331
43F4
  5
43F4
331
4347
  5
4347
331
437E
  5
437E
331
42B5
  5
42B5
331
E0F
  5
E0F
331
42BD
  5
42BD
331
E17
  5
E17
331
42C5
  5
42C5
331
E1F
  5
E1F
331
DB0
  5
DB0
331
42CD
  5
42CD
331
4308
  5
4308
331
443B
  5
443B
331
43C5
  5
43C5
331
43FC
  5
43FC
331
434F
  5
434F
331
4386
  5
4386
331
4310
  5
4310
331
4443
  5
4443
331
43CD
  5
43CD
331
4404
  5
4404
331
4357
  5
4357
331
438E
  5
438E
331
4318
  5
4318
331
44A2
  5
44A2
331
440C
  5
440C
331
444B
  5
444B
331
4396
  5
4396
331
4320
  5
4320
331
43D5
  5
43D5
331
44AA
  5
44AA
331
4414
  5
4414
331
439E
  5
439E
  0
LAYOUT
  5
22
102
{ACAD_XDICTIONARY
360
4D49
102
}
102
{ACAD_REACTORS
330
1A
102
}
330
1A
100
AcDbPlotSettings
  1

  2
\\RD\EPSON Stylus C63 Series單色
  4
A4
  6

 40
3.757083177566528
 41
3.757076978683471
 42
3.757080078125
 43
3.757080078125
 44
209.9733276367187
 45
296.9683227539062
 46
0.0
 47
0.0
 48
0.0
 49
0.0
140
0.0
141
0.0
142
1.0
143
0.3405120737814363
 70
 11952
 72
     1
 73
     0
 74
     0
  7
單色出圖.ctb
 75
     0
147
2.936753428137963
148
-2047.07469463503
149
-1261.649717473083
100
AcDbLayout
  1
Model
 70
     1
 71
     0
 10
0.0
 20
0.0
 11
12.0
 21
9.0
 12
0.0
 22
0.0
 32
0.0
 14
0.0
 24
0.0
 34
0.0
 15
0.0
 25
0.0
 35
0.0
146
0.0
 13
0.0
 23
0.0
 33
0.0
 16
1.0
 26
0.0
 36
0.0
 17
0.0
 27
1.0
 37
0.0
 76
     0
330
1F
1001
ACAD_PSEXT
1000
\\RD\EPSON Stylus C63 Series單色
1000
EPSON Stylus C63 Series
1000
\\RD
1000

1070
     0
  0
LAYOUT
  5
1E
102
{ACAD_XDICTIONARY
360
4D47
102
}
102
{ACAD_REACTORS
330
1A
102
}
330
1A
100
AcDbPlotSettings
  1

  2

  4

  6

 40
0.0
 41
0.0
 42
0.0
 43
0.0
 44
0.0
 45
0.0
 46
0.0
 47
0.0
 48
0.0
 49
0.0
140
0.0
141
0.0
142
1.0
143
1.0
 70
   688
 72
     0
 73
     0
 74
     5
  7
單色出圖.ctb
 75
    16
147
1.0
148
0.0
149
0.0
100
AcDbLayout
  1
配置1
 70
     1
 71
     1
 10
0.0
 20
0.0
 11
420.0
 21
297.0
 12
0.0
 22
0.0
 32
0.0
 14
1.000000000000000E+20
 24
1.000000000000000E+20
 34
1.000000000000000E+20
 15
-1.000000000000000E+20
 25
-1.000000000000000E+20
 35
-1.000000000000000E+20
146
0.0
 13
0.0
 23
0.0
 33
0.0
 16
1.0
 26
0.0
 36
0.0
 17
0.0
 27
1.0
 37
0.0
 76
     0
330
1B
  0
LAYOUT
  5
26
102
{ACAD_XDICTIONARY
360
4D4B
102
}
102
{ACAD_REACTORS
330
1A
102
}
330
1A
100
AcDbPlotSettings
  1

  2

  4

  6

 40
0.0
 41
0.0
 42
0.0
 43
0.0
 44
0.0
 45
0.0
 46
0.0
 47
0.0
 48
0.0
 49
0.0
140
0.0
141
0.0
142
1.0
143
1.0
 70
   688
 72
     0
 73
     0
 74
     5
  7
單色出圖.ctb
 75
    16
147
1.0
148
0.0
149
0.0
100
AcDbLayout
  1
配置2
 70
     1
 71
     2
 10
0.0
 20
0.0
 11
12.0
 21
9.0
 12
0.0
 22
0.0
 32
0.0
 14
0.0
 24
0.0
 34
0.0
 15
0.0
 25
0.0
 35
0.0
146
0.0
 13
0.0
 23
0.0
 33
0.0
 16
1.0
 26
0.0
 36
0.0
 17
0.0
 27
1.0
 37
0.0
 76
     0
330
23
  0
MLINESTYLE
  5
18
102
{ACAD_REACTORS
330
17
102
}
330
17
100
AcDbMlineStyle
  2
STANDARD
 70
     0
  3

 62
   256
 51
90.0
 52
90.0
 71
     2
 49
0.5
 62
   256
  6
BYLAYER
 49
-0.5
 62
   256
  6
BYLAYER
  0
ACDBPLACEHOLDER
  5
F
102
{ACAD_REACTORS
330
E
102
}
330
E
  0
TABLESTYLE
  5
11B
102
{ACAD_REACTORS
330
11A
102
}
330
11A
100
AcDbTableStyle
  3
Standard
 70
     0
 71
     0
 40
1.5
 41
1.5
280
     0
281
     0
  7
STANDARD
140
4.5
170
     2
 62
     0
 63
     7
283
     0
274
    -2
284
     1
 64
     0
275
    -2
285
     1
 65
     0
276
    -2
286
     1
 66
     0
277
    -2
287
     1
 67
     0
278
    -2
288
     1
 68
     0
279
    -2
289
     1
 69
     0
  7
STANDARD
140
6.0
170
     5
 62
     0
 63
     7
283
     0
274
    -2
284
     1
 64
     0
275
    -2
285
     1
 65
     0
276
    -2
286
     1
 66
     0
277
    -2
287
     1
 67
     0
278
    -2
288
     1
 68
     0
279
    -2
289
     1
 69
     0
  7
STANDARD
140
4.5
170
     5
 62
     0
 63
     7
283
     0
274
    -2
284
     1
 64
     0
275
    -2
285
     1
 65
     0
276
    -2
286
     1
 66
     0
277
    -2
287
     1
 67
     0
278
    -2
288
     1
 68
     0
279
    -2
289
     1
 69
     0
  0
DICTIONARYVAR
  5
138
102
{ACAD_REACTORS
330
94
102
}
330
94
100
DictionaryVariables
280
     0
  1
STANDARD
  0
DICTIONARYVAR
  5
96
102
{ACAD_REACTORS
330
94
102
}
330
94
100
DictionaryVariables
280
     0
  1
2
  0
DICTIONARYVAR
  5
95
102
{ACAD_REACTORS
330
94
102
}
330
94
100
DictionaryVariables
280
     0
  1
0
  0
DICTIONARYVAR
  5
4D43
102
{ACAD_REACTORS
330
94
102
}
330
94
100
DictionaryVariables
280
     0
  1

  0
DICTIONARY
  5
1B5
102
{ACAD_REACTORS
330
5B
102
}
330
5B
100
AcDbDictionary
281
     1
  0
DICTIONARY
  5
61
102
{ACAD_REACTORS
330
5B
102
}
330
5B
100
AcDbDictionary
281
     1
  0
XRECORD
  5
123
102
{ACAD_REACTORS
330
5B
102
}
330
5B
100
AcDbXrecord
280
     1
 90
-1023410169
  0
DICTIONARY
  5
4D49
330
22
100
AcDbDictionary
280
     1
281
     1
  3
ACAD_XREC_ROUNDTRIP
360
4D4A
  0
DICTIONARY
  5
4D47
330
1E
100
AcDbDictionary
280
     1
281
     1
  3
ACAD_XREC_ROUNDTRIP
360
4D48
  0
DICTIONARY
  5
4D4B
330
26
100
AcDbDictionary
280
     1
281
     1
  3
ACAD_XREC_ROUNDTRIP
360
4D4C
  0
XRECORD
  5
4D4A
102
{ACAD_REACTORS
330
4D49
102
}
330
4D49
100
AcDbXrecord
280
     1
102
SHADEPLOT
 70
     0
102
SHADEPLOTRESLEVEL
 70
     2
102
SHADEPLOTCUSTOMDPI
 70
   300
  0
XRECORD
  5
4D48
102
{ACAD_REACTORS
330
4D47
102
}
330
4D47
100
AcDbXrecord
280
     1
102
SHADEPLOT
 70
     0
102
SHADEPLOTRESLEVEL
 70
     2
102
SHADEPLOTCUSTOMDPI
 70
   300
  0
XRECORD
  5
4D4C
102
{ACAD_REACTORS
330
4D4B
102
}
330
4D4B
100
AcDbXrecord
280
     1
102
SHADEPLOT
 70
     0
102
SHADEPLOTRESLEVEL
 70
     2
102
SHADEPLOTCUSTOMDPI
 70
   300
  0
ENDSEC
  0
EOF
