  0
SECTION
  2
HEADER
  9
$ACADVER
  1
AC1015
  9
$ACADMAINTVER
 70
    20
  9
$DWGCODEPAGE
  3
ANSI_950
  9
$INSBASE
 10
0.0
 20
0.0
 30
0.0
  9
$EXTMIN
 10
1990.705465453626
 20
1142.464625651886
 30
-0.0125505635498939
  9
$EXTMAX
 10
2465.731100083363
 20
1808.221755390835
 30
266.5612939325872
  9
$LIMMIN
 10
0.0
 20
0.0
  9
$LIMMAX
 10
420.0
 20
297.0
  9
$ORTHOMODE
 70
     0
  9
$REGENMODE
 70
     1
  9
$FILLMODE
 70
     1
  9
$QTEXTMODE
 70
     0
  9
$MIRRTEXT
 70
     1
  9
$LTSCALE
 40
1.0
  9
$ATTMODE
 70
     1
  9
$TEXTSIZE
 40
3.0
  9
$TRACEWID
 40
1.0
  9
$TEXTSTYLE
  7
CHINESET
  9
$CLAYER
  8
0
  9
$CELTYPE
  6
ByLayer
  9
$CECOLOR
 62
   256
  9
$CELTSCALE
 40
1.0
  9
$DISPSILH
 70
     0
  9
$DIMSCALE
 40
1.0
  9
$DIMASZ
 40
3.0
  9
$DIMEXO
 40
1.0
  9
$DIMDLI
 40
14.0
  9
$DIMRND
 40
0.0
  9
$DIMDLE
 40
0.0
  9
$DIMEXE
 40
1.5
  9
$DIMTP
 40
0.1
  9
$DIMTM
 40
0.1
  9
$DIMTXT
 40
3.0
  9
$DIMCEN
 40
0.0
  9
$DIMTSZ
 40
0.0
  9
$DIMTOL
 70
     0
  9
$DIMLIM
 70
     0
  9
$DIMTIH
 70
     0
  9
$DIMTOH
 70
     0
  9
$DIMSE1
 70
     0
  9
$DIMSE2
 70
     0
  9
$DIMTAD
 70
     1
  9
$DIMZIN
 70
     8
  9
$DIMBLK
  1

  9
$DIMASO
 70
     1
  9
$DIMSHO
 70
     1
  9
$DIMPOST
  1

  9
$DIMAPOST
  1
"
  9
$DIMALT
 70
     0
  9
$DIMALTD
 70
     2
  9
$DIMALTF
 40
0.0393701
  9
$DIMLFAC
 40
1.0
  9
$DIMTOFL
 70
     1
  9
$DIMTVP
 40
0.0
  9
$DIMTIX
 70
     0
  9
$DIMSOXD
 70
     0
  9
$DIMSAH
 70
     0
  9
$DIMBLK1
  1

  9
$DIMBLK2
  1

  9
$DIMSTYLE
  2
AM_ISO
  9
$DIMCLRD
 70
   256
  9
$DIMCLRE
 70
   256
  9
$DIMCLRT
 70
   256
  9
$DIMTFAC
 40
0.71
  9
$DIMGAP
 40
1.0
  9
$DIMJUST
 70
     0
  9
$DIMSD1
 70
     0
  9
$DIMSD2
 70
     0
  9
$DIMTOLJ
 70
     0
  9
$DIMTZIN
 70
     8
  9
$DIMALTZ
 70
     0
  9
$DIMALTTZ
 70
     0
  9
$DIMUPT
 70
     0
  9
$DIMDEC
 70
     2
  9
$DIMTDEC
 70
     8
  9
$DIMALTU
 70
     2
  9
$DIMALTTD
 70
     2
  9
$DIMTXSTY
  7
STANDARD
  9
$DIMAUNIT
 70
     0
  9
$DIMADEC
 70
     0
  9
$DIMALTRND
 40
0.0
  9
$DIMAZIN
 70
     2
  9
$DIMDSEP
 70
    46
  9
$DIMATFIT
 70
     3
  9
$DIMFRAC
 70
     0
  9
$DIMLDRBLK
  1

  9
$DIMLUNIT
 70
     2
  9
$DIMLWD
 70
    -1
  9
$DIMLWE
 70
    -1
  9
$DIMTMOVE
 70
     0
  9
$LUNITS
 70
     2
  9
$LUPREC
 70
     2
  9
$SKETCHINC
 40
1.0
  9
$FILLETRAD
 40
2.5
  9
$AUNITS
 70
     0
  9
$AUPREC
 70
     0
  9
$MENU
  1
.
  9
$ELEVATION
 40
0.0
  9
$PELEVATION
 40
0.0
  9
$THICKNESS
 40
0.0
  9
$LIMCHECK
 70
     0
  9
$CHAMFERA
 40
2.5
  9
$CHAMFERB
 40
2.5
  9
$CHAMFERC
 40
20.0
  9
$CHAMFERD
 40
0.0
  9
$SKPOLY
 70
     0
  9
$TDCREATE
 40
2453595.458965741
  9
$TDUCREATE
 40
2453595.125632408
  9
$TDUPDATE
 40
2453942.680881435
  9
$TDUUPDATE
 40
2453942.347548102
  9
$TDINDWG
 40
0.3587380556
  9
$TDUSRTIMER
 40
0.3587380556
  9
$USRTIMER
 70
     1
  9
$ANGBASE
 50
0.0
  9
$ANGDIR
 70
     0
  9
$PDMODE
 70
     0
  9
$PDSIZE
 40
0.0
  9
$PLINEWID
 40
0.0
  9
$SPLFRAME
 70
     0
  9
$SPLINETYPE
 70
     6
  9
$SPLINESEGS
 70
     8
  9
$HANDSEED
  5
4300
  9
$SURFTAB1
 70
     6
  9
$SURFTAB2
 70
     6
  9
$SURFTYPE
 70
     6
  9
$SURFU
 70
     6
  9
$SURFV
 70
     6
  9
$UCSBASE
  2

  9
$UCSNAME
  2

  9
$UCSORG
 10
0.0
 20
0.0
 30
0.0
  9
$UCSXDIR
 10
1.0
 20
0.0
 30
0.0
  9
$UCSYDIR
 10
0.0
 20
1.0
 30
0.0
  9
$UCSORTHOREF
  2

  9
$UCSORTHOVIEW
 70
     0
  9
$UCSORGTOP
 10
0.0
 20
0.0
 30
0.0
  9
$UCSORGBOTTOM
 10
0.0
 20
0.0
 30
0.0
  9
$UCSORGLEFT
 10
0.0
 20
0.0
 30
0.0
  9
$UCSORGRIGHT
 10
0.0
 20
0.0
 30
0.0
  9
$UCSORGFRONT
 10
0.0
 20
0.0
 30
0.0
  9
$UCSORGBACK
 10
0.0
 20
0.0
 30
0.0
  9
$PUCSBASE
  2

  9
$PUCSNAME
  2

  9
$PUCSORG
 10
0.0
 20
0.0
 30
0.0
  9
$PUCSXDIR
 10
1.0
 20
0.0
 30
0.0
  9
$PUCSYDIR
 10
0.0
 20
1.0
 30
0.0
  9
$PUCSORTHOREF
  2

  9
$PUCSORTHOVIEW
 70
     0
  9
$PUCSORGTOP
 10
0.0
 20
0.0
 30
0.0
  9
$PUCSORGBOTTOM
 10
0.0
 20
0.0
 30
0.0
  9
$PUCSORGLEFT
 10
0.0
 20
0.0
 30
0.0
  9
$PUCSORGRIGHT
 10
0.0
 20
0.0
 30
0.0
  9
$PUCSORGFRONT
 10
0.0
 20
0.0
 30
0.0
  9
$PUCSORGBACK
 10
0.0
 20
0.0
 30
0.0
  9
$USERI1
 70
     0
  9
$USERI2
 70
     0
  9
$USERI3
 70
     0
  9
$USERI4
 70
     0
  9
$USERI5
 70
     0
  9
$USERR1
 40
0.0
  9
$USERR2
 40
0.0
  9
$USERR3
 40
0.0
  9
$USERR4
 40
0.0
  9
$USERR5
 40
0.0
  9
$WORLDVIEW
 70
     1
  9
$SHADEDGE
 70
     3
  9
$SHADEDIF
 70
    70
  9
$TILEMODE
 70
     1
  9
$MAXACTVP
 70
    64
  9
$PINSBASE
 10
0.0
 20
0.0
 30
0.0
  9
$PLIMCHECK
 70
     0
  9
$PEXTMIN
 10
1.000000000000000E+20
 20
1.000000000000000E+20
 30
1.000000000000000E+20
  9
$PEXTMAX
 10
-1.000000000000000E+20
 20
-1.000000000000000E+20
 30
-1.000000000000000E+20
  9
$PLIMMIN
 10
0.0
 20
0.0
  9
$PLIMMAX
 10
420.0
 20
297.0
  9
$UNITMODE
 70
     0
  9
$VISRETAIN
 70
     1
  9
$PLINEGEN
 70
     0
  9
$PSLTSCALE
 70
     1
  9
$TREEDEPTH
 70
  3020
  9
$CMLSTYLE
  2
Standard
  9
$CMLJUST
 70
     0
  9
$CMLSCALE
 40
20.0
  9
$PROXYGRAPHICS
 70
     1
  9
$MEASUREMENT
 70
     1
  9
$CELWEIGHT
370
    -1
  9
$ENDCAPS
280
     0
  9
$JOINSTYLE
280
     0
  9
$LWDISPLAY
290
     0
  9
$INSUNITS
 70
     4
  9
$HYPERLINKBASE
  1

  9
$STYLESHEET
  1
彩色出圖.ctb
  9
$XEDIT
290
     1
  9
$CEPSNTYPE
380
     0
  9
$PSTYLEMODE
290
     1
  9
$FINGERPRINTGUID
  2
{9E01B807-D114-4957-B4FC-231A1635D619}
  9
$VERSIONGUID
  2
{7379D959-8767-4918-9F2E-BA00C63CBD4A}
  9
$EXTNAMES
290
     1
  9
$PSVPSCALE
 40
0.0
  9
$OLESTARTUP
290
     0
  0
ENDSEC
  0
SECTION
  2
CLASSES
  0
CLASS
  1
ACDBDICTIONARYWDFLT
  2
AcDbDictionaryWithDefault
  3
ObjectDBX Classes
 90
        0
280
     0
281
     0
  0
CLASS
  1
ACDBPLACEHOLDER
  2
AcDbPlaceHolder
  3
ObjectDBX Classes
 90
        0
280
     0
281
     0
  0
CLASS
  1
LAYOUT
  2
AcDbLayout
  3
ObjectDBX Classes
 90
        0
280
     0
281
     0
  0
CLASS
  1
ACME_DOCUMENT
  2
AcMeDbDoc
  3
AcMeServices
 90
        0
280
     0
281
     0
  0
CLASS
  1
AMGSETTINGSOBJ
  2
AmgSettingsObj
  3
"AcadM|Product Description: AutoCAD Mechanical 2000|Company: Autodesk"
 90
        0
280
     0
281
     0
  0
CLASS
  1
ACMESCOPE
  2
AcMeScope
  3
AcMeServices
 90
        0
280
     0
281
     0
  0
CLASS
  1
ACMECOMMANDHISTORY
  2
AcMeCommandHistory
  3
AcMeServices
 90
        0
280
     0
281
     0
  0
CLASS
  1
ACIMSYSVARMAN
  2
AcImSysVarManager
  3
AcMeServices
 90
        0
280
     0
281
     0
  0
CLASS
  1
ACIMREALSYSVAR
  2
AcImRealSysVar
  3
AcMeServices
 90
        0
280
     0
281
     0
  0
CLASS
  1
ACIMINTSYSVAR
  2
AcImIntSysVar
  3
AcMeServices
 90
        0
280
     0
281
     0
  0
CLASS
  1
ACMEDRAWINGMAN
  2
AcMeDrawingMan
  3
AcMeServices
 90
        0
280
     0
281
     0
  0
CLASS
  1
ACMEVIEW
  2
AcMeView
  3
AcMeServices
 90
        0
280
     0
281
     0
  0
CLASS
  1
ACDBENTITYCACHE
  2
AcMeEntityCache
  3
AcMeServices
 90
        0
280
     0
281
     0
  0
CLASS
  1
GSMANAGER
  2
AcMeGSManager
  3
AcMeServices
 90
        0
280
     0
281
     0
  0
CLASS
  1
AMDTINTERNALREACTOR
  2
AmdtInternalReactor
  3
AcMeServices
 90
        0
280
     0
281
     0
  0
CLASS
  1
ACMESTATEMGR
  2
AcMeStateMgr
  3
AcMeServices
 90
        0
280
     0
281
     0
  0
CLASS
  1
ACGREFMASTER
  2
AcGrefMaster
  3
AcAttribServices
 90
        0
280
     0
281
     0
  0
CLASS
  1
ACME_DATABASE
  2
AcMeDbDatabase
  3
AcMeServices
 90
        0
280
     0
281
     0
  0
CLASS
  1
ACRFINSADJUSTERMGR
  2
AcRfInsAdjusterMgr
  3
AcMeServices
 90
        0
280
     0
281
     0
  0
CLASS
  1
ACGREFACADMASTER
  2
AcGrefacadMaster
  3
AcGrefServices
 90
        0
280
     0
281
     0
  0
CLASS
  1
AMIMASTER
  2
AmiMaster
  3
AmiServices
 90
        0
280
     0
281
     0
  0
CLASS
  1
ACMDATADICTIONARY
  2
AcmDataDictionary
  3
"AcmSymBB|Product Description: AutoCAD Mechanical 2004 DX|Company: Autodesk"
 90
        0
280
     0
281
     0
  0
CLASS
  1
ACMDATAENTRYBLOCK
  2
AcmDataEntryBlock
  3
"AcmSymBB|Product Description: AutoCAD Mechanical 2004 DX|Company: Autodesk"
 90
        0
280
     0
281
     0
  0
CLASS
  1
ACIMSTRSYSVAR
  2
AcImStrSysVar
  3
AcMeServices
 90
        0
280
     0
281
     0
  0
CLASS
  1
ACMSTANDARDISO
  2
AcmStandardISO
  3
"Amdt_StdImp|Product Description: AutoCAD Mechanical 2004 DX|Company: Autodesk"
 90
        0
280
     0
281
     0
  0
CLASS
  1
AMGOBJPROPCFG
  2
AmgObjPropCfg
  3
"AmgLay|Product Description: AutoCAD Mechanical 2000|Company: Autodesk"
 90
        1
280
     0
281
     0
  0
CLASS
  1
AMDTEDGESTANDARDISO
  2
AmdtEdgeStdISO
  3
"Amdt_StdImp|Product Description: AutoCAD Mechanical 2004 DX|Company: Autodesk"
 90
        0
280
     0
281
     0
  0
CLASS
  1
ACMSURFSTANDARDISO
  2
AcmSurfTextStdISO
  3
"Amdt_StdImp|Product Description: AutoCAD Mechanical 2004 DX|Company: Autodesk"
 90
        0
280
     0
281
     0
  0
CLASS
  1
ACMFCFSTANDARDISO
  2
AcmFCFStdISO
  3
"Amdt_StdImp|Product Description: AutoCAD Mechanical 2004 DX|Company: Autodesk"
 90
        0
280
     0
281
     0
  0
CLASS
  1
ACMWELDSTANDARDISO
  2
AcmWeldingStdISO
  3
"Amdt_StdImp|Product Description: AutoCAD Mechanical 2004 DX|Company: Autodesk"
 90
        0
280
     0
281
     0
  0
CLASS
  1
ACMIDSTANDARDISO
  2
AcmIdStdISO
  3
"Amdt_StdImp|Product Description: AutoCAD Mechanical 2004 DX|Company: Autodesk"
 90
        0
280
     0
281
     0
  0
CLASS
  1
ACMDATUMSTANDARDISO
  2
AcmDatumStdISO
  3
"Amdt_StdImp|Product Description: AutoCAD Mechanical 2004 DX|Company: Autodesk"
 90
        0
280
     0
281
     0
  0
CLASS
  1
ACMBOMSTANDARDISO
  2
AcmBOMStdISO
  3
"Amdt_StdImp|Product Description: AutoCAD Mechanical 2004 DX|Company: Autodesk"
 90
        0
280
     0
281
     0
  0
CLASS
  1
ACMDETAILSTANDARDISO
  2
AmdtDetailSymStdISO
  3
"Amdt_StdImp|Product Description: AutoCAD Mechanical 2004 DX|Company: Autodesk"
 90
        0
280
     0
281
     0
  0
CLASS
  1
ACMSECTIONSTANDARDISO
  2
AmdtSectionSymStdISO
  3
"Amdt_StdImp|Product Description: AutoCAD Mechanical 2004 DX|Company: Autodesk"
 90
        0
280
     0
281
     0
  0
CLASS
  1
ACMCENTERLINESTANDARDISO
  2
AmdtCenterLineStdISO
  3
"Amdt_StdImp|Product Description: AutoCAD Mechanical 2004 DX|Company: Autodesk"
 90
        0
280
     0
281
     0
  0
CLASS
  1
ACMNOTESTANDARDISO
  2
AmdtNoteStdISO
  3
"Amdt_StdImp|Product Description: AutoCAD Mechanical 2004 DX|Company: Autodesk"
 90
        0
280
     0
281
     0
  0
CLASS
  1
ACAMGLAYSTD
  2
AcAmgLayStd
  3
"AcAmgLayStd|Product Description: AutoCAD Mechanical 2000|Company: Autodesk"
 90
        0
280
     0
281
     0
  0
CLASS
  1
ACAMGDIMSTD
  2
AcAmgDimStd
  3
"AcAmgDimStd|Product Description: AutoCAD Mechanical 2000|Company: Autodesk"
 90
        0
280
     0
281
     0
  0
CLASS
  1
ACAMGHOLECHARTSTDISO
  2
AcAmgHoleChartStdISO
  3
ACMSYMBB_MODULE_NAME
 90
        0
280
     0
281
     0
  0
CLASS
  1
ACAMGTITLESTD
  2
AcAmgTitleStd
  3
"TITLEAPP"
 90
        0
280
     0
281
     0
  0
CLASS
  1
LAYER_INDEX
  2
AcDbLayerIndex
  3
ObjectDBX Classes
 90
    32768
280
     0
281
     0
  0
CLASS
  1
IDBUFFER
  2
AcDbIdBuffer
  3
ObjectDBX Classes
 90
    32768
280
     0
281
     0
  0
CLASS
  1
DICTIONARYVAR
  2
AcDbDictionaryVar
  3
ObjectDBX Classes
 90
        0
280
     0
281
     0
  0
CLASS
  1
AM_DRAWING_MGR
  2
AcDmDwgMgr
  3
AcMechDwgViewMgmt
 90
        0
280
     0
281
     0
  0
CLASS
  1
AM_DWG_DOCUMENT
  2
AcDmDwgDocument
  3
AcMechDwgViewMgmt
 90
        0
280
     0
281
     0
  0
CLASS
  1
AM_DWG_SHEET
  2
AcDmSheet
  3
AcMechDwgViewMgmt
 90
        0
280
     0
281
     0
  0
CLASS
  1
AM_VIEWDIMPARMAP
  2
AcDmViewDimParMap
  3
AcMechDwgViewMgmt
 90
        0
280
     0
281
     0
  0
CLASS
  1
AM_DWGMGR_NAME
  2
AcDmDwgMgrName
  3
AcMechDwgViewMgmt
 90
        0
280
     0
281
     0
  0
CLASS
  1
AMDTMENUSTATEMGR
  2
AmdtMenuStateMgr
  3
McadcomServices
 90
        0
280
     0
281
     0
  0
CLASS
  1
AMDTMCOMMENUSTATE
  2
AmdtMcomMenuState
  3
McadcomServices
 90
        0
280
     0
281
     0
  0
CLASS
  1
MAPIAMMOUDLE
  2
MApiAmModule
  3
MApiAmServices
 90
        0
280
     0
281
     0
  0
CLASS
  1
AMDTADMENUSTATE
  2
AmdtAdMenuState
  3
DesignerServices
 90
        0
280
     0
281
     0
  0
CLASS
  1
ADAPPL
  2
AcAdAppl
  3
DesignerServices
 90
        0
280
     0
281
     0
  0
CLASS
  1
DEPMGR
  2
AcAdDepMgr
  3
DesignerServices
 90
        0
280
     0
281
     0
  0
CLASS
  1
PARAMMGR
  2
AcAdParamMgr
  3
DesignerServices
 90
        0
280
     0
281
     0
  0
CLASS
  1
PARAMSCOPE
  2
AcAdParamScope
  3
DesignerServices
 90
        0
280
     0
281
     0
  0
CLASS
  1
NAMEDAPPL
  2
AcAdNamedAppl
  3
DesignerServices
 90
        0
280
     0
281
     0
  0
CLASS
  1
AMDTDMMENUSTATE
  2
AmdtDmMenuState
  3
AcMechDwgViewMgmt
 90
        0
280
     0
281
     0
  0
CLASS
  1
AMDTAMMENUSTATE
  2
AmdtAmMenuState
  3
DesignerAssemblies
 90
        0
280
     0
281
     0
  0
CLASS
  1
ACAMPROJECT
  2
AcAmProject
  3
DesignerAssemblies
 90
        0
280
     0
281
     0
  0
CLASS
  1
ACAMGRCOMPDEF
  2
AcAmGrCompDef
  3
DesignerAssemblies
 90
        0
280
     0
281
     0
  0
CLASS
  1
ACCMCONTEXT
  2
AcCmContext
  3
DesignerAssemblies
 90
        0
280
     0
281
     0
  0
CLASS
  1
ACAMCOMPDEF
  2
AcAmCompDef
  3
DesignerAssemblies
 90
        0
280
     0
281
     0
  0
CLASS
  1
ACAMCOMPDEFMGR
  2
AcAmCompDefMgr
  3
DesignerAssemblies
 90
        0
280
     0
281
     0
  0
CLASS
  1
AMCONTEXTMGR
  2
AcAmContextMgr
  3
DesignerAssemblies
 90
        0
280
     0
281
     0
  0
CLASS
  1
ACAMCONTEXTMODELER
  2
AcAmContextModeler
  3
DesignerAssemblies
 90
        0
280
     0
281
     0
  0
CLASS
  1
ACMTHREADLINESTANDARDISO
  2
AmdtThreadLineStdISO
  3
"Amdt_StdImp|Product Description: AutoCAD Mechanical 2004 DX|Company: Autodesk"
 90
        0
280
     0
281
     0
  0
CLASS
  1
CATALOGSTATE
  2
AcAmCatalogState
  3
DesignerAssemblies
 90
        0
280
     0
281
     0
  0
CLASS
  1
ACAMGRCOMPDEFSET
  2
AcAmGrCompDefSet
  3
DesignerAssemblies
 90
        0
280
     0
281
     0
  0
CLASS
  1
AMDTBROWSERDBTAB
  2
AmdtBrowserDbTab
  3
McadcomServices
 90
        0
280
     0
281
     0
  0
CLASS
  1
CBROWSERAPPOBJECT
  2
CBrowserAppObject
  3
McadcomServices
 90
        0
280
     0
281
     0
  0
CLASS
  1
DM_PLACEHOLDER
  2
AcDmSelsetPlaceholder
  3
AcMechDwgViewMgmt
 90
        0
280
     0
281
     0
  0
CLASS
  1
TABLESTYLE
  2
AcDbTableStyle
  3
ObjectDBX Classes
 90
     2047
280
     0
281
     0
  0
CLASS
  1
VAACXREFPANELOBJECT
  2
VaAcXREFPanelObject
  3
VAAC_ADDIN
 90
    32768
280
     0
281
     0
  0
CLASS
  1
VAACIMAGEINVENTORY
  2
VaAcImageInventory
  3
VAAC_ADDIN
 90
    32768
280
     0
281
     0
  0
CLASS
  1
AMDTNOTETEMPLATEDB
  2
AmdtNoteTemplateDB
  3
AMDT_STDIMP_MODULE_NAME
 90
        0
280
     0
281
     0
  0
CLASS
  1
ACMBOM
  2
AcmBom
  3
"AcmSymBB|Product Description: AutoCAD Mechanical 2004 DX|Company: Autodesk"
 90
    32768
280
     0
281
     0
  0
CLASS
  1
AMDTFORMULAUPDATEDISPATCHER
  2
AmdtFormulaUpdateDispatcher
  3
AcMeServices
 90
    32768
280
     0
281
     0
  0
CLASS
  1
ACMPARTLIST
  2
AcmPartList
  3
"AcmSymBB|Product Description: AutoCAD Mechanical 2004 DX|Company: Autodesk"
 90
    33791
280
     0
281
     1
  0
CLASS
  1
ACAMGFILTERDAT
  2
AcAmgFilterDat
  3
"AcadM|Product Description: AutoCAD Mechanical 2000|Company: Autodesk"
 90
        0
280
     0
281
     0
  0
CLASS
  1
DIMASSOC
  2
AcDbDimAssoc
  3
"AcDbDimAssoc|Product Desc:     AcDim ARX App For Dimension|Company:          Autodesk, Inc.|WEB Address:      www.autodesk.com"
 90
    32768
280
     0
281
     0
  0
CLASS
  1
SORTENTSTABLE
  2
AcDbSortentsTable
  3
ObjectDBX Classes
 90
        0
280
     0
281
     0
  0
CLASS
  1
AMDTNOTE
  2
AmdtNote
  3
"AcmSymBB|Product Description: AutoCAD Mechanical 2004 DX|Company: Autodesk"
 90
     1023
280
     0
281
     1
  0
CLASS
  1
STDPART2D
  2
AmgStdPart
  3
"AmgStdPart|Product Description: AutoCAD Mechanical 2000|Company: Autodesk"
 90
    33791
280
     0
281
     1
  0
CLASS
  1
ACAMSTDPCOMPDEF
  2
AcAmStdpCompDef
  3
DesignerAssemblies
 90
    32768
280
     0
281
     0
  0
CLASS
  1
ACRFATTGENMGR
  2
AcRfAttGeneralMgr
  3
AcAttribServices
 90
        0
280
     0
281
     0
  0
CLASS
  1
ACRFOBJATTMGR
  2
AcRfObjAttGroupMgr
  3
AcAttribServices
 90
    32768
280
     0
281
     0
  0
CLASS
  1
ACRFMCADAPIATTHOLDER
  2
AcRfMCADAPIAttHolder
  3
AcAttribServices
 90
    32768
280
     0
281
     0
  0
CLASS
  1
AMDTSYSATTR
  2
AmdtSystemAttribute
  3
AcAttribServices
 90
    32768
280
     0
281
     0
  0
CLASS
  1
ACAMCOMP
  2
AcAmComp
  3
DesignerAssemblies
 90
    32768
280
     0
281
     0
  0
CLASS
  1
AC_AM_STDP_VIEW_DEF
  2
AcAmStdpViewDef
  3
DesignerAssemblies
 90
    32768
280
     0
281
     0
  0
CLASS
  1
AC_AM_MVD_DEP_MGR
  2
AcAmMVDdepMgr
  3
DesignerAssemblies
 90
        0
280
     0
281
     0
  0
CLASS
  1
AC_AM_MASTER_VIEW_DEF
  2
AcAmMasterViewDef
  3
DesignerAssemblies
 90
        0
280
     0
281
     0
  0
CLASS
  1
AC_AM_DIRTY_NODES
  2
AcAmDirtyNodes
  3
DesignerAssemblies
 90
        0
280
     0
281
     0
  0
CLASS
  1
AC_AM_MAPPER_CACHE
  2
AcAmMapperCache
  3
DesignerAssemblies
 90
        0
280
     0
281
     0
  0
CLASS
  1
ACAMMVDBACKUPOBJECT
  2
AcAmMVDBackupObject
  3
DesignerAssemblies
 90
        0
280
     0
281
     0
  0
CLASS
  1
AC_AM_COMP_VIEW_INST
  2
AcAmCompView
  3
DesignerAssemblies
 90
    32768
280
     0
281
     0
  0
CLASS
  1
AC_AM_2D_XREF_MGR
  2
AcAmXrefMgr2d
  3
DesignerAssemblies
 90
        0
280
     0
281
     0
  0
ENDSEC
  0
SECTION
  2
TABLES
  0
TABLE
  2
VPORT
  5
8
330
0
100
AcDbSymbolTable
 70
     3
  0
VPORT
  5
42F7
330
8
100
AcDbSymbolTableRecord
100
AcDbViewportTableRecord
  2
*Active
 70
     0
 10
0.0
 20
0.0
 11
1.0
 21
1.0
 12
2228.244341442282
 22
1475.272767552868
 13
0.0
 23
0.0
 14
2.5
 24
2.5
 15
10.0
 25
10.0
 16
0.0
 26
0.0
 36
1.0
 17
0.0
 27
0.0
 37
0.0
 40
671.3525085308233
 41
1.609210526315789
 42
50.0
 43
0.0
 44
0.0
 50
0.0
 51
0.0
 71
     0
 72
   100
 73
     1
 74
     3
 75
     0
 76
     0
 77
     0
 78
     0
281
     0
 65
     1
110
0.0
120
0.0
130
0.0
111
1.0
121
0.0
131
0.0
112
0.0
122
1.0
132
0.0
 79
     0
146
0.0
  0
ENDTAB
  0
TABLE
  2
LTYPE
  5
5
330
0
100
AcDbSymbolTable
 70
    14
  0
LTYPE
  5
14
330
5
100
AcDbSymbolTableRecord
100
AcDbLinetypeTableRecord
  2
ByBlock
 70
     0
  3

 72
    65
 73
     0
 40
0.0
  0
LTYPE
  5
15
330
5
100
AcDbSymbolTableRecord
100
AcDbLinetypeTableRecord
  2
ByLayer
 70
     0
  3

 72
    65
 73
     0
 40
0.0
  0
LTYPE
  5
16
330
5
100
AcDbSymbolTableRecord
100
AcDbLinetypeTableRecord
  2
Continuous
 70
     0
  3
Solid line
 72
    65
 73
     0
 40
0.0
  0
LTYPE
  5
64
330
5
100
AcDbSymbolTableRecord
100
AcDbLinetypeTableRecord
  2
AM_ISO02W050
 70
     0
  3
__ __ __ __ __ __ __ __ __ __ __ __ __ __ __
 72
    65
 73
     2
 40
7.5
 49
6.0
 74
     0
 49
-1.5
 74
     0
  0
LTYPE
  5
65
330
5
100
AcDbSymbolTableRecord
100
AcDbLinetypeTableRecord
  2
AM_ISO08W050
 70
     0
  3
____ . ____ . ____ . ____ . ____ . ____ . ____
 72
    65
 73
     4
 40
18.0
 49
12.0
 74
     0
 49
-1.5
 74
     0
 49
3.0
 74
     0
 49
-1.5
 74
     0
  0
LTYPE
  5
66
330
5
100
AcDbSymbolTableRecord
100
AcDbLinetypeTableRecord
  2
AM_ISO09W050
 70
     0
  3
_____ . . _____ . . _____ . . ____ .. ____
 72
    65
 73
     6
 40
22.5
 49
12.0
 74
     0
 49
-1.5
 74
     0
 49
3.0
 74
     0
 49
-1.5
 74
     0
 49
3.0
 74
     0
 49
-1.5
 74
     0
  0
LTYPE
  5
67
330
5
100
AcDbSymbolTableRecord
100
AcDbLinetypeTableRecord
  2
Amconstr
 70
     0
  3
_______________________
 72
    65
 73
     2
 40
9999.0
 49
9999.0
 74
     0
 49
0.0
 74
     0
  0
LTYPE
  5
68
330
5
100
AcDbSymbolTableRecord
100
AcDbLinetypeTableRecord
  2
AM_ISO08W050x2
 70
     0
  3
__ . __ . __ . __ . __ . __
 72
    65
 73
     4
 40
9.0
 49
6.0
 74
     0
 49
-0.75
 74
     0
 49
1.5
 74
     0
 49
-0.75
 74
     0
  0
LTYPE
  5
69
330
5
100
AcDbSymbolTableRecord
100
AcDbLinetypeTableRecord
  2
AM_ISO02W050x2
 70
     0
  3
 _ _ _ _ _ _ _ _ _ _ _ _
 72
    65
 73
     2
 40
3.75
 49
3.0
 74
     0
 49
-0.75
 74
     0
  0
LTYPE
  5
6C
330
5
100
AcDbSymbolTableRecord
100
AcDbLinetypeTableRecord
  2
Amzigzag
 70
     0
  3
/\/-/\/-/\/-/\/-/\/-/\/
 72
    65
 73
     2
 40
11.0001
 49
0.0001
 74
     4
 75
   135
340
6B
 46
0.04
 50
0.0
 44
0.0
 45
0.0
 49
-11.0
 74
     0
  0
LTYPE
  5
7A
330
5
100
AcDbSymbolTableRecord
100
AcDbLinetypeTableRecord
  2
ACISOWELD
 70
     0
  3
_ _ _ _ _
 72
    65
 73
     2
 40
2.0
 49
2.0
 74
     0
 49
-1.0
 74
     0
  0
LTYPE
  5
7B
330
5
100
AcDbSymbolTableRecord
100
AcDbLinetypeTableRecord
  2
ACISOTGB
 70
     0
  3
__ . . __ . .
 72
    65
 73
     6
 40
9.0
 49
4.0
 74
     0
 49
-1.0
 74
     0
 49
1.0
 74
     0
 49
-1.0
 74
     0
 49
1.0
 74
     0
 49
-1.0
 74
     0
  0
LTYPE
  5
7C
330
5
100
AcDbSymbolTableRecord
100
AcDbLinetypeTableRecord
  2
ACISOTGL
 70
     0
  3
_ _ _ _ _
 72
    65
 73
     2
 40
3.0
 49
2.0
 74
     0
 49
-1.0
 74
     0
  0
LTYPE
  5
7E
330
5
100
AcDbSymbolTableRecord
100
AcDbLinetypeTableRecord
  2
CENTER
 70
     0
  3
__ . __
 72
    65
 73
     4
 40
7.0
 49
4.0
 74
     0
 49
-1.0
 74
     0
 49
1.0
 74
     0
 49
-1.0
 74
     0
  0
LTYPE
  5
D8
330
5
100
AcDbSymbolTableRecord
100
AcDbLinetypeTableRecord
  2
HIDDEN
 70
     0
  3
Hidden __ __ __ __ __ __ __ __ __ __ __ __ __ _
 72
    65
 73
     2
 40
9.524999999999998
 49
6.349999999999999
 74
     0
 49
-3.174999999999999
 74
     0
  0
LTYPE
  5
D9
330
5
100
AcDbSymbolTableRecord
100
AcDbLinetypeTableRecord
  2
PHANTOM2
 70
     0
  3
Phantom (.5x) ___ _ _ ___ _ _ ___ _ _ ___ _ _
 72
    65
 73
     6
 40
31.75
 49
15.875
 74
     0
 49
-3.174999999999999
 74
     0
 49
3.174999999999999
 74
     0
 49
-3.174999999999999
 74
     0
 49
3.174999999999999
 74
     0
 49
-3.174999999999999
 74
     0
  0
ENDTAB
  0
TABLE
  2
LAYER
  5
2
102
{ACAD_XDICTIONARY
360
3F9
102
}
330
0
100
AcDbSymbolTable
 70
     8
  0
LAYER
  5
10
330
2
100
AcDbSymbolTableRecord
100
AcDbLayerTableRecord
  2
0
 70
     0
 62
     7
  6
Continuous
370
    -3
390
F
  0
LAYER
  5
206
330
2
100
AcDbSymbolTableRecord
100
AcDbLayerTableRecord
  2
Defpoints
 70
     0
 62
     7
  6
Continuous
290
     0
370
    -3
390
F
  0
LAYER
  5
5AE
330
2
100
AcDbSymbolTableRecord
100
AcDbLayerTableRecord
  2
AM_7
 70
     0
 62
     1
  6
CENTER
370
    25
390
F
  0
LAYER
  5
7C5
330
2
100
AcDbSymbolTableRecord
100
AcDbLayerTableRecord
  2
LOGO
 70
     0
 62
     7
  6
Continuous
370
    -3
390
F
  0
LAYER
  5
7C6
330
2
100
AcDbSymbolTableRecord
100
AcDbLayerTableRecord
  2
AM_5
 70
     0
 62
     5
  6
Continuous
370
    50
390
F
  0
LAYER
  5
7C7
330
2
100
AcDbSymbolTableRecord
100
AcDbLayerTableRecord
  2
AM_VIS
 70
     0
 62
     7
  6
Continuous
370
    50
390
F
  0
LAYER
  5
7C8
330
2
100
AcDbSymbolTableRecord
100
AcDbLayerTableRecord
  2
AM_0
 70
     0
 62
     7
  6
Continuous
370
    50
390
F
  0
LAYER
  5
7C9
330
2
100
AcDbSymbolTableRecord
100
AcDbLayerTableRecord
  2
AM_4
 70
     0
 62
     3
  6
Continuous
370
    25
390
F
  0
ENDTAB
  0
TABLE
  2
STYLE
  5
3
330
0
100
AcDbSymbolTable
 70
     6
  0
STYLE
  5
11
330
3
100
AcDbSymbolTableRecord
100
AcDbTextStyleTableRecord
  2
STANDARD
 70
     0
 40
0.0
 41
1.0
 50
0.0
 71
     0
 42
3.0
  3
ISOCP.SHX
  4
CHINESET.SHX
  0
STYLE
  5
6B
330
3
100
AcDbSymbolTableRecord
100
AcDbTextStyleTableRecord
  2

 70
     1
 40
0.0
 41
1.0
 50
0.0
 71
     0
 42
2.5
  3
ltypeshp.shx
  4

  0
STYLE
  5
6D
330
3
100
AcDbSymbolTableRecord
100
AcDbTextStyleTableRecord
  2
ACISOTS
 70
     0
 40
1.0
 41
1.0
 50
0.0
 71
     0
 42
1.0
  3
isocp.shx
  4
chineset.shx
  0
STYLE
  5
79
330
3
100
AcDbSymbolTableRecord
100
AcDbTextStyleTableRecord
  2
ACISOGDT
 70
     0
 40
0.0
 41
1.0
 50
0.0
 71
     0
 42
2.5
  3
amgdt.shx
  4
chineset.shx
  0
STYLE
  5
60C
330
3
100
AcDbSymbolTableRecord
100
AcDbTextStyleTableRecord
  2
CHINESET
 70
     0
 40
0.0
 41
1.0
 50
0.0
 71
     0
 42
3.0
  3
simplex.shx
  4
CHINESET.SHX
  0
ENDTAB
  0
TABLE
  2
VIEW
  5
6
330
0
100
AcDbSymbolTable
 70
     0
  0
ENDTAB
  0
TABLE
  2
UCS
  5
7
330
0
100
AcDbSymbolTable
 70
     0
  0
ENDTAB
  0
TABLE
  2
APPID
  5
9
330
0
100
AcDbSymbolTable
 70
    27
  0
APPID
  5
12
330
9
100
AcDbSymbolTableRecord
100
AcDbRegAppTableRecord
  2
ACAD
 70
     0
  0
APPID
  5
46
330
9
100
AcDbSymbolTableRecord
100
AcDbRegAppTableRecord
  2
MCAD_NO_VIS
 70
     0
  0
APPID
  5
47
330
9
100
AcDbSymbolTableRecord
100
AcDbRegAppTableRecord
  2
ACAD_TEMP_GRAPHIC
 70
     0
  0
APPID
  5
58
330
9
100
AcDbSymbolTableRecord
100
AcDbRegAppTableRecord
  2
ACATTRIBSERVICES
 70
     0
  0
APPID
  5
EE
330
9
100
AcDbSymbolTableRecord
100
AcDbRegAppTableRecord
  2
AD_DRAW
 70
     0
  0
APPID
  5
10C
330
9
100
AcDbSymbolTableRecord
100
AcDbRegAppTableRecord
  2
DESIGNERASSEMBLIES
 70
     0
  0
APPID
  5
111
330
9
100
AcDbSymbolTableRecord
100
AcDbRegAppTableRecord
  2
ACADM_DIM_EDIT
 70
     0
  0
APPID
  5
112
330
9
100
AcDbSymbolTableRecord
100
AcDbRegAppTableRecord
  2
AMDT_DM_ADJ
 70
     0
  0
APPID
  5
22C
330
9
100
AcDbSymbolTableRecord
100
AcDbRegAppTableRecord
  2
ACAD_DSTYLE_DIMTEXT_FILL
 70
     0
  0
APPID
  5
452
330
9
100
AcDbSymbolTableRecord
100
AcDbRegAppTableRecord
  2
GENIUS_GENOENT_13
 70
     0
  0
APPID
  5
453
330
9
100
AcDbSymbolTableRecord
100
AcDbRegAppTableRecord
  2
GENIUS_GENOBJ-N-CRS_13
 70
     0
  0
APPID
  5
454
330
9
100
AcDbSymbolTableRecord
100
AcDbRegAppTableRecord
  2
GENIUS_GENOLIS_13
 70
     0
  0
APPID
  5
455
330
9
100
AcDbSymbolTableRecord
100
AcDbRegAppTableRecord
  2
GENIUS_GENODEF_13
 70
     0
  0
APPID
  5
456
330
9
100
AcDbSymbolTableRecord
100
AcDbRegAppTableRecord
  2
GENIUS_GENOREF_13
 70
     0
  0
APPID
  5
6F3
330
9
100
AcDbSymbolTableRecord
100
AcDbRegAppTableRecord
  2
ACAD_PSEXT
 70
     0
  0
APPID
  5
7CB
330
9
100
AcDbSymbolTableRecord
100
AcDbRegAppTableRecord
  2
GENIUS_GENREC_14
 70
     0
  0
APPID
  5
7CC
330
9
100
AcDbSymbolTableRecord
100
AcDbRegAppTableRecord
  2
GENIUS_GENOBJ-N-REC_13
 70
     0
  0
APPID
  5
7CD
330
9
100
AcDbSymbolTableRecord
100
AcDbRegAppTableRecord
  2
GENIUS_GENOBJ-N-CEN_13
 70
     0
  0
APPID
  5
7CE
330
9
100
AcDbSymbolTableRecord
100
AcDbRegAppTableRecord
  2
GENIUS_GENCEN_19
 70
     0
  0
APPID
  5
245E
330
9
100
AcDbSymbolTableRecord
100
AcDbRegAppTableRecord
  2
GEVID1124068070
 70
     0
  0
APPID
  5
245F
330
9
100
AcDbSymbolTableRecord
100
AcDbRegAppTableRecord
  2
GEVDC
 70
     0
  0
APPID
  5
2468
330
9
100
AcDbSymbolTableRecord
100
AcDbRegAppTableRecord
  2
AMG_2DHIDE
 70
     0
  0
APPID
  5
2469
330
9
100
AcDbSymbolTableRecord
100
AcDbRegAppTableRecord
  2
AMG_2DSTRUCT_BTR
 70
     0
  0
APPID
  5
247A
330
9
100
AcDbSymbolTableRecord
100
AcDbRegAppTableRecord
  2
ACADM_2DVIEW_IGN_NOTIFY
 70
     0
  0
APPID
  5
2576
330
9
100
AcDbSymbolTableRecord
100
AcDbRegAppTableRecord
  2
GEVID1124068071
 70
     0
  0
APPID
  5
2577
330
9
100
AcDbSymbolTableRecord
100
AcDbRegAppTableRecord
  2
GEVRADREF
 70
     0
  0
APPID
  5
3843
330
9
100
AcDbSymbolTableRecord
100
AcDbRegAppTableRecord
  2
GEVID1124068072
 70
     0
  0
ENDTAB
  0
TABLE
  2
DIMSTYLE
  5
A
330
0
100
AcDbSymbolTable
 70
     9
100
AcDbDimStyleTable
 71
     3
340
81
340
8B
340
86
  0
DIMSTYLE
105
81
330
A
100
AcDbSymbolTableRecord
100
AcDbDimStyleTableRecord
  2
AM_ISO
 70
     0
  4
"
 41
3.0
 42
1.0
 43
14.0
 44
1.5
 47
0.1
 48
0.1
 73
     0
 74
     0
 77
     1
 78
     8
 79
     2
140
3.0
141
0.0
143
0.0393701
146
0.71
147
1.0
172
     1
176
   256
177
   256
178
   256
271
     2
272
     2
283
     0
284
     8
340
11
371
    -1
372
    -1
  0
DIMSTYLE
105
82
330
A
100
AcDbSymbolTableRecord
100
AcDbDimStyleTableRecord
  2
AM_ISO$3
 70
     0
  4
"
 41
3.0
 42
1.0
 43
14.0
 44
1.5
 47
0.1
 48
0.1
 73
     0
 77
     1
 78
     8
 79
     2
140
3.0
141
0.0
143
0.0393701
146
0.71
147
1.0
176
   256
177
   256
178
   256
271
     2
272
     2
283
     0
284
     8
288
     1
289
     0
340
11
371
    -1
372
    -1
  0
DIMSTYLE
105
83
330
A
100
AcDbSymbolTableRecord
100
AcDbDimStyleTableRecord
  2
AM_ISO$4
 70
     0
  4
"
 41
3.0
 42
1.0
 43
14.0
 44
1.5
 47
0.1
 48
0.1
 73
     0
 77
     1
 78
     8
 79
     2
140
3.0
141
0.0
143
0.0393701
146
0.71
147
1.0
176
   256
177
   256
178
   256
271
     2
272
     2
283
     0
284
     8
288
     1
289
     0
340
11
371
    -1
372
    -1
  0
DIMSTYLE
105
84
330
A
100
AcDbSymbolTableRecord
100
AcDbDimStyleTableRecord
  2
AM_ISO$6
 70
     0
  4
"
 41
3.0
 42
1.0
 43
14.0
 44
1.5
 47
0.1
 48
0.1
 73
     0
 74
     0
 78
     8
 79
     2
140
3.0
141
0.0
143
0.0393701
146
0.71
147
1.0
172
     1
176
   256
177
   256
178
   256
271
     2
272
     2
283
     0
284
     8
340
11
371
    -1
372
    -1
  0
DIMSTYLE
105
85
330
A
100
AcDbSymbolTableRecord
100
AcDbDimStyleTableRecord
  2
AM_ISO$7
 70
     0
  4
"
 41
3.0
 42
1.0
 43
14.0
 44
1.5
 47
0.1
 48
0.1
 73
     0
 74
     0
 77
     1
 78
     8
 79
     2
140
5.0
141
0.0
143
0.0393701
146
0.71
147
1.0
172
     1
176
   256
177
   256
178
   256
271
     2
272
     2
283
     0
284
     8
340
11
371
    -1
372
    -1
  0
DIMSTYLE
105
86
330
A
100
AcDbSymbolTableRecord
100
AcDbDimStyleTableRecord
  2
AM_ISO$SF
 70
     0
  4
"
 41
2.5
 42
1.0
 43
10.0
 44
1.0
 47
0.1
 48
0.1
 73
     0
 74
     0
 75
     1
 76
     1
 77
     1
 78
     8
 79
     2
140
3.5
141
0.0
143
0.0393701
146
0.71
147
1.5
172
     1
176
   256
177
   256
178
     2
271
     2
272
     3
274
     4
283
     0
284
     8
340
11
371
    -1
372
    -1
  0
DIMSTYLE
105
8B
330
A
100
AcDbSymbolTableRecord
100
AcDbDimStyleTableRecord
  2
AM_ISO$SH
 70
     0
  4
"
 41
2.5
 42
1.0
 43
10.0
 44
1.0
 47
0.1
 48
0.1
 73
     0
 74
     0
 75
     1
 76
     1
 77
     1
 78
     8
 79
     2
140
3.5
141
0.0
143
0.0393701
144
2.0
146
0.71
147
1.5
172
     1
173
     1
176
   256
177
   256
178
     2
271
     2
272
     3
274
     4
283
     0
284
     8
340
11
343
87
371
    -1
372
    -1
  0
DIMSTYLE
105
40B
102
{ACAD_REACTORS
330
38D4
330
38D5
330
38D3
330
3E23
330
3E24
330
3E25
102
}
330
A
100
AcDbSymbolTableRecord
100
AcDbDimStyleTableRecord
  2
AM_ISO$0
 70
     0
  4
"
 41
3.0
 42
1.0
 43
14.0
 44
1.5
 47
0.1
 48
0.1
 73
     0
 74
     0
 77
     1
 78
     8
 79
     2
140
3.0
141
0.0
143
0.0393701
146
0.71
147
1.0
172
     1
176
   256
177
   256
178
   256
271
     2
272
     2
283
     0
284
     8
340
11
371
    -1
372
    -1
  0
ENDTAB
  0
TABLE
  2
BLOCK_RECORD
  5
1
330
0
100
AcDbSymbolTable
 70
    14
  0
BLOCK_RECORD
  5
1F
102
{ACAD_XDICTIONARY
360
8F
102
}
330
1
100
AcDbSymbolTableRecord
100
AcDbBlockTableRecord
  2
*Model_Space
340
22
  0
BLOCK_RECORD
  5
1B
330
1
100
AcDbSymbolTableRecord
100
AcDbBlockTableRecord
  2
*Paper_Space
340
1E
  0
BLOCK_RECORD
  5
23
330
1
100
AcDbSymbolTableRecord
100
AcDbBlockTableRecord
  2
*Paper_Space0
340
26
  0
BLOCK_RECORD
  5
87
330
1
100
AcDbSymbolTableRecord
100
AcDbBlockTableRecord
  2
GENAXEH
340
0
  0
BLOCK_RECORD
  5
247E
330
1
100
AcDbSymbolTableRecord
100
AcDbBlockTableRecord
  2
*U4
340
0
  0
BLOCK_RECORD
  5
38D6
330
1
100
AcDbSymbolTableRecord
100
AcDbBlockTableRecord
  2
*D5
340
0
  0
BLOCK_RECORD
  5
38E2
330
1
100
AcDbSymbolTableRecord
100
AcDbBlockTableRecord
  2
*D6
340
0
  0
BLOCK_RECORD
  5
38EE
330
1
100
AcDbSymbolTableRecord
100
AcDbBlockTableRecord
  2
*D7
340
0
  0
BLOCK_RECORD
  5
3E2E
330
1
100
AcDbSymbolTableRecord
100
AcDbBlockTableRecord
  2
*D8
340
0
  0
BLOCK_RECORD
  5
3E3A
330
1
100
AcDbSymbolTableRecord
100
AcDbBlockTableRecord
  2
*D9
340
0
  0
BLOCK_RECORD
  5
3E46
330
1
100
AcDbSymbolTableRecord
100
AcDbBlockTableRecord
  2
*D10
340
0
  0
BLOCK_RECORD
  5
42E5
330
1
100
AcDbSymbolTableRecord
100
AcDbBlockTableRecord
  2
*S12
340
0
  0
BLOCK_RECORD
  5
42ED
330
1
100
AcDbSymbolTableRecord
100
AcDbBlockTableRecord
  2
*S13
340
0
  0
ENDTAB
  0
ENDSEC
  0
SECTION
  2
BLOCKS
  0
BLOCK
  5
20
330
1F
100
AcDbEntity
  8
0
100
AcDbBlockBegin
  2
*Model_Space
 70
     0
 10
0.0
 20
0.0
 30
0.0
  3
*Model_Space
  1

  0
ENDBLK
  5
21
330
1F
100
AcDbEntity
  8
0
100
AcDbBlockEnd
  0
BLOCK
  5
1C
330
1B
100
AcDbEntity
 67
     1
  8
0
100
AcDbBlockBegin
  2
*Paper_Space
 70
     0
 10
0.0
 20
0.0
 30
0.0
  3
*Paper_Space
  1

  0
ENDBLK
  5
1D
330
1B
100
AcDbEntity
 67
     1
  8
0
100
AcDbBlockEnd
  0
BLOCK
  5
24
330
23
100
AcDbEntity
  8
0
100
AcDbBlockBegin
  2
*Paper_Space0
 70
     0
 10
0.0
 20
0.0
 30
0.0
  3
*Paper_Space0
  1

  0
ENDBLK
  5
25
330
23
100
AcDbEntity
  8
0
100
AcDbBlockEnd
  0
BLOCK
  5
89
330
87
100
AcDbEntity
  8
0
100
AcDbBlockBegin
  2
GENAXEH
 70
     0
 10
0.0
 20
0.0
 30
0.0
  3
GENAXEH
  1

  0
LINE
  5
88
330
87
100
AcDbEntity
  8
0
100
AcDbLine
 10
-1.0
 20
0.0
 30
0.0
 11
1.0
 21
0.0
 31
0.0
  0
ENDBLK
  5
8A
330
87
100
AcDbEntity
  8
0
100
AcDbBlockEnd
  0
BLOCK
  5
247F
330
247E
100
AcDbEntity
  8
0
100
AcDbBlockBegin
  2
*U4
 70
     1
 10
0.0
 20
0.0
 30
0.0
  3
*U4
  1

  0
ENDBLK
  5
2480
330
247E
100
AcDbEntity
  8
0
100
AcDbBlockEnd
  0
BLOCK
  5
38E0
330
38D6
100
AcDbEntity
  8
0
100
AcDbBlockBegin
  2
*D5
 70
     1
 10
0.0
 20
0.0
 30
0.0
  3
*D5
  1

  0
LINE
  5
3EF6
330
38D6
100
AcDbEntity
  8
AM_5
100
AcDbLine
 10
2205.875007945477
 20
1605.994887308548
 30
0.0
 11
2246.286585220898
 21
1605.994887308548
 31
0.0
  0
LINE
  5
3EF7
330
38D6
100
AcDbEntity
  8
AM_5
100
AcDbLine
 10
2214.875007945477
 20
1619.994887308548
 30
0.0
 11
2246.286585220898
 21
1619.994887308548
 31
0.0
  0
LINE
  5
3EF8
330
38D6
100
AcDbEntity
  8
AM_5
100
AcDbLine
 10
2244.036585220898
 20
1610.494887308548
 30
0.0
 11
2244.036585220898
 21
1615.494887308548
 31
0.0
  0
SOLID
  5
3EF9
330
38D6
100
AcDbEntity
  8
AM_5
100
AcDbTrace
 10
2243.286585220898
 20
1610.494887308548
 30
0.0
 11
2244.786585220898
 21
1610.494887308548
 31
0.0
 12
2244.036585220898
 22
1605.994887308548
 32
0.0
 13
2244.036585220898
 23
1605.994887308548
 33
0.0
  0
SOLID
  5
3EFA
330
38D6
100
AcDbEntity
  8
AM_5
100
AcDbTrace
 10
2243.286585220898
 20
1615.494887308548
 30
0.0
 11
2244.786585220898
 21
1615.494887308548
 31
0.0
 12
2244.036585220898
 22
1619.994887308548
 32
0.0
 13
2244.036585220898
 23
1619.994887308548
 33
0.0
  0
MTEXT
  5
3EFB
330
38D6
100
AcDbEntity
  8
AM_5
100
AcDbMText
 10
2240.286142307512
 20
1612.994887308548
 30
0.0
 40
4.5
 41
0.0
 71
     5
 72
     1
  1
L2
 11
0.0000000000000001
 21
1.0
 31
0.0
 73
     1
 44
1.0
1001
ACAD
1000
MTEXTBEGIN
1070
    73
1070
     1
1070
    44
1040
1.0
1070
    74
1070
     0
1000
MTEXTEND
  0
POINT
  5
3EFC
330
38D6
100
AcDbEntity
  8
Defpoints
 62
     0
100
AcDbPoint
 10
2204.375007945477
 20
1605.994887308548
 30
0.0
  0
POINT
  5
3EFD
330
38D6
100
AcDbEntity
  8
Defpoints
 62
     0
100
AcDbPoint
 10
2213.375007945477
 20
1619.994887308548
 30
0.0
  0
POINT
  5
3EFE
330
38D6
100
AcDbEntity
  8
Defpoints
 62
     0
100
AcDbPoint
 10
2244.036585220898
 20
1619.994887308548
 30
0.0
  0
ENDBLK
  5
38E1
330
38D6
100
AcDbEntity
  8
0
100
AcDbBlockEnd
  0
BLOCK
  5
38EC
330
38E2
100
AcDbEntity
  8
0
100
AcDbBlockBegin
  2
*D6
 70
     1
 10
0.0
 20
0.0
 30
0.0
  3
*D6
  1

  0
LINE
  5
3EFF
330
38E2
100
AcDbEntity
  8
AM_5
100
AcDbLine
 10
2214.875007945477
 20
1619.994887308548
 30
0.0
 11
2232.286585220898
 21
1619.994887308548
 31
0.0
  0
LINE
  5
3F00
330
38E2
100
AcDbEntity
  8
AM_5
100
AcDbLine
 10
2214.875007945477
 20
1675.494887308548
 30
0.0
 11
2232.286585220898
 21
1675.494887308548
 31
0.0
  0
LINE
  5
3F01
330
38E2
100
AcDbEntity
  8
AM_5
100
AcDbLine
 10
2230.036585220898
 20
1624.494887308548
 30
0.0
 11
2230.036585220898
 21
1670.994887308548
 31
0.0
  0
SOLID
  5
3F02
330
38E2
100
AcDbEntity
  8
AM_5
100
AcDbTrace
 10
2229.286585220898
 20
1624.494887308548
 30
0.0
 11
2230.786585220898
 21
1624.494887308548
 31
0.0
 12
2230.036585220898
 22
1619.994887308548
 32
0.0
 13
2230.036585220898
 23
1619.994887308548
 33
0.0
  0
SOLID
  5
3F03
330
38E2
100
AcDbEntity
  8
AM_5
100
AcDbTrace
 10
2229.286585220898
 20
1670.994887308548
 30
0.0
 11
2230.786585220898
 21
1670.994887308548
 31
0.0
 12
2230.036585220898
 22
1675.494887308548
 32
0.0
 13
2230.036585220898
 23
1675.494887308548
 33
0.0
  0
MTEXT
  5
3F04
330
38E2
100
AcDbEntity
  8
AM_5
100
AcDbMText
 10
2226.286585220897
 20
1647.744887308548
 30
0.0
 40
4.5
 41
0.0
 71
     5
 72
     1
  1
L1
 11
0.0000000000000001
 21
1.0
 31
0.0
 73
     1
 44
1.0
1001
ACAD
1000
MTEXTBEGIN
1070
    73
1070
     1
1070
    44
1040
1.0
1070
    74
1070
     0
1000
MTEXTEND
  0
POINT
  5
3F05
330
38E2
100
AcDbEntity
  8
Defpoints
 62
     0
100
AcDbPoint
 10
2213.375007945477
 20
1619.994887308548
 30
0.0
  0
POINT
  5
3F06
330
38E2
100
AcDbEntity
  8
Defpoints
 62
     0
100
AcDbPoint
 10
2213.375007945477
 20
1675.494887308548
 30
0.0
  0
POINT
  5
3F07
330
38E2
100
AcDbEntity
  8
Defpoints
 62
     0
100
AcDbPoint
 10
2230.036585220898
 20
1675.494887308548
 30
0.0
  0
ENDBLK
  5
38ED
330
38E2
100
AcDbEntity
  8
0
100
AcDbBlockEnd
  0
BLOCK
  5
38F8
330
38EE
100
AcDbEntity
  8
0
100
AcDbBlockBegin
  2
*D7
 70
     1
 10
0.0
 20
0.0
 30
0.0
  3
*D7
  1

  0
LINE
  5
40AC
330
38EE
100
AcDbEntity
  8
AM_5
100
AcDbLine
 10
2214.875007945477
 20
1619.994887308548
 30
0.0
 11
2246.286585220898
 21
1619.994887308548
 31
0.0
  0
LINE
  5
40AD
330
38EE
100
AcDbEntity
  8
AM_5
100
AcDbLine
 10
2209.375007945477
 20
1687.494887308548
 30
0.0
 11
2246.286585220898
 21
1687.494887308548
 31
0.0
  0
LINE
  5
40AE
330
38EE
100
AcDbEntity
  8
AM_5
100
AcDbLine
 10
2244.036585220898
 20
1624.494887308548
 30
0.0
 11
2244.036585220898
 21
1682.994887308548
 31
0.0
  0
SOLID
  5
40AF
330
38EE
100
AcDbEntity
  8
AM_5
100
AcDbTrace
 10
2243.286585220898
 20
1624.494887308548
 30
0.0
 11
2244.786585220898
 21
1624.494887308548
 31
0.0
 12
2244.036585220898
 22
1619.994887308548
 32
0.0
 13
2244.036585220898
 23
1619.994887308548
 33
0.0
  0
SOLID
  5
40B0
330
38EE
100
AcDbEntity
  8
AM_5
100
AcDbTrace
 10
2243.286585220898
 20
1682.994887308548
 30
0.0
 11
2244.786585220898
 21
1682.994887308548
 31
0.0
 12
2244.036585220898
 22
1687.494887308548
 32
0.0
 13
2244.036585220898
 23
1687.494887308548
 33
0.0
  0
MTEXT
  5
40B1
330
38EE
100
AcDbEntity
  8
AM_5
100
AcDbMText
 10
2240.286585220898
 20
1653.744887308549
 30
0.0
 40
4.5
 41
0.0
 71
     5
 72
     1
  1
L
 11
0.0000000000000001
 21
1.0
 31
0.0
 73
     1
 44
1.0
1001
ACAD
1000
MTEXTBEGIN
1070
    73
1070
     1
1070
    44
1040
1.0
1070
    74
1070
     0
1000
MTEXTEND
  0
POINT
  5
40B2
330
38EE
100
AcDbEntity
  8
Defpoints
 62
     0
100
AcDbPoint
 10
2213.375007945477
 20
1619.994887308548
 30
0.0
  0
POINT
  5
40B3
330
38EE
100
AcDbEntity
  8
Defpoints
 62
     0
100
AcDbPoint
 10
2207.875007945477
 20
1687.494887308548
 30
0.0
  0
POINT
  5
40B4
330
38EE
100
AcDbEntity
  8
Defpoints
 62
     0
100
AcDbPoint
 10
2244.036585220898
 20
1687.494887308548
 30
0.0
  0
ENDBLK
  5
38F9
330
38EE
100
AcDbEntity
  8
0
100
AcDbBlockEnd
  0
BLOCK
  5
3E38
330
3E2E
100
AcDbEntity
  8
0
100
AcDbBlockBegin
  2
*D8
 70
     1
 10
0.0
 20
0.0
 30
0.0
  3
*D8
  1

  0
LINE
  5
4096
330
3E2E
100
AcDbEntity
  8
AM_5
100
AcDbLine
 10
2205.875007945477
 20
1298.243672823083
 30
0.0
 11
2246.286585220898
 21
1298.243672823083
 31
0.0
  0
LINE
  5
4097
330
3E2E
100
AcDbEntity
  8
AM_5
100
AcDbLine
 10
2214.875007945477
 20
1300.243672823083
 30
0.0
 11
2246.286585220898
 21
1300.243672823083
 31
0.0
  0
LINE
  5
4098
330
3E2E
100
AcDbEntity
  8
AM_5
100
AcDbLine
 10
2244.036585220898
 20
1304.743672823083
 30
0.0
 11
2244.036585220898
 21
1309.243672823083
 31
0.0
  0
LINE
  5
4099
330
3E2E
100
AcDbEntity
  8
AM_5
100
AcDbLine
 10
2244.036585220898
 20
1293.743672823083
 30
0.0
 11
2244.036585220898
 21
1281.023407075052
 31
0.0
  0
LINE
  5
409A
330
3E2E
100
AcDbEntity
  8
AM_5
100
AcDbLine
 10
2244.036585220898
 20
1300.243672823083
 30
0.0
 11
2244.036585220898
 21
1298.243672823083
 31
0.0
  0
SOLID
  5
409B
330
3E2E
100
AcDbEntity
  8
AM_5
100
AcDbTrace
 10
2243.286585220898
 20
1304.743672823083
 30
0.0
 11
2244.786585220898
 21
1304.743672823083
 31
0.0
 12
2244.036585220898
 22
1300.243672823083
 32
0.0
 13
2244.036585220898
 23
1300.243672823083
 33
0.0
  0
SOLID
  5
409C
330
3E2E
100
AcDbEntity
  8
AM_5
100
AcDbTrace
 10
2243.286585220898
 20
1293.743672823083
 30
0.0
 11
2244.786585220898
 21
1293.743672823083
 31
0.0
 12
2244.036585220898
 22
1298.243672823083
 32
0.0
 13
2244.036585220898
 23
1298.243672823083
 33
0.0
  0
MTEXT
  5
409D
330
3E2E
100
AcDbEntity
  8
AM_5
100
AcDbMText
 10
2240.286142307512
 20
1285.133539949068
 30
0.0
 40
4.5
 41
0.0
 71
     5
 72
     1
  1
L2
 11
0.0000000000000001
 21
1.0
 31
0.0
 73
     1
 44
1.0
1001
ACAD
1000
MTEXTBEGIN
1070
    73
1070
     1
1070
    44
1040
1.0
1070
    74
1070
     0
1000
MTEXTEND
  0
POINT
  5
409E
330
3E2E
100
AcDbEntity
  8
Defpoints
 62
     0
100
AcDbPoint
 10
2204.375007945477
 20
1298.243672823083
 30
0.0
  0
POINT
  5
409F
330
3E2E
100
AcDbEntity
  8
Defpoints
 62
     0
100
AcDbPoint
 10
2213.375007945477
 20
1300.243672823083
 30
0.0
  0
POINT
  5
40A0
330
3E2E
100
AcDbEntity
  8
Defpoints
 62
     0
100
AcDbPoint
 10
2244.036585220898
 20
1300.243672823083
 30
0.0
  0
ENDBLK
  5
3E39
330
3E2E
100
AcDbEntity
  8
0
100
AcDbBlockEnd
  0
BLOCK
  5
3E44
330
3E3A
100
AcDbEntity
  8
0
100
AcDbBlockBegin
  2
*D9
 70
     1
 10
0.0
 20
0.0
 30
0.0
  3
*D9
  1

  0
LINE
  5
3F6C
330
3E3A
100
AcDbEntity
  8
AM_5
100
AcDbLine
 10
2214.875007945477
 20
1300.243672823083
 30
0.0
 11
2232.286585220898
 21
1300.243672823083
 31
0.0
  0
LINE
  5
3F6D
330
3E3A
100
AcDbEntity
  8
AM_5
100
AcDbLine
 10
2214.875007945477
 20
1355.743672823083
 30
0.0
 11
2232.286585220898
 21
1355.743672823083
 31
0.0
  0
LINE
  5
3F6E
330
3E3A
100
AcDbEntity
  8
AM_5
100
AcDbLine
 10
2230.036585220898
 20
1304.743672823083
 30
0.0
 11
2230.036585220898
 21
1351.243672823083
 31
0.0
  0
SOLID
  5
3F6F
330
3E3A
100
AcDbEntity
  8
AM_5
100
AcDbTrace
 10
2229.286585220898
 20
1304.743672823083
 30
0.0
 11
2230.786585220898
 21
1304.743672823083
 31
0.0
 12
2230.036585220898
 22
1300.243672823083
 32
0.0
 13
2230.036585220898
 23
1300.243672823083
 33
0.0
  0
SOLID
  5
3F70
330
3E3A
100
AcDbEntity
  8
AM_5
100
AcDbTrace
 10
2229.286585220898
 20
1351.243672823083
 30
0.0
 11
2230.786585220898
 21
1351.243672823083
 31
0.0
 12
2230.036585220898
 22
1355.743672823083
 32
0.0
 13
2230.036585220898
 23
1355.743672823083
 33
0.0
  0
MTEXT
  5
3F71
330
3E3A
100
AcDbEntity
  8
AM_5
100
AcDbMText
 10
2226.286585220897
 20
1327.993672823083
 30
0.0
 40
4.5
 41
0.0
 71
     5
 72
     1
  1
L1
 11
0.0000000000000001
 21
1.0
 31
0.0
 73
     1
 44
1.0
1001
ACAD
1000
MTEXTBEGIN
1070
    73
1070
     1
1070
    44
1040
1.0
1070
    74
1070
     0
1000
MTEXTEND
  0
POINT
  5
3F72
330
3E3A
100
AcDbEntity
  8
Defpoints
 62
     0
100
AcDbPoint
 10
2213.375007945477
 20
1300.243672823083
 30
0.0
  0
POINT
  5
3F73
330
3E3A
100
AcDbEntity
  8
Defpoints
 62
     0
100
AcDbPoint
 10
2213.375007945477
 20
1355.743672823083
 30
0.0
  0
POINT
  5
3F74
330
3E3A
100
AcDbEntity
  8
Defpoints
 62
     0
100
AcDbPoint
 10
2230.036585220898
 20
1355.743672823083
 30
0.0
  0
ENDBLK
  5
3E45
330
3E3A
100
AcDbEntity
  8
0
100
AcDbBlockEnd
  0
BLOCK
  5
3E50
330
3E46
100
AcDbEntity
  8
0
100
AcDbBlockBegin
  2
*D10
 70
     1
 10
0.0
 20
0.0
 30
0.0
  3
*D10
  1

  0
LINE
  5
40B6
330
3E46
100
AcDbEntity
  8
AM_5
100
AcDbLine
 10
2214.875007945477
 20
1300.243672823083
 30
0.0
 11
2246.286585220898
 21
1300.243672823083
 31
0.0
  0
LINE
  5
40B7
330
3E46
100
AcDbEntity
  8
AM_5
100
AcDbLine
 10
2209.375007945477
 20
1367.743672823083
 30
0.0
 11
2246.286585220898
 21
1367.743672823083
 31
0.0
  0
LINE
  5
40B8
330
3E46
100
AcDbEntity
  8
AM_5
100
AcDbLine
 10
2244.036585220898
 20
1304.743672823083
 30
0.0
 11
2244.036585220898
 21
1363.243672823083
 31
0.0
  0
SOLID
  5
40B9
330
3E46
100
AcDbEntity
  8
AM_5
100
AcDbTrace
 10
2243.286585220898
 20
1304.743672823083
 30
0.0
 11
2244.786585220898
 21
1304.743672823083
 31
0.0
 12
2244.036585220898
 22
1300.243672823083
 32
0.0
 13
2244.036585220898
 23
1300.243672823083
 33
0.0
  0
SOLID
  5
40BA
330
3E46
100
AcDbEntity
  8
AM_5
100
AcDbTrace
 10
2243.286585220898
 20
1363.243672823083
 30
0.0
 11
2244.786585220898
 21
1363.243672823083
 31
0.0
 12
2244.036585220898
 22
1367.743672823083
 32
0.0
 13
2244.036585220898
 23
1367.743672823083
 33
0.0
  0
MTEXT
  5
40BB
330
3E46
100
AcDbEntity
  8
AM_5
100
AcDbMText
 10
2240.286585220898
 20
1333.993672823084
 30
0.0
 40
4.5
 41
0.0
 71
     5
 72
     1
  1
L
 11
0.0000000000000001
 21
1.0
 31
0.0
 73
     1
 44
1.0
1001
ACAD
1000
MTEXTBEGIN
1070
    73
1070
     1
1070
    44
1040
1.0
1070
    74
1070
     0
1000
MTEXTEND
  0
POINT
  5
40BC
330
3E46
100
AcDbEntity
  8
Defpoints
 62
     0
100
AcDbPoint
 10
2213.375007945477
 20
1300.243672823083
 30
0.0
  0
POINT
  5
40BD
330
3E46
100
AcDbEntity
  8
Defpoints
 62
     0
100
AcDbPoint
 10
2207.875007945477
 20
1367.743672823083
 30
0.0
  0
POINT
  5
40BE
330
3E46
100
AcDbEntity
  8
Defpoints
 62
     0
100
AcDbPoint
 10
2244.036585220898
 20
1367.743672823083
 30
0.0
  0
ENDBLK
  5
3E51
330
3E46
100
AcDbEntity
  8
0
100
AcDbBlockEnd
  0
BLOCK
  5
42EA
330
42E5
100
AcDbEntity
  8
0
100
AcDbBlockBegin
  2
*S12
 70
     1
 10
0.0
 20
0.0
 30
0.0
  3
*S12
  1

  0
LINE
  5
42E6
330
42E5
100
AcDbEntity
  8
AM_5
 62
     5
100
AcDbLine
 10
2111.208992520708
 20
1608.525466226187
 30
0.0
 11
2091.314521908424
 21
1608.525466226187
 31
0.0
  0
LINE
  5
42E7
330
42E5
100
AcDbEntity
  8
AM_5
 62
     5
100
AcDbLine
 10
2091.314521908424
 20
1608.525466226187
 30
0.0
 11
2083.816456126204
 21
1634.179589342263
 31
0.0
  0
TRACE
  5
42E8
330
42E5
100
AcDbEntity
  8
AM_5
 62
     5
370
    35
100
AcDbTrace
 10
2084.479876076016
 20
1634.373490587783
 30
0.0
 11
2083.153036176392
 21
1633.985688096744
 31
0.0
 12
2082.343629936513
 22
1639.218764176992
 32
0.0
 13
2082.343629936513
 23
1639.218764176992
 33
0.0
  0
MTEXT
  5
42E9
330
42E5
100
AcDbEntity
  8
AM_5
 62
     2
100
AcDbMText
 10
2111.208992520708
 20
1616.175767254271
 30
0.0
 40
5.25
 41
0.0
 71
     7
 72
     5
  1

  7
ACISOTS
 73
     1
 44
1.0
1001
ACAD
1000
MTEXTBEGIN
1070
    73
1070
     1
1070
    44
1040
1.0
1070
    74
1070
     0
1000
MTEXTEND
  0
ENDBLK
  5
42EB
330
42E5
100
AcDbEntity
  8
0
100
AcDbBlockEnd
  0
BLOCK
  5
42F2
330
42ED
100
AcDbEntity
  8
0
100
AcDbBlockBegin
  2
*S13
 70
     1
 10
0.0
 20
0.0
 30
0.0
  3
*S13
  1

  0
LINE
  5
42EE
330
42ED
100
AcDbEntity
  8
AM_5
 62
     5
100
AcDbLine
 10
2111.208992520708
 20
1288.774251740722
 30
0.0
 11
2091.314521908424
 21
1288.774251740722
 31
0.0
  0
LINE
  5
42EF
330
42ED
100
AcDbEntity
  8
AM_5
 62
     5
100
AcDbLine
 10
2091.314521908424
 20
1288.774251740722
 30
0.0
 11
2083.816456126204
 21
1314.428374856798
 31
0.0
  0
TRACE
  5
42F0
330
42ED
100
AcDbEntity
  8
AM_5
 62
     5
370
    35
100
AcDbTrace
 10
2084.479876076016
 20
1314.622276102318
 30
0.0
 11
2083.153036176392
 21
1314.234473611279
 31
0.0
 12
2082.343629936513
 22
1319.467549691527
 32
0.0
 13
2082.343629936513
 23
1319.467549691527
 33
0.0
  0
MTEXT
  5
42F1
330
42ED
100
AcDbEntity
  8
AM_5
 62
     2
100
AcDbMText
 10
2111.208992520708
 20
1296.424552768806
 30
0.0
 40
5.25
 41
0.0
 71
     7
 72
     5
  1

  7
ACISOTS
 73
     1
 44
1.0
1001
ACAD
1000
MTEXTBEGIN
1070
    73
1070
     1
1070
    44
1040
1.0
1070
    74
1070
     0
1000
MTEXTEND
  0
ENDBLK
  5
42F3
330
42ED
100
AcDbEntity
  8
0
100
AcDbBlockEnd
  0
ENDSEC
  0
SECTION
  2
ENTITIES
  0
LINE
  5
D9C
330
1F
100
AcDbEntity
  8
LOGO
 62
     1
100
AcDbLine
 10
2465.721149929851
 20
1183.128023561399
 30
0.0
 11
1990.747616088848
 21
1183.128023561399
 31
0.0
  0
LWPOLYLINE
  5
DB0
330
1F
100
AcDbEntity
  8
0
 62
     4
100
AcDbPolyline
 90
        4
 70
     1
 43
0.0
 10
1990.747616088849
 20
1183.128023561399
 10
2465.721149929851
 20
1183.128023561399
 10
2465.721149929851
 20
1808.157833918666
 10
1990.747616088849
 20
1808.157833918666
1001
GENIUS_GENREC_14
1002
{
1000
PYDIR
1011
1990.747616088849
1021
1808.157833918666
1031
0.0
1002
}
1002
{
1000
PXDIR
1011
2465.721149929851
1021
1183.128023561399
1031
0.0
1002
}
1002
{
1000
PORI
1011
1990.747616088849
1021
1183.128023561399
1031
0.0
1002
}
1002
{
1000
PINS
1011
1990.747616088849
1021
1183.128023561399
1031
0.0
1002
}
1002
{
1000
PINS2
1011
2465.721149929851
1021
1808.157833918666
1031
0.0
1002
}
1002
{
1000
C
1070
     1
1002
}
1001
GENIUS_GENODEF_13
1002
{
1000
HIER
1070
     0
1002
}
1002
{
1000
MANEDIT
1070
     0
1002
}
1002
{
1000
NOSEL
1070
     0
1002
}
1002
{
1000
BEHIND
1070
     0
1002
}
1002
{
1000
OTHER
1070
     0
1002
}
1002
{
1000
REACTOR
1002
}
1001
GENIUS_GENOBJ-N-REC_13
1002
{
1000
OWNER
1000
GEN
1002
}
  0
LINE
  5
DEE
330
1F
100
AcDbEntity
  8
LOGO
 62
     4
100
AcDbLine
 10
2165.970913285896
 20
1145.854669523635
 30
0.0
 11
2138.857200389665
 21
1145.854669523635
 31
0.0
  0
LINE
  5
DEF
330
1F
100
AcDbEntity
  8
LOGO
 62
     4
100
AcDbLine
 10
2165.970913285896
 20
1160.767211616563
 30
0.0
 11
2138.857200389665
 21
1160.767211616563
 31
0.0
  0
LINE
  5
DF0
330
1F
100
AcDbEntity
  8
LOGO
 62
     4
100
AcDbLine
 10
2168.682284575519
 20
1166.867797018215
 30
0.0
 11
2136.145829100041
 21
1166.867797018215
 31
0.0
  0
LINE
  5
DF1
330
1F
100
AcDbEntity
  8
LOGO
 62
     4
100
AcDbLine
 10
2168.682284575519
 20
1179.068967821519
 30
0.0
 11
2136.145829100041
 21
1179.068967821519
 31
0.0
  0
TEXT
  5
DF2
330
1F
100
AcDbEntity
  8
LOGO
  6
Continuous
 62
     7
100
AcDbText
 10
2138.864056837779
 20
1169.411507419867
 30
0.0
 40
7.11375
  1
MCGB
  7
CHINESET
 72
     1
 11
2152.414056837779
 21
1172.968382419867
 31
0.0
100
AcDbText
 73
     2
  0
LINE
  5
DF3
330
1F
100
AcDbEntity
  8
LOGO
 62
     4
100
AcDbLine
 10
2136.145829100041
 20
1179.068967821519
 30
0.0
 11
2136.145829100041
 21
1166.867797018215
 31
0.0
  0
LINE
  5
DF4
330
1F
100
AcDbEntity
  8
LOGO
 62
     4
100
AcDbLine
 10
2138.857200389665
 20
1160.767211616563
 30
0.0
 11
2138.857200389665
 21
1145.854669523635
 31
0.0
  0
TEXT
  5
DF5
330
1F
100
AcDbEntity
  8
LOGO
  6
Continuous
100
AcDbText
 10
2147.768342552065
 20
1147.719508635665
 30
266.5482113979595
 40
3.04875
  1
Model
 41
0.8
  7
CHINESET
 72
     4
 11
2152.414056837779
 21
1149.243883635665
 31
266.5482113979595
100
AcDbText
  0
TEXT
  5
DF6
330
1F
100
AcDbEntity
  8
LOGO
100
AcDbText
 10
2147.332806837779
 20
1153.611718847911
 30
266.5482113979595
 40
5.08125
  1
型式
  7
CHINESET
 72
     4
 11
2152.414056837779
 21
1156.022311859722
 31
266.5482113979595
100
AcDbText
  0
LINE
  5
DF7
330
1F
100
AcDbEntity
  8
LOGO
 62
     4
100
AcDbLine
 10
2152.414056837779
 20
1166.867797018215
 30
0.0
 11
2152.414056837779
 21
1160.767211616563
 31
0.0
  0
LINE
  5
DF8
330
1F
100
AcDbEntity
  8
LOGO
 62
     4
100
AcDbLine
 10
2168.682284575519
 20
1179.068967821519
 30
0.0
 11
2168.682284575519
 21
1166.867797018215
 31
0.0
  0
LINE
  5
DF9
330
1F
100
AcDbEntity
  8
LOGO
 62
     4
100
AcDbLine
 10
2213.604896010884
 20
1179.068967821519
 30
0.0
 11
2213.604896010884
 21
1166.867797018215
 31
0.0
  0
LINE
  5
DFA
330
1F
100
AcDbEntity
  8
LOGO
 62
     4
100
AcDbLine
 10
2178.281958815095
 20
1179.068967821519
 30
0.0
 11
2178.281958815095
 21
1166.867797018215
 31
0.0
  0
TEXT
  5
DFB
330
1F
100
AcDbEntity
  8
LOGO
  6
Continuous
100
AcDbText
 10
2184.503355984418
 20
1148.227633635665
 30
266.5482113979595
 40
3.04875
  1
Bearing type
 41
0.8
  7
CHINESET
 72
     4
 11
2195.94342741299
 21
1149.243883635665
 31
266.5482113979595
100
AcDbText
  0
TEXT
  5
DFC
330
1F
100
AcDbEntity
  8
LOGO
100
AcDbText
 10
2185.83385710049
 20
1153.611718847911
 30
266.5482113979595
 40
5.08125
  1
軸承型式
  7
CHINESET
 72
     4
 11
2195.94342741299
 21
1156.022311859722
 31
266.5482113979595
100
AcDbText
  0
LINE
  5
DFD
330
1F
100
AcDbEntity
  8
LOGO
 62
     4
100
AcDbLine
 10
2213.604896010884
 20
1166.867797018215
 30
0.0
 11
2178.281958815095
 21
1166.867797018215
 31
0.0
  0
LINE
  5
DFE
330
1F
100
AcDbEntity
  8
LOGO
 62
     4
100
AcDbLine
 10
2213.604896010884
 20
1160.767211616563
 30
0.0
 11
2178.281958815095
 21
1160.767211616563
 31
0.0
  0
LINE
  5
DFF
330
1F
100
AcDbEntity
  8
LOGO
 62
     4
100
AcDbLine
 10
2213.604896010884
 20
1145.854669523635
 30
0.0
 11
2178.281958815095
 21
1145.854669523635
 31
0.0
  0
LINE
  5
E00
330
1F
100
AcDbEntity
  8
LOGO
 62
     4
100
AcDbLine
 10
2165.970913285896
 20
1160.767211616563
 30
0.0
 11
2165.970913285896
 21
1145.854669523635
 31
0.0
  0
LINE
  5
E01
330
1F
100
AcDbEntity
  8
LOGO
 62
     4
100
AcDbLine
 10
2178.281958815095
 20
1160.767211616563
 30
0.0
 11
2178.281958815095
 21
1145.854669523635
 31
0.0
  0
LINE
  5
E02
330
1F
100
AcDbEntity
  8
LOGO
 62
     4
100
AcDbLine
 10
2213.604896010884
 20
1160.767211616563
 30
0.0
 11
2213.604896010884
 21
1145.854669523635
 31
0.0
  0
LINE
  5
E03
330
1F
100
AcDbEntity
  8
LOGO
 62
     4
100
AcDbLine
 10
2195.94342741299
 20
1166.867797018215
 30
0.0
 11
2195.94342741299
 21
1160.767211616563
 31
0.0
  0
LINE
  5
E04
330
1F
100
AcDbEntity
  8
LOGO
 62
     4
100
AcDbLine
 10
2213.604896010884
 20
1179.068967821519
 30
0.0
 11
2178.281958815095
 21
1179.068967821519
 31
0.0
  0
LINE
  5
E05
330
1F
100
AcDbEntity
  8
LOGO
  6
Continuous
 62
     7
100
AcDbLine
 10
2170.784362939702
 20
1172.925163944641
 30
0.0
 11
2176.171954765501
 21
1172.925163944641
 31
0.0
  0
TEXT
  5
E06
330
1F
100
AcDbEntity
  8
LOGO
  6
Continuous
 62
     7
100
AcDbText
 10
2179.68342741299
 20
1169.334639616679
 30
0.0
 40
7.11375
  1
03/23
  7
CHINESET
 72
     1
 11
2195.94342741299
 21
1172.891514616679
 31
0.0
100
AcDbText
 73
     2
  0
TEXT
  5
E07
330
1F
100
AcDbEntity
  8
LOGO
  6
Continuous
 62
     7
100
AcDbText
 10
2260.736017895415
 20
1169.334639616679
 30
0.0
 40
7.11375
  1
20
  7
CHINESET
 72
     1
 11
2266.494767895415
 21
1172.891514616679
 31
0.0
100
AcDbText
 73
     2
  0
TEXT
  5
E08
330
1F
100
AcDbEntity
  8
LOGO
  6
Continuous
100
AcDbText
 10
2260.345328705617
 20
1147.719508635665
 30
266.5482113979595
 40
3.04875
  1
Stroke
 41
0.8
  7
CHINESET
 72
     4
 11
2265.862114419903
 21
1149.243883635665
 31
266.5482113979595
100
AcDbText
  0
LINE
  5
E09
330
1F
100
AcDbEntity
  8
LOGO
 62
     4
100
AcDbLine
 10
2277.153903602096
 20
1179.068967821519
 30
0.0
 11
2254.570325237709
 21
1179.068967821519
 31
0.0
  0
TEXT
  5
E0A
330
1F
100
AcDbEntity
  8
LOGO
100
AcDbText
 10
2260.780864419903
 20
1153.481686859722
 30
266.5482113979595
 40
5.08125
  1
行程
  7
CHINESET
 72
     4
 11
2265.862114419903
 21
1156.022311859722
 31
266.5482113979595
100
AcDbText
  0
LINE
  5
E0B
330
1F
100
AcDbEntity
  8
LOGO
 62
     4
100
AcDbLine
 10
2275.798217957285
 20
1145.854669523635
 30
0.0
 11
2255.926010882522
 21
1145.854669523635
 31
0.0
  0
LINE
  5
E0C
330
1F
100
AcDbEntity
  8
LOGO
 62
     4
100
AcDbLine
 10
2277.153903602096
 20
1166.867797018215
 30
0.0
 11
2254.570325237709
 21
1166.867797018215
 31
0.0
  0
LINE
  5
E0D
330
1F
100
AcDbEntity
  8
LOGO
 62
     4
100
AcDbLine
 10
2275.798217957285
 20
1160.767211616563
 30
0.0
 11
2255.926010882522
 21
1160.767211616563
 31
0.0
  0
LINE
  5
E0E
330
1F
100
AcDbEntity
  8
LOGO
 62
     4
100
AcDbLine
 10
2244.970650998134
 20
1179.068967821519
 30
0.0
 11
2244.970650998134
 21
1166.867797018215
 31
0.0
  0
LINE
  5
E0F
330
1F
100
AcDbEntity
  8
LOGO
 62
     4
100
AcDbLine
 10
2223.20457025046
 20
1179.068967821519
 30
0.0
 11
2223.20457025046
 21
1166.867797018215
 31
0.0
  0
LINE
  5
E10
330
1F
100
AcDbEntity
  8
LOGO
 62
     4
100
AcDbLine
 10
2254.570325237709
 20
1179.068967821519
 30
0.0
 11
2254.570325237709
 21
1166.867797018215
 31
0.0
  0
LINE
  5
E11
330
1F
100
AcDbEntity
  8
LOGO
 62
     4
100
AcDbLine
 10
2244.970650998134
 20
1145.854669523636
 30
0.0
 11
2223.20457025046
 21
1145.854669523635
 31
0.0
  0
LINE
  5
E12
330
1F
100
AcDbEntity
  8
LOGO
 62
     4
100
AcDbLine
 10
2244.970650998134
 20
1166.867797018215
 30
0.0
 11
2223.20457025046
 21
1166.867797018215
 31
0.0
  0
LINE
  5
E13
330
1F
100
AcDbEntity
  8
LOGO
 62
     4
100
AcDbLine
 10
2244.970650998134
 20
1160.767211616563
 30
0.0
 11
2223.20457025046
 21
1160.767211616563
 31
0.0
  0
LINE
  5
E14
330
1F
100
AcDbEntity
  8
LOGO
 62
     4
100
AcDbLine
 10
2223.20457025046
 20
1160.767211616563
 30
0.0
 11
2223.20457025046
 21
1145.854669523636
 31
0.0
  0
TEXT
  5
E15
330
1F
100
AcDbEntity
  8
LOGO
  6
Continuous
100
AcDbText
 10
2230.312967767154
 20
1147.719508635665
 30
266.5482113979595
 40
3.04875
  1
Bore
 41
0.8
  7
CHINESET
 72
     4
 11
2234.087610624297
 21
1149.243883635665
 31
266.5482113979595
100
AcDbText
  0
TEXT
  5
E16
330
1F
100
AcDbEntity
  8
LOGO
100
AcDbText
 10
2228.688782499297
 20
1153.481686859722
 30
266.5482113979595
 40
5.08125
  1
內徑
  7
CHINESET
 72
     4
 11
2234.087610624297
 21
1156.022311859722
 31
266.5482113979595
100
AcDbText
  0
LINE
  5
E17
330
1F
100
AcDbEntity
  8
LOGO
 62
     4
100
AcDbLine
 10
2234.087610311698
 20
1166.867797018215
 30
0.0
 11
2234.087610311698
 21
1160.767211616563
 31
0.0
  0
LINE
  5
E18
330
1F
100
AcDbEntity
  8
LOGO
 62
     4
100
AcDbLine
 10
2244.970650998134
 20
1160.767211616563
 30
0.0
 11
2244.970650998134
 21
1145.854669523636
 31
0.0
  0
LINE
  5
E19
330
1F
100
AcDbEntity
  8
LOGO
 62
     4
100
AcDbLine
 10
2255.926010882522
 20
1160.767211616563
 30
0.0
 11
2255.926010882522
 21
1145.854669523635
 31
0.0
  0
LINE
  5
E1A
330
1F
100
AcDbEntity
  8
LOGO
 62
     4
100
AcDbLine
 10
2244.970650998134
 20
1179.068967821519
 30
0.0
 11
2223.20457025046
 21
1179.068967821519
 31
0.0
  0
LINE
  5
E1B
330
1F
100
AcDbEntity
  8
LOGO
  6
Continuous
 62
     7
100
AcDbLine
 10
2215.706974375068
 20
1172.925163944641
 30
0.0
 11
2221.094566200867
 21
1172.925163944641
 31
0.0
  0
TEXT
  5
E1C
330
1F
100
AcDbEntity
  8
LOGO
  6
Continuous
 62
     7
100
AcDbText
 10
2228.961514099808
 20
1169.334639616679
 30
0.0
 40
7.11375
  1
25
  7
CHINESET
 72
     1
 11
2234.720264099808
 21
1172.891514616679
 31
0.0
100
AcDbText
 73
     2
  0
LINE
  5
E1D
330
1F
100
AcDbEntity
  8
LOGO
  6
Continuous
 62
     7
100
AcDbLine
 10
2247.072729362318
 20
1172.925163944641
 30
0.0
 11
2252.460321188116
 21
1172.925163944641
 31
0.0
  0
LINE
  5
E1E
330
1F
100
AcDbEntity
  8
LOGO
 62
     4
100
AcDbLine
 10
2277.153903602096
 20
1179.068967821519
 30
0.0
 11
2277.153903602096
 21
1166.867797018215
 31
0.0
  0
LINE
  5
E1F
330
1F
100
AcDbEntity
  8
LOGO
 62
     4
100
AcDbLine
 10
2275.798217957285
 20
1160.767211616563
 30
0.0
 11
2275.798217957285
 21
1145.798439351765
 31
0.0
  0
LINE
  5
E20
330
1F
100
AcDbEntity
  8
LOGO
 62
     4
100
AcDbLine
 10
2266.149236330045
 20
1166.867797018215
 30
0.0
 11
2266.149236330045
 21
1160.767211616563
 31
0.0
  0
LINE
  5
E21
330
1F
100
AcDbEntity
  8
0
 62
     4
100
AcDbLine
 10
1990.747616088849
 20
1495.642928740032
 30
0.0
 11
2465.721149929852
 21
1495.642928740032
 31
0.0
  0
LINE
  5
3553
330
1F
100
AcDbEntity
  8
AM_VIS
100
AcDbLine
 10
2122.875007945477
 20
1760.6505513803
 30
0.0
 11
2122.375007945477
 21
1760.1505513803
 31
0.0
  0
LINE
  5
3562
330
1F
100
AcDbEntity
  8
AM_VIS
100
AcDbLine
 10
2154.475007945477
 20
1762.0505513803
 30
0.0
 11
2153.375007945477
 21
1763.1505513803
 31
0.0
  0
LINE
  5
3563
330
1F
100
AcDbEntity
  8
AM_VIS
100
AcDbLine
 10
2158.675007945477
 20
1762.050551380301
 30
0.0
 11
2154.475007945477
 21
1762.050551380301
 31
0.0
  0
LINE
  5
3564
330
1F
100
AcDbEntity
  8
AM_VIS
100
AcDbLine
 10
2158.675007945477
 20
1761.5005513803
 30
0.0
 11
2158.675007945477
 21
1762.050551380301
 31
0.0
  0
LINE
  5
3565
330
1F
100
AcDbEntity
  8
AM_VIS
100
AcDbLine
 10
2158.325007945477
 20
1761.1505513803
 30
0.0
 11
2158.675007945477
 21
1761.5005513803
 31
0.0
  0
LINE
  5
3566
330
1F
100
AcDbEntity
  8
AM_VIS
100
AcDbLine
 10
2162.075007945477
 20
1761.5005513803
 30
0.0
 11
2162.425007945477
 21
1761.1505513803
 31
0.0
  0
LINE
  5
3567
330
1F
100
AcDbEntity
  8
AM_VIS
100
AcDbLine
 10
2162.075007945477
 20
1762.050551380301
 30
0.0
 11
2162.075007945477
 21
1761.5005513803
 31
0.0
  0
LINE
  5
3568
330
1F
100
AcDbEntity
  8
AM_VIS
100
AcDbLine
 10
2168.675007945477
 20
1762.050551380301
 30
0.0
 11
2162.075007945477
 21
1762.050551380301
 31
0.0
  0
LINE
  5
3569
330
1F
100
AcDbEntity
  8
AM_VIS
100
AcDbLine
 10
2168.675007945477
 20
1761.5005513803
 30
0.0
 11
2168.675007945477
 21
1762.050551380301
 31
0.0
  0
LINE
  5
356A
330
1F
100
AcDbEntity
  8
AM_VIS
100
AcDbLine
 10
2168.325007945477
 20
1761.1505513803
 30
0.0
 11
2168.675007945477
 21
1761.5005513803
 31
0.0
  0
LINE
  5
356B
330
1F
100
AcDbEntity
  8
AM_VIS
100
AcDbLine
 10
2172.075007945477
 20
1761.5005513803
 30
0.0
 11
2172.425007945477
 21
1761.1505513803
 31
0.0
  0
LINE
  5
356C
330
1F
100
AcDbEntity
  8
AM_VIS
100
AcDbLine
 10
2172.075007945477
 20
1762.050551380301
 30
0.0
 11
2172.075007945477
 21
1761.5005513803
 31
0.0
  0
LINE
  5
356D
330
1F
100
AcDbEntity
  8
AM_VIS
100
AcDbLine
 10
2176.275007945477
 20
1762.050551380301
 30
0.0
 11
2172.075007945477
 21
1762.050551380301
 31
0.0
  0
LINE
  5
356E
330
1F
100
AcDbEntity
  8
AM_VIS
100
AcDbLine
 10
2177.375007945477
 20
1763.1505513803
 30
0.0
 11
2176.275007945477
 21
1762.050551380301
 31
0.0
  0
LINE
  5
356F
330
1F
100
AcDbEntity
  8
AM_VIS
100
AcDbLine
 10
2208.075007945477
 20
1763.1505513803
 30
0.0
 11
2208.375007945477
 21
1762.8505513803
 31
0.0
  0
LINE
  5
3570
330
1F
100
AcDbEntity
  8
AM_VIS
100
AcDbLine
 10
2213.375007945477
 20
1762.8505513803
 30
0.0
 11
2208.375007945477
 21
1762.8505513803
 31
0.0
  0
LINE
  5
3571
330
1F
100
AcDbEntity
  8
AM_VIS
100
AcDbLine
 10
2213.375007945477
 20
1754.1505513803
 30
0.0
 11
2213.375007945477
 21
1762.8505513803
 31
0.0
  0
LINE
  5
3572
330
1F
100
AcDbEntity
  8
AM_VIS
100
AcDbLine
 10
2211.875007945477
 20
1752.6505513803
 30
0.0
 11
2213.375007945477
 21
1754.1505513803
 31
0.0
  0
LINE
  5
3573
330
1F
100
AcDbEntity
  8
AM_VIS
100
AcDbLine
 10
2211.875007945477
 20
1739.1505513803
 30
0.0
 11
2211.875007945477
 21
1752.6505513803
 31
0.0
  0
LINE
  5
3574
330
1F
100
AcDbEntity
  8
AM_VIS
100
AcDbLine
 10
2213.375007945477
 20
1737.6505513803
 30
0.0
 11
2211.875007945477
 21
1739.1505513803
 31
0.0
  0
LINE
  5
3575
330
1F
100
AcDbEntity
  8
AM_VIS
100
AcDbLine
 10
2213.375007945477
 20
1721.1505513803
 30
0.0
 11
2213.375007945477
 21
1737.6505513803
 31
0.0
  0
LINE
  5
3576
330
1F
100
AcDbEntity
  8
AM_VIS
100
AcDbLine
 10
2172.075007945477
 20
1722.250551380301
 30
0.0
 11
2178.775007945477
 21
1722.250551380301
 31
0.0
  0
LINE
  5
3577
330
1F
100
AcDbEntity
  8
AM_VIS
100
AcDbLine
 10
2172.075007945477
 20
1722.8005513803
 30
0.0
 11
2172.075007945477
 21
1722.250551380301
 31
0.0
  0
LINE
  5
3578
330
1F
100
AcDbEntity
  8
AM_VIS
100
AcDbLine
 10
2172.425007945477
 20
1723.1505513803
 30
0.0
 11
2172.075007945478
 21
1722.8005513803
 31
0.0
  0
LINE
  5
3579
330
1F
100
AcDbEntity
  8
AM_VIS
100
AcDbLine
 10
2168.675007945477
 20
1722.8005513803
 30
0.0
 11
2168.325007945477
 21
1723.1505513803
 31
0.0
  0
LINE
  5
357A
330
1F
100
AcDbEntity
  8
AM_VIS
100
AcDbLine
 10
2168.675007945477
 20
1722.250551380301
 30
0.0
 11
2168.675007945477
 21
1722.8005513803
 31
0.0
  0
LINE
  5
357B
330
1F
100
AcDbEntity
  8
AM_VIS
100
AcDbLine
 10
2162.075007945477
 20
1722.250551380301
 30
0.0
 11
2168.675007945477
 21
1722.250551380301
 31
0.0
  0
LINE
  5
357C
330
1F
100
AcDbEntity
  8
AM_VIS
100
AcDbLine
 10
2162.075007945477
 20
1722.8005513803
 30
0.0
 11
2162.075007945477
 21
1722.250551380301
 31
0.0
  0
LINE
  5
357D
330
1F
100
AcDbEntity
  8
AM_VIS
100
AcDbLine
 10
2162.425007945477
 20
1723.1505513803
 30
0.0
 11
2162.075007945478
 21
1722.8005513803
 31
0.0
  0
LINE
  5
357E
330
1F
100
AcDbEntity
  8
AM_VIS
100
AcDbLine
 10
2158.675007945477
 20
1722.8005513803
 30
0.0
 11
2158.325007945478
 21
1723.1505513803
 31
0.0
  0
LINE
  5
357F
330
1F
100
AcDbEntity
  8
AM_VIS
100
AcDbLine
 10
2158.675007945477
 20
1722.250551380301
 30
0.0
 11
2158.675007945477
 21
1722.8005513803
 31
0.0
  0
LINE
  5
3580
330
1F
100
AcDbEntity
  8
AM_VIS
100
AcDbLine
 10
2151.975007945477
 20
1722.250551380301
 30
0.0
 11
2158.675007945477
 21
1722.250551380301
 31
0.0
  0
LINE
  5
3581
330
1F
100
AcDbEntity
  8
AM_VIS
100
AcDbLine
 10
2118.875007945477
 20
1739.1505513803
 30
0.0
 11
2117.375007945478
 21
1737.6505513803
 31
0.0
  0
LINE
  5
3582
330
1F
100
AcDbEntity
  8
AM_VIS
100
AcDbLine
 10
2118.875007945477
 20
1752.6505513803
 30
0.0
 11
2118.875007945477
 21
1739.1505513803
 31
0.0
  0
LINE
  5
3583
330
1F
100
AcDbEntity
  8
AM_VIS
100
AcDbLine
 10
2117.375007945478
 20
1754.1505513803
 30
0.0
 11
2118.875007945477
 21
1752.6505513803
 31
0.0
  0
LINE
  5
3584
330
1F
100
AcDbEntity
  8
AM_VIS
100
AcDbLine
 10
2117.375007945478
 20
1762.5505513803
 30
0.0
 11
2117.375007945478
 21
1754.1505513803
 31
0.0
  0
LINE
  5
3585
330
1F
100
AcDbEntity
  8
AM_VIS
100
AcDbLine
 10
2122.375007945477
 20
1762.5505513803
 30
0.0
 11
2117.375007945478
 21
1762.5505513803
 31
0.0
  0
LINE
  5
3586
330
1F
100
AcDbEntity
  8
AM_VIS
100
AcDbLine
 10
2122.375007945477
 20
1762.8505513803
 30
0.0
 11
2122.375007945477
 21
1762.5505513803
 31
0.0
  0
LINE
  5
3587
330
1F
100
AcDbEntity
  8
AM_VIS
100
AcDbLine
 10
2122.375007945477
 20
1762.8505513803
 30
0.0
 11
2122.675007945478
 21
1763.1505513803
 31
0.0
  0
LINE
  5
3588
330
1F
100
AcDbEntity
  8
AM_VIS
100
AcDbLine
 10
2193.075007945477
 20
1763.1505513803
 30
0.0
 11
2191.075007945478
 21
1761.1505513803
 31
0.0
  0
LINE
  5
3589
330
1F
100
AcDbEntity
  8
AM_VIS
100
AcDbLine
 10
2189.675007945477
 20
1761.1505513803
 30
0.0
 11
2187.675007945477
 21
1763.1505513803
 31
0.0
  0
LINE
  5
358A
330
1F
100
AcDbEntity
  8
AM_VIS
100
AcDbLine
 10
2139.675007945477
 20
1761.1505513803
 30
0.0
 11
2137.675007945477
 21
1763.1505513803
 31
0.0
  0
LINE
  5
358B
330
1F
100
AcDbEntity
  8
AM_VIS
100
AcDbLine
 10
2143.075007945477
 20
1763.1505513803
 30
0.0
 11
2141.075007945477
 21
1761.1505513803
 31
0.0
  0
LINE
  5
358C
330
1F
100
AcDbEntity
  8
AM_VIS
100
AcDbLine
 10
2117.375007945478
 20
1737.6505513803
 30
0.0
 11
2117.375007945478
 21
1721.1505513803
 31
0.0
  0
LINE
  5
358D
330
1F
100
AcDbEntity
  8
AM_VIS
100
AcDbLine
 10
2150.875007945477
 20
1721.1505513803
 30
0.0
 11
2151.975007945477
 21
1722.250551380301
 31
0.0
  0
LINE
  5
358E
330
1F
100
AcDbEntity
  8
AM_VIS
100
AcDbLine
 10
2178.775007945477
 20
1722.250551380301
 30
0.0
 11
2179.875007945478
 21
1721.1505513803
 31
0.0
  0
LINE
  5
358F
330
1F
100
AcDbEntity
  8
AM_VIS
100
AcDbLine
 10
2179.875007945478
 20
1721.1505513803
 30
0.0
 11
2213.375007945477
 21
1721.1505513803
 31
0.0
  0
LINE
  5
3590
330
1F
100
AcDbEntity
  8
AM_VIS
100
AcDbLine
 10
2117.375007945478
 20
1721.1505513803
 30
0.0
 11
2150.875007945477
 21
1721.1505513803
 31
0.0
  0
LINE
  5
3591
330
1F
100
AcDbEntity
  8
AM_VIS
100
AcDbLine
 10
2153.375007945477
 20
1763.1505513803
 30
0.0
 11
2143.075007945478
 21
1763.1505513803
 31
0.0
  0
LINE
  5
3592
330
1F
100
AcDbEntity
  8
AM_VIS
100
AcDbLine
 10
2187.675007945477
 20
1763.1505513803
 30
0.0
 11
2177.375007945477
 21
1763.1505513803
 31
0.0
  0
LINE
  5
3593
330
1F
100
AcDbEntity
  8
AM_VIS
100
AcDbLine
 10
2208.075007945477
 20
1763.1505513803
 30
0.0
 11
2193.075007945477
 21
1763.1505513803
 31
0.0
  0
LINE
  5
3594
330
1F
100
AcDbEntity
  8
AM_VIS
100
AcDbLine
 10
2137.675007945477
 20
1763.1505513803
 30
0.0
 11
2122.675007945478
 21
1763.1505513803
 31
0.0
  0
LINE
  5
3597
330
1F
100
AcDbEntity
  8
AM_VIS
100
AcDbLine
 10
2172.425007945477
 20
1577.147720512685
 30
0.0
 11
2168.325007945477
 21
1577.147720512685
 31
0.0
  0
LINE
  5
3598
330
1F
100
AcDbEntity
  8
AM_VIS
100
AcDbLine
 10
2162.425007945477
 20
1577.147720512685
 30
0.0
 11
2158.325007945478
 21
1577.147720512685
 31
0.0
  0
LINE
  5
3599
330
1F
100
AcDbEntity
  8
AM_VIS
100
AcDbLine
 10
2139.675007945477
 20
1539.147720512685
 30
0.0
 11
2141.075007945477
 21
1539.147720512685
 31
0.0
  0
LINE
  5
359A
330
1F
100
AcDbEntity
  8
AM_VIS
100
AcDbLine
 10
2158.325007945477
 20
1539.147720512685
 30
0.0
 11
2162.425007945477
 21
1539.147720512685
 31
0.0
  0
LINE
  5
359B
330
1F
100
AcDbEntity
  8
AM_VIS
100
AcDbLine
 10
2168.325007945477
 20
1539.147720512685
 30
0.0
 11
2172.425007945477
 21
1539.147720512685
 31
0.0
  0
LINE
  5
359C
330
1F
100
AcDbEntity
  8
AM_VIS
100
AcDbLine
 10
2189.675007945477
 20
1539.147720512685
 30
0.0
 11
2191.075007945478
 21
1539.147720512685
 31
0.0
  0
LINE
  5
35A8
330
1F
100
AcDbEntity
  8
AM_VIS
100
AcDbLine
 10
2122.675007945478
 20
1537.147720512685
 30
0.0
 11
2122.375007945477
 21
1537.447720512685
 31
0.0
  0
LINE
  5
35A9
330
1F
100
AcDbEntity
  8
AM_VIS
100
AcDbLine
 10
2122.375007945477
 20
1537.747720512685
 30
0.0
 11
2122.375007945477
 21
1537.447720512685
 31
0.0
  0
LINE
  5
35AA
330
1F
100
AcDbEntity
  8
AM_VIS
100
AcDbLine
 10
2117.375007945478
 20
1537.747720512685
 30
0.0
 11
2122.375007945477
 21
1537.747720512685
 31
0.0
  0
LINE
  5
35AB
330
1F
100
AcDbEntity
  8
AM_VIS
100
AcDbLine
 10
2117.375007945478
 20
1537.747720512685
 30
0.0
 11
2117.375007945478
 21
1546.147720512685
 31
0.0
  0
LINE
  5
35AC
330
1F
100
AcDbEntity
  8
AM_VIS
100
AcDbLine
 10
2118.875007945477
 20
1547.647720512685
 30
0.0
 11
2117.375007945478
 21
1546.147720512685
 31
0.0
  0
LINE
  5
35AD
330
1F
100
AcDbEntity
  8
AM_VIS
100
AcDbLine
 10
2118.875007945477
 20
1561.147720512685
 30
0.0
 11
2118.875007945477
 21
1547.647720512685
 31
0.0
  0
LINE
  5
35AE
330
1F
100
AcDbEntity
  8
AM_VIS
100
AcDbLine
 10
2117.375007945478
 20
1562.647720512685
 30
0.0
 11
2118.875007945477
 21
1561.147720512685
 31
0.0
  0
LINE
  5
35AF
330
1F
100
AcDbEntity
  8
AM_VIS
100
AcDbLine
 10
2151.975007945477
 20
1578.047720512685
 30
0.0
 11
2150.875007945477
 21
1579.147720512685
 31
0.0
  0
LINE
  5
35B0
330
1F
100
AcDbEntity
  8
AM_VIS
100
AcDbLine
 10
2158.675007945477
 20
1578.047720512685
 30
0.0
 11
2151.975007945477
 21
1578.047720512685
 31
0.0
  0
LINE
  5
35B1
330
1F
100
AcDbEntity
  8
AM_VIS
100
AcDbLine
 10
2158.675007945477
 20
1577.497720512685
 30
0.0
 11
2158.675007945477
 21
1578.047720512685
 31
0.0
  0
LINE
  5
35B2
330
1F
100
AcDbEntity
  8
AM_VIS
100
AcDbLine
 10
2158.225007945477
 20
1577.047720512685
 30
0.0
 11
2158.675007945477
 21
1577.497720512685
 31
0.0
  0
LINE
  5
35B3
330
1F
100
AcDbEntity
  8
AM_VIS
100
AcDbLine
 10
2158.225007945477
 20
1574.947720512685
 30
0.0
 11
2158.225007945477
 21
1577.047720512685
 31
0.0
  0
LINE
  5
35B4
330
1F
100
AcDbEntity
  8
AM_VIS
100
AcDbLine
 10
2160.825007945477
 20
1573.247720512685
 30
0.0
 11
2159.925007945477
 21
1573.247720512685
 31
0.0
  0
LINE
  5
35B5
330
1F
100
AcDbEntity
  8
AM_VIS
100
AcDbLine
 10
2162.525007945477
 20
1577.047720512685
 30
0.0
 11
2162.525007945477
 21
1574.947720512685
 31
0.0
  0
LINE
  5
35B6
330
1F
100
AcDbEntity
  8
AM_VIS
100
AcDbLine
 10
2162.075007945477
 20
1577.497720512685
 30
0.0
 11
2162.525007945477
 21
1577.047720512685
 31
0.0
  0
LINE
  5
35B7
330
1F
100
AcDbEntity
  8
AM_VIS
100
AcDbLine
 10
2162.075007945477
 20
1578.047720512685
 30
0.0
 11
2162.075007945477
 21
1577.497720512685
 31
0.0
  0
LINE
  5
35B8
330
1F
100
AcDbEntity
  8
AM_VIS
100
AcDbLine
 10
2168.675007945477
 20
1578.047720512685
 30
0.0
 11
2162.075007945477
 21
1578.047720512685
 31
0.0
  0
LINE
  5
35B9
330
1F
100
AcDbEntity
  8
AM_VIS
100
AcDbLine
 10
2168.675007945477
 20
1577.497720512685
 30
0.0
 11
2168.675007945477
 21
1578.047720512685
 31
0.0
  0
LINE
  5
35BA
330
1F
100
AcDbEntity
  8
AM_VIS
100
AcDbLine
 10
2168.225007945477
 20
1577.047720512685
 30
0.0
 11
2168.675007945477
 21
1577.497720512685
 31
0.0
  0
LINE
  5
35BB
330
1F
100
AcDbEntity
  8
AM_VIS
100
AcDbLine
 10
2168.225007945477
 20
1574.947720512685
 30
0.0
 11
2168.225007945477
 21
1577.047720512685
 31
0.0
  0
LINE
  5
35BC
330
1F
100
AcDbEntity
  8
AM_VIS
100
AcDbLine
 10
2170.825007945477
 20
1573.247720512685
 30
0.0
 11
2169.925007945478
 21
1573.247720512685
 31
0.0
  0
LINE
  5
35BD
330
1F
100
AcDbEntity
  8
AM_VIS
100
AcDbLine
 10
2172.525007945477
 20
1577.047720512685
 30
0.0
 11
2172.525007945477
 21
1574.947720512685
 31
0.0
  0
LINE
  5
35BE
330
1F
100
AcDbEntity
  8
AM_VIS
100
AcDbLine
 10
2172.075007945477
 20
1577.497720512685
 30
0.0
 11
2172.525007945477
 21
1577.047720512685
 31
0.0
  0
LINE
  5
35BF
330
1F
100
AcDbEntity
  8
AM_VIS
100
AcDbLine
 10
2172.075007945477
 20
1578.047720512685
 30
0.0
 11
2172.075007945477
 21
1577.497720512685
 31
0.0
  0
LINE
  5
35C0
330
1F
100
AcDbEntity
  8
AM_VIS
100
AcDbLine
 10
2178.775007945477
 20
1578.047720512685
 30
0.0
 11
2172.075007945477
 21
1578.047720512685
 31
0.0
  0
LINE
  5
35C1
330
1F
100
AcDbEntity
  8
AM_VIS
100
AcDbLine
 10
2213.375007945477
 20
1579.147720512685
 30
0.0
 11
2213.375007945477
 21
1562.647720512685
 31
0.0
  0
LINE
  5
35C2
330
1F
100
AcDbEntity
  8
AM_VIS
100
AcDbLine
 10
2211.875007945477
 20
1561.147720512685
 30
0.0
 11
2213.375007945477
 21
1562.647720512685
 31
0.0
  0
LINE
  5
35C3
330
1F
100
AcDbEntity
  8
AM_VIS
100
AcDbLine
 10
2211.875007945477
 20
1547.647720512685
 30
0.0
 11
2211.875007945477
 21
1561.147720512685
 31
0.0
  0
LINE
  5
35C4
330
1F
100
AcDbEntity
  8
AM_VIS
100
AcDbLine
 10
2213.375007945477
 20
1546.147720512685
 30
0.0
 11
2211.875007945477
 21
1547.647720512685
 31
0.0
  0
LINE
  5
35C5
330
1F
100
AcDbEntity
  8
AM_VIS
100
AcDbLine
 10
2213.375007945477
 20
1546.147720512685
 30
0.0
 11
2213.375007945477
 21
1537.447720512685
 31
0.0
  0
LINE
  5
35C6
330
1F
100
AcDbEntity
  8
AM_VIS
100
AcDbLine
 10
2208.375007945477
 20
1537.447720512685
 30
0.0
 11
2213.375007945477
 21
1537.447720512685
 31
0.0
  0
LINE
  5
35C7
330
1F
100
AcDbEntity
  8
AM_VIS
100
AcDbLine
 10
2208.375007945477
 20
1537.447720512685
 30
0.0
 11
2208.075007945477
 21
1537.147720512685
 31
0.0
  0
LINE
  5
35C8
330
1F
100
AcDbEntity
  8
AM_VIS
100
AcDbLine
 10
2190.375007945477
 20
1539.847720512685
 30
0.0
 11
2193.075007945477
 21
1537.147720512685
 31
0.0
  0
LINE
  5
35C9
330
1F
100
AcDbEntity
  8
AM_VIS
100
AcDbLine
 10
2187.675007945477
 20
1537.147720512685
 30
0.0
 11
2190.375007945477
 21
1539.847720512685
 31
0.0
  0
LINE
  5
35CA
330
1F
100
AcDbEntity
  8
AM_VIS
100
AcDbLine
 10
2176.275007945477
 20
1538.247720512685
 30
0.0
 11
2177.375007945477
 21
1537.147720512685
 31
0.0
  0
LINE
  5
35CB
330
1F
100
AcDbEntity
  8
AM_VIS
100
AcDbLine
 10
2172.075007945477
 20
1538.247720512685
 30
0.0
 11
2176.275007945477
 21
1538.247720512685
 31
0.0
  0
LINE
  5
35CC
330
1F
100
AcDbEntity
  8
AM_VIS
100
AcDbLine
 10
2172.075007945477
 20
1538.797720512685
 30
0.0
 11
2172.075007945477
 21
1538.247720512685
 31
0.0
  0
LINE
  5
35CD
330
1F
100
AcDbEntity
  8
AM_VIS
100
AcDbLine
 10
2172.525007945477
 20
1539.247720512685
 30
0.0
 11
2172.075007945477
 21
1538.797720512685
 31
0.0
  0
LINE
  5
35CE
330
1F
100
AcDbEntity
  8
AM_VIS
100
AcDbLine
 10
2172.525007945477
 20
1541.347720512685
 30
0.0
 11
2172.525007945477
 21
1539.247720512685
 31
0.0
  0
LINE
  5
35CF
330
1F
100
AcDbEntity
  8
AM_VIS
100
AcDbLine
 10
2169.925007945477
 20
1543.047720512685
 30
0.0
 11
2170.825007945477
 21
1543.047720512685
 31
0.0
  0
LINE
  5
35D0
330
1F
100
AcDbEntity
  8
AM_VIS
100
AcDbLine
 10
2168.225007945477
 20
1539.247720512685
 30
0.0
 11
2168.225007945477
 21
1541.347720512685
 31
0.0
  0
LINE
  5
35D1
330
1F
100
AcDbEntity
  8
AM_VIS
100
AcDbLine
 10
2168.675007945477
 20
1538.797720512685
 30
0.0
 11
2168.225007945477
 21
1539.247720512685
 31
0.0
  0
LINE
  5
35D2
330
1F
100
AcDbEntity
  8
AM_VIS
100
AcDbLine
 10
2168.675007945477
 20
1538.247720512685
 30
0.0
 11
2168.675007945477
 21
1538.797720512685
 31
0.0
  0
LINE
  5
35D3
330
1F
100
AcDbEntity
  8
AM_VIS
100
AcDbLine
 10
2162.075007945477
 20
1538.247720512685
 30
0.0
 11
2168.675007945477
 21
1538.247720512685
 31
0.0
  0
LINE
  5
35D4
330
1F
100
AcDbEntity
  8
AM_VIS
100
AcDbLine
 10
2162.075007945477
 20
1538.797720512685
 30
0.0
 11
2162.075007945477
 21
1538.247720512685
 31
0.0
  0
LINE
  5
35D5
330
1F
100
AcDbEntity
  8
AM_VIS
100
AcDbLine
 10
2162.525007945477
 20
1539.247720512685
 30
0.0
 11
2162.075007945477
 21
1538.797720512685
 31
0.0
  0
LINE
  5
35D6
330
1F
100
AcDbEntity
  8
AM_VIS
100
AcDbLine
 10
2162.525007945477
 20
1541.347720512685
 30
0.0
 11
2162.525007945477
 21
1539.247720512685
 31
0.0
  0
LINE
  5
35D7
330
1F
100
AcDbEntity
  8
AM_VIS
100
AcDbLine
 10
2159.925007945477
 20
1543.047720512685
 30
0.0
 11
2160.825007945478
 21
1543.047720512685
 31
0.0
  0
LINE
  5
35D8
330
1F
100
AcDbEntity
  8
AM_VIS
100
AcDbLine
 10
2158.225007945477
 20
1539.247720512685
 30
0.0
 11
2158.225007945477
 21
1541.347720512685
 31
0.0
  0
LINE
  5
35D9
330
1F
100
AcDbEntity
  8
AM_VIS
100
AcDbLine
 10
2158.675007945477
 20
1538.797720512685
 30
0.0
 11
2158.225007945477
 21
1539.247720512685
 31
0.0
  0
LINE
  5
35DA
330
1F
100
AcDbEntity
  8
AM_VIS
100
AcDbLine
 10
2158.675007945477
 20
1538.247720512685
 30
0.0
 11
2158.675007945477
 21
1538.797720512685
 31
0.0
  0
LINE
  5
35DB
330
1F
100
AcDbEntity
  8
AM_VIS
100
AcDbLine
 10
2154.475007945477
 20
1538.247720512685
 30
0.0
 11
2158.675007945477
 21
1538.247720512685
 31
0.0
  0
LINE
  5
35DC
330
1F
100
AcDbEntity
  8
AM_VIS
100
AcDbLine
 10
2153.375007945477
 20
1537.147720512685
 30
0.0
 11
2154.475007945477
 21
1538.247720512685
 31
0.0
  0
LINE
  5
35DD
330
1F
100
AcDbEntity
  8
AM_VIS
100
AcDbLine
 10
2137.675007945477
 20
1537.147720512685
 30
0.0
 11
2140.375007945477
 21
1539.847720512685
 31
0.0
  0
LINE
  5
35DE
330
1F
100
AcDbEntity
  8
AM_VIS
100
AcDbLine
 10
2140.375007945477
 20
1539.847720512685
 30
0.0
 11
2143.075007945477
 21
1537.147720512685
 31
0.0
  0
LINE
  5
35DF
330
1F
100
AcDbEntity
  8
AM_VIS
100
AcDbLine
 10
2117.375007945478
 20
1562.647720512685
 30
0.0
 11
2117.375007945478
 21
1579.147720512685
 31
0.0
  0
LINE
  5
35E0
330
1F
100
AcDbEntity
  8
AM_VIS
100
AcDbLine
 10
2179.875007945478
 20
1579.147720512685
 30
0.0
 11
2178.775007945477
 21
1578.047720512685
 31
0.0
  0
LINE
  5
35E1
330
1F
100
AcDbEntity
  8
AM_VIS
100
AcDbLine
 10
2179.875007945478
 20
1579.147720512685
 30
0.0
 11
2213.375007945477
 21
1579.147720512685
 31
0.0
  0
LINE
  5
35E2
330
1F
100
AcDbEntity
  8
AM_VIS
100
AcDbLine
 10
2117.375007945478
 20
1579.147720512685
 30
0.0
 11
2150.875007945477
 21
1579.147720512685
 31
0.0
  0
LINE
  5
35E3
330
1F
100
AcDbEntity
  8
AM_VIS
100
AcDbLine
 10
2153.375007945477
 20
1537.147720512685
 30
0.0
 11
2143.075007945478
 21
1537.147720512685
 31
0.0
  0
LINE
  5
35E4
330
1F
100
AcDbEntity
  8
AM_VIS
100
AcDbLine
 10
2187.675007945477
 20
1537.147720512685
 30
0.0
 11
2177.375007945477
 21
1537.147720512685
 31
0.0
  0
LINE
  5
35E5
330
1F
100
AcDbEntity
  8
AM_VIS
100
AcDbLine
 10
2208.075007945477
 20
1537.147720512685
 30
0.0
 11
2193.075007945477
 21
1537.147720512685
 31
0.0
  0
LINE
  5
35E6
330
1F
100
AcDbEntity
  8
AM_VIS
100
AcDbLine
 10
2137.675007945477
 20
1537.147720512685
 30
0.0
 11
2122.675007945478
 21
1537.147720512685
 31
0.0
  0
CIRCLE
  5
35E9
330
1F
100
AcDbEntity
  8
AM_VIS
100
AcDbCircle
 10
2165.375007945477
 20
1558.147720512685
 30
0.0
 40
13.5
  0
ARC
  5
35ED
330
1F
100
AcDbEntity
  8
AM_VIS
100
AcDbCircle
 10
2159.925007945477
 20
1574.947720512685
 30
0.0
 40
1.7
100
AcDbArc
 50
180.0
 51
270.0
  0
ARC
  5
35EE
330
1F
100
AcDbEntity
  8
AM_VIS
100
AcDbCircle
 10
2160.825007945477
 20
1574.947720512685
 30
0.0
 40
1.7
100
AcDbArc
 50
270.0
 51
0.0
  0
ARC
  5
35EF
330
1F
100
AcDbEntity
  8
AM_VIS
100
AcDbCircle
 10
2169.925007945478
 20
1574.947720512685
 30
0.0
 40
1.7
100
AcDbArc
 50
180.0
 51
270.0
  0
ARC
  5
35F0
330
1F
100
AcDbEntity
  8
AM_VIS
100
AcDbCircle
 10
2170.825007945477
 20
1574.947720512685
 30
0.0
 40
1.7
100
AcDbArc
 50
270.0
 51
0.0
  0
ARC
  5
35F1
330
1F
100
AcDbEntity
  8
AM_VIS
100
AcDbCircle
 10
2170.825007945477
 20
1541.347720512685
 30
0.0
 40
1.7
100
AcDbArc
 50
0.0
 51
90.0
  0
ARC
  5
35F2
330
1F
100
AcDbEntity
  8
AM_VIS
100
AcDbCircle
 10
2169.925007945477
 20
1541.347720512685
 30
0.0
 40
1.7
100
AcDbArc
 50
90.0
 51
180.0
  0
ARC
  5
35F3
330
1F
100
AcDbEntity
  8
AM_VIS
100
AcDbCircle
 10
2160.825007945477
 20
1541.347720512685
 30
0.0
 40
1.7
100
AcDbArc
 50
0.0
 51
90.0
  0
ARC
  5
35F4
330
1F
100
AcDbEntity
  8
AM_VIS
100
AcDbCircle
 10
2159.925007945477
 20
1541.347720512685
 30
0.0
 40
1.699999999999999
100
AcDbArc
 50
90.0
 51
180.0
  0
LINE
  5
35FC
330
1F
100
AcDbEntity
  8
AM_VIS
100
AcDbLine
 10
2083.748422956814
 20
1687.494887308548
 30
0.0
 11
2084.248422956814
 21
1686.994887308548
 31
0.0
  0
LINE
  5
35FD
330
1F
100
AcDbEntity
  8
AM_VIS
100
AcDbLine
 10
2084.248422956814
 20
1677.994887308548
 30
0.0
 11
2084.248422956814
 21
1686.994887308548
 31
0.0
  0
LINE
  5
35FE
330
1F
100
AcDbEntity
  8
AM_VIS
100
AcDbLine
 10
2084.248422956814
 20
1677.994887308548
 30
0.0
 11
2083.748422956814
 21
1677.494887308548
 31
0.0
  0
LINE
  5
35FF
330
1F
100
AcDbEntity
  8
AM_VIS
100
AcDbLine
 10
2046.748422956814
 20
1677.494887308548
 30
0.0
 11
2046.248422956814
 21
1677.994887308548
 31
0.0
  0
LINE
  5
3600
330
1F
100
AcDbEntity
  8
AM_VIS
100
AcDbLine
 10
2046.248422956814
 20
1686.994887308548
 30
0.0
 11
2046.248422956814
 21
1677.994887308548
 31
0.0
  0
LINE
  5
3601
330
1F
100
AcDbEntity
  8
AM_VIS
100
AcDbLine
 10
2046.248422956814
 20
1686.994887308548
 30
0.0
 11
2046.748422956814
 21
1687.494887308548
 31
0.0
  0
LINE
  5
3602
330
1F
100
AcDbEntity
  8
AM_VIS
100
AcDbLine
 10
2083.748422956814
 20
1687.494887308548
 30
0.0
 11
2046.748422956814
 21
1687.494887308548
 31
0.0
  0
LINE
  5
3603
330
1F
100
AcDbEntity
  8
AM_VIS
100
AcDbLine
 10
2046.748422956814
 20
1677.494887308548
 30
0.0
 11
2083.748422956814
 21
1677.494887308548
 31
0.0
  0
LINE
  5
3604
330
1F
100
AcDbEntity
  8
AM_VIS
100
AcDbLine
 10
2073.248422956813
 20
1675.494887308548
 30
0.0
 11
2073.248422956813
 21
1677.494887308548
 31
0.0
  0
LINE
  5
3605
330
1F
100
AcDbEntity
  8
AM_VIS
100
AcDbLine
 10
2057.248422956813
 20
1675.494887308548
 30
0.0
 11
2057.248422956813
 21
1677.494887308548
 31
0.0
  0
LINE
  5
3606
330
1F
100
AcDbEntity
  8
AM_VIS
100
AcDbLine
 10
2068.248422956814
 20
1675.494887308548
 30
0.0
 11
2068.248422956814
 21
1619.994887308548
 31
0.0
  0
LINE
  5
3607
330
1F
100
AcDbEntity
  8
AM_VIS
100
AcDbLine
 10
2053.248422956814
 20
1619.994887308548
 30
0.0
 11
2053.248422956814
 21
1675.494887308548
 31
0.0
  0
LINE
  5
3608
330
1F
100
AcDbEntity
  8
AM_VIS
100
AcDbLine
 10
2054.748422956814
 20
1675.494887308548
 30
0.0
 11
2054.748422956814
 21
1619.994887308548
 31
0.0
  0
LINE
  5
360B
330
1F
100
AcDbEntity
  8
AM_VIS
100
AcDbLine
 10
2068.248422956814
 20
1675.494887308548
 30
0.0
 11
2069.748422956814
 21
1675.494887308548
 31
0.0
  0
LINE
  5
360C
330
1F
100
AcDbEntity
  8
AM_VIS
100
AcDbLine
 10
2054.748422956814
 20
1675.494887308548
 30
0.0
 11
2068.248422956814
 21
1675.494887308548
 31
0.0
  0
LINE
  5
360D
330
1F
100
AcDbEntity
  8
AM_VIS
100
AcDbLine
 10
2053.248422956814
 20
1675.494887308548
 30
0.0
 11
2054.748422956814
 21
1675.494887308548
 31
0.0
  0
LINE
  5
360E
330
1F
100
AcDbEntity
  8
AM_VIS
100
AcDbLine
 10
2044.848422956814
 20
1675.494887308548
 30
0.0
 11
2053.248422956814
 21
1675.494887308548
 31
0.0
  0
LINE
  5
360F
330
1F
100
AcDbEntity
  8
AM_VIS
100
AcDbLine
 10
2044.548422956813
 20
1675.494887308548
 30
0.0
 11
2044.848422956814
 21
1675.494887308548
 31
0.0
  0
LINE
  5
3610
330
1F
100
AcDbEntity
  8
AM_VIS
100
AcDbLine
 10
2044.548422956813
 20
1675.494887308548
 30
0.0
 11
2044.248422956814
 21
1675.494887308548
 31
0.0
  0
LINE
  5
3611
330
1F
100
AcDbEntity
  8
AM_VIS
100
AcDbLine
 10
2044.248422956814
 20
1619.994887308548
 30
0.0
 11
2044.548422956813
 21
1619.994887308548
 31
0.0
  0
LINE
  5
3612
330
1F
100
AcDbEntity
  8
AM_VIS
100
AcDbLine
 10
2044.848422956814
 20
1619.994887308548
 30
0.0
 11
2044.548422956813
 21
1619.994887308548
 31
0.0
  0
LINE
  5
3613
330
1F
100
AcDbEntity
  8
AM_VIS
100
AcDbLine
 10
2044.848422956814
 20
1619.994887308548
 30
0.0
 11
2053.248422956814
 21
1619.994887308548
 31
0.0
  0
LINE
  5
3614
330
1F
100
AcDbEntity
  8
AM_VIS
100
AcDbLine
 10
2054.748422956814
 20
1619.994887308548
 30
0.0
 11
2053.248422956814
 21
1619.994887308548
 31
0.0
  0
LINE
  5
3615
330
1F
100
AcDbEntity
  8
AM_VIS
100
AcDbLine
 10
2068.248422956814
 20
1619.994887308548
 30
0.0
 11
2054.748422956814
 21
1619.994887308548
 31
0.0
  0
LINE
  5
3616
330
1F
100
AcDbEntity
  8
AM_VIS
100
AcDbLine
 10
2069.748422956814
 20
1619.994887308548
 30
0.0
 11
2068.248422956814
 21
1619.994887308548
 31
0.0
  0
LINE
  5
3617
330
1F
100
AcDbEntity
  8
AM_VIS
100
AcDbLine
 10
2069.748422956814
 20
1675.494887308548
 30
0.0
 11
2086.248422956813
 21
1675.494887308548
 31
0.0
  0
LINE
  5
3618
330
1F
100
AcDbEntity
  8
AM_VIS
100
AcDbLine
 10
2069.748422956814
 20
1619.994887308548
 30
0.0
 11
2086.248422956813
 21
1619.994887308548
 31
0.0
  0
LINE
  5
3619
330
1F
100
AcDbEntity
  8
AM_VIS
100
AcDbLine
 10
2069.748422956814
 20
1675.494887308548
 30
0.0
 11
2069.748422956814
 21
1619.994887308548
 31
0.0
  0
LINE
  5
3620
330
1F
100
AcDbEntity
  8
AM_VIS
100
AcDbLine
 10
2086.248422956813
 20
1675.494887308548
 30
0.0
 11
2086.248422956813
 21
1619.994887308548
 31
0.0
  0
LINE
  5
3621
330
1F
100
AcDbEntity
  8
AM_VIS
100
AcDbLine
 10
2044.248422956814
 20
1675.494887308548
 30
0.0
 11
2044.248422956814
 21
1619.994887308548
 31
0.0
  0
LINE
  5
3628
330
1F
100
AcDbEntity
  8
AM_VIS
100
AcDbLine
 10
2264.892191490654
 20
1686.994887308548
 30
0.0
 11
2264.892191490654
 21
1677.994887308548
 31
0.0
  0
LINE
  5
3629
330
1F
100
AcDbEntity
  8
AM_VIS
100
AcDbLine
 10
2264.892191490654
 20
1686.994887308548
 30
0.0
 11
2265.392191490654
 21
1687.494887308548
 31
0.0
  0
LINE
  5
362A
330
1F
100
AcDbEntity
  8
AM_VIS
100
AcDbLine
 10
2302.392191490654
 20
1687.494887308548
 30
0.0
 11
2302.892191490654
 21
1686.994887308548
 31
0.0
  0
LINE
  5
362B
330
1F
100
AcDbEntity
  8
AM_VIS
100
AcDbLine
 10
2302.892191490654
 20
1677.994887308548
 30
0.0
 11
2302.892191490654
 21
1686.994887308548
 31
0.0
  0
LINE
  5
362C
330
1F
100
AcDbEntity
  8
AM_VIS
100
AcDbLine
 10
2265.392191490654
 20
1677.494887308548
 30
0.0
 11
2264.892191490654
 21
1677.994887308548
 31
0.0
  0
LINE
  5
362D
330
1F
100
AcDbEntity
  8
AM_VIS
100
AcDbLine
 10
2302.892191490654
 20
1677.994887308548
 30
0.0
 11
2302.392191490654
 21
1677.494887308548
 31
0.0
  0
LINE
  5
362E
330
1F
100
AcDbEntity
  8
AM_VIS
100
AcDbLine
 10
2302.392191490654
 20
1687.494887308548
 30
0.0
 11
2265.392191490654
 21
1687.494887308548
 31
0.0
  0
LINE
  5
362F
330
1F
100
AcDbEntity
  8
AM_VIS
100
AcDbLine
 10
2265.392191490654
 20
1677.494887308548
 30
0.0
 11
2302.392191490654
 21
1677.494887308548
 31
0.0
  0
LINE
  5
3630
330
1F
100
AcDbEntity
  8
AM_VIS
100
AcDbLine
 10
2291.892191490654
 20
1675.494887308548
 30
0.0
 11
2291.892191490654
 21
1677.494887308548
 31
0.0
  0
LINE
  5
3631
330
1F
100
AcDbEntity
  8
AM_VIS
100
AcDbLine
 10
2275.892191490654
 20
1675.494887308548
 30
0.0
 11
2275.892191490654
 21
1677.494887308548
 31
0.0
  0
LINE
  5
3632
330
1F
100
AcDbEntity
  8
AM_VIS
100
AcDbLine
 10
2295.892191490654
 20
1675.494887308548
 30
0.0
 11
2295.892191490654
 21
1619.994887308548
 31
0.0
  0
LINE
  5
3633
330
1F
100
AcDbEntity
  8
AM_VIS
100
AcDbLine
 10
2279.392191490654
 20
1619.994887308548
 30
0.0
 11
2279.392191490654
 21
1675.494887308548
 31
0.0
  0
LINE
  5
3634
330
1F
100
AcDbEntity
  8
AM_VIS
100
AcDbLine
 10
2280.892191490654
 20
1675.494887308548
 30
0.0
 11
2280.892191490654
 21
1619.994887308548
 31
0.0
  0
LINE
  5
3635
330
1F
100
AcDbEntity
  8
AM_VIS
100
AcDbLine
 10
2294.392191490654
 20
1675.494887308548
 30
0.0
 11
2294.392191490654
 21
1619.994887308548
 31
0.0
  0
LINE
  5
3636
330
1F
100
AcDbEntity
  8
AM_VIS
100
AcDbLine
 10
2304.592191490653
 20
1619.994887308548
 30
0.0
 11
2304.592191490653
 21
1675.494887308548
 31
0.0
  0
LINE
  5
3637
330
1F
100
AcDbEntity
  8
AM_VIS
100
AcDbLine
 10
2304.892191490654
 20
1675.494887308548
 30
0.0
 11
2304.592191490653
 21
1675.494887308548
 31
0.0
  0
LINE
  5
3638
330
1F
100
AcDbEntity
  8
AM_VIS
100
AcDbLine
 10
2295.892191490654
 20
1675.494887308548
 30
0.0
 11
2304.592191490653
 21
1675.494887308548
 31
0.0
  0
LINE
  5
3639
330
1F
100
AcDbEntity
  8
AM_VIS
100
AcDbLine
 10
2294.392191490654
 20
1675.494887308548
 30
0.0
 11
2295.892191490654
 21
1675.494887308548
 31
0.0
  0
LINE
  5
363A
330
1F
100
AcDbEntity
  8
AM_VIS
100
AcDbLine
 10
2280.892191490654
 20
1675.494887308548
 30
0.0
 11
2294.392191490654
 21
1675.494887308548
 31
0.0
  0
LINE
  5
363B
330
1F
100
AcDbEntity
  8
AM_VIS
100
AcDbLine
 10
2279.392191490654
 20
1675.494887308548
 30
0.0
 11
2280.892191490654
 21
1675.494887308548
 31
0.0
  0
LINE
  5
363C
330
1F
100
AcDbEntity
  8
AM_VIS
100
AcDbLine
 10
2262.892191490654
 20
1675.494887308548
 30
0.0
 11
2279.392191490654
 21
1675.494887308548
 31
0.0
  0
LINE
  5
363D
330
1F
100
AcDbEntity
  8
AM_VIS
100
AcDbLine
 10
2262.892191490654
 20
1619.994887308548
 30
0.0
 11
2279.392191490654
 21
1619.994887308548
 31
0.0
  0
LINE
  5
363E
330
1F
100
AcDbEntity
  8
AM_VIS
100
AcDbLine
 10
2280.892191490654
 20
1619.994887308548
 30
0.0
 11
2279.392191490654
 21
1619.994887308548
 31
0.0
  0
LINE
  5
363F
330
1F
100
AcDbEntity
  8
AM_VIS
100
AcDbLine
 10
2294.392191490654
 20
1619.994887308548
 30
0.0
 11
2280.892191490654
 21
1619.994887308548
 31
0.0
  0
LINE
  5
3640
330
1F
100
AcDbEntity
  8
AM_VIS
100
AcDbLine
 10
2295.892191490654
 20
1619.994887308548
 30
0.0
 11
2294.392191490654
 21
1619.994887308548
 31
0.0
  0
LINE
  5
3641
330
1F
100
AcDbEntity
  8
AM_VIS
100
AcDbLine
 10
2295.892191490654
 20
1619.994887308548
 30
0.0
 11
2304.592191490653
 21
1619.994887308548
 31
0.0
  0
LINE
  5
3642
330
1F
100
AcDbEntity
  8
AM_VIS
100
AcDbLine
 10
2304.592191490653
 20
1619.994887308548
 30
0.0
 11
2304.892191490654
 21
1619.994887308548
 31
0.0
  0
LINE
  5
3643
330
1F
100
AcDbEntity
  8
AM_VIS
100
AcDbLine
 10
2262.892191490654
 20
1675.494887308548
 30
0.0
 11
2262.892191490654
 21
1619.994887308548
 31
0.0
  0
LINE
  5
3644
330
1F
100
AcDbEntity
  8
AM_VIS
100
AcDbLine
 10
2304.892191490654
 20
1619.994887308548
 30
0.0
 11
2304.892191490654
 21
1675.494887308548
 31
0.0
  0
LINE
  5
3645
330
1F
100
AcDbEntity
  8
AM_VIS
100
AcDbLine
 10
2335.718531152617
 20
1686.994887308548
 30
0.0
 11
2336.218531152617
 21
1687.494887308548
 31
0.0
  0
LINE
  5
3646
330
1F
100
AcDbEntity
  8
AM_VIS
100
AcDbLine
 10
2335.718531152617
 20
1686.994887308548
 30
0.0
 11
2335.718531152617
 21
1677.994887308548
 31
0.0
  0
LINE
  5
3647
330
1F
100
AcDbEntity
  8
AM_VIS
100
AcDbLine
 10
2336.218531152617
 20
1677.494887308548
 30
0.0
 11
2335.718531152617
 21
1677.994887308548
 31
0.0
  0
LINE
  5
3648
330
1F
100
AcDbEntity
  8
AM_VIS
100
AcDbLine
 10
2421.218531152617
 20
1687.494887308548
 30
0.0
 11
2421.718531152617
 21
1686.994887308548
 31
0.0
  0
LINE
  5
3649
330
1F
100
AcDbEntity
  8
AM_VIS
100
AcDbLine
 10
2421.718531152617
 20
1677.994887308548
 30
0.0
 11
2421.718531152617
 21
1686.994887308548
 31
0.0
  0
LINE
  5
364A
330
1F
100
AcDbEntity
  8
AM_VIS
100
AcDbLine
 10
2421.718531152617
 20
1677.994887308548
 30
0.0
 11
2421.218531152617
 21
1677.494887308548
 31
0.0
  0
LINE
  5
364B
330
1F
100
AcDbEntity
  8
AM_VIS
100
AcDbLine
 10
2421.218531152617
 20
1687.494887308548
 30
0.0
 11
2336.218531152617
 21
1687.494887308548
 31
0.0
  0
LINE
  5
364C
330
1F
100
AcDbEntity
  8
AM_VIS
100
AcDbLine
 10
2336.218531152617
 20
1677.494887308548
 30
0.0
 11
2421.218531152617
 21
1677.494887308548
 31
0.0
  0
LINE
  5
364F
330
1F
100
AcDbEntity
  8
AM_VIS
100
AcDbLine
 10
2384.718531152617
 20
1675.494887308548
 30
0.0
 11
2384.718531152617
 21
1677.494887308548
 31
0.0
  0
LINE
  5
3650
330
1F
100
AcDbEntity
  8
AM_VIS
100
AcDbLine
 10
2372.718531152617
 20
1675.494887308548
 30
0.0
 11
2372.718531152617
 21
1677.494887308548
 31
0.0
  0
LINE
  5
3651
330
1F
100
AcDbEntity
  8
AM_VIS
100
AcDbLine
 10
2354.218531152617
 20
1675.494887308548
 30
0.0
 11
2354.218531152617
 21
1677.494887308548
 31
0.0
  0
LINE
  5
3652
330
1F
100
AcDbEntity
  8
AM_VIS
100
AcDbLine
 10
2338.218531152617
 20
1675.494887308548
 30
0.0
 11
2338.218531152617
 21
1677.494887308548
 31
0.0
  0
LINE
  5
3653
330
1F
100
AcDbEntity
  8
AM_VIS
100
AcDbLine
 10
2419.218531152617
 20
1675.494887308548
 30
0.0
 11
2419.218531152617
 21
1677.494887308548
 31
0.0
  0
LINE
  5
3654
330
1F
100
AcDbEntity
  8
AM_VIS
100
AcDbLine
 10
2403.218531152617
 20
1675.494887308548
 30
0.0
 11
2403.218531152617
 21
1677.494887308548
 31
0.0
  0
LINE
  5
3655
330
1F
100
AcDbEntity
  8
AM_VIS
100
AcDbLine
 10
2330.718531152617
 20
1619.994887308548
 30
0.0
 11
2330.718531152617
 21
1675.494887308548
 31
0.0
  0
LINE
  5
3656
330
1F
100
AcDbEntity
  8
AM_VIS
100
AcDbLine
 10
2426.718531152617
 20
1675.494887308548
 30
0.0
 11
2426.718531152617
 21
1619.994887308548
 31
0.0
  0
LINE
  5
3657
330
1F
100
AcDbEntity
  8
AM_VIS
100
AcDbLine
 10
2335.718531152617
 20
1675.494887308548
 30
0.0
 11
2335.718531152617
 21
1619.994887308548
 31
0.0
  0
LINE
  5
3658
330
1F
100
AcDbEntity
  8
AM_VIS
100
AcDbLine
 10
2421.718531152617
 20
1619.994887308548
 30
0.0
 11
2421.718531152617
 21
1675.494887308548
 31
0.0
  0
LINE
  5
3659
330
1F
100
AcDbEntity
  8
AM_VIS
100
AcDbLine
 10
2375.418531152617
 20
1675.494887308548
 30
0.0
 11
2375.418531152617
 21
1619.994887308548
 31
0.0
  0
LINE
  5
365A
330
1F
100
AcDbEntity
  8
AM_VIS
100
AcDbLine
 10
2382.018531152617
 20
1675.494887308548
 30
0.0
 11
2382.018531152617
 21
1619.994887308548
 31
0.0
  0
LINE
  5
365B
330
1F
100
AcDbEntity
  8
AM_VIS
100
AcDbLine
 10
2385.418531152617
 20
1675.494887308548
 30
0.0
 11
2385.418531152617
 21
1619.994887308548
 31
0.0
  0
LINE
  5
365C
330
1F
100
AcDbEntity
  8
AM_VIS
100
AcDbLine
 10
2389.618531152617
 20
1675.494887308548
 30
0.0
 11
2389.618531152617
 21
1619.994887308548
 31
0.0
  0
LINE
  5
365D
330
1F
100
AcDbEntity
  8
AM_VIS
100
AcDbLine
 10
2367.818531152617
 20
1675.494887308548
 30
0.0
 11
2367.818531152617
 21
1619.994887308548
 31
0.0
  0
LINE
  5
365E
330
1F
100
AcDbEntity
  8
AM_VIS
100
AcDbLine
 10
2372.018531152617
 20
1675.494887308548
 30
0.0
 11
2372.018531152617
 21
1619.994887308548
 31
0.0
  0
LINE
  5
365F
330
1F
100
AcDbEntity
  8
AM_VIS
100
AcDbLine
 10
2389.618531152617
 20
1675.494887308548
 30
0.0
 11
2390.718531152618
 21
1675.494887308548
 31
0.0
  0
LINE
  5
3660
330
1F
100
AcDbEntity
  8
AM_VIS
100
AcDbLine
 10
2385.418531152617
 20
1675.494887308548
 30
0.0
 11
2389.618531152617
 21
1675.494887308548
 31
0.0
  0
LINE
  5
3661
330
1F
100
AcDbEntity
  8
AM_VIS
100
AcDbLine
 10
2383.268531152617
 20
1675.494887308548
 30
0.0
 11
2384.168531152617
 21
1675.494887308548
 31
0.0
  0
LINE
  5
3662
330
1F
100
AcDbEntity
  8
AM_VIS
100
AcDbLine
 10
2375.418531152617
 20
1675.494887308548
 30
0.0
 11
2382.018531152617
 21
1675.494887308548
 31
0.0
  0
LINE
  5
3663
330
1F
100
AcDbEntity
  8
AM_VIS
100
AcDbLine
 10
2373.268531152617
 20
1675.494887308548
 30
0.0
 11
2374.168531152617
 21
1675.494887308548
 31
0.0
  0
LINE
  5
3664
330
1F
100
AcDbEntity
  8
AM_VIS
100
AcDbLine
 10
2367.818531152617
 20
1675.494887308548
 30
0.0
 11
2372.018531152617
 21
1675.494887308548
 31
0.0
  0
LINE
  5
3665
330
1F
100
AcDbEntity
  8
AM_VIS
100
AcDbLine
 10
2366.718531152617
 20
1675.494887308548
 30
0.0
 11
2367.818531152617
 21
1675.494887308548
 31
0.0
  0
LINE
  5
3666
330
1F
100
AcDbEntity
  8
AM_VIS
100
AcDbLine
 10
2336.018531152617
 20
1675.494887308548
 30
0.0
 11
2335.718531152617
 21
1675.494887308548
 31
0.0
  0
LINE
  5
3667
330
1F
100
AcDbEntity
  8
AM_VIS
100
AcDbLine
 10
2330.718531152617
 20
1675.494887308548
 30
0.0
 11
2335.718531152617
 21
1675.494887308548
 31
0.0
  0
LINE
  5
3668
330
1F
100
AcDbEntity
  8
AM_VIS
100
AcDbLine
 10
2421.718531152617
 20
1675.494887308548
 30
0.0
 11
2426.718531152617
 21
1675.494887308548
 31
0.0
  0
LINE
  5
3669
330
1F
100
AcDbEntity
  8
AM_VIS
100
AcDbLine
 10
2421.718531152617
 20
1675.494887308548
 30
0.0
 11
2421.418531152617
 21
1675.494887308548
 31
0.0
  0
LINE
  5
366A
330
1F
100
AcDbEntity
  8
AM_VIS
100
AcDbLine
 10
2351.018531152617
 20
1675.494887308548
 30
0.0
 11
2353.718531152617
 21
1675.494887308548
 31
0.0
  0
LINE
  5
366B
330
1F
100
AcDbEntity
  8
AM_VIS
100
AcDbLine
 10
2353.718531152617
 20
1675.494887308548
 30
0.0
 11
2353.718531152617
 21
1619.994887308548
 31
0.0
  0
LINE
  5
366C
330
1F
100
AcDbEntity
  8
AM_VIS
100
AcDbLine
 10
2353.718531152617
 20
1675.494887308548
 30
0.0
 11
2356.418531152617
 21
1675.494887308548
 31
0.0
  0
LINE
  5
366D
330
1F
100
AcDbEntity
  8
AM_VIS
100
AcDbLine
 10
2421.418531152617
 20
1619.994887308548
 30
0.0
 11
2421.718531152617
 21
1619.994887308548
 31
0.0
  0
LINE
  5
366E
330
1F
100
AcDbEntity
  8
AM_VIS
100
AcDbLine
 10
2426.718531152617
 20
1619.994887308548
 30
0.0
 11
2421.718531152617
 21
1619.994887308548
 31
0.0
  0
LINE
  5
366F
330
1F
100
AcDbEntity
  8
AM_VIS
100
AcDbLine
 10
2335.718531152617
 20
1619.994887308548
 30
0.0
 11
2330.718531152617
 21
1619.994887308548
 31
0.0
  0
LINE
  5
3670
330
1F
100
AcDbEntity
  8
AM_VIS
100
AcDbLine
 10
2335.718531152617
 20
1619.994887308548
 30
0.0
 11
2336.018531152617
 21
1619.994887308548
 31
0.0
  0
LINE
  5
3671
330
1F
100
AcDbEntity
  8
AM_VIS
100
AcDbLine
 10
2353.718531152617
 20
1619.994887308548
 30
0.0
 11
2351.018531152617
 21
1619.994887308548
 31
0.0
  0
LINE
  5
3672
330
1F
100
AcDbEntity
  8
AM_VIS
100
AcDbLine
 10
2356.418531152617
 20
1619.994887308548
 30
0.0
 11
2353.718531152617
 21
1619.994887308548
 31
0.0
  0
LINE
  5
3673
330
1F
100
AcDbEntity
  8
AM_VIS
100
AcDbLine
 10
2367.818531152617
 20
1619.994887308548
 30
0.0
 11
2366.718531152617
 21
1619.994887308548
 31
0.0
  0
LINE
  5
3674
330
1F
100
AcDbEntity
  8
AM_VIS
100
AcDbLine
 10
2372.018531152617
 20
1619.994887308548
 30
0.0
 11
2367.818531152617
 21
1619.994887308548
 31
0.0
  0
LINE
  5
3675
330
1F
100
AcDbEntity
  8
AM_VIS
100
AcDbLine
 10
2374.168531152617
 20
1619.994887308548
 30
0.0
 11
2373.268531152617
 21
1619.994887308548
 31
0.0
  0
LINE
  5
3676
330
1F
100
AcDbEntity
  8
AM_VIS
100
AcDbLine
 10
2382.018531152617
 20
1619.994887308548
 30
0.0
 11
2375.418531152617
 21
1619.994887308548
 31
0.0
  0
LINE
  5
3677
330
1F
100
AcDbEntity
  8
AM_VIS
100
AcDbLine
 10
2384.168531152617
 20
1619.994887308548
 30
0.0
 11
2383.268531152617
 21
1619.994887308548
 31
0.0
  0
LINE
  5
3678
330
1F
100
AcDbEntity
  8
AM_VIS
100
AcDbLine
 10
2389.618531152617
 20
1619.994887308548
 30
0.0
 11
2385.418531152617
 21
1619.994887308548
 31
0.0
  0
LINE
  5
3679
330
1F
100
AcDbEntity
  8
AM_VIS
100
AcDbLine
 10
2390.718531152618
 20
1619.994887308548
 30
0.0
 11
2389.618531152617
 21
1619.994887308548
 31
0.0
  0
LINE
  5
367A
330
1F
100
AcDbEntity
  8
AM_VIS
100
AcDbLine
 10
2403.718531152617
 20
1675.494887308548
 30
0.0
 11
2406.418531152617
 21
1675.494887308548
 31
0.0
  0
LINE
  5
367B
330
1F
100
AcDbEntity
  8
AM_VIS
100
AcDbLine
 10
2406.418531152617
 20
1619.994887308548
 30
0.0
 11
2403.718531152617
 21
1619.994887308548
 31
0.0
  0
LINE
  5
367C
330
1F
100
AcDbEntity
  8
AM_VIS
100
AcDbLine
 10
2401.018531152617
 20
1675.494887308548
 30
0.0
 11
2403.718531152617
 21
1675.494887308548
 31
0.0
  0
LINE
  5
367D
330
1F
100
AcDbEntity
  8
AM_VIS
100
AcDbLine
 10
2403.718531152617
 20
1675.494887308548
 30
0.0
 11
2403.718531152617
 21
1619.994887308548
 31
0.0
  0
LINE
  5
367E
330
1F
100
AcDbEntity
  8
AM_VIS
100
AcDbLine
 10
2403.718531152617
 20
1619.994887308548
 30
0.0
 11
2401.018531152617
 21
1619.994887308548
 31
0.0
  0
LINE
  5
367F
330
1F
100
AcDbEntity
  8
AM_VIS
100
AcDbLine
 10
2390.718531152618
 20
1619.994887308548
 30
0.0
 11
2401.018531152617
 21
1619.994887308548
 31
0.0
  0
LINE
  5
3680
330
1F
100
AcDbEntity
  8
AM_VIS
100
AcDbLine
 10
2390.718531152618
 20
1675.494887308548
 30
0.0
 11
2390.718531152618
 21
1619.994887308548
 31
0.0
  0
LINE
  5
3681
330
1F
100
AcDbEntity
  8
AM_VIS
100
AcDbLine
 10
2390.718531152618
 20
1675.494887308548
 30
0.0
 11
2401.018531152617
 21
1675.494887308548
 31
0.0
  0
LINE
  5
3682
330
1F
100
AcDbEntity
  8
AM_VIS
100
AcDbLine
 10
2401.018531152617
 20
1619.994887308548
 30
0.0
 11
2401.018531152617
 21
1675.494887308548
 31
0.0
  0
LINE
  5
3683
330
1F
100
AcDbEntity
  8
AM_VIS
100
AcDbLine
 10
2356.418531152617
 20
1675.494887308548
 30
0.0
 11
2366.718531152617
 21
1675.494887308548
 31
0.0
  0
LINE
  5
3684
330
1F
100
AcDbEntity
  8
AM_VIS
100
AcDbLine
 10
2366.718531152617
 20
1619.994887308548
 30
0.0
 11
2366.718531152617
 21
1675.494887308548
 31
0.0
  0
LINE
  5
3685
330
1F
100
AcDbEntity
  8
AM_VIS
100
AcDbLine
 10
2356.418531152617
 20
1619.994887308548
 30
0.0
 11
2366.718531152617
 21
1619.994887308548
 31
0.0
  0
LINE
  5
3686
330
1F
100
AcDbEntity
  8
AM_VIS
100
AcDbLine
 10
2356.418531152617
 20
1675.494887308548
 30
0.0
 11
2356.418531152617
 21
1619.994887308548
 31
0.0
  0
LINE
  5
3687
330
1F
100
AcDbEntity
  8
AM_VIS
100
AcDbLine
 10
2336.018531152617
 20
1619.994887308548
 30
0.0
 11
2351.018531152617
 21
1619.994887308548
 31
0.0
  0
LINE
  5
3688
330
1F
100
AcDbEntity
  8
AM_VIS
100
AcDbLine
 10
2336.018531152617
 20
1619.994887308548
 30
0.0
 11
2336.018531152617
 21
1675.494887308548
 31
0.0
  0
LINE
  5
3689
330
1F
100
AcDbEntity
  8
AM_VIS
100
AcDbLine
 10
2336.018531152617
 20
1675.494887308548
 30
0.0
 11
2351.018531152617
 21
1675.494887308548
 31
0.0
  0
LINE
  5
368A
330
1F
100
AcDbEntity
  8
AM_VIS
100
AcDbLine
 10
2351.018531152617
 20
1619.994887308548
 30
0.0
 11
2351.018531152617
 21
1675.494887308548
 31
0.0
  0
LINE
  5
368B
330
1F
100
AcDbEntity
  8
AM_VIS
100
AcDbLine
 10
2406.418531152617
 20
1675.494887308548
 30
0.0
 11
2421.418531152617
 21
1675.494887308548
 31
0.0
  0
LINE
  5
368C
330
1F
100
AcDbEntity
  8
AM_VIS
100
AcDbLine
 10
2421.418531152617
 20
1675.494887308548
 30
0.0
 11
2421.418531152617
 21
1619.994887308548
 31
0.0
  0
LINE
  5
368D
330
1F
100
AcDbEntity
  8
AM_VIS
100
AcDbLine
 10
2406.418531152617
 20
1619.994887308548
 30
0.0
 11
2421.418531152617
 21
1619.994887308548
 31
0.0
  0
LINE
  5
368E
330
1F
100
AcDbEntity
  8
AM_VIS
100
AcDbLine
 10
2406.418531152617
 20
1675.494887308548
 30
0.0
 11
2406.418531152617
 21
1619.994887308548
 31
0.0
  0
LINE
  5
368F
330
1F
100
AcDbEntity
  8
AM_VIS
100
AcDbLine
 10
2385.418531152617
 20
1675.494887308548
 30
0.0
 11
2384.168531152617
 21
1675.494887308548
 31
0.0
  0
LINE
  5
3690
330
1F
100
AcDbEntity
  8
AM_VIS
100
AcDbLine
 10
2383.268531152617
 20
1675.494887308548
 30
0.0
 11
2382.018531152617
 21
1675.494887308548
 31
0.0
  0
LINE
  5
3691
330
1F
100
AcDbEntity
  8
AM_VIS
100
AcDbLine
 10
2375.418531152617
 20
1675.494887308548
 30
0.0
 11
2374.168531152617
 21
1675.494887308548
 31
0.0
  0
LINE
  5
3692
330
1F
100
AcDbEntity
  8
AM_VIS
100
AcDbLine
 10
2373.268531152617
 20
1675.494887308548
 30
0.0
 11
2372.018531152617
 21
1675.494887308548
 31
0.0
  0
LINE
  5
3693
330
1F
100
AcDbEntity
  8
AM_VIS
100
AcDbLine
 10
2372.018531152617
 20
1619.994887308548
 30
0.0
 11
2373.268531152617
 21
1619.994887308548
 31
0.0
  0
LINE
  5
3694
330
1F
100
AcDbEntity
  8
AM_VIS
100
AcDbLine
 10
2374.168531152617
 20
1619.994887308548
 30
0.0
 11
2375.418531152617
 21
1619.994887308548
 31
0.0
  0
LINE
  5
3695
330
1F
100
AcDbEntity
  8
AM_VIS
100
AcDbLine
 10
2382.018531152617
 20
1619.994887308548
 30
0.0
 11
2383.268531152617
 21
1619.994887308548
 31
0.0
  0
LINE
  5
3696
330
1F
100
AcDbEntity
  8
AM_VIS
100
AcDbLine
 10
2384.168531152617
 20
1619.994887308548
 30
0.0
 11
2385.418531152617
 21
1619.994887308548
 31
0.0
  0
LINE
  5
36AB
330
1F
100
AcDbEntity
  8
AM_VIS
100
AcDbLine
 10
2207.875007945477
 20
1687.494887308548
 30
0.0
 11
2208.375007945477
 21
1686.994887308548
 31
0.0
  0
LINE
  5
36AC
330
1F
100
AcDbEntity
  8
AM_VIS
100
AcDbLine
 10
2208.375007945477
 20
1677.994887308548
 30
0.0
 11
2208.375007945477
 21
1686.994887308548
 31
0.0
  0
LINE
  5
36AD
330
1F
100
AcDbEntity
  8
AM_VIS
100
AcDbLine
 10
2208.375007945477
 20
1677.994887308548
 30
0.0
 11
2207.875007945477
 21
1677.494887308548
 31
0.0
  0
LINE
  5
36AE
330
1F
100
AcDbEntity
  8
AM_VIS
100
AcDbLine
 10
2122.375007945477
 20
1686.994887308548
 30
0.0
 11
2122.375007945477
 21
1677.994887308548
 31
0.0
  0
LINE
  5
36AF
330
1F
100
AcDbEntity
  8
AM_VIS
100
AcDbLine
 10
2122.375007945477
 20
1686.994887308548
 30
0.0
 11
2122.875007945477
 21
1687.494887308548
 31
0.0
  0
LINE
  5
36B0
330
1F
100
AcDbEntity
  8
AM_VIS
100
AcDbLine
 10
2122.875007945477
 20
1677.494887308548
 30
0.0
 11
2122.375007945477
 21
1677.994887308548
 31
0.0
  0
LINE
  5
36B1
330
1F
100
AcDbEntity
  8
AM_VIS
100
AcDbLine
 10
2207.875007945477
 20
1687.494887308548
 30
0.0
 11
2122.875007945477
 21
1687.494887308548
 31
0.0
  0
LINE
  5
36B2
330
1F
100
AcDbEntity
  8
AM_VIS
100
AcDbLine
 10
2122.875007945477
 20
1677.494887308548
 30
0.0
 11
2207.875007945477
 21
1677.494887308548
 31
0.0
  0
LINE
  5
36B5
330
1F
100
AcDbEntity
  8
AM_VIS
100
AcDbLine
 10
2171.375007945477
 20
1675.494887308548
 30
0.0
 11
2171.375007945477
 21
1677.494887308548
 31
0.0
  0
LINE
  5
36B6
330
1F
100
AcDbEntity
  8
AM_VIS
100
AcDbLine
 10
2159.375007945477
 20
1675.494887308548
 30
0.0
 11
2159.375007945477
 21
1677.494887308548
 31
0.0
  0
LINE
  5
36B7
330
1F
100
AcDbEntity
  8
AM_VIS
100
AcDbLine
 10
2205.875007945477
 20
1675.494887308548
 30
0.0
 11
2205.875007945477
 21
1677.494887308548
 31
0.0
  0
LINE
  5
36B8
330
1F
100
AcDbEntity
  8
AM_VIS
100
AcDbLine
 10
2189.875007945477
 20
1675.494887308548
 30
0.0
 11
2189.875007945477
 21
1677.494887308548
 31
0.0
  0
LINE
  5
36B9
330
1F
100
AcDbEntity
  8
AM_VIS
100
AcDbLine
 10
2140.875007945477
 20
1675.494887308548
 30
0.0
 11
2140.875007945477
 21
1677.494887308548
 31
0.0
  0
LINE
  5
36BA
330
1F
100
AcDbEntity
  8
AM_VIS
100
AcDbLine
 10
2124.875007945477
 20
1675.494887308548
 30
0.0
 11
2124.875007945477
 21
1677.494887308548
 31
0.0
  0
LINE
  5
36BB
330
1F
100
AcDbEntity
  8
AM_VIS
100
AcDbLine
 10
2168.675007945477
 20
1675.494887308548
 30
0.0
 11
2168.675007945477
 21
1619.994887308548
 31
0.0
  0
LINE
  5
36BC
330
1F
100
AcDbEntity
  8
AM_VIS
100
AcDbLine
 10
2172.075007945477
 20
1675.494887308548
 30
0.0
 11
2172.075007945477
 21
1619.994887308548
 31
0.0
  0
LINE
  5
36BD
330
1F
100
AcDbEntity
  8
AM_VIS
100
AcDbLine
 10
2178.775007945477
 20
1650.396097222079
 30
0.0
 11
2178.775007945477
 21
1635.593677395017
 31
0.0
  0
LINE
  5
36BE
330
1F
100
AcDbEntity
  8
AM_VIS
100
AcDbLine
 10
2151.975007945477
 20
1629.396097222079
 30
0.0
 11
2151.975007945477
 21
1619.994887308548
 31
0.0
  0
LINE
  5
36BF
330
1F
100
AcDbEntity
  8
AM_VIS
100
AcDbLine
 10
2158.675007945477
 20
1675.494887308548
 30
0.0
 11
2158.675007945477
 21
1619.994887308548
 31
0.0
  0
LINE
  5
36C0
330
1F
100
AcDbEntity
  8
AM_VIS
100
AcDbLine
 10
2162.075007945477
 20
1675.494887308548
 30
0.0
 11
2162.075007945477
 21
1619.994887308548
 31
0.0
  0
LINE
  5
36C1
330
1F
100
AcDbEntity
  8
AM_VIS
100
AcDbLine
 10
2172.075007945477
 20
1675.494887308548
 30
0.0
 11
2178.775007945477
 21
1675.494887308548
 31
0.0
  0
LINE
  5
36C2
330
1F
100
AcDbEntity
  8
AM_VIS
100
AcDbLine
 10
2169.925007945478
 20
1675.494887308548
 30
0.0
 11
2170.825007945477
 21
1675.494887308548
 31
0.0
  0
LINE
  5
36C4
330
1F
100
AcDbEntity
  8
AM_VIS
100
AcDbLine
 10
2159.925007945477
 20
1675.494887308548
 30
0.0
 11
2160.825007945477
 21
1675.494887308548
 31
0.0
  0
LINE
  5
36C5
330
1F
100
AcDbEntity
  8
AM_VIS
100
AcDbLine
 10
2151.975007945477
 20
1675.494887308548
 30
0.0
 11
2158.675007945477
 21
1675.494887308548
 31
0.0
  0
LINE
  5
36C6
330
1F
100
AcDbEntity
  8
AM_VIS
100
AcDbLine
 10
2151.975007945477
 20
1619.994887308548
 30
0.0
 11
2150.875007945477
 21
1619.994887308548
 31
0.0
  0
LINE
  5
36C7
330
1F
100
AcDbEntity
  8
AM_VIS
100
AcDbLine
 10
2158.675007945477
 20
1619.994887308548
 30
0.0
 11
2151.975007945477
 21
1619.994887308548
 31
0.0
  0
LINE
  5
36C8
330
1F
100
AcDbEntity
  8
AM_VIS
100
AcDbLine
 10
2160.825007945477
 20
1619.994887308548
 30
0.0
 11
2159.925007945477
 21
1619.994887308548
 31
0.0
  0
LINE
  5
36C9
330
1F
100
AcDbEntity
  8
AM_VIS
100
AcDbLine
 10
2168.675007945477
 20
1619.994887308548
 30
0.0
 11
2162.075007945477
 21
1619.994887308548
 31
0.0
  0
LINE
  5
36CA
330
1F
100
AcDbEntity
  8
AM_VIS
100
AcDbLine
 10
2170.825007945477
 20
1619.994887308548
 30
0.0
 11
2169.925007945478
 21
1619.994887308548
 31
0.0
  0
LINE
  5
36CB
330
1F
100
AcDbEntity
  8
AM_VIS
100
AcDbLine
 10
2178.775007945477
 20
1619.994887308548
 30
0.0
 11
2172.075007945477
 21
1619.994887308548
 31
0.0
  0
LINE
  5
36D0
330
1F
100
AcDbEntity
  8
AM_VIS
100
AcDbLine
 10
2150.875007945477
 20
1675.494887308548
 30
0.0
 11
2151.975007945477
 21
1675.494887308548
 31
0.0
  0
LINE
  5
36D1
330
1F
100
AcDbEntity
  8
AM_VIS
100
AcDbLine
 10
2151.975007945477
 20
1675.494887308548
 30
0.0
 11
2151.975007945477
 21
1656.593677395018
 31
0.0
  0
ARC
  5
36D2
330
1F
100
AcDbEntity
  8
AM_VIS
100
AcDbCircle
 10
2148.375007945477
 20
1653.494887308548
 30
0.0
 40
4.75
100
AcDbArc
 50
40.72104759219348
 51
58.24313614069691
  0
LINE
  5
36D3
330
1F
100
AcDbEntity
  8
AM_VIS
100
AcDbLine
 10
2179.875007945478
 20
1619.994887308548
 30
0.0
 11
2178.775007945477
 21
1619.994887308548
 31
0.0
  0
LINE
  5
36D4
330
1F
100
AcDbEntity
  8
AM_VIS
100
AcDbLine
 10
2178.775007945477
 20
1629.396097222079
 30
0.0
 11
2178.775007945477
 21
1619.994887308548
 31
0.0
  0
LINE
  5
36D5
330
1F
100
AcDbEntity
  8
AM_VIS
100
AcDbLine
 10
2178.775007945477
 20
1675.494887308548
 30
0.0
 11
2178.775007945477
 21
1656.593677395018
 31
0.0
  0
LINE
  5
36D6
330
1F
100
AcDbEntity
  8
AM_VIS
100
AcDbLine
 10
2178.775007945477
 20
1675.494887308548
 30
0.0
 11
2179.875007945478
 21
1675.494887308548
 31
0.0
  0
LINE
  5
36D7
330
1F
100
AcDbEntity
  8
AM_VIS
100
AcDbLine
 10
2179.875007945478
 20
1649.456013703197
 30
0.0
 11
2179.875007945478
 21
1636.533760913899
 31
0.0
  0
LINE
  5
36D8
330
1F
100
AcDbEntity
  8
AM_VIS
100
AcDbLine
 10
2179.875007945478
 20
1675.494887308548
 30
0.0
 11
2179.875007945478
 21
1657.533760913899
 31
0.0
  0
LINE
  5
36D9
330
1F
100
AcDbEntity
  8
AM_VIS
100
AcDbLine
 10
2179.875007945478
 20
1675.494887308548
 30
0.0
 11
2213.375007945477
 21
1675.494887308548
 31
0.0
  0
LINE
  5
36DA
330
1F
100
AcDbEntity
  8
AM_VIS
100
AcDbLine
 10
2213.375007945477
 20
1675.494887308548
 30
0.0
 11
2213.375007945477
 21
1619.994887308548
 31
0.0
  0
LINE
  5
36DB
330
1F
100
AcDbEntity
  8
AM_VIS
100
AcDbLine
 10
2179.875007945478
 20
1619.994887308548
 30
0.0
 11
2213.375007945477
 21
1619.994887308548
 31
0.0
  0
LINE
  5
36DC
330
1F
100
AcDbEntity
  8
AM_VIS
100
AcDbLine
 10
2179.875007945478
 20
1628.456013703198
 30
0.0
 11
2179.875007945478
 21
1619.994887308548
 31
0.0
  0
ARC
  5
36DD
330
1F
100
AcDbEntity
  8
AM_VIS
100
AcDbCircle
 10
2148.375007945477
 20
1653.494887308548
 30
0.0
 40
4.75
100
AcDbArc
 50
301.7568638593031
 51
319.2789524078065
  0
LINE
  5
36DE
330
1F
100
AcDbEntity
  8
AM_VIS
100
AcDbLine
 10
2151.975007945477
 20
1650.396097222079
 30
0.0
 11
2151.975007945477
 21
1635.593677395017
 31
0.0
  0
LINE
  5
36DF
330
1F
100
AcDbEntity
  8
AM_VIS
100
AcDbLine
 10
2150.875007945477
 20
1619.994887308548
 30
0.0
 11
2150.875007945477
 21
1628.456013703198
 31
0.0
  0
LINE
  5
36E0
330
1F
100
AcDbEntity
  8
AM_VIS
100
AcDbLine
 10
2117.375007945478
 20
1619.994887308548
 30
0.0
 11
2150.875007945477
 21
1619.994887308548
 31
0.0
  0
LINE
  5
36E1
330
1F
100
AcDbEntity
  8
AM_VIS
100
AcDbLine
 10
2117.375007945478
 20
1675.494887308548
 30
0.0
 11
2117.375007945478
 21
1619.994887308548
 31
0.0
  0
LINE
  5
36E2
330
1F
100
AcDbEntity
  8
AM_VIS
100
AcDbLine
 10
2117.375007945478
 20
1675.494887308548
 30
0.0
 11
2150.875007945477
 21
1675.494887308548
 31
0.0
  0
LINE
  5
36E3
330
1F
100
AcDbEntity
  8
AM_VIS
100
AcDbLine
 10
2150.875007945477
 20
1657.533760913899
 30
0.0
 11
2150.875007945477
 21
1675.494887308548
 31
0.0
  0
LINE
  5
36E4
330
1F
100
AcDbEntity
  8
AM_VIS
100
AcDbLine
 10
2150.875007945477
 20
1636.533760913899
 30
0.0
 11
2150.875007945477
 21
1649.456013703197
 31
0.0
  0
ARC
  5
36E5
330
1F
100
AcDbEntity
  8
AM_VIS
100
AcDbCircle
 10
2182.375007945477
 20
1653.494887308548
 30
0.0
 40
4.75
100
AcDbArc
 50
220.7210475921935
 51
238.2431361406969
  0
ARC
  5
36E6
330
1F
100
AcDbEntity
  8
AM_VIS
100
AcDbCircle
 10
2182.375007945477
 20
1653.494887308548
 30
0.0
 40
4.75
100
AcDbArc
 50
121.7568638593031
 51
139.2789524078065
  0
ARC
  5
36E7
330
1F
100
AcDbEntity
  8
AM_VIS
100
AcDbCircle
 10
2148.375007945477
 20
1632.494887308548
 30
0.0
 40
4.75
100
AcDbArc
 50
40.72104759219348
 51
58.24313614069691
  0
ARC
  5
36E8
330
1F
100
AcDbEntity
  8
AM_VIS
100
AcDbCircle
 10
2148.375007945477
 20
1632.494887308548
 30
0.0
 40
4.75
100
AcDbArc
 50
301.7568638593031
 51
319.2789524078065
  0
ARC
  5
36E9
330
1F
100
AcDbEntity
  8
AM_VIS
100
AcDbCircle
 10
2182.375007945477
 20
1632.494887308548
 30
0.0
 40
4.75
100
AcDbArc
 50
220.7210475921935
 51
238.2431361406969
  0
ARC
  5
36EA
330
1F
100
AcDbEntity
  8
AM_VIS
100
AcDbCircle
 10
2182.375007945477
 20
1632.494887308548
 30
0.0
 40
4.75
100
AcDbArc
 50
121.7568638593031
 51
139.2789524078065
  0
LINE
  5
36EB
330
1F
100
AcDbEntity
  8
AM_VIS
100
AcDbLine
 10
2172.075007945477
 20
1675.494887308548
 30
0.0
 11
2165.375007945478
 21
1675.494887308548
 31
0.0
  0
LINE
  5
36ED
330
1F
100
AcDbEntity
  8
AM_VIS
100
AcDbLine
 10
2165.375007945478
 20
1675.494887308548
 30
0.0
 11
2160.825007945477
 21
1675.494887308548
 31
0.0
  0
LINE
  5
36EE
330
1F
100
AcDbEntity
  8
AM_VIS
100
AcDbLine
 10
2159.925007945477
 20
1675.494887308548
 30
0.0
 11
2158.675007945477
 21
1675.494887308548
 31
0.0
  0
LINE
  5
36EF
330
1F
100
AcDbEntity
  8
AM_VIS
100
AcDbLine
 10
2158.675007945477
 20
1619.994887308548
 30
0.0
 11
2159.925007945477
 21
1619.994887308548
 31
0.0
  0
LINE
  5
36F0
330
1F
100
AcDbEntity
  8
AM_VIS
100
AcDbLine
 10
2160.825007945477
 20
1619.994887308548
 30
0.0
 11
2162.075007945477
 21
1619.994887308548
 31
0.0
  0
LINE
  5
36F1
330
1F
100
AcDbEntity
  8
AM_VIS
100
AcDbLine
 10
2168.675007945477
 20
1619.994887308548
 30
0.0
 11
2169.925007945478
 21
1619.994887308548
 31
0.0
  0
LINE
  5
36F2
330
1F
100
AcDbEntity
  8
AM_VIS
100
AcDbLine
 10
2170.825007945477
 20
1619.994887308548
 30
0.0
 11
2172.075007945477
 21
1619.994887308548
 31
0.0
  0
ARC
  5
36F5
330
1F
100
AcDbEntity
  8
AM_VIS
100
AcDbCircle
 10
2148.375007945477
 20
1653.494887308548
 30
0.0
 40
4.75
100
AcDbArc
 50
319.2789524078065
 51
40.72104759219348
  0
CIRCLE
  5
36F6
330
1F
100
AcDbEntity
  8
AM_VIS
100
AcDbCircle
 10
2148.375007945477
 20
1653.494887308548
 30
0.0
 40
2.45
  0
ARC
  5
36F8
330
1F
100
AcDbEntity
  8
AM_VIS
100
AcDbCircle
 10
2148.375007945477
 20
1653.494887308548
 30
0.0
 40
4.75
100
AcDbArc
 50
58.24313614069691
 51
301.7568638593031
  0
ARC
  5
36FA
330
1F
100
AcDbEntity
  8
AM_VIS
100
AcDbCircle
 10
2182.375007945477
 20
1653.494887308548
 30
0.0
 40
4.75
100
AcDbArc
 50
238.2431361406969
 51
121.7568638593031
  0
ARC
  5
36FB
330
1F
100
AcDbEntity
  8
AM_VIS
100
AcDbCircle
 10
2182.375007945477
 20
1653.494887308548
 30
0.0
 40
4.75
100
AcDbArc
 50
139.2789524078065
 51
220.7210475921935
  0
CIRCLE
  5
36FC
330
1F
100
AcDbEntity
  8
AM_VIS
100
AcDbCircle
 10
2182.375007945477
 20
1653.494887308548
 30
0.0
 40
2.45
  0
ARC
  5
36FD
330
1F
100
AcDbEntity
  8
AM_VIS
100
AcDbCircle
 10
2148.375007945477
 20
1632.494887308548
 30
0.0
 40
4.75
100
AcDbArc
 50
58.24313614069691
 51
301.7568638593031
  0
ARC
  5
36FE
330
1F
100
AcDbEntity
  8
AM_VIS
100
AcDbCircle
 10
2148.375007945477
 20
1632.494887308548
 30
0.0
 40
4.75
100
AcDbArc
 50
319.2789524078065
 51
40.72104759219348
  0
CIRCLE
  5
36FF
330
1F
100
AcDbEntity
  8
AM_VIS
100
AcDbCircle
 10
2148.375007945477
 20
1632.494887308548
 30
0.0
 40
2.45
  0
ARC
  5
3700
330
1F
100
AcDbEntity
  8
AM_VIS
100
AcDbCircle
 10
2182.375007945477
 20
1632.494887308548
 30
0.0
 40
4.75
100
AcDbArc
 50
238.2431361406969
 51
121.7568638593031
  0
ARC
  5
3701
330
1F
100
AcDbEntity
  8
AM_VIS
100
AcDbCircle
 10
2182.375007945477
 20
1632.494887308548
 30
0.0
 40
4.75
100
AcDbArc
 50
139.2789524078065
 51
220.7210475921935
  0
CIRCLE
  5
3702
330
1F
100
AcDbEntity
  8
AM_VIS
100
AcDbCircle
 10
2182.375007945477
 20
1632.494887308548
 30
0.0
 40
2.45
  0
LINE
  5
3703
330
1F
100
AcDbEntity
  8
AM_VIS
100
AcDbLine
 10
2196.759615637811
 20
1740.1505513803
 30
0.0
 11
2195.585007945477
 21
1742.1505513803
 31
0.0
  0
LINE
  5
3704
330
1F
100
AcDbEntity
  8
AM_VIS
100
AcDbLine
 10
2196.759615637811
 20
1744.1505513803
 30
0.0
 11
2198.990400253143
 21
1744.1505513803
 31
0.0
  0
LINE
  5
3705
330
1F
100
AcDbEntity
  8
AM_VIS
100
AcDbLine
 10
2195.585007945477
 20
1742.1505513803
 30
0.0
 11
2196.759615637811
 21
1744.1505513803
 31
0.0
  0
LINE
  5
3706
330
1F
100
AcDbEntity
  8
AM_VIS
100
AcDbLine
 10
2198.990400253143
 20
1740.1505513803
 30
0.0
 11
2196.759615637811
 21
1740.1505513803
 31
0.0
  0
LINE
  5
3707
330
1F
100
AcDbEntity
  8
AM_VIS
100
AcDbLine
 10
2200.165007945477
 20
1742.1505513803
 30
0.0
 11
2198.990400253143
 21
1740.1505513803
 31
0.0
  0
LINE
  5
3708
330
1F
100
AcDbEntity
  8
AM_VIS
100
AcDbLine
 10
2198.990400253143
 20
1744.1505513803
 30
0.0
 11
2200.165007945477
 21
1742.1505513803
 31
0.0
  0
CIRCLE
  5
3709
330
1F
100
AcDbEntity
  8
AM_VIS
100
AcDbCircle
 10
2197.875007945477
 20
1742.1505513803
 30
0.0
 40
5.25
  0
LINE
  5
370A
330
1F
100
AcDbEntity
  8
AM_VIS
100
AcDbLine
 10
2164.259615637812
 20
1740.1505513803
 30
0.0
 11
2163.085007945477
 21
1742.1505513803
 31
0.0
  0
LINE
  5
370B
330
1F
100
AcDbEntity
  8
AM_VIS
100
AcDbLine
 10
2164.259615637812
 20
1744.1505513803
 30
0.0
 11
2166.490400253143
 21
1744.1505513803
 31
0.0
  0
LINE
  5
370C
330
1F
100
AcDbEntity
  8
AM_VIS
100
AcDbLine
 10
2163.085007945477
 20
1742.1505513803
 30
0.0
 11
2164.259615637812
 21
1744.1505513803
 31
0.0
  0
LINE
  5
370D
330
1F
100
AcDbEntity
  8
AM_VIS
100
AcDbLine
 10
2166.490400253143
 20
1740.1505513803
 30
0.0
 11
2164.259615637812
 21
1740.1505513803
 31
0.0
  0
LINE
  5
370E
330
1F
100
AcDbEntity
  8
AM_VIS
100
AcDbLine
 10
2167.665007945477
 20
1742.1505513803
 30
0.0
 11
2166.490400253143
 21
1740.1505513803
 31
0.0
  0
LINE
  5
370F
330
1F
100
AcDbEntity
  8
AM_VIS
100
AcDbLine
 10
2166.490400253143
 20
1744.1505513803
 30
0.0
 11
2167.665007945477
 21
1742.1505513803
 31
0.0
  0
CIRCLE
  5
3710
330
1F
100
AcDbEntity
  8
AM_VIS
100
AcDbCircle
 10
2165.375007945477
 20
1742.1505513803
 30
0.0
 40
5.25
  0
LINE
  5
3711
330
1F
100
AcDbEntity
  8
AM_VIS
100
AcDbLine
 10
2131.759615637811
 20
1740.1505513803
 30
0.0
 11
2130.585007945477
 21
1742.1505513803
 31
0.0
  0
LINE
  5
3712
330
1F
100
AcDbEntity
  8
AM_VIS
100
AcDbLine
 10
2131.759615637811
 20
1744.1505513803
 30
0.0
 11
2133.990400253143
 21
1744.1505513803
 31
0.0
  0
LINE
  5
3713
330
1F
100
AcDbEntity
  8
AM_VIS
100
AcDbLine
 10
2130.585007945477
 20
1742.1505513803
 30
0.0
 11
2131.759615637811
 21
1744.1505513803
 31
0.0
  0
LINE
  5
3714
330
1F
100
AcDbEntity
  8
AM_VIS
100
AcDbLine
 10
2133.990400253143
 20
1740.1505513803
 30
0.0
 11
2131.759615637811
 21
1740.1505513803
 31
0.0
  0
LINE
  5
3715
330
1F
100
AcDbEntity
  8
AM_VIS
100
AcDbLine
 10
2135.165007945477
 20
1742.1505513803
 30
0.0
 11
2133.990400253143
 21
1740.1505513803
 31
0.0
  0
LINE
  5
3716
330
1F
100
AcDbEntity
  8
AM_VIS
100
AcDbLine
 10
2133.990400253143
 20
1744.1505513803
 30
0.0
 11
2135.165007945477
 21
1742.1505513803
 31
0.0
  0
CIRCLE
  5
3717
330
1F
100
AcDbEntity
  8
AM_VIS
100
AcDbCircle
 10
2132.875007945477
 20
1742.1505513803
 30
0.0
 40
5.25
  0
LINE
  5
3718
330
1F
100
AcDbEntity
  8
AM_VIS
100
AcDbLine
 10
2207.375007945477
 20
1761.1505513803
 30
0.0
 11
2123.375007945477
 21
1761.1505513803
 31
0.0
  0
LINE
  5
3719
330
1F
100
AcDbEntity
  8
AM_VIS
100
AcDbLine
 10
2122.375007945477
 20
1760.1505513803
 30
0.0
 11
2122.375007945477
 21
1724.1505513803
 31
0.0
  0
LINE
  5
371A
330
1F
100
AcDbEntity
  8
AM_VIS
100
AcDbLine
 10
2123.375007945477
 20
1723.1505513803
 30
0.0
 11
2207.375007945477
 21
1723.150551380301
 31
0.0
  0
LINE
  5
371B
330
1F
100
AcDbEntity
  8
AM_VIS
100
AcDbLine
 10
2207.375007945477
 20
1723.1505513803
 30
0.0
 11
2207.875007945477
 21
1723.6505513803
 31
0.0
  0
LINE
  5
371C
330
1F
100
AcDbEntity
  8
AM_VIS
100
AcDbLine
 10
2207.875007945477
 20
1723.6505513803
 30
0.0
 11
2208.375007945477
 21
1724.1505513803
 31
0.0
  0
LINE
  5
371D
330
1F
100
AcDbEntity
  8
AM_VIS
100
AcDbLine
 10
2208.375007945477
 20
1760.1505513803
 30
0.0
 11
2207.875007945477
 21
1760.6505513803
 31
0.0
  0
LINE
  5
371E
330
1F
100
AcDbEntity
  8
AM_VIS
100
AcDbLine
 10
2207.875007945477
 20
1760.6505513803
 30
0.0
 11
2207.375007945477
 21
1761.1505513803
 31
0.0
  0
LINE
  5
371F
330
1F
100
AcDbEntity
  8
AM_VIS
100
AcDbLine
 10
2208.375007945477
 20
1724.1505513803
 30
0.0
 11
2208.375007945477
 21
1760.1505513803
 31
0.0
  0
LINE
  5
3720
330
1F
100
AcDbEntity
  8
AM_VIS
100
AcDbLine
 10
2122.375007945477
 20
1724.1505513803
 30
0.0
 11
2122.875007945477
 21
1723.6505513803
 31
0.0
  0
LINE
  5
3721
330
1F
100
AcDbEntity
  8
AM_VIS
100
AcDbLine
 10
2122.875007945477
 20
1723.6505513803
 30
0.0
 11
2123.375007945477
 21
1723.1505513803
 31
0.0
  0
LINE
  5
3722
330
1F
100
AcDbEntity
  8
AM_VIS
100
AcDbLine
 10
2123.375007945477
 20
1761.1505513803
 30
0.0
 11
2122.875007945477
 21
1760.6505513803
 31
0.0
  0
LINE
  5
3723
330
1F
100
AcDbEntity
  8
AM_7
  6
AM_ISO08W050x2
100
AcDbLine
 10
2065.248422956813
 20
1680.494887308548
 30
0.0
 11
2065.248422956813
 21
1672.494887308548
 31
0.0
1001
GENIUS_GENOBJ-N-CEN_13
1002
{
1000
OWNER
1000
GEN
1002
}
1001
GENIUS_GENODEF_13
1002
{
1000
HIER
1070
     0
1002
}
1002
{
1000
MANEDIT
1070
     0
1002
}
1002
{
1000
NOSEL
1070
     0
1002
}
1002
{
1000
BEHIND
1070
     0
1002
}
1002
{
1000
OTHER
1070
     0
1002
}
1002
{
1000
REACTOR
1002
}
1001
GENIUS_GENCEN_19
1002
{
1040
3.0
1002
}
  0
LINE
  5
3724
330
1F
100
AcDbEntity
  8
AM_7
  6
AM_ISO08W050x2
100
AcDbLine
 10
2132.875007945477
 20
1680.494887308548
 30
0.0
 11
2132.875007945477
 21
1672.494887308548
 31
0.0
1001
GENIUS_GENODEF_13
1002
{
1000
HIER
1070
     0
1002
}
1002
{
1000
MANEDIT
1070
     0
1002
}
1002
{
1000
NOSEL
1070
     0
1002
}
1002
{
1000
BEHIND
1070
     0
1002
}
1002
{
1000
OTHER
1070
     0
1002
}
1002
{
1000
REACTOR
1002
}
1001
GENIUS_GENOBJ-N-CEN_13
1002
{
1000
OWNER
1000
GEN
1002
}
1001
GENIUS_GENCEN_19
1002
{
1040
3.0
1002
}
  0
LINE
  5
3725
330
1F
100
AcDbEntity
  8
AM_7
  6
AM_ISO08W050x2
100
AcDbLine
 10
2165.375007945477
 20
1680.494887308548
 30
0.0
 11
2165.375007945477
 21
1672.494887308548
 31
0.0
1001
GENIUS_GENOBJ-N-CEN_13
1002
{
1000
OWNER
1000
GEN
1002
}
1001
GENIUS_GENODEF_13
1002
{
1000
HIER
1070
     0
1002
}
1002
{
1000
MANEDIT
1070
     0
1002
}
1002
{
1000
NOSEL
1070
     0
1002
}
1002
{
1000
BEHIND
1070
     0
1002
}
1002
{
1000
OTHER
1070
     0
1002
}
1002
{
1000
REACTOR
1002
}
1001
GENIUS_GENCEN_19
1002
{
1040
3.0
1002
}
  0
LINE
  5
3726
330
1F
100
AcDbEntity
  8
AM_7
  6
AM_ISO08W050x2
100
AcDbLine
 10
2197.875007945477
 20
1680.494887308548
 30
0.0
 11
2197.875007945477
 21
1672.494887308548
 31
0.0
1001
GENIUS_GENOBJ-N-CEN_13
1002
{
1000
OWNER
1000
GEN
1002
}
1001
GENIUS_GENODEF_13
1002
{
1000
HIER
1070
     0
1002
}
1002
{
1000
MANEDIT
1070
     0
1002
}
1002
{
1000
NOSEL
1070
     0
1002
}
1002
{
1000
BEHIND
1070
     0
1002
}
1002
{
1000
OTHER
1070
     0
1002
}
1002
{
1000
REACTOR
1002
}
1001
GENIUS_GENCEN_19
1002
{
1040
3.0
1002
}
  0
LINE
  5
3727
330
1F
100
AcDbEntity
  8
AM_7
  6
AM_ISO08W050x2
100
AcDbLine
 10
2283.892191490654
 20
1680.494887308548
 30
0.0
 11
2283.892191490654
 21
1672.494887308548
 31
0.0
1001
GENIUS_GENODEF_13
1002
{
1000
HIER
1070
     0
1002
}
1002
{
1000
MANEDIT
1070
     0
1002
}
1002
{
1000
NOSEL
1070
     0
1002
}
1002
{
1000
BEHIND
1070
     0
1002
}
1002
{
1000
OTHER
1070
     0
1002
}
1002
{
1000
REACTOR
1002
}
1001
GENIUS_GENOBJ-N-CEN_13
1002
{
1000
OWNER
1000
GEN
1002
}
1001
GENIUS_GENCEN_19
1002
{
1040
3.0
1002
}
  0
LINE
  5
3728
330
1F
100
AcDbEntity
  8
AM_7
  6
AM_ISO08W050x2
100
AcDbLine
 10
2346.218531152617
 20
1680.494887308548
 30
0.0
 11
2346.218531152617
 21
1672.494887308548
 31
0.0
1001
GENIUS_GENOBJ-N-CEN_13
1002
{
1000
OWNER
1000
GEN
1002
}
1001
GENIUS_GENODEF_13
1002
{
1000
HIER
1070
     0
1002
}
1002
{
1000
MANEDIT
1070
     0
1002
}
1002
{
1000
NOSEL
1070
     0
1002
}
1002
{
1000
BEHIND
1070
     0
1002
}
1002
{
1000
OTHER
1070
     0
1002
}
1002
{
1000
REACTOR
1002
}
1001
GENIUS_GENCEN_19
1002
{
1040
3.0
1002
}
  0
LINE
  5
3729
330
1F
100
AcDbEntity
  8
AM_7
  6
AM_ISO08W050x2
100
AcDbLine
 10
2378.718531152617
 20
1680.494887308548
 30
0.0
 11
2378.718531152617
 21
1672.494887308548
 31
0.0
1001
GENIUS_GENOBJ-N-CEN_13
1002
{
1000
OWNER
1000
GEN
1002
}
1001
GENIUS_GENODEF_13
1002
{
1000
HIER
1070
     0
1002
}
1002
{
1000
MANEDIT
1070
     0
1002
}
1002
{
1000
NOSEL
1070
     0
1002
}
1002
{
1000
BEHIND
1070
     0
1002
}
1002
{
1000
OTHER
1070
     0
1002
}
1002
{
1000
REACTOR
1002
}
1001
GENIUS_GENCEN_19
1002
{
1040
3.0
1002
}
  0
LINE
  5
372A
330
1F
100
AcDbEntity
  8
AM_7
  6
AM_ISO08W050x2
100
AcDbLine
 10
2411.218531152617
 20
1680.494887308548
 30
0.0
 11
2411.218531152617
 21
1672.494887308548
 31
0.0
1001
GENIUS_GENOBJ-N-CEN_13
1002
{
1000
OWNER
1000
GEN
1002
}
1001
GENIUS_GENODEF_13
1002
{
1000
HIER
1070
     0
1002
}
1002
{
1000
MANEDIT
1070
     0
1002
}
1002
{
1000
NOSEL
1070
     0
1002
}
1002
{
1000
BEHIND
1070
     0
1002
}
1002
{
1000
OTHER
1070
     0
1002
}
1002
{
1000
REACTOR
1002
}
1001
GENIUS_GENCEN_19
1002
{
1040
3.0
1002
}
  0
ARC
  5
3746
330
1F
100
AcDbEntity
  8
AM_4
100
AcDbCircle
 10
2078.748422956814
 20
1663.494887308548
 30
0.0
 40
4.863999999999999
100
AcDbArc
 50
260.0
 51
170.0
  0
LINE
  5
3747
330
1F
100
AcDbEntity
  8
AM_7
  6
AM_ISO08W050x2
100
AcDbLine
 10
2078.748422956814
 20
1670.358887308548
 30
0.0
 11
2078.748422956814
 21
1656.630887308548
 31
0.0
  0
CIRCLE
  5
3748
330
1F
100
AcDbEntity
  8
AM_0
100
AcDbCircle
 10
2078.748422956814
 20
1663.494887308548
 30
0.0
 40
4.283
  0
LINE
  5
3749
330
1F
100
AcDbEntity
  8
AM_7
  6
AM_ISO08W050x2
100
AcDbLine
 10
2071.884422956813
 20
1663.494887308548
 30
0.0
 11
2085.612422956813
 21
1663.494887308548
 31
0.0
  0
ARC
  5
374A
330
1F
100
AcDbEntity
  8
AM_4
100
AcDbCircle
 10
2078.748422956814
 20
1642.494887308548
 30
0.0
 40
4.863999999999999
100
AcDbArc
 50
260.0
 51
170.0
  0
LINE
  5
374B
330
1F
100
AcDbEntity
  8
AM_7
  6
AM_ISO08W050x2
100
AcDbLine
 10
2078.748422956814
 20
1649.358887308548
 30
0.0
 11
2078.748422956814
 21
1635.630887308548
 31
0.0
  0
CIRCLE
  5
374C
330
1F
100
AcDbEntity
  8
AM_0
100
AcDbCircle
 10
2078.748422956814
 20
1642.494887308548
 30
0.0
 40
4.283
  0
LINE
  5
374D
330
1F
100
AcDbEntity
  8
AM_7
  6
AM_ISO08W050x2
100
AcDbLine
 10
2071.884422956813
 20
1642.494887308548
 30
0.0
 11
2085.612422956813
 21
1642.494887308548
 31
0.0
  0
ARC
  5
374E
330
1F
100
AcDbEntity
  8
AM_4
100
AcDbCircle
 10
2141.375007945477
 20
1642.494887308548
 30
0.0
 40
4.863999999999999
100
AcDbArc
 50
260.0
 51
170.0
  0
LINE
  5
374F
330
1F
100
AcDbEntity
  8
AM_7
  6
AM_ISO08W050x2
100
AcDbLine
 10
2141.375007945477
 20
1649.358887308548
 30
0.0
 11
2141.375007945477
 21
1635.630887308548
 31
0.0
  0
CIRCLE
  5
3750
330
1F
100
AcDbEntity
  8
AM_0
100
AcDbCircle
 10
2141.375007945477
 20
1642.494887308548
 30
0.0
 40
4.283
  0
LINE
  5
3751
330
1F
100
AcDbEntity
  8
AM_7
  6
AM_ISO08W050x2
100
AcDbLine
 10
2134.511007945477
 20
1642.494887308548
 30
0.0
 11
2148.239007945477
 21
1642.494887308548
 31
0.0
  0
ARC
  5
3752
330
1F
100
AcDbEntity
  8
AM_4
100
AcDbCircle
 10
2141.375007945477
 20
1663.494887308548
 30
0.0
 40
4.863999999999999
100
AcDbArc
 50
260.0
 51
170.0
  0
LINE
  5
3753
330
1F
100
AcDbEntity
  8
AM_7
  6
AM_ISO08W050x2
100
AcDbLine
 10
2141.375007945477
 20
1670.358887308548
 30
0.0
 11
2141.375007945477
 21
1656.630887308548
 31
0.0
  0
CIRCLE
  5
3754
330
1F
100
AcDbEntity
  8
AM_0
100
AcDbCircle
 10
2141.375007945477
 20
1663.494887308548
 30
0.0
 40
4.283
  0
LINE
  5
3755
330
1F
100
AcDbEntity
  8
AM_7
  6
AM_ISO08W050x2
100
AcDbLine
 10
2134.511007945477
 20
1663.494887308548
 30
0.0
 11
2148.239007945477
 21
1663.494887308548
 31
0.0
  0
LINE
  5
3763
330
1F
100
AcDbEntity
  8
AM_7
  6
AM_ISO08W050x2
100
AcDbLine
 10
2148.375007945477
 20
1653.494887308548
 30
0.0
 11
2155.125007945477
 21
1653.494887308548
 31
0.0
1001
GENIUS_GENOREF_13
1005
3767
  0
LINE
  5
3764
330
1F
100
AcDbEntity
  8
AM_7
  6
AM_ISO08W050x2
100
AcDbLine
 10
2148.375007945477
 20
1653.494887308548
 30
0.0
 11
2148.375007945477
 21
1660.244887308548
 31
0.0
1001
GENIUS_GENOREF_13
1005
3767
  0
LINE
  5
3765
330
1F
100
AcDbEntity
  8
AM_7
  6
AM_ISO08W050x2
100
AcDbLine
 10
2148.375007945477
 20
1653.494887308548
 30
0.0
 11
2141.625007945477
 21
1653.494887308548
 31
0.0
1001
GENIUS_GENOREF_13
1005
3767
  0
LINE
  5
3766
330
1F
100
AcDbEntity
  8
AM_7
  6
AM_ISO08W050x2
100
AcDbLine
 10
2148.375007945477
 20
1653.494887308548
 30
0.0
 11
2148.375007945477
 21
1646.744887308548
 31
0.0
1001
GENIUS_GENOREF_13
1005
3767
  0
POINT
  5
3767
330
1F
100
AcDbEntity
  8
0
 60
     1
100
AcDbPoint
 10
0.0
 20
0.0
 30
0.0
1001
GENIUS_GENOLIS_13
1002
{
1000
ENT
1005
3766
1005
3765
1005
3764
1005
3763
1002
}
1001
GENIUS_GENOENT_13
1002
{
1000
MYREF
1005
3767
1002
}
1002
{
1000
GRP
1005
0
1002
}
1001
GENIUS_GENOBJ-N-CRS_13
1002
{
1000
OWNER
1000
GEN
1002
}
1001
GENIUS_GENODEF_13
1002
{
1000
HIER
1070
    10
1002
}
1002
{
1000
MANEDIT
1070
     0
1002
}
1002
{
1000
NOSEL
1070
     0
1002
}
1002
{
1000
BEHIND
1070
     0
1002
}
1002
{
1000
OTHER
1070
     0
1002
}
1002
{
1000
REACTOR
1002
}
  0
LINE
  5
3775
330
1F
100
AcDbEntity
  8
AM_7
  6
AM_ISO08W050x2
100
AcDbLine
 10
2182.375007945477
 20
1653.494887308548
 30
0.0
 11
2189.125007945477
 21
1653.494887308548
 31
0.0
1001
GENIUS_GENOREF_13
1005
3779
  0
LINE
  5
3776
330
1F
100
AcDbEntity
  8
AM_7
  6
AM_ISO08W050x2
100
AcDbLine
 10
2182.375007945477
 20
1653.494887308548
 30
0.0
 11
2182.375007945477
 21
1660.244887308548
 31
0.0
1001
GENIUS_GENOREF_13
1005
3779
  0
LINE
  5
3777
330
1F
100
AcDbEntity
  8
AM_7
  6
AM_ISO08W050x2
100
AcDbLine
 10
2182.375007945477
 20
1653.494887308548
 30
0.0
 11
2175.625007945477
 21
1653.494887308548
 31
0.0
1001
GENIUS_GENOREF_13
1005
3779
  0
LINE
  5
3778
330
1F
100
AcDbEntity
  8
AM_7
  6
AM_ISO08W050x2
100
AcDbLine
 10
2182.375007945477
 20
1653.494887308548
 30
0.0
 11
2182.375007945477
 21
1646.744887308548
 31
0.0
1001
GENIUS_GENOREF_13
1005
3779
  0
POINT
  5
3779
330
1F
100
AcDbEntity
  8
0
 60
     1
100
AcDbPoint
 10
0.0
 20
0.0
 30
0.0
1001
GENIUS_GENOBJ-N-CRS_13
1002
{
1000
OWNER
1000
GEN
1002
}
1001
GENIUS_GENODEF_13
1002
{
1000
HIER
1070
    10
1002
}
1002
{
1000
MANEDIT
1070
     0
1002
}
1002
{
1000
NOSEL
1070
     0
1002
}
1002
{
1000
BEHIND
1070
     0
1002
}
1002
{
1000
OTHER
1070
     0
1002
}
1002
{
1000
REACTOR
1002
}
1001
GENIUS_GENOLIS_13
1002
{
1000
ENT
1005
3778
1005
3777
1005
3776
1005
3775
1002
}
1001
GENIUS_GENOENT_13
1002
{
1000
MYREF
1005
3779
1002
}
1002
{
1000
GRP
1005
0
1002
}
  0
LINE
  5
3787
330
1F
100
AcDbEntity
  8
AM_7
  6
AM_ISO08W050x2
100
AcDbLine
 10
2182.375007945477
 20
1632.494887308548
 30
0.0
 11
2189.125007945477
 21
1632.494887308548
 31
0.0
1001
GENIUS_GENOREF_13
1005
378B
  0
LINE
  5
3788
330
1F
100
AcDbEntity
  8
AM_7
  6
AM_ISO08W050x2
100
AcDbLine
 10
2182.375007945477
 20
1632.494887308548
 30
0.0
 11
2182.375007945477
 21
1639.244887308548
 31
0.0
1001
GENIUS_GENOREF_13
1005
378B
  0
LINE
  5
3789
330
1F
100
AcDbEntity
  8
AM_7
  6
AM_ISO08W050x2
100
AcDbLine
 10
2182.375007945477
 20
1632.494887308548
 30
0.0
 11
2175.625007945477
 21
1632.494887308548
 31
0.0
1001
GENIUS_GENOREF_13
1005
378B
  0
LINE
  5
378A
330
1F
100
AcDbEntity
  8
AM_7
  6
AM_ISO08W050x2
100
AcDbLine
 10
2182.375007945477
 20
1632.494887308548
 30
0.0
 11
2182.375007945477
 21
1625.744887308548
 31
0.0
1001
GENIUS_GENOREF_13
1005
378B
  0
POINT
  5
378B
330
1F
100
AcDbEntity
  8
0
 60
     1
100
AcDbPoint
 10
0.0
 20
0.0
 30
0.0
1001
GENIUS_GENOLIS_13
1002
{
1000
ENT
1005
378A
1005
3789
1005
3788
1005
3787
1002
}
1001
GENIUS_GENOENT_13
1002
{
1000
MYREF
1005
378B
1002
}
1002
{
1000
GRP
1005
0
1002
}
1001
GENIUS_GENOBJ-N-CRS_13
1002
{
1000
OWNER
1000
GEN
1002
}
1001
GENIUS_GENODEF_13
1002
{
1000
HIER
1070
    10
1002
}
1002
{
1000
MANEDIT
1070
     0
1002
}
1002
{
1000
NOSEL
1070
     0
1002
}
1002
{
1000
BEHIND
1070
     0
1002
}
1002
{
1000
OTHER
1070
     0
1002
}
1002
{
1000
REACTOR
1002
}
  0
LINE
  5
3799
330
1F
100
AcDbEntity
  8
AM_7
  6
AM_ISO08W050x2
100
AcDbLine
 10
2148.375007945477
 20
1632.494887308548
 30
0.0
 11
2155.125007945477
 21
1632.494887308548
 31
0.0
1001
GENIUS_GENOREF_13
1005
379D
  0
LINE
  5
379A
330
1F
100
AcDbEntity
  8
AM_7
  6
AM_ISO08W050x2
100
AcDbLine
 10
2148.375007945477
 20
1632.494887308548
 30
0.0
 11
2148.375007945477
 21
1639.244887308548
 31
0.0
1001
GENIUS_GENOREF_13
1005
379D
  0
LINE
  5
379B
330
1F
100
AcDbEntity
  8
AM_7
  6
AM_ISO08W050x2
100
AcDbLine
 10
2148.375007945477
 20
1632.494887308548
 30
0.0
 11
2141.625007945477
 21
1632.494887308548
 31
0.0
1001
GENIUS_GENOREF_13
1005
379D
  0
LINE
  5
379C
330
1F
100
AcDbEntity
  8
AM_7
  6
AM_ISO08W050x2
100
AcDbLine
 10
2148.375007945477
 20
1632.494887308548
 30
0.0
 11
2148.375007945477
 21
1625.744887308548
 31
0.0
1001
GENIUS_GENOREF_13
1005
379D
  0
POINT
  5
379D
330
1F
100
AcDbEntity
  8
0
 60
     1
100
AcDbPoint
 10
0.0
 20
0.0
 30
0.0
1001
GENIUS_GENOLIS_13
1002
{
1000
ENT
1005
379C
1005
379B
1005
379A
1005
3799
1002
}
1001
GENIUS_GENODEF_13
1002
{
1000
HIER
1070
    10
1002
}
1002
{
1000
MANEDIT
1070
     0
1002
}
1002
{
1000
NOSEL
1070
     0
1002
}
1002
{
1000
BEHIND
1070
     0
1002
}
1002
{
1000
OTHER
1070
     0
1002
}
1002
{
1000
REACTOR
1002
}
1001
GENIUS_GENOENT_13
1002
{
1000
MYREF
1005
379D
1002
}
1002
{
1000
GRP
1005
0
1002
}
1001
GENIUS_GENOBJ-N-CRS_13
1002
{
1000
OWNER
1000
GEN
1002
}
  0
CIRCLE
  5
37CB
330
1F
100
AcDbEntity
  8
0
100
AcDbCircle
 10
2132.875007945477
 20
1558.147720512685
 30
0.0
 40
8.0
  0
CIRCLE
  5
37CC
330
1F
100
AcDbEntity
  8
0
100
AcDbCircle
 10
2197.875007945477
 20
1558.147720512685
 30
0.0
 40
8.0
  0
LINE
  5
37DA
330
1F
100
AcDbEntity
  8
AM_7
100
AcDbLine
 10
2132.875007945477
 20
1558.147720512685
 30
0.0
 11
2142.875007945477
 21
1558.147720512685
 31
0.0
1001
GENIUS_GENOREF_13
1005
37DE
  0
LINE
  5
37DB
330
1F
100
AcDbEntity
  8
AM_7
100
AcDbLine
 10
2132.875007945477
 20
1558.147720512685
 30
0.0
 11
2132.875007945477
 21
1568.147720512685
 31
0.0
1001
GENIUS_GENOREF_13
1005
37DE
  0
LINE
  5
37DC
330
1F
100
AcDbEntity
  8
AM_7
100
AcDbLine
 10
2132.875007945477
 20
1558.147720512685
 30
0.0
 11
2122.875007945477
 21
1558.147720512685
 31
0.0
1001
GENIUS_GENOREF_13
1005
37DE
  0
LINE
  5
37DD
330
1F
100
AcDbEntity
  8
AM_7
100
AcDbLine
 10
2132.875007945477
 20
1558.147720512685
 30
0.0
 11
2132.875007945477
 21
1548.147720512685
 31
0.0
1001
GENIUS_GENOREF_13
1005
37DE
  0
POINT
  5
37DE
330
1F
100
AcDbEntity
  8
0
 60
     1
100
AcDbPoint
 10
0.0
 20
0.0
 30
0.0
1001
GENIUS_GENODEF_13
1002
{
1000
HIER
1070
    10
1002
}
1002
{
1000
MANEDIT
1070
     0
1002
}
1002
{
1000
NOSEL
1070
     0
1002
}
1002
{
1000
BEHIND
1070
     0
1002
}
1002
{
1000
OTHER
1070
     0
1002
}
1002
{
1000
REACTOR
1002
}
1001
GENIUS_GENOBJ-N-CRS_13
1002
{
1000
OWNER
1000
GEN
1002
}
1001
GENIUS_GENOENT_13
1002
{
1000
MYREF
1005
37DE
1002
}
1002
{
1000
GRP
1005
0
1002
}
1001
GENIUS_GENOLIS_13
1002
{
1000
ENT
1005
37DD
1005
37DC
1005
37DB
1005
37DA
1002
}
  0
LINE
  5
37EC
330
1F
100
AcDbEntity
  8
AM_7
100
AcDbLine
 10
2197.875007945477
 20
1558.147720512685
 30
0.0
 11
2207.875007945477
 21
1558.147720512685
 31
0.0
1001
GENIUS_GENOREF_13
1005
37F0
  0
LINE
  5
37ED
330
1F
100
AcDbEntity
  8
AM_7
100
AcDbLine
 10
2197.875007945477
 20
1558.147720512685
 30
0.0
 11
2197.875007945477
 21
1568.147720512685
 31
0.0
1001
GENIUS_GENOREF_13
1005
37F0
  0
LINE
  5
37EE
330
1F
100
AcDbEntity
  8
AM_7
100
AcDbLine
 10
2197.875007945477
 20
1558.147720512685
 30
0.0
 11
2187.875007945477
 21
1558.147720512685
 31
0.0
1001
GENIUS_GENOREF_13
1005
37F0
  0
LINE
  5
37EF
330
1F
100
AcDbEntity
  8
AM_7
100
AcDbLine
 10
2197.875007945477
 20
1558.147720512685
 30
0.0
 11
2197.875007945477
 21
1548.147720512685
 31
0.0
1001
GENIUS_GENOREF_13
1005
37F0
  0
POINT
  5
37F0
330
1F
100
AcDbEntity
  8
0
 60
     1
100
AcDbPoint
 10
0.0
 20
0.0
 30
0.0
1001
GENIUS_GENOBJ-N-CRS_13
1002
{
1000
OWNER
1000
GEN
1002
}
1001
GENIUS_GENOLIS_13
1002
{
1000
ENT
1005
37EF
1005
37EE
1005
37ED
1005
37EC
1002
}
1001
GENIUS_GENOENT_13
1002
{
1000
MYREF
1005
37F0
1002
}
1002
{
1000
GRP
1005
0
1002
}
1001
GENIUS_GENODEF_13
1002
{
1000
HIER
1070
    10
1002
}
1002
{
1000
MANEDIT
1070
     0
1002
}
1002
{
1000
NOSEL
1070
     0
1002
}
1002
{
1000
BEHIND
1070
     0
1002
}
1002
{
1000
OTHER
1070
     0
1002
}
1002
{
1000
REACTOR
1002
}
  0
ARC
  5
380E
330
1F
100
AcDbEntity
  8
AM_4
100
AcDbCircle
 10
2361.718531152617
 20
1632.494887308548
 30
0.0
 40
3.0
100
AcDbArc
 50
260.0
 51
170.0
  0
LINE
  5
380F
330
1F
100
AcDbEntity
  8
AM_7
  6
AM_ISO08W050x2
100
AcDbLine
 10
2356.718531152617
 20
1632.494887308548
 30
0.0
 11
2366.718531152617
 21
1632.494887308548
 31
0.0
  0
LINE
  5
3810
330
1F
100
AcDbEntity
  8
AM_7
  6
AM_ISO08W050x2
100
AcDbLine
 10
2361.718531152617
 20
1627.494887308548
 30
0.0
 11
2361.718531152617
 21
1637.494887308548
 31
0.0
  0
CIRCLE
  5
3811
330
1F
100
AcDbEntity
  8
0
100
AcDbCircle
 10
2361.718531152617
 20
1632.494887308548
 30
0.0
 40
2.649999999999999
  0
ARC
  5
3812
330
1F
100
AcDbEntity
  8
AM_4
100
AcDbCircle
 10
2361.718531152617
 20
1653.494887308548
 30
0.0
 40
3.0
100
AcDbArc
 50
260.0
 51
170.0
  0
LINE
  5
3813
330
1F
100
AcDbEntity
  8
AM_7
  6
AM_ISO08W050x2
100
AcDbLine
 10
2356.718531152617
 20
1653.494887308548
 30
0.0
 11
2366.718531152617
 21
1653.494887308548
 31
0.0
  0
LINE
  5
3814
330
1F
100
AcDbEntity
  8
AM_7
  6
AM_ISO08W050x2
100
AcDbLine
 10
2361.718531152617
 20
1648.494887308548
 30
0.0
 11
2361.718531152617
 21
1658.494887308548
 31
0.0
  0
CIRCLE
  5
3815
330
1F
100
AcDbEntity
  8
0
100
AcDbCircle
 10
2361.718531152617
 20
1653.494887308548
 30
0.0
 40
2.649999999999999
  0
ARC
  5
3816
330
1F
100
AcDbEntity
  8
AM_4
100
AcDbCircle
 10
2395.718531152617
 20
1653.494887308548
 30
0.0
 40
3.0
100
AcDbArc
 50
260.0
 51
170.0
  0
LINE
  5
3817
330
1F
100
AcDbEntity
  8
AM_7
  6
AM_ISO08W050x2
100
AcDbLine
 10
2390.718531152617
 20
1653.494887308548
 30
0.0
 11
2400.718531152617
 21
1653.494887308548
 31
0.0
  0
LINE
  5
3818
330
1F
100
AcDbEntity
  8
AM_7
  6
AM_ISO08W050x2
100
AcDbLine
 10
2395.718531152617
 20
1648.494887308548
 30
0.0
 11
2395.718531152617
 21
1658.494887308548
 31
0.0
  0
CIRCLE
  5
3819
330
1F
100
AcDbEntity
  8
0
100
AcDbCircle
 10
2395.718531152617
 20
1653.494887308548
 30
0.0
 40
2.649999999999999
  0
ARC
  5
381A
330
1F
100
AcDbEntity
  8
AM_4
100
AcDbCircle
 10
2395.718531152617
 20
1632.494887308548
 30
0.0
 40
3.0
100
AcDbArc
 50
260.0
 51
170.0
  0
LINE
  5
381B
330
1F
100
AcDbEntity
  8
AM_7
  6
AM_ISO08W050x2
100
AcDbLine
 10
2390.718531152617
 20
1632.494887308548
 30
0.0
 11
2400.718531152617
 21
1632.494887308548
 31
0.0
  0
LINE
  5
381C
330
1F
100
AcDbEntity
  8
AM_7
  6
AM_ISO08W050x2
100
AcDbLine
 10
2395.718531152617
 20
1627.494887308548
 30
0.0
 11
2395.718531152617
 21
1637.494887308548
 31
0.0
  0
CIRCLE
  5
381D
330
1F
100
AcDbEntity
  8
0
100
AcDbCircle
 10
2395.718531152617
 20
1632.494887308548
 30
0.0
 40
2.649999999999999
  0
ARC
  5
3861
330
1F
100
AcDbEntity
  8
AM_4
100
AcDbCircle
 10
2340.718531152617
 20
1633.494887308548
 30
0.0
 40
3.0
100
AcDbArc
 50
260.0
 51
170.0
  0
CIRCLE
  5
3862
330
1F
100
AcDbEntity
  8
AM_0
100
AcDbCircle
 10
2340.718531152617
 20
1633.494887308548
 30
0.0
 40
2.45873412263477
  0
LINE
  5
3863
330
1F
100
AcDbEntity
  8
AM_7
  6
AM_ISO08W050x2
100
AcDbLine
 10
2335.718531152617
 20
1633.494887308548
 30
0.0
 11
2345.718531152617
 21
1633.494887308548
 31
0.0
  0
LINE
  5
3864
330
1F
100
AcDbEntity
  8
AM_7
  6
AM_ISO08W050x2
100
AcDbLine
 10
2340.718531152617
 20
1628.494887308548
 30
0.0
 11
2340.718531152617
 21
1638.494887308548
 31
0.0
  0
ARC
  5
3865
330
1F
100
AcDbEntity
  8
AM_4
100
AcDbCircle
 10
2340.718531152617
 20
1663.494887308548
 30
0.0
 40
3.0
100
AcDbArc
 50
260.0
 51
170.0
  0
CIRCLE
  5
3866
330
1F
100
AcDbEntity
  8
AM_0
100
AcDbCircle
 10
2340.718531152617
 20
1663.494887308548
 30
0.0
 40
2.45873412263477
  0
LINE
  5
3867
330
1F
100
AcDbEntity
  8
AM_7
  6
AM_ISO08W050x2
100
AcDbLine
 10
2335.718531152617
 20
1663.494887308548
 30
0.0
 11
2345.718531152617
 21
1663.494887308548
 31
0.0
  0
LINE
  5
3868
330
1F
100
AcDbEntity
  8
AM_7
  6
AM_ISO08W050x2
100
AcDbLine
 10
2340.718531152617
 20
1658.494887308548
 30
0.0
 11
2340.718531152617
 21
1668.494887308548
 31
0.0
  0
ARC
  5
3869
330
1F
100
AcDbEntity
  8
AM_4
100
AcDbCircle
 10
2416.718531152617
 20
1663.494887308548
 30
0.0
 40
3.0
100
AcDbArc
 50
260.0
 51
170.0
  0
CIRCLE
  5
386A
330
1F
100
AcDbEntity
  8
AM_0
100
AcDbCircle
 10
2416.718531152617
 20
1663.494887308548
 30
0.0
 40
2.45873412263477
  0
LINE
  5
386B
330
1F
100
AcDbEntity
  8
AM_7
  6
AM_ISO08W050x2
100
AcDbLine
 10
2411.718531152617
 20
1663.494887308548
 30
0.0
 11
2421.718531152617
 21
1663.494887308548
 31
0.0
  0
LINE
  5
386C
330
1F
100
AcDbEntity
  8
AM_7
  6
AM_ISO08W050x2
100
AcDbLine
 10
2416.718531152617
 20
1658.494887308548
 30
0.0
 11
2416.718531152617
 21
1668.494887308548
 31
0.0
  0
ARC
  5
386D
330
1F
100
AcDbEntity
  8
AM_4
100
AcDbCircle
 10
2416.718531152617
 20
1633.494887308548
 30
0.0
 40
3.0
100
AcDbArc
 50
260.0
 51
170.0
  0
CIRCLE
  5
386E
330
1F
100
AcDbEntity
  8
AM_0
100
AcDbCircle
 10
2416.718531152617
 20
1633.494887308548
 30
0.0
 40
2.45873412263477
  0
LINE
  5
386F
330
1F
100
AcDbEntity
  8
AM_7
  6
AM_ISO08W050x2
100
AcDbLine
 10
2411.718531152617
 20
1633.494887308548
 30
0.0
 11
2421.718531152617
 21
1633.494887308548
 31
0.0
  0
LINE
  5
3870
330
1F
100
AcDbEntity
  8
AM_7
  6
AM_ISO08W050x2
100
AcDbLine
 10
2416.718531152617
 20
1628.494887308548
 30
0.0
 11
2416.718531152617
 21
1638.494887308548
 31
0.0
  0
ARC
  5
388A
330
1F
100
AcDbEntity
  8
AM_4
100
AcDbCircle
 10
2130.375007945477
 20
1755.1505513803
 30
0.0
 40
3.0
100
AcDbArc
 50
260.0
 51
170.0
  0
CIRCLE
  5
388B
330
1F
100
AcDbEntity
  8
AM_0
100
AcDbCircle
 10
2130.375007945477
 20
1755.1505513803
 30
0.0
 40
2.45873412263477
  0
LINE
  5
388C
330
1F
100
AcDbEntity
  8
AM_7
  6
AM_ISO08W050x2
100
AcDbLine
 10
2125.375007945477
 20
1755.1505513803
 30
0.0
 11
2135.375007945477
 21
1755.1505513803
 31
0.0
  0
LINE
  5
388D
330
1F
100
AcDbEntity
  8
AM_7
  6
AM_ISO08W050x2
100
AcDbLine
 10
2130.375007945477
 20
1750.1505513803
 30
0.0
 11
2130.375007945477
 21
1760.1505513803
 31
0.0
  0
ARC
  5
388E
330
1F
100
AcDbEntity
  8
AM_4
100
AcDbCircle
 10
2130.375007945477
 20
1729.1505513803
 30
0.0
 40
3.0
100
AcDbArc
 50
260.0
 51
170.0
  0
CIRCLE
  5
388F
330
1F
100
AcDbEntity
  8
AM_0
100
AcDbCircle
 10
2130.375007945477
 20
1729.1505513803
 30
0.0
 40
2.45873412263477
  0
LINE
  5
3890
330
1F
100
AcDbEntity
  8
AM_7
  6
AM_ISO08W050x2
100
AcDbLine
 10
2125.375007945477
 20
1729.1505513803
 30
0.0
 11
2135.375007945477
 21
1729.1505513803
 31
0.0
  0
LINE
  5
3891
330
1F
100
AcDbEntity
  8
AM_7
  6
AM_ISO08W050x2
100
AcDbLine
 10
2130.375007945477
 20
1724.1505513803
 30
0.0
 11
2130.375007945477
 21
1734.1505513803
 31
0.0
  0
ARC
  5
3892
330
1F
100
AcDbEntity
  8
AM_4
100
AcDbCircle
 10
2200.375007945477
 20
1729.1505513803
 30
0.0
 40
3.0
100
AcDbArc
 50
260.0
 51
170.0
  0
CIRCLE
  5
3893
330
1F
100
AcDbEntity
  8
AM_0
100
AcDbCircle
 10
2200.375007945477
 20
1729.1505513803
 30
0.0
 40
2.45873412263477
  0
LINE
  5
3894
330
1F
100
AcDbEntity
  8
AM_7
  6
AM_ISO08W050x2
100
AcDbLine
 10
2195.375007945477
 20
1729.1505513803
 30
0.0
 11
2205.375007945477
 21
1729.1505513803
 31
0.0
  0
LINE
  5
3895
330
1F
100
AcDbEntity
  8
AM_7
  6
AM_ISO08W050x2
100
AcDbLine
 10
2200.375007945477
 20
1724.1505513803
 30
0.0
 11
2200.375007945477
 21
1734.1505513803
 31
0.0
  0
ARC
  5
3896
330
1F
100
AcDbEntity
  8
AM_4
100
AcDbCircle
 10
2200.375007945477
 20
1755.1505513803
 30
0.0
 40
3.0
100
AcDbArc
 50
260.0
 51
170.0
  0
CIRCLE
  5
3897
330
1F
100
AcDbEntity
  8
AM_0
100
AcDbCircle
 10
2200.375007945477
 20
1755.1505513803
 30
0.0
 40
2.45873412263477
  0
LINE
  5
3898
330
1F
100
AcDbEntity
  8
AM_7
  6
AM_ISO08W050x2
100
AcDbLine
 10
2195.375007945477
 20
1755.1505513803
 30
0.0
 11
2205.375007945477
 21
1755.1505513803
 31
0.0
  0
LINE
  5
3899
330
1F
100
AcDbEntity
  8
AM_7
  6
AM_ISO08W050x2
100
AcDbLine
 10
2200.375007945477
 20
1750.1505513803
 30
0.0
 11
2200.375007945477
 21
1760.1505513803
 31
0.0
  0
ARC
  5
38A8
330
1F
100
AcDbEntity
  8
AM_4
100
AcDbCircle
 10
2134.375007945477
 20
1574.147720512685
 30
0.0
 40
3.0
100
AcDbArc
 50
260.0
 51
170.0
  0
CIRCLE
  5
38A9
330
1F
100
AcDbEntity
  8
AM_0
100
AcDbCircle
 10
2134.375007945477
 20
1574.147720512685
 30
0.0
 40
2.45873412263477
  0
LINE
  5
38AA
330
1F
100
AcDbEntity
  8
AM_7
  6
AM_ISO08W050x2
100
AcDbLine
 10
2129.375007945477
 20
1574.147720512685
 30
0.0
 11
2139.375007945477
 21
1574.147720512685
 31
0.0
  0
LINE
  5
38AB
330
1F
100
AcDbEntity
  8
AM_7
  6
AM_ISO08W050x2
100
AcDbLine
 10
2134.375007945477
 20
1569.147720512685
 30
0.0
 11
2134.375007945477
 21
1579.147720512685
 31
0.0
  0
ARC
  5
38AD
330
1F
100
AcDbEntity
  8
AM_4
100
AcDbCircle
 10
2134.375007945477
 20
1542.147720512685
 30
0.0
 40
3.0
100
AcDbArc
 50
260.0
 51
170.0
  0
CIRCLE
  5
38AE
330
1F
100
AcDbEntity
  8
AM_0
100
AcDbCircle
 10
2134.375007945477
 20
1542.147720512685
 30
0.0
 40
2.45873412263477
  0
LINE
  5
38AF
330
1F
100
AcDbEntity
  8
AM_7
  6
AM_ISO08W050x2
100
AcDbLine
 10
2129.375007945477
 20
1542.147720512685
 30
0.0
 11
2139.375007945477
 21
1542.147720512685
 31
0.0
  0
LINE
  5
38B0
330
1F
100
AcDbEntity
  8
AM_7
  6
AM_ISO08W050x2
100
AcDbLine
 10
2134.375007945477
 20
1537.147720512685
 30
0.0
 11
2134.375007945477
 21
1547.147720512685
 31
0.0
  0
ARC
  5
38B2
330
1F
100
AcDbEntity
  8
AM_4
100
AcDbCircle
 10
2196.375007945477
 20
1574.147720512685
 30
0.0
 40
3.0
100
AcDbArc
 50
260.0
 51
170.0
  0
CIRCLE
  5
38B3
330
1F
100
AcDbEntity
  8
AM_0
100
AcDbCircle
 10
2196.375007945477
 20
1574.147720512685
 30
0.0
 40
2.45873412263477
  0
LINE
  5
38B4
330
1F
100
AcDbEntity
  8
AM_7
  6
AM_ISO08W050x2
100
AcDbLine
 10
2191.375007945477
 20
1574.147720512685
 30
0.0
 11
2201.375007945477
 21
1574.147720512685
 31
0.0
  0
LINE
  5
38B5
330
1F
100
AcDbEntity
  8
AM_7
  6
AM_ISO08W050x2
100
AcDbLine
 10
2196.375007945477
 20
1569.147720512685
 30
0.0
 11
2196.375007945477
 21
1579.147720512685
 31
0.0
  0
ARC
  5
38B6
330
1F
100
AcDbEntity
  8
AM_4
100
AcDbCircle
 10
2196.375007945477
 20
1542.147720512685
 30
0.0
 40
3.0
100
AcDbArc
 50
260.0
 51
170.0
  0
CIRCLE
  5
38B7
330
1F
100
AcDbEntity
  8
AM_0
100
AcDbCircle
 10
2196.375007945477
 20
1542.147720512685
 30
0.0
 40
2.45873412263477
  0
LINE
  5
38B8
330
1F
100
AcDbEntity
  8
AM_7
  6
AM_ISO08W050x2
100
AcDbLine
 10
2191.375007945477
 20
1542.147720512685
 30
0.0
 11
2201.375007945477
 21
1542.147720512685
 31
0.0
  0
LINE
  5
38BA
330
1F
100
AcDbEntity
  8
0
 62
     2
100
AcDbLine
 10
2140.875007945477
 20
1605.994887308548
 30
0.0
 11
2140.875007945477
 21
1619.994887308548
 31
0.0
  0
LINE
  5
38BB
330
1F
100
AcDbEntity
  8
0
 62
     2
100
AcDbLine
 10
2124.875007945477
 20
1605.994887308548
 30
0.0
 11
2124.875007945477
 21
1619.994887308548
 31
0.0
  0
LINE
  5
38BC
330
1F
100
AcDbEntity
  8
AM_7
  6
AM_ISO08W050x2
100
AcDbLine
 10
2132.875007945477
 20
1622.994887308548
 30
0.0
 11
2132.875007945477
 21
1602.994887308548
 31
0.0
1001
GENIUS_GENODEF_13
1002
{
1000
HIER
1070
     0
1002
}
1002
{
1000
MANEDIT
1070
     0
1002
}
1002
{
1000
NOSEL
1070
     0
1002
}
1002
{
1000
BEHIND
1070
     0
1002
}
1002
{
1000
OTHER
1070
     0
1002
}
1002
{
1000
REACTOR
1002
}
1001
GENIUS_GENOBJ-N-CEN_13
1002
{
1000
OWNER
1000
GEN
1002
}
1001
GENIUS_GENCEN_19
1002
{
1040
3.0
1002
}
  0
LINE
  5
38BD
330
1F
100
AcDbEntity
  8
0
 62
     2
100
AcDbLine
 10
2124.875007945477
 20
1605.994887308548
 30
0.0
 11
2140.875007945477
 21
1605.994887308548
 31
0.0
  0
LINE
  5
38BE
330
1F
100
AcDbEntity
  8
0
 62
     2
100
AcDbLine
 10
2189.875007945477
 20
1605.994887308548
 30
0.0
 11
2189.875007945477
 21
1619.994887308548
 31
0.0
  0
LINE
  5
38BF
330
1F
100
AcDbEntity
  8
0
 62
     2
100
AcDbLine
 10
2205.875007945477
 20
1605.994887308548
 30
0.0
 11
2205.875007945477
 21
1619.994887308548
 31
0.0
  0
LINE
  5
38C0
330
1F
100
AcDbEntity
  8
AM_7
  6
AM_ISO08W050x2
100
AcDbLine
 10
2197.875007945476
 20
1622.994887308548
 30
0.0
 11
2197.875007945476
 21
1602.994887308548
 31
0.0
1001
GENIUS_GENODEF_13
1002
{
1000
HIER
1070
     0
1002
}
1002
{
1000
MANEDIT
1070
     0
1002
}
1002
{
1000
NOSEL
1070
     0
1002
}
1002
{
1000
BEHIND
1070
     0
1002
}
1002
{
1000
OTHER
1070
     0
1002
}
1002
{
1000
REACTOR
1002
}
1001
GENIUS_GENOBJ-N-CEN_13
1002
{
1000
OWNER
1000
GEN
1002
}
1001
GENIUS_GENCEN_19
1002
{
1040
3.0
1002
}
  0
LINE
  5
38C1
330
1F
100
AcDbEntity
  8
0
 62
     2
100
AcDbLine
 10
2205.875007945477
 20
1605.994887308548
 30
0.0
 11
2189.875007945477
 21
1605.994887308548
 31
0.0
  0
LINE
  5
38C2
330
1F
100
AcDbEntity
  8
0
 62
     2
100
AcDbLine
 10
2073.248422956813
 20
1605.994887308548
 30
0.0
 11
2073.248422956813
 21
1619.994887308548
 31
0.0
  0
LINE
  5
38C3
330
1F
100
AcDbEntity
  8
0
 62
     2
100
AcDbLine
 10
2057.248422956813
 20
1605.994887308548
 30
0.0
 11
2057.248422956813
 21
1619.994887308548
 31
0.0
  0
LINE
  5
38C4
330
1F
100
AcDbEntity
  8
AM_7
  6
AM_ISO08W050x2
100
AcDbLine
 10
2065.248422956813
 20
1622.994887308548
 30
0.0
 11
2065.248422956813
 21
1602.994887308548
 31
0.0
1001
GENIUS_GENODEF_13
1002
{
1000
HIER
1070
     0
1002
}
1002
{
1000
MANEDIT
1070
     0
1002
}
1002
{
1000
NOSEL
1070
     0
1002
}
1002
{
1000
BEHIND
1070
     0
1002
}
1002
{
1000
OTHER
1070
     0
1002
}
1002
{
1000
REACTOR
1002
}
1001
GENIUS_GENOBJ-N-CEN_13
1002
{
1000
OWNER
1000
GEN
1002
}
1001
GENIUS_GENCEN_19
1002
{
1040
3.0
1002
}
  0
LINE
  5
38C5
330
1F
100
AcDbEntity
  8
0
 62
     2
100
AcDbLine
 10
2057.248422956813
 20
1605.994887308548
 30
0.0
 11
2073.248422956813
 21
1605.994887308548
 31
0.0
  0
LINE
  5
38C6
330
1F
100
AcDbEntity
  8
0
 62
     2
100
AcDbLine
 10
2291.892191490654
 20
1605.994887308548
 30
0.0
 11
2291.892191490654
 21
1619.994887308548
 31
0.0
  0
LINE
  5
38C7
330
1F
100
AcDbEntity
  8
0
 62
     2
100
AcDbLine
 10
2275.892191490654
 20
1605.994887308548
 30
0.0
 11
2275.892191490654
 21
1619.994887308548
 31
0.0
  0
LINE
  5
38C8
330
1F
100
AcDbEntity
  8
AM_7
  6
AM_ISO08W050x2
100
AcDbLine
 10
2283.892191490654
 20
1622.994887308548
 30
0.0
 11
2283.892191490654
 21
1602.994887308548
 31
0.0
1001
GENIUS_GENODEF_13
1002
{
1000
HIER
1070
     0
1002
}
1002
{
1000
MANEDIT
1070
     0
1002
}
1002
{
1000
NOSEL
1070
     0
1002
}
1002
{
1000
BEHIND
1070
     0
1002
}
1002
{
1000
OTHER
1070
     0
1002
}
1002
{
1000
REACTOR
1002
}
1001
GENIUS_GENOBJ-N-CEN_13
1002
{
1000
OWNER
1000
GEN
1002
}
1001
GENIUS_GENCEN_19
1002
{
1040
3.0
1002
}
  0
LINE
  5
38C9
330
1F
100
AcDbEntity
  8
0
 62
     2
100
AcDbLine
 10
2275.892191490654
 20
1605.994887308548
 30
0.0
 11
2291.892191490654
 21
1605.994887308548
 31
0.0
  0
LINE
  5
38CA
330
1F
100
AcDbEntity
  8
0
 62
     2
100
AcDbLine
 10
2354.218531152617
 20
1605.994887308548
 30
0.0
 11
2354.218531152617
 21
1619.994887308548
 31
0.0
  0
LINE
  5
38CB
330
1F
100
AcDbEntity
  8
0
 62
     2
100
AcDbLine
 10
2338.218531152617
 20
1605.994887308548
 30
0.0
 11
2338.218531152617
 21
1619.994887308548
 31
0.0
  0
LINE
  5
38CC
330
1F
100
AcDbEntity
  8
AM_7
  6
AM_ISO08W050x2
100
AcDbLine
 10
2346.218531152617
 20
1622.994887308548
 30
0.0
 11
2346.218531152617
 21
1602.994887308548
 31
0.0
1001
GENIUS_GENODEF_13
1002
{
1000
HIER
1070
     0
1002
}
1002
{
1000
MANEDIT
1070
     0
1002
}
1002
{
1000
NOSEL
1070
     0
1002
}
1002
{
1000
BEHIND
1070
     0
1002
}
1002
{
1000
OTHER
1070
     0
1002
}
1002
{
1000
REACTOR
1002
}
1001
GENIUS_GENOBJ-N-CEN_13
1002
{
1000
OWNER
1000
GEN
1002
}
1001
GENIUS_GENCEN_19
1002
{
1040
3.0
1002
}
  0
LINE
  5
38CD
330
1F
100
AcDbEntity
  8
0
 62
     2
100
AcDbLine
 10
2338.218531152617
 20
1605.994887308548
 30
0.0
 11
2354.218531152617
 21
1605.994887308548
 31
0.0
  0
LINE
  5
38CE
330
1F
100
AcDbEntity
  8
0
 62
     2
100
AcDbLine
 10
2419.218531152618
 20
1605.994887308548
 30
0.0
 11
2419.218531152618
 21
1619.994887308548
 31
0.0
  0
LINE
  5
38CF
330
1F
100
AcDbEntity
  8
0
 62
     2
100
AcDbLine
 10
2403.218531152618
 20
1605.994887308548
 30
0.0
 11
2403.218531152618
 21
1619.994887308548
 31
0.0
  0
LINE
  5
38D0
330
1F
100
AcDbEntity
  8
AM_7
  6
AM_ISO08W050x2
100
AcDbLine
 10
2411.218531152617
 20
1622.994887308548
 30
0.0
 11
2411.218531152617
 21
1602.994887308548
 31
0.0
1001
GENIUS_GENODEF_13
1002
{
1000
HIER
1070
     0
1002
}
1002
{
1000
MANEDIT
1070
     0
1002
}
1002
{
1000
NOSEL
1070
     0
1002
}
1002
{
1000
BEHIND
1070
     0
1002
}
1002
{
1000
OTHER
1070
     0
1002
}
1002
{
1000
REACTOR
1002
}
1001
GENIUS_GENOBJ-N-CEN_13
1002
{
1000
OWNER
1000
GEN
1002
}
1001
GENIUS_GENCEN_19
1002
{
1040
3.0
1002
}
  0
LINE
  5
38D1
330
1F
100
AcDbEntity
  8
0
 62
     2
100
AcDbLine
 10
2403.218531152618
 20
1605.994887308548
 30
0.0
 11
2419.218531152618
 21
1605.994887308548
 31
0.0
  0
DIMENSION
  5
38D3
330
1F
100
AcDbEntity
  8
AM_5
100
AcDbDimension
  2
*D5
 10
2244.036585220898
 20
1619.994887308548
 30
0.0
 11
2244.036585220897
 21
1612.994887308548
 31
0.0
 70
   160
  1
L2
 71
     5
 42
14.0
  3
AM_ISO$0
100
AcDbAlignedDimension
 13
2204.375007945477
 23
1605.994887308548
 33
0.0
 14
2213.375007945477
 24
1619.994887308548
 34
0.0
 50
90.0
100
AcDbRotatedDimension
1001
ACAD
1000
DSTYLE
1002
{
1070
    40
1040
1.5
1070
   272
1070
     8
1002
}
  0
DIMENSION
  5
38D4
330
1F
100
AcDbEntity
  8
AM_5
100
AcDbDimension
  2
*D6
 10
2230.036585220898
 20
1675.494887308548
 30
0.0
 11
2226.286585220897
 21
1647.744887308548
 31
0.0
 70
    32
  1
L1
 71
     5
 42
55.5
  3
AM_ISO$0
100
AcDbAlignedDimension
 13
2213.375007945477
 23
1619.994887308548
 33
0.0
 14
2213.375007945477
 24
1675.494887308548
 34
0.0
 50
90.0
100
AcDbRotatedDimension
1001
ACAD
1000
DSTYLE
1002
{
1070
    40
1040
1.5
1070
   144
1040
1.0
1070
   272
1070
     8
1002
}
  0
DIMENSION
  5
38D5
330
1F
100
AcDbEntity
  8
AM_5
100
AcDbDimension
  2
*D7
 10
2244.036585220898
 20
1687.494887308548
 30
0.0
 11
2240.286585220898
 21
1653.744887308549
 31
0.0
 70
    32
  1
L
 71
     5
 42
67.5
  3
AM_ISO$0
100
AcDbAlignedDimension
 13
2213.375007945477
 23
1619.994887308548
 33
0.0
 14
2207.875007945477
 24
1687.494887308548
 34
0.0
 50
90.0
100
AcDbRotatedDimension
1001
ACAD
1000
DSTYLE
1002
{
1070
    40
1040
1.5
1070
   272
1070
     8
1002
}
  0
INSERT
  5
3C1D
330
1F
100
AcDbEntity
  8
AM_5
100
AcDbBlockReference
  2
*S12
 10
0.0
 20
0.0
 30
0.0
  0
TEXT
  5
3C1E
330
1F
100
AcDbEntity
  8
AM_5
100
AcDbText
 10
2092.318789621132
 20
1609.758518112147
 30
0.0
 40
4.5
  1
PT1/8
100
AcDbText
  0
LINE
  5
3C1F
330
1F
100
AcDbEntity
  8
AM_VIS
100
AcDbLine
 10
2122.875007945477
 20
1440.899336894835
 30
0.0
 11
2122.375007945477
 21
1440.399336894835
 31
0.0
  0
LINE
  5
3C20
330
1F
100
AcDbEntity
  8
AM_VIS
100
AcDbLine
 10
2154.475007945477
 20
1442.299336894835
 30
0.0
 11
2153.375007945477
 21
1443.399336894835
 31
0.0
  0
LINE
  5
3C21
330
1F
100
AcDbEntity
  8
AM_VIS
100
AcDbLine
 10
2158.675007945477
 20
1442.299336894835
 30
0.0
 11
2154.475007945477
 21
1442.299336894835
 31
0.0
  0
LINE
  5
3C22
330
1F
100
AcDbEntity
  8
AM_VIS
100
AcDbLine
 10
2158.675007945477
 20
1441.749336894836
 30
0.0
 11
2158.675007945477
 21
1442.299336894835
 31
0.0
  0
LINE
  5
3C23
330
1F
100
AcDbEntity
  8
AM_VIS
100
AcDbLine
 10
2158.325007945477
 20
1441.399336894835
 30
0.0
 11
2158.675007945477
 21
1441.749336894836
 31
0.0
  0
LINE
  5
3C24
330
1F
100
AcDbEntity
  8
AM_VIS
100
AcDbLine
 10
2162.075007945477
 20
1441.749336894835
 30
0.0
 11
2162.425007945477
 21
1441.399336894835
 31
0.0
  0
LINE
  5
3C25
330
1F
100
AcDbEntity
  8
AM_VIS
100
AcDbLine
 10
2162.075007945477
 20
1442.299336894835
 30
0.0
 11
2162.075007945477
 21
1441.749336894836
 31
0.0
  0
LINE
  5
3C26
330
1F
100
AcDbEntity
  8
AM_VIS
100
AcDbLine
 10
2168.675007945477
 20
1442.299336894835
 30
0.0
 11
2162.075007945477
 21
1442.299336894835
 31
0.0
  0
LINE
  5
3C27
330
1F
100
AcDbEntity
  8
AM_VIS
100
AcDbLine
 10
2168.675007945477
 20
1441.749336894836
 30
0.0
 11
2168.675007945477
 21
1442.299336894835
 31
0.0
  0
LINE
  5
3C28
330
1F
100
AcDbEntity
  8
AM_VIS
100
AcDbLine
 10
2168.325007945477
 20
1441.399336894835
 30
0.0
 11
2168.675007945477
 21
1441.749336894836
 31
0.0
  0
LINE
  5
3C29
330
1F
100
AcDbEntity
  8
AM_VIS
100
AcDbLine
 10
2172.075007945477
 20
1441.749336894836
 30
0.0
 11
2172.425007945477
 21
1441.399336894835
 31
0.0
  0
LINE
  5
3C2A
330
1F
100
AcDbEntity
  8
AM_VIS
100
AcDbLine
 10
2172.075007945477
 20
1442.299336894835
 30
0.0
 11
2172.075007945477
 21
1441.749336894836
 31
0.0
  0
LINE
  5
3C2B
330
1F
100
AcDbEntity
  8
AM_VIS
100
AcDbLine
 10
2176.275007945477
 20
1442.299336894835
 30
0.0
 11
2172.075007945477
 21
1442.299336894835
 31
0.0
  0
LINE
  5
3C2C
330
1F
100
AcDbEntity
  8
AM_VIS
100
AcDbLine
 10
2177.375007945477
 20
1443.399336894836
 30
0.0
 11
2176.275007945477
 21
1442.299336894835
 31
0.0
  0
LINE
  5
3C2D
330
1F
100
AcDbEntity
  8
AM_VIS
100
AcDbLine
 10
2208.075007945477
 20
1443.399336894835
 30
0.0
 11
2208.375007945477
 21
1443.099336894835
 31
0.0
  0
LINE
  5
3C2E
330
1F
100
AcDbEntity
  8
AM_VIS
100
AcDbLine
 10
2213.375007945477
 20
1443.099336894835
 30
0.0
 11
2208.375007945477
 21
1443.099336894835
 31
0.0
  0
LINE
  5
3C2F
330
1F
100
AcDbEntity
  8
AM_VIS
100
AcDbLine
 10
2213.375007945477
 20
1434.399336894835
 30
0.0
 11
2213.375007945477
 21
1443.099336894835
 31
0.0
  0
LINE
  5
3C30
330
1F
100
AcDbEntity
  8
AM_VIS
100
AcDbLine
 10
2211.875007945477
 20
1432.899336894835
 30
0.0
 11
2213.375007945477
 21
1434.399336894835
 31
0.0
  0
LINE
  5
3C31
330
1F
100
AcDbEntity
  8
AM_VIS
100
AcDbLine
 10
2211.875007945477
 20
1419.399336894835
 30
0.0
 11
2211.875007945477
 21
1432.899336894835
 31
0.0
  0
LINE
  5
3C32
330
1F
100
AcDbEntity
  8
AM_VIS
100
AcDbLine
 10
2213.375007945477
 20
1417.899336894835
 30
0.0
 11
2211.875007945477
 21
1419.399336894835
 31
0.0
  0
LINE
  5
3C33
330
1F
100
AcDbEntity
  8
AM_VIS
100
AcDbLine
 10
2213.375007945477
 20
1401.399336894835
 30
0.0
 11
2213.375007945477
 21
1417.899336894835
 31
0.0
  0
LINE
  5
3C34
330
1F
100
AcDbEntity
  8
AM_VIS
100
AcDbLine
 10
2172.075007945477
 20
1402.499336894836
 30
0.0
 11
2178.775007945477
 21
1402.499336894836
 31
0.0
  0
LINE
  5
3C35
330
1F
100
AcDbEntity
  8
AM_VIS
100
AcDbLine
 10
2172.075007945477
 20
1403.049336894835
 30
0.0
 11
2172.075007945477
 21
1402.499336894836
 31
0.0
  0
LINE
  5
3C36
330
1F
100
AcDbEntity
  8
AM_VIS
100
AcDbLine
 10
2172.425007945477
 20
1403.399336894835
 30
0.0
 11
2172.075007945478
 21
1403.049336894835
 31
0.0
  0
LINE
  5
3C37
330
1F
100
AcDbEntity
  8
AM_VIS
100
AcDbLine
 10
2168.675007945477
 20
1403.049336894835
 30
0.0
 11
2168.325007945477
 21
1403.399336894835
 31
0.0
  0
LINE
  5
3C38
330
1F
100
AcDbEntity
  8
AM_VIS
100
AcDbLine
 10
2168.675007945477
 20
1402.499336894836
 30
0.0
 11
2168.675007945477
 21
1403.049336894835
 31
0.0
  0
LINE
  5
3C39
330
1F
100
AcDbEntity
  8
AM_VIS
100
AcDbLine
 10
2162.075007945477
 20
1402.499336894836
 30
0.0
 11
2168.675007945477
 21
1402.499336894836
 31
0.0
  0
LINE
  5
3C3A
330
1F
100
AcDbEntity
  8
AM_VIS
100
AcDbLine
 10
2162.075007945477
 20
1403.049336894835
 30
0.0
 11
2162.075007945477
 21
1402.499336894836
 31
0.0
  0
LINE
  5
3C3B
330
1F
100
AcDbEntity
  8
AM_VIS
100
AcDbLine
 10
2162.425007945477
 20
1403.399336894835
 30
0.0
 11
2162.075007945478
 21
1403.049336894835
 31
0.0
  0
LINE
  5
3C3C
330
1F
100
AcDbEntity
  8
AM_VIS
100
AcDbLine
 10
2158.675007945477
 20
1403.049336894835
 30
0.0
 11
2158.325007945478
 21
1403.399336894835
 31
0.0
  0
LINE
  5
3C3D
330
1F
100
AcDbEntity
  8
AM_VIS
100
AcDbLine
 10
2158.675007945477
 20
1402.499336894836
 30
0.0
 11
2158.675007945477
 21
1403.049336894835
 31
0.0
  0
LINE
  5
3C3E
330
1F
100
AcDbEntity
  8
AM_VIS
100
AcDbLine
 10
2151.975007945477
 20
1402.499336894836
 30
0.0
 11
2158.675007945477
 21
1402.499336894836
 31
0.0
  0
LINE
  5
3C3F
330
1F
100
AcDbEntity
  8
AM_VIS
100
AcDbLine
 10
2118.875007945477
 20
1419.399336894835
 30
0.0
 11
2117.375007945478
 21
1417.899336894835
 31
0.0
  0
LINE
  5
3C40
330
1F
100
AcDbEntity
  8
AM_VIS
100
AcDbLine
 10
2118.875007945477
 20
1432.899336894835
 30
0.0
 11
2118.875007945477
 21
1419.399336894835
 31
0.0
  0
LINE
  5
3C41
330
1F
100
AcDbEntity
  8
AM_VIS
100
AcDbLine
 10
2117.375007945478
 20
1434.399336894835
 30
0.0
 11
2118.875007945477
 21
1432.899336894835
 31
0.0
  0
LINE
  5
3C42
330
1F
100
AcDbEntity
  8
AM_VIS
100
AcDbLine
 10
2117.375007945478
 20
1442.799336894835
 30
0.0
 11
2117.375007945478
 21
1434.399336894835
 31
0.0
  0
LINE
  5
3C43
330
1F
100
AcDbEntity
  8
AM_VIS
100
AcDbLine
 10
2122.375007945477
 20
1442.799336894835
 30
0.0
 11
2117.375007945478
 21
1442.799336894835
 31
0.0
  0
LINE
  5
3C44
330
1F
100
AcDbEntity
  8
AM_VIS
100
AcDbLine
 10
2122.375007945477
 20
1443.099336894835
 30
0.0
 11
2122.375007945477
 21
1442.799336894835
 31
0.0
  0
LINE
  5
3C45
330
1F
100
AcDbEntity
  8
AM_VIS
100
AcDbLine
 10
2122.375007945477
 20
1443.099336894835
 30
0.0
 11
2122.675007945478
 21
1443.399336894835
 31
0.0
  0
LINE
  5
3C46
330
1F
100
AcDbEntity
  8
AM_VIS
100
AcDbLine
 10
2193.075007945477
 20
1443.399336894835
 30
0.0
 11
2191.075007945478
 21
1441.399336894835
 31
0.0
  0
LINE
  5
3C47
330
1F
100
AcDbEntity
  8
AM_VIS
100
AcDbLine
 10
2189.675007945477
 20
1441.399336894835
 30
0.0
 11
2187.675007945477
 21
1443.399336894835
 31
0.0
  0
LINE
  5
3C48
330
1F
100
AcDbEntity
  8
AM_VIS
100
AcDbLine
 10
2139.675007945477
 20
1441.399336894835
 30
0.0
 11
2137.675007945477
 21
1443.399336894835
 31
0.0
  0
LINE
  5
3C49
330
1F
100
AcDbEntity
  8
AM_VIS
100
AcDbLine
 10
2143.075007945477
 20
1443.399336894835
 30
0.0
 11
2141.075007945477
 21
1441.399336894835
 31
0.0
  0
LINE
  5
3C4A
330
1F
100
AcDbEntity
  8
AM_VIS
100
AcDbLine
 10
2117.375007945478
 20
1417.899336894835
 30
0.0
 11
2117.375007945478
 21
1401.399336894835
 31
0.0
  0
LINE
  5
3C4B
330
1F
100
AcDbEntity
  8
AM_VIS
100
AcDbLine
 10
2150.875007945477
 20
1401.399336894835
 30
0.0
 11
2151.975007945477
 21
1402.499336894836
 31
0.0
  0
LINE
  5
3C4C
330
1F
100
AcDbEntity
  8
AM_VIS
100
AcDbLine
 10
2178.775007945477
 20
1402.499336894836
 30
0.0
 11
2179.875007945478
 21
1401.399336894835
 31
0.0
  0
LINE
  5
3C4D
330
1F
100
AcDbEntity
  8
AM_VIS
100
AcDbLine
 10
2179.875007945478
 20
1401.399336894835
 30
0.0
 11
2213.375007945477
 21
1401.399336894835
 31
0.0
  0
LINE
  5
3C4E
330
1F
100
AcDbEntity
  8
AM_VIS
100
AcDbLine
 10
2117.375007945478
 20
1401.399336894835
 30
0.0
 11
2150.875007945477
 21
1401.399336894835
 31
0.0
  0
LINE
  5
3C4F
330
1F
100
AcDbEntity
  8
AM_VIS
100
AcDbLine
 10
2153.375007945477
 20
1443.399336894835
 30
0.0
 11
2143.075007945478
 21
1443.399336894835
 31
0.0
  0
LINE
  5
3C50
330
1F
100
AcDbEntity
  8
AM_VIS
100
AcDbLine
 10
2187.675007945477
 20
1443.399336894835
 30
0.0
 11
2177.375007945477
 21
1443.399336894835
 31
0.0
  0
LINE
  5
3C51
330
1F
100
AcDbEntity
  8
AM_VIS
100
AcDbLine
 10
2208.075007945477
 20
1443.399336894835
 30
0.0
 11
2193.075007945477
 21
1443.399336894835
 31
0.0
  0
LINE
  5
3C52
330
1F
100
AcDbEntity
  8
AM_VIS
100
AcDbLine
 10
2137.675007945477
 20
1443.399336894835
 30
0.0
 11
2122.675007945478
 21
1443.399336894835
 31
0.0
  0
LINE
  5
3C53
330
1F
100
AcDbEntity
  8
AM_VIS
100
AcDbLine
 10
2172.425007945477
 20
1257.39650602722
 30
0.0
 11
2168.325007945477
 21
1257.39650602722
 31
0.0
  0
LINE
  5
3C54
330
1F
100
AcDbEntity
  8
AM_VIS
100
AcDbLine
 10
2162.425007945477
 20
1257.39650602722
 30
0.0
 11
2158.325007945478
 21
1257.39650602722
 31
0.0
  0
LINE
  5
3C55
330
1F
100
AcDbEntity
  8
AM_VIS
100
AcDbLine
 10
2139.675007945477
 20
1219.39650602722
 30
0.0
 11
2141.075007945477
 21
1219.39650602722
 31
0.0
  0
LINE
  5
3C56
330
1F
100
AcDbEntity
  8
AM_VIS
100
AcDbLine
 10
2158.325007945477
 20
1219.39650602722
 30
0.0
 11
2162.425007945477
 21
1219.39650602722
 31
0.0
  0
LINE
  5
3C57
330
1F
100
AcDbEntity
  8
AM_VIS
100
AcDbLine
 10
2168.325007945477
 20
1219.39650602722
 30
0.0
 11
2172.425007945477
 21
1219.39650602722
 31
0.0
  0
LINE
  5
3C58
330
1F
100
AcDbEntity
  8
AM_VIS
100
AcDbLine
 10
2189.675007945477
 20
1219.39650602722
 30
0.0
 11
2191.075007945478
 21
1219.39650602722
 31
0.0
  0
LINE
  5
3C59
330
1F
100
AcDbEntity
  8
AM_VIS
100
AcDbLine
 10
2122.675007945478
 20
1217.39650602722
 30
0.0
 11
2122.375007945477
 21
1217.69650602722
 31
0.0
  0
LINE
  5
3C5A
330
1F
100
AcDbEntity
  8
AM_VIS
100
AcDbLine
 10
2122.375007945477
 20
1217.99650602722
 30
0.0
 11
2122.375007945477
 21
1217.69650602722
 31
0.0
  0
LINE
  5
3C5B
330
1F
100
AcDbEntity
  8
AM_VIS
100
AcDbLine
 10
2117.375007945478
 20
1217.99650602722
 30
0.0
 11
2122.375007945477
 21
1217.99650602722
 31
0.0
  0
LINE
  5
3C5C
330
1F
100
AcDbEntity
  8
AM_VIS
100
AcDbLine
 10
2117.375007945478
 20
1217.99650602722
 30
0.0
 11
2117.375007945478
 21
1226.39650602722
 31
0.0
  0
LINE
  5
3C5D
330
1F
100
AcDbEntity
  8
AM_VIS
100
AcDbLine
 10
2118.875007945477
 20
1227.89650602722
 30
0.0
 11
2117.375007945478
 21
1226.39650602722
 31
0.0
  0
LINE
  5
3C5E
330
1F
100
AcDbEntity
  8
AM_VIS
100
AcDbLine
 10
2118.875007945477
 20
1241.39650602722
 30
0.0
 11
2118.875007945477
 21
1227.89650602722
 31
0.0
  0
LINE
  5
3C5F
330
1F
100
AcDbEntity
  8
AM_VIS
100
AcDbLine
 10
2117.375007945478
 20
1242.89650602722
 30
0.0
 11
2118.875007945477
 21
1241.39650602722
 31
0.0
  0
LINE
  5
3C60
330
1F
100
AcDbEntity
  8
AM_VIS
100
AcDbLine
 10
2151.975007945477
 20
1258.29650602722
 30
0.0
 11
2150.875007945477
 21
1259.39650602722
 31
0.0
  0
LINE
  5
3C61
330
1F
100
AcDbEntity
  8
AM_VIS
100
AcDbLine
 10
2158.675007945477
 20
1258.29650602722
 30
0.0
 11
2151.975007945477
 21
1258.29650602722
 31
0.0
  0
LINE
  5
3C62
330
1F
100
AcDbEntity
  8
AM_VIS
100
AcDbLine
 10
2158.675007945477
 20
1257.74650602722
 30
0.0
 11
2158.675007945477
 21
1258.29650602722
 31
0.0
  0
LINE
  5
3C63
330
1F
100
AcDbEntity
  8
AM_VIS
100
AcDbLine
 10
2158.225007945477
 20
1257.29650602722
 30
0.0
 11
2158.675007945477
 21
1257.74650602722
 31
0.0
  0
LINE
  5
3C64
330
1F
100
AcDbEntity
  8
AM_VIS
100
AcDbLine
 10
2158.225007945477
 20
1255.19650602722
 30
0.0
 11
2158.225007945477
 21
1257.29650602722
 31
0.0
  0
LINE
  5
3C65
330
1F
100
AcDbEntity
  8
AM_VIS
100
AcDbLine
 10
2160.825007945477
 20
1253.49650602722
 30
0.0
 11
2159.925007945477
 21
1253.49650602722
 31
0.0
  0
LINE
  5
3C66
330
1F
100
AcDbEntity
  8
AM_VIS
100
AcDbLine
 10
2162.525007945477
 20
1257.29650602722
 30
0.0
 11
2162.525007945477
 21
1255.19650602722
 31
0.0
  0
LINE
  5
3C67
330
1F
100
AcDbEntity
  8
AM_VIS
100
AcDbLine
 10
2162.075007945477
 20
1257.74650602722
 30
0.0
 11
2162.525007945477
 21
1257.29650602722
 31
0.0
  0
LINE
  5
3C68
330
1F
100
AcDbEntity
  8
AM_VIS
100
AcDbLine
 10
2162.075007945477
 20
1258.29650602722
 30
0.0
 11
2162.075007945477
 21
1257.74650602722
 31
0.0
  0
LINE
  5
3C69
330
1F
100
AcDbEntity
  8
AM_VIS
100
AcDbLine
 10
2168.675007945477
 20
1258.29650602722
 30
0.0
 11
2162.075007945477
 21
1258.29650602722
 31
0.0
  0
LINE
  5
3C6A
330
1F
100
AcDbEntity
  8
AM_VIS
100
AcDbLine
 10
2168.675007945477
 20
1257.74650602722
 30
0.0
 11
2168.675007945477
 21
1258.29650602722
 31
0.0
  0
LINE
  5
3C6B
330
1F
100
AcDbEntity
  8
AM_VIS
100
AcDbLine
 10
2168.225007945477
 20
1257.29650602722
 30
0.0
 11
2168.675007945477
 21
1257.74650602722
 31
0.0
  0
LINE
  5
3C6C
330
1F
100
AcDbEntity
  8
AM_VIS
100
AcDbLine
 10
2168.225007945477
 20
1255.19650602722
 30
0.0
 11
2168.225007945477
 21
1257.29650602722
 31
0.0
  0
LINE
  5
3C6D
330
1F
100
AcDbEntity
  8
AM_VIS
100
AcDbLine
 10
2170.825007945477
 20
1253.49650602722
 30
0.0
 11
2169.925007945478
 21
1253.49650602722
 31
0.0
  0
LINE
  5
3C6E
330
1F
100
AcDbEntity
  8
AM_VIS
100
AcDbLine
 10
2172.525007945477
 20
1257.29650602722
 30
0.0
 11
2172.525007945477
 21
1255.19650602722
 31
0.0
  0
LINE
  5
3C6F
330
1F
100
AcDbEntity
  8
AM_VIS
100
AcDbLine
 10
2172.075007945477
 20
1257.74650602722
 30
0.0
 11
2172.525007945477
 21
1257.29650602722
 31
0.0
  0
LINE
  5
3C70
330
1F
100
AcDbEntity
  8
AM_VIS
100
AcDbLine
 10
2172.075007945477
 20
1258.29650602722
 30
0.0
 11
2172.075007945477
 21
1257.74650602722
 31
0.0
  0
LINE
  5
3C71
330
1F
100
AcDbEntity
  8
AM_VIS
100
AcDbLine
 10
2178.775007945477
 20
1258.29650602722
 30
0.0
 11
2172.075007945477
 21
1258.29650602722
 31
0.0
  0
LINE
  5
3C72
330
1F
100
AcDbEntity
  8
AM_VIS
100
AcDbLine
 10
2213.375007945477
 20
1259.39650602722
 30
0.0
 11
2213.375007945477
 21
1242.89650602722
 31
0.0
  0
LINE
  5
3C73
330
1F
100
AcDbEntity
  8
AM_VIS
100
AcDbLine
 10
2211.875007945477
 20
1241.39650602722
 30
0.0
 11
2213.375007945477
 21
1242.89650602722
 31
0.0
  0
LINE
  5
3C74
330
1F
100
AcDbEntity
  8
AM_VIS
100
AcDbLine
 10
2211.875007945477
 20
1227.89650602722
 30
0.0
 11
2211.875007945477
 21
1241.39650602722
 31
0.0
  0
LINE
  5
3C75
330
1F
100
AcDbEntity
  8
AM_VIS
100
AcDbLine
 10
2213.375007945477
 20
1226.39650602722
 30
0.0
 11
2211.875007945477
 21
1227.89650602722
 31
0.0
  0
LINE
  5
3C76
330
1F
100
AcDbEntity
  8
AM_VIS
100
AcDbLine
 10
2213.375007945477
 20
1226.39650602722
 30
0.0
 11
2213.375007945477
 21
1217.69650602722
 31
0.0
  0
LINE
  5
3C77
330
1F
100
AcDbEntity
  8
AM_VIS
100
AcDbLine
 10
2208.375007945477
 20
1217.69650602722
 30
0.0
 11
2213.375007945477
 21
1217.69650602722
 31
0.0
  0
LINE
  5
3C78
330
1F
100
AcDbEntity
  8
AM_VIS
100
AcDbLine
 10
2208.375007945477
 20
1217.69650602722
 30
0.0
 11
2208.075007945477
 21
1217.39650602722
 31
0.0
  0
LINE
  5
3C79
330
1F
100
AcDbEntity
  8
AM_VIS
100
AcDbLine
 10
2190.375007945477
 20
1220.09650602722
 30
0.0
 11
2193.075007945477
 21
1217.39650602722
 31
0.0
  0
LINE
  5
3C7A
330
1F
100
AcDbEntity
  8
AM_VIS
100
AcDbLine
 10
2187.675007945477
 20
1217.39650602722
 30
0.0
 11
2190.375007945477
 21
1220.09650602722
 31
0.0
  0
LINE
  5
3C7B
330
1F
100
AcDbEntity
  8
AM_VIS
100
AcDbLine
 10
2176.275007945477
 20
1218.49650602722
 30
0.0
 11
2177.375007945477
 21
1217.39650602722
 31
0.0
  0
LINE
  5
3C7C
330
1F
100
AcDbEntity
  8
AM_VIS
100
AcDbLine
 10
2172.075007945477
 20
1218.49650602722
 30
0.0
 11
2176.275007945477
 21
1218.49650602722
 31
0.0
  0
LINE
  5
3C7D
330
1F
100
AcDbEntity
  8
AM_VIS
100
AcDbLine
 10
2172.075007945477
 20
1219.04650602722
 30
0.0
 11
2172.075007945477
 21
1218.49650602722
 31
0.0
  0
LINE
  5
3C7E
330
1F
100
AcDbEntity
  8
AM_VIS
100
AcDbLine
 10
2172.525007945477
 20
1219.49650602722
 30
0.0
 11
2172.075007945477
 21
1219.04650602722
 31
0.0
  0
LINE
  5
3C7F
330
1F
100
AcDbEntity
  8
AM_VIS
100
AcDbLine
 10
2172.525007945477
 20
1221.59650602722
 30
0.0
 11
2172.525007945477
 21
1219.49650602722
 31
0.0
  0
LINE
  5
3C80
330
1F
100
AcDbEntity
  8
AM_VIS
100
AcDbLine
 10
2169.925007945477
 20
1223.29650602722
 30
0.0
 11
2170.825007945477
 21
1223.29650602722
 31
0.0
  0
LINE
  5
3C81
330
1F
100
AcDbEntity
  8
AM_VIS
100
AcDbLine
 10
2168.225007945477
 20
1219.49650602722
 30
0.0
 11
2168.225007945477
 21
1221.59650602722
 31
0.0
  0
LINE
  5
3C82
330
1F
100
AcDbEntity
  8
AM_VIS
100
AcDbLine
 10
2168.675007945477
 20
1219.04650602722
 30
0.0
 11
2168.225007945477
 21
1219.49650602722
 31
0.0
  0
LINE
  5
3C83
330
1F
100
AcDbEntity
  8
AM_VIS
100
AcDbLine
 10
2168.675007945477
 20
1218.49650602722
 30
0.0
 11
2168.675007945477
 21
1219.04650602722
 31
0.0
  0
LINE
  5
3C84
330
1F
100
AcDbEntity
  8
AM_VIS
100
AcDbLine
 10
2162.075007945477
 20
1218.49650602722
 30
0.0
 11
2168.675007945477
 21
1218.49650602722
 31
0.0
  0
LINE
  5
3C85
330
1F
100
AcDbEntity
  8
AM_VIS
100
AcDbLine
 10
2162.075007945477
 20
1219.04650602722
 30
0.0
 11
2162.075007945477
 21
1218.49650602722
 31
0.0
  0
LINE
  5
3C86
330
1F
100
AcDbEntity
  8
AM_VIS
100
AcDbLine
 10
2162.525007945477
 20
1219.49650602722
 30
0.0
 11
2162.075007945477
 21
1219.04650602722
 31
0.0
  0
LINE
  5
3C87
330
1F
100
AcDbEntity
  8
AM_VIS
100
AcDbLine
 10
2162.525007945477
 20
1221.59650602722
 30
0.0
 11
2162.525007945477
 21
1219.49650602722
 31
0.0
  0
LINE
  5
3C88
330
1F
100
AcDbEntity
  8
AM_VIS
100
AcDbLine
 10
2159.925007945477
 20
1223.29650602722
 30
0.0
 11
2160.825007945478
 21
1223.29650602722
 31
0.0
  0
LINE
  5
3C89
330
1F
100
AcDbEntity
  8
AM_VIS
100
AcDbLine
 10
2158.225007945477
 20
1219.49650602722
 30
0.0
 11
2158.225007945477
 21
1221.59650602722
 31
0.0
  0
LINE
  5
3C8A
330
1F
100
AcDbEntity
  8
AM_VIS
100
AcDbLine
 10
2158.675007945477
 20
1219.04650602722
 30
0.0
 11
2158.225007945477
 21
1219.49650602722
 31
0.0
  0
LINE
  5
3C8B
330
1F
100
AcDbEntity
  8
AM_VIS
100
AcDbLine
 10
2158.675007945477
 20
1218.49650602722
 30
0.0
 11
2158.675007945477
 21
1219.04650602722
 31
0.0
  0
LINE
  5
3C8C
330
1F
100
AcDbEntity
  8
AM_VIS
100
AcDbLine
 10
2154.475007945477
 20
1218.49650602722
 30
0.0
 11
2158.675007945477
 21
1218.49650602722
 31
0.0
  0
LINE
  5
3C8D
330
1F
100
AcDbEntity
  8
AM_VIS
100
AcDbLine
 10
2153.375007945477
 20
1217.39650602722
 30
0.0
 11
2154.475007945477
 21
1218.49650602722
 31
0.0
  0
LINE
  5
3C8E
330
1F
100
AcDbEntity
  8
AM_VIS
100
AcDbLine
 10
2137.675007945477
 20
1217.39650602722
 30
0.0
 11
2140.375007945477
 21
1220.09650602722
 31
0.0
  0
LINE
  5
3C8F
330
1F
100
AcDbEntity
  8
AM_VIS
100
AcDbLine
 10
2140.375007945477
 20
1220.09650602722
 30
0.0
 11
2143.075007945477
 21
1217.39650602722
 31
0.0
  0
LINE
  5
3C90
330
1F
100
AcDbEntity
  8
AM_VIS
100
AcDbLine
 10
2117.375007945478
 20
1242.89650602722
 30
0.0
 11
2117.375007945478
 21
1259.39650602722
 31
0.0
  0
LINE
  5
3C91
330
1F
100
AcDbEntity
  8
AM_VIS
100
AcDbLine
 10
2179.875007945478
 20
1259.39650602722
 30
0.0
 11
2178.775007945477
 21
1258.29650602722
 31
0.0
  0
LINE
  5
3C92
330
1F
100
AcDbEntity
  8
AM_VIS
100
AcDbLine
 10
2179.875007945478
 20
1259.39650602722
 30
0.0
 11
2213.375007945477
 21
1259.39650602722
 31
0.0
  0
LINE
  5
3C93
330
1F
100
AcDbEntity
  8
AM_VIS
100
AcDbLine
 10
2117.375007945478
 20
1259.39650602722
 30
0.0
 11
2150.875007945477
 21
1259.39650602722
 31
0.0
  0
LINE
  5
3C94
330
1F
100
AcDbEntity
  8
AM_VIS
100
AcDbLine
 10
2153.375007945477
 20
1217.39650602722
 30
0.0
 11
2143.075007945478
 21
1217.39650602722
 31
0.0
  0
LINE
  5
3C95
330
1F
100
AcDbEntity
  8
AM_VIS
100
AcDbLine
 10
2187.675007945477
 20
1217.39650602722
 30
0.0
 11
2177.375007945477
 21
1217.39650602722
 31
0.0
  0
LINE
  5
3C96
330
1F
100
AcDbEntity
  8
AM_VIS
100
AcDbLine
 10
2208.075007945477
 20
1217.39650602722
 30
0.0
 11
2193.075007945477
 21
1217.39650602722
 31
0.0
  0
LINE
  5
3C97
330
1F
100
AcDbEntity
  8
AM_VIS
100
AcDbLine
 10
2137.675007945477
 20
1217.39650602722
 30
0.0
 11
2122.675007945478
 21
1217.39650602722
 31
0.0
  0
CIRCLE
  5
3C98
330
1F
100
AcDbEntity
  8
AM_VIS
100
AcDbCircle
 10
2165.375007945477
 20
1238.39650602722
 30
0.0
 40
13.5
  0
ARC
  5
3C99
330
1F
100
AcDbEntity
  8
AM_VIS
100
AcDbCircle
 10
2159.925007945477
 20
1255.19650602722
 30
0.0
 40
1.7
100
AcDbArc
 50
180.0
 51
270.0
  0
ARC
  5
3C9A
330
1F
100
AcDbEntity
  8
AM_VIS
100
AcDbCircle
 10
2160.825007945477
 20
1255.19650602722
 30
0.0
 40
1.7
100
AcDbArc
 50
270.0
 51
0.0
  0
ARC
  5
3C9B
330
1F
100
AcDbEntity
  8
AM_VIS
100
AcDbCircle
 10
2169.925007945478
 20
1255.19650602722
 30
0.0
 40
1.7
100
AcDbArc
 50
180.0
 51
270.0
  0
ARC
  5
3C9C
330
1F
100
AcDbEntity
  8
AM_VIS
100
AcDbCircle
 10
2170.825007945477
 20
1255.19650602722
 30
0.0
 40
1.7
100
AcDbArc
 50
270.0
 51
0.0
  0
ARC
  5
3C9D
330
1F
100
AcDbEntity
  8
AM_VIS
100
AcDbCircle
 10
2170.825007945477
 20
1221.59650602722
 30
0.0
 40
1.7
100
AcDbArc
 50
0.0
 51
90.0
  0
ARC
  5
3C9E
330
1F
100
AcDbEntity
  8
AM_VIS
100
AcDbCircle
 10
2169.925007945477
 20
1221.59650602722
 30
0.0
 40
1.7
100
AcDbArc
 50
90.0
 51
180.0
  0
ARC
  5
3C9F
330
1F
100
AcDbEntity
  8
AM_VIS
100
AcDbCircle
 10
2160.825007945477
 20
1221.59650602722
 30
0.0
 40
1.7
100
AcDbArc
 50
0.0
 51
90.0
  0
ARC
  5
3CA0
330
1F
100
AcDbEntity
  8
AM_VIS
100
AcDbCircle
 10
2159.925007945477
 20
1221.59650602722
 30
0.0
 40
1.699999999999999
100
AcDbArc
 50
90.0
 51
180.0
  0
LINE
  5
3CA1
330
1F
100
AcDbEntity
  8
AM_VIS
100
AcDbLine
 10
2083.748422956814
 20
1367.743672823083
 30
0.0
 11
2084.248422956814
 21
1367.243672823083
 31
0.0
  0
LINE
  5
3CA2
330
1F
100
AcDbEntity
  8
AM_VIS
100
AcDbLine
 10
2084.248422956814
 20
1358.243672823083
 30
0.0
 11
2084.248422956814
 21
1367.243672823083
 31
0.0
  0
LINE
  5
3CA3
330
1F
100
AcDbEntity
  8
AM_VIS
100
AcDbLine
 10
2084.248422956814
 20
1358.243672823083
 30
0.0
 11
2083.748422956814
 21
1357.743672823083
 31
0.0
  0
LINE
  5
3CA4
330
1F
100
AcDbEntity
  8
AM_VIS
100
AcDbLine
 10
2046.748422956814
 20
1357.743672823083
 30
0.0
 11
2046.248422956814
 21
1358.243672823083
 31
0.0
  0
LINE
  5
3CA5
330
1F
100
AcDbEntity
  8
AM_VIS
100
AcDbLine
 10
2046.248422956814
 20
1367.243672823083
 30
0.0
 11
2046.248422956814
 21
1358.243672823083
 31
0.0
  0
LINE
  5
3CA6
330
1F
100
AcDbEntity
  8
AM_VIS
100
AcDbLine
 10
2046.248422956814
 20
1367.243672823083
 30
0.0
 11
2046.748422956814
 21
1367.743672823083
 31
0.0
  0
LINE
  5
3CA7
330
1F
100
AcDbEntity
  8
AM_VIS
100
AcDbLine
 10
2083.748422956814
 20
1367.743672823083
 30
0.0
 11
2046.748422956814
 21
1367.743672823083
 31
0.0
  0
LINE
  5
3CA8
330
1F
100
AcDbEntity
  8
AM_VIS
100
AcDbLine
 10
2046.748422956814
 20
1357.743672823083
 30
0.0
 11
2083.748422956814
 21
1357.743672823083
 31
0.0
  0
LINE
  5
3CAB
330
1F
100
AcDbEntity
  8
AM_VIS
100
AcDbLine
 10
2068.248422956814
 20
1355.743672823083
 30
0.0
 11
2068.248422956814
 21
1300.243672823083
 31
0.0
  0
LINE
  5
3CAC
330
1F
100
AcDbEntity
  8
AM_VIS
100
AcDbLine
 10
2053.248422956814
 20
1300.243672823083
 30
0.0
 11
2053.248422956814
 21
1355.743672823083
 31
0.0
  0
LINE
  5
3CAD
330
1F
100
AcDbEntity
  8
AM_VIS
100
AcDbLine
 10
2054.748422956814
 20
1355.743672823083
 30
0.0
 11
2054.748422956814
 21
1300.243672823083
 31
0.0
  0
LINE
  5
3CAE
330
1F
100
AcDbEntity
  8
AM_VIS
100
AcDbLine
 10
2068.248422956814
 20
1355.743672823083
 30
0.0
 11
2069.748422956814
 21
1355.743672823083
 31
0.0
  0
LINE
  5
3CAF
330
1F
100
AcDbEntity
  8
AM_VIS
100
AcDbLine
 10
2054.748422956814
 20
1355.743672823083
 30
0.0
 11
2068.248422956814
 21
1355.743672823083
 31
0.0
  0
LINE
  5
3CB0
330
1F
100
AcDbEntity
  8
AM_VIS
100
AcDbLine
 10
2053.248422956814
 20
1355.743672823083
 30
0.0
 11
2054.748422956814
 21
1355.743672823083
 31
0.0
  0
LINE
  5
3CB1
330
1F
100
AcDbEntity
  8
AM_VIS
100
AcDbLine
 10
2044.848422956814
 20
1355.743672823083
 30
0.0
 11
2053.248422956814
 21
1355.743672823083
 31
0.0
  0
LINE
  5
3CB2
330
1F
100
AcDbEntity
  8
AM_VIS
100
AcDbLine
 10
2044.548422956813
 20
1355.743672823083
 30
0.0
 11
2044.848422956814
 21
1355.743672823083
 31
0.0
  0
LINE
  5
3CB3
330
1F
100
AcDbEntity
  8
AM_VIS
100
AcDbLine
 10
2044.548422956813
 20
1355.743672823083
 30
0.0
 11
2044.248422956814
 21
1355.743672823083
 31
0.0
  0
LINE
  5
3CB4
330
1F
100
AcDbEntity
  8
AM_VIS
100
AcDbLine
 10
2044.248422956814
 20
1300.243672823083
 30
0.0
 11
2044.548422956813
 21
1300.243672823083
 31
0.0
  0
LINE
  5
3CB5
330
1F
100
AcDbEntity
  8
AM_VIS
100
AcDbLine
 10
2044.848422956814
 20
1300.243672823083
 30
0.0
 11
2044.548422956813
 21
1300.243672823083
 31
0.0
  0
LINE
  5
3CB6
330
1F
100
AcDbEntity
  8
AM_VIS
100
AcDbLine
 10
2044.848422956814
 20
1300.243672823083
 30
0.0
 11
2053.248422956814
 21
1300.243672823083
 31
0.0
  0
LINE
  5
3CB7
330
1F
100
AcDbEntity
  8
AM_VIS
100
AcDbLine
 10
2054.748422956814
 20
1300.243672823083
 30
0.0
 11
2053.248422956814
 21
1300.243672823083
 31
0.0
  0
LINE
  5
3CB8
330
1F
100
AcDbEntity
  8
AM_VIS
100
AcDbLine
 10
2068.248422956814
 20
1300.243672823083
 30
0.0
 11
2054.748422956814
 21
1300.243672823083
 31
0.0
  0
LINE
  5
3CB9
330
1F
100
AcDbEntity
  8
AM_VIS
100
AcDbLine
 10
2069.748422956814
 20
1300.243672823083
 30
0.0
 11
2068.248422956814
 21
1300.243672823083
 31
0.0
  0
LINE
  5
3CBA
330
1F
100
AcDbEntity
  8
AM_VIS
100
AcDbLine
 10
2069.748422956814
 20
1355.743672823083
 30
0.0
 11
2086.248422956813
 21
1355.743672823083
 31
0.0
  0
LINE
  5
3CBB
330
1F
100
AcDbEntity
  8
AM_VIS
100
AcDbLine
 10
2069.748422956814
 20
1300.243672823083
 30
0.0
 11
2086.248422956813
 21
1300.243672823083
 31
0.0
  0
LINE
  5
3CBC
330
1F
100
AcDbEntity
  8
AM_VIS
100
AcDbLine
 10
2069.748422956814
 20
1355.743672823083
 30
0.0
 11
2069.748422956814
 21
1300.243672823083
 31
0.0
  0
LINE
  5
3CBD
330
1F
100
AcDbEntity
  8
AM_VIS
100
AcDbLine
 10
2086.248422956813
 20
1355.743672823083
 30
0.0
 11
2086.248422956813
 21
1300.243672823083
 31
0.0
  0
LINE
  5
3CBE
330
1F
100
AcDbEntity
  8
AM_VIS
100
AcDbLine
 10
2044.248422956814
 20
1355.743672823083
 30
0.0
 11
2044.248422956814
 21
1300.243672823083
 31
0.0
  0
LINE
  5
3CBF
330
1F
100
AcDbEntity
  8
AM_VIS
100
AcDbLine
 10
2264.892191490654
 20
1367.243672823083
 30
0.0
 11
2264.892191490654
 21
1358.243672823083
 31
0.0
  0
LINE
  5
3CC0
330
1F
100
AcDbEntity
  8
AM_VIS
100
AcDbLine
 10
2264.892191490654
 20
1367.243672823083
 30
0.0
 11
2265.392191490654
 21
1367.743672823083
 31
0.0
  0
LINE
  5
3CC1
330
1F
100
AcDbEntity
  8
AM_VIS
100
AcDbLine
 10
2302.392191490654
 20
1367.743672823083
 30
0.0
 11
2302.892191490654
 21
1367.243672823083
 31
0.0
  0
LINE
  5
3CC2
330
1F
100
AcDbEntity
  8
AM_VIS
100
AcDbLine
 10
2302.892191490654
 20
1358.243672823083
 30
0.0
 11
2302.892191490654
 21
1367.243672823083
 31
0.0
  0
LINE
  5
3CC3
330
1F
100
AcDbEntity
  8
AM_VIS
100
AcDbLine
 10
2265.392191490654
 20
1357.743672823083
 30
0.0
 11
2264.892191490654
 21
1358.243672823083
 31
0.0
  0
LINE
  5
3CC4
330
1F
100
AcDbEntity
  8
AM_VIS
100
AcDbLine
 10
2302.892191490654
 20
1358.243672823083
 30
0.0
 11
2302.392191490654
 21
1357.743672823083
 31
0.0
  0
LINE
  5
3CC5
330
1F
100
AcDbEntity
  8
AM_VIS
100
AcDbLine
 10
2302.392191490654
 20
1367.743672823083
 30
0.0
 11
2265.392191490654
 21
1367.743672823083
 31
0.0
  0
LINE
  5
3CC6
330
1F
100
AcDbEntity
  8
AM_VIS
100
AcDbLine
 10
2265.392191490654
 20
1357.743672823083
 30
0.0
 11
2302.392191490654
 21
1357.743672823083
 31
0.0
  0
LINE
  5
3CC9
330
1F
100
AcDbEntity
  8
AM_VIS
100
AcDbLine
 10
2295.892191490654
 20
1355.743672823083
 30
0.0
 11
2295.892191490654
 21
1300.243672823083
 31
0.0
  0
LINE
  5
3CCA
330
1F
100
AcDbEntity
  8
AM_VIS
100
AcDbLine
 10
2279.392191490654
 20
1300.243672823083
 30
0.0
 11
2279.392191490654
 21
1355.743672823083
 31
0.0
  0
LINE
  5
3CCB
330
1F
100
AcDbEntity
  8
AM_VIS
100
AcDbLine
 10
2280.892191490654
 20
1355.743672823083
 30
0.0
 11
2280.892191490654
 21
1300.243672823083
 31
0.0
  0
LINE
  5
3CCC
330
1F
100
AcDbEntity
  8
AM_VIS
100
AcDbLine
 10
2294.392191490654
 20
1355.743672823083
 30
0.0
 11
2294.392191490654
 21
1300.243672823083
 31
0.0
  0
LINE
  5
3CCE
330
1F
100
AcDbEntity
  8
AM_VIS
100
AcDbLine
 10
2304.892191490654
 20
1355.743672823083
 30
0.0
 11
2304.592191490653
 21
1355.743672823083
 31
0.0
  0
LINE
  5
3CCF
330
1F
100
AcDbEntity
  8
AM_VIS
100
AcDbLine
 10
2295.892191490654
 20
1355.743672823083
 30
0.0
 11
2304.592191490653
 21
1355.743672823083
 31
0.0
  0
LINE
  5
3CD0
330
1F
100
AcDbEntity
  8
AM_VIS
100
AcDbLine
 10
2294.392191490654
 20
1355.743672823083
 30
0.0
 11
2295.892191490654
 21
1355.743672823083
 31
0.0
  0
LINE
  5
3CD1
330
1F
100
AcDbEntity
  8
AM_VIS
100
AcDbLine
 10
2280.892191490654
 20
1355.743672823083
 30
0.0
 11
2294.392191490654
 21
1355.743672823083
 31
0.0
  0
LINE
  5
3CD2
330
1F
100
AcDbEntity
  8
AM_VIS
100
AcDbLine
 10
2279.392191490654
 20
1355.743672823083
 30
0.0
 11
2280.892191490654
 21
1355.743672823083
 31
0.0
  0
LINE
  5
3CD3
330
1F
100
AcDbEntity
  8
AM_VIS
100
AcDbLine
 10
2262.892191490654
 20
1355.743672823083
 30
0.0
 11
2279.392191490654
 21
1355.743672823083
 31
0.0
  0
LINE
  5
3CD4
330
1F
100
AcDbEntity
  8
AM_VIS
100
AcDbLine
 10
2262.892191490654
 20
1300.243672823083
 30
0.0
 11
2279.392191490654
 21
1300.243672823083
 31
0.0
  0
LINE
  5
3CD5
330
1F
100
AcDbEntity
  8
AM_VIS
100
AcDbLine
 10
2280.892191490654
 20
1300.243672823083
 30
0.0
 11
2279.392191490654
 21
1300.243672823083
 31
0.0
  0
LINE
  5
3CD6
330
1F
100
AcDbEntity
  8
AM_VIS
100
AcDbLine
 10
2294.392191490654
 20
1300.243672823083
 30
0.0
 11
2280.892191490654
 21
1300.243672823083
 31
0.0
  0
LINE
  5
3CD7
330
1F
100
AcDbEntity
  8
AM_VIS
100
AcDbLine
 10
2295.892191490654
 20
1300.243672823083
 30
0.0
 11
2294.392191490654
 21
1300.243672823083
 31
0.0
  0
LINE
  5
3CD8
330
1F
100
AcDbEntity
  8
AM_VIS
100
AcDbLine
 10
2295.892191490654
 20
1300.243672823083
 30
0.0
 11
2304.592191490653
 21
1300.243672823083
 31
0.0
  0
LINE
  5
3CD9
330
1F
100
AcDbEntity
  8
AM_VIS
100
AcDbLine
 10
2304.592191490653
 20
1300.243672823083
 30
0.0
 11
2304.892191490654
 21
1300.243672823083
 31
0.0
  0
LINE
  5
3CDA
330
1F
100
AcDbEntity
  8
AM_VIS
100
AcDbLine
 10
2262.892191490654
 20
1355.743672823083
 30
0.0
 11
2262.892191490654
 21
1300.243672823083
 31
0.0
  0
LINE
  5
3CDB
330
1F
100
AcDbEntity
  8
AM_VIS
100
AcDbLine
 10
2304.892191490654
 20
1300.243672823083
 30
0.0
 11
2304.892191490654
 21
1355.743672823083
 31
0.0
  0
LINE
  5
3CDC
330
1F
100
AcDbEntity
  8
AM_VIS
100
AcDbLine
 10
2335.718531152617
 20
1367.243672823083
 30
0.0
 11
2336.218531152617
 21
1367.743672823083
 31
0.0
  0
LINE
  5
3CDD
330
1F
100
AcDbEntity
  8
AM_VIS
100
AcDbLine
 10
2335.718531152617
 20
1367.243672823083
 30
0.0
 11
2335.718531152617
 21
1358.243672823083
 31
0.0
  0
LINE
  5
3CDE
330
1F
100
AcDbEntity
  8
AM_VIS
100
AcDbLine
 10
2336.218531152617
 20
1357.743672823083
 30
0.0
 11
2335.718531152617
 21
1358.243672823083
 31
0.0
  0
LINE
  5
3CDF
330
1F
100
AcDbEntity
  8
AM_VIS
100
AcDbLine
 10
2421.218531152617
 20
1367.743672823083
 30
0.0
 11
2421.718531152617
 21
1367.243672823083
 31
0.0
  0
LINE
  5
3CE0
330
1F
100
AcDbEntity
  8
AM_VIS
100
AcDbLine
 10
2421.718531152617
 20
1358.243672823083
 30
0.0
 11
2421.718531152617
 21
1367.243672823083
 31
0.0
  0
LINE
  5
3CE1
330
1F
100
AcDbEntity
  8
AM_VIS
100
AcDbLine
 10
2421.718531152617
 20
1358.243672823083
 30
0.0
 11
2421.218531152617
 21
1357.743672823083
 31
0.0
  0
LINE
  5
3CE2
330
1F
100
AcDbEntity
  8
AM_VIS
100
AcDbLine
 10
2421.218531152617
 20
1367.743672823083
 30
0.0
 11
2336.218531152617
 21
1367.743672823083
 31
0.0
  0
LINE
  5
3CE3
330
1F
100
AcDbEntity
  8
AM_VIS
100
AcDbLine
 10
2336.218531152617
 20
1357.743672823083
 30
0.0
 11
2421.218531152617
 21
1357.743672823083
 31
0.0
  0
LINE
  5
3CE6
330
1F
100
AcDbEntity
  8
AM_VIS
100
AcDbLine
 10
2384.718531152617
 20
1355.743672823083
 30
0.0
 11
2384.718531152617
 21
1357.743672823083
 31
0.0
  0
LINE
  5
3CE7
330
1F
100
AcDbEntity
  8
AM_VIS
100
AcDbLine
 10
2372.718531152617
 20
1355.743672823083
 30
0.0
 11
2372.718531152617
 21
1357.743672823083
 31
0.0
  0
LINE
  5
3CEC
330
1F
100
AcDbEntity
  8
AM_VIS
100
AcDbLine
 10
2330.718531152617
 20
1300.243672823083
 30
0.0
 11
2330.718531152617
 21
1355.743672823083
 31
0.0
  0
LINE
  5
3CED
330
1F
100
AcDbEntity
  8
AM_VIS
100
AcDbLine
 10
2426.718531152617
 20
1355.743672823083
 30
0.0
 11
2426.718531152617
 21
1300.243672823083
 31
0.0
  0
LINE
  5
3CEE
330
1F
100
AcDbEntity
  8
AM_VIS
100
AcDbLine
 10
2335.718531152617
 20
1355.743672823083
 30
0.0
 11
2335.718531152617
 21
1300.243672823083
 31
0.0
  0
LINE
  5
3CEF
330
1F
100
AcDbEntity
  8
AM_VIS
100
AcDbLine
 10
2421.718531152617
 20
1300.243672823083
 30
0.0
 11
2421.718531152617
 21
1355.743672823083
 31
0.0
  0
LINE
  5
3CF0
330
1F
100
AcDbEntity
  8
AM_VIS
100
AcDbLine
 10
2375.418531152617
 20
1355.743672823083
 30
0.0
 11
2375.418531152617
 21
1300.243672823083
 31
0.0
  0
LINE
  5
3CF1
330
1F
100
AcDbEntity
  8
AM_VIS
100
AcDbLine
 10
2382.018531152617
 20
1355.743672823083
 30
0.0
 11
2382.018531152617
 21
1300.243672823083
 31
0.0
  0
LINE
  5
3CF2
330
1F
100
AcDbEntity
  8
AM_VIS
100
AcDbLine
 10
2385.418531152617
 20
1355.743672823083
 30
0.0
 11
2385.418531152617
 21
1300.243672823083
 31
0.0
  0
LINE
  5
3CF3
330
1F
100
AcDbEntity
  8
AM_VIS
100
AcDbLine
 10
2389.618531152617
 20
1355.743672823083
 30
0.0
 11
2389.618531152617
 21
1300.243672823083
 31
0.0
  0
LINE
  5
3CF4
330
1F
100
AcDbEntity
  8
AM_VIS
100
AcDbLine
 10
2367.818531152617
 20
1355.743672823083
 30
0.0
 11
2367.818531152617
 21
1300.243672823083
 31
0.0
  0
LINE
  5
3CF5
330
1F
100
AcDbEntity
  8
AM_VIS
100
AcDbLine
 10
2372.018531152617
 20
1355.743672823083
 30
0.0
 11
2372.018531152617
 21
1300.243672823083
 31
0.0
  0
LINE
  5
3CF6
330
1F
100
AcDbEntity
  8
AM_VIS
100
AcDbLine
 10
2389.618531152617
 20
1355.743672823083
 30
0.0
 11
2390.718531152618
 21
1355.743672823083
 31
0.0
  0
LINE
  5
3CF7
330
1F
100
AcDbEntity
  8
AM_VIS
100
AcDbLine
 10
2385.418531152617
 20
1355.743672823083
 30
0.0
 11
2389.618531152617
 21
1355.743672823083
 31
0.0
  0
LINE
  5
3CF8
330
1F
100
AcDbEntity
  8
AM_VIS
100
AcDbLine
 10
2383.268531152617
 20
1355.743672823083
 30
0.0
 11
2384.168531152617
 21
1355.743672823083
 31
0.0
  0
LINE
  5
3CF9
330
1F
100
AcDbEntity
  8
AM_VIS
100
AcDbLine
 10
2375.418531152617
 20
1355.743672823083
 30
0.0
 11
2382.018531152617
 21
1355.743672823083
 31
0.0
  0
LINE
  5
3CFA
330
1F
100
AcDbEntity
  8
AM_VIS
100
AcDbLine
 10
2373.268531152617
 20
1355.743672823083
 30
0.0
 11
2374.168531152617
 21
1355.743672823083
 31
0.0
  0
LINE
  5
3CFB
330
1F
100
AcDbEntity
  8
AM_VIS
100
AcDbLine
 10
2367.818531152617
 20
1355.743672823083
 30
0.0
 11
2372.018531152617
 21
1355.743672823083
 31
0.0
  0
LINE
  5
3CFC
330
1F
100
AcDbEntity
  8
AM_VIS
100
AcDbLine
 10
2366.718531152617
 20
1355.743672823083
 30
0.0
 11
2367.818531152617
 21
1355.743672823083
 31
0.0
  0
LINE
  5
3CFD
330
1F
100
AcDbEntity
  8
AM_VIS
100
AcDbLine
 10
2336.018531152617
 20
1355.743672823083
 30
0.0
 11
2335.718531152617
 21
1355.743672823083
 31
0.0
  0
LINE
  5
3CFE
330
1F
100
AcDbEntity
  8
AM_VIS
100
AcDbLine
 10
2330.718531152617
 20
1355.743672823083
 30
0.0
 11
2335.718531152617
 21
1355.743672823083
 31
0.0
  0
LINE
  5
3CFF
330
1F
100
AcDbEntity
  8
AM_VIS
100
AcDbLine
 10
2421.718531152617
 20
1355.743672823083
 30
0.0
 11
2426.718531152617
 21
1355.743672823083
 31
0.0
  0
LINE
  5
3D00
330
1F
100
AcDbEntity
  8
AM_VIS
100
AcDbLine
 10
2421.718531152617
 20
1355.743672823083
 30
0.0
 11
2421.418531152617
 21
1355.743672823083
 31
0.0
  0
LINE
  5
3D01
330
1F
100
AcDbEntity
  8
AM_VIS
100
AcDbLine
 10
2351.018531152617
 20
1355.743672823083
 30
0.0
 11
2353.718531152617
 21
1355.743672823083
 31
0.0
  0
LINE
  5
3D02
330
1F
100
AcDbEntity
  8
AM_VIS
100
AcDbLine
 10
2353.718531152617
 20
1355.743672823083
 30
0.0
 11
2353.718531152617
 21
1300.243672823083
 31
0.0
  0
LINE
  5
3D03
330
1F
100
AcDbEntity
  8
AM_VIS
100
AcDbLine
 10
2353.718531152617
 20
1355.743672823083
 30
0.0
 11
2356.418531152617
 21
1355.743672823083
 31
0.0
  0
LINE
  5
3D04
330
1F
100
AcDbEntity
  8
AM_VIS
100
AcDbLine
 10
2421.418531152617
 20
1300.243672823083
 30
0.0
 11
2421.718531152617
 21
1300.243672823083
 31
0.0
  0
LINE
  5
3D05
330
1F
100
AcDbEntity
  8
AM_VIS
100
AcDbLine
 10
2426.718531152617
 20
1300.243672823083
 30
0.0
 11
2421.718531152617
 21
1300.243672823083
 31
0.0
  0
LINE
  5
3D06
330
1F
100
AcDbEntity
  8
AM_VIS
100
AcDbLine
 10
2335.718531152617
 20
1300.243672823083
 30
0.0
 11
2330.718531152617
 21
1300.243672823083
 31
0.0
  0
LINE
  5
3D07
330
1F
100
AcDbEntity
  8
AM_VIS
100
AcDbLine
 10
2335.718531152617
 20
1300.243672823083
 30
0.0
 11
2336.018531152617
 21
1300.243672823083
 31
0.0
  0
LINE
  5
3D08
330
1F
100
AcDbEntity
  8
AM_VIS
100
AcDbLine
 10
2353.718531152617
 20
1300.243672823083
 30
0.0
 11
2351.018531152617
 21
1300.243672823083
 31
0.0
  0
LINE
  5
3D09
330
1F
100
AcDbEntity
  8
AM_VIS
100
AcDbLine
 10
2356.418531152617
 20
1300.243672823083
 30
0.0
 11
2353.718531152617
 21
1300.243672823083
 31
0.0
  0
LINE
  5
3D0A
330
1F
100
AcDbEntity
  8
AM_VIS
100
AcDbLine
 10
2367.818531152617
 20
1300.243672823083
 30
0.0
 11
2366.718531152617
 21
1300.243672823083
 31
0.0
  0
LINE
  5
3D0B
330
1F
100
AcDbEntity
  8
AM_VIS
100
AcDbLine
 10
2372.018531152617
 20
1300.243672823083
 30
0.0
 11
2367.818531152617
 21
1300.243672823083
 31
0.0
  0
LINE
  5
3D0C
330
1F
100
AcDbEntity
  8
AM_VIS
100
AcDbLine
 10
2374.168531152617
 20
1300.243672823083
 30
0.0
 11
2373.268531152617
 21
1300.243672823083
 31
0.0
  0
LINE
  5
3D0D
330
1F
100
AcDbEntity
  8
AM_VIS
100
AcDbLine
 10
2382.018531152617
 20
1300.243672823083
 30
0.0
 11
2375.418531152617
 21
1300.243672823083
 31
0.0
  0
LINE
  5
3D0E
330
1F
100
AcDbEntity
  8
AM_VIS
100
AcDbLine
 10
2384.168531152617
 20
1300.243672823083
 30
0.0
 11
2383.268531152617
 21
1300.243672823083
 31
0.0
  0
LINE
  5
3D0F
330
1F
100
AcDbEntity
  8
AM_VIS
100
AcDbLine
 10
2389.618531152617
 20
1300.243672823083
 30
0.0
 11
2385.418531152617
 21
1300.243672823083
 31
0.0
  0
LINE
  5
3D10
330
1F
100
AcDbEntity
  8
AM_VIS
100
AcDbLine
 10
2390.718531152618
 20
1300.243672823083
 30
0.0
 11
2389.618531152617
 21
1300.243672823083
 31
0.0
  0
LINE
  5
3D11
330
1F
100
AcDbEntity
  8
AM_VIS
100
AcDbLine
 10
2403.718531152617
 20
1355.743672823083
 30
0.0
 11
2406.418531152617
 21
1355.743672823083
 31
0.0
  0
LINE
  5
3D12
330
1F
100
AcDbEntity
  8
AM_VIS
100
AcDbLine
 10
2406.418531152617
 20
1300.243672823083
 30
0.0
 11
2403.718531152617
 21
1300.243672823083
 31
0.0
  0
LINE
  5
3D13
330
1F
100
AcDbEntity
  8
AM_VIS
100
AcDbLine
 10
2401.018531152617
 20
1355.743672823083
 30
0.0
 11
2403.718531152617
 21
1355.743672823083
 31
0.0
  0
LINE
  5
3D14
330
1F
100
AcDbEntity
  8
AM_VIS
100
AcDbLine
 10
2403.718531152617
 20
1355.743672823083
 30
0.0
 11
2403.718531152617
 21
1300.243672823083
 31
0.0
  0
LINE
  5
3D15
330
1F
100
AcDbEntity
  8
AM_VIS
100
AcDbLine
 10
2403.718531152617
 20
1300.243672823083
 30
0.0
 11
2401.018531152617
 21
1300.243672823083
 31
0.0
  0
LINE
  5
3D16
330
1F
100
AcDbEntity
  8
AM_VIS
100
AcDbLine
 10
2390.718531152618
 20
1300.243672823083
 30
0.0
 11
2401.018531152617
 21
1300.243672823083
 31
0.0
  0
LINE
  5
3D17
330
1F
100
AcDbEntity
  8
AM_VIS
100
AcDbLine
 10
2390.718531152618
 20
1355.743672823083
 30
0.0
 11
2390.718531152618
 21
1300.243672823083
 31
0.0
  0
LINE
  5
3D18
330
1F
100
AcDbEntity
  8
AM_VIS
100
AcDbLine
 10
2390.718531152618
 20
1355.743672823083
 30
0.0
 11
2401.018531152617
 21
1355.743672823083
 31
0.0
  0
LINE
  5
3D19
330
1F
100
AcDbEntity
  8
AM_VIS
100
AcDbLine
 10
2401.018531152617
 20
1300.243672823083
 30
0.0
 11
2401.018531152617
 21
1355.743672823083
 31
0.0
  0
LINE
  5
3D1A
330
1F
100
AcDbEntity
  8
AM_VIS
100
AcDbLine
 10
2356.418531152617
 20
1355.743672823083
 30
0.0
 11
2366.718531152617
 21
1355.743672823083
 31
0.0
  0
LINE
  5
3D1B
330
1F
100
AcDbEntity
  8
AM_VIS
100
AcDbLine
 10
2366.718531152617
 20
1300.243672823083
 30
0.0
 11
2366.718531152617
 21
1355.743672823083
 31
0.0
  0
LINE
  5
3D1C
330
1F
100
AcDbEntity
  8
AM_VIS
100
AcDbLine
 10
2356.418531152617
 20
1300.243672823083
 30
0.0
 11
2366.718531152617
 21
1300.243672823083
 31
0.0
  0
LINE
  5
3D1D
330
1F
100
AcDbEntity
  8
AM_VIS
100
AcDbLine
 10
2356.418531152617
 20
1355.743672823083
 30
0.0
 11
2356.418531152617
 21
1300.243672823083
 31
0.0
  0
LINE
  5
3D1E
330
1F
100
AcDbEntity
  8
AM_VIS
100
AcDbLine
 10
2336.018531152617
 20
1300.243672823083
 30
0.0
 11
2351.018531152617
 21
1300.243672823083
 31
0.0
  0
LINE
  5
3D1F
330
1F
100
AcDbEntity
  8
AM_VIS
100
AcDbLine
 10
2336.018531152617
 20
1300.243672823083
 30
0.0
 11
2336.018531152617
 21
1355.743672823083
 31
0.0
  0
LINE
  5
3D20
330
1F
100
AcDbEntity
  8
AM_VIS
100
AcDbLine
 10
2336.018531152617
 20
1355.743672823083
 30
0.0
 11
2351.018531152617
 21
1355.743672823083
 31
0.0
  0
LINE
  5
3D21
330
1F
100
AcDbEntity
  8
AM_VIS
100
AcDbLine
 10
2351.018531152617
 20
1300.243672823083
 30
0.0
 11
2351.018531152617
 21
1355.743672823083
 31
0.0
  0
LINE
  5
3D22
330
1F
100
AcDbEntity
  8
AM_VIS
100
AcDbLine
 10
2406.418531152617
 20
1355.743672823083
 30
0.0
 11
2421.418531152617
 21
1355.743672823083
 31
0.0
  0
LINE
  5
3D23
330
1F
100
AcDbEntity
  8
AM_VIS
100
AcDbLine
 10
2421.418531152617
 20
1355.743672823083
 30
0.0
 11
2421.418531152617
 21
1300.243672823083
 31
0.0
  0
LINE
  5
3D24
330
1F
100
AcDbEntity
  8
AM_VIS
100
AcDbLine
 10
2406.418531152617
 20
1300.243672823083
 30
0.0
 11
2421.418531152617
 21
1300.243672823083
 31
0.0
  0
LINE
  5
3D25
330
1F
100
AcDbEntity
  8
AM_VIS
100
AcDbLine
 10
2406.418531152617
 20
1355.743672823083
 30
0.0
 11
2406.418531152617
 21
1300.243672823083
 31
0.0
  0
LINE
  5
3D26
330
1F
100
AcDbEntity
  8
AM_VIS
100
AcDbLine
 10
2385.418531152617
 20
1355.743672823083
 30
0.0
 11
2384.168531152617
 21
1355.743672823083
 31
0.0
  0
LINE
  5
3D27
330
1F
100
AcDbEntity
  8
AM_VIS
100
AcDbLine
 10
2383.268531152617
 20
1355.743672823083
 30
0.0
 11
2382.018531152617
 21
1355.743672823083
 31
0.0
  0
LINE
  5
3D28
330
1F
100
AcDbEntity
  8
AM_VIS
100
AcDbLine
 10
2375.418531152617
 20
1355.743672823083
 30
0.0
 11
2374.168531152617
 21
1355.743672823083
 31
0.0
  0
LINE
  5
3D29
330
1F
100
AcDbEntity
  8
AM_VIS
100
AcDbLine
 10
2373.268531152617
 20
1355.743672823083
 30
0.0
 11
2372.018531152617
 21
1355.743672823083
 31
0.0
  0
LINE
  5
3D2A
330
1F
100
AcDbEntity
  8
AM_VIS
100
AcDbLine
 10
2372.018531152617
 20
1300.243672823083
 30
0.0
 11
2373.268531152617
 21
1300.243672823083
 31
0.0
  0
LINE
  5
3D2B
330
1F
100
AcDbEntity
  8
AM_VIS
100
AcDbLine
 10
2374.168531152617
 20
1300.243672823083
 30
0.0
 11
2375.418531152617
 21
1300.243672823083
 31
0.0
  0
LINE
  5
3D2C
330
1F
100
AcDbEntity
  8
AM_VIS
100
AcDbLine
 10
2382.018531152617
 20
1300.243672823083
 30
0.0
 11
2383.268531152617
 21
1300.243672823083
 31
0.0
  0
LINE
  5
3D2D
330
1F
100
AcDbEntity
  8
AM_VIS
100
AcDbLine
 10
2384.168531152617
 20
1300.243672823083
 30
0.0
 11
2385.418531152617
 21
1300.243672823083
 31
0.0
  0
LINE
  5
3D2E
330
1F
100
AcDbEntity
  8
AM_VIS
100
AcDbLine
 10
2207.875007945477
 20
1367.743672823083
 30
0.0
 11
2208.375007945477
 21
1367.243672823083
 31
0.0
  0
LINE
  5
3D2F
330
1F
100
AcDbEntity
  8
AM_VIS
100
AcDbLine
 10
2208.375007945477
 20
1358.243672823083
 30
0.0
 11
2208.375007945477
 21
1367.243672823083
 31
0.0
  0
LINE
  5
3D30
330
1F
100
AcDbEntity
  8
AM_VIS
100
AcDbLine
 10
2208.375007945477
 20
1358.243672823083
 30
0.0
 11
2207.875007945477
 21
1357.743672823083
 31
0.0
  0
LINE
  5
3D31
330
1F
100
AcDbEntity
  8
AM_VIS
100
AcDbLine
 10
2122.375007945477
 20
1367.243672823083
 30
0.0
 11
2122.375007945477
 21
1358.243672823083
 31
0.0
  0
LINE
  5
3D32
330
1F
100
AcDbEntity
  8
AM_VIS
100
AcDbLine
 10
2122.375007945477
 20
1367.243672823083
 30
0.0
 11
2122.875007945477
 21
1367.743672823083
 31
0.0
  0
LINE
  5
3D33
330
1F
100
AcDbEntity
  8
AM_VIS
100
AcDbLine
 10
2122.875007945477
 20
1357.743672823083
 30
0.0
 11
2122.375007945477
 21
1358.243672823083
 31
0.0
  0
LINE
  5
3D34
330
1F
100
AcDbEntity
  8
AM_VIS
100
AcDbLine
 10
2207.875007945477
 20
1367.743672823083
 30
0.0
 11
2122.875007945477
 21
1367.743672823083
 31
0.0
  0
LINE
  5
3D35
330
1F
100
AcDbEntity
  8
AM_VIS
100
AcDbLine
 10
2122.875007945477
 20
1357.743672823083
 30
0.0
 11
2207.875007945477
 21
1357.743672823083
 31
0.0
  0
LINE
  5
3D36
330
1F
100
AcDbEntity
  8
AM_VIS
100
AcDbLine
 10
2171.375007945477
 20
1355.743672823083
 30
0.0
 11
2171.375007945477
 21
1357.743672823083
 31
0.0
  0
LINE
  5
3D37
330
1F
100
AcDbEntity
  8
AM_VIS
100
AcDbLine
 10
2159.375007945477
 20
1355.743672823083
 30
0.0
 11
2159.375007945477
 21
1357.743672823083
 31
0.0
  0
LINE
  5
3D3A
330
1F
100
AcDbEntity
  8
AM_VIS
100
AcDbLine
 10
2139.375007945477
 20
1355.743672823083
 30
0.0
 11
2139.375007945477
 21
1357.743672823083
 31
0.0
  0
LINE
  5
3D3B
330
1F
100
AcDbEntity
  8
AM_VIS
100
AcDbLine
 10
2126.375007945477
 20
1355.743672823083
 30
0.0
 11
2126.375007945477
 21
1357.743672823083
 31
0.0
  0
LINE
  5
3D3C
330
1F
100
AcDbEntity
  8
AM_VIS
100
AcDbLine
 10
2168.675007945477
 20
1355.743672823083
 30
0.0
 11
2168.675007945477
 21
1300.243672823083
 31
0.0
  0
LINE
  5
3D3D
330
1F
100
AcDbEntity
  8
AM_VIS
100
AcDbLine
 10
2172.075007945477
 20
1355.743672823083
 30
0.0
 11
2172.075007945477
 21
1300.243672823083
 31
0.0
  0
LINE
  5
3D3E
330
1F
100
AcDbEntity
  8
AM_VIS
100
AcDbLine
 10
2178.775007945477
 20
1330.644882736614
 30
0.0
 11
2178.775007945477
 21
1315.842462909553
 31
0.0
  0
LINE
  5
3D3F
330
1F
100
AcDbEntity
  8
AM_VIS
100
AcDbLine
 10
2151.975007945477
 20
1309.644882736614
 30
0.0
 11
2151.975007945477
 21
1300.243672823083
 31
0.0
  0
LINE
  5
3D40
330
1F
100
AcDbEntity
  8
AM_VIS
100
AcDbLine
 10
2158.675007945477
 20
1355.743672823083
 30
0.0
 11
2158.675007945477
 21
1300.243672823083
 31
0.0
  0
LINE
  5
3D41
330
1F
100
AcDbEntity
  8
AM_VIS
100
AcDbLine
 10
2162.075007945477
 20
1355.743672823083
 30
0.0
 11
2162.075007945477
 21
1300.243672823083
 31
0.0
  0
LINE
  5
3D42
330
1F
100
AcDbEntity
  8
AM_VIS
100
AcDbLine
 10
2172.075007945477
 20
1355.743672823083
 30
0.0
 11
2178.775007945477
 21
1355.743672823083
 31
0.0
  0
LINE
  5
3D43
330
1F
100
AcDbEntity
  8
AM_VIS
100
AcDbLine
 10
2169.925007945478
 20
1355.743672823083
 30
0.0
 11
2170.825007945477
 21
1355.743672823083
 31
0.0
  0
LINE
  5
3D44
330
1F
100
AcDbEntity
  8
AM_VIS
100
AcDbLine
 10
2159.925007945477
 20
1355.743672823083
 30
0.0
 11
2160.825007945477
 21
1355.743672823083
 31
0.0
  0
LINE
  5
3D45
330
1F
100
AcDbEntity
  8
AM_VIS
100
AcDbLine
 10
2151.975007945477
 20
1355.743672823083
 30
0.0
 11
2158.675007945477
 21
1355.743672823083
 31
0.0
  0
LINE
  5
3D46
330
1F
100
AcDbEntity
  8
AM_VIS
100
AcDbLine
 10
2151.975007945477
 20
1300.243672823083
 30
0.0
 11
2150.875007945477
 21
1300.243672823083
 31
0.0
  0
LINE
  5
3D47
330
1F
100
AcDbEntity
  8
AM_VIS
100
AcDbLine
 10
2158.675007945477
 20
1300.243672823083
 30
0.0
 11
2151.975007945477
 21
1300.243672823083
 31
0.0
  0
LINE
  5
3D48
330
1F
100
AcDbEntity
  8
AM_VIS
100
AcDbLine
 10
2160.825007945477
 20
1300.243672823083
 30
0.0
 11
2159.925007945477
 21
1300.243672823083
 31
0.0
  0
LINE
  5
3D49
330
1F
100
AcDbEntity
  8
AM_VIS
100
AcDbLine
 10
2168.675007945477
 20
1300.243672823083
 30
0.0
 11
2162.075007945477
 21
1300.243672823083
 31
0.0
  0
LINE
  5
3D4A
330
1F
100
AcDbEntity
  8
AM_VIS
100
AcDbLine
 10
2170.825007945477
 20
1300.243672823083
 30
0.0
 11
2169.925007945478
 21
1300.243672823083
 31
0.0
  0
LINE
  5
3D4B
330
1F
100
AcDbEntity
  8
AM_VIS
100
AcDbLine
 10
2178.775007945477
 20
1300.243672823083
 30
0.0
 11
2172.075007945477
 21
1300.243672823083
 31
0.0
  0
LINE
  5
3D4C
330
1F
100
AcDbEntity
  8
AM_VIS
100
AcDbLine
 10
2150.875007945477
 20
1355.743672823083
 30
0.0
 11
2151.975007945477
 21
1355.743672823083
 31
0.0
  0
LINE
  5
3D4D
330
1F
100
AcDbEntity
  8
AM_VIS
100
AcDbLine
 10
2151.975007945477
 20
1355.743672823083
 30
0.0
 11
2151.975007945477
 21
1336.842462909553
 31
0.0
  0
ARC
  5
3D4E
330
1F
100
AcDbEntity
  8
AM_VIS
100
AcDbCircle
 10
2148.375007945477
 20
1333.743672823083
 30
0.0
 40
4.75
100
AcDbArc
 50
40.72104759219348
 51
58.24313614069691
  0
LINE
  5
3D4F
330
1F
100
AcDbEntity
  8
AM_VIS
100
AcDbLine
 10
2179.875007945478
 20
1300.243672823083
 30
0.0
 11
2178.775007945477
 21
1300.243672823083
 31
0.0
  0
LINE
  5
3D50
330
1F
100
AcDbEntity
  8
AM_VIS
100
AcDbLine
 10
2178.775007945477
 20
1309.644882736614
 30
0.0
 11
2178.775007945477
 21
1300.243672823083
 31
0.0
  0
LINE
  5
3D51
330
1F
100
AcDbEntity
  8
AM_VIS
100
AcDbLine
 10
2178.775007945477
 20
1355.743672823083
 30
0.0
 11
2178.775007945477
 21
1336.842462909553
 31
0.0
  0
LINE
  5
3D52
330
1F
100
AcDbEntity
  8
AM_VIS
100
AcDbLine
 10
2178.775007945477
 20
1355.743672823083
 30
0.0
 11
2179.875007945478
 21
1355.743672823083
 31
0.0
  0
LINE
  5
3D53
330
1F
100
AcDbEntity
  8
AM_VIS
100
AcDbLine
 10
2179.875007945478
 20
1329.704799217732
 30
0.0
 11
2179.875007945478
 21
1316.782546428434
 31
0.0
  0
LINE
  5
3D54
330
1F
100
AcDbEntity
  8
AM_VIS
100
AcDbLine
 10
2179.875007945478
 20
1355.743672823083
 30
0.0
 11
2179.875007945478
 21
1337.782546428434
 31
0.0
  0
LINE
  5
3D55
330
1F
100
AcDbEntity
  8
AM_VIS
100
AcDbLine
 10
2179.875007945478
 20
1355.743672823083
 30
0.0
 11
2213.375007945477
 21
1355.743672823083
 31
0.0
  0
LINE
  5
3D56
330
1F
100
AcDbEntity
  8
AM_VIS
100
AcDbLine
 10
2213.375007945477
 20
1355.743672823083
 30
0.0
 11
2213.375007945477
 21
1300.243672823083
 31
0.0
  0
LINE
  5
3D57
330
1F
100
AcDbEntity
  8
AM_VIS
100
AcDbLine
 10
2179.875007945478
 20
1300.243672823083
 30
0.0
 11
2213.375007945477
 21
1300.243672823083
 31
0.0
  0
LINE
  5
3D58
330
1F
100
AcDbEntity
  8
AM_VIS
100
AcDbLine
 10
2179.875007945478
 20
1308.704799217732
 30
0.0
 11
2179.875007945478
 21
1300.243672823083
 31
0.0
  0
ARC
  5
3D59
330
1F
100
AcDbEntity
  8
AM_VIS
100
AcDbCircle
 10
2148.375007945477
 20
1333.743672823083
 30
0.0
 40
4.75
100
AcDbArc
 50
301.7568638593031
 51
319.2789524078065
  0
LINE
  5
3D5A
330
1F
100
AcDbEntity
  8
AM_VIS
100
AcDbLine
 10
2151.975007945477
 20
1330.644882736614
 30
0.0
 11
2151.975007945477
 21
1315.842462909553
 31
0.0
  0
LINE
  5
3D5B
330
1F
100
AcDbEntity
  8
AM_VIS
100
AcDbLine
 10
2150.875007945477
 20
1300.243672823083
 30
0.0
 11
2150.875007945477
 21
1308.704799217732
 31
0.0
  0
LINE
  5
3D5C
330
1F
100
AcDbEntity
  8
AM_VIS
100
AcDbLine
 10
2117.375007945478
 20
1300.243672823083
 30
0.0
 11
2150.875007945477
 21
1300.243672823083
 31
0.0
  0
LINE
  5
3D5D
330
1F
100
AcDbEntity
  8
AM_VIS
100
AcDbLine
 10
2117.375007945478
 20
1355.743672823083
 30
0.0
 11
2117.375007945478
 21
1300.243672823083
 31
0.0
  0
LINE
  5
3D5E
330
1F
100
AcDbEntity
  8
AM_VIS
100
AcDbLine
 10
2117.375007945478
 20
1355.743672823083
 30
0.0
 11
2150.875007945477
 21
1355.743672823083
 31
0.0
  0
LINE
  5
3D5F
330
1F
100
AcDbEntity
  8
AM_VIS
100
AcDbLine
 10
2150.875007945477
 20
1337.782546428434
 30
0.0
 11
2150.875007945477
 21
1355.743672823083
 31
0.0
  0
LINE
  5
3D60
330
1F
100
AcDbEntity
  8
AM_VIS
100
AcDbLine
 10
2150.875007945477
 20
1316.782546428434
 30
0.0
 11
2150.875007945477
 21
1329.704799217732
 31
0.0
  0
ARC
  5
3D61
330
1F
100
AcDbEntity
  8
AM_VIS
100
AcDbCircle
 10
2182.375007945477
 20
1333.743672823083
 30
0.0
 40
4.75
100
AcDbArc
 50
220.7210475921935
 51
238.2431361406969
  0
ARC
  5
3D62
330
1F
100
AcDbEntity
  8
AM_VIS
100
AcDbCircle
 10
2182.375007945477
 20
1333.743672823083
 30
0.0
 40
4.75
100
AcDbArc
 50
121.7568638593031
 51
139.2789524078065
  0
ARC
  5
3D63
330
1F
100
AcDbEntity
  8
AM_VIS
100
AcDbCircle
 10
2148.375007945477
 20
1312.743672823083
 30
0.0
 40
4.75
100
AcDbArc
 50
40.72104759219348
 51
58.24313614069691
  0
ARC
  5
3D64
330
1F
100
AcDbEntity
  8
AM_VIS
100
AcDbCircle
 10
2148.375007945477
 20
1312.743672823083
 30
0.0
 40
4.75
100
AcDbArc
 50
301.7568638593031
 51
319.2789524078065
  0
ARC
  5
3D65
330
1F
100
AcDbEntity
  8
AM_VIS
100
AcDbCircle
 10
2182.375007945477
 20
1312.743672823083
 30
0.0
 40
4.75
100
AcDbArc
 50
220.7210475921935
 51
238.2431361406969
  0
ARC
  5
3D66
330
1F
100
AcDbEntity
  8
AM_VIS
100
AcDbCircle
 10
2182.375007945477
 20
1312.743672823083
 30
0.0
 40
4.75
100
AcDbArc
 50
121.7568638593031
 51
139.2789524078065
  0
LINE
  5
3D67
330
1F
100
AcDbEntity
  8
AM_VIS
100
AcDbLine
 10
2172.075007945477
 20
1355.743672823083
 30
0.0
 11
2165.375007945478
 21
1355.743672823083
 31
0.0
  0
LINE
  5
3D68
330
1F
100
AcDbEntity
  8
AM_VIS
100
AcDbLine
 10
2165.375007945478
 20
1355.743672823083
 30
0.0
 11
2160.825007945477
 21
1355.743672823083
 31
0.0
  0
LINE
  5
3D69
330
1F
100
AcDbEntity
  8
AM_VIS
100
AcDbLine
 10
2159.925007945477
 20
1355.743672823083
 30
0.0
 11
2158.675007945477
 21
1355.743672823083
 31
0.0
  0
LINE
  5
3D6A
330
1F
100
AcDbEntity
  8
AM_VIS
100
AcDbLine
 10
2158.675007945477
 20
1300.243672823083
 30
0.0
 11
2159.925007945477
 21
1300.243672823083
 31
0.0
  0
LINE
  5
3D6B
330
1F
100
AcDbEntity
  8
AM_VIS
100
AcDbLine
 10
2160.825007945477
 20
1300.243672823083
 30
0.0
 11
2162.075007945477
 21
1300.243672823083
 31
0.0
  0
LINE
  5
3D6C
330
1F
100
AcDbEntity
  8
AM_VIS
100
AcDbLine
 10
2168.675007945477
 20
1300.243672823083
 30
0.0
 11
2169.925007945478
 21
1300.243672823083
 31
0.0
  0
LINE
  5
3D6D
330
1F
100
AcDbEntity
  8
AM_VIS
100
AcDbLine
 10
2170.825007945477
 20
1300.243672823083
 30
0.0
 11
2172.075007945477
 21
1300.243672823083
 31
0.0
  0
ARC
  5
3D6E
330
1F
100
AcDbEntity
  8
AM_VIS
100
AcDbCircle
 10
2148.375007945477
 20
1333.743672823083
 30
0.0
 40
4.75
100
AcDbArc
 50
319.2789524078065
 51
40.72104759219348
  0
CIRCLE
  5
3D6F
330
1F
100
AcDbEntity
  8
AM_VIS
100
AcDbCircle
 10
2148.375007945477
 20
1333.743672823083
 30
0.0
 40
2.45
  0
ARC
  5
3D70
330
1F
100
AcDbEntity
  8
AM_VIS
100
AcDbCircle
 10
2148.375007945477
 20
1333.743672823083
 30
0.0
 40
4.75
100
AcDbArc
 50
58.24313614069691
 51
301.7568638593031
  0
ARC
  5
3D71
330
1F
100
AcDbEntity
  8
AM_VIS
100
AcDbCircle
 10
2182.375007945477
 20
1333.743672823083
 30
0.0
 40
4.75
100
AcDbArc
 50
238.2431361406969
 51
121.7568638593031
  0
ARC
  5
3D72
330
1F
100
AcDbEntity
  8
AM_VIS
100
AcDbCircle
 10
2182.375007945477
 20
1333.743672823083
 30
0.0
 40
4.75
100
AcDbArc
 50
139.2789524078065
 51
220.7210475921935
  0
CIRCLE
  5
3D73
330
1F
100
AcDbEntity
  8
AM_VIS
100
AcDbCircle
 10
2182.375007945477
 20
1333.743672823083
 30
0.0
 40
2.45
  0
ARC
  5
3D74
330
1F
100
AcDbEntity
  8
AM_VIS
100
AcDbCircle
 10
2148.375007945477
 20
1312.743672823083
 30
0.0
 40
4.75
100
AcDbArc
 50
58.24313614069691
 51
301.7568638593031
  0
ARC
  5
3D75
330
1F
100
AcDbEntity
  8
AM_VIS
100
AcDbCircle
 10
2148.375007945477
 20
1312.743672823083
 30
0.0
 40
4.75
100
AcDbArc
 50
319.2789524078065
 51
40.72104759219348
  0
CIRCLE
  5
3D76
330
1F
100
AcDbEntity
  8
AM_VIS
100
AcDbCircle
 10
2148.375007945477
 20
1312.743672823083
 30
0.0
 40
2.45
  0
ARC
  5
3D77
330
1F
100
AcDbEntity
  8
AM_VIS
100
AcDbCircle
 10
2182.375007945477
 20
1312.743672823083
 30
0.0
 40
4.75
100
AcDbArc
 50
238.2431361406969
 51
121.7568638593031
  0
ARC
  5
3D78
330
1F
100
AcDbEntity
  8
AM_VIS
100
AcDbCircle
 10
2182.375007945477
 20
1312.743672823083
 30
0.0
 40
4.75
100
AcDbArc
 50
139.2789524078065
 51
220.7210475921935
  0
CIRCLE
  5
3D79
330
1F
100
AcDbEntity
  8
AM_VIS
100
AcDbCircle
 10
2182.375007945477
 20
1312.743672823083
 30
0.0
 40
2.45
  0
LINE
  5
3D7A
330
1F
100
AcDbEntity
  8
AM_VIS
100
AcDbLine
 10
2196.759615637811
 20
1420.399336894835
 30
0.0
 11
2195.585007945477
 21
1422.399336894835
 31
0.0
  0
LINE
  5
3D7B
330
1F
100
AcDbEntity
  8
AM_VIS
100
AcDbLine
 10
2196.759615637811
 20
1424.399336894835
 30
0.0
 11
2198.990400253143
 21
1424.399336894835
 31
0.0
  0
LINE
  5
3D7C
330
1F
100
AcDbEntity
  8
AM_VIS
100
AcDbLine
 10
2195.585007945477
 20
1422.399336894835
 30
0.0
 11
2196.759615637811
 21
1424.399336894835
 31
0.0
  0
LINE
  5
3D7D
330
1F
100
AcDbEntity
  8
AM_VIS
100
AcDbLine
 10
2198.990400253143
 20
1420.399336894835
 30
0.0
 11
2196.759615637811
 21
1420.399336894835
 31
0.0
  0
LINE
  5
3D7E
330
1F
100
AcDbEntity
  8
AM_VIS
100
AcDbLine
 10
2200.165007945477
 20
1422.399336894835
 30
0.0
 11
2198.990400253143
 21
1420.399336894835
 31
0.0
  0
LINE
  5
3D7F
330
1F
100
AcDbEntity
  8
AM_VIS
100
AcDbLine
 10
2198.990400253143
 20
1424.399336894835
 30
0.0
 11
2200.165007945477
 21
1422.399336894835
 31
0.0
  0
CIRCLE
  5
3D80
330
1F
100
AcDbEntity
  8
AM_VIS
100
AcDbCircle
 10
2197.875007945477
 20
1422.399336894835
 30
0.0
 40
5.25
  0
LINE
  5
3D81
330
1F
100
AcDbEntity
  8
AM_VIS
100
AcDbLine
 10
2164.259615637812
 20
1420.399336894835
 30
0.0
 11
2163.085007945477
 21
1422.399336894835
 31
0.0
  0
LINE
  5
3D82
330
1F
100
AcDbEntity
  8
AM_VIS
100
AcDbLine
 10
2164.259615637812
 20
1424.399336894835
 30
0.0
 11
2166.490400253143
 21
1424.399336894835
 31
0.0
  0
LINE
  5
3D83
330
1F
100
AcDbEntity
  8
AM_VIS
100
AcDbLine
 10
2163.085007945477
 20
1422.399336894835
 30
0.0
 11
2164.259615637812
 21
1424.399336894835
 31
0.0
  0
LINE
  5
3D84
330
1F
100
AcDbEntity
  8
AM_VIS
100
AcDbLine
 10
2166.490400253143
 20
1420.399336894835
 30
0.0
 11
2164.259615637812
 21
1420.399336894835
 31
0.0
  0
LINE
  5
3D85
330
1F
100
AcDbEntity
  8
AM_VIS
100
AcDbLine
 10
2167.665007945477
 20
1422.399336894835
 30
0.0
 11
2166.490400253143
 21
1420.399336894835
 31
0.0
  0
LINE
  5
3D86
330
1F
100
AcDbEntity
  8
AM_VIS
100
AcDbLine
 10
2166.490400253143
 20
1424.399336894835
 30
0.0
 11
2167.665007945477
 21
1422.399336894835
 31
0.0
  0
CIRCLE
  5
3D87
330
1F
100
AcDbEntity
  8
AM_VIS
100
AcDbCircle
 10
2165.375007945477
 20
1422.399336894835
 30
0.0
 40
5.25
  0
LINE
  5
3D88
330
1F
100
AcDbEntity
  8
AM_VIS
100
AcDbLine
 10
2131.759615637811
 20
1420.399336894835
 30
0.0
 11
2130.585007945477
 21
1422.399336894835
 31
0.0
  0
LINE
  5
3D89
330
1F
100
AcDbEntity
  8
AM_VIS
100
AcDbLine
 10
2131.759615637811
 20
1424.399336894835
 30
0.0
 11
2133.990400253143
 21
1424.399336894835
 31
0.0
  0
LINE
  5
3D8A
330
1F
100
AcDbEntity
  8
AM_VIS
100
AcDbLine
 10
2130.585007945477
 20
1422.399336894835
 30
0.0
 11
2131.759615637811
 21
1424.399336894835
 31
0.0
  0
LINE
  5
3D8B
330
1F
100
AcDbEntity
  8
AM_VIS
100
AcDbLine
 10
2133.990400253143
 20
1420.399336894835
 30
0.0
 11
2131.759615637811
 21
1420.399336894835
 31
0.0
  0
LINE
  5
3D8C
330
1F
100
AcDbEntity
  8
AM_VIS
100
AcDbLine
 10
2135.165007945477
 20
1422.399336894835
 30
0.0
 11
2133.990400253143
 21
1420.399336894835
 31
0.0
  0
LINE
  5
3D8D
330
1F
100
AcDbEntity
  8
AM_VIS
100
AcDbLine
 10
2133.990400253143
 20
1424.399336894835
 30
0.0
 11
2135.165007945477
 21
1422.399336894835
 31
0.0
  0
CIRCLE
  5
3D8E
330
1F
100
AcDbEntity
  8
AM_VIS
100
AcDbCircle
 10
2132.875007945477
 20
1422.399336894835
 30
0.0
 40
5.25
  0
LINE
  5
3D8F
330
1F
100
AcDbEntity
  8
AM_VIS
100
AcDbLine
 10
2207.375007945477
 20
1441.399336894835
 30
0.0
 11
2123.375007945477
 21
1441.399336894835
 31
0.0
  0
LINE
  5
3D90
330
1F
100
AcDbEntity
  8
AM_VIS
100
AcDbLine
 10
2122.375007945477
 20
1440.399336894835
 30
0.0
 11
2122.375007945477
 21
1404.399336894835
 31
0.0
  0
LINE
  5
3D91
330
1F
100
AcDbEntity
  8
AM_VIS
100
AcDbLine
 10
2123.375007945477
 20
1403.399336894835
 30
0.0
 11
2207.375007945477
 21
1403.399336894836
 31
0.0
  0
LINE
  5
3D92
330
1F
100
AcDbEntity
  8
AM_VIS
100
AcDbLine
 10
2207.375007945477
 20
1403.399336894835
 30
0.0
 11
2207.875007945477
 21
1403.899336894835
 31
0.0
  0
LINE
  5
3D93
330
1F
100
AcDbEntity
  8
AM_VIS
100
AcDbLine
 10
2207.875007945477
 20
1403.899336894835
 30
0.0
 11
2208.375007945477
 21
1404.399336894835
 31
0.0
  0
LINE
  5
3D94
330
1F
100
AcDbEntity
  8
AM_VIS
100
AcDbLine
 10
2208.375007945477
 20
1440.399336894835
 30
0.0
 11
2207.875007945477
 21
1440.899336894835
 31
0.0
  0
LINE
  5
3D95
330
1F
100
AcDbEntity
  8
AM_VIS
100
AcDbLine
 10
2207.875007945477
 20
1440.899336894835
 30
0.0
 11
2207.375007945477
 21
1441.399336894835
 31
0.0
  0
LINE
  5
3D96
330
1F
100
AcDbEntity
  8
AM_VIS
100
AcDbLine
 10
2208.375007945477
 20
1404.399336894835
 30
0.0
 11
2208.375007945477
 21
1440.399336894835
 31
0.0
  0
LINE
  5
3D97
330
1F
100
AcDbEntity
  8
AM_VIS
100
AcDbLine
 10
2122.375007945477
 20
1404.399336894835
 30
0.0
 11
2122.875007945477
 21
1403.899336894835
 31
0.0
  0
LINE
  5
3D98
330
1F
100
AcDbEntity
  8
AM_VIS
100
AcDbLine
 10
2122.875007945477
 20
1403.899336894835
 30
0.0
 11
2123.375007945477
 21
1403.399336894835
 31
0.0
  0
LINE
  5
3D99
330
1F
100
AcDbEntity
  8
AM_VIS
100
AcDbLine
 10
2123.375007945477
 20
1441.399336894835
 30
0.0
 11
2122.875007945477
 21
1440.899336894835
 31
0.0
  0
LINE
  5
3D9A
330
1F
100
AcDbEntity
  8
AM_7
  6
AM_ISO08W050x2
100
AcDbLine
 10
2065.248422956813
 20
1360.743672823083
 30
0.0
 11
2065.248422956813
 21
1352.743672823083
 31
0.0
1001
GENIUS_GENOBJ-N-CEN_13
1002
{
1000
OWNER
1000
GEN
1002
}
1001
GENIUS_GENODEF_13
1002
{
1000
HIER
1070
     0
1002
}
1002
{
1000
MANEDIT
1070
     0
1002
}
1002
{
1000
NOSEL
1070
     0
1002
}
1002
{
1000
BEHIND
1070
     0
1002
}
1002
{
1000
OTHER
1070
     0
1002
}
1002
{
1000
REACTOR
1002
}
1001
GENIUS_GENCEN_19
1002
{
1040
3.0
1002
}
  0
LINE
  5
3D9B
330
1F
100
AcDbEntity
  8
AM_7
  6
AM_ISO08W050x2
100
AcDbLine
 10
2132.875007945477
 20
1360.743672823083
 30
0.0
 11
2132.875007945477
 21
1352.743672823083
 31
0.0
1001
GENIUS_GENODEF_13
1002
{
1000
HIER
1070
     0
1002
}
1002
{
1000
MANEDIT
1070
     0
1002
}
1002
{
1000
NOSEL
1070
     0
1002
}
1002
{
1000
BEHIND
1070
     0
1002
}
1002
{
1000
OTHER
1070
     0
1002
}
1002
{
1000
REACTOR
1002
}
1001
GENIUS_GENOBJ-N-CEN_13
1002
{
1000
OWNER
1000
GEN
1002
}
1001
GENIUS_GENCEN_19
1002
{
1040
3.0
1002
}
  0
LINE
  5
3D9C
330
1F
100
AcDbEntity
  8
AM_7
  6
AM_ISO08W050x2
100
AcDbLine
 10
2165.375007945477
 20
1360.743672823083
 30
0.0
 11
2165.375007945477
 21
1352.743672823083
 31
0.0
1001
GENIUS_GENOBJ-N-CEN_13
1002
{
1000
OWNER
1000
GEN
1002
}
1001
GENIUS_GENODEF_13
1002
{
1000
HIER
1070
     0
1002
}
1002
{
1000
MANEDIT
1070
     0
1002
}
1002
{
1000
NOSEL
1070
     0
1002
}
1002
{
1000
BEHIND
1070
     0
1002
}
1002
{
1000
OTHER
1070
     0
1002
}
1002
{
1000
REACTOR
1002
}
1001
GENIUS_GENCEN_19
1002
{
1040
3.0
1002
}
  0
LINE
  5
3D9D
330
1F
100
AcDbEntity
  8
AM_7
  6
AM_ISO08W050x2
100
AcDbLine
 10
2197.875007945477
 20
1360.743672823083
 30
0.0
 11
2197.875007945477
 21
1352.743672823083
 31
0.0
1001
GENIUS_GENOBJ-N-CEN_13
1002
{
1000
OWNER
1000
GEN
1002
}
1001
GENIUS_GENODEF_13
1002
{
1000
HIER
1070
     0
1002
}
1002
{
1000
MANEDIT
1070
     0
1002
}
1002
{
1000
NOSEL
1070
     0
1002
}
1002
{
1000
BEHIND
1070
     0
1002
}
1002
{
1000
OTHER
1070
     0
1002
}
1002
{
1000
REACTOR
1002
}
1001
GENIUS_GENCEN_19
1002
{
1040
3.0
1002
}
  0
LINE
  5
3D9E
330
1F
100
AcDbEntity
  8
AM_7
  6
AM_ISO08W050x2
100
AcDbLine
 10
2283.892191490654
 20
1360.743672823083
 30
0.0
 11
2283.892191490654
 21
1352.743672823083
 31
0.0
1001
GENIUS_GENODEF_13
1002
{
1000
HIER
1070
     0
1002
}
1002
{
1000
MANEDIT
1070
     0
1002
}
1002
{
1000
NOSEL
1070
     0
1002
}
1002
{
1000
BEHIND
1070
     0
1002
}
1002
{
1000
OTHER
1070
     0
1002
}
1002
{
1000
REACTOR
1002
}
1001
GENIUS_GENOBJ-N-CEN_13
1002
{
1000
OWNER
1000
GEN
1002
}
1001
GENIUS_GENCEN_19
1002
{
1040
3.0
1002
}
  0
LINE
  5
3D9F
330
1F
100
AcDbEntity
  8
AM_7
  6
AM_ISO08W050x2
100
AcDbLine
 10
2346.218531152617
 20
1360.743672823083
 30
0.0
 11
2346.218531152617
 21
1352.743672823083
 31
0.0
1001
GENIUS_GENOBJ-N-CEN_13
1002
{
1000
OWNER
1000
GEN
1002
}
1001
GENIUS_GENODEF_13
1002
{
1000
HIER
1070
     0
1002
}
1002
{
1000
MANEDIT
1070
     0
1002
}
1002
{
1000
NOSEL
1070
     0
1002
}
1002
{
1000
BEHIND
1070
     0
1002
}
1002
{
1000
OTHER
1070
     0
1002
}
1002
{
1000
REACTOR
1002
}
1001
GENIUS_GENCEN_19
1002
{
1040
3.0
1002
}
  0
LINE
  5
3DA0
330
1F
100
AcDbEntity
  8
AM_7
  6
AM_ISO08W050x2
100
AcDbLine
 10
2378.718531152617
 20
1360.743672823083
 30
0.0
 11
2378.718531152617
 21
1352.743672823083
 31
0.0
1001
GENIUS_GENOBJ-N-CEN_13
1002
{
1000
OWNER
1000
GEN
1002
}
1001
GENIUS_GENODEF_13
1002
{
1000
HIER
1070
     0
1002
}
1002
{
1000
MANEDIT
1070
     0
1002
}
1002
{
1000
NOSEL
1070
     0
1002
}
1002
{
1000
BEHIND
1070
     0
1002
}
1002
{
1000
OTHER
1070
     0
1002
}
1002
{
1000
REACTOR
1002
}
1001
GENIUS_GENCEN_19
1002
{
1040
3.0
1002
}
  0
LINE
  5
3DA1
330
1F
100
AcDbEntity
  8
AM_7
  6
AM_ISO08W050x2
100
AcDbLine
 10
2411.218531152617
 20
1360.743672823083
 30
0.0
 11
2411.218531152617
 21
1352.743672823083
 31
0.0
1001
GENIUS_GENOBJ-N-CEN_13
1002
{
1000
OWNER
1000
GEN
1002
}
1001
GENIUS_GENODEF_13
1002
{
1000
HIER
1070
     0
1002
}
1002
{
1000
MANEDIT
1070
     0
1002
}
1002
{
1000
NOSEL
1070
     0
1002
}
1002
{
1000
BEHIND
1070
     0
1002
}
1002
{
1000
OTHER
1070
     0
1002
}
1002
{
1000
REACTOR
1002
}
1001
GENIUS_GENCEN_19
1002
{
1040
3.0
1002
}
  0
ARC
  5
3DA2
330
1F
100
AcDbEntity
  8
AM_4
100
AcDbCircle
 10
2078.748422956814
 20
1343.743672823083
 30
0.0
 40
4.863999999999999
100
AcDbArc
 50
260.0
 51
170.0
  0
LINE
  5
3DA3
330
1F
100
AcDbEntity
  8
AM_7
  6
AM_ISO08W050x2
100
AcDbLine
 10
2078.748422956814
 20
1350.607672823083
 30
0.0
 11
2078.748422956814
 21
1336.879672823083
 31
0.0
  0
CIRCLE
  5
3DA4
330
1F
100
AcDbEntity
  8
AM_0
100
AcDbCircle
 10
2078.748422956814
 20
1343.743672823083
 30
0.0
 40
4.283
  0
LINE
  5
3DA5
330
1F
100
AcDbEntity
  8
AM_7
  6
AM_ISO08W050x2
100
AcDbLine
 10
2071.884422956813
 20
1343.743672823083
 30
0.0
 11
2085.612422956813
 21
1343.743672823083
 31
0.0
  0
ARC
  5
3DA6
330
1F
100
AcDbEntity
  8
AM_4
100
AcDbCircle
 10
2078.748422956814
 20
1322.743672823083
 30
0.0
 40
4.863999999999999
100
AcDbArc
 50
260.0
 51
170.0
  0
LINE
  5
3DA7
330
1F
100
AcDbEntity
  8
AM_7
  6
AM_ISO08W050x2
100
AcDbLine
 10
2078.748422956814
 20
1329.607672823083
 30
0.0
 11
2078.748422956814
 21
1315.879672823083
 31
0.0
  0
CIRCLE
  5
3DA8
330
1F
100
AcDbEntity
  8
AM_0
100
AcDbCircle
 10
2078.748422956814
 20
1322.743672823083
 30
0.0
 40
4.283
  0
LINE
  5
3DA9
330
1F
100
AcDbEntity
  8
AM_7
  6
AM_ISO08W050x2
100
AcDbLine
 10
2071.884422956813
 20
1322.743672823083
 30
0.0
 11
2085.612422956813
 21
1322.743672823083
 31
0.0
  0
ARC
  5
3DAA
330
1F
100
AcDbEntity
  8
AM_4
100
AcDbCircle
 10
2141.375007945477
 20
1322.743672823083
 30
0.0
 40
4.863999999999999
100
AcDbArc
 50
260.0
 51
170.0
  0
LINE
  5
3DAB
330
1F
100
AcDbEntity
  8
AM_7
  6
AM_ISO08W050x2
100
AcDbLine
 10
2141.375007945477
 20
1329.607672823083
 30
0.0
 11
2141.375007945477
 21
1315.879672823083
 31
0.0
  0
CIRCLE
  5
3DAC
330
1F
100
AcDbEntity
  8
AM_0
100
AcDbCircle
 10
2141.375007945477
 20
1322.743672823083
 30
0.0
 40
4.283
  0
LINE
  5
3DAD
330
1F
100
AcDbEntity
  8
AM_7
  6
AM_ISO08W050x2
100
AcDbLine
 10
2134.511007945477
 20
1322.743672823083
 30
0.0
 11
2148.239007945477
 21
1322.743672823083
 31
0.0
  0
ARC
  5
3DAE
330
1F
100
AcDbEntity
  8
AM_4
100
AcDbCircle
 10
2141.375007945477
 20
1343.743672823083
 30
0.0
 40
4.863999999999999
100
AcDbArc
 50
260.0
 51
170.0
  0
LINE
  5
3DAF
330
1F
100
AcDbEntity
  8
AM_7
  6
AM_ISO08W050x2
100
AcDbLine
 10
2141.375007945477
 20
1350.607672823083
 30
0.0
 11
2141.375007945477
 21
1336.879672823083
 31
0.0
  0
CIRCLE
  5
3DB0
330
1F
100
AcDbEntity
  8
AM_0
100
AcDbCircle
 10
2141.375007945477
 20
1343.743672823083
 30
0.0
 40
4.283
  0
LINE
  5
3DB1
330
1F
100
AcDbEntity
  8
AM_7
  6
AM_ISO08W050x2
100
AcDbLine
 10
2134.511007945477
 20
1343.743672823083
 30
0.0
 11
2148.239007945477
 21
1343.743672823083
 31
0.0
  0
LINE
  5
3DB2
330
1F
100
AcDbEntity
  8
AM_7
  6
AM_ISO08W050x2
100
AcDbLine
 10
2148.375007945477
 20
1333.743672823083
 30
0.0
 11
2155.125007945477
 21
1333.743672823083
 31
0.0
1001
GENIUS_GENOREF_13
1005
3E2B
  0
LINE
  5
3DB3
330
1F
100
AcDbEntity
  8
AM_7
  6
AM_ISO08W050x2
100
AcDbLine
 10
2148.375007945477
 20
1333.743672823083
 30
0.0
 11
2148.375007945477
 21
1340.493672823083
 31
0.0
1001
GENIUS_GENOREF_13
1005
3E2B
  0
LINE
  5
3DB4
330
1F
100
AcDbEntity
  8
AM_7
  6
AM_ISO08W050x2
100
AcDbLine
 10
2148.375007945477
 20
1333.743672823083
 30
0.0
 11
2141.625007945477
 21
1333.743672823083
 31
0.0
1001
GENIUS_GENOREF_13
1005
3E2B
  0
LINE
  5
3DB5
330
1F
100
AcDbEntity
  8
AM_7
  6
AM_ISO08W050x2
100
AcDbLine
 10
2148.375007945477
 20
1333.743672823083
 30
0.0
 11
2148.375007945477
 21
1326.993672823083
 31
0.0
1001
GENIUS_GENOREF_13
1005
3E2B
  0
LINE
  5
3DB6
330
1F
100
AcDbEntity
  8
AM_7
  6
AM_ISO08W050x2
100
AcDbLine
 10
2182.375007945477
 20
1333.743672823083
 30
0.0
 11
2189.125007945477
 21
1333.743672823083
 31
0.0
1001
GENIUS_GENOREF_13
1005
3E2A
  0
LINE
  5
3DB7
330
1F
100
AcDbEntity
  8
AM_7
  6
AM_ISO08W050x2
100
AcDbLine
 10
2182.375007945477
 20
1333.743672823083
 30
0.0
 11
2182.375007945477
 21
1340.493672823083
 31
0.0
1001
GENIUS_GENOREF_13
1005
3E2A
  0
LINE
  5
3DB8
330
1F
100
AcDbEntity
  8
AM_7
  6
AM_ISO08W050x2
100
AcDbLine
 10
2182.375007945477
 20
1333.743672823083
 30
0.0
 11
2175.625007945477
 21
1333.743672823083
 31
0.0
1001
GENIUS_GENOREF_13
1005
3E2A
  0
LINE
  5
3DB9
330
1F
100
AcDbEntity
  8
AM_7
  6
AM_ISO08W050x2
100
AcDbLine
 10
2182.375007945477
 20
1333.743672823083
 30
0.0
 11
2182.375007945477
 21
1326.993672823083
 31
0.0
1001
GENIUS_GENOREF_13
1005
3E2A
  0
LINE
  5
3DBA
330
1F
100
AcDbEntity
  8
AM_7
  6
AM_ISO08W050x2
100
AcDbLine
 10
2182.375007945477
 20
1312.743672823083
 30
0.0
 11
2189.125007945477
 21
1312.743672823083
 31
0.0
1001
GENIUS_GENOREF_13
1005
3E29
  0
LINE
  5
3DBB
330
1F
100
AcDbEntity
  8
AM_7
  6
AM_ISO08W050x2
100
AcDbLine
 10
2182.375007945477
 20
1312.743672823083
 30
0.0
 11
2182.375007945477
 21
1319.493672823083
 31
0.0
1001
GENIUS_GENOREF_13
1005
3E29
  0
LINE
  5
3DBC
330
1F
100
AcDbEntity
  8
AM_7
  6
AM_ISO08W050x2
100
AcDbLine
 10
2182.375007945477
 20
1312.743672823083
 30
0.0
 11
2175.625007945477
 21
1312.743672823083
 31
0.0
1001
GENIUS_GENOREF_13
1005
3E29
  0
LINE
  5
3DBD
330
1F
100
AcDbEntity
  8
AM_7
  6
AM_ISO08W050x2
100
AcDbLine
 10
2182.375007945477
 20
1312.743672823083
 30
0.0
 11
2182.375007945477
 21
1305.993672823083
 31
0.0
1001
GENIUS_GENOREF_13
1005
3E29
  0
LINE
  5
3DBE
330
1F
100
AcDbEntity
  8
AM_7
  6
AM_ISO08W050x2
100
AcDbLine
 10
2148.375007945477
 20
1312.743672823083
 30
0.0
 11
2155.125007945477
 21
1312.743672823083
 31
0.0
1001
GENIUS_GENOREF_13
1005
3E28
  0
LINE
  5
3DBF
330
1F
100
AcDbEntity
  8
AM_7
  6
AM_ISO08W050x2
100
AcDbLine
 10
2148.375007945477
 20
1312.743672823083
 30
0.0
 11
2148.375007945477
 21
1319.493672823083
 31
0.0
1001
GENIUS_GENOREF_13
1005
3E28
  0
LINE
  5
3DC0
330
1F
100
AcDbEntity
  8
AM_7
  6
AM_ISO08W050x2
100
AcDbLine
 10
2148.375007945477
 20
1312.743672823083
 30
0.0
 11
2141.625007945477
 21
1312.743672823083
 31
0.0
1001
GENIUS_GENOREF_13
1005
3E28
  0
LINE
  5
3DC1
330
1F
100
AcDbEntity
  8
AM_7
  6
AM_ISO08W050x2
100
AcDbLine
 10
2148.375007945477
 20
1312.743672823083
 30
0.0
 11
2148.375007945477
 21
1305.993672823083
 31
0.0
1001
GENIUS_GENOREF_13
1005
3E28
  0
LINE
  5
3DC4
330
1F
100
AcDbEntity
  8
AM_7
100
AcDbLine
 10
2132.875007945477
 20
1238.39650602722
 30
0.0
 11
2142.875007945477
 21
1238.39650602722
 31
0.0
1001
GENIUS_GENOREF_13
1005
3E2D
  0
LINE
  5
3DC5
330
1F
100
AcDbEntity
  8
AM_7
100
AcDbLine
 10
2132.875007945477
 20
1238.39650602722
 30
0.0
 11
2132.875007945477
 21
1248.39650602722
 31
0.0
1001
GENIUS_GENOREF_13
1005
3E2D
  0
LINE
  5
3DC6
330
1F
100
AcDbEntity
  8
AM_7
100
AcDbLine
 10
2132.875007945477
 20
1238.39650602722
 30
0.0
 11
2122.875007945477
 21
1238.39650602722
 31
0.0
1001
GENIUS_GENOREF_13
1005
3E2D
  0
LINE
  5
3DC7
330
1F
100
AcDbEntity
  8
AM_7
100
AcDbLine
 10
2132.875007945477
 20
1238.39650602722
 30
0.0
 11
2132.875007945477
 21
1228.39650602722
 31
0.0
1001
GENIUS_GENOREF_13
1005
3E2D
  0
LINE
  5
3DC8
330
1F
100
AcDbEntity
  8
AM_7
100
AcDbLine
 10
2197.875007945477
 20
1238.39650602722
 30
0.0
 11
2207.875007945477
 21
1238.39650602722
 31
0.0
1001
GENIUS_GENOREF_13
1005
3E2C
  0
LINE
  5
3DC9
330
1F
100
AcDbEntity
  8
AM_7
100
AcDbLine
 10
2197.875007945477
 20
1238.39650602722
 30
0.0
 11
2197.875007945477
 21
1248.39650602722
 31
0.0
1001
GENIUS_GENOREF_13
1005
3E2C
  0
LINE
  5
3DCA
330
1F
100
AcDbEntity
  8
AM_7
100
AcDbLine
 10
2197.875007945477
 20
1238.39650602722
 30
0.0
 11
2187.875007945477
 21
1238.39650602722
 31
0.0
1001
GENIUS_GENOREF_13
1005
3E2C
  0
LINE
  5
3DCB
330
1F
100
AcDbEntity
  8
AM_7
100
AcDbLine
 10
2197.875007945477
 20
1238.39650602722
 30
0.0
 11
2197.875007945477
 21
1228.39650602722
 31
0.0
1001
GENIUS_GENOREF_13
1005
3E2C
  0
ARC
  5
3DCC
330
1F
100
AcDbEntity
  8
AM_4
100
AcDbCircle
 10
2361.718531152617
 20
1312.743672823083
 30
0.0
 40
3.0
100
AcDbArc
 50
260.0
 51
170.0
  0
LINE
  5
3DCD
330
1F
100
AcDbEntity
  8
AM_7
  6
AM_ISO08W050x2
100
AcDbLine
 10
2356.718531152617
 20
1312.743672823083
 30
0.0
 11
2366.718531152617
 21
1312.743672823083
 31
0.0
  0
LINE
  5
3DCE
330
1F
100
AcDbEntity
  8
AM_7
  6
AM_ISO08W050x2
100
AcDbLine
 10
2361.718531152617
 20
1307.743672823083
 30
0.0
 11
2361.718531152617
 21
1317.743672823083
 31
0.0
  0
CIRCLE
  5
3DCF
330
1F
100
AcDbEntity
  8
0
100
AcDbCircle
 10
2361.718531152617
 20
1312.743672823083
 30
0.0
 40
2.649999999999999
  0
ARC
  5
3DD0
330
1F
100
AcDbEntity
  8
AM_4
100
AcDbCircle
 10
2361.718531152617
 20
1333.743672823083
 30
0.0
 40
3.0
100
AcDbArc
 50
260.0
 51
170.0
  0
LINE
  5
3DD1
330
1F
100
AcDbEntity
  8
AM_7
  6
AM_ISO08W050x2
100
AcDbLine
 10
2356.718531152617
 20
1333.743672823083
 30
0.0
 11
2366.718531152617
 21
1333.743672823083
 31
0.0
  0
LINE
  5
3DD2
330
1F
100
AcDbEntity
  8
AM_7
  6
AM_ISO08W050x2
100
AcDbLine
 10
2361.718531152617
 20
1328.743672823083
 30
0.0
 11
2361.718531152617
 21
1338.743672823083
 31
0.0
  0
CIRCLE
  5
3DD3
330
1F
100
AcDbEntity
  8
0
100
AcDbCircle
 10
2361.718531152617
 20
1333.743672823083
 30
0.0
 40
2.649999999999999
  0
ARC
  5
3DD4
330
1F
100
AcDbEntity
  8
AM_4
100
AcDbCircle
 10
2395.718531152617
 20
1333.743672823083
 30
0.0
 40
3.0
100
AcDbArc
 50
260.0
 51
170.0
  0
LINE
  5
3DD5
330
1F
100
AcDbEntity
  8
AM_7
  6
AM_ISO08W050x2
100
AcDbLine
 10
2390.718531152617
 20
1333.743672823083
 30
0.0
 11
2400.718531152617
 21
1333.743672823083
 31
0.0
  0
LINE
  5
3DD6
330
1F
100
AcDbEntity
  8
AM_7
  6
AM_ISO08W050x2
100
AcDbLine
 10
2395.718531152617
 20
1328.743672823083
 30
0.0
 11
2395.718531152617
 21
1338.743672823083
 31
0.0
  0
CIRCLE
  5
3DD7
330
1F
100
AcDbEntity
  8
0
100
AcDbCircle
 10
2395.718531152617
 20
1333.743672823083
 30
0.0
 40
2.649999999999999
  0
ARC
  5
3DD8
330
1F
100
AcDbEntity
  8
AM_4
100
AcDbCircle
 10
2395.718531152617
 20
1312.743672823083
 30
0.0
 40
3.0
100
AcDbArc
 50
260.0
 51
170.0
  0
LINE
  5
3DD9
330
1F
100
AcDbEntity
  8
AM_7
  6
AM_ISO08W050x2
100
AcDbLine
 10
2390.718531152617
 20
1312.743672823083
 30
0.0
 11
2400.718531152617
 21
1312.743672823083
 31
0.0
  0
LINE
  5
3DDA
330
1F
100
AcDbEntity
  8
AM_7
  6
AM_ISO08W050x2
100
AcDbLine
 10
2395.718531152617
 20
1307.743672823083
 30
0.0
 11
2395.718531152617
 21
1317.743672823083
 31
0.0
  0
CIRCLE
  5
3DDB
330
1F
100
AcDbEntity
  8
0
100
AcDbCircle
 10
2395.718531152617
 20
1312.743672823083
 30
0.0
 40
2.649999999999999
  0
ARC
  5
3DDC
330
1F
100
AcDbEntity
  8
AM_4
100
AcDbCircle
 10
2340.718531152617
 20
1313.743672823083
 30
0.0
 40
3.0
100
AcDbArc
 50
260.0
 51
170.0
  0
CIRCLE
  5
3DDD
330
1F
100
AcDbEntity
  8
AM_0
100
AcDbCircle
 10
2340.718531152617
 20
1313.743672823083
 30
0.0
 40
2.45873412263477
  0
LINE
  5
3DDE
330
1F
100
AcDbEntity
  8
AM_7
  6
AM_ISO08W050x2
100
AcDbLine
 10
2335.718531152617
 20
1313.743672823083
 30
0.0
 11
2345.718531152617
 21
1313.743672823083
 31
0.0
  0
LINE
  5
3DDF
330
1F
100
AcDbEntity
  8
AM_7
  6
AM_ISO08W050x2
100
AcDbLine
 10
2340.718531152617
 20
1308.743672823083
 30
0.0
 11
2340.718531152617
 21
1318.743672823083
 31
0.0
  0
ARC
  5
3DE0
330
1F
100
AcDbEntity
  8
AM_4
100
AcDbCircle
 10
2340.718531152617
 20
1343.743672823083
 30
0.0
 40
3.0
100
AcDbArc
 50
260.0
 51
170.0
  0
CIRCLE
  5
3DE1
330
1F
100
AcDbEntity
  8
AM_0
100
AcDbCircle
 10
2340.718531152617
 20
1343.743672823083
 30
0.0
 40
2.45873412263477
  0
LINE
  5
3DE2
330
1F
100
AcDbEntity
  8
AM_7
  6
AM_ISO08W050x2
100
AcDbLine
 10
2335.718531152617
 20
1343.743672823083
 30
0.0
 11
2345.718531152617
 21
1343.743672823083
 31
0.0
  0
LINE
  5
3DE3
330
1F
100
AcDbEntity
  8
AM_7
  6
AM_ISO08W050x2
100
AcDbLine
 10
2340.718531152617
 20
1338.743672823083
 30
0.0
 11
2340.718531152617
 21
1348.743672823083
 31
0.0
  0
ARC
  5
3DE4
330
1F
100
AcDbEntity
  8
AM_4
100
AcDbCircle
 10
2416.718531152617
 20
1343.743672823083
 30
0.0
 40
3.0
100
AcDbArc
 50
260.0
 51
170.0
  0
CIRCLE
  5
3DE5
330
1F
100
AcDbEntity
  8
AM_0
100
AcDbCircle
 10
2416.718531152617
 20
1343.743672823083
 30
0.0
 40
2.45873412263477
  0
LINE
  5
3DE6
330
1F
100
AcDbEntity
  8
AM_7
  6
AM_ISO08W050x2
100
AcDbLine
 10
2411.718531152617
 20
1343.743672823083
 30
0.0
 11
2421.718531152617
 21
1343.743672823083
 31
0.0
  0
LINE
  5
3DE7
330
1F
100
AcDbEntity
  8
AM_7
  6
AM_ISO08W050x2
100
AcDbLine
 10
2416.718531152617
 20
1338.743672823083
 30
0.0
 11
2416.718531152617
 21
1348.743672823083
 31
0.0
  0
ARC
  5
3DE8
330
1F
100
AcDbEntity
  8
AM_4
100
AcDbCircle
 10
2416.718531152617
 20
1313.743672823083
 30
0.0
 40
3.0
100
AcDbArc
 50
260.0
 51
170.0
  0
CIRCLE
  5
3DE9
330
1F
100
AcDbEntity
  8
AM_0
100
AcDbCircle
 10
2416.718531152617
 20
1313.743672823083
 30
0.0
 40
2.45873412263477
  0
LINE
  5
3DEA
330
1F
100
AcDbEntity
  8
AM_7
  6
AM_ISO08W050x2
100
AcDbLine
 10
2411.718531152617
 20
1313.743672823083
 30
0.0
 11
2421.718531152617
 21
1313.743672823083
 31
0.0
  0
LINE
  5
3DEB
330
1F
100
AcDbEntity
  8
AM_7
  6
AM_ISO08W050x2
100
AcDbLine
 10
2416.718531152617
 20
1308.743672823083
 30
0.0
 11
2416.718531152617
 21
1318.743672823083
 31
0.0
  0
ARC
  5
3DEC
330
1F
100
AcDbEntity
  8
AM_4
100
AcDbCircle
 10
2130.375007945477
 20
1435.399336894835
 30
0.0
 40
3.0
100
AcDbArc
 50
260.0
 51
170.0
  0
CIRCLE
  5
3DED
330
1F
100
AcDbEntity
  8
AM_0
100
AcDbCircle
 10
2130.375007945477
 20
1435.399336894835
 30
0.0
 40
2.45873412263477
  0
LINE
  5
3DEE
330
1F
100
AcDbEntity
  8
AM_7
  6
AM_ISO08W050x2
100
AcDbLine
 10
2125.375007945477
 20
1435.399336894835
 30
0.0
 11
2135.375007945477
 21
1435.399336894835
 31
0.0
  0
LINE
  5
3DEF
330
1F
100
AcDbEntity
  8
AM_7
  6
AM_ISO08W050x2
100
AcDbLine
 10
2130.375007945477
 20
1430.399336894835
 30
0.0
 11
2130.375007945477
 21
1440.399336894835
 31
0.0
  0
ARC
  5
3DF0
330
1F
100
AcDbEntity
  8
AM_4
100
AcDbCircle
 10
2130.375007945477
 20
1409.399336894835
 30
0.0
 40
3.0
100
AcDbArc
 50
260.0
 51
170.0
  0
CIRCLE
  5
3DF1
330
1F
100
AcDbEntity
  8
AM_0
100
AcDbCircle
 10
2130.375007945477
 20
1409.399336894835
 30
0.0
 40
2.45873412263477
  0
LINE
  5
3DF2
330
1F
100
AcDbEntity
  8
AM_7
  6
AM_ISO08W050x2
100
AcDbLine
 10
2125.375007945477
 20
1409.399336894835
 30
0.0
 11
2135.375007945477
 21
1409.399336894835
 31
0.0
  0
LINE
  5
3DF3
330
1F
100
AcDbEntity
  8
AM_7
  6
AM_ISO08W050x2
100
AcDbLine
 10
2130.375007945477
 20
1404.399336894835
 30
0.0
 11
2130.375007945477
 21
1414.399336894835
 31
0.0
  0
ARC
  5
3DF4
330
1F
100
AcDbEntity
  8
AM_4
100
AcDbCircle
 10
2200.375007945477
 20
1409.399336894835
 30
0.0
 40
3.0
100
AcDbArc
 50
260.0
 51
170.0
  0
CIRCLE
  5
3DF5
330
1F
100
AcDbEntity
  8
AM_0
100
AcDbCircle
 10
2200.375007945477
 20
1409.399336894835
 30
0.0
 40
2.45873412263477
  0
LINE
  5
3DF6
330
1F
100
AcDbEntity
  8
AM_7
  6
AM_ISO08W050x2
100
AcDbLine
 10
2195.375007945477
 20
1409.399336894835
 30
0.0
 11
2205.375007945477
 21
1409.399336894835
 31
0.0
  0
LINE
  5
3DF7
330
1F
100
AcDbEntity
  8
AM_7
  6
AM_ISO08W050x2
100
AcDbLine
 10
2200.375007945477
 20
1404.399336894835
 30
0.0
 11
2200.375007945477
 21
1414.399336894835
 31
0.0
  0
ARC
  5
3DF8
330
1F
100
AcDbEntity
  8
AM_4
100
AcDbCircle
 10
2200.375007945477
 20
1435.399336894835
 30
0.0
 40
3.0
100
AcDbArc
 50
260.0
 51
170.0
  0
CIRCLE
  5
3DF9
330
1F
100
AcDbEntity
  8
AM_0
100
AcDbCircle
 10
2200.375007945477
 20
1435.399336894835
 30
0.0
 40
2.45873412263477
  0
LINE
  5
3DFA
330
1F
100
AcDbEntity
  8
AM_7
  6
AM_ISO08W050x2
100
AcDbLine
 10
2195.375007945477
 20
1435.399336894835
 30
0.0
 11
2205.375007945477
 21
1435.399336894835
 31
0.0
  0
LINE
  5
3DFB
330
1F
100
AcDbEntity
  8
AM_7
  6
AM_ISO08W050x2
100
AcDbLine
 10
2200.375007945477
 20
1430.399336894835
 30
0.0
 11
2200.375007945477
 21
1440.399336894835
 31
0.0
  0
ARC
  5
3DFC
330
1F
100
AcDbEntity
  8
AM_4
100
AcDbCircle
 10
2134.375007945477
 20
1254.39650602722
 30
0.0
 40
3.0
100
AcDbArc
 50
260.0
 51
170.0
  0
CIRCLE
  5
3DFD
330
1F
100
AcDbEntity
  8
AM_0
100
AcDbCircle
 10
2134.375007945477
 20
1254.39650602722
 30
0.0
 40
2.45873412263477
  0
LINE
  5
3DFE
330
1F
100
AcDbEntity
  8
AM_7
  6
AM_ISO08W050x2
100
AcDbLine
 10
2129.375007945477
 20
1254.39650602722
 30
0.0
 11
2139.375007945477
 21
1254.39650602722
 31
0.0
  0
LINE
  5
3DFF
330
1F
100
AcDbEntity
  8
AM_7
  6
AM_ISO08W050x2
100
AcDbLine
 10
2134.375007945477
 20
1249.39650602722
 30
0.0
 11
2134.375007945477
 21
1259.39650602722
 31
0.0
  0
ARC
  5
3E00
330
1F
100
AcDbEntity
  8
AM_4
100
AcDbCircle
 10
2134.375007945477
 20
1222.39650602722
 30
0.0
 40
3.0
100
AcDbArc
 50
260.0
 51
170.0
  0
CIRCLE
  5
3E01
330
1F
100
AcDbEntity
  8
AM_0
100
AcDbCircle
 10
2134.375007945477
 20
1222.39650602722
 30
0.0
 40
2.45873412263477
  0
LINE
  5
3E02
330
1F
100
AcDbEntity
  8
AM_7
  6
AM_ISO08W050x2
100
AcDbLine
 10
2129.375007945477
 20
1222.39650602722
 30
0.0
 11
2139.375007945477
 21
1222.39650602722
 31
0.0
  0
LINE
  5
3E03
330
1F
100
AcDbEntity
  8
AM_7
  6
AM_ISO08W050x2
100
AcDbLine
 10
2134.375007945477
 20
1217.39650602722
 30
0.0
 11
2134.375007945477
 21
1227.39650602722
 31
0.0
  0
ARC
  5
3E04
330
1F
100
AcDbEntity
  8
AM_4
100
AcDbCircle
 10
2196.375007945477
 20
1254.39650602722
 30
0.0
 40
3.0
100
AcDbArc
 50
260.0
 51
170.0
  0
CIRCLE
  5
3E05
330
1F
100
AcDbEntity
  8
AM_0
100
AcDbCircle
 10
2196.375007945477
 20
1254.39650602722
 30
0.0
 40
2.45873412263477
  0
LINE
  5
3E06
330
1F
100
AcDbEntity
  8
AM_7
  6
AM_ISO08W050x2
100
AcDbLine
 10
2191.375007945477
 20
1254.39650602722
 30
0.0
 11
2201.375007945477
 21
1254.39650602722
 31
0.0
  0
LINE
  5
3E07
330
1F
100
AcDbEntity
  8
AM_7
  6
AM_ISO08W050x2
100
AcDbLine
 10
2196.375007945477
 20
1249.39650602722
 30
0.0
 11
2196.375007945477
 21
1259.39650602722
 31
0.0
  0
ARC
  5
3E08
330
1F
100
AcDbEntity
  8
AM_4
100
AcDbCircle
 10
2196.375007945477
 20
1222.39650602722
 30
0.0
 40
3.0
100
AcDbArc
 50
260.0
 51
170.0
  0
CIRCLE
  5
3E09
330
1F
100
AcDbEntity
  8
AM_0
100
AcDbCircle
 10
2196.375007945477
 20
1222.39650602722
 30
0.0
 40
2.45873412263477
  0
LINE
  5
3E0A
330
1F
100
AcDbEntity
  8
AM_7
  6
AM_ISO08W050x2
100
AcDbLine
 10
2191.375007945477
 20
1222.39650602722
 30
0.0
 11
2201.375007945477
 21
1222.39650602722
 31
0.0
  0
LINE
  5
3E0D
330
1F
100
AcDbEntity
  8
AM_7
  6
AM_ISO08W050x2
100
AcDbLine
 10
2132.875007945477
 20
1303.243672823083
 30
0.0
 11
2132.875007945477
 21
1295.243672823083
 31
0.0
1001
GENIUS_GENODEF_13
1002
{
1000
HIER
1070
     0
1002
}
1002
{
1000
MANEDIT
1070
     0
1002
}
1002
{
1000
NOSEL
1070
     0
1002
}
1002
{
1000
BEHIND
1070
     0
1002
}
1002
{
1000
OTHER
1070
     0
1002
}
1002
{
1000
REACTOR
1002
}
1001
GENIUS_GENOBJ-N-CEN_13
1002
{
1000
OWNER
1000
GEN
1002
}
1001
GENIUS_GENCEN_19
1002
{
1040
3.0
1002
}
  0
LINE
  5
3E11
330
1F
100
AcDbEntity
  8
AM_7
  6
AM_ISO08W050x2
100
AcDbLine
 10
2197.875007945476
 20
1303.243672823083
 30
0.0
 11
2197.875007945476
 21
1295.243672823083
 31
0.0
1001
GENIUS_GENODEF_13
1002
{
1000
HIER
1070
     0
1002
}
1002
{
1000
MANEDIT
1070
     0
1002
}
1002
{
1000
NOSEL
1070
     0
1002
}
1002
{
1000
BEHIND
1070
     0
1002
}
1002
{
1000
OTHER
1070
     0
1002
}
1002
{
1000
REACTOR
1002
}
1001
GENIUS_GENOBJ-N-CEN_13
1002
{
1000
OWNER
1000
GEN
1002
}
1001
GENIUS_GENCEN_19
1002
{
1040
3.0
1002
}
  0
LINE
  5
3E13
330
1F
100
AcDbEntity
  8
AM_VIS
100
AcDbLine
 10
2071.748422956813
 20
1298.243672823083
 30
0.0
 11
2071.748422956813
 21
1300.243672823083
 31
0.0
  0
LINE
  5
3E14
330
1F
100
AcDbEntity
  8
AM_VIS
100
AcDbLine
 10
2058.748422956814
 20
1298.243672823083
 30
0.0
 11
2058.748422956814
 21
1300.243672823083
 31
0.0
  0
LINE
  5
3E15
330
1F
100
AcDbEntity
  8
AM_7
  6
AM_ISO08W050x2
100
AcDbLine
 10
2065.248422956813
 20
1303.243672823083
 30
0.0
 11
2065.248422956813
 21
1295.243672823083
 31
0.0
1001
GENIUS_GENODEF_13
1002
{
1000
HIER
1070
     0
1002
}
1002
{
1000
MANEDIT
1070
     0
1002
}
1002
{
1000
NOSEL
1070
     0
1002
}
1002
{
1000
BEHIND
1070
     0
1002
}
1002
{
1000
OTHER
1070
     0
1002
}
1002
{
1000
REACTOR
1002
}
1001
GENIUS_GENOBJ-N-CEN_13
1002
{
1000
OWNER
1000
GEN
1002
}
1001
GENIUS_GENCEN_19
1002
{
1040
3.0
1002
}
  0
LINE
  5
3E16
330
1F
100
AcDbEntity
  8
AM_VIS
100
AcDbLine
 10
2058.748422956814
 20
1298.243672823083
 30
0.0
 11
2071.748422956813
 21
1298.243672823083
 31
0.0
  0
LINE
  5
3E19
330
1F
100
AcDbEntity
  8
AM_7
  6
AM_ISO08W050x2
100
AcDbLine
 10
2283.892191490654
 20
1303.243672823083
 30
0.0
 11
2283.892191490654
 21
1295.243672823083
 31
0.0
1001
GENIUS_GENODEF_13
1002
{
1000
HIER
1070
     0
1002
}
1002
{
1000
MANEDIT
1070
     0
1002
}
1002
{
1000
NOSEL
1070
     0
1002
}
1002
{
1000
BEHIND
1070
     0
1002
}
1002
{
1000
OTHER
1070
     0
1002
}
1002
{
1000
REACTOR
1002
}
1001
GENIUS_GENOBJ-N-CEN_13
1002
{
1000
OWNER
1000
GEN
1002
}
1001
GENIUS_GENCEN_19
1002
{
1040
3.0
1002
}
  0
LINE
  5
3E1D
330
1F
100
AcDbEntity
  8
AM_7
  6
AM_ISO08W050x2
100
AcDbLine
 10
2346.218531152617
 20
1303.243672823083
 30
0.0
 11
2346.218531152617
 21
1295.243672823083
 31
0.0
1001
GENIUS_GENODEF_13
1002
{
1000
HIER
1070
     0
1002
}
1002
{
1000
MANEDIT
1070
     0
1002
}
1002
{
1000
NOSEL
1070
     0
1002
}
1002
{
1000
BEHIND
1070
     0
1002
}
1002
{
1000
OTHER
1070
     0
1002
}
1002
{
1000
REACTOR
1002
}
1001
GENIUS_GENOBJ-N-CEN_13
1002
{
1000
OWNER
1000
GEN
1002
}
1001
GENIUS_GENCEN_19
1002
{
1040
3.0
1002
}
  0
LINE
  5
3E21
330
1F
100
AcDbEntity
  8
AM_7
  6
AM_ISO08W050x2
100
AcDbLine
 10
2411.218531152617
 20
1303.243672823083
 30
0.0
 11
2411.218531152617
 21
1295.243672823083
 31
0.0
1001
GENIUS_GENODEF_13
1002
{
1000
HIER
1070
     0
1002
}
1002
{
1000
MANEDIT
1070
     0
1002
}
1002
{
1000
NOSEL
1070
     0
1002
}
1002
{
1000
BEHIND
1070
     0
1002
}
1002
{
1000
OTHER
1070
     0
1002
}
1002
{
1000
REACTOR
1002
}
1001
GENIUS_GENOBJ-N-CEN_13
1002
{
1000
OWNER
1000
GEN
1002
}
1001
GENIUS_GENCEN_19
1002
{
1040
3.0
1002
}
  0
DIMENSION
  5
3E23
330
1F
100
AcDbEntity
  8
AM_5
100
AcDbDimension
  2
*D8
 10
2244.036585220898
 20
1300.243672823083
 30
0.0
 11
2244.036585220897
 21
1285.133539949068
 31
0.0
 70
   160
  1
L2
 71
     5
 42
2.0
  3
AM_ISO$0
100
AcDbAlignedDimension
 13
2204.375007945477
 23
1298.243672823083
 33
0.0
 14
2213.375007945477
 24
1300.243672823083
 34
0.0
 50
90.0
100
AcDbRotatedDimension
1001
ACAD
1000
DSTYLE
1002
{
1070
    40
1040
1.5
1070
   272
1070
     8
1002
}
  0
DIMENSION
  5
3E24
330
1F
100
AcDbEntity
  8
AM_5
100
AcDbDimension
  2
*D9
 10
2230.036585220898
 20
1355.743672823083
 30
0.0
 11
2226.286585220897
 21
1327.993672823083
 31
0.0
 70
    32
  1
L1
 71
     5
 42
55.5
  3
AM_ISO$0
100
AcDbAlignedDimension
 13
2213.375007945477
 23
1300.243672823083
 33
0.0
 14
2213.375007945477
 24
1355.743672823083
 34
0.0
 50
90.0
100
AcDbRotatedDimension
1001
ACAD
1000
DSTYLE
1002
{
1070
    40
1040
1.5
1070
   144
1040
1.0
1070
   272
1070
     8
1002
}
  0
DIMENSION
  5
3E25
330
1F
100
AcDbEntity
  8
AM_5
100
AcDbDimension
  2
*D10
 10
2244.036585220898
 20
1367.743672823083
 30
0.0
 11
2240.286585220898
 21
1333.993672823084
 31
0.0
 70
    32
  1
L
 71
     5
 42
67.5
  3
AM_ISO$0
100
AcDbAlignedDimension
 13
2213.375007945477
 23
1300.243672823083
 33
0.0
 14
2207.875007945477
 24
1367.743672823083
 34
0.0
 50
90.0
100
AcDbRotatedDimension
1001
ACAD
1000
DSTYLE
1002
{
1070
    40
1040
1.5
1070
   272
1070
     8
1002
}
  0
INSERT
  5
3E26
330
1F
100
AcDbEntity
  8
AM_5
100
AcDbBlockReference
  2
*S13
 10
0.0
 20
0.0
 30
0.0
  0
TEXT
  5
3E27
330
1F
100
AcDbEntity
  8
AM_5
100
AcDbText
 10
2092.318789621132
 20
1290.007303626682
 30
0.0
 40
4.5
  1
PT1/8
100
AcDbText
  0
POINT
  5
3E28
330
1F
100
AcDbEntity
  8
0
 60
     1
100
AcDbPoint
 10
0.0
 20
-296.1555480503189
 30
0.0
1001
GENIUS_GENOLIS_13
1002
{
1000
ENT
1005
3DC1
1005
3DC0
1005
3DBF
1005
3DBE
1002
}
1001
GENIUS_GENODEF_13
1002
{
1000
HIER
1070
    10
1002
}
1002
{
1000
MANEDIT
1070
     0
1002
}
1002
{
1000
NOSEL
1070
     0
1002
}
1002
{
1000
BEHIND
1070
     0
1002
}
1002
{
1000
OTHER
1070
     0
1002
}
1002
{
1000
REACTOR
1002
}
1001
GENIUS_GENOENT_13
1002
{
1000
MYREF
1005
3E28
1002
}
1002
{
1000
GRP
1005
0
1002
}
1001
GENIUS_GENOBJ-N-CRS_13
1002
{
1000
OWNER
1000
GEN
1002
}
  0
POINT
  5
3E29
330
1F
100
AcDbEntity
  8
0
 60
     1
100
AcDbPoint
 10
0.0
 20
-296.1555480503189
 30
0.0
1001
GENIUS_GENOLIS_13
1002
{
1000
ENT
1005
3DBD
1005
3DBC
1005
3DBB
1005
3DBA
1002
}
1001
GENIUS_GENOENT_13
1002
{
1000
MYREF
1005
3E29
1002
}
1002
{
1000
GRP
1005
0
1002
}
1001
GENIUS_GENOBJ-N-CRS_13
1002
{
1000
OWNER
1000
GEN
1002
}
1001
GENIUS_GENODEF_13
1002
{
1000
HIER
1070
    10
1002
}
1002
{
1000
MANEDIT
1070
     0
1002
}
1002
{
1000
NOSEL
1070
     0
1002
}
1002
{
1000
BEHIND
1070
     0
1002
}
1002
{
1000
OTHER
1070
     0
1002
}
1002
{
1000
REACTOR
1002
}
  0
POINT
  5
3E2A
330
1F
100
AcDbEntity
  8
0
 60
     1
100
AcDbPoint
 10
0.0
 20
-296.1555480503189
 30
0.0
1001
GENIUS_GENOBJ-N-CRS_13
1002
{
1000
OWNER
1000
GEN
1002
}
1001
GENIUS_GENODEF_13
1002
{
1000
HIER
1070
    10
1002
}
1002
{
1000
MANEDIT
1070
     0
1002
}
1002
{
1000
NOSEL
1070
     0
1002
}
1002
{
1000
BEHIND
1070
     0
1002
}
1002
{
1000
OTHER
1070
     0
1002
}
1002
{
1000
REACTOR
1002
}
1001
GENIUS_GENOLIS_13
1002
{
1000
ENT
1005
3DB9
1005
3DB8
1005
3DB7
1005
3DB6
1002
}
1001
GENIUS_GENOENT_13
1002
{
1000
MYREF
1005
3E2A
1002
}
1002
{
1000
GRP
1005
0
1002
}
  0
POINT
  5
3E2B
330
1F
100
AcDbEntity
  8
0
 60
     1
100
AcDbPoint
 10
0.0
 20
-296.1555480503189
 30
0.0
1001
GENIUS_GENOLIS_13
1002
{
1000
ENT
1005
3DB5
1005
3DB4
1005
3DB3
1005
3DB2
1002
}
1001
GENIUS_GENOENT_13
1002
{
1000
MYREF
1005
3E2B
1002
}
1002
{
1000
GRP
1005
0
1002
}
1001
GENIUS_GENOBJ-N-CRS_13
1002
{
1000
OWNER
1000
GEN
1002
}
1001
GENIUS_GENODEF_13
1002
{
1000
HIER
1070
    10
1002
}
1002
{
1000
MANEDIT
1070
     0
1002
}
1002
{
1000
NOSEL
1070
     0
1002
}
1002
{
1000
BEHIND
1070
     0
1002
}
1002
{
1000
OTHER
1070
     0
1002
}
1002
{
1000
REACTOR
1002
}
  0
POINT
  5
3E2C
330
1F
100
AcDbEntity
  8
0
 60
     1
100
AcDbPoint
 10
0.0
 20
-296.1555480503189
 30
0.0
1001
GENIUS_GENOBJ-N-CRS_13
1002
{
1000
OWNER
1000
GEN
1002
}
1001
GENIUS_GENOLIS_13
1002
{
1000
ENT
1005
3DCB
1005
3DCA
1005
3DC9
1005
3DC8
1002
}
1001
GENIUS_GENOENT_13
1002
{
1000
MYREF
1005
3E2C
1002
}
1002
{
1000
GRP
1005
0
1002
}
1001
GENIUS_GENODEF_13
1002
{
1000
HIER
1070
    10
1002
}
1002
{
1000
MANEDIT
1070
     0
1002
}
1002
{
1000
NOSEL
1070
     0
1002
}
1002
{
1000
BEHIND
1070
     0
1002
}
1002
{
1000
OTHER
1070
     0
1002
}
1002
{
1000
REACTOR
1002
}
  0
POINT
  5
3E2D
330
1F
100
AcDbEntity
  8
0
 60
     1
100
AcDbPoint
 10
0.0
 20
-296.1555480503189
 30
0.0
1001
GENIUS_GENODEF_13
1002
{
1000
HIER
1070
    10
1002
}
1002
{
1000
MANEDIT
1070
     0
1002
}
1002
{
1000
NOSEL
1070
     0
1002
}
1002
{
1000
BEHIND
1070
     0
1002
}
1002
{
1000
OTHER
1070
     0
1002
}
1002
{
1000
REACTOR
1002
}
1001
GENIUS_GENOBJ-N-CRS_13
1002
{
1000
OWNER
1000
GEN
1002
}
1001
GENIUS_GENOENT_13
1002
{
1000
MYREF
1005
3E2D
1002
}
1002
{
1000
GRP
1005
0
1002
}
1001
GENIUS_GENOLIS_13
1002
{
1000
ENT
1005
3DC7
1005
3DC6
1005
3DC5
1005
3DC4
1002
}
  0
LINE
  5
3E6D
330
1F
100
AcDbEntity
  8
AM_VIS
100
AcDbLine
 10
2139.375007945477
 20
1298.243672823083
 30
0.0
 11
2139.375007945477
 21
1300.243672823083
 31
0.0
  0
LINE
  5
3E6E
330
1F
100
AcDbEntity
  8
AM_VIS
100
AcDbLine
 10
2126.375007945477
 20
1298.243672823083
 30
0.0
 11
2126.375007945477
 21
1300.243672823083
 31
0.0
  0
LINE
  5
3E6F
330
1F
100
AcDbEntity
  8
AM_VIS
100
AcDbLine
 10
2126.375007945477
 20
1298.243672823083
 30
0.0
 11
2139.375007945477
 21
1298.243672823083
 31
0.0
  0
LINE
  5
3E72
330
1F
100
AcDbEntity
  8
AM_VIS
100
AcDbLine
 10
2204.375007945477
 20
1355.743672823083
 30
0.0
 11
2204.375007945477
 21
1357.743672823083
 31
0.0
  0
LINE
  5
3E73
330
1F
100
AcDbEntity
  8
AM_VIS
100
AcDbLine
 10
2191.375007945477
 20
1355.743672823083
 30
0.0
 11
2191.375007945477
 21
1357.743672823083
 31
0.0
  0
LINE
  5
3E74
330
1F
100
AcDbEntity
  8
AM_VIS
100
AcDbLine
 10
2352.718531152618
 20
1355.743672823083
 30
0.0
 11
2352.718531152618
 21
1357.743672823083
 31
0.0
  0
LINE
  5
3E75
330
1F
100
AcDbEntity
  8
AM_VIS
100
AcDbLine
 10
2339.718531152617
 20
1355.743672823083
 30
0.0
 11
2339.718531152617
 21
1357.743672823083
 31
0.0
  0
LINE
  5
3E76
330
1F
100
AcDbEntity
  8
AM_VIS
100
AcDbLine
 10
2417.718531152618
 20
1355.743672823083
 30
0.0
 11
2417.718531152618
 21
1357.743672823083
 31
0.0
  0
LINE
  5
3E77
330
1F
100
AcDbEntity
  8
AM_VIS
100
AcDbLine
 10
2404.718531152618
 20
1355.743672823083
 30
0.0
 11
2404.718531152618
 21
1357.743672823083
 31
0.0
  0
LINE
  5
3E78
330
1F
100
AcDbEntity
  8
AM_VIS
100
AcDbLine
 10
2204.375007945477
 20
1298.243672823083
 30
0.0
 11
2204.375007945477
 21
1300.243672823083
 31
0.0
  0
LINE
  5
3E79
330
1F
100
AcDbEntity
  8
AM_VIS
100
AcDbLine
 10
2191.375007945477
 20
1298.243672823083
 30
0.0
 11
2191.375007945477
 21
1300.243672823083
 31
0.0
  0
LINE
  5
3E7A
330
1F
100
AcDbEntity
  8
AM_VIS
100
AcDbLine
 10
2191.375007945477
 20
1298.243672823083
 30
0.0
 11
2204.375007945477
 21
1298.243672823083
 31
0.0
  0
LINE
  5
3E7B
330
1F
100
AcDbEntity
  8
AM_VIS
100
AcDbLine
 10
2290.392191490654
 20
1298.243672823083
 30
0.0
 11
2290.392191490654
 21
1300.243672823083
 31
0.0
  0
LINE
  5
3E7C
330
1F
100
AcDbEntity
  8
AM_VIS
100
AcDbLine
 10
2277.392191490654
 20
1298.243672823083
 30
0.0
 11
2277.392191490654
 21
1300.243672823083
 31
0.0
  0
LINE
  5
3E7D
330
1F
100
AcDbEntity
  8
AM_VIS
100
AcDbLine
 10
2277.392191490654
 20
1298.243672823083
 30
0.0
 11
2290.392191490654
 21
1298.243672823083
 31
0.0
  0
LINE
  5
3E7E
330
1F
100
AcDbEntity
  8
AM_VIS
100
AcDbLine
 10
2352.718531152618
 20
1298.243672823083
 30
0.0
 11
2352.718531152618
 21
1300.243672823083
 31
0.0
  0
LINE
  5
3E7F
330
1F
100
AcDbEntity
  8
AM_VIS
100
AcDbLine
 10
2339.718531152617
 20
1298.243672823083
 30
0.0
 11
2339.718531152617
 21
1300.243672823083
 31
0.0
  0
LINE
  5
3E80
330
1F
100
AcDbEntity
  8
AM_VIS
100
AcDbLine
 10
2339.718531152617
 20
1298.243672823083
 30
0.0
 11
2352.718531152618
 21
1298.243672823083
 31
0.0
  0
LINE
  5
3E81
330
1F
100
AcDbEntity
  8
AM_VIS
100
AcDbLine
 10
2417.718531152618
 20
1298.243672823083
 30
0.0
 11
2417.718531152618
 21
1300.243672823083
 31
0.0
  0
LINE
  5
3E82
330
1F
100
AcDbEntity
  8
AM_VIS
100
AcDbLine
 10
2404.718531152618
 20
1298.243672823083
 30
0.0
 11
2404.718531152618
 21
1300.243672823083
 31
0.0
  0
LINE
  5
3E83
330
1F
100
AcDbEntity
  8
AM_VIS
100
AcDbLine
 10
2404.718531152618
 20
1298.243672823083
 30
0.0
 11
2417.718531152618
 21
1298.243672823083
 31
0.0
  0
CIRCLE
  5
3E84
330
1F
100
AcDbEntity
  8
0
100
AcDbCircle
 10
2132.875007945477
 20
1238.39650602722
 30
0.0
 40
6.5
  0
CIRCLE
  5
3E85
330
1F
100
AcDbEntity
  8
0
100
AcDbCircle
 10
2197.875007945477
 20
1238.39650602722
 30
0.0
 40
6.5
  0
LINE
  5
3E86
330
1F
100
AcDbEntity
  8
AM_VIS
100
AcDbLine
 10
2071.748422956813
 20
1355.743672823083
 30
0.0
 11
2071.748422956813
 21
1357.743672823083
 31
0.0
  0
LINE
  5
3E87
330
1F
100
AcDbEntity
  8
AM_VIS
100
AcDbLine
 10
2058.748422956814
 20
1355.743672823083
 30
0.0
 11
2058.748422956814
 21
1357.743672823083
 31
0.0
  0
LINE
  5
3E88
330
1F
100
AcDbEntity
  8
AM_VIS
100
AcDbLine
 10
2290.392191490654
 20
1355.743672823083
 30
0.0
 11
2290.392191490654
 21
1357.743672823083
 31
0.0
  0
LINE
  5
3E89
330
1F
100
AcDbEntity
  8
AM_VIS
100
AcDbLine
 10
2277.392191490654
 20
1355.743672823083
 30
0.0
 11
2277.392191490654
 21
1357.743672823083
 31
0.0
  0
LINE
  5
3FFE
330
1F
100
AcDbEntity
  8
0
100
AcDbLine
 10
2373.179569016111
 20
1786.474785685152
 30
0.0
 11
2373.179569016111
 21
1709.034785685153
 31
0.0
  0
LINE
  5
3FFF
330
1F
100
AcDbEntity
  8
0
100
AcDbLine
 10
2389.679569016111
 20
1786.474785685152
 30
0.0
 11
2389.679569016111
 21
1709.034785685153
 31
0.0
  0
LINE
  5
4000
330
1F
100
AcDbEntity
  8
0
100
AcDbLine
 10
2406.179569016111
 20
1786.474785685152
 30
0.0
 11
2406.179569016111
 21
1709.034785685153
 31
0.0
  0
LINE
  5
4001
330
1F
100
AcDbEntity
  8
0
100
AcDbLine
 10
2355.579569016111
 20
1786.474785685152
 30
0.0
 11
2355.579569016111
 21
1709.034785685153
 31
0.0
  0
TEXT
  5
4002
330
1F
100
AcDbEntity
  8
0
100
AcDbText
 10
2392.90099758754
 20
1724.984785685152
 30
0.0
 40
3.3
  1
185.5
 41
0.8
  7
CHINESET
 72
     4
 11
2397.929569016111
 21
1726.634785685152
 31
0.0
100
AcDbText
  0
TEXT
  5
4003
330
1F
100
AcDbEntity
  8
0
100
AcDbText
 10
2392.90099758754
 20
1717.944785685153
 30
0.0
 40
3.3
  1
210.5
 41
0.8
  7
CHINESET
 72
     4
 11
2397.929569016111
 21
1719.594785685153
 31
0.0
100
AcDbText
  0
TEXT
  5
4004
330
1F
100
AcDbEntity
  8
0
100
AcDbText
 10
2392.649569016111
 20
1710.904785685153
 30
0.0
 40
3.3
  1
235.5
 41
0.8
  7
CHINESET
 72
     4
 11
2397.929569016111
 21
1712.554785685153
 31
0.0
100
AcDbText
  0
LINE
  5
4005
330
1F
100
AcDbEntity
  8
0
100
AcDbLine
 10
2355.579569016111
 20
1709.034785685153
 30
0.0
 11
2422.679569016111
 21
1709.034785685152
 31
0.0
  0
LINE
  5
4006
330
1F
100
AcDbEntity
  8
0
100
AcDbLine
 10
2355.579569016111
 20
1716.074785685152
 30
0.0
 11
2422.679569016111
 21
1716.074785685152
 31
0.0
  0
LINE
  5
4007
330
1F
100
AcDbEntity
  8
0
100
AcDbLine
 10
2355.579569016111
 20
1730.154785685153
 30
0.0
 11
2422.679569016111
 21
1730.154785685152
 31
0.0
  0
LINE
  5
4008
330
1F
100
AcDbEntity
  8
0
100
AcDbLine
 10
2355.579569016111
 20
1723.114785685153
 30
0.0
 11
2422.679569016111
 21
1723.114785685152
 31
0.0
  0
TEXT
  5
4009
330
1F
100
AcDbEntity
  8
0
100
AcDbText
 10
2361.236711873254
 20
1724.984785685153
 30
0.0
 40
3.3
  1
150
 41
0.8
  7
CHINESET
 72
     4
 11
2364.379569016112
 21
1726.634785685153
 31
0.0
100
AcDbText
  0
TEXT
  5
400A
330
1F
100
AcDbEntity
  8
0
100
AcDbText
 10
2361.236711873254
 20
1717.944785685153
 30
0.0
 40
3.3
  1
175
 41
0.8
  7
CHINESET
 72
     4
 11
2364.379569016112
 21
1719.594785685153
 31
0.0
100
AcDbText
  0
TEXT
  5
400B
330
1F
100
AcDbEntity
  8
0
100
AcDbText
 10
2360.985283301826
 20
1710.904785685153
 30
0.0
 40
3.3
  1
200
 41
0.8
  7
CHINESET
 72
     4
 11
2364.379569016112
 21
1712.554785685153
 31
0.0
100
AcDbText
  0
TEXT
  5
400C
330
1F
100
AcDbEntity
  8
0
100
AcDbText
 10
2376.149569016111
 20
1710.904785685153
 30
0.0
 40
3.3
  1
247.5
 41
0.8
  7
CHINESET
 72
     4
 11
2381.429569016111
 21
1712.554785685153
 31
0.0
100
AcDbText
  0
TEXT
  5
400D
330
1F
100
AcDbEntity
  8
0
100
AcDbText
 10
2376.400997587539
 20
1724.984785685152
 30
0.0
 40
3.3
  1
197.5
 41
0.8
  7
CHINESET
 72
     4
 11
2381.429569016111
 21
1726.634785685152
 31
0.0
100
AcDbText
  0
TEXT
  5
400E
330
1F
100
AcDbEntity
  8
0
100
AcDbText
 10
2376.149569016111
 20
1717.944785685153
 30
0.0
 40
3.3
  1
222.5
 41
0.8
  7
CHINESET
 72
     4
 11
2381.429569016111
 21
1719.594785685153
 31
0.0
100
AcDbText
  0
TEXT
  5
400F
330
1F
100
AcDbEntity
  8
0
100
AcDbText
 10
2412.553621907841
 20
1710.904785685153
 30
0.0
 40
3.3
  1
31
 41
0.8
  7
CHINESET
 72
     4
 11
2414.125050479269
 21
1712.554785685153
 31
0.0
100
AcDbText
  0
TEXT
  5
4010
330
1F
100
AcDbEntity
  8
0
100
AcDbText
 10
2412.553621907841
 20
1717.944785685153
 30
0.0
 40
3.3
  1
31
 41
0.8
  7
CHINESET
 72
     4
 11
2414.125050479269
 21
1719.594785685153
 31
0.0
100
AcDbText
  0
TEXT
  5
4011
330
1F
100
AcDbEntity
  8
0
100
AcDbText
 10
2412.553621907841
 20
1724.984785685153
 30
0.0
 40
3.3
  1
31
 41
0.8
  7
CHINESET
 72
     4
 11
2414.125050479269
 21
1726.634785685153
 31
0.0
100
AcDbText
  0
TEXT
  5
4012
330
1F
100
AcDbEntity
  8
0
100
AcDbText
 10
2393.906711873254
 20
1774.264785685153
 30
0.0
 40
3.3
  1
55.5
 41
0.8
  7
CHINESET
 72
     4
 11
2397.929569016111
 21
1775.914785685152
 31
0.0
100
AcDbText
  0
TEXT
  5
4013
330
1F
100
AcDbEntity
  8
0
100
AcDbText
 10
2393.906711873254
 20
1767.224785685153
 30
0.0
 40
3.3
  1
65.5
 41
0.8
  7
CHINESET
 72
     4
 11
2397.929569016111
 21
1768.874785685152
 31
0.0
100
AcDbText
  0
TEXT
  5
4014
330
1F
100
AcDbEntity
  8
0
100
AcDbText
 10
2393.906711873254
 20
1760.184785685153
 30
0.0
 40
3.3
  1
75.5
 41
0.8
  7
CHINESET
 72
     4
 11
2397.929569016111
 21
1761.834785685153
 31
0.0
100
AcDbText
  0
TEXT
  5
4015
330
1F
100
AcDbEntity
  8
0
100
AcDbText
 10
2393.906711873254
 20
1753.144785685152
 30
0.0
 40
3.3
  1
85.5
 41
0.8
  7
CHINESET
 72
     4
 11
2397.929569016111
 21
1754.794785685152
 31
0.0
100
AcDbText
  0
TEXT
  5
4016
330
1F
100
AcDbEntity
  8
0
100
AcDbText
 10
2393.152426158969
 20
1746.104785685153
 30
0.0
 40
3.3
  1
110.5
 41
0.8
  7
CHINESET
 72
     4
 11
2397.929569016111
 21
1747.754785685153
 31
0.0
100
AcDbText
  0
TEXT
  5
4017
330
1F
100
AcDbEntity
  8
0
100
AcDbText
 10
2392.90099758754
 20
1739.064785685152
 30
0.0
 40
3.3
  1
135.5
 41
0.8
  7
CHINESET
 72
     4
 11
2397.929569016111
 21
1740.714785685153
 31
0.0
100
AcDbText
  0
TEXT
  5
4018
330
1F
100
AcDbEntity
  8
0
100
AcDbText
 10
2392.90099758754
 20
1732.024785685152
 30
0.0
 40
3.3
  1
160.5
 41
0.8
  7
CHINESET
 72
     4
 11
2397.929569016111
 21
1733.674785685153
 31
0.0
100
AcDbText
  0
LINE
  5
4019
330
1F
100
AcDbEntity
  8
0
100
AcDbLine
 10
2355.579569016111
 20
1786.474785685152
 30
0.0
 11
2422.679569016111
 21
1786.474785685152
 31
0.0
  0
LINE
  5
401A
330
1F
100
AcDbEntity
  8
0
100
AcDbLine
 10
2355.579569016111
 20
1779.434785685152
 30
0.0
 11
2422.679569016111
 21
1779.434785685152
 31
0.0
  0
LINE
  5
401B
330
1F
100
AcDbEntity
  8
0
100
AcDbLine
 10
2355.579569016111
 20
1737.194785685153
 30
0.0
 11
2422.679569016111
 21
1737.194785685153
 31
0.0
  0
LINE
  5
401C
330
1F
100
AcDbEntity
  8
0
100
AcDbLine
 10
2355.579569016111
 20
1744.234785685153
 30
0.0
 11
2422.679569016111
 21
1744.234785685152
 31
0.0
  0
LINE
  5
401D
330
1F
100
AcDbEntity
  8
0
100
AcDbLine
 10
2355.579569016111
 20
1751.274785685152
 30
0.0
 11
2422.679569016111
 21
1751.274785685152
 31
0.0
  0
LINE
  5
401E
330
1F
100
AcDbEntity
  8
0
100
AcDbLine
 10
2355.579569016111
 20
1758.314785685153
 30
0.0
 11
2422.679569016111
 21
1758.314785685153
 31
0.0
  0
LINE
  5
401F
330
1F
100
AcDbEntity
  8
0
100
AcDbLine
 10
2355.579569016111
 20
1765.354785685152
 30
0.0
 11
2422.679569016111
 21
1765.354785685152
 31
0.0
  0
LINE
  5
4020
330
1F
100
AcDbEntity
  8
0
100
AcDbLine
 10
2355.579569016111
 20
1772.394785685152
 30
0.0
 11
2422.679569016111
 21
1772.394785685152
 31
0.0
  0
TEXT
  5
4021
330
1F
100
AcDbEntity
  8
0
100
AcDbText
 10
2395.218022867991
 20
1781.063708219122
 30
0.0
 40
3.3
  1
L
 41
0.8
  7
CHINESET
100
AcDbText
  0
TEXT
  5
4022
330
1F
100
AcDbEntity
  8
0
100
AcDbText
 10
2379.669282206663
 20
1781.063708219122
 30
0.0
 40
3.3
  1
L
 41
0.8
  7
CHINESET
100
AcDbText
  0
TEXT
  5
4023
330
1F
100
AcDbEntity
  8
0
100
AcDbText
 10
2356.801769020795
 20
1780.982194912098
 30
0.0
 40
4.0
  1
Stroke
 41
0.8
  7
CHINESET
100
AcDbText
  0
TEXT
  5
4024
330
1F
100
AcDbEntity
  8
0
100
AcDbText
 10
2361.236711873254
 20
1739.064785685152
 30
0.0
 40
3.3
  1
100
 41
0.8
  7
CHINESET
 72
     4
 11
2364.379569016112
 21
1740.714785685153
 31
0.0
100
AcDbText
  0
TEXT
  5
4025
330
1F
100
AcDbEntity
  8
0
100
AcDbText
 10
2361.236711873254
 20
1732.024785685152
 30
0.0
 40
3.3
  1
125
 41
0.8
  7
CHINESET
 72
     4
 11
2364.379569016112
 21
1733.674785685153
 31
0.0
100
AcDbText
  0
TEXT
  5
4026
330
1F
100
AcDbEntity
  8
0
100
AcDbText
 10
2376.400997587539
 20
1739.064785685152
 30
0.0
 40
3.3
  1
147.5
 41
0.8
  7
CHINESET
 72
     4
 11
2381.429569016111
 21
1740.714785685153
 31
0.0
100
AcDbText
  0
TEXT
  5
4027
330
1F
100
AcDbEntity
  8
0
100
AcDbText
 10
2376.400997587539
 20
1732.024785685152
 30
0.0
 40
3.3
  1
172.5
 41
0.8
  7
CHINESET
 72
     4
 11
2381.429569016111
 21
1733.674785685153
 31
0.0
100
AcDbText
  0
TEXT
  5
4028
330
1F
100
AcDbEntity
  8
0
100
AcDbText
 10
2377.406711873254
 20
1753.144785685152
 30
0.0
 40
3.3
  1
97.5
 41
0.8
  7
CHINESET
 72
     4
 11
2381.429569016111
 21
1754.794785685152
 31
0.0
100
AcDbText
  0
TEXT
  5
4029
330
1F
100
AcDbEntity
  8
0
100
AcDbText
 10
2376.400997587539
 20
1746.104785685153
 30
0.0
 40
3.3
  1
122.5
 41
0.8
  7
CHINESET
 72
     4
 11
2381.429569016111
 21
1747.754785685153
 31
0.0
100
AcDbText
  0
TEXT
  5
402A
330
1F
100
AcDbEntity
  8
0
100
AcDbText
 10
2362.242426158969
 20
1746.104785685153
 30
0.0
 40
3.3
  1
75
 41
0.8
  7
CHINESET
 72
     4
 11
2364.379569016112
 21
1747.754785685153
 31
0.0
100
AcDbText
  0
TEXT
  5
402B
330
1F
100
AcDbEntity
  8
0
100
AcDbText
 10
2362.242426158969
 20
1753.144785685152
 30
0.0
 40
3.3
  1
50
 41
0.8
  7
CHINESET
 72
     4
 11
2364.379569016112
 21
1754.794785685152
 31
0.0
100
AcDbText
  0
TEXT
  5
402C
330
1F
100
AcDbEntity
  8
0
100
AcDbText
 10
2377.406711873254
 20
1767.224785685153
 30
0.0
 40
3.3
  1
77.5
 41
0.8
  7
CHINESET
 72
     4
 11
2381.429569016111
 21
1768.874785685152
 31
0.0
100
AcDbText
  0
TEXT
  5
402D
330
1F
100
AcDbEntity
  8
0
100
AcDbText
 10
2362.242426158969
 20
1767.224785685153
 30
0.0
 40
3.3
  1
30
 41
0.8
  7
CHINESET
 72
     4
 11
2364.379569016112
 21
1768.874785685152
 31
0.0
100
AcDbText
  0
TEXT
  5
402E
330
1F
100
AcDbEntity
  8
0
100
AcDbText
 10
2377.406711873254
 20
1760.184785685153
 30
0.0
 40
3.3
  1
87.5
 41
0.8
  7
CHINESET
 72
     4
 11
2381.429569016111
 21
1761.834785685153
 31
0.0
100
AcDbText
  0
TEXT
  5
402F
330
1F
100
AcDbEntity
  8
0
100
AcDbText
 10
2362.242426158969
 20
1760.184785685153
 30
0.0
 40
3.3
  1
40
 41
0.8
  7
CHINESET
 72
     4
 11
2364.379569016112
 21
1761.834785685153
 31
0.0
100
AcDbText
  0
TEXT
  5
4030
330
1F
100
AcDbEntity
  8
0
100
AcDbText
 10
2377.406711873254
 20
1774.264785685153
 30
0.0
 40
3.3
  1
67.5
 41
0.8
  7
CHINESET
 72
     4
 11
2381.429569016111
 21
1775.914785685152
 31
0.0
100
AcDbText
  0
TEXT
  5
4031
330
1F
100
AcDbEntity
  8
0
100
AcDbText
 10
2362.242426158969
 20
1774.264785685153
 30
0.0
 40
3.3
  1
20
 41
0.8
  7
CHINESET
 72
     4
 11
2364.379569016112
 21
1775.914785685152
 31
0.0
100
AcDbText
  0
TEXT
  5
4032
330
1F
100
AcDbEntity
  8
0
100
AcDbText
 10
2398.484864595407
 20
1781.093577075547
 30
0.0
 40
3.3
  1
1
 41
0.8
  7
CHINESET
100
AcDbText
  0
TEXT
  5
4033
330
1F
100
AcDbEntity
  8
0
100
AcDbText
 10
2411.381361018814
 20
1781.063708219122
 30
0.0
 40
3.3
  1
L
 41
0.8
  7
CHINESET
100
AcDbText
  0
TEXT
  5
4034
330
1F
100
AcDbEntity
  8
0
100
AcDbText
 10
2412.553621907841
 20
1732.024785685152
 30
0.0
 40
3.3
  1
31
 41
0.8
  7
CHINESET
 72
     4
 11
2414.125050479269
 21
1733.674785685153
 31
0.0
100
AcDbText
  0
TEXT
  5
4035
330
1F
100
AcDbEntity
  8
0
100
AcDbText
 10
2412.176479050698
 20
1739.064785685152
 30
0.0
 40
3.3
  1
14
 41
0.8
  7
CHINESET
 72
     4
 11
2414.125050479269
 21
1740.714785685153
 31
0.0
100
AcDbText
  0
TEXT
  5
4036
330
1F
100
AcDbEntity
  8
0
100
AcDbText
 10
2412.176479050698
 20
1746.104785685153
 30
0.0
 40
3.3
  1
14
 41
0.8
  7
CHINESET
 72
     4
 11
2414.125050479269
 21
1747.754785685153
 31
0.0
100
AcDbText
  0
TEXT
  5
4037
330
1F
100
AcDbEntity
  8
0
100
AcDbText
 10
2414.417957256315
 20
1781.097577153444
 30
0.0
 40
3.3
  1
2
 41
0.8
  7
CHINESET
100
AcDbText
  0
LINE
  5
4038
330
1F
100
AcDbEntity
  8
0
100
AcDbLine
 10
2373.179569016112
 20
1473.959880506519
 30
0.0
 11
2373.179569016112
 21
1396.519880506519
 31
0.0
  0
LINE
  5
4039
330
1F
100
AcDbEntity
  8
0
100
AcDbLine
 10
2389.679569016112
 20
1473.959880506519
 30
0.0
 11
2389.679569016112
 21
1396.519880506519
 31
0.0
  0
LINE
  5
403A
330
1F
100
AcDbEntity
  8
0
100
AcDbLine
 10
2406.179569016112
 20
1473.959880506519
 30
0.0
 11
2406.179569016112
 21
1396.519880506519
 31
0.0
  0
LINE
  5
403B
330
1F
100
AcDbEntity
  8
0
100
AcDbLine
 10
2355.579569016112
 20
1473.959880506519
 30
0.0
 11
2355.579569016112
 21
1396.519880506519
 31
0.0
  0
TEXT
  5
403C
330
1F
100
AcDbEntity
  8
0
100
AcDbText
 10
2410.642426158969
 20
1398.389880506519
 30
0.0
 40
3.3
  1
50
 41
0.8
  7
CHINESET
 72
     4
 11
2412.779569016112
 21
1400.039880506519
 31
0.0
100
AcDbText
  0
TEXT
  5
403D
330
1F
100
AcDbEntity
  8
0
100
AcDbText
 10
2410.642426158969
 20
1405.429880506519
 30
0.0
 40
3.3
  1
50
 41
0.8
  7
CHINESET
 72
     4
 11
2412.779569016112
 21
1407.079880506518
 31
0.0
100
AcDbText
  0
TEXT
  5
403E
330
1F
100
AcDbEntity
  8
0
100
AcDbText
 10
2410.642426158969
 20
1412.469880506519
 30
0.0
 40
3.3
  1
50
 41
0.8
  7
CHINESET
 72
     4
 11
2412.779569016112
 21
1414.119880506518
 31
0.0
100
AcDbText
  0
LINE
  5
403F
330
1F
100
AcDbEntity
  8
0
100
AcDbLine
 10
2355.579569016112
 20
1396.519880506519
 30
0.0
 11
2422.679569016112
 21
1396.519880506519
 31
0.0
  0
LINE
  5
4040
330
1F
100
AcDbEntity
  8
0
100
AcDbLine
 10
2355.579569016112
 20
1403.559880506518
 30
0.0
 11
2422.679569016112
 21
1403.559880506518
 31
0.0
  0
LINE
  5
4041
330
1F
100
AcDbEntity
  8
0
100
AcDbLine
 10
2355.579569016112
 20
1417.639880506518
 30
0.0
 11
2422.679569016112
 21
1417.639880506518
 31
0.0
  0
LINE
  5
4042
330
1F
100
AcDbEntity
  8
0
100
AcDbLine
 10
2355.579569016112
 20
1410.599880506519
 30
0.0
 11
2422.679569016112
 21
1410.599880506518
 31
0.0
  0
TEXT
  5
4043
330
1F
100
AcDbEntity
  8
0
100
AcDbText
 10
2360.985283301826
 20
1398.389880506519
 30
0.0
 40
3.3
  1
200
 41
0.8
  7
CHINESET
 72
     4
 11
2364.379569016112
 21
1400.039880506519
 31
0.0
100
AcDbText
  0
TEXT
  5
4044
330
1F
100
AcDbEntity
  8
0
100
AcDbText
 10
2361.236711873255
 20
1405.429880506519
 30
0.0
 40
3.3
  1
175
 41
0.8
  7
CHINESET
 72
     4
 11
2364.379569016112
 21
1407.079880506519
 31
0.0
100
AcDbText
  0
TEXT
  5
4045
330
1F
100
AcDbEntity
  8
0
100
AcDbText
 10
2361.236711873255
 20
1412.469880506519
 30
0.0
 40
3.3
  1
150
 41
0.8
  7
CHINESET
 72
     4
 11
2364.379569016112
 21
1414.119880506518
 31
0.0
100
AcDbText
  0
TEXT
  5
4046
330
1F
100
AcDbEntity
  8
0
100
AcDbText
 10
2392.649569016112
 20
1398.389880506519
 30
0.0
 40
3.3
  1
235.5
 41
0.8
  7
CHINESET
 72
     4
 11
2397.929569016111
 21
1400.039880506519
 31
0.0
100
AcDbText
  0
TEXT
  5
4047
330
1F
100
AcDbEntity
  8
0
100
AcDbText
 10
2376.149569016112
 20
1398.389880506519
 30
0.0
 40
3.3
  1
247.5
 41
0.8
  7
CHINESET
 72
     4
 11
2381.429569016112
 21
1400.039880506519
 31
0.0
100
AcDbText
  0
TEXT
  5
4048
330
1F
100
AcDbEntity
  8
0
100
AcDbText
 10
2392.90099758754
 20
1412.469880506519
 30
0.0
 40
3.3
  1
185.5
 41
0.8
  7
CHINESET
 72
     4
 11
2397.929569016111
 21
1414.119880506518
 31
0.0
100
AcDbText
  0
TEXT
  5
4049
330
1F
100
AcDbEntity
  8
0
100
AcDbText
 10
2392.90099758754
 20
1405.429880506519
 30
0.0
 40
3.3
  1
210.5
 41
0.8
  7
CHINESET
 72
     4
 11
2397.929569016111
 21
1407.079880506519
 31
0.0
100
AcDbText
  0
TEXT
  5
404A
330
1F
100
AcDbEntity
  8
0
100
AcDbText
 10
2376.149569016112
 20
1405.429880506519
 30
0.0
 40
3.3
  1
222.5
 41
0.8
  7
CHINESET
 72
     4
 11
2381.429569016112
 21
1407.079880506519
 31
0.0
100
AcDbText
  0
TEXT
  5
404B
330
1F
100
AcDbEntity
  8
0
100
AcDbText
 10
2376.40099758754
 20
1412.469880506519
 30
0.0
 40
3.3
  1
197.5
 41
0.8
  7
CHINESET
 72
     4
 11
2381.429569016112
 21
1414.119880506518
 31
0.0
100
AcDbText
  0
TEXT
  5
404C
330
1F
100
AcDbEntity
  8
0
100
AcDbText
 10
2410.642426158969
 20
1426.549880506519
 30
0.0
 40
3.3
  1
32
 41
0.8
  7
CHINESET
 72
     4
 11
2412.779569016112
 21
1428.199880506519
 31
0.0
100
AcDbText
  0
TEXT
  5
404D
330
1F
100
AcDbEntity
  8
0
100
AcDbText
 10
2410.642426158969
 20
1433.589880506518
 30
0.0
 40
3.3
  1
32
 41
0.8
  7
CHINESET
 72
     4
 11
2412.779569016112
 21
1435.239880506519
 31
0.0
100
AcDbText
  0
TEXT
  5
404E
330
1F
100
AcDbEntity
  8
0
100
AcDbText
 10
2410.642426158969
 20
1440.629880506518
 30
0.0
 40
3.3
  1
32
 41
0.8
  7
CHINESET
 72
     4
 11
2412.779569016112
 21
1442.279880506518
 31
0.0
100
AcDbText
  0
TEXT
  5
404F
330
1F
100
AcDbEntity
  8
0
100
AcDbText
 10
2410.642426158969
 20
1447.669880506518
 30
0.0
 40
3.3
  1
32
 41
0.8
  7
CHINESET
 72
     4
 11
2412.779569016112
 21
1449.319880506519
 31
0.0
100
AcDbText
  0
TEXT
  5
4050
330
1F
100
AcDbEntity
  8
0
100
AcDbText
 10
2410.642426158969
 20
1419.509880506519
 30
0.0
 40
3.3
  1
50
 41
0.8
  7
CHINESET
 72
     4
 11
2412.779569016112
 21
1421.159880506519
 31
0.0
100
AcDbText
  0
LINE
  5
4051
330
1F
100
AcDbEntity
  8
0
100
AcDbLine
 10
2355.579569016112
 20
1473.959880506519
 30
0.0
 11
2422.679569016112
 21
1473.959880506519
 31
0.0
  0
LINE
  5
4052
330
1F
100
AcDbEntity
  8
0
100
AcDbLine
 10
2355.579569016112
 20
1466.919880506519
 30
0.0
 11
2422.679569016112
 21
1466.919880506519
 31
0.0
  0
LINE
  5
4053
330
1F
100
AcDbEntity
  8
0
100
AcDbLine
 10
2355.579569016112
 20
1424.679880506519
 30
0.0
 11
2422.679569016112
 21
1424.679880506519
 31
0.0
  0
LINE
  5
4054
330
1F
100
AcDbEntity
  8
0
100
AcDbLine
 10
2355.579569016112
 20
1431.719880506519
 30
0.0
 11
2422.679569016112
 21
1431.719880506519
 31
0.0
  0
LINE
  5
4055
330
1F
100
AcDbEntity
  8
0
100
AcDbLine
 10
2355.579569016112
 20
1438.759880506519
 30
0.0
 11
2422.679569016112
 21
1438.759880506519
 31
0.0
  0
LINE
  5
4056
330
1F
100
AcDbEntity
  8
0
100
AcDbLine
 10
2355.579569016112
 20
1445.799880506519
 30
0.0
 11
2422.679569016112
 21
1445.799880506519
 31
0.0
  0
LINE
  5
4057
330
1F
100
AcDbEntity
  8
0
100
AcDbLine
 10
2355.579569016112
 20
1452.839880506519
 30
0.0
 11
2422.679569016112
 21
1452.839880506519
 31
0.0
  0
LINE
  5
4058
330
1F
100
AcDbEntity
  8
0
100
AcDbLine
 10
2355.579569016112
 20
1459.879880506519
 30
0.0
 11
2422.679569016112
 21
1459.879880506519
 31
0.0
  0
TEXT
  5
4059
330
1F
100
AcDbEntity
  8
0
100
AcDbText
 10
2410.035879555656
 20
1468.548803040488
 30
0.0
 40
3.3
  1
L
 41
0.8
  7
CHINESET
100
AcDbText
  0
TEXT
  5
405A
330
1F
100
AcDbEntity
  8
0
100
AcDbText
 10
2395.218022867991
 20
1468.548803040488
 30
0.0
 40
3.3
  1
L
 41
0.8
  7
CHINESET
100
AcDbText
  0
TEXT
  5
405B
330
1F
100
AcDbEntity
  8
0
100
AcDbText
 10
2379.669282206663
 20
1468.548803040488
 30
0.0
 40
3.3
  1
L
 41
0.8
  7
CHINESET
100
AcDbText
  0
TEXT
  5
405D
330
1F
100
AcDbEntity
  8
0
100
AcDbText
 10
2361.236711873255
 20
1419.509880506519
 30
0.0
 40
3.3
  1
125
 41
0.8
  7
CHINESET
 72
     4
 11
2364.379569016112
 21
1421.159880506519
 31
0.0
100
AcDbText
  0
TEXT
  5
405E
330
1F
100
AcDbEntity
  8
0
100
AcDbText
 10
2361.236711873255
 20
1426.549880506519
 30
0.0
 40
3.3
  1
100
 41
0.8
  7
CHINESET
 72
     4
 11
2364.379569016112
 21
1428.199880506519
 31
0.0
100
AcDbText
  0
TEXT
  5
405F
330
1F
100
AcDbEntity
  8
0
100
AcDbText
 10
2362.242426158969
 20
1433.589880506518
 30
0.0
 40
3.3
  1
75
 41
0.8
  7
CHINESET
 72
     4
 11
2364.379569016112
 21
1435.239880506519
 31
0.0
100
AcDbText
  0
TEXT
  5
4060
330
1F
100
AcDbEntity
  8
0
100
AcDbText
 10
2362.242426158969
 20
1440.629880506518
 30
0.0
 40
3.3
  1
50
 41
0.8
  7
CHINESET
 72
     4
 11
2364.379569016112
 21
1442.279880506519
 31
0.0
100
AcDbText
  0
TEXT
  5
4061
330
1F
100
AcDbEntity
  8
0
100
AcDbText
 10
2392.90099758754
 20
1426.549880506519
 30
0.0
 40
3.3
  1
135.5
 41
0.8
  7
CHINESET
 72
     4
 11
2397.929569016111
 21
1428.199880506519
 31
0.0
100
AcDbText
  0
TEXT
  5
4062
330
1F
100
AcDbEntity
  8
0
100
AcDbText
 10
2392.90099758754
 20
1419.509880506519
 30
0.0
 40
3.3
  1
160.5
 41
0.8
  7
CHINESET
 72
     4
 11
2397.929569016111
 21
1421.159880506519
 31
0.0
100
AcDbText
  0
TEXT
  5
4063
330
1F
100
AcDbEntity
  8
0
100
AcDbText
 10
2376.40099758754
 20
1419.509880506519
 30
0.0
 40
3.3
  1
172.5
 41
0.8
  7
CHINESET
 72
     4
 11
2381.429569016112
 21
1421.159880506519
 31
0.0
100
AcDbText
  0
TEXT
  5
4064
330
1F
100
AcDbEntity
  8
0
100
AcDbText
 10
2376.40099758754
 20
1426.549880506519
 30
0.0
 40
3.3
  1
147.5
 41
0.8
  7
CHINESET
 72
     4
 11
2381.429569016112
 21
1428.199880506519
 31
0.0
100
AcDbText
  0
TEXT
  5
4065
330
1F
100
AcDbEntity
  8
0
100
AcDbText
 10
2393.906711873254
 20
1440.629880506518
 30
0.0
 40
3.3
  1
85.5
 41
0.8
  7
CHINESET
 72
     4
 11
2397.929569016111
 21
1442.279880506519
 31
0.0
100
AcDbText
  0
TEXT
  5
4066
330
1F
100
AcDbEntity
  8
0
100
AcDbText
 10
2393.152426158969
 20
1433.589880506518
 30
0.0
 40
3.3
  1
110.5
 41
0.8
  7
CHINESET
 72
     4
 11
2397.929569016111
 21
1435.239880506519
 31
0.0
100
AcDbText
  0
TEXT
  5
4067
330
1F
100
AcDbEntity
  8
0
100
AcDbText
 10
2376.40099758754
 20
1433.589880506518
 30
0.0
 40
3.3
  1
122.5
 41
0.8
  7
CHINESET
 72
     4
 11
2381.429569016112
 21
1435.239880506519
 31
0.0
100
AcDbText
  0
TEXT
  5
4068
330
1F
100
AcDbEntity
  8
0
100
AcDbText
 10
2377.406711873255
 20
1440.629880506518
 30
0.0
 40
3.3
  1
97.5
 41
0.8
  7
CHINESET
 72
     4
 11
2381.429569016112
 21
1442.279880506519
 31
0.0
100
AcDbText
  0
TEXT
  5
4069
330
1F
100
AcDbEntity
  8
0
100
AcDbText
 10
2362.242426158969
 20
1454.709880506519
 30
0.0
 40
3.3
  1
30
 41
0.8
  7
CHINESET
 72
     4
 11
2364.379569016112
 21
1456.359880506519
 31
0.0
100
AcDbText
  0
TEXT
  5
406A
330
1F
100
AcDbEntity
  8
0
100
AcDbText
 10
2362.242426158969
 20
1447.669880506518
 30
0.0
 40
3.3
  1
40
 41
0.8
  7
CHINESET
 72
     4
 11
2364.379569016112
 21
1449.319880506519
 31
0.0
100
AcDbText
  0
TEXT
  5
406B
330
1F
100
AcDbEntity
  8
0
100
AcDbText
 10
2362.242426158969
 20
1461.749880506519
 30
0.0
 40
3.3
  1
20
 41
0.8
  7
CHINESET
 72
     4
 11
2364.379569016112
 21
1463.399880506519
 31
0.0
100
AcDbText
  0
TEXT
  5
406C
330
1F
100
AcDbEntity
  8
0
100
AcDbText
 10
2411.899569016112
 20
1454.709880506519
 30
0.0
 40
3.3
  1
2
 41
0.8
  7
CHINESET
 72
     4
 11
2412.779569016112
 21
1456.359880506519
 31
0.0
100
AcDbText
  0
TEXT
  5
406D
330
1F
100
AcDbEntity
  8
0
100
AcDbText
 10
2393.906711873254
 20
1454.709880506519
 30
0.0
 40
3.3
  1
65.5
 41
0.8
  7
CHINESET
 72
     4
 11
2397.929569016111
 21
1456.359880506519
 31
0.0
100
AcDbText
  0
TEXT
  5
406E
330
1F
100
AcDbEntity
  8
0
100
AcDbText
 10
2377.406711873255
 20
1454.709880506519
 30
0.0
 40
3.3
  1
77.5
 41
0.8
  7
CHINESET
 72
     4
 11
2381.429569016112
 21
1456.359880506519
 31
0.0
100
AcDbText
  0
TEXT
  5
406F
330
1F
100
AcDbEntity
  8
0
100
AcDbText
 10
2393.906711873254
 20
1447.669880506518
 30
0.0
 40
3.3
  1
75.5
 41
0.8
  7
CHINESET
 72
     4
 11
2397.929569016111
 21
1449.319880506519
 31
0.0
100
AcDbText
  0
TEXT
  5
4070
330
1F
100
AcDbEntity
  8
0
100
AcDbText
 10
2377.406711873255
 20
1447.669880506518
 30
0.0
 40
3.3
  1
87.5
 41
0.8
  7
CHINESET
 72
     4
 11
2381.429569016112
 21
1449.319880506519
 31
0.0
100
AcDbText
  0
TEXT
  5
4071
330
1F
100
AcDbEntity
  8
0
100
AcDbText
 10
2393.906711873254
 20
1461.749880506519
 30
0.0
 40
3.3
  1
55.5
 41
0.8
  7
CHINESET
 72
     4
 11
2397.929569016111
 21
1463.399880506519
 31
0.0
100
AcDbText
  0
TEXT
  5
4072
330
1F
100
AcDbEntity
  8
0
100
AcDbText
 10
2377.406711873255
 20
1461.749880506519
 30
0.0
 40
3.3
  1
67.5
 41
0.8
  7
CHINESET
 72
     4
 11
2381.429569016112
 21
1463.399880506519
 31
0.0
100
AcDbText
  0
TEXT
  5
4073
330
1F
100
AcDbEntity
  8
0
100
AcDbText
 10
2411.899569016112
 20
1461.749880506519
 30
0.0
 40
3.3
  1
2
 41
0.8
  7
CHINESET
 72
     4
 11
2412.779569016112
 21
1463.399880506519
 31
0.0
100
AcDbText
  0
TEXT
  5
4074
330
1F
100
AcDbEntity
  8
0
100
AcDbText
 10
2398.484864595407
 20
1468.578671896914
 30
0.0
 40
3.3
  1
1
 41
0.8
  7
CHINESET
100
AcDbText
  0
TEXT
  5
4075
330
1F
100
AcDbEntity
  8
0
100
AcDbText
 10
2413.072475793157
 20
1468.58267197481
 30
0.0
 40
3.3
  1
2
 41
0.8
  7
CHINESET
100
AcDbText
  0
LINE
  5
4076
330
1F
100
AcDbEntity
  8
0
100
AcDbLine
 10
2422.679569016111
 20
1786.474785685152
 30
0.0
 11
2422.679569016111
 21
1709.034785685152
 31
0.0
  0
LINE
  5
4077
330
1F
100
AcDbEntity
  8
0
100
AcDbLine
 10
2422.679569016112
 20
1473.959880506519
 30
0.0
 11
2422.679569016112
 21
1396.519880506519
 31
0.0
  0
TEXT
  5
407B
330
1F
100
AcDbEntity
  8
0
100
AcDbText
 10
2274.939987292918
 20
1781.600896699598
 30
0.0
 40
4.783933440000001
  1
Model : MCGB-03
 41
0.8
  7
CHINESET
100
AcDbText
  0
TEXT
  5
407C
330
1F
100
AcDbEntity
  8
0
100
AcDbText
 10
2274.939987292918
 20
1773.037113293175
 30
0.0
 40
4.783933440000001
  1
Tube I.D. : %%C25
 41
0.8
  7
CHINESET
100
AcDbText
  0
TEXT
  5
407D
330
1F
100
AcDbEntity
  8
0
100
AcDbText
 10
2274.939987292918
 20
1764.798074836693
 30
0.0
 40
4.783933440000001
  1
Stroke : 20
 41
0.8
  7
CHINESET
100
AcDbText
  0
TEXT
  5
407E
330
1F
100
AcDbEntity
  8
0
100
AcDbText
 10
2356.801769020795
 20
1468.467289733465
 30
0.0
 40
4.0
  1
Stroke
 41
0.8
  7
CHINESET
100
AcDbText
  0
TEXT
  5
4081
330
1F
100
AcDbEntity
  8
0
100
AcDbText
 10
2274.939987292919
 20
1469.085991520963
 30
0.0
 40
4.783933440000001
  1
Model : MCGB-23
 41
0.8
  7
CHINESET
100
AcDbText
  0
TEXT
  5
4082
330
1F
100
AcDbEntity
  8
0
100
AcDbText
 10
2274.939987292919
 20
1460.522208114541
 30
0.0
 40
4.783933440000001
  1
Tube I.D. : %%C25
 41
0.8
  7
CHINESET
100
AcDbText
  0
TEXT
  5
4083
330
1F
100
AcDbEntity
  8
0
100
AcDbText
 10
2274.939987292919
 20
1452.283169658059
 30
0.0
 40
4.783933440000001
  1
Stroke : 20
 41
0.8
  7
CHINESET
100
AcDbText
  0
TEXT
  5
4086
330
1F
100
AcDbEntity
  8
0
100
AcDbText
 10
2413.245050479269
 20
1753.144785685153
 30
0.0
 40
3.3
  1
0
 41
0.8
  7
CHINESET
 72
     4
 11
2414.125050479269
 21
1754.794785685153
 31
0.0
100
AcDbText
  0
TEXT
  5
4088
330
1F
100
AcDbEntity
  8
0
100
AcDbText
 10
2413.245050479269
 20
1760.184785685153
 30
0.0
 40
3.3
  1
0
 41
0.8
  7
CHINESET
 72
     4
 11
2414.125050479269
 21
1761.834785685153
 31
0.0
100
AcDbText
  0
TEXT
  5
4089
330
1F
100
AcDbEntity
  8
0
100
AcDbText
 10
2413.245050479269
 20
1767.224785685153
 30
0.0
 40
3.3
  1
0
 41
0.8
  7
CHINESET
 72
     4
 11
2414.125050479269
 21
1768.874785685152
 31
0.0
100
AcDbText
  0
TEXT
  5
408A
330
1F
100
AcDbEntity
  8
0
100
AcDbText
 10
2413.245050479269
 20
1774.264785685153
 30
0.0
 40
3.3
  1
0
 41
0.8
  7
CHINESET
 72
     4
 11
2414.125050479269
 21
1775.914785685152
 31
0.0
100
AcDbText
  0
CIRCLE
  5
40A2
330
1F
100
AcDbEntity
  8
0
100
AcDbCircle
 10
2351.86514445693
 20
1463.242003208592
 30
0.0
 40
1.911852773373539
  0
CIRCLE
  5
40A3
330
1F
100
AcDbEntity
  8
0
100
AcDbCircle
 10
2351.865144456929
 20
1775.756908387226
 30
0.0
 40
1.911852773373539
  0
TEXT
  5
4221
330
1F
100
AcDbEntity
  8
0
100
AcDbText
 10
1997.833560249634
 20
1792.127659056688
 30
0.0
 40
7.175900160000002
  1
Slide bearing type
 41
0.8
  7
CHINESET
100
AcDbText
  0
TEXT
  5
4225
330
1F
100
AcDbEntity
  8
0
100
AcDbText
 10
1997.833560249634
 20
1479.612753878054
 30
0.0
 40
7.175900160000002
  1
Linear bush bearing type
 41
0.8
  7
CHINESET
100
AcDbText
  0
LWPOLYLINE
  5
4228
330
1F
100
AcDbEntity
  8
LOGO
 62
     4
100
AcDbPolyline
 90
        4
 70
     1
 43
0.0
 10
1990.747616088848
 20
1183.128023561399
 10
2465.721149929851
 20
1183.128023561399
 10
2465.721149929851
 20
1142.483909534249
 10
1990.747616088848
 20
1142.483909534249
1001
GENIUS_GENREC_14
1002
{
1000
PYDIR
1011
1990.747616088848
1021
1142.483909534249
1031
0.0
1002
}
1002
{
1000
PXDIR
1011
2465.721149929851
1021
1183.128023561399
1031
0.0
1002
}
1002
{
1000
PORI
1011
1990.747616088848
1021
1183.128023561399
1031
0.0
1002
}
1002
{
1000
PINS
1011
1990.747616088848
1021
1183.128023561399
1031
0.0
1002
}
1002
{
1000
PINS2
1011
2465.721149929851
1021
1142.483909534249
1031
0.0
1002
}
1002
{
1000
C
1070
     1
1002
}
1001
GENIUS_GENOBJ-N-REC_13
1002
{
1000
OWNER
1000
GEN
1002
}
1001
GENIUS_GENODEF_13
1002
{
1000
HIER
1070
     0
1002
}
1002
{
1000
MANEDIT
1070
     0
1002
}
1002
{
1000
NOSEL
1070
     0
1002
}
1002
{
1000
BEHIND
1070
     0
1002
}
1002
{
1000
OTHER
1070
     0
1002
}
1002
{
1000
REACTOR
1002
}
  0
TEXT
  5
4229
330
1F
100
AcDbEntity
  8
LOGO
 62
     7
100
AcDbText
 10
2082.519334335471
 20
1165.322528824804
 30
0.0
 40
5.419215203619909
  1
Order example:
 41
0.8
  7
CHINESET
100
AcDbText
  0
TEXT
  5
422A
330
1F
100
AcDbEntity
  8
LOGO
 62
     7
100
AcDbText
 10
2083.491586358088
 20
1172.951661768675
 30
0.0
 40
8.128822805429864
  1
訂購代號：
  7
CHINESET
100
AcDbText
  0
LINE
  5
422B
330
1F
100
AcDbEntity
  8
LOGO
 62
     4
100
AcDbLine
 10
2080.164666948578
 20
1142.483909534249
 30
0.0
 11
2080.164666948578
 21
1183.128023561399
 31
0.0
  0
TEXT
  5
422C
330
1F
100
AcDbEntity
  8
LOGO
  6
Continuous
100
AcDbText
 10
2005.347164546228
 20
1150.468384397567
 30
0.0
 40
6.096617104072398
  1
金器工業股份有限公司
  7
CHINESET
100
AcDbText
  0
TEXT
  5
422D
330
1F
100
AcDbEntity
  8
LOGO
  6
Continuous
100
AcDbText
 10
1994.14888508226
 20
1144.370572834535
 30
0.0
 40
4.064411402714932
  1
MINDMAN INDUSTRIAL CO., LTD.
 41
0.85
  7
CHINESET
100
AcDbText
  0
LINE
  5
422E
330
1F
100
AcDbEntity
  8
LOGO
 62
     4
100
AcDbLine
 10
2080.164666948578
 20
1174.999200755969
 30
0.0
 11
2020.553299708758
 21
1174.999200755969
 31
0.0
  0
LINE
  5
422F
330
1F
100
AcDbEntity
  8
LOGO
 62
     4
100
AcDbLine
 10
2080.164666948578
 20
1166.870377950539
 30
0.0
 11
2020.553299708758
 21
1166.870377950539
 31
0.0
  0
LINE
  5
4230
330
1F
100
AcDbEntity
  8
LOGO
 62
     4
100
AcDbLine
 10
2080.164666948578
 20
1158.74155514511
 30
0.0
 11
1990.747616088848
 21
1158.74155514511
 31
0.0
  0
LINE
  5
4231
330
1F
100
AcDbEntity
  8
LOGO
 62
     4
100
AcDbLine
 10
2020.553299708758
 20
1158.74155514511
 30
0.0
 11
2020.553299708758
 21
1183.128023561399
 31
0.0
  0
TEXT
  5
4232
330
1F
100
AcDbEntity
  8
LOGO
100
AcDbText
 10
2061.294855603497
 20
1160.773760846466
 30
0.0
 40
4.064411402714932
  1
mm
  7
CHINESET
 72
     1
 11
2066.326984006858
 21
1162.805966547824
 31
0.0
100
AcDbText
 73
     2
  0
TEXT
  5
4233
330
1F
100
AcDbEntity
  8
LOGO
100
AcDbText
 10
2059.165878202074
 20
1177.031406457326
 30
0.0
 40
4.064411402714932
  1
1 : 1
  7
CHINESET
 72
     1
 11
2066.326984006858
 21
1179.063612158684
 31
0.0
100
AcDbText
 73
     2
  0
LINE
  5
4234
330
1F
100
AcDbEntity
  8
LOGO
 62
     4
100
AcDbLine
 10
2053.068590930477
 20
1158.74155514511
 30
0.0
 11
2053.068590930477
 21
1183.128023561399
 31
0.0
  0
CIRCLE
  5
4235
330
1F
100
AcDbEntity
  8
LOGO
  6
Continuous
100
AcDbCircle
 10
2060.594357011147
 20
1170.943483158987
 30
0.0
 40
2.359892925876683
  0
CIRCLE
  5
4236
330
1F
100
AcDbEntity
  8
LOGO
  6
Continuous
100
AcDbCircle
 10
2060.594357011147
 20
1170.943483158987
 30
0.0
 40
1.382688345062826
  0
LINE
  5
4237
330
1F
100
AcDbEntity
  8
LOGO
100
AcDbLine
 10
2075.42419798775
 20
1168.58359023311
 30
0.0
 11
2075.42419798775
 21
1173.303376084864
 31
0.0
  0
LINE
  5
4238
330
1F
100
AcDbEntity
  8
LOGO
100
AcDbLine
 10
2068.026069129445
 20
1169.560794813925
 30
0.0
 11
2068.026069129445
 21
1172.32617150405
 31
0.0
  0
LINE
  5
4239
330
1F
100
AcDbEntity
  8
LOGO
  6
Continuous
100
AcDbLine
 10
2068.026069129445
 20
1172.32617150405
 30
0.0
 11
2075.42419798775
 21
1173.303376084864
 31
0.0
  0
LINE
  5
423A
330
1F
100
AcDbEntity
  8
LOGO
  6
Continuous
100
AcDbLine
 10
2068.026069129445
 20
1169.560794813925
 30
0.0
 11
2075.42419798775
 21
1168.58359023311
 31
0.0
  0
TEXT
  5
423B
330
1F
100
AcDbEntity
  8
LOGO
100
AcDbText
 10
2023.904624646621
 20
1177.033406659788
 30
266.3748276073012
 40
4.064411402714932
  1
比例 Scale:
 41
0.9
  7
CHINESET
 72
     4
 11
2036.810945319617
 21
1179.063612158684
 31
266.3748276073012
100
AcDbText
  0
TEXT
  5
423C
330
1F
100
AcDbEntity
  8
LOGO
100
AcDbText
 10
2023.67055809709
 20
1168.959756105601
 30
266.3748276073012
 40
4.064411402714932
  1
投影  View:
 41
0.9
  7
CHINESET
 72
     4
 11
2036.810945319617
 21
1170.934789353254
 31
266.3748276073012
100
AcDbText
  0
TEXT
  5
423D
330
1F
100
AcDbEntity
  8
LOGO
100
AcDbText
 10
2024.06792689048
 20
1160.773760846466
 30
266.3748276073012
 40
4.064411402714932
  1
單位  Unit:
 41
0.9
  7
CHINESET
 72
     4
 11
2036.810945319617
 21
1162.805966547824
 31
266.3748276073012
100
AcDbText
  0
SOLID
  5
423E
330
1F
100
AcDbEntity
  8
LOGO
 62
     5
100
AcDbTrace
 10
1994.964508148006
 20
1165.498060578716
 30
0.0
 11
1996.721852988385
 21
1165.498060578715
 31
0.0
 12
2004.05422283962
 22
1182.162537513342
 32
0.0
 13
2005.811567680001
 23
1182.162537513341
 33
0.0
  0
SOLID
  5
423F
330
1F
100
AcDbEntity
  8
LOGO
 62
     5
100
AcDbTrace
 10
1997.449030163716
 20
1165.498060578716
 30
0.0
 11
1999.206375004094
 21
1165.498060578716
 31
0.0
 12
2005.811567680001
 22
1180.829379358571
 32
0.0
 13
2004.05422283962
 23
1174.385781610516
 33
0.0
  0
SOLID
  5
4240
330
1F
100
AcDbEntity
  8
LOGO
 62
     2
100
AcDbTrace
 10
1996.721852988385
 20
1165.498060578715
 30
0.0
 11
1997.449030163716
 21
1165.498060578716
 31
0.0
 12
2005.811567680001
 22
1182.162537513341
 32
0.0
 13
2006.53874485533
 23
1182.162537513341
 33
0.0
  0
SOLID
  5
4241
330
1F
100
AcDbEntity
  8
LOGO
 62
     5
100
AcDbTrace
 10
1992.147053415136
 20
1159.438250784307
 30
0.0
 11
1992.753034394577
 21
1159.438250784307
 31
0.0
 12
1994.459523998473
 22
1162.468155681511
 32
0.0
 13
1995.065504977912
 23
1162.468155681511
 33
0.0
  0
SOLID
  5
4242
330
1F
100
AcDbEntity
  8
LOGO
 62
     5
100
AcDbTrace
 10
1994.459523998473
 20
1162.468155681511
 30
0.0
 11
1995.065504977912
 21
1162.468155681511
 31
0.0
 12
1994.459523998473
 22
1159.438250784307
 32
0.0
 13
1995.065504977912
 23
1159.438250784307
 33
0.0
  0
SOLID
  5
4243
330
1F
100
AcDbEntity
  8
LOGO
 62
     5
100
AcDbTrace
 10
1994.459523998473
 20
1159.438250784307
 30
0.0
 11
1995.065504977912
 21
1159.438250784307
 31
0.0
 12
1996.771994581811
 22
1162.468155681511
 32
0.0
 13
1997.377975561251
 23
1162.468155681511
 33
0.0
  0
SOLID
  5
4244
330
1F
100
AcDbEntity
  8
LOGO
 62
     5
100
AcDbTrace
 10
1996.771994581811
 20
1162.468155681511
 30
0.0
 11
1997.377975561251
 21
1162.468155681511
 31
0.0
 12
1996.771994581811
 22
1159.438250784307
 32
0.0
 13
1997.377975561251
 23
1159.438250784307
 33
0.0
  0
POLYLINE
  5
4245
330
1F
100
AcDbEntity
  8
LOGO
 62
     5
100
AcDb2dPolyline
 66
     1
 10
0.0
 20
0.0
 30
0.0
 40
0.6069521028054298
 41
0.6069521028054298
  0
VERTEX
  5
4246
330
4245
100
AcDbEntity
  8
LOGO
 62
     5
100
AcDbVertex
100
AcDb2dVertex
 10
2017.08427058265
 20
1161.256193722629
 30
0.0
 42
1.0
  0
VERTEX
  5
4247
330
4245
100
AcDbEntity
  8
LOGO
 62
     5
100
AcDbVertex
100
AcDb2dVertex
 10
2015.263414274232
 20
1161.256193722629
 30
0.0
 42
1.0
  0
SEQEND
  5
4248
330
4245
100
AcDbEntity
  8
LOGO
 62
     5
  0
POLYLINE
  5
4249
330
1F
100
AcDbEntity
  8
LOGO
 62
     5
100
AcDb2dPolyline
 66
     1
 10
0.0
 20
0.0
 30
0.0
 70
     1
  0
VERTEX
  5
424A
330
4249
100
AcDbEntity
  8
LOGO
 62
     5
100
AcDbVertex
100
AcDb2dVertex
 10
2011.831019141178
 20
1160.953203232908
 30
0.0
 42
1.000000057330635
  0
VERTEX
  5
424B
330
4249
100
AcDbEntity
  8
LOGO
 62
     5
100
AcDbVertex
100
AcDb2dVertex
 10
2013.648962079502
 20
1160.953203232908
 30
0.0
 42
1.000000057330635
  0
SEQEND
  5
424C
330
4249
100
AcDbEntity
  8
LOGO
 62
     5
  0
CIRCLE
  5
424D
330
1F
100
AcDbEntity
  8
LOGO
 62
     5
100
AcDbCircle
 10
2012.73999061034
 20
1160.953203232908
 30
0.0
 40
0.9089714691614119
  0
POLYLINE
  5
424E
330
1F
100
AcDbEntity
  8
LOGO
 62
     5
100
AcDb2dPolyline
 66
     1
 10
0.0
 20
0.0
 30
0.0
 70
     1
 40
0.6069521028054298
 41
0.6069521028054298
  0
VERTEX
  5
424F
330
424E
100
AcDbEntity
  8
LOGO
 62
     5
100
AcDbVertex
100
AcDb2dVertex
 10
2011.526086404729
 20
1160.953203232908
 30
0.0
 42
1.0
  0
VERTEX
  5
4250
330
424E
100
AcDbEntity
  8
LOGO
 62
     5
100
AcDbVertex
100
AcDb2dVertex
 10
2013.95389481595
 20
1160.953203232908
 30
0.0
 42
1.0
  0
SEQEND
  5
4251
330
424E
100
AcDbEntity
  8
LOGO
 62
     5
  0
LINE
  5
4252
330
1F
100
AcDbEntity
  8
LOGO
100
AcDbLine
 10
2017.385804387322
 20
1159.438250784307
 30
0.0
 11
2017.385804387322
 21
1161.256193722629
 31
0.0
  0
SOLID
  5
4253
330
1F
100
AcDbEntity
  8
LOGO
 62
     5
100
AcDbTrace
 10
2013.648901481405
 20
1162.468155681511
 30
0.0
 11
2014.254882460846
 21
1162.468155681511
 31
0.0
 12
2013.648901481405
 22
1159.438250784307
 32
0.0
 13
2014.254882460846
 23
1159.438250784307
 33
0.0
  0
SOLID
  5
4254
330
1F
100
AcDbEntity
  8
LOGO
 62
     5
100
AcDbTrace
 10
2014.961880469558
 20
1159.438250784307
 30
0.0
 11
2015.567861449
 21
1159.438250784307
 31
0.0
 12
2014.961880469558
 22
1162.468155681511
 32
0.0
 13
2015.567861449
 23
1162.468155681511
 33
0.0
  0
SOLID
  5
4255
330
1F
100
AcDbEntity
  8
LOGO
 62
     5
100
AcDbTrace
 10
2016.779823407881
 20
1161.256193722629
 30
0.0
 11
2017.385804387322
 21
1161.256193722629
 31
0.0
 12
2016.779823407881
 22
1159.438250784307
 32
0.0
 13
2017.385804387322
 23
1159.438250784307
 33
0.0
  0
SOLID
  5
4256
330
1F
100
AcDbEntity
  8
LOGO
 62
     5
100
AcDbTrace
 10
2014.901282371614
 20
1180.829379358571
 30
0.0
 11
2013.143937531236
 21
1174.385781610516
 31
0.0
 12
2014.901282371614
 22
1165.498060578715
 32
0.0
 13
2013.143937531236
 23
1165.498060578715
 33
0.0
  0
SOLID
  5
4257
330
1F
100
AcDbEntity
  8
LOGO
 62
     5
100
AcDbTrace
 10
2015.628459546944
 20
1165.498060578715
 30
0.0
 11
2017.385804387322
 21
1165.498060578715
 31
0.0
 12
2015.628459546944
 22
1182.162537513341
 32
0.0
 13
2017.385804387322
 23
1182.162537513342
 33
0.0
  0
SOLID
  5
4258
330
1F
100
AcDbEntity
  8
LOGO
 62
     2
100
AcDbTrace
 10
2014.901282371614
 20
1182.162537513342
 30
0.0
 11
2015.628459546944
 21
1182.162537513341
 31
0.0
 12
2014.901282371614
 22
1165.498060578715
 32
0.0
 13
2015.628459546944
 23
1165.498060578715
 33
0.0
  0
POLYLINE
  5
4259
330
1F
100
AcDbEntity
  8
LOGO
 62
     5
100
AcDb2dPolyline
 66
     1
 10
0.0
 20
0.0
 30
0.0
 40
0.6069521028054298
 41
0.6069521028054298
  0
VERTEX
  5
425A
330
4259
100
AcDbEntity
  8
LOGO
 62
     5
100
AcDbVertex
100
AcDb2dVertex
 10
2008.398502811931
 20
1161.256193722629
 30
0.0
 42
1.0
  0
VERTEX
  5
425B
330
4259
100
AcDbEntity
  8
LOGO
 62
     5
100
AcDbVertex
100
AcDb2dVertex
 10
2006.577646503513
 20
1161.256193722629
 30
0.0
 42
1.0
  0
SEQEND
  5
425C
330
4259
100
AcDbEntity
  8
LOGO
 62
     5
  0
POLYLINE
  5
425D
330
1F
100
AcDbEntity
  8
LOGO
 62
     5
100
AcDb2dPolyline
 66
     1
 10
0.0
 20
0.0
 30
0.0
 40
0.6069521028054298
 41
0.6069521028054298
  0
VERTEX
  5
425E
330
425D
100
AcDbEntity
  8
LOGO
 62
     5
100
AcDbVertex
100
AcDb2dVertex
 10
2010.216445750251
 20
1161.256193722629
 30
0.0
 42
1.0
  0
VERTEX
  5
425F
330
425D
100
AcDbEntity
  8
LOGO
 62
     5
100
AcDbVertex
100
AcDb2dVertex
 10
2008.395589441835
 20
1161.256193722629
 30
0.0
 42
1.0
  0
SEQEND
  5
4260
330
425D
100
AcDbEntity
  8
LOGO
 62
     5
  0
POLYLINE
  5
4261
330
1F
100
AcDbEntity
  8
LOGO
 62
     5
100
AcDb2dPolyline
 66
     1
 10
0.0
 20
0.0
 30
0.0
 40
0.6069521028054298
 41
0.6069521028054298
  0
VERTEX
  5
4262
330
4261
100
AcDbEntity
  8
LOGO
 62
     5
100
AcDbVertex
100
AcDb2dVertex
 10
2001.530677979533
 20
1161.256193722629
 30
0.0
 42
1.0
  0
VERTEX
  5
4263
330
4261
100
AcDbEntity
  8
LOGO
 62
     5
100
AcDbVertex
100
AcDb2dVertex
 10
1999.709821671117
 20
1161.256193722629
 30
0.0
 42
1.0
  0
SEQEND
  5
4264
330
4261
100
AcDbEntity
  8
LOGO
 62
     5
  0
SOLID
  5
4265
330
1F
100
AcDbEntity
  8
LOGO
 62
     5
100
AcDbTrace
 10
1999.408287866444
 20
1162.468155681511
 30
0.0
 11
2000.014268845883
 21
1162.468155681511
 31
0.0
 12
1999.408287866444
 22
1159.438250784307
 32
0.0
 13
2000.014268845883
 23
1159.438250784307
 33
0.0
  0
SOLID
  5
4266
330
1F
100
AcDbEntity
  8
LOGO
 62
     5
100
AcDbTrace
 10
2001.226230804766
 20
1161.256193722629
 30
0.0
 11
2001.832211784209
 21
1161.256193722629
 31
0.0
 12
2001.226230804766
 22
1159.438250784307
 32
0.0
 13
2001.832211784209
 23
1159.438250784307
 33
0.0
  0
POLYLINE
  5
4267
330
1F
100
AcDbEntity
  8
LOGO
 62
     5
100
AcDb2dPolyline
 66
     1
 10
0.0
 20
0.0
 30
0.0
 70
     1
 40
0.6069521028054298
 41
0.6069521028054298
  0
VERTEX
  5
4268
330
4267
100
AcDbEntity
  8
LOGO
 62
     5
100
AcDbVertex
100
AcDb2dVertex
 10
2002.84031863401
 20
1160.953203232908
 30
0.0
 42
1.0
  0
VERTEX
  5
4269
330
4267
100
AcDbEntity
  8
LOGO
 62
     5
100
AcDbVertex
100
AcDb2dVertex
 10
2005.268127045232
 20
1160.953203232908
 30
0.0
 42
1.0
  0
SEQEND
  5
426A
330
4267
100
AcDbEntity
  8
LOGO
 62
     5
  0
SOLID
  5
426B
330
1F
100
AcDbEntity
  8
LOGO
 62
     5
100
AcDbTrace
 10
2004.963133710685
 20
1163.377127150673
 30
0.0
 11
2005.569114690126
 21
1163.377127150673
 31
0.0
 12
2004.963133710685
 22
1159.438250784307
 32
0.0
 13
2005.569114690126
 23
1159.438250784307
 33
0.0
  0
SOLID
  5
426C
330
1F
100
AcDbEntity
  8
LOGO
 62
     5
100
AcDbTrace
 10
2006.276112698841
 20
1162.468155681511
 30
0.0
 11
2006.882093678282
 21
1162.468155681511
 31
0.0
 12
2006.276112698841
 22
1159.438250784307
 32
0.0
 13
2006.882093678282
 23
1159.438250784307
 33
0.0
  0
SOLID
  5
426D
330
1F
100
AcDbEntity
  8
LOGO
 62
     5
100
AcDbTrace
 10
2008.094055637163
 20
1161.256193722629
 30
0.0
 11
2008.700036616604
 21
1161.256193722629
 31
0.0
 12
2008.094055637163
 22
1159.438250784307
 32
0.0
 13
2008.700036616604
 23
1159.438250784307
 33
0.0
  0
SOLID
  5
426E
330
1F
100
AcDbEntity
  8
LOGO
 62
     5
100
AcDbTrace
 10
2009.911998575485
 20
1161.256193722629
 30
0.0
 11
2010.517979554926
 21
1161.256193722629
 31
0.0
 12
2009.911998575485
 22
1159.438250784306
 32
0.0
 13
2010.517979554926
 23
1159.438250784306
 33
0.0
  0
SOLID
  5
426F
330
1F
100
AcDbEntity
  8
LOGO
 62
     5
100
AcDbTrace
 10
1998.095308878288
 20
1162.89234236712
 30
0.0
 11
1998.701289857731
 21
1162.89234236712
 31
0.0
 12
1998.095308878288
 22
1163.377127150673
 32
0.0
 13
1998.701289857731
 23
1163.377127150673
 33
0.0
  0
SOLID
  5
4270
330
1F
100
AcDbEntity
  8
LOGO
 62
     5
100
AcDbTrace
 10
1998.095308878288
 20
1162.468155681511
 30
0.0
 11
1998.701289857731
 21
1162.468155681511
 31
0.0
 12
1998.095308878288
 22
1159.438250784306
 32
0.0
 13
1998.701289857731
 23
1159.438250784307
 33
0.0
  0
SOLID
  5
4271
330
1F
100
AcDbEntity
  8
LOGO
 62
     5
100
AcDbTrace
 10
2004.05422283962
 20
1165.498060578716
 30
0.0
 11
2005.811567680001
 21
1165.498060578716
 31
0.0
 12
2004.05422283962
 22
1174.385781610516
 32
0.0
 13
2005.811567680001
 23
1180.829379358571
 33
0.0
  0
SOLID
  5
4272
330
1F
100
AcDbEntity
  8
LOGO
 62
     5
100
AcDbTrace
 10
2006.53874485533
 20
1182.162537513341
 30
0.0
 11
2008.296089695709
 21
1182.162537513342
 31
0.0
 12
2006.53874485533
 22
1166.831218733486
 32
0.0
 13
2008.296089695709
 23
1173.274816481541
 33
0.0
  0
SOLID
  5
4273
330
1F
100
AcDbEntity
  8
LOGO
 62
     2
100
AcDbTrace
 10
2005.811567680001
 20
1182.162537513341
 30
0.0
 11
2006.53874485533
 21
1182.162537513341
 31
0.0
 12
2005.811567680001
 22
1165.498060578716
 32
0.0
 13
2006.53874485533
 23
1165.498060578716
 33
0.0
  0
SOLID
  5
4274
330
1F
100
AcDbEntity
  8
LOGO
 62
     5
100
AcDbTrace
 10
2006.53874485533
 20
1166.831218733486
 30
0.0
 11
2008.296089695709
 21
1173.274816481541
 31
0.0
 12
2014.901282371614
 22
1182.162537513342
 32
0.0
 13
2013.143937531236
 23
1182.162537513342
 33
0.0
  0
SOLID
  5
4275
330
1F
100
AcDbEntity
  8
LOGO
 62
     5
100
AcDbTrace
 10
2006.53874485533
 20
1165.498060578716
 30
0.0
 11
2008.296089695709
 21
1165.498060578716
 31
0.0
 12
2014.901282371614
 22
1180.829379358571
 32
0.0
 13
2013.143937531236
 23
1174.385781610516
 33
0.0
  0
SOLID
  5
4276
330
1F
100
AcDbEntity
  8
LOGO
 62
     2
100
AcDbTrace
 10
2005.811567680001
 20
1165.498060578716
 30
0.0
 11
2006.53874485533
 21
1165.498060578716
 31
0.0
 12
2014.901282371614
 22
1182.162537513342
 32
0.0
 13
2015.628459546944
 23
1182.162537513341
 33
0.0
  0
TEXT
  5
4277
330
1F
100
AcDbEntity
  8
LOGO
100
AcDbText
 10
2082.047850537767
 20
1144.64616035852
 30
0.0
 40
4.065
  1
10607165
 41
0.7
  7
CHINESET
 72
     1
 11
2091.939350537768
 21
1144.64616035852
 31
0.0
100
AcDbText
  0
LINE
  5
4278
330
1F
100
AcDbEntity
  8
LOGO
 62
     4
100
AcDbLine
 10
2104.554666948575
 20
1150.61273233968
 30
0.0
 11
2104.554666948577
 21
1142.48390953425
 31
0.0
  0
LINE
  5
4279
330
1F
100
AcDbEntity
  8
LOGO
 62
     4
100
AcDbLine
 10
2104.554666948575
 20
1150.61273233968
 30
0.0
 11
2080.164666948578
 21
1150.61273233968
 31
0.0
  0
LINE
  5
427A
330
1F
100
AcDbEntity
  8
LOGO
  6
AM_ISO08W050x2
 48
0.3
100
AcDbLine
 10
2057.341209276211
 20
1170.943483158987
 30
0.0
 11
2063.847504746081
 21
1170.943483158987
 31
0.0
1001
GENIUS_GENOREF_13
1005
427F
  0
LINE
  5
427B
330
1F
100
AcDbEntity
  8
LOGO
  6
AM_ISO08W050x2
 48
0.3
100
AcDbLine
 10
2060.594357011147
 20
1167.690335424052
 30
0.0
 11
2060.594357011147
 21
1174.196630893922
 31
0.0
1001
GENIUS_GENOREF_13
1005
427E
  0
LINE
  5
427C
330
1F
100
AcDbEntity
  8
LOGO
  6
CENTER
 48
0.5
100
AcDbLine
 10
2067.434424450809
 20
1170.943483158987
 30
0.0
 11
2076.169165614803
 21
1170.943483158987
 31
0.0
1001
GENIUS_GENOREF_13
1005
427D
  0
POINT
  5
427D
330
1F
100
AcDbEntity
  8
0
 60
     1
100
AcDbPoint
 10
-74.83385289090143
 20
213.7329175576084
 30
0.0
1001
GENIUS_GENOBJ-N-CRS_13
1002
{
1000
OWNER
1000
GEN
1002
}
1001
GENIUS_GENOLIS_13
1002
{
1000
ENT
1005
0
1005
0
1005
0
1005
427C
1002
}
1001
GENIUS_GENOENT_13
1002
{
1000
MYREF
1005
427D
1002
}
1002
{
1000
GRP
1005
0
1002
}
1001
GENIUS_GENODEF_13
1002
{
1000
HIER
1070
    10
1002
}
1002
{
1000
MANEDIT
1070
     1
1002
}
1002
{
1000
NOSEL
1070
     0
1002
}
1002
{
1000
BEHIND
1070
     0
1002
}
1002
{
1000
OTHER
1070
     0
1002
}
1002
{
1000
REACTOR
1002
}
  0
POINT
  5
427E
330
1F
100
AcDbEntity
  8
0
 60
     1
100
AcDbPoint
 10
-86.15843811375611
 20
222.6085040362447
 30
0.0
1001
GENIUS_GENOBJ-N-CRS_13
1002
{
1000
OWNER
1000
GEN
1002
}
1001
GENIUS_GENOLIS_13
1002
{
1000
ENT
1005
0
1005
0
1005
0
1005
427B
1002
}
1001
GENIUS_GENOENT_13
1002
{
1000
MYREF
1005
427E
1002
}
1002
{
1000
GRP
1005
0
1002
}
1001
GENIUS_GENODEF_13
1002
{
1000
HIER
1070
    10
1002
}
1002
{
1000
MANEDIT
1070
     1
1002
}
1002
{
1000
NOSEL
1070
     0
1002
}
1002
{
1000
BEHIND
1070
     0
1002
}
1002
{
1000
OTHER
1070
     0
1002
}
1002
{
1000
REACTOR
1002
}
  0
POINT
  5
427F
330
1F
100
AcDbEntity
  8
0
 60
     1
100
AcDbPoint
 10
-79.79976441591929
 20
213.7329175576084
 30
0.0
1001
GENIUS_GENOBJ-N-CRS_13
1002
{
1000
OWNER
1000
GEN
1002
}
1001
GENIUS_GENOLIS_13
1002
{
1000
ENT
1005
0
1005
0
1005
0
1005
427A
1002
}
1001
GENIUS_GENOENT_13
1002
{
1000
MYREF
1005
427F
1002
}
1002
{
1000
GRP
1005
0
1002
}
1001
GENIUS_GENODEF_13
1002
{
1000
HIER
1070
    10
1002
}
1002
{
1000
MANEDIT
1070
     1
1002
}
1002
{
1000
NOSEL
1070
     0
1002
}
1002
{
1000
BEHIND
1070
     0
1002
}
1002
{
1000
OTHER
1070
     0
1002
}
1002
{
1000
REACTOR
1002
}
  0
ENDSEC
  0
SECTION
  2
OBJECTS
  0
DICTIONARY
  5
C
330
0
100
AcDbDictionary
281
     1
  3
ACAD_COLOR
350
BE
  3
ACAD_GROUP
350
D
  3
ACAD_LAYOUT
350
1A
  3
ACAD_MATERIAL
350
BD
  3
ACAD_MLINESTYLE
350
17
  3
ACAD_PLOTSETTINGS
350
19
  3
ACAD_PLOTSTYLENAME
350
E
  3
ACAD_TABLESTYLE
350
11A
  3
ACDBHEADERROUNDTRIPXREC
350
42F9
  3
AcDbVariableDictionary
350
94
  3
AcmDictionary
350
5B
  3
AMG
350
41
  3
AMGSNAPSETTINGS
350
1B8
  3
DWGPROPS
350
42F8
  0
DICTIONARY
  5
3F9
330
2
100
AcDbDictionary
280
     1
281
     1
  3
ACAD_LAYERFILTERS
360
5B7
  3
ACAD_LAYERSTATES
360
7CF
  3
ACLYDICTIONARY
360
5B6
  0
DICTIONARY
  5
8F
330
1F
100
AcDbDictionary
280
     1
281
     1
  3
ACAD_SORTENTS
360
2489
  0
DICTIONARY
  5
BE
102
{ACAD_REACTORS
330
C
102
}
330
C
100
AcDbDictionary
281
     1
  0
DICTIONARY
  5
D
102
{ACAD_REACTORS
330
C
102
}
330
C
100
AcDbDictionary
281
     1
  0
DICTIONARY
  5
1A
102
{ACAD_REACTORS
330
C
102
}
330
C
100
AcDbDictionary
281
     1
  3
Model
350
22
  3
配置1
350
1E
  3
配置2
350
26
  0
DICTIONARY
  5
BD
102
{ACAD_REACTORS
330
C
102
}
330
C
100
AcDbDictionary
281
     1
  0
DICTIONARY
  5
17
102
{ACAD_REACTORS
330
C
102
}
330
C
100
AcDbDictionary
281
     1
  3
Standard
350
18
  0
DICTIONARY
  5
19
102
{ACAD_REACTORS
330
C
102
}
330
C
100
AcDbDictionary
281
     1
  0
ACDBDICTIONARYWDFLT
  5
E
102
{ACAD_REACTORS
330
C
102
}
330
C
100
AcDbDictionary
281
     1
  3
Normal
350
F
100
AcDbDictionaryWithDefault
340
F
  0
DICTIONARY
  5
11A
102
{ACAD_REACTORS
330
C
102
}
330
C
100
AcDbDictionary
281
     1
  3
Standard
350
11B
  0
DICTIONARY
  5
42F9
102
{ACAD_REACTORS
330
C
102
}
330
C
100
AcDbDictionary
281
     1
  0
DICTIONARY
  5
94
102
{ACAD_REACTORS
330
C
102
}
330
C
100
AcDbDictionary
281
     1
  3
CTABLESTYLE
350
138
  3
DIMASSOC
350
96
  3
INDEXCTL
350
95
  3
PROJECTNAME
350
42F6
  0
DICTIONARY
  5
5B
102
{ACAD_REACTORS
330
C
102
}
330
C
100
AcDbDictionary
281
     1
  3
AcmBOM
350
1B5
  3
AcmStdDictionary
350
61
  3
AMDTSECTSYM_ARROWCOLOR
350
123
  0
DICTIONARY
  5
41
102
{ACAD_REACTORS
330
C
102
}
330
C
100
AcDbDictionary
281
     1
  0
DICTIONARY
  5
1B8
102
{ACAD_REACTORS
330
C
102
}
330
C
100
AcDbDictionary
281
     1
  0
XRECORD
  5
42F8
102
{ACAD_REACTORS
330
C
102
}
330
C
100
AcDbXrecord
280
     1
  1
DWGPROPS COOKIE
  2

  3

  4

  6

  7

  8

  9

300
AmdtFileType=84
301
=
302
=
303
=
304
=
305
=
306
=
307
=
308
=
309
=
 40
0.3587376967592593
 41
2453595.458965741
 42
2453942.680881435
  1

 90
        1
  0
DICTIONARY
  5
5B7
102
{ACAD_REACTORS
330
3F9
102
}
330
3F9
100
AcDbDictionary
281
     1
  0
DICTIONARY
  5
7CF
102
{ACAD_REACTORS
330
3F9
102
}
330
3F9
100
AcDbDictionary
281
     1
  0
DICTIONARY
  5
5B6
102
{ACAD_REACTORS
330
3F9
102
}
330
3F9
100
AcDbDictionary
281
     1
1001
ACAD
1000
<All
  0
SORTENTSTABLE
  5
2489
102
{ACAD_REACTORS
330
8F
102
}
330
8F
100
AcDbSortentsTable
330
1F
331
381D
  5
381D
331
36F8
  5
36F8
331
3672
  5
3672
331
35FC
  5
35FC
331
35BD
  5
35BD
331
3633
  5
3633
331
36B9
  5
36B9
331
3747
  5
3747
331
36C1
  5
36C1
331
363B
  5
363B
331
35C5
  5
35C5
331
3604
  5
3604
331
367A
  5
367A
331
3700
  5
3700
331
374F
  5
374F
331
36C9
  5
36C9
331
3643
  5
3643
331
35CD
  5
35CD
331
360C
  5
360C
331
3682
  5
3682
331
3708
  5
3708
331
3710
  5
3710
331
36D1
  5
36D1
331
364B
  5
364B
331
35D5
  5
35D5
331
3614
  5
3614
331
368A
  5
368A
331
37EE
  5
37EE
331
E0C
  5
E0C
331
357A
  5
357A
331
3582
  5
3582
331
E14
  5
E14
331
358A
  5
358A
331
E1C
  5
E1C
331
3592
  5
3592
331
36D9
  5
36D9
331
3692
  5
3692
331
35DD
  5
35DD
331
3653
  5
3653
331
3718
  5
3718
331
3777
  5
3777
331
35E5
  5
35E5
331
365B
  5
365B
331
36E1
  5
36E1
331
3720
  5
3720
331
380E
  5
380E
331
36E9
  5
36E9
331
3663
  5
3663
331
35ED
  5
35ED
331
362C
  5
362C
331
36B2
  5
36B2
331
3728
  5
3728
331
3816
  5
3816
331
36F1
  5
36F1
331
366B
  5
366B
331
3787
  5
3787
331
3553
  5
3553
331
359A
  5
359A
331
35AA
  5
35AA
331
DF5
  5
DF5
331
3563
  5
3563
331
35B2
  5
35B2
331
DFD
  5
DFD
331
356B
  5
356B
331
E05
  5
E05
331
3573
  5
3573
331
36BA
  5
36BA
331
3673
  5
3673
331
35FD
  5
35FD
331
35BE
  5
35BE
331
3634
  5
3634
331
3748
  5
3748
331
36C2
  5
36C2
331
363C
  5
363C
331
35C6
  5
35C6
331
3605
  5
3605
331
367B
  5
367B
331
3701
  5
3701
331
3750
  5
3750
331
36CA
  5
36CA
331
3644
  5
3644
331
35CE
  5
35CE
331
360D
  5
360D
331
3683
  5
3683
331
3709
  5
3709
331
3711
  5
3711
331
368B
  5
368B
331
364C
  5
364C
331
35D6
  5
35D6
331
3615
  5
3615
331
36D2
  5
36D2
331
37EF
  5
37EF
331
E0D
  5
E0D
331
357B
  5
357B
331
3583
  5
3583
331
E15
  5
E15
331
358B
  5
358B
331
E1D
  5
E1D
331
3593
  5
3593
331
36DA
  5
36DA
331
3693
  5
3693
331
35DE
  5
35DE
331
3654
  5
3654
331
3719
  5
3719
331
3778
  5
3778
331
36E2
  5
36E2
331
35E6
  5
35E6
331
365C
  5
365C
331
36AB
  5
36AB
331
3721
  5
3721
331
380F
  5
380F
331
3664
  5
3664
331
35EE
  5
35EE
331
362D
  5
362D
331
36EA
  5
36EA
331
3729
  5
3729
331
3817
  5
3817
331
366C
  5
366C
331
36F2
  5
36F2
331
3788
  5
3788
331
359B
  5
359B
331
DEE
  5
DEE
331
35AB
  5
35AB
331
DF6
  5
DF6
331
3564
  5
3564
331
35B3
  5
35B3
331
DFE
  5
DFE
331
356C
  5
356C
331
E06
  5
E06
331
3574
  5
3574
331
36BB
  5
36BB
331
3674
  5
3674
331
35FE
  5
35FE
331
35BF
  5
35BF
331
3635
  5
3635
331
36FA
  5
36FA
331
3749
  5
3749
331
363D
  5
363D
331
35C7
  5
35C7
331
3606
  5
3606
331
367C
  5
367C
331
3702
  5
3702
331
3751
  5
3751
331
36CB
  5
36CB
331
3645
  5
3645
331
35CF
  5
35CF
331
360E
  5
360E
331
3684
  5
3684
331
370A
  5
370A
331
3712
  5
3712
331
368C
  5
368C
331
35D7
  5
35D7
331
3616
  5
3616
331
36D3
  5
36D3
331
357C
  5
357C
331
E0E
  5
E0E
331
3584
  5
3584
331
E16
  5
E16
331
358C
  5
358C
331
E1E
  5
E1E
331
3594
  5
3594
331
36DB
  5
36DB
331
3655
  5
3655
331
35DF
  5
35DF
331
3694
  5
3694
331
371A
  5
371A
331
36E3
  5
36E3
331
365D
  5
365D
331
36AC
  5
36AC
331
3722
  5
3722
331
3810
  5
3810
331
3665
  5
3665
331
35EF
  5
35EF
331
362E
  5
362E
331
36EB
  5
36EB
331
372A
  5
372A
331
366D
  5
366D
331
3789
  5
3789
331
359C
  5
359C
331
DEF
  5
DEF
331
35AC
  5
35AC
331
DF7
  5
DF7
331
3565
  5
3565
331
35B4
  5
35B4
331
DFF
  5
DFF
331
356D
  5
356D
331
E07
  5
E07
331
3575
  5
3575
331
3818
  5
3818
331
35B8
  5
35B8
331
36BC
  5
36BC
331
3636
  5
3636
331
35FF
  5
35FF
331
35C0
  5
35C0
331
3675
  5
3675
331
36FB
  5
36FB
331
3799
  5
3799
331
374A
  5
374A
331
36C4
  5
36C4
331
363E
  5
363E
331
35C8
  5
35C8
331
3607
  5
3607
331
367D
  5
367D
331
3703
  5
3703
331
3752
  5
3752
331
3646
  5
3646
331
35D0
  5
35D0
331
360F
  5
360F
331
3685
  5
3685
331
370B
  5
370B
331
3713
  5
3713
331
3617
  5
3617
331
368D
  5
368D
331
36D4
  5
36D4
331
357D
  5
357D
331
E0F
  5
E0F
331
3585
  5
3585
331
E17
  5
E17
331
358D
  5
358D
331
DB0
  5
DB0
331
E1F
  5
E1F
331
35D8
  5
35D8
331
36DC
  5
36DC
331
3656
  5
3656
331
35E0
  5
35E0
331
3695
  5
3695
331
371B
  5
371B
331
36E4
  5
36E4
331
365E
  5
365E
331
36AD
  5
36AD
331
3723
  5
3723
331
3811
  5
3811
331
3666
  5
3666
331
362F
  5
362F
331
35F0
  5
35F0
331
36B5
  5
36B5
331
366E
  5
366E
331
378A
  5
378A
331
DF0
  5
DF0
331
35AD
  5
35AD
331
DF8
  5
DF8
331
3566
  5
3566
331
35B5
  5
35B5
331
E00
  5
E00
331
356E
  5
356E
331
3576
  5
3576
331
3819
  5
3819
331
35B9
  5
35B9
331
36BD
  5
36BD
331
3637
  5
3637
331
3600
  5
3600
331
35C1
  5
35C1
331
3676
  5
3676
331
36FC
  5
36FC
331
379A
  5
379A
331
374B
  5
374B
331
36C5
  5
36C5
331
363F
  5
363F
331
35C9
  5
35C9
331
3608
  5
3608
331
367E
  5
367E
331
3704
  5
3704
331
37DA
  5
37DA
331
3753
  5
3753
331
3647
  5
3647
331
35D1
  5
35D1
331
3610
  5
3610
331
3686
  5
3686
331
370C
  5
370C
331
E08
  5
E08
331
3714
  5
3714
331
368E
  5
368E
331
364F
  5
364F
331
36D5
  5
36D5
331
3763
  5
3763
331
357E
  5
357E
331
E10
  5
E10
331
3586
  5
3586
331
E18
  5
E18
331
358E
  5
358E
331
E20
  5
E20
331
3618
  5
3618
331
35D9
  5
35D9
331
36DD
  5
36DD
331
3657
  5
3657
331
35E1
  5
35E1
331
3620
  5
3620
331
3696
  5
3696
331
371C
  5
371C
331
36E5
  5
36E5
331
365F
  5
365F
331
35E9
  5
35E9
331
3628
  5
3628
331
36AE
  5
36AE
331
3724
  5
3724
331
3812
  5
3812
331
36ED
  5
36ED
331
3667
  5
3667
331
35F1
  5
35F1
331
36B6
  5
36B6
331
366F
  5
366F
331
36F5
  5
36F5
331
DF1
  5
DF1
331
35AE
  5
35AE
331
DF9
  5
DF9
331
3567
  5
3567
331
35B6
  5
35B6
331
E01
  5
E01
331
356F
  5
356F
331
3577
  5
3577
331
381A
  5
381A
331
35BA
  5
35BA
331
3630
  5
3630
331
36BE
  5
36BE
331
3638
  5
3638
331
35C2
  5
35C2
331
3601
  5
3601
331
3677
  5
3677
331
36FD
  5
36FD
331
379B
  5
379B
331
37CB
  5
37CB
331
374C
  5
374C
331
36C6
  5
36C6
331
35CA
  5
35CA
331
3640
  5
3640
331
367F
  5
367F
331
3705
  5
3705
331
37DB
  5
37DB
331
3754
  5
3754
331
3648
  5
3648
331
35D2
  5
35D2
331
3611
  5
3611
331
3687
  5
3687
331
370D
  5
370D
331
E09
  5
E09
331
3715
  5
3715
331
368F
  5
368F
331
36D6
  5
36D6
331
3764
  5
3764
331
357F
  5
357F
331
E11
  5
E11
331
3587
  5
3587
331
E19
  5
E19
331
358F
  5
358F
331
E21
  5
E21
331
3597
  5
3597
331
3619
  5
3619
331
35DA
  5
35DA
331
3650
  5
3650
331
3658
  5
3658
331
35E2
  5
35E2
331
3621
  5
3621
331
36DE
  5
36DE
331
371D
  5
371D
331
36E6
  5
36E6
331
3660
  5
3660
331
3629
  5
3629
331
36AF
  5
36AF
331
3725
  5
3725
331
3813
  5
3813
331
36EE
  5
36EE
331
36B7
  5
36B7
331
35F2
  5
35F2
331
3668
  5
3668
331
36F6
  5
36F6
331
DF2
  5
DF2
331
35AF
  5
35AF
331
DFA
  5
DFA
331
3568
  5
3568
331
35B7
  5
35B7
331
E02
  5
E02
331
3570
  5
3570
331
381B
  5
381B
331
3670
  5
3670
331
35BB
  5
35BB
331
3631
  5
3631
331
379C
  5
379C
331
36BF
  5
36BF
331
3639
  5
3639
331
35C3
  5
35C3
331
3602
  5
3602
331
3678
  5
3678
331
36FE
  5
36FE
331
37CC
  5
37CC
331
374D
  5
374D
331
36C7
  5
36C7
331
35CB
  5
35CB
331
3641
  5
3641
331
3680
  5
3680
331
3706
  5
3706
331
37DC
  5
37DC
331
3755
  5
3755
331
370E
  5
370E
331
3649
  5
3649
331
35D3
  5
35D3
331
3612
  5
3612
331
3688
  5
3688
331
3716
  5
3716
331
36D7
  5
36D7
331
3765
  5
3765
331
37EC
  5
37EC
331
E0A
  5
E0A
331
3578
  5
3578
331
3580
  5
3580
331
E12
  5
E12
331
3588
  5
3588
331
E1A
  5
E1A
331
3590
  5
3590
331
3690
  5
3690
331
35DB
  5
35DB
331
3651
  5
3651
331
3775
  5
3775
331
35E3
  5
35E3
331
3659
  5
3659
331
36DF
  5
36DF
331
371E
  5
371E
331
36E7
  5
36E7
331
3661
  5
3661
331
362A
  5
362A
331
36B0
  5
36B0
331
3726
  5
3726
331
3814
  5
3814
331
36EF
  5
36EF
331
35F3
  5
35F3
331
3669
  5
3669
331
3598
  5
3598
331
35A8
  5
35A8
331
DF3
  5
DF3
331
35B0
  5
35B0
331
DFB
  5
DFB
331
3569
  5
3569
331
E03
  5
E03
331
3571
  5
3571
331
381C
  5
381C
331
3671
  5
3671
331
35BC
  5
35BC
331
3632
  5
3632
331
36B8
  5
36B8
331
3746
  5
3746
331
36C0
  5
36C0
331
363A
  5
363A
331
35C4
  5
35C4
331
3603
  5
3603
331
3679
  5
3679
331
36FF
  5
36FF
331
374E
  5
374E
331
36C8
  5
36C8
331
3642
  5
3642
331
35CC
  5
35CC
331
360B
  5
360B
331
3681
  5
3681
331
3707
  5
3707
331
37DD
  5
37DD
331
36D0
  5
36D0
331
364A
  5
364A
331
35D4
  5
35D4
331
3613
  5
3613
331
3689
  5
3689
331
370F
  5
370F
331
3717
  5
3717
331
3766
  5
3766
331
37ED
  5
37ED
331
E0B
  5
E0B
331
3579
  5
3579
331
3581
  5
3581
331
E13
  5
E13
331
3589
  5
3589
331
D9C
  5
D9C
331
E1B
  5
E1B
331
3591
  5
3591
331
3691
  5
3691
331
35DC
  5
35DC
331
3652
  5
3652
331
36D8
  5
36D8
331
3776
  5
3776
331
35E4
  5
35E4
331
365A
  5
365A
331
36E0
  5
36E0
331
371F
  5
371F
331
36E8
  5
36E8
331
3662
  5
3662
331
362B
  5
362B
331
36B1
  5
36B1
331
3727
  5
3727
331
36F0
  5
36F0
331
35F4
  5
35F4
331
366A
  5
366A
331
3815
  5
3815
331
3599
  5
3599
331
35A9
  5
35A9
331
DF4
  5
DF4
331
3562
  5
3562
331
35B1
  5
35B1
331
DFC
  5
DFC
331
356A
  5
356A
331
E04
  5
E04
331
3572
  5
3572
  0
LAYOUT
  5
22
102
{ACAD_XDICTIONARY
360
42FC
102
}
102
{ACAD_REACTORS
330
1A
102
}
330
1A
100
AcDbPlotSettings
  1

  2
\\RD\EPSON Stylus C63 Series單色
  4
A4
  6

 40
3.757083177566528
 41
3.757076978683471
 42
3.757080078125
 43
3.757080078125
 44
209.9733276367187
 45
296.9683227539062
 46
0.0
 47
0.0
 48
0.0
 49
0.0
140
0.0
141
0.0
142
1.0
143
0.3405120737814363
 70
 11952
 72
     1
 73
     0
 74
     0
  7
單色出圖.ctb
 75
     0
147
2.936753428137963
148
-2047.07469463503
149
-1261.649717473083
100
AcDbLayout
  1
Model
 70
     1
 71
     0
 10
0.0
 20
0.0
 11
12.0
 21
9.0
 12
0.0
 22
0.0
 32
0.0
 14
0.0
 24
0.0
 34
0.0
 15
0.0
 25
0.0
 35
0.0
146
0.0
 13
0.0
 23
0.0
 33
0.0
 16
1.0
 26
0.0
 36
0.0
 17
0.0
 27
1.0
 37
0.0
 76
     0
330
1F
1001
ACAD_PSEXT
1000
\\RD\EPSON Stylus C63 Series單色
1000
EPSON Stylus C63 Series
1000
\\RD
1000

1070
     0
  0
LAYOUT
  5
1E
102
{ACAD_XDICTIONARY
360
42FA
102
}
102
{ACAD_REACTORS
330
1A
102
}
330
1A
100
AcDbPlotSettings
  1

  2

  4

  6

 40
0.0
 41
0.0
 42
0.0
 43
0.0
 44
0.0
 45
0.0
 46
0.0
 47
0.0
 48
0.0
 49
0.0
140
0.0
141
0.0
142
1.0
143
1.0
 70
   688
 72
     0
 73
     0
 74
     5
  7
單色出圖.ctb
 75
    16
147
1.0
148
0.0
149
0.0
100
AcDbLayout
  1
配置1
 70
     1
 71
     1
 10
0.0
 20
0.0
 11
420.0
 21
297.0
 12
0.0
 22
0.0
 32
0.0
 14
1.000000000000000E+20
 24
1.000000000000000E+20
 34
1.000000000000000E+20
 15
-1.000000000000000E+20
 25
-1.000000000000000E+20
 35
-1.000000000000000E+20
146
0.0
 13
0.0
 23
0.0
 33
0.0
 16
1.0
 26
0.0
 36
0.0
 17
0.0
 27
1.0
 37
0.0
 76
     0
330
1B
  0
LAYOUT
  5
26
102
{ACAD_XDICTIONARY
360
42FE
102
}
102
{ACAD_REACTORS
330
1A
102
}
330
1A
100
AcDbPlotSettings
  1

  2

  4

  6

 40
0.0
 41
0.0
 42
0.0
 43
0.0
 44
0.0
 45
0.0
 46
0.0
 47
0.0
 48
0.0
 49
0.0
140
0.0
141
0.0
142
1.0
143
1.0
 70
   688
 72
     0
 73
     0
 74
     5
  7
單色出圖.ctb
 75
    16
147
1.0
148
0.0
149
0.0
100
AcDbLayout
  1
配置2
 70
     1
 71
     2
 10
0.0
 20
0.0
 11
12.0
 21
9.0
 12
0.0
 22
0.0
 32
0.0
 14
0.0
 24
0.0
 34
0.0
 15
0.0
 25
0.0
 35
0.0
146
0.0
 13
0.0
 23
0.0
 33
0.0
 16
1.0
 26
0.0
 36
0.0
 17
0.0
 27
1.0
 37
0.0
 76
     0
330
23
  0
MLINESTYLE
  5
18
102
{ACAD_REACTORS
330
17
102
}
330
17
100
AcDbMlineStyle
  2
STANDARD
 70
     0
  3

 62
   256
 51
90.0
 52
90.0
 71
     2
 49
0.5
 62
   256
  6
BYLAYER
 49
-0.5
 62
   256
  6
BYLAYER
  0
ACDBPLACEHOLDER
  5
F
102
{ACAD_REACTORS
330
E
102
}
330
E
  0
TABLESTYLE
  5
11B
102
{ACAD_REACTORS
330
11A
102
}
330
11A
100
AcDbTableStyle
  3
Standard
 70
     0
 71
     0
 40
1.5
 41
1.5
280
     0
281
     0
  7
STANDARD
140
4.5
170
     2
 62
     0
 63
     7
283
     0
274
    -2
284
     1
 64
     0
275
    -2
285
     1
 65
     0
276
    -2
286
     1
 66
     0
277
    -2
287
     1
 67
     0
278
    -2
288
     1
 68
     0
279
    -2
289
     1
 69
     0
  7
STANDARD
140
6.0
170
     5
 62
     0
 63
     7
283
     0
274
    -2
284
     1
 64
     0
275
    -2
285
     1
 65
     0
276
    -2
286
     1
 66
     0
277
    -2
287
     1
 67
     0
278
    -2
288
     1
 68
     0
279
    -2
289
     1
 69
     0
  7
STANDARD
140
4.5
170
     5
 62
     0
 63
     7
283
     0
274
    -2
284
     1
 64
     0
275
    -2
285
     1
 65
     0
276
    -2
286
     1
 66
     0
277
    -2
287
     1
 67
     0
278
    -2
288
     1
 68
     0
279
    -2
289
     1
 69
     0
  0
DICTIONARYVAR
  5
138
102
{ACAD_REACTORS
330
94
102
}
330
94
100
DictionaryVariables
280
     0
  1
STANDARD
  0
DICTIONARYVAR
  5
96
102
{ACAD_REACTORS
330
94
102
}
330
94
100
DictionaryVariables
280
     0
  1
2
  0
DICTIONARYVAR
  5
95
102
{ACAD_REACTORS
330
94
102
}
330
94
100
DictionaryVariables
280
     0
  1
0
  0
DICTIONARYVAR
  5
42F6
102
{ACAD_REACTORS
330
94
102
}
330
94
100
DictionaryVariables
280
     0
  1

  0
DICTIONARY
  5
1B5
102
{ACAD_REACTORS
330
5B
102
}
330
5B
100
AcDbDictionary
281
     1
  0
DICTIONARY
  5
61
102
{ACAD_REACTORS
330
5B
102
}
330
5B
100
AcDbDictionary
281
     1
  0
XRECORD
  5
123
102
{ACAD_REACTORS
330
5B
102
}
330
5B
100
AcDbXrecord
280
     1
 90
-1023410169
  0
DICTIONARY
  5
42FC
330
22
100
AcDbDictionary
280
     1
281
     1
  3
ACAD_XREC_ROUNDTRIP
360
42FD
  0
DICTIONARY
  5
42FA
330
1E
100
AcDbDictionary
280
     1
281
     1
  3
ACAD_XREC_ROUNDTRIP
360
42FB
  0
DICTIONARY
  5
42FE
330
26
100
AcDbDictionary
280
     1
281
     1
  3
ACAD_XREC_ROUNDTRIP
360
42FF
  0
XRECORD
  5
42FD
102
{ACAD_REACTORS
330
42FC
102
}
330
42FC
100
AcDbXrecord
280
     1
102
SHADEPLOT
 70
     0
102
SHADEPLOTRESLEVEL
 70
     2
102
SHADEPLOTCUSTOMDPI
 70
   300
  0
XRECORD
  5
42FB
102
{ACAD_REACTORS
330
42FA
102
}
330
42FA
100
AcDbXrecord
280
     1
102
SHADEPLOT
 70
     0
102
SHADEPLOTRESLEVEL
 70
     2
102
SHADEPLOTCUSTOMDPI
 70
   300
  0
XRECORD
  5
42FF
102
{ACAD_REACTORS
330
42FE
102
}
330
42FE
100
AcDbXrecord
280
     1
102
SHADEPLOT
 70
     0
102
SHADEPLOTRESLEVEL
 70
     2
102
SHADEPLOTCUSTOMDPI
 70
   300
  0
ENDSEC
  0
EOF
