  0
SECTION
  2
HEADER
  9
$ACADVER
  1
AC1015
  9
$ACADMAINTVER
 70
    20
  9
$DWGCODEPAGE
  3
ANSI_950
  9
$INSBASE
 10
0.0
 20
0.0
 30
0.0
  9
$EXTMIN
 10
2053.997133338053
 20
1252.907685798967
 30
-0.011597142107064
  9
$EXTMAX
 10
2417.73885399079
 20
1762.402318196354
 30
203.9707322237154
  9
$LIMMIN
 10
0.0
 20
0.0
  9
$LIMMAX
 10
420.0
 20
297.0
  9
$ORTHOMODE
 70
     1
  9
$REGENMODE
 70
     1
  9
$FILLMODE
 70
     1
  9
$QTEXTMODE
 70
     0
  9
$MIRRTEXT
 70
     1
  9
$LTSCALE
 40
1.0
  9
$ATTMODE
 70
     1
  9
$TEXTSIZE
 40
3.0
  9
$TRACEWID
 40
1.0
  9
$TEXTSTYLE
  7
CHINESET
  9
$CLAYER
  8
0
  9
$CELTYPE
  6
ByLayer
  9
$CECOLOR
 62
   256
  9
$CELTSCALE
 40
1.0
  9
$DISPSILH
 70
     0
  9
$DIMSCALE
 40
1.0
  9
$DIMASZ
 40
3.0
  9
$DIMEXO
 40
1.0
  9
$DIMDLI
 40
10.0
  9
$DIMRND
 40
0.0
  9
$DIMDLE
 40
0.0
  9
$DIMEXE
 40
1.5
  9
$DIMTP
 40
0.1
  9
$DIMTM
 40
0.1
  9
$DIMTXT
 40
3.0
  9
$DIMCEN
 40
0.0
  9
$DIMTSZ
 40
0.0
  9
$DIMTOL
 70
     0
  9
$DIMLIM
 70
     0
  9
$DIMTIH
 70
     0
  9
$DIMTOH
 70
     0
  9
$DIMSE1
 70
     0
  9
$DIMSE2
 70
     0
  9
$DIMTAD
 70
     1
  9
$DIMZIN
 70
     8
  9
$DIMBLK
  1

  9
$DIMASO
 70
     1
  9
$DIMSHO
 70
     1
  9
$DIMPOST
  1

  9
$DIMAPOST
  1
"
  9
$DIMALT
 70
     0
  9
$DIMALTD
 70
     2
  9
$DIMALTF
 40
0.0393701
  9
$DIMLFAC
 40
1.0
  9
$DIMTOFL
 70
     1
  9
$DIMTVP
 40
0.0
  9
$DIMTIX
 70
     0
  9
$DIMSOXD
 70
     0
  9
$DIMSAH
 70
     0
  9
$DIMBLK1
  1

  9
$DIMBLK2
  1

  9
$DIMSTYLE
  2
AM_ISO
  9
$DIMCLRD
 70
   256
  9
$DIMCLRE
 70
   256
  9
$DIMCLRT
 70
   256
  9
$DIMTFAC
 40
0.71
  9
$DIMGAP
 40
1.0
  9
$DIMJUST
 70
     0
  9
$DIMSD1
 70
     0
  9
$DIMSD2
 70
     0
  9
$DIMTOLJ
 70
     0
  9
$DIMTZIN
 70
     8
  9
$DIMALTZ
 70
     0
  9
$DIMALTTZ
 70
     0
  9
$DIMUPT
 70
     0
  9
$DIMDEC
 70
     2
  9
$DIMTDEC
 70
     8
  9
$DIMALTU
 70
     2
  9
$DIMALTTD
 70
     2
  9
$DIMTXSTY
  7
STANDARD
  9
$DIMAUNIT
 70
     0
  9
$DIMADEC
 70
     0
  9
$DIMALTRND
 40
0.0
  9
$DIMAZIN
 70
     2
  9
$DIMDSEP
 70
    46
  9
$DIMATFIT
 70
     3
  9
$DIMFRAC
 70
     0
  9
$DIMLDRBLK
  1

  9
$DIMLUNIT
 70
     2
  9
$DIMLWD
 70
    -1
  9
$DIMLWE
 70
    -1
  9
$DIMTMOVE
 70
     0
  9
$LUNITS
 70
     2
  9
$LUPREC
 70
     2
  9
$SKETCHINC
 40
1.0
  9
$FILLETRAD
 40
2.5
  9
$AUNITS
 70
     0
  9
$AUPREC
 70
     0
  9
$MENU
  1
.
  9
$ELEVATION
 40
0.0
  9
$PELEVATION
 40
0.0
  9
$THICKNESS
 40
0.0
  9
$LIMCHECK
 70
     0
  9
$CHAMFERA
 40
2.5
  9
$CHAMFERB
 40
2.5
  9
$CHAMFERC
 40
20.0
  9
$CHAMFERD
 40
0.0
  9
$SKPOLY
 70
     0
  9
$TDCREATE
 40
2453595.458965741
  9
$TDUCREATE
 40
2453595.125632408
  9
$TDUPDATE
 40
2454713.340478276
  9
$TDUUPDATE
 40
2454713.007144942
  9
$TDINDWG
 40
0.3799286921
  9
$TDUSRTIMER
 40
0.3799286921
  9
$USRTIMER
 70
     1
  9
$ANGBASE
 50
0.0
  9
$ANGDIR
 70
     0
  9
$PDMODE
 70
     0
  9
$PDSIZE
 40
0.0
  9
$PLINEWID
 40
0.0
  9
$SPLFRAME
 70
     0
  9
$SPLINETYPE
 70
     6
  9
$SPLINESEGS
 70
     8
  9
$HANDSEED
  5
2557
  9
$SURFTAB1
 70
     6
  9
$SURFTAB2
 70
     6
  9
$SURFTYPE
 70
     6
  9
$SURFU
 70
     6
  9
$SURFV
 70
     6
  9
$UCSBASE
  2

  9
$UCSNAME
  2

  9
$UCSORG
 10
0.0
 20
0.0
 30
0.0
  9
$UCSXDIR
 10
1.0
 20
0.0
 30
0.0
  9
$UCSYDIR
 10
0.0
 20
1.0
 30
0.0
  9
$UCSORTHOREF
  2

  9
$UCSORTHOVIEW
 70
     0
  9
$UCSORGTOP
 10
0.0
 20
0.0
 30
0.0
  9
$UCSORGBOTTOM
 10
0.0
 20
0.0
 30
0.0
  9
$UCSORGLEFT
 10
0.0
 20
0.0
 30
0.0
  9
$UCSORGRIGHT
 10
0.0
 20
0.0
 30
0.0
  9
$UCSORGFRONT
 10
0.0
 20
0.0
 30
0.0
  9
$UCSORGBACK
 10
0.0
 20
0.0
 30
0.0
  9
$PUCSBASE
  2

  9
$PUCSNAME
  2

  9
$PUCSORG
 10
0.0
 20
0.0
 30
0.0
  9
$PUCSXDIR
 10
1.0
 20
0.0
 30
0.0
  9
$PUCSYDIR
 10
0.0
 20
1.0
 30
0.0
  9
$PUCSORTHOREF
  2

  9
$PUCSORTHOVIEW
 70
     0
  9
$PUCSORGTOP
 10
0.0
 20
0.0
 30
0.0
  9
$PUCSORGBOTTOM
 10
0.0
 20
0.0
 30
0.0
  9
$PUCSORGLEFT
 10
0.0
 20
0.0
 30
0.0
  9
$PUCSORGRIGHT
 10
0.0
 20
0.0
 30
0.0
  9
$PUCSORGFRONT
 10
0.0
 20
0.0
 30
0.0
  9
$PUCSORGBACK
 10
0.0
 20
0.0
 30
0.0
  9
$USERI1
 70
     0
  9
$USERI2
 70
     0
  9
$USERI3
 70
     0
  9
$USERI4
 70
     0
  9
$USERI5
 70
     0
  9
$USERR1
 40
0.0
  9
$USERR2
 40
0.0
  9
$USERR3
 40
0.0
  9
$USERR4
 40
0.0
  9
$USERR5
 40
0.0
  9
$WORLDVIEW
 70
     1
  9
$SHADEDGE
 70
     3
  9
$SHADEDIF
 70
    70
  9
$TILEMODE
 70
     1
  9
$MAXACTVP
 70
    64
  9
$PINSBASE
 10
0.0
 20
0.0
 30
0.0
  9
$PLIMCHECK
 70
     0
  9
$PEXTMIN
 10
1.000000000000000E+20
 20
1.000000000000000E+20
 30
1.000000000000000E+20
  9
$PEXTMAX
 10
-1.000000000000000E+20
 20
-1.000000000000000E+20
 30
-1.000000000000000E+20
  9
$PLIMMIN
 10
0.0
 20
0.0
  9
$PLIMMAX
 10
420.0
 20
297.0
  9
$UNITMODE
 70
     0
  9
$VISRETAIN
 70
     1
  9
$PLINEGEN
 70
     0
  9
$PSLTSCALE
 70
     1
  9
$TREEDEPTH
 70
  3020
  9
$CMLSTYLE
  2
Standard
  9
$CMLJUST
 70
     0
  9
$CMLSCALE
 40
20.0
  9
$PROXYGRAPHICS
 70
     1
  9
$MEASUREMENT
 70
     1
  9
$CELWEIGHT
370
    -1
  9
$ENDCAPS
280
     0
  9
$JOINSTYLE
280
     0
  9
$LWDISPLAY
290
     0
  9
$INSUNITS
 70
     4
  9
$HYPERLINKBASE
  1

  9
$STYLESHEET
  1
彩色出圖.ctb
  9
$XEDIT
290
     1
  9
$CEPSNTYPE
380
     0
  9
$PSTYLEMODE
290
     1
  9
$FINGERPRINTGUID
  2
{9E01B807-D114-4957-B4FC-231A1635D619}
  9
$VERSIONGUID
  2
{421261EC-D8D6-4A42-A270-2EAA5DFB228A}
  9
$EXTNAMES
290
     1
  9
$PSVPSCALE
 40
0.0
  9
$OLESTARTUP
290
     0
  0
ENDSEC
  0
SECTION
  2
CLASSES
  0
CLASS
  1
ACDBDICTIONARYWDFLT
  2
AcDbDictionaryWithDefault
  3
ObjectDBX Classes
 90
        0
280
     0
281
     0
  0
CLASS
  1
ACDBPLACEHOLDER
  2
AcDbPlaceHolder
  3
ObjectDBX Classes
 90
        0
280
     0
281
     0
  0
CLASS
  1
LAYOUT
  2
AcDbLayout
  3
ObjectDBX Classes
 90
        0
280
     0
281
     0
  0
CLASS
  1
ACME_DOCUMENT
  2
AcMeDbDoc
  3
AcMeServices
 90
        0
280
     0
281
     0
  0
CLASS
  1
AMGSETTINGSOBJ
  2
AmgSettingsObj
  3
"AcadM|Product Description: AutoCAD Mechanical 2000|Company: Autodesk"
 90
        0
280
     0
281
     0
  0
CLASS
  1
ACMESCOPE
  2
AcMeScope
  3
AcMeServices
 90
        0
280
     0
281
     0
  0
CLASS
  1
ACMECOMMANDHISTORY
  2
AcMeCommandHistory
  3
AcMeServices
 90
        0
280
     0
281
     0
  0
CLASS
  1
ACIMSYSVARMAN
  2
AcImSysVarManager
  3
AcMeServices
 90
        0
280
     0
281
     0
  0
CLASS
  1
ACIMREALSYSVAR
  2
AcImRealSysVar
  3
AcMeServices
 90
        0
280
     0
281
     0
  0
CLASS
  1
ACIMINTSYSVAR
  2
AcImIntSysVar
  3
AcMeServices
 90
        0
280
     0
281
     0
  0
CLASS
  1
ACMEDRAWINGMAN
  2
AcMeDrawingMan
  3
AcMeServices
 90
        0
280
     0
281
     0
  0
CLASS
  1
ACMEVIEW
  2
AcMeView
  3
AcMeServices
 90
        0
280
     0
281
     0
  0
CLASS
  1
ACDBENTITYCACHE
  2
AcMeEntityCache
  3
AcMeServices
 90
        0
280
     0
281
     0
  0
CLASS
  1
GSMANAGER
  2
AcMeGSManager
  3
AcMeServices
 90
        0
280
     0
281
     0
  0
CLASS
  1
AMDTINTERNALREACTOR
  2
AmdtInternalReactor
  3
AcMeServices
 90
        0
280
     0
281
     0
  0
CLASS
  1
ACMESTATEMGR
  2
AcMeStateMgr
  3
AcMeServices
 90
        0
280
     0
281
     0
  0
CLASS
  1
ACGREFMASTER
  2
AcGrefMaster
  3
AcAttribServices
 90
        0
280
     0
281
     0
  0
CLASS
  1
ACME_DATABASE
  2
AcMeDbDatabase
  3
AcMeServices
 90
        0
280
     0
281
     0
  0
CLASS
  1
ACRFINSADJUSTERMGR
  2
AcRfInsAdjusterMgr
  3
AcMeServices
 90
        0
280
     0
281
     0
  0
CLASS
  1
ACGREFACADMASTER
  2
AcGrefacadMaster
  3
AcGrefServices
 90
        0
280
     0
281
     0
  0
CLASS
  1
AMIMASTER
  2
AmiMaster
  3
AmiServices
 90
        0
280
     0
281
     0
  0
CLASS
  1
ACMDATADICTIONARY
  2
AcmDataDictionary
  3
"AcmSymBB|Product Description: AutoCAD Mechanical 2004 DX|Company: Autodesk"
 90
        0
280
     0
281
     0
  0
CLASS
  1
ACMDATAENTRYBLOCK
  2
AcmDataEntryBlock
  3
"AcmSymBB|Product Description: AutoCAD Mechanical 2004 DX|Company: Autodesk"
 90
    32768
280
     0
281
     0
  0
CLASS
  1
ACIMSTRSYSVAR
  2
AcImStrSysVar
  3
AcMeServices
 90
        0
280
     0
281
     0
  0
CLASS
  1
ACMSTANDARDISO
  2
AcmStandardISO
  3
"Amdt_StdImp|Product Description: AutoCAD Mechanical 2004 DX|Company: Autodesk"
 90
        0
280
     0
281
     0
  0
CLASS
  1
AMGOBJPROPCFG
  2
AmgObjPropCfg
  3
"AmgLay|Product Description: AutoCAD Mechanical 2000|Company: Autodesk"
 90
        1
280
     0
281
     0
  0
CLASS
  1
AMDTEDGESTANDARDISO
  2
AmdtEdgeStdISO
  3
"Amdt_StdImp|Product Description: AutoCAD Mechanical 2004 DX|Company: Autodesk"
 90
    32768
280
     0
281
     0
  0
CLASS
  1
ACMSURFSTANDARDISO
  2
AcmSurfTextStdISO
  3
"Amdt_StdImp|Product Description: AutoCAD Mechanical 2004 DX|Company: Autodesk"
 90
        0
280
     0
281
     0
  0
CLASS
  1
ACMFCFSTANDARDISO
  2
AcmFCFStdISO
  3
"Amdt_StdImp|Product Description: AutoCAD Mechanical 2004 DX|Company: Autodesk"
 90
        0
280
     0
281
     0
  0
CLASS
  1
ACMWELDSTANDARDISO
  2
AcmWeldingStdISO
  3
"Amdt_StdImp|Product Description: AutoCAD Mechanical 2004 DX|Company: Autodesk"
 90
        0
280
     0
281
     0
  0
CLASS
  1
ACMIDSTANDARDISO
  2
AcmIdStdISO
  3
"Amdt_StdImp|Product Description: AutoCAD Mechanical 2004 DX|Company: Autodesk"
 90
        0
280
     0
281
     0
  0
CLASS
  1
ACMDATUMSTANDARDISO
  2
AcmDatumStdISO
  3
"Amdt_StdImp|Product Description: AutoCAD Mechanical 2004 DX|Company: Autodesk"
 90
        0
280
     0
281
     0
  0
CLASS
  1
ACMBOMSTANDARDISO
  2
AcmBOMStdISO
  3
"Amdt_StdImp|Product Description: AutoCAD Mechanical 2004 DX|Company: Autodesk"
 90
        0
280
     0
281
     0
  0
CLASS
  1
ACMDETAILSTANDARDISO
  2
AmdtDetailSymStdISO
  3
"Amdt_StdImp|Product Description: AutoCAD Mechanical 2004 DX|Company: Autodesk"
 90
        0
280
     0
281
     0
  0
CLASS
  1
ACMSECTIONSTANDARDISO
  2
AmdtSectionSymStdISO
  3
"Amdt_StdImp|Product Description: AutoCAD Mechanical 2004 DX|Company: Autodesk"
 90
        0
280
     0
281
     0
  0
CLASS
  1
ACMCENTERLINESTANDARDISO
  2
AmdtCenterLineStdISO
  3
"Amdt_StdImp|Product Description: AutoCAD Mechanical 2004 DX|Company: Autodesk"
 90
        0
280
     0
281
     0
  0
CLASS
  1
ACMNOTESTANDARDISO
  2
AmdtNoteStdISO
  3
"Amdt_StdImp|Product Description: AutoCAD Mechanical 2004 DX|Company: Autodesk"
 90
        0
280
     0
281
     0
  0
CLASS
  1
ACAMGLAYSTD
  2
AcAmgLayStd
  3
"AcAmgLayStd|Product Description: AutoCAD Mechanical 2000|Company: Autodesk"
 90
        0
280
     0
281
     0
  0
CLASS
  1
ACAMGDIMSTD
  2
AcAmgDimStd
  3
"AcAmgDimStd|Product Description: AutoCAD Mechanical 2000|Company: Autodesk"
 90
        0
280
     0
281
     0
  0
CLASS
  1
ACAMGHOLECHARTSTDISO
  2
AcAmgHoleChartStdISO
  3
ACMSYMBB_MODULE_NAME
 90
        0
280
     0
281
     0
  0
CLASS
  1
ACAMGTITLESTD
  2
AcAmgTitleStd
  3
"TITLEAPP"
 90
        0
280
     0
281
     0
  0
CLASS
  1
LAYER_INDEX
  2
AcDbLayerIndex
  3
ObjectDBX Classes
 90
    32768
280
     0
281
     0
  0
CLASS
  1
IDBUFFER
  2
AcDbIdBuffer
  3
ObjectDBX Classes
 90
    32768
280
     0
281
     0
  0
CLASS
  1
DICTIONARYVAR
  2
AcDbDictionaryVar
  3
ObjectDBX Classes
 90
        0
280
     0
281
     0
  0
CLASS
  1
AM_DRAWING_MGR
  2
AcDmDwgMgr
  3
AcMechDwgViewMgmt
 90
        0
280
     0
281
     0
  0
CLASS
  1
AM_DWG_DOCUMENT
  2
AcDmDwgDocument
  3
AcMechDwgViewMgmt
 90
        0
280
     0
281
     0
  0
CLASS
  1
AM_DWG_SHEET
  2
AcDmSheet
  3
AcMechDwgViewMgmt
 90
        0
280
     0
281
     0
  0
CLASS
  1
AM_VIEWDIMPARMAP
  2
AcDmViewDimParMap
  3
AcMechDwgViewMgmt
 90
        0
280
     0
281
     0
  0
CLASS
  1
AM_DWGMGR_NAME
  2
AcDmDwgMgrName
  3
AcMechDwgViewMgmt
 90
        0
280
     0
281
     0
  0
CLASS
  1
AMDTMENUSTATEMGR
  2
AmdtMenuStateMgr
  3
McadcomServices
 90
        0
280
     0
281
     0
  0
CLASS
  1
AMDTMCOMMENUSTATE
  2
AmdtMcomMenuState
  3
McadcomServices
 90
        0
280
     0
281
     0
  0
CLASS
  1
MAPIAMMOUDLE
  2
MApiAmModule
  3
MApiAmServices
 90
        0
280
     0
281
     0
  0
CLASS
  1
AMDTADMENUSTATE
  2
AmdtAdMenuState
  3
DesignerServices
 90
        0
280
     0
281
     0
  0
CLASS
  1
ADAPPL
  2
AcAdAppl
  3
DesignerServices
 90
        0
280
     0
281
     0
  0
CLASS
  1
DEPMGR
  2
AcAdDepMgr
  3
DesignerServices
 90
        0
280
     0
281
     0
  0
CLASS
  1
PARAMMGR
  2
AcAdParamMgr
  3
DesignerServices
 90
        0
280
     0
281
     0
  0
CLASS
  1
PARAMSCOPE
  2
AcAdParamScope
  3
DesignerServices
 90
        0
280
     0
281
     0
  0
CLASS
  1
NAMEDAPPL
  2
AcAdNamedAppl
  3
DesignerServices
 90
        0
280
     0
281
     0
  0
CLASS
  1
AMDTDMMENUSTATE
  2
AmdtDmMenuState
  3
AcMechDwgViewMgmt
 90
        0
280
     0
281
     0
  0
CLASS
  1
AMDTAMMENUSTATE
  2
AmdtAmMenuState
  3
DesignerAssemblies
 90
        0
280
     0
281
     0
  0
CLASS
  1
ACAMPROJECT
  2
AcAmProject
  3
DesignerAssemblies
 90
        0
280
     0
281
     0
  0
CLASS
  1
ACAMGRCOMPDEF
  2
AcAmGrCompDef
  3
DesignerAssemblies
 90
        0
280
     0
281
     0
  0
CLASS
  1
ACCMCONTEXT
  2
AcCmContext
  3
DesignerAssemblies
 90
        0
280
     0
281
     0
  0
CLASS
  1
ACAMCOMPDEF
  2
AcAmCompDef
  3
DesignerAssemblies
 90
        0
280
     0
281
     0
  0
CLASS
  1
ACAMCOMPDEFMGR
  2
AcAmCompDefMgr
  3
DesignerAssemblies
 90
        0
280
     0
281
     0
  0
CLASS
  1
AMCONTEXTMGR
  2
AcAmContextMgr
  3
DesignerAssemblies
 90
        0
280
     0
281
     0
  0
CLASS
  1
ACAMCONTEXTMODELER
  2
AcAmContextModeler
  3
DesignerAssemblies
 90
        0
280
     0
281
     0
  0
CLASS
  1
ACMTHREADLINESTANDARDISO
  2
AmdtThreadLineStdISO
  3
"Amdt_StdImp|Product Description: AutoCAD Mechanical 2004 DX|Company: Autodesk"
 90
        0
280
     0
281
     0
  0
CLASS
  1
CATALOGSTATE
  2
AcAmCatalogState
  3
DesignerAssemblies
 90
        0
280
     0
281
     0
  0
CLASS
  1
ACAMGRCOMPDEFSET
  2
AcAmGrCompDefSet
  3
DesignerAssemblies
 90
        0
280
     0
281
     0
  0
CLASS
  1
AMDTBROWSERDBTAB
  2
AmdtBrowserDbTab
  3
McadcomServices
 90
        0
280
     0
281
     0
  0
CLASS
  1
CBROWSERAPPOBJECT
  2
CBrowserAppObject
  3
McadcomServices
 90
        0
280
     0
281
     0
  0
CLASS
  1
DM_PLACEHOLDER
  2
AcDmSelsetPlaceholder
  3
AcMechDwgViewMgmt
 90
        0
280
     0
281
     0
  0
CLASS
  1
TABLESTYLE
  2
AcDbTableStyle
  3
ObjectDBX Classes
 90
     2047
280
     0
281
     0
  0
CLASS
  1
VAACXREFPANELOBJECT
  2
VaAcXREFPanelObject
  3
VAAC_ADDIN
 90
    32768
280
     0
281
     0
  0
CLASS
  1
VAACIMAGEINVENTORY
  2
VaAcImageInventory
  3
VAAC_ADDIN
 90
    32768
280
     0
281
     0
  0
CLASS
  1
AMDTNOTETEMPLATEDB
  2
AmdtNoteTemplateDB
  3
AMDT_STDIMP_MODULE_NAME
 90
        0
280
     0
281
     0
  0
CLASS
  1
ACMBOM
  2
AcmBom
  3
"AcmSymBB|Product Description: AutoCAD Mechanical 2004 DX|Company: Autodesk"
 90
    32768
280
     0
281
     0
  0
CLASS
  1
AMDTFORMULAUPDATEDISPATCHER
  2
AmdtFormulaUpdateDispatcher
  3
AcMeServices
 90
    32768
280
     0
281
     0
  0
CLASS
  1
ACMPARTLIST
  2
AcmPartList
  3
"AcmSymBB|Product Description: AutoCAD Mechanical 2004 DX|Company: Autodesk"
 90
    33791
280
     0
281
     1
  0
CLASS
  1
ACAMGFILTERDAT
  2
AcAmgFilterDat
  3
"AcadM|Product Description: AutoCAD Mechanical 2000|Company: Autodesk"
 90
    32768
280
     0
281
     0
  0
CLASS
  1
DIMASSOC
  2
AcDbDimAssoc
  3
"AcDbDimAssoc|Product Desc:     AcDim ARX App For Dimension|Company:          Autodesk, Inc.|WEB Address:      www.autodesk.com"
 90
        0
280
     0
281
     0
  0
CLASS
  1
SORTENTSTABLE
  2
AcDbSortentsTable
  3
ObjectDBX Classes
 90
    32768
280
     0
281
     0
  0
CLASS
  1
AMDTNOTE
  2
AmdtNote
  3
"AcmSymBB|Product Description: AutoCAD Mechanical 2004 DX|Company: Autodesk"
 90
    33791
280
     0
281
     1
  0
CLASS
  1
AMDTEDGESTANDARDISO13715
  2
AmdtEdgeStdISO13715
  3
"Amdt_StdImp|Product Description: AutoCAD Mechanical 2004 DX|Company: Autodesk"
 90
        0
280
     0
281
     0
  0
CLASS
  1
ACRFATTGENMGR
  2
AcRfAttGeneralMgr
  3
AcAttribServices
 90
        0
280
     0
281
     0
  0
ENDSEC
  0
SECTION
  2
TABLES
  0
TABLE
  2
VPORT
  5
8
330
0
100
AcDbSymbolTable
 70
   139
  0
VPORT
  5
254E
330
8
100
AcDbSymbolTableRecord
100
AcDbViewportTableRecord
  2
*Active
 70
     0
 10
0.0
 20
0.0
 11
1.0
 21
1.0
 12
2235.867993664421
 22
1507.655001997661
 13
0.0
 23
0.0
 14
2.5
 24
2.5
 15
10.0
 25
10.0
 16
0.0
 26
0.0
 36
1.0
 17
0.0
 27
0.0
 37
0.0
 40
513.3988058257187
 41
1.019181585677749
 42
50.0
 43
0.0
 44
0.0
 50
0.0
 51
0.0
 71
     0
 72
   100
 73
     1
 74
     3
 75
     0
 76
     0
 77
     0
 78
     0
281
     0
 65
     1
110
0.0
120
0.0
130
0.0
111
1.0
121
0.0
131
0.0
112
0.0
122
1.0
132
0.0
 79
     0
146
0.0
  0
ENDTAB
  0
TABLE
  2
LTYPE
  5
5
330
0
100
AcDbSymbolTable
 70
    14
  0
LTYPE
  5
14
330
5
100
AcDbSymbolTableRecord
100
AcDbLinetypeTableRecord
  2
ByBlock
 70
     0
  3

 72
    65
 73
     0
 40
0.0
  0
LTYPE
  5
15
330
5
100
AcDbSymbolTableRecord
100
AcDbLinetypeTableRecord
  2
ByLayer
 70
     0
  3

 72
    65
 73
     0
 40
0.0
  0
LTYPE
  5
16
330
5
100
AcDbSymbolTableRecord
100
AcDbLinetypeTableRecord
  2
Continuous
 70
     0
  3
Solid line
 72
    65
 73
     0
 40
0.0
  0
LTYPE
  5
64
330
5
100
AcDbSymbolTableRecord
100
AcDbLinetypeTableRecord
  2
AM_ISO02W050
 70
     0
  3
__ __ __ __ __ __ __ __ __ __ __ __ __ __ __
 72
    65
 73
     2
 40
7.5
 49
6.0
 74
     0
 49
-1.5
 74
     0
  0
LTYPE
  5
65
330
5
100
AcDbSymbolTableRecord
100
AcDbLinetypeTableRecord
  2
AM_ISO08W050
 70
     0
  3
____ . ____ . ____ . ____ . ____ . ____ . ____
 72
    65
 73
     4
 40
18.0
 49
12.0
 74
     0
 49
-1.5
 74
     0
 49
3.0
 74
     0
 49
-1.5
 74
     0
  0
LTYPE
  5
66
330
5
100
AcDbSymbolTableRecord
100
AcDbLinetypeTableRecord
  2
AM_ISO09W050
 70
     0
  3
_____ . . _____ . . _____ . . ____ .. ____
 72
    65
 73
     6
 40
22.5
 49
12.0
 74
     0
 49
-1.5
 74
     0
 49
3.0
 74
     0
 49
-1.5
 74
     0
 49
3.0
 74
     0
 49
-1.5
 74
     0
  0
LTYPE
  5
67
330
5
100
AcDbSymbolTableRecord
100
AcDbLinetypeTableRecord
  2
Amconstr
 70
     0
  3
_______________________
 72
    65
 73
     2
 40
9999.0
 49
9999.0
 74
     0
 49
0.0
 74
     0
  0
LTYPE
  5
68
330
5
100
AcDbSymbolTableRecord
100
AcDbLinetypeTableRecord
  2
AM_ISO08W050x2
 70
     0
  3
__ . __ . __ . __ . __ . __
 72
    65
 73
     4
 40
9.0
 49
6.0
 74
     0
 49
-0.75
 74
     0
 49
1.5
 74
     0
 49
-0.75
 74
     0
  0
LTYPE
  5
69
330
5
100
AcDbSymbolTableRecord
100
AcDbLinetypeTableRecord
  2
AM_ISO02W050x2
 70
     0
  3
 _ _ _ _ _ _ _ _ _ _ _ _
 72
    65
 73
     2
 40
3.75
 49
3.0
 74
     0
 49
-0.75
 74
     0
  0
LTYPE
  5
6C
330
5
100
AcDbSymbolTableRecord
100
AcDbLinetypeTableRecord
  2
Amzigzag
 70
     0
  3
/\/-/\/-/\/-/\/-/\/-/\/
 72
    65
 73
     2
 40
11.0001
 49
0.0001
 74
     4
 75
   135
340
6B
 46
0.04
 50
0.0
 44
0.0
 45
0.0
 49
-11.0
 74
     0
  0
LTYPE
  5
7A
330
5
100
AcDbSymbolTableRecord
100
AcDbLinetypeTableRecord
  2
ACISOWELD
 70
     0
  3
_ _ _ _ _
 72
    65
 73
     2
 40
2.0
 49
2.0
 74
     0
 49
-1.0
 74
     0
  0
LTYPE
  5
7B
330
5
100
AcDbSymbolTableRecord
100
AcDbLinetypeTableRecord
  2
ACISOTGB
 70
     0
  3
__ . . __ . .
 72
    65
 73
     6
 40
9.0
 49
4.0
 74
     0
 49
-1.0
 74
     0
 49
1.0
 74
     0
 49
-1.0
 74
     0
 49
1.0
 74
     0
 49
-1.0
 74
     0
  0
LTYPE
  5
7C
330
5
100
AcDbSymbolTableRecord
100
AcDbLinetypeTableRecord
  2
ACISOTGL
 70
     0
  3
_ _ _ _ _
 72
    65
 73
     2
 40
3.0
 49
2.0
 74
     0
 49
-1.0
 74
     0
  0
LTYPE
  5
7E
330
5
100
AcDbSymbolTableRecord
100
AcDbLinetypeTableRecord
  2
CENTER
 70
     0
  3
__ . __
 72
    65
 73
     4
 40
7.0
 49
4.0
 74
     0
 49
-1.0
 74
     0
 49
1.0
 74
     0
 49
-1.0
 74
     0
  0
LTYPE
  5
D8
330
5
100
AcDbSymbolTableRecord
100
AcDbLinetypeTableRecord
  2
HIDDEN
 70
     0
  3
Hidden __ __ __ __ __ __ __ __ __ __ __ __ __ _
 72
    65
 73
     2
 40
9.524999999999998
 49
6.349999999999999
 74
     0
 49
-3.174999999999999
 74
     0
  0
LTYPE
  5
D9
330
5
100
AcDbSymbolTableRecord
100
AcDbLinetypeTableRecord
  2
PHANTOM2
 70
     0
  3
Phantom (.5x) ___ _ _ ___ _ _ ___ _ _ ___ _ _
 72
    65
 73
     6
 40
31.75
 49
15.875
 74
     0
 49
-3.174999999999999
 74
     0
 49
3.174999999999999
 74
     0
 49
-3.174999999999999
 74
     0
 49
3.174999999999999
 74
     0
 49
-3.174999999999999
 74
     0
  0
ENDTAB
  0
TABLE
  2
LAYER
  5
2
102
{ACAD_XDICTIONARY
360
3F9
102
}
330
0
100
AcDbSymbolTable
 70
     8
  0
LAYER
  5
10
330
2
100
AcDbSymbolTableRecord
100
AcDbLayerTableRecord
  2
0
 70
     0
 62
     7
  6
Continuous
370
    -3
390
F
  0
LAYER
  5
206
330
2
100
AcDbSymbolTableRecord
100
AcDbLayerTableRecord
  2
Defpoints
 70
     0
 62
     7
  6
Continuous
290
     0
370
    -3
390
F
  0
LAYER
  5
5AE
330
2
100
AcDbSymbolTableRecord
100
AcDbLayerTableRecord
  2
AM_7
 70
     0
 62
     1
  6
CENTER
370
    25
390
F
  0
LAYER
  5
7C5
330
2
100
AcDbSymbolTableRecord
100
AcDbLayerTableRecord
  2
LOGO
 70
     0
 62
     7
  6
Continuous
370
    -3
390
F
  0
LAYER
  5
7C6
330
2
100
AcDbSymbolTableRecord
100
AcDbLayerTableRecord
  2
AM_5
 70
     0
 62
     5
  6
Continuous
370
    50
390
F
  0
LAYER
  5
7C7
330
2
100
AcDbSymbolTableRecord
100
AcDbLayerTableRecord
  2
AM_VIS
 70
     0
 62
     7
  6
Continuous
370
    50
390
F
  0
LAYER
  5
7C8
330
2
100
AcDbSymbolTableRecord
100
AcDbLayerTableRecord
  2
AM_0
 70
     0
 62
     7
  6
Continuous
370
    50
390
F
  0
LAYER
  5
7C9
330
2
100
AcDbSymbolTableRecord
100
AcDbLayerTableRecord
  2
AM_4
 70
     0
 62
     3
  6
Continuous
370
    25
390
F
  0
ENDTAB
  0
TABLE
  2
STYLE
  5
3
330
0
100
AcDbSymbolTable
 70
     5
  0
STYLE
  5
11
330
3
100
AcDbSymbolTableRecord
100
AcDbTextStyleTableRecord
  2
STANDARD
 70
     0
 40
0.0
 41
1.0
 50
0.0
 71
     0
 42
3.0
  3
ISOCP.SHX
  4
CHINESET.SHX
  0
STYLE
  5
6B
330
3
100
AcDbSymbolTableRecord
100
AcDbTextStyleTableRecord
  2

 70
     1
 40
0.0
 41
1.0
 50
0.0
 71
     0
 42
2.5
  3
ltypeshp.shx
  4

  0
STYLE
  5
6D
330
3
100
AcDbSymbolTableRecord
100
AcDbTextStyleTableRecord
  2
ACISOTS
 70
     0
 40
1.0
 41
1.0
 50
0.0
 71
     0
 42
1.0
  3
isocp.shx
  4
chineset.shx
  0
STYLE
  5
79
330
3
100
AcDbSymbolTableRecord
100
AcDbTextStyleTableRecord
  2
ACISOGDT
 70
     0
 40
0.0
 41
1.0
 50
0.0
 71
     0
 42
2.5
  3
amgdt.shx
  4
chineset.shx
  0
STYLE
  5
60C
330
3
100
AcDbSymbolTableRecord
100
AcDbTextStyleTableRecord
  2
CHINESET
 70
     0
 40
0.0
 41
1.0
 50
0.0
 71
     0
 42
3.0
  3
simplex.shx
  4
CHINESET.SHX
  0
ENDTAB
  0
TABLE
  2
VIEW
  5
6
330
0
100
AcDbSymbolTable
 70
     0
  0
ENDTAB
  0
TABLE
  2
UCS
  5
7
330
0
100
AcDbSymbolTable
 70
     0
  0
ENDTAB
  0
TABLE
  2
APPID
  5
9
330
0
100
AcDbSymbolTable
 70
    20
  0
APPID
  5
12
330
9
100
AcDbSymbolTableRecord
100
AcDbRegAppTableRecord
  2
ACAD
 70
     0
  0
APPID
  5
46
330
9
100
AcDbSymbolTableRecord
100
AcDbRegAppTableRecord
  2
MCAD_NO_VIS
 70
     0
  0
APPID
  5
47
330
9
100
AcDbSymbolTableRecord
100
AcDbRegAppTableRecord
  2
ACAD_TEMP_GRAPHIC
 70
     0
  0
APPID
  5
58
330
9
100
AcDbSymbolTableRecord
100
AcDbRegAppTableRecord
  2
ACATTRIBSERVICES
 70
     0
  0
APPID
  5
EE
330
9
100
AcDbSymbolTableRecord
100
AcDbRegAppTableRecord
  2
AD_DRAW
 70
     0
  0
APPID
  5
10C
330
9
100
AcDbSymbolTableRecord
100
AcDbRegAppTableRecord
  2
DESIGNERASSEMBLIES
 70
     0
  0
APPID
  5
111
330
9
100
AcDbSymbolTableRecord
100
AcDbRegAppTableRecord
  2
ACADM_DIM_EDIT
 70
     0
  0
APPID
  5
112
330
9
100
AcDbSymbolTableRecord
100
AcDbRegAppTableRecord
  2
AMDT_DM_ADJ
 70
     0
  0
APPID
  5
22C
330
9
100
AcDbSymbolTableRecord
100
AcDbRegAppTableRecord
  2
ACAD_DSTYLE_DIMTEXT_FILL
 70
     0
  0
APPID
  5
452
330
9
100
AcDbSymbolTableRecord
100
AcDbRegAppTableRecord
  2
GENIUS_GENOENT_13
 70
     0
  0
APPID
  5
453
330
9
100
AcDbSymbolTableRecord
100
AcDbRegAppTableRecord
  2
GENIUS_GENOBJ-N-CRS_13
 70
     0
  0
APPID
  5
454
330
9
100
AcDbSymbolTableRecord
100
AcDbRegAppTableRecord
  2
GENIUS_GENOLIS_13
 70
     0
  0
APPID
  5
455
330
9
100
AcDbSymbolTableRecord
100
AcDbRegAppTableRecord
  2
GENIUS_GENODEF_13
 70
     0
  0
APPID
  5
456
330
9
100
AcDbSymbolTableRecord
100
AcDbRegAppTableRecord
  2
GENIUS_GENOREF_13
 70
     0
  0
APPID
  5
6F3
330
9
100
AcDbSymbolTableRecord
100
AcDbRegAppTableRecord
  2
ACAD_PSEXT
 70
     0
  0
APPID
  5
7CB
330
9
100
AcDbSymbolTableRecord
100
AcDbRegAppTableRecord
  2
GENIUS_GENREC_14
 70
     0
  0
APPID
  5
7CC
330
9
100
AcDbSymbolTableRecord
100
AcDbRegAppTableRecord
  2
GENIUS_GENOBJ-N-REC_13
 70
     0
  0
APPID
  5
7CD
330
9
100
AcDbSymbolTableRecord
100
AcDbRegAppTableRecord
  2
GENIUS_GENOBJ-N-CEN_13
 70
     0
  0
APPID
  5
7CE
330
9
100
AcDbSymbolTableRecord
100
AcDbRegAppTableRecord
  2
GENIUS_GENCEN_19
 70
     0
  0
APPID
  5
239E
330
9
100
AcDbSymbolTableRecord
100
AcDbRegAppTableRecord
  2
GENIUS_GENDIMSH_14
 70
     0
  0
ENDTAB
  0
TABLE
  2
DIMSTYLE
  5
A
330
0
100
AcDbSymbolTable
 70
     8
100
AcDbDimStyleTable
 71
     3
340
81
340
8B
340
86
  0
DIMSTYLE
105
81
330
A
100
AcDbSymbolTableRecord
100
AcDbDimStyleTableRecord
  2
AM_ISO
 70
     0
  4
"
 41
3.0
 42
1.0
 43
10.0
 44
1.5
 47
0.1
 48
0.1
 73
     0
 74
     0
 77
     1
 78
     8
 79
     2
140
3.0
141
0.0
143
0.0393701
146
0.71
147
1.0
172
     1
176
   256
177
   256
178
   256
271
     2
272
     2
283
     0
284
     8
340
11
371
    -1
372
    -1
  0
DIMSTYLE
105
82
330
A
100
AcDbSymbolTableRecord
100
AcDbDimStyleTableRecord
  2
AM_ISO$3
 70
     0
  4
"
 41
3.0
 42
1.0
 43
10.0
 44
1.5
 47
0.1
 48
0.1
 73
     0
 77
     1
 78
     8
 79
     2
140
3.0
141
0.0
143
0.0393701
146
0.71
147
1.0
176
   256
177
   256
178
   256
271
     2
272
     2
283
     0
284
     8
288
     1
289
     0
340
11
371
    -1
372
    -1
  0
DIMSTYLE
105
83
330
A
100
AcDbSymbolTableRecord
100
AcDbDimStyleTableRecord
  2
AM_ISO$4
 70
     0
  4
"
 41
3.0
 42
1.0
 43
10.0
 44
1.5
 47
0.1
 48
0.1
 73
     0
 77
     1
 78
     8
 79
     2
140
3.0
141
0.0
143
0.0393701
146
0.71
147
1.0
176
   256
177
   256
178
   256
271
     2
272
     2
283
     0
284
     8
288
     1
289
     0
340
11
371
    -1
372
    -1
  0
DIMSTYLE
105
84
330
A
100
AcDbSymbolTableRecord
100
AcDbDimStyleTableRecord
  2
AM_ISO$6
 70
     0
  4
"
 41
3.0
 42
1.0
 43
10.0
 44
1.5
 47
0.1
 48
0.1
 73
     0
 74
     0
 78
     8
 79
     2
140
3.0
141
0.0
143
0.0393701
146
0.71
147
1.0
172
     1
176
   256
177
   256
178
   256
271
     2
272
     2
283
     0
284
     8
340
11
371
    -1
372
    -1
  0
DIMSTYLE
105
85
330
A
100
AcDbSymbolTableRecord
100
AcDbDimStyleTableRecord
  2
AM_ISO$7
 70
     0
  4
"
 41
3.0
 42
1.0
 43
10.0
 44
1.5
 47
0.1
 48
0.1
 73
     0
 74
     0
 77
     1
 78
     8
 79
     2
140
5.0
141
0.0
143
0.0393701
146
0.71
147
1.0
172
     1
176
   256
177
   256
178
   256
271
     2
272
     2
283
     0
284
     8
340
11
371
    -1
372
    -1
  0
DIMSTYLE
105
86
330
A
100
AcDbSymbolTableRecord
100
AcDbDimStyleTableRecord
  2
AM_ISO$SF
 70
     0
  4
"
 41
2.5
 42
1.0
 43
10.0
 44
1.0
 47
0.1
 48
0.1
 73
     0
 74
     0
 75
     1
 76
     1
 77
     1
 78
     8
 79
     2
140
3.5
141
0.0
143
0.0393701
146
0.71
147
1.5
172
     1
176
   256
177
   256
178
     2
271
     2
272
     3
274
     4
283
     0
284
     8
340
11
371
    -1
372
    -1
  0
DIMSTYLE
105
8B
330
A
100
AcDbSymbolTableRecord
100
AcDbDimStyleTableRecord
  2
AM_ISO$SH
 70
     0
  4
"
 41
2.5
 42
1.0
 43
10.0
 44
1.0
 47
0.1
 48
0.1
 73
     0
 74
     0
 75
     1
 76
     1
 77
     1
 78
     8
 79
     2
140
3.5
141
0.0
143
0.0393701
144
2.0
146
0.71
147
1.5
172
     1
173
     1
176
   256
177
   256
178
     2
271
     2
272
     3
274
     4
283
     0
284
     8
340
11
343
87
371
    -1
372
    -1
  0
DIMSTYLE
105
40B
102
{ACAD_REACTORS
330
1C06
330
1C09
330
1C0C
330
1EA5
330
1EA6
330
1EA7
330
235C
330
2386
330
23B1
330
23DB
330
2486
330
24B0
330
24DA
330
2504
102
}
330
A
100
AcDbSymbolTableRecord
100
AcDbDimStyleTableRecord
  2
AM_ISO$0
 70
     0
  4
"
 41
3.0
 42
1.0
 43
10.0
 44
1.5
 47
0.1
 48
0.1
 73
     0
 74
     0
 77
     1
 78
     8
 79
     2
140
3.0
141
0.0
143
0.0393701
146
0.71
147
1.0
172
     1
176
   256
177
   256
178
   256
271
     2
272
     2
283
     0
284
     8
340
11
371
    -1
372
    -1
  0
ENDTAB
  0
TABLE
  2
BLOCK_RECORD
  5
1
330
0
100
AcDbSymbolTable
 70
    21
  0
BLOCK_RECORD
  5
1F
102
{ACAD_XDICTIONARY
360
8F
102
}
330
1
100
AcDbSymbolTableRecord
100
AcDbBlockTableRecord
  2
*Model_Space
340
22
  0
BLOCK_RECORD
  5
1B
330
1
100
AcDbSymbolTableRecord
100
AcDbBlockTableRecord
  2
*Paper_Space
340
1E
  0
BLOCK_RECORD
  5
23
330
1
100
AcDbSymbolTableRecord
100
AcDbBlockTableRecord
  2
*Paper_Space0
340
26
  0
BLOCK_RECORD
  5
87
330
1
100
AcDbSymbolTableRecord
100
AcDbBlockTableRecord
  2
GENAXEH
340
0
  0
BLOCK_RECORD
  5
1C0F
330
1
100
AcDbSymbolTableRecord
100
AcDbBlockTableRecord
  2
*D2
340
0
  0
BLOCK_RECORD
  5
1C1B
330
1
100
AcDbSymbolTableRecord
100
AcDbBlockTableRecord
  2
*D3
340
0
  0
BLOCK_RECORD
  5
1C27
330
1
100
AcDbSymbolTableRecord
100
AcDbBlockTableRecord
  2
*D4
340
0
  0
BLOCK_RECORD
  5
1EAE
330
1
100
AcDbSymbolTableRecord
100
AcDbBlockTableRecord
  2
*D5
340
0
  0
BLOCK_RECORD
  5
1EBA
330
1
100
AcDbSymbolTableRecord
100
AcDbBlockTableRecord
  2
*D6
340
0
  0
BLOCK_RECORD
  5
1EC6
330
1
100
AcDbSymbolTableRecord
100
AcDbBlockTableRecord
  2
*D7
340
0
  0
BLOCK_RECORD
  5
22B9
330
1
100
AcDbSymbolTableRecord
100
AcDbBlockTableRecord
  2
*S8
340
0
102
{BLKREFS
331
1F15
102
}
  0
BLOCK_RECORD
  5
22C1
330
1
100
AcDbSymbolTableRecord
100
AcDbBlockTableRecord
  2
*S9
340
0
102
{BLKREFS
331
1F17
102
}
  0
BLOCK_RECORD
  5
235D
330
1
100
AcDbSymbolTableRecord
100
AcDbBlockTableRecord
  2
*D11
340
0
  0
BLOCK_RECORD
  5
2387
330
1
100
AcDbSymbolTableRecord
100
AcDbBlockTableRecord
  2
*D12
340
0
  0
BLOCK_RECORD
  5
23B2
330
1
100
AcDbSymbolTableRecord
100
AcDbBlockTableRecord
  2
*D13
340
0
  0
BLOCK_RECORD
  5
23DC
330
1
100
AcDbSymbolTableRecord
100
AcDbBlockTableRecord
  2
*D14
340
0
  0
BLOCK_RECORD
  5
2406
330
1
100
AcDbSymbolTableRecord
100
AcDbBlockTableRecord
  2
*D15
340
0
  0
BLOCK_RECORD
  5
2430
330
1
100
AcDbSymbolTableRecord
100
AcDbBlockTableRecord
  2
*D16
340
0
  0
BLOCK_RECORD
  5
2487
330
1
100
AcDbSymbolTableRecord
100
AcDbBlockTableRecord
  2
*D17
340
0
  0
BLOCK_RECORD
  5
24B1
330
1
100
AcDbSymbolTableRecord
100
AcDbBlockTableRecord
  2
*D18
340
0
  0
BLOCK_RECORD
  5
24DB
330
1
100
AcDbSymbolTableRecord
100
AcDbBlockTableRecord
  2
*D19
340
0
  0
BLOCK_RECORD
  5
2505
330
1
100
AcDbSymbolTableRecord
100
AcDbBlockTableRecord
  2
*D20
340
0
  0
ENDTAB
  0
ENDSEC
  0
SECTION
  2
BLOCKS
  0
BLOCK
  5
20
330
1F
100
AcDbEntity
  8
0
100
AcDbBlockBegin
  2
*Model_Space
 70
     0
 10
0.0
 20
0.0
 30
0.0
  3
*Model_Space
  1

  0
ENDBLK
  5
21
330
1F
100
AcDbEntity
  8
0
100
AcDbBlockEnd
  0
BLOCK
  5
1C
330
1B
100
AcDbEntity
 67
     1
  8
0
100
AcDbBlockBegin
  2
*Paper_Space
 70
     0
 10
0.0
 20
0.0
 30
0.0
  3
*Paper_Space
  1

  0
ENDBLK
  5
1D
330
1B
100
AcDbEntity
 67
     1
  8
0
100
AcDbBlockEnd
  0
BLOCK
  5
24
330
23
100
AcDbEntity
  8
0
100
AcDbBlockBegin
  2
*Paper_Space0
 70
     0
 10
0.0
 20
0.0
 30
0.0
  3
*Paper_Space0
  1

  0
ENDBLK
  5
25
330
23
100
AcDbEntity
  8
0
100
AcDbBlockEnd
  0
BLOCK
  5
89
330
87
100
AcDbEntity
  8
0
100
AcDbBlockBegin
  2
GENAXEH
 70
     0
 10
0.0
 20
0.0
 30
0.0
  3
GENAXEH
  1

  0
LINE
  5
88
330
87
100
AcDbEntity
  8
0
100
AcDbLine
 10
-1.0
 20
0.0
 30
0.0
 11
1.0
 21
0.0
 31
0.0
  0
ENDBLK
  5
8A
330
87
100
AcDbEntity
  8
0
100
AcDbBlockEnd
  0
BLOCK
  5
1C19
330
1C0F
100
AcDbEntity
  8
0
100
AcDbBlockBegin
  2
*D2
 70
     1
 10
0.0
 20
0.0
 30
0.0
  3
*D2
  1

  0
LINE
  5
2098
330
1C0F
100
AcDbEntity
  8
AM_5
100
AcDbLine
 10
2220.275371165053
 20
1601.993379639453
 30
0.0
 11
2243.775371165055
 21
1601.993379639453
 31
0.0
  0
LINE
  5
2099
330
1C0F
100
AcDbEntity
  8
AM_5
100
AcDbLine
 10
2224.275371165054
 20
1622.993379639454
 30
0.0
 11
2243.775371165055
 21
1622.993379639454
 31
0.0
  0
LINE
  5
209A
330
1C0F
100
AcDbEntity
  8
AM_5
100
AcDbLine
 10
2242.275371165055
 20
1604.993379639453
 30
0.0
 11
2242.275371165055
 21
1619.993379639453
 31
0.0
  0
SOLID
  5
209B
330
1C0F
100
AcDbEntity
  8
AM_5
100
AcDbTrace
 10
2241.775371165055
 20
1604.993379639453
 30
0.0
 11
2242.775371165055
 21
1604.993379639453
 31
0.0
 12
2242.275371165055
 22
1601.993379639453
 32
0.0
 13
2242.275371165055
 23
1601.993379639453
 33
0.0
  0
SOLID
  5
209C
330
1C0F
100
AcDbEntity
  8
AM_5
100
AcDbTrace
 10
2241.775371165055
 20
1619.993379639453
 30
0.0
 11
2242.775371165055
 21
1619.993379639453
 31
0.0
 12
2242.275371165055
 22
1622.993379639454
 32
0.0
 13
2242.275371165055
 23
1622.993379639454
 33
0.0
  0
MTEXT
  5
209D
330
1C0F
100
AcDbEntity
  8
AM_5
100
AcDbMText
 10
2239.775075889464
 20
1613.993379639454
 30
0.0
 40
3.0
 41
0.0
 71
     5
 72
     1
  1
L2
 11
0.0000000000000001
 21
1.0
 31
0.0
 73
     1
 44
1.0
1001
ACAD
1000
MTEXTBEGIN
1070
    73
1070
     1
1070
    44
1040
1.0
1070
    74
1070
     0
1000
MTEXTEND
  0
POINT
  5
209E
330
1C0F
100
AcDbEntity
  8
Defpoints
 62
     0
100
AcDbPoint
 10
2219.275371165053
 20
1601.993379639453
 30
0.0
  0
POINT
  5
209F
330
1C0F
100
AcDbEntity
  8
Defpoints
 62
     0
100
AcDbPoint
 10
2223.275371165054
 20
1622.993379639454
 30
0.0
  0
POINT
  5
20A0
330
1C0F
100
AcDbEntity
  8
Defpoints
 62
     0
100
AcDbPoint
 10
2242.275371165055
 20
1622.993379639454
 30
0.0
  0
ENDBLK
  5
1C1A
330
1C0F
100
AcDbEntity
  8
0
100
AcDbBlockEnd
  0
BLOCK
  5
1C25
330
1C1B
100
AcDbEntity
  8
0
100
AcDbBlockBegin
  2
*D3
 70
     1
 10
0.0
 20
0.0
 30
0.0
  3
*D3
  1

  0
LINE
  5
20A1
330
1C1B
100
AcDbEntity
  8
AM_5
100
AcDbLine
 10
2224.275371165054
 20
1622.993379639454
 30
0.0
 11
2236.775371165054
 21
1622.993379639454
 31
0.0
  0
LINE
  5
20A2
330
1C1B
100
AcDbEntity
  8
AM_5
100
AcDbLine
 10
2224.275371165054
 20
1663.993379639453
 30
0.0
 11
2236.775371165054
 21
1663.993379639453
 31
0.0
  0
LINE
  5
20A3
330
1C1B
100
AcDbEntity
  8
AM_5
100
AcDbLine
 10
2235.275371165054
 20
1625.993379639454
 30
0.0
 11
2235.275371165054
 21
1660.993379639453
 31
0.0
  0
SOLID
  5
20A4
330
1C1B
100
AcDbEntity
  8
AM_5
100
AcDbTrace
 10
2234.775371165054
 20
1625.993379639454
 30
0.0
 11
2235.775371165054
 21
1625.993379639454
 31
0.0
 12
2235.275371165054
 22
1622.993379639454
 32
0.0
 13
2235.275371165054
 23
1622.993379639454
 33
0.0
  0
SOLID
  5
20A5
330
1C1B
100
AcDbEntity
  8
AM_5
100
AcDbTrace
 10
2234.775371165054
 20
1660.993379639453
 30
0.0
 11
2235.775371165054
 21
1660.993379639453
 31
0.0
 12
2235.275371165054
 22
1663.993379639453
 32
0.0
 13
2235.275371165054
 23
1663.993379639453
 33
0.0
  0
MTEXT
  5
20A6
330
1C1B
100
AcDbEntity
  8
AM_5
100
AcDbMText
 10
2232.775371165053
 20
1643.493379639454
 30
0.0
 40
3.0
 41
0.0
 71
     5
 72
     1
  1
L1
 11
0.0000000000000001
 21
1.0
 31
0.0
 73
     1
 44
1.0
1001
ACAD
1000
MTEXTBEGIN
1070
    73
1070
     1
1070
    44
1040
1.0
1070
    74
1070
     0
1000
MTEXTEND
  0
POINT
  5
20A7
330
1C1B
100
AcDbEntity
  8
Defpoints
 62
     0
100
AcDbPoint
 10
2223.275371165054
 20
1622.993379639454
 30
0.0
  0
POINT
  5
20A8
330
1C1B
100
AcDbEntity
  8
Defpoints
 62
     0
100
AcDbPoint
 10
2223.275371165054
 20
1663.993379639453
 30
0.0
  0
POINT
  5
20A9
330
1C1B
100
AcDbEntity
  8
Defpoints
 62
     0
100
AcDbPoint
 10
2235.275371165054
 20
1663.993379639453
 30
0.0
  0
ENDBLK
  5
1C26
330
1C1B
100
AcDbEntity
  8
0
100
AcDbBlockEnd
  0
BLOCK
  5
1C31
330
1C27
100
AcDbEntity
  8
0
100
AcDbBlockBegin
  2
*D4
 70
     1
 10
0.0
 20
0.0
 30
0.0
  3
*D4
  1

  0
LINE
  5
20AA
330
1C27
100
AcDbEntity
  8
AM_5
100
AcDbLine
 10
2224.275371165054
 20
1622.993379639454
 30
0.0
 11
2243.775371165054
 21
1622.993379639454
 31
0.0
  0
LINE
  5
20AB
330
1C27
100
AcDbEntity
  8
AM_5
100
AcDbLine
 10
2222.775371165054
 20
1675.993379639454
 30
0.0
 11
2243.775371165054
 21
1675.993379639454
 31
0.0
  0
LINE
  5
20AC
330
1C27
100
AcDbEntity
  8
AM_5
100
AcDbLine
 10
2242.275371165054
 20
1625.993379639454
 30
0.0
 11
2242.275371165054
 21
1672.993379639454
 31
0.0
  0
SOLID
  5
20AD
330
1C27
100
AcDbEntity
  8
AM_5
100
AcDbTrace
 10
2241.775371165054
 20
1625.993379639454
 30
0.0
 11
2242.775371165054
 21
1625.993379639454
 31
0.0
 12
2242.275371165054
 22
1622.993379639454
 32
0.0
 13
2242.275371165054
 23
1622.993379639454
 33
0.0
  0
SOLID
  5
20AE
330
1C27
100
AcDbEntity
  8
AM_5
100
AcDbTrace
 10
2241.775371165054
 20
1672.993379639454
 30
0.0
 11
2242.775371165054
 21
1672.993379639454
 31
0.0
 12
2242.275371165054
 22
1675.993379639454
 32
0.0
 13
2242.275371165054
 23
1675.993379639454
 33
0.0
  0
MTEXT
  5
20AF
330
1C27
100
AcDbEntity
  8
AM_5
100
AcDbMText
 10
2239.775371165054
 20
1649.493379639454
 30
0.0
 40
3.0
 41
0.0
 71
     5
 72
     1
  1
L
 11
0.0000000000000001
 21
1.0
 31
0.0
 73
     1
 44
1.0
1001
ACAD
1000
MTEXTBEGIN
1070
    73
1070
     1
1070
    44
1040
1.0
1070
    74
1070
     0
1000
MTEXTEND
  0
POINT
  5
20B0
330
1C27
100
AcDbEntity
  8
Defpoints
 62
     0
100
AcDbPoint
 10
2223.275371165054
 20
1622.993379639454
 30
0.0
  0
POINT
  5
20B1
330
1C27
100
AcDbEntity
  8
Defpoints
 62
     0
100
AcDbPoint
 10
2221.775371165054
 20
1675.993379639454
 30
0.0
  0
POINT
  5
20B2
330
1C27
100
AcDbEntity
  8
Defpoints
 62
     0
100
AcDbPoint
 10
2242.275371165054
 20
1675.993379639454
 30
0.0
  0
ENDBLK
  5
1C32
330
1C27
100
AcDbEntity
  8
0
100
AcDbBlockEnd
  0
BLOCK
  5
1EB8
330
1EAE
100
AcDbEntity
  8
0
100
AcDbBlockBegin
  2
*D5
 70
     1
 10
0.0
 20
0.0
 30
0.0
  3
*D5
  1

  0
LINE
  5
20B3
330
1EAE
100
AcDbEntity
  8
AM_5
100
AcDbLine
 10
2220.275371165053
 20
1357.870545156516
 30
0.0
 11
2243.775371165055
 21
1357.870545156516
 31
0.0
  0
LINE
  5
20B4
330
1EAE
100
AcDbEntity
  8
AM_5
100
AcDbLine
 10
2224.275371165054
 20
1378.870545156516
 30
0.0
 11
2243.775371165055
 21
1378.870545156516
 31
0.0
  0
LINE
  5
20B5
330
1EAE
100
AcDbEntity
  8
AM_5
100
AcDbLine
 10
2242.275371165055
 20
1360.870545156516
 30
0.0
 11
2242.275371165055
 21
1375.870545156516
 31
0.0
  0
SOLID
  5
20B6
330
1EAE
100
AcDbEntity
  8
AM_5
100
AcDbTrace
 10
2241.775371165055
 20
1360.870545156516
 30
0.0
 11
2242.775371165055
 21
1360.870545156516
 31
0.0
 12
2242.275371165055
 22
1357.870545156516
 32
0.0
 13
2242.275371165055
 23
1357.870545156516
 33
0.0
  0
SOLID
  5
20B7
330
1EAE
100
AcDbEntity
  8
AM_5
100
AcDbTrace
 10
2241.775371165055
 20
1375.870545156516
 30
0.0
 11
2242.775371165055
 21
1375.870545156516
 31
0.0
 12
2242.275371165055
 22
1378.870545156516
 32
0.0
 13
2242.275371165055
 23
1378.870545156516
 33
0.0
  0
MTEXT
  5
20B8
330
1EAE
100
AcDbEntity
  8
AM_5
100
AcDbMText
 10
2239.775075889464
 20
1369.870545156516
 30
0.0
 40
3.0
 41
0.0
 71
     5
 72
     1
  1
L2
 11
0.0000000000000001
 21
1.0
 31
0.0
 73
     1
 44
1.0
1001
ACAD
1000
MTEXTBEGIN
1070
    73
1070
     1
1070
    44
1040
1.0
1070
    74
1070
     0
1000
MTEXTEND
  0
POINT
  5
20B9
330
1EAE
100
AcDbEntity
  8
Defpoints
 62
     0
100
AcDbPoint
 10
2219.275371165053
 20
1357.870545156516
 30
0.0
  0
POINT
  5
20BA
330
1EAE
100
AcDbEntity
  8
Defpoints
 62
     0
100
AcDbPoint
 10
2223.275371165054
 20
1378.870545156516
 30
0.0
  0
POINT
  5
20BB
330
1EAE
100
AcDbEntity
  8
Defpoints
 62
     0
100
AcDbPoint
 10
2242.275371165055
 20
1378.870545156516
 30
0.0
  0
ENDBLK
  5
1EB9
330
1EAE
100
AcDbEntity
  8
0
100
AcDbBlockEnd
  0
BLOCK
  5
1EC4
330
1EBA
100
AcDbEntity
  8
0
100
AcDbBlockBegin
  2
*D6
 70
     1
 10
0.0
 20
0.0
 30
0.0
  3
*D6
  1

  0
LINE
  5
20BC
330
1EBA
100
AcDbEntity
  8
AM_5
100
AcDbLine
 10
2224.275371165054
 20
1378.870545156516
 30
0.0
 11
2236.775371165054
 21
1378.870545156516
 31
0.0
  0
LINE
  5
20BD
330
1EBA
100
AcDbEntity
  8
AM_5
100
AcDbLine
 10
2224.275371165054
 20
1419.870545156516
 30
0.0
 11
2236.775371165054
 21
1419.870545156516
 31
0.0
  0
LINE
  5
20BE
330
1EBA
100
AcDbEntity
  8
AM_5
100
AcDbLine
 10
2235.275371165054
 20
1381.870545156516
 30
0.0
 11
2235.275371165054
 21
1416.870545156516
 31
0.0
  0
SOLID
  5
20BF
330
1EBA
100
AcDbEntity
  8
AM_5
100
AcDbTrace
 10
2234.775371165054
 20
1381.870545156516
 30
0.0
 11
2235.775371165054
 21
1381.870545156516
 31
0.0
 12
2235.275371165054
 22
1378.870545156516
 32
0.0
 13
2235.275371165054
 23
1378.870545156516
 33
0.0
  0
SOLID
  5
20C0
330
1EBA
100
AcDbEntity
  8
AM_5
100
AcDbTrace
 10
2234.775371165054
 20
1416.870545156516
 30
0.0
 11
2235.775371165054
 21
1416.870545156516
 31
0.0
 12
2235.275371165054
 22
1419.870545156516
 32
0.0
 13
2235.275371165054
 23
1419.870545156516
 33
0.0
  0
MTEXT
  5
20C1
330
1EBA
100
AcDbEntity
  8
AM_5
100
AcDbMText
 10
2232.775371165053
 20
1399.370545156516
 30
0.0
 40
3.0
 41
0.0
 71
     5
 72
     1
  1
L1
 11
0.0000000000000001
 21
1.0
 31
0.0
 73
     1
 44
1.0
1001
ACAD
1000
MTEXTBEGIN
1070
    73
1070
     1
1070
    44
1040
1.0
1070
    74
1070
     0
1000
MTEXTEND
  0
POINT
  5
20C2
330
1EBA
100
AcDbEntity
  8
Defpoints
 62
     0
100
AcDbPoint
 10
2223.275371165054
 20
1378.870545156516
 30
0.0
  0
POINT
  5
20C3
330
1EBA
100
AcDbEntity
  8
Defpoints
 62
     0
100
AcDbPoint
 10
2223.275371165054
 20
1419.870545156516
 30
0.0
  0
POINT
  5
20C4
330
1EBA
100
AcDbEntity
  8
Defpoints
 62
     0
100
AcDbPoint
 10
2235.275371165054
 20
1419.870545156516
 30
0.0
  0
ENDBLK
  5
1EC5
330
1EBA
100
AcDbEntity
  8
0
100
AcDbBlockEnd
  0
BLOCK
  5
1ED0
330
1EC6
100
AcDbEntity
  8
0
100
AcDbBlockBegin
  2
*D7
 70
     1
 10
0.0
 20
0.0
 30
0.0
  3
*D7
  1

  0
LINE
  5
20C5
330
1EC6
100
AcDbEntity
  8
AM_5
100
AcDbLine
 10
2224.275371165054
 20
1378.870545156516
 30
0.0
 11
2243.775371165054
 21
1378.870545156516
 31
0.0
  0
LINE
  5
20C6
330
1EC6
100
AcDbEntity
  8
AM_5
100
AcDbLine
 10
2222.775371165054
 20
1431.870545156516
 30
0.0
 11
2243.775371165054
 21
1431.870545156516
 31
0.0
  0
LINE
  5
20C7
330
1EC6
100
AcDbEntity
  8
AM_5
100
AcDbLine
 10
2242.275371165054
 20
1381.870545156516
 30
0.0
 11
2242.275371165054
 21
1428.870545156516
 31
0.0
  0
SOLID
  5
20C8
330
1EC6
100
AcDbEntity
  8
AM_5
100
AcDbTrace
 10
2241.775371165054
 20
1381.870545156516
 30
0.0
 11
2242.775371165054
 21
1381.870545156516
 31
0.0
 12
2242.275371165054
 22
1378.870545156516
 32
0.0
 13
2242.275371165054
 23
1378.870545156516
 33
0.0
  0
SOLID
  5
20C9
330
1EC6
100
AcDbEntity
  8
AM_5
100
AcDbTrace
 10
2241.775371165054
 20
1428.870545156516
 30
0.0
 11
2242.775371165054
 21
1428.870545156516
 31
0.0
 12
2242.275371165054
 22
1431.870545156516
 32
0.0
 13
2242.275371165054
 23
1431.870545156516
 33
0.0
  0
MTEXT
  5
20CA
330
1EC6
100
AcDbEntity
  8
AM_5
100
AcDbMText
 10
2239.775371165054
 20
1405.370545156516
 30
0.0
 40
3.0
 41
0.0
 71
     5
 72
     1
  1
L
 11
0.0000000000000001
 21
1.0
 31
0.0
 73
     1
 44
1.0
1001
ACAD
1000
MTEXTBEGIN
1070
    73
1070
     1
1070
    44
1040
1.0
1070
    74
1070
     0
1000
MTEXTEND
  0
POINT
  5
20CB
330
1EC6
100
AcDbEntity
  8
Defpoints
 62
     0
100
AcDbPoint
 10
2223.275371165054
 20
1378.870545156516
 30
0.0
  0
POINT
  5
20CC
330
1EC6
100
AcDbEntity
  8
Defpoints
 62
     0
100
AcDbPoint
 10
2221.775371165054
 20
1431.870545156516
 30
0.0
  0
POINT
  5
20CD
330
1EC6
100
AcDbEntity
  8
Defpoints
 62
     0
100
AcDbPoint
 10
2242.275371165054
 20
1431.870545156516
 30
0.0
  0
ENDBLK
  5
1ED1
330
1EC6
100
AcDbEntity
  8
0
100
AcDbBlockEnd
  0
BLOCK
  5
22BE
330
22B9
100
AcDbEntity
  8
0
100
AcDbBlockBegin
  2
*S8
 70
     1
 10
0.0
 20
0.0
 30
0.0
  3
*S8
  1

  0
LINE
  5
22BA
330
22B9
100
AcDbEntity
  8
AM_5
 62
     5
100
AcDbLine
 10
2147.06961489522
 20
1615.289338429772
 30
0.0
 11
2133.80663448703
 21
1615.289338429772
 31
0.0
  0
LINE
  5
22BB
330
22B9
100
AcDbEntity
  8
AM_5
 62
     5
100
AcDbLine
 10
2133.80663448703
 20
1615.289338429772
 30
0.0
 11
2125.63865264279
 21
1634.971829755789
 31
0.0
  0
TRACE
  5
22BC
330
22B9
100
AcDbEntity
  8
AM_5
 62
     5
370
    35
100
AcDbTrace
 10
2126.064244807876
 20
1635.148445054122
 30
0.0
 11
2125.213060477705
 21
1634.795214457457
 31
0.0
 12
2124.297126258125
 22
1638.204523208508
 32
0.0
 13
2124.297126258125
 23
1638.204523208508
 33
0.0
  0
MTEXT
  5
22BD
330
22B9
100
AcDbEntity
  8
AM_5
 62
     2
100
AcDbMText
 10
2147.06961489522
 20
1620.389539115161
 30
0.0
 40
3.5
 41
0.0
 71
     7
 72
     5
  1

  7
ACISOTS
 73
     1
 44
1.0
1001
ACAD
1000
MTEXTBEGIN
1070
    73
1070
     1
1070
    44
1040
1.0
1070
    74
1070
     0
1000
MTEXTEND
  0
ENDBLK
  5
22BF
330
22B9
100
AcDbEntity
  8
0
100
AcDbBlockEnd
  0
BLOCK
  5
22C6
330
22C1
100
AcDbEntity
  8
0
100
AcDbBlockBegin
  2
*S9
 70
     1
 10
0.0
 20
0.0
 30
0.0
  3
*S9
  1

  0
LINE
  5
22C2
330
22C1
100
AcDbEntity
  8
AM_5
 62
     5
100
AcDbLine
 10
2147.06961489522
 20
1371.166503946834
 30
0.0
 11
2133.80663448703
 21
1371.166503946834
 31
0.0
  0
LINE
  5
22C3
330
22C1
100
AcDbEntity
  8
AM_5
 62
     5
100
AcDbLine
 10
2133.80663448703
 20
1371.166503946834
 30
0.0
 11
2125.63865264279
 21
1390.848995272852
 31
0.0
  0
TRACE
  5
22C4
330
22C1
100
AcDbEntity
  8
AM_5
 62
     5
370
    35
100
AcDbTrace
 10
2126.064244807876
 20
1391.025610571184
 30
0.0
 11
2125.213060477705
 21
1390.672379974519
 31
0.0
 12
2124.297126258125
 22
1394.08168872557
 32
0.0
 13
2124.297126258125
 23
1394.08168872557
 33
0.0
  0
MTEXT
  5
22C5
330
22C1
100
AcDbEntity
  8
AM_5
 62
     2
100
AcDbMText
 10
2147.06961489522
 20
1376.266704632223
 30
0.0
 40
3.5
 41
0.0
 71
     7
 72
     5
  1

  7
ACISOTS
 73
     1
 44
1.0
1001
ACAD
1000
MTEXTBEGIN
1070
    73
1070
     1
1070
    44
1040
1.0
1070
    74
1070
     0
1000
MTEXTEND
  0
ENDBLK
  5
22C7
330
22C1
100
AcDbEntity
  8
0
100
AcDbBlockEnd
  0
BLOCK
  5
2367
330
235D
100
AcDbEntity
  8
0
100
AcDbBlockBegin
  2
*D11
 70
     1
 10
0.0
 20
0.0
 30
0.0
  3
*D11
  1

  0
LINE
  5
237D
330
235D
100
AcDbEntity
  8
AM_5
100
AcDbLine
 10
2170.275371165054
 20
1306.212485671414
 30
0.0
 11
2170.275371165054
 21
1292.94967246908
 31
0.0
  0
LINE
  5
237E
330
235D
100
AcDbEntity
  8
AM_5
100
AcDbLine
 10
2191.275371165054
 20
1320.44967346908
 30
0.0
 11
2191.275371165054
 21
1292.94967246908
 31
0.0
  0
LINE
  5
237F
330
235D
100
AcDbEntity
  8
AM_5
100
AcDbLine
 10
2173.275371165054
 20
1294.44967246908
 30
0.0
 11
2188.275371165054
 21
1294.44967246908
 31
0.0
  0
SOLID
  5
2380
330
235D
100
AcDbEntity
  8
AM_5
100
AcDbTrace
 10
2173.275371165054
 20
1294.94967246908
 30
0.0
 11
2173.275371165054
 21
1293.94967246908
 31
0.0
 12
2170.275371165054
 22
1294.44967246908
 32
0.0
 13
2170.275371165054
 23
1294.44967246908
 33
0.0
  0
SOLID
  5
2381
330
235D
100
AcDbEntity
  8
AM_5
100
AcDbTrace
 10
2188.275371165054
 20
1294.94967246908
 30
0.0
 11
2188.275371165054
 21
1293.94967246908
 31
0.0
 12
2191.275371165054
 22
1294.44967246908
 32
0.0
 13
2191.275371165054
 23
1294.44967246908
 33
0.0
  0
MTEXT
  5
2382
330
235D
100
AcDbEntity
  8
AM_5
100
AcDbMText
 10
2180.775371165054
 20
1296.94996774467
 30
0.0
 40
3.0
 41
0.0
 71
     5
 72
     1
  1
21
 73
     1
 44
1.0
1001
ACAD
1000
MTEXTBEGIN
1070
    73
1070
     1
1070
    44
1040
1.0
1070
    74
1070
     0
1000
MTEXTEND
  0
POINT
  5
2383
330
235D
100
AcDbEntity
  8
Defpoints
 62
     0
100
AcDbPoint
 10
2170.275371165054
 20
1307.212485671414
 30
0.0
  0
POINT
  5
2384
330
235D
100
AcDbEntity
  8
Defpoints
 62
     0
100
AcDbPoint
 10
2191.275371165054
 20
1321.44967346908
 30
0.0
  0
POINT
  5
2385
330
235D
100
AcDbEntity
  8
Defpoints
 62
     0
100
AcDbPoint
 10
2191.275371165054
 20
1294.44967246908
 30
0.0
  0
ENDBLK
  5
2368
330
235D
100
AcDbEntity
  8
0
100
AcDbBlockEnd
  0
BLOCK
  5
2391
330
2387
100
AcDbEntity
  8
0
100
AcDbBlockBegin
  2
*D12
 70
     1
 10
0.0
 20
0.0
 30
0.0
  3
*D12
  1

  0
LINE
  5
2465
330
2387
100
AcDbEntity
  8
AM_5
100
AcDbLine
 10
2191.275371165054
 20
1320.44967346908
 30
0.0
 11
2191.275371165054
 21
1293.09967246908
 31
0.0
  0
LINE
  5
2466
330
2387
100
AcDbEntity
  8
AM_5
100
AcDbLine
 10
2212.275371165054
 20
1305.94967346908
 30
0.0
 11
2212.275371165054
 21
1293.09967246908
 31
0.0
  0
LINE
  5
2467
330
2387
100
AcDbEntity
  8
AM_5
100
AcDbLine
 10
2194.275371165054
 20
1294.59967246908
 30
0.0
 11
2209.275371165054
 21
1294.59967246908
 31
0.0
  0
SOLID
  5
2468
330
2387
100
AcDbEntity
  8
AM_5
100
AcDbTrace
 10
2194.275371165054
 20
1295.09967246908
 30
0.0
 11
2194.275371165054
 21
1294.09967246908
 31
0.0
 12
2191.275371165054
 22
1294.59967246908
 32
0.0
 13
2191.275371165054
 23
1294.59967246908
 33
0.0
  0
SOLID
  5
2469
330
2387
100
AcDbEntity
  8
AM_5
100
AcDbTrace
 10
2209.275371165054
 20
1295.09967246908
 30
0.0
 11
2209.275371165054
 21
1294.09967246908
 31
0.0
 12
2212.275371165054
 22
1294.59967246908
 32
0.0
 13
2212.275371165054
 23
1294.59967246908
 33
0.0
  0
MTEXT
  5
246A
330
2387
100
AcDbEntity
  8
AM_5
100
AcDbMText
 10
2201.775371165054
 20
1297.099967744671
 30
0.0
 40
3.0
 41
0.0
 71
     5
 72
     1
  1
21
 73
     1
 44
1.0
1001
ACAD
1000
MTEXTBEGIN
1070
    73
1070
     1
1070
    44
1040
1.0
1070
    74
1070
     0
1000
MTEXTEND
  0
POINT
  5
246B
330
2387
100
AcDbEntity
  8
Defpoints
 62
     0
100
AcDbPoint
 10
2191.275371165054
 20
1321.44967346908
 30
0.0
  0
POINT
  5
246C
330
2387
100
AcDbEntity
  8
Defpoints
 62
     0
100
AcDbPoint
 10
2212.275371165054
 20
1306.94967346908
 30
0.0
  0
POINT
  5
246D
330
2387
100
AcDbEntity
  8
Defpoints
 62
     0
100
AcDbPoint
 10
2212.275371165054
 20
1294.59967246908
 30
0.0
  0
ENDBLK
  5
2392
330
2387
100
AcDbEntity
  8
0
100
AcDbBlockEnd
  0
BLOCK
  5
23BC
330
23B2
100
AcDbEntity
  8
0
100
AcDbBlockBegin
  2
*D13
 70
     1
 10
0.0
 20
0.0
 30
0.0
  3
*D13
  1

  0
LINE
  5
245C
330
23B2
100
AcDbEntity
  8
AM_5
100
AcDbLine
 10
2216.775371165054
 20
1310.44967346908
 30
0.0
 11
2234.775371165054
 21
1310.44967346908
 31
0.0
  0
LINE
  5
245D
330
23B2
100
AcDbEntity
  8
AM_5
100
AcDbLine
 10
2222.275371165054
 20
1321.44967346908
 30
0.0
 11
2234.775371165054
 21
1321.44967346908
 31
0.0
  0
LINE
  5
245E
330
23B2
100
AcDbEntity
  8
AM_5
100
AcDbLine
 10
2233.275371165054
 20
1313.44967346908
 30
0.0
 11
2233.275371165054
 21
1318.44967346908
 31
0.0
  0
SOLID
  5
245F
330
23B2
100
AcDbEntity
  8
AM_5
100
AcDbTrace
 10
2232.775371165054
 20
1313.44967346908
 30
0.0
 11
2233.775371165054
 21
1313.44967346908
 31
0.0
 12
2233.275371165054
 22
1310.44967346908
 32
0.0
 13
2233.275371165054
 23
1310.44967346908
 33
0.0
  0
SOLID
  5
2460
330
23B2
100
AcDbEntity
  8
AM_5
100
AcDbTrace
 10
2232.775371165054
 20
1318.44967346908
 30
0.0
 11
2233.775371165054
 21
1318.44967346908
 31
0.0
 12
2233.275371165054
 22
1321.44967346908
 32
0.0
 13
2233.275371165054
 23
1321.44967346908
 33
0.0
  0
MTEXT
  5
2461
330
23B2
100
AcDbEntity
  8
AM_5
100
AcDbMText
 10
2230.775371165053
 20
1315.94967346908
 30
0.0
 40
3.0
 41
0.0
 71
     5
 72
     1
  1
11
 11
0.0000000000000001
 21
1.0
 31
0.0
 73
     1
 44
1.0
1001
ACAD
1000
MTEXTBEGIN
1070
    73
1070
     1
1070
    44
1040
1.0
1070
    74
1070
     0
1000
MTEXTEND
  0
POINT
  5
2462
330
23B2
100
AcDbEntity
  8
Defpoints
 62
     0
100
AcDbPoint
 10
2215.775371165054
 20
1310.44967346908
 30
0.0
  0
POINT
  5
2463
330
23B2
100
AcDbEntity
  8
Defpoints
 62
     0
100
AcDbPoint
 10
2221.275371165054
 20
1321.44967346908
 30
0.0
  0
POINT
  5
2464
330
23B2
100
AcDbEntity
  8
Defpoints
 62
     0
100
AcDbPoint
 10
2233.275371165054
 20
1321.44967346908
 30
0.0
  0
ENDBLK
  5
23BD
330
23B2
100
AcDbEntity
  8
0
100
AcDbBlockEnd
  0
BLOCK
  5
23E6
330
23DC
100
AcDbEntity
  8
0
100
AcDbBlockBegin
  2
*D14
 70
     1
 10
0.0
 20
0.0
 30
0.0
  3
*D14
  1

  0
LINE
  5
246E
330
23DC
100
AcDbEntity
  8
AM_5
100
AcDbLine
 10
2222.275371165054
 20
1321.44967346908
 30
0.0
 11
2234.775371165054
 21
1321.44967346908
 31
0.0
  0
LINE
  5
246F
330
23DC
100
AcDbEntity
  8
AM_5
100
AcDbLine
 10
2216.775371165054
 20
1332.44967346908
 30
0.0
 11
2234.775371165054
 21
1332.44967346908
 31
0.0
  0
LINE
  5
2470
330
23DC
100
AcDbEntity
  8
AM_5
100
AcDbLine
 10
2233.275371165054
 20
1324.44967346908
 30
0.0
 11
2233.275371165054
 21
1329.44967346908
 31
0.0
  0
SOLID
  5
2471
330
23DC
100
AcDbEntity
  8
AM_5
100
AcDbTrace
 10
2232.775371165054
 20
1324.44967346908
 30
0.0
 11
2233.775371165054
 21
1324.44967346908
 31
0.0
 12
2233.275371165054
 22
1321.44967346908
 32
0.0
 13
2233.275371165054
 23
1321.44967346908
 33
0.0
  0
SOLID
  5
2472
330
23DC
100
AcDbEntity
  8
AM_5
100
AcDbTrace
 10
2232.775371165054
 20
1329.44967346908
 30
0.0
 11
2233.775371165054
 21
1329.44967346908
 31
0.0
 12
2233.275371165054
 22
1332.44967346908
 32
0.0
 13
2233.275371165054
 23
1332.44967346908
 33
0.0
  0
MTEXT
  5
2473
330
23DC
100
AcDbEntity
  8
AM_5
100
AcDbMText
 10
2230.775371165053
 20
1326.94967346908
 30
0.0
 40
3.0
 41
0.0
 71
     5
 72
     1
  1
11
 11
0.0000000000000001
 21
1.0
 31
0.0
 73
     1
 44
1.0
1001
ACAD
1000
MTEXTBEGIN
1070
    73
1070
     1
1070
    44
1040
1.0
1070
    74
1070
     0
1000
MTEXTEND
  0
POINT
  5
2474
330
23DC
100
AcDbEntity
  8
Defpoints
 62
     0
100
AcDbPoint
 10
2221.275371165054
 20
1321.44967346908
 30
0.0
  0
POINT
  5
2475
330
23DC
100
AcDbEntity
  8
Defpoints
 62
     0
100
AcDbPoint
 10
2215.775371165054
 20
1332.44967346908
 30
0.0
  0
POINT
  5
2476
330
23DC
100
AcDbEntity
  8
Defpoints
 62
     0
100
AcDbPoint
 10
2233.275371165054
 20
1332.44967346908
 30
0.0
  0
ENDBLK
  5
23E7
330
23DC
100
AcDbEntity
  8
0
100
AcDbBlockEnd
  0
BLOCK
  5
2410
330
2406
100
AcDbEntity
  8
0
100
AcDbBlockBegin
  2
*D15
 70
     1
 10
0.0
 20
0.0
 30
0.0
  3
*D15
  1

  0
LINE
  5
2453
330
2406
100
AcDbEntity
  8
AM_5
100
AcDbLine
 10
2165.775371165054
 20
1310.44967346908
 30
0.0
 11
2147.775371165054
 21
1310.44967346908
 31
0.0
  0
LINE
  5
2454
330
2406
100
AcDbEntity
  8
AM_5
100
AcDbLine
 10
2160.275371165054
 20
1321.44967346908
 30
0.0
 11
2147.775371165054
 21
1321.44967346908
 31
0.0
  0
LINE
  5
2455
330
2406
100
AcDbEntity
  8
AM_5
100
AcDbLine
 10
2149.275371165054
 20
1313.44967346908
 30
0.0
 11
2149.275371165054
 21
1318.44967346908
 31
0.0
  0
SOLID
  5
2456
330
2406
100
AcDbEntity
  8
AM_5
100
AcDbTrace
 10
2148.775371165054
 20
1313.44967346908
 30
0.0
 11
2149.775371165054
 21
1313.44967346908
 31
0.0
 12
2149.275371165054
 22
1310.44967346908
 32
0.0
 13
2149.275371165054
 23
1310.44967346908
 33
0.0
  0
SOLID
  5
2457
330
2406
100
AcDbEntity
  8
AM_5
100
AcDbTrace
 10
2148.775371165054
 20
1318.44967346908
 30
0.0
 11
2149.775371165054
 21
1318.44967346908
 31
0.0
 12
2149.275371165054
 22
1321.44967346908
 32
0.0
 13
2149.275371165054
 23
1321.44967346908
 33
0.0
  0
MTEXT
  5
2458
330
2406
100
AcDbEntity
  8
AM_5
100
AcDbMText
 10
2146.775371165054
 20
1315.94967346908
 30
0.0
 40
3.0
 41
0.0
 71
     5
 72
     1
  1
11
 11
0.0000000000000001
 21
1.0
 31
0.0
 73
     1
 44
1.0
1001
ACAD
1000
MTEXTBEGIN
1070
    73
1070
     1
1070
    44
1040
1.0
1070
    74
1070
     0
1000
MTEXTEND
  0
POINT
  5
2459
330
2406
100
AcDbEntity
  8
Defpoints
 62
     0
100
AcDbPoint
 10
2166.775371165054
 20
1310.44967346908
 30
0.0
  0
POINT
  5
245A
330
2406
100
AcDbEntity
  8
Defpoints
 62
     0
100
AcDbPoint
 10
2161.275371165054
 20
1321.44967346908
 30
0.0
  0
POINT
  5
245B
330
2406
100
AcDbEntity
  8
Defpoints
 62
     0
100
AcDbPoint
 10
2149.275371165054
 20
1321.44967346908
 30
0.0
  0
ENDBLK
  5
2411
330
2406
100
AcDbEntity
  8
0
100
AcDbBlockEnd
  0
BLOCK
  5
243A
330
2430
100
AcDbEntity
  8
0
100
AcDbBlockBegin
  2
*D16
 70
     1
 10
0.0
 20
0.0
 30
0.0
  3
*D16
  1

  0
LINE
  5
244A
330
2430
100
AcDbEntity
  8
AM_5
100
AcDbLine
 10
2165.775371165054
 20
1332.44967346908
 30
0.0
 11
2147.775371165054
 21
1332.44967346908
 31
0.0
  0
LINE
  5
244B
330
2430
100
AcDbEntity
  8
AM_5
100
AcDbLine
 10
2160.275371165054
 20
1321.44967346908
 30
0.0
 11
2147.775371165054
 21
1321.44967346908
 31
0.0
  0
LINE
  5
244C
330
2430
100
AcDbEntity
  8
AM_5
100
AcDbLine
 10
2149.275371165054
 20
1329.44967346908
 30
0.0
 11
2149.275371165054
 21
1324.44967346908
 31
0.0
  0
SOLID
  5
244D
330
2430
100
AcDbEntity
  8
AM_5
100
AcDbTrace
 10
2148.775371165054
 20
1329.44967346908
 30
0.0
 11
2149.775371165054
 21
1329.44967346908
 31
0.0
 12
2149.275371165054
 22
1332.44967346908
 32
0.0
 13
2149.275371165054
 23
1332.44967346908
 33
0.0
  0
SOLID
  5
244E
330
2430
100
AcDbEntity
  8
AM_5
100
AcDbTrace
 10
2148.775371165054
 20
1324.44967346908
 30
0.0
 11
2149.775371165054
 21
1324.44967346908
 31
0.0
 12
2149.275371165054
 22
1321.44967346908
 32
0.0
 13
2149.275371165054
 23
1321.44967346908
 33
0.0
  0
MTEXT
  5
244F
330
2430
100
AcDbEntity
  8
AM_5
100
AcDbMText
 10
2146.775371165054
 20
1326.94967346908
 30
0.0
 40
3.0
 41
0.0
 71
     5
 72
     1
  1
11
 11
0.0000000000000001
 21
1.0
 31
0.0
 73
     1
 44
1.0
1001
ACAD
1000
MTEXTBEGIN
1070
    73
1070
     1
1070
    44
1040
1.0
1070
    74
1070
     0
1000
MTEXTEND
  0
POINT
  5
2450
330
2430
100
AcDbEntity
  8
Defpoints
 62
     0
100
AcDbPoint
 10
2166.775371165054
 20
1332.44967346908
 30
0.0
  0
POINT
  5
2451
330
2430
100
AcDbEntity
  8
Defpoints
 62
     0
100
AcDbPoint
 10
2161.275371165054
 20
1321.44967346908
 30
0.0
  0
POINT
  5
2452
330
2430
100
AcDbEntity
  8
Defpoints
 62
     0
100
AcDbPoint
 10
2149.275371165054
 20
1321.44967346908
 30
0.0
  0
ENDBLK
  5
243B
330
2430
100
AcDbEntity
  8
0
100
AcDbBlockEnd
  0
BLOCK
  5
2491
330
2487
100
AcDbEntity
  8
0
100
AcDbBlockBegin
  2
*D17
 70
     1
 10
0.0
 20
0.0
 30
0.0
  3
*D17
  1

  0
LINE
  5
251F
330
2487
100
AcDbEntity
  8
AM_5
100
AcDbLine
 10
2170.275371165054
 20
1550.072507952017
 30
0.0
 11
2170.275371165054
 21
1537.572507952017
 31
0.0
  0
LINE
  5
2520
330
2487
100
AcDbEntity
  8
AM_5
100
AcDbLine
 10
2191.275371165054
 20
1564.572507952017
 30
0.0
 11
2191.275371165054
 21
1537.572507952017
 31
0.0
  0
LINE
  5
2521
330
2487
100
AcDbEntity
  8
AM_5
100
AcDbLine
 10
2173.275371165054
 20
1539.072507952017
 30
0.0
 11
2188.275371165054
 21
1539.072507952017
 31
0.0
  0
SOLID
  5
2522
330
2487
100
AcDbEntity
  8
AM_5
100
AcDbTrace
 10
2173.275371165054
 20
1539.572507952017
 30
0.0
 11
2173.275371165054
 21
1538.572507952017
 31
0.0
 12
2170.275371165054
 22
1539.072507952017
 32
0.0
 13
2170.275371165054
 23
1539.072507952017
 33
0.0
  0
SOLID
  5
2523
330
2487
100
AcDbEntity
  8
AM_5
100
AcDbTrace
 10
2188.275371165054
 20
1539.572507952017
 30
0.0
 11
2188.275371165054
 21
1538.572507952017
 31
0.0
 12
2191.275371165054
 22
1539.072507952017
 32
0.0
 13
2191.275371165054
 23
1539.072507952017
 33
0.0
  0
MTEXT
  5
2524
330
2487
100
AcDbEntity
  8
AM_5
100
AcDbMText
 10
2180.775371165054
 20
1541.572803227608
 30
0.0
 40
3.0
 41
0.0
 71
     5
 72
     1
  1
21
 73
     1
 44
1.0
1001
ACAD
1000
MTEXTBEGIN
1070
    73
1070
     1
1070
    44
1040
1.0
1070
    74
1070
     0
1000
MTEXTEND
  0
POINT
  5
2525
330
2487
100
AcDbEntity
  8
Defpoints
 62
     0
100
AcDbPoint
 10
2170.275371165054
 20
1551.072507952017
 30
0.0
  0
POINT
  5
2526
330
2487
100
AcDbEntity
  8
Defpoints
 62
     0
100
AcDbPoint
 10
2191.275371165054
 20
1565.572507952017
 30
0.0
  0
POINT
  5
2527
330
2487
100
AcDbEntity
  8
Defpoints
 62
     0
100
AcDbPoint
 10
2191.275371165054
 20
1539.072507952017
 30
0.0
  0
ENDBLK
  5
2492
330
2487
100
AcDbEntity
  8
0
100
AcDbBlockEnd
  0
BLOCK
  5
24BB
330
24B1
100
AcDbEntity
  8
0
100
AcDbBlockBegin
  2
*D18
 70
     1
 10
0.0
 20
0.0
 30
0.0
  3
*D18
  1

  0
LINE
  5
2531
330
24B1
100
AcDbEntity
  8
AM_5
100
AcDbLine
 10
2191.275371165054
 20
1564.572507952017
 30
0.0
 11
2191.275371165054
 21
1537.572507952017
 31
0.0
  0
LINE
  5
2532
330
24B1
100
AcDbEntity
  8
AM_5
100
AcDbLine
 10
2212.275371165054
 20
1550.072507952017
 30
0.0
 11
2212.275371165054
 21
1537.572507952017
 31
0.0
  0
LINE
  5
2533
330
24B1
100
AcDbEntity
  8
AM_5
100
AcDbLine
 10
2194.275371165054
 20
1539.072507952017
 30
0.0
 11
2209.275371165054
 21
1539.072507952017
 31
0.0
  0
SOLID
  5
2534
330
24B1
100
AcDbEntity
  8
AM_5
100
AcDbTrace
 10
2194.275371165054
 20
1539.572507952017
 30
0.0
 11
2194.275371165054
 21
1538.572507952017
 31
0.0
 12
2191.275371165054
 22
1539.072507952017
 32
0.0
 13
2191.275371165054
 23
1539.072507952017
 33
0.0
  0
SOLID
  5
2535
330
24B1
100
AcDbEntity
  8
AM_5
100
AcDbTrace
 10
2209.275371165054
 20
1539.572507952017
 30
0.0
 11
2209.275371165054
 21
1538.572507952017
 31
0.0
 12
2212.275371165054
 22
1539.072507952017
 32
0.0
 13
2212.275371165054
 23
1539.072507952017
 33
0.0
  0
MTEXT
  5
2536
330
24B1
100
AcDbEntity
  8
AM_5
100
AcDbMText
 10
2201.775371165054
 20
1541.572803227608
 30
0.0
 40
3.0
 41
0.0
 71
     5
 72
     1
  1
21
 73
     1
 44
1.0
1001
ACAD
1000
MTEXTBEGIN
1070
    73
1070
     1
1070
    44
1040
1.0
1070
    74
1070
     0
1000
MTEXTEND
  0
POINT
  5
2537
330
24B1
100
AcDbEntity
  8
Defpoints
 62
     0
100
AcDbPoint
 10
2191.275371165054
 20
1565.572507952017
 30
0.0
  0
POINT
  5
2538
330
24B1
100
AcDbEntity
  8
Defpoints
 62
     0
100
AcDbPoint
 10
2212.275371165054
 20
1551.072507952017
 30
0.0
  0
POINT
  5
2539
330
24B1
100
AcDbEntity
  8
Defpoints
 62
     0
100
AcDbPoint
 10
2212.275371165054
 20
1539.072507952017
 30
0.0
  0
ENDBLK
  5
24BC
330
24B1
100
AcDbEntity
  8
0
100
AcDbBlockEnd
  0
BLOCK
  5
24E5
330
24DB
100
AcDbEntity
  8
0
100
AcDbBlockBegin
  2
*D19
 70
     1
 10
0.0
 20
0.0
 30
0.0
  3
*D19
  1

  0
LINE
  5
2528
330
24DB
100
AcDbEntity
  8
AM_5
100
AcDbLine
 10
2216.775371165054
 20
1554.572507952017
 30
0.0
 11
2231.632011459208
 21
1554.572507952017
 31
0.0
  0
LINE
  5
2529
330
24DB
100
AcDbEntity
  8
AM_5
100
AcDbLine
 10
2222.275371165054
 20
1565.572507952017
 30
0.0
 11
2231.632011459208
 21
1565.572507952017
 31
0.0
  0
LINE
  5
252A
330
24DB
100
AcDbEntity
  8
AM_5
100
AcDbLine
 10
2230.132011459208
 20
1557.572507952017
 30
0.0
 11
2230.132011459208
 21
1562.572507952017
 31
0.0
  0
SOLID
  5
252B
330
24DB
100
AcDbEntity
  8
AM_5
100
AcDbTrace
 10
2229.632011459208
 20
1557.572507952017
 30
0.0
 11
2230.632011459208
 21
1557.572507952017
 31
0.0
 12
2230.132011459208
 22
1554.572507952017
 32
0.0
 13
2230.132011459208
 23
1554.572507952017
 33
0.0
  0
SOLID
  5
252C
330
24DB
100
AcDbEntity
  8
AM_5
100
AcDbTrace
 10
2229.632011459208
 20
1562.572507952017
 30
0.0
 11
2230.632011459208
 21
1562.572507952017
 31
0.0
 12
2230.132011459208
 22
1565.572507952017
 32
0.0
 13
2230.132011459208
 23
1565.572507952017
 33
0.0
  0
MTEXT
  5
252D
330
24DB
100
AcDbEntity
  8
AM_5
100
AcDbMText
 10
2227.632011459207
 20
1560.072507952018
 30
0.0
 40
3.0
 41
0.0
 71
     5
 72
     1
  1
11
 11
0.0000000000000001
 21
1.0
 31
0.0
 73
     1
 44
1.0
1001
ACAD
1000
MTEXTBEGIN
1070
    73
1070
     1
1070
    44
1040
1.0
1070
    74
1070
     0
1000
MTEXTEND
  0
POINT
  5
252E
330
24DB
100
AcDbEntity
  8
Defpoints
 62
     0
100
AcDbPoint
 10
2215.775371165054
 20
1554.572507952017
 30
0.0
  0
POINT
  5
252F
330
24DB
100
AcDbEntity
  8
Defpoints
 62
     0
100
AcDbPoint
 10
2221.275371165054
 20
1565.572507952017
 30
0.0
  0
POINT
  5
2530
330
24DB
100
AcDbEntity
  8
Defpoints
 62
     0
100
AcDbPoint
 10
2230.132011459208
 20
1565.572507952017
 30
0.0
  0
ENDBLK
  5
24E6
330
24DB
100
AcDbEntity
  8
0
100
AcDbBlockEnd
  0
BLOCK
  5
250F
330
2505
100
AcDbEntity
  8
0
100
AcDbBlockBegin
  2
*D20
 70
     1
 10
0.0
 20
0.0
 30
0.0
  3
*D20
  1

  0
LINE
  5
253A
330
2505
100
AcDbEntity
  8
AM_5
100
AcDbLine
 10
2222.275371165054
 20
1565.572507952017
 30
0.0
 11
2231.632011459208
 21
1565.572507952017
 31
0.0
  0
LINE
  5
253B
330
2505
100
AcDbEntity
  8
AM_5
100
AcDbLine
 10
2216.775371165054
 20
1576.572507952017
 30
0.0
 11
2231.632011459208
 21
1576.572507952017
 31
0.0
  0
LINE
  5
253C
330
2505
100
AcDbEntity
  8
AM_5
100
AcDbLine
 10
2230.132011459208
 20
1568.572507952017
 30
0.0
 11
2230.132011459208
 21
1573.572507952017
 31
0.0
  0
SOLID
  5
253D
330
2505
100
AcDbEntity
  8
AM_5
100
AcDbTrace
 10
2229.632011459208
 20
1568.572507952017
 30
0.0
 11
2230.632011459208
 21
1568.572507952017
 31
0.0
 12
2230.132011459208
 22
1565.572507952017
 32
0.0
 13
2230.132011459208
 23
1565.572507952017
 33
0.0
  0
SOLID
  5
253E
330
2505
100
AcDbEntity
  8
AM_5
100
AcDbTrace
 10
2229.632011459208
 20
1573.572507952017
 30
0.0
 11
2230.632011459208
 21
1573.572507952017
 31
0.0
 12
2230.132011459208
 22
1576.572507952017
 32
0.0
 13
2230.132011459208
 23
1576.572507952017
 33
0.0
  0
MTEXT
  5
253F
330
2505
100
AcDbEntity
  8
AM_5
100
AcDbMText
 10
2227.632011459207
 20
1571.072507952018
 30
0.0
 40
3.0
 41
0.0
 71
     5
 72
     1
  1
11
 11
0.0000000000000001
 21
1.0
 31
0.0
 73
     1
 44
1.0
1001
ACAD
1000
MTEXTBEGIN
1070
    73
1070
     1
1070
    44
1040
1.0
1070
    74
1070
     0
1000
MTEXTEND
  0
POINT
  5
2540
330
2505
100
AcDbEntity
  8
Defpoints
 62
     0
100
AcDbPoint
 10
2221.275371165054
 20
1565.572507952017
 30
0.0
  0
POINT
  5
2541
330
2505
100
AcDbEntity
  8
Defpoints
 62
     0
100
AcDbPoint
 10
2215.775371165054
 20
1576.572507952017
 30
0.0
  0
POINT
  5
2542
330
2505
100
AcDbEntity
  8
Defpoints
 62
     0
100
AcDbPoint
 10
2230.132011459208
 20
1576.572507952017
 30
0.0
  0
ENDBLK
  5
2510
330
2505
100
AcDbEntity
  8
0
100
AcDbBlockEnd
  0
ENDSEC
  0
SECTION
  2
ENTITIES
  0
LWPOLYLINE
  5
DB0
330
1F
100
AcDbEntity
  8
0
 62
     4
100
AcDbPolyline
 90
        4
 70
     1
 43
0.0
 10
2054.162671431644
 20
1284.100610506813
 10
2417.625736813495
 20
1284.100610506813
 10
2417.625736813495
 20
1762.390945950085
 10
2054.162671431644
 20
1762.390945950085
1001
GENIUS_GENREC_14
1002
{
1000
PYDIR
1011
2054.162671431644
1021
1762.390945950085
1031
0.0
1002
}
1002
{
1000
PXDIR
1011
2417.625736813495
1021
1284.100610506813
1031
0.0
1002
}
1002
{
1000
PORI
1011
2054.162671431644
1021
1284.100610506813
1031
0.0
1002
}
1002
{
1000
PINS
1011
2054.162671431644
1021
1284.100610506813
1031
0.0
1002
}
1002
{
1000
PINS2
1011
2417.625736813495
1021
1762.390945950085
1031
0.0
1002
}
1002
{
1000
C
1070
     1
1002
}
1001
GENIUS_GENODEF_13
1002
{
1000
HIER
1070
     0
1002
}
1002
{
1000
MANEDIT
1070
     0
1002
}
1002
{
1000
NOSEL
1070
     0
1002
}
1002
{
1000
BEHIND
1070
     0
1002
}
1002
{
1000
OTHER
1070
     0
1002
}
1002
{
1000
REACTOR
1002
}
1001
GENIUS_GENOBJ-N-REC_13
1002
{
1000
OWNER
1000
GEN
1002
}
  0
LINE
  5
DEE
330
1F
100
AcDbEntity
  8
LOGO
 62
     4
100
AcDbLine
 10
2188.248451349801
 20
1255.577994928482
 30
0.0
 11
2167.500278028534
 21
1255.577994928482
 31
0.0
  0
LINE
  5
DEF
330
1F
100
AcDbEntity
  8
LOGO
 62
     4
100
AcDbLine
 10
2188.248451349801
 20
1266.989490255179
 30
0.0
 11
2167.500278028534
 21
1266.989490255179
 31
0.0
  0
LINE
  5
DF0
330
1F
100
AcDbEntity
  8
LOGO
 62
     4
100
AcDbLine
 10
2190.323268681928
 20
1271.657829252464
 30
0.0
 11
2165.425460696408
 21
1271.657829252464
 31
0.0
  0
LINE
  5
DF1
330
1F
100
AcDbEntity
  8
LOGO
 62
     4
100
AcDbLine
 10
2190.323268681928
 20
1280.994507247034
 30
0.0
 11
2165.425460696408
 21
1280.994507247034
 31
0.0
  0
TEXT
  5
DF2
330
1F
100
AcDbEntity
  8
LOGO
  6
Continuous
 62
     7
100
AcDbText
 10
2167.5076980225
 20
1273.604918249749
 30
0.0
 40
5.442499999999999
  1
MCGB
  7
CHINESET
 72
     1
 11
2177.874364689167
 21
1276.326168249749
 31
0.0
100
AcDbText
 73
     2
  0
LINE
  5
DF3
330
1F
100
AcDbEntity
  8
LOGO
 62
     4
100
AcDbLine
 10
2165.425460696408
 20
1280.994507247034
 30
0.0
 11
2165.425460696408
 21
1271.657829252464
 31
0.0
  0
LINE
  5
DF4
330
1F
100
AcDbEntity
  8
LOGO
 62
     4
100
AcDbLine
 10
2167.500278028534
 20
1266.989490255179
 30
0.0
 11
2167.500278028534
 21
1255.577994928482
 31
0.0
  0
TEXT
  5
DF5
330
1F
100
AcDbEntity
  8
LOGO
  6
Continuous
100
AcDbText
 10
2174.320078974881
 20
1257.005266593641
 30
203.9701648285578
 40
2.3325
  1
Model
 41
0.8
  7
CHINESET
 72
     4
 11
2177.874364689167
 21
1258.17151659364
 31
203.9701648285578
100
AcDbText
  0
TEXT
  5
DF6
330
1F
100
AcDbEntity
  8
LOGO
100
AcDbText
 10
2173.986864689167
 20
1261.514293191674
 30
203.9701648285578
 40
3.887499999999999
  1
型式
  7
CHINESET
 72
     4
 11
2177.874364689167
 21
1263.358559923957
 31
203.9701648285578
100
AcDbText
  0
LINE
  5
DF7
330
1F
100
AcDbEntity
  8
LOGO
 62
     4
100
AcDbLine
 10
2177.874364689167
 20
1271.657829252464
 30
0.0
 11
2177.874364689167
 21
1266.989490255179
 31
0.0
  0
LINE
  5
DF8
330
1F
100
AcDbEntity
  8
LOGO
 62
     4
100
AcDbLine
 10
2190.323268681928
 20
1280.994507247034
 30
0.0
 11
2190.323268681928
 21
1271.657829252464
 31
0.0
  0
LINE
  5
DF9
330
1F
100
AcDbEntity
  8
LOGO
 62
     4
100
AcDbLine
 10
2224.699310490441
 20
1280.994507247034
 30
0.0
 11
2224.699310490441
 21
1271.657829252464
 31
0.0
  0
LINE
  5
DFA
330
1F
100
AcDbEntity
  8
LOGO
 62
     4
100
AcDbLine
 10
2197.669208565288
 20
1280.994507247034
 30
0.0
 11
2197.669208565288
 21
1271.657829252464
 31
0.0
  0
TEXT
  5
DFB
330
1F
100
AcDbEntity
  8
LOGO
  6
Continuous
100
AcDbText
 10
2202.431830956436
 20
1257.394016593641
 30
203.9701648285578
 40
2.3325
  1
Bearing type
 41
0.8
  7
CHINESET
 72
     4
 11
2211.184259527865
 21
1258.17151659364
 31
203.9701648285578
100
AcDbText
  0
TEXT
  5
DFC
330
1F
100
AcDbEntity
  8
LOGO
100
AcDbText
 10
2203.449754319531
 20
1261.514293191674
 30
203.9701648285578
 40
3.887499999999999
  1
軸承型式
  7
CHINESET
 72
     4
 11
2211.184259527865
 21
1263.358559923957
 31
203.9701648285578
100
AcDbText
  0
LINE
  5
DFD
330
1F
100
AcDbEntity
  8
LOGO
 62
     4
100
AcDbLine
 10
2224.699310490441
 20
1271.657829252464
 30
0.0
 11
2197.669208565288
 21
1271.657829252464
 31
0.0
  0
LINE
  5
DFE
330
1F
100
AcDbEntity
  8
LOGO
 62
     4
100
AcDbLine
 10
2224.699310490441
 20
1266.989490255179
 30
0.0
 11
2197.669208565288
 21
1266.989490255179
 31
0.0
  0
LINE
  5
DFF
330
1F
100
AcDbEntity
  8
LOGO
 62
     4
100
AcDbLine
 10
2224.699310490441
 20
1255.577994928482
 30
0.0
 11
2197.669208565288
 21
1255.577994928482
 31
0.0
  0
LINE
  5
E00
330
1F
100
AcDbEntity
  8
LOGO
 62
     4
100
AcDbLine
 10
2188.248451349801
 20
1266.989490255179
 30
0.0
 11
2188.248451349801
 21
1255.577994928482
 31
0.0
  0
LINE
  5
E01
330
1F
100
AcDbEntity
  8
LOGO
 62
     4
100
AcDbLine
 10
2197.669208565288
 20
1266.989490255179
 30
0.0
 11
2197.669208565288
 21
1255.577994928482
 31
0.0
  0
LINE
  5
E02
330
1F
100
AcDbEntity
  8
LOGO
 62
     4
100
AcDbLine
 10
2224.699310490441
 20
1266.989490255179
 30
0.0
 11
2224.699310490441
 21
1255.577994928482
 31
0.0
  0
LINE
  5
E03
330
1F
100
AcDbEntity
  8
LOGO
 62
     4
100
AcDbLine
 10
2211.184259527865
 20
1271.657829252464
 30
0.0
 11
2211.184259527865
 21
1266.989490255179
 31
0.0
  0
LINE
  5
E04
330
1F
100
AcDbEntity
  8
LOGO
 62
     4
100
AcDbLine
 10
2224.699310490441
 20
1280.994507247034
 30
0.0
 11
2197.669208565288
 21
1280.994507247034
 31
0.0
  0
LINE
  5
E05
330
1F
100
AcDbEntity
  8
LOGO
  6
Continuous
 62
     7
100
AcDbLine
 10
2191.93183798418
 20
1276.293096260748
 30
0.0
 11
2196.054574306339
 21
1276.293096260748
 31
0.0
  0
TEXT
  5
E06
330
1F
100
AcDbEntity
  8
LOGO
  6
Continuous
 62
     7
100
AcDbText
 10
2198.744259527865
 20
1273.546096851533
 30
0.0
 40
5.442499999999999
  1
03/23
  7
CHINESET
 72
     1
 11
2211.184259527865
 21
1276.267346851533
 31
0.0
100
AcDbText
 73
     2
  0
TEXT
  5
E07
330
1F
100
AcDbEntity
  8
LOGO
  6
Continuous
 62
     7
100
AcDbText
 10
2261.284623380348
 20
1273.546096851533
 30
0.0
 40
5.442499999999999
  1
10
  7
CHINESET
 72
     1
 11
2265.172123380347
 21
1276.267346851533
 31
0.0
100
AcDbText
 73
     2
  0
TEXT
  5
E08
330
1F
100
AcDbEntity
  8
LOGO
  6
Continuous
100
AcDbText
 10
2260.467284916862
 20
1257.005266593641
 30
203.9701648285578
 40
2.3325
  1
Stroke
 41
0.8
  7
CHINESET
 72
     4
 11
2264.687999202576
 21
1258.17151659364
 31
203.9701648285578
100
AcDbText
  0
LINE
  5
E09
330
1F
100
AcDbEntity
  8
LOGO
 62
     4
100
AcDbLine
 10
2273.328792883472
 20
1280.994507247034
 30
0.0
 11
2256.047205521682
 21
1280.994507247034
 31
0.0
  0
TEXT
  5
E0A
330
1F
100
AcDbEntity
  8
LOGO
100
AcDbText
 10
2260.800499202576
 20
1261.414809923957
 30
203.9701648285578
 40
3.887499999999999
  1
行程
  7
CHINESET
 72
     4
 11
2264.687999202576
 21
1263.358559923957
 31
203.9701648285578
100
AcDbText
  0
LINE
  5
E0B
330
1F
100
AcDbEntity
  8
LOGO
 62
     4
100
AcDbLine
 10
2272.291384217409
 20
1255.577994928482
 30
0.0
 11
2257.084614187745
 21
1255.577994928482
 31
0.0
  0
LINE
  5
E0C
330
1F
100
AcDbEntity
  8
LOGO
 62
     4
100
AcDbLine
 10
2273.328792883472
 20
1271.657829252464
 30
0.0
 11
2256.047205521682
 21
1271.657829252464
 31
0.0
  0
LINE
  5
E0D
330
1F
100
AcDbEntity
  8
LOGO
 62
     4
100
AcDbLine
 10
2272.291384217409
 20
1266.989490255179
 30
0.0
 11
2257.084614187745
 21
1266.989490255179
 31
0.0
  0
LINE
  5
E0E
330
1F
100
AcDbEntity
  8
LOGO
 62
     4
100
AcDbLine
 10
2248.701265638322
 20
1280.994507247034
 30
0.0
 11
2248.701265638322
 21
1271.657829252464
 31
0.0
  0
LINE
  5
E0F
330
1F
100
AcDbEntity
  8
LOGO
 62
     4
100
AcDbLine
 10
2232.045250373801
 20
1280.994507247034
 30
0.0
 11
2232.045250373801
 21
1271.657829252464
 31
0.0
  0
LINE
  5
E10
330
1F
100
AcDbEntity
  8
LOGO
 62
     4
100
AcDbLine
 10
2256.047205521682
 20
1280.994507247034
 30
0.0
 11
2256.047205521682
 21
1271.657829252464
 31
0.0
  0
LINE
  5
E11
330
1F
100
AcDbEntity
  8
LOGO
 62
     4
100
AcDbLine
 10
2248.701265638322
 20
1255.577994928482
 30
0.0
 11
2232.045250373801
 21
1255.577994928482
 31
0.0
  0
LINE
  5
E12
330
1F
100
AcDbEntity
  8
LOGO
 62
     4
100
AcDbLine
 10
2248.701265638322
 20
1271.657829252464
 30
0.0
 11
2232.045250373801
 21
1271.657829252464
 31
0.0
  0
LINE
  5
E13
330
1F
100
AcDbEntity
  8
LOGO
 62
     4
100
AcDbLine
 10
2248.701265638322
 20
1266.989490255179
 30
0.0
 11
2232.045250373801
 21
1266.989490255179
 31
0.0
  0
LINE
  5
E14
330
1F
100
AcDbEntity
  8
LOGO
 62
     4
100
AcDbLine
 10
2232.045250373801
 20
1266.989490255179
 30
0.0
 11
2232.045250373801
 21
1255.577994928482
 31
0.0
  0
TEXT
  5
E15
330
1F
100
AcDbEntity
  8
LOGO
  6
Continuous
100
AcDbText
 10
2237.485400863204
 20
1257.005266593641
 30
203.9701648285578
 40
2.3325
  1
Bore
 41
0.8
  7
CHINESET
 72
     4
 11
2240.373258006061
 21
1258.17151659364
 31
203.9701648285578
100
AcDbText
  0
TEXT
  5
E16
330
1F
100
AcDbEntity
  8
LOGO
100
AcDbText
 10
2236.242789256061
 20
1261.414809923957
 30
203.9701648285578
 40
3.887499999999999
  1
內徑
  7
CHINESET
 72
     4
 11
2240.373258006061
 21
1263.358559923957
 31
203.9701648285578
100
AcDbText
  0
LINE
  5
E17
330
1F
100
AcDbEntity
  8
LOGO
 62
     4
100
AcDbLine
 10
2240.373257766851
 20
1271.657829252464
 30
0.0
 11
2240.373257766851
 21
1266.989490255179
 31
0.0
  0
LINE
  5
E18
330
1F
100
AcDbEntity
  8
LOGO
 62
     4
100
AcDbLine
 10
2248.701265638322
 20
1266.989490255179
 30
0.0
 11
2248.701265638322
 21
1255.577994928482
 31
0.0
  0
LINE
  5
E19
330
1F
100
AcDbEntity
  8
LOGO
 62
     4
100
AcDbLine
 10
2257.084614187745
 20
1266.989490255179
 30
0.0
 11
2257.084614187745
 21
1255.577994928482
 31
0.0
  0
LINE
  5
E1A
330
1F
100
AcDbEntity
  8
LOGO
 62
     4
100
AcDbLine
 10
2248.701265638322
 20
1280.994507247034
 30
0.0
 11
2232.045250373801
 21
1280.994507247034
 31
0.0
  0
LINE
  5
E1B
330
1F
100
AcDbEntity
  8
LOGO
  6
Continuous
 62
     7
100
AcDbLine
 10
2226.307879792693
 20
1276.293096260748
 30
0.0
 11
2230.430616114853
 21
1276.293096260748
 31
0.0
  0
TEXT
  5
E1C
330
1F
100
AcDbEntity
  8
LOGO
  6
Continuous
 62
     7
100
AcDbText
 10
2237.099465517166
 20
1273.546096851533
 30
0.0
 40
5.442499999999999
  1
16
  7
CHINESET
 72
     1
 11
2240.857382183833
 21
1276.267346851533
 31
0.0
100
AcDbText
 73
     2
  0
LINE
  5
E1D
330
1F
100
AcDbEntity
  8
LOGO
  6
Continuous
 62
     7
100
AcDbLine
 10
2250.309834940574
 20
1276.293096260748
 30
0.0
 11
2254.432571262733
 21
1276.293096260748
 31
0.0
  0
LINE
  5
E1E
330
1F
100
AcDbEntity
  8
LOGO
 62
     4
100
AcDbLine
 10
2273.328792883472
 20
1280.994507247034
 30
0.0
 11
2273.328792883472
 21
1271.657829252464
 31
0.0
  0
LINE
  5
E1F
330
1F
100
AcDbEntity
  8
LOGO
 62
     4
100
AcDbLine
 10
2272.291384217409
 20
1266.989490255179
 30
0.0
 11
2272.291384217409
 21
1255.534966024388
 31
0.0
  0
LINE
  5
E20
330
1F
100
AcDbEntity
  8
LOGO
 62
     4
100
AcDbLine
 10
2264.907712938528
 20
1271.657829252464
 30
0.0
 11
2264.907712938528
 21
1266.989490255179
 31
0.0
  0
LINE
  5
E21
330
1F
100
AcDbEntity
  8
0
 62
     4
100
AcDbLine
 10
2054.162671431645
 20
1523.245778228449
 30
0.0
 11
2417.625736813495
 21
1523.245778228449
 31
0.0
  0
TEXT
  5
12F8
330
1F
100
AcDbEntity
  8
0
100
AcDbText
 10
2270.906585160293
 20
1744.012764898789
 30
0.0
 40
3.679948800000001
  1
Model : MCGB-03
 41
0.8
  7
CHINESET
100
AcDbText
  0
TEXT
  5
12F9
330
1F
100
AcDbEntity
  8
0
100
AcDbText
 10
2270.906585160293
 20
1737.425239201541
 30
0.0
 40
3.679948800000001
  1
Tube I.D. : %%C16
 41
0.8
  7
CHINESET
100
AcDbText
  0
TEXT
  5
12FA
330
1F
100
AcDbEntity
  8
0
100
AcDbText
 10
2270.906585160293
 20
1731.087517311939
 30
0.0
 40
3.679948800000001
  1
Stroke : 10
 41
0.8
  7
CHINESET
100
AcDbText
  0
TEXT
  5
1308
330
1F
100
AcDbEntity
  8
0
100
AcDbText
 10
2270.906585160293
 20
1506.347496445338
 30
0.0
 40
3.679948800000001
  1
Model : MCGB-23
 41
0.8
  7
CHINESET
100
AcDbText
  0
TEXT
  5
1309
330
1F
100
AcDbEntity
  8
0
100
AcDbText
 10
2270.906585160293
 20
1499.759970748089
 30
0.0
 40
3.679948800000001
  1
Tube I.D. : %%C16
 41
0.8
  7
CHINESET
100
AcDbText
  0
TEXT
  5
130A
330
1F
100
AcDbEntity
  8
0
100
AcDbText
 10
2270.906585160293
 20
1493.422248858488
 30
0.0
 40
3.679948800000001
  1
Stroke : 10
 41
0.8
  7
CHINESET
100
AcDbText
  0
LINE
  5
1814
330
1F
100
AcDbEntity
  8
AM_VIS
100
AcDbLine
 10
2219.275371165054
 20
1663.993379639453
 30
0.0
 11
2219.275371165054
 21
1665.993379639453
 31
0.0
  0
LINE
  5
1815
330
1F
100
AcDbEntity
  8
AM_VIS
100
AcDbLine
 10
2209.275371165054
 20
1663.993379639453
 30
0.0
 11
2209.275371165054
 21
1665.993379639453
 31
0.0
  0
LINE
  5
1816
330
1F
100
AcDbEntity
  8
AM_VIS
100
AcDbLine
 10
2173.275371165054
 20
1663.993379639453
 30
0.0
 11
2173.275371165054
 21
1665.993379639453
 31
0.0
  0
LINE
  5
1817
330
1F
100
AcDbEntity
  8
AM_VIS
100
AcDbLine
 10
2163.275371165054
 20
1663.993379639453
 30
0.0
 11
2163.275371165054
 21
1665.993379639453
 31
0.0
  0
LINE
  5
181A
330
1F
100
AcDbEntity
  8
AM_VIS
100
AcDbLine
 10
2195.275371165054
 20
1663.993379639453
 30
0.0
 11
2195.275371165054
 21
1665.993379639453
 31
0.0
  0
LINE
  5
181B
330
1F
100
AcDbEntity
  8
AM_VIS
100
AcDbLine
 10
2187.275371165054
 20
1663.993379639453
 30
0.0
 11
2187.275371165054
 21
1665.993379639453
 31
0.0
  0
LINE
  5
181C
330
1F
100
AcDbEntity
  8
AM_VIS
100
AcDbLine
 10
2160.775371165054
 20
1675.993379639454
 30
0.0
 11
2160.525371165054
 21
1675.743379639454
 31
0.0
  0
LINE
  5
181D
330
1F
100
AcDbEntity
  8
AM_VIS
100
AcDbLine
 10
2222.025371165054
 20
1675.743379639454
 30
0.0
 11
2222.275371165054
 21
1675.493379639453
 31
0.0
  0
LINE
  5
181E
330
1F
100
AcDbEntity
  8
AM_VIS
100
AcDbLine
 10
2221.775371165054
 20
1675.993379639454
 30
0.0
 11
2222.025371165054
 21
1675.743379639454
 31
0.0
  0
LINE
  5
181F
330
1F
100
AcDbEntity
  8
AM_VIS
100
AcDbLine
 10
2222.275371165054
 20
1666.493379639453
 30
0.0
 11
2222.275371165054
 21
1675.493379639453
 31
0.0
  0
LINE
  5
1820
330
1F
100
AcDbEntity
  8
AM_VIS
100
AcDbLine
 10
2222.275371165054
 20
1666.493379639453
 30
0.0
 11
2222.025371165054
 21
1666.243379639453
 31
0.0
  0
LINE
  5
1821
330
1F
100
AcDbEntity
  8
AM_VIS
100
AcDbLine
 10
2160.275371165054
 20
1675.493379639453
 30
0.0
 11
2160.275371165054
 21
1666.493379639453
 31
0.0
  0
LINE
  5
1822
330
1F
100
AcDbEntity
  8
AM_VIS
100
AcDbLine
 10
2160.275371165054
 20
1675.493379639453
 30
0.0
 11
2160.525371165054
 21
1675.743379639454
 31
0.0
  0
LINE
  5
1823
330
1F
100
AcDbEntity
  8
AM_VIS
100
AcDbLine
 10
2221.775371165054
 20
1665.993379639453
 30
0.0
 11
2222.025371165054
 21
1666.243379639453
 31
0.0
  0
LINE
  5
1824
330
1F
100
AcDbEntity
  8
AM_VIS
100
AcDbLine
 10
2160.775371165054
 20
1665.993379639453
 30
0.0
 11
2160.525371165054
 21
1666.243379639453
 31
0.0
  0
LINE
  5
1825
330
1F
100
AcDbEntity
  8
AM_VIS
100
AcDbLine
 10
2160.525371165054
 20
1666.243379639453
 30
0.0
 11
2160.275371165054
 21
1666.493379639453
 31
0.0
  0
LINE
  5
1826
330
1F
100
AcDbEntity
  8
AM_VIS
100
AcDbLine
 10
2221.775371165054
 20
1675.993379639454
 30
0.0
 11
2160.775371165054
 21
1675.993379639454
 31
0.0
  0
LINE
  5
1827
330
1F
100
AcDbEntity
  8
AM_VIS
100
AcDbLine
 10
2160.775371165054
 20
1665.993379639453
 30
0.0
 11
2221.775371165054
 21
1665.993379639453
 31
0.0
  0
LINE
  5
1828
330
1F
100
AcDbEntity
  8
AM_VIS
100
AcDbLine
 10
2203.275371165054
 20
1654.993379639454
 30
0.0
 11
2203.275371165054
 21
1648.993379639454
 31
0.0
  0
LINE
  5
1829
330
1F
100
AcDbEntity
  8
AM_VIS
100
AcDbLine
 10
2179.275371165054
 20
1640.993379639454
 30
0.0
 11
2179.275371165054
 21
1622.993379639454
 31
0.0
  0
LINE
  5
182A
330
1F
100
AcDbEntity
  8
AM_VIS
100
AcDbLine
 10
2182.275371165054
 20
1642.347628328389
 30
0.0
 11
2182.275371165054
 21
1622.993379639454
 31
0.0
  0
LINE
  5
182B
330
1F
100
AcDbEntity
  8
AM_VIS
100
AcDbLine
 10
2200.275371165054
 20
1647.639130950518
 30
0.0
 11
2200.275371165054
 21
1656.347628328389
 31
0.0
  0
LINE
  5
182D
330
1F
100
AcDbEntity
  8
AM_VIS
100
AcDbLine
 10
2197.775371165054
 20
1663.993379639453
 30
0.0
 11
2197.775371165054
 21
1622.993379639454
 31
0.0
  0
LINE
  5
182E
330
1F
100
AcDbEntity
  8
AM_VIS
100
AcDbLine
 10
2184.775371165054
 20
1622.993379639454
 30
0.0
 11
2184.775371165054
 21
1663.993379639453
 31
0.0
  0
LINE
  5
1830
330
1F
100
AcDbEntity
  8
AM_VIS
100
AcDbLine
 10
2196.975371165054
 20
1663.993379639453
 30
0.0
 11
2196.975371165054
 21
1622.993379639454
 31
0.0
  0
LINE
  5
1831
330
1F
100
AcDbEntity
  8
AM_VIS
100
AcDbLine
 10
2193.575371165054
 20
1622.993379639454
 30
0.0
 11
2193.575371165054
 21
1663.993379639453
 31
0.0
  0
LINE
  5
1832
330
1F
100
AcDbEntity
  8
AM_VIS
100
AcDbLine
 10
2188.975371165054
 20
1663.993379639453
 30
0.0
 11
2188.975371165054
 21
1622.993379639454
 31
0.0
  0
LINE
  5
1833
330
1F
100
AcDbEntity
  8
AM_VIS
100
AcDbLine
 10
2185.575371165054
 20
1622.993379639454
 30
0.0
 11
2185.575371165054
 21
1663.993379639453
 31
0.0
  0
LINE
  5
1834
330
1F
100
AcDbEntity
  8
AM_VIS
100
AcDbLine
 10
2223.275371165054
 20
1622.993379639454
 30
0.0
 11
2223.275371165054
 21
1663.993379639453
 31
0.0
  0
LINE
  5
1835
330
1F
100
AcDbEntity
  8
AM_VIS
100
AcDbLine
 10
2182.275371165054
 20
1663.993379639453
 30
0.0
 11
2182.275371165054
 21
1661.639130950518
 31
0.0
  0
LINE
  5
1836
330
1F
100
AcDbEntity
  8
AM_VIS
100
AcDbLine
 10
2179.275371165054
 20
1663.993379639453
 30
0.0
 11
2179.275371165054
 21
1662.993379639453
 31
0.0
  0
ARC
  5
1837
330
1F
100
AcDbEntity
  8
AM_VIS
100
AcDbCircle
 10
2179.275371165054
 20
1658.993379639453
 30
0.0
 40
4.0
100
AcDbArc
 50
90.0
 51
138.5903778907302
  0
ARC
  5
1838
330
1F
100
AcDbEntity
  8
AM_VIS
100
AcDbCircle
 10
2179.275371165054
 20
1658.993379639453
 30
0.0
 40
4.0
100
AcDbArc
 50
41.40962210926974
 51
90.0
  0
LINE
  5
1839
330
1F
100
AcDbEntity
  8
AM_VIS
100
AcDbLine
 10
2200.275371165054
 20
1661.639130950518
 30
0.0
 11
2200.275371165054
 21
1663.993379639453
 31
0.0
  0
LINE
  5
183A
330
1F
100
AcDbEntity
  8
AM_VIS
100
AcDbLine
 10
2200.275371165054
 20
1622.993379639454
 30
0.0
 11
2200.275371165054
 21
1642.347628328389
 31
0.0
  0
LINE
  5
183B
330
1F
100
AcDbEntity
  8
AM_VIS
100
AcDbLine
 10
2203.275371165054
 20
1663.993379639453
 30
0.0
 11
2203.275371165054
 21
1662.993379639453
 31
0.0
  0
LINE
  5
183C
330
1F
100
AcDbEntity
  8
AM_VIS
100
AcDbLine
 10
2203.275371165054
 20
1640.993379639454
 30
0.0
 11
2203.275371165054
 21
1622.993379639454
 31
0.0
  0
LINE
  5
183D
330
1F
100
AcDbEntity
  8
AM_VIS
100
AcDbLine
 10
2206.275371165054
 20
1656.347628328389
 30
0.0
 11
2206.275371165054
 21
1647.639130950518
 31
0.0
  0
LINE
  5
183E
330
1F
100
AcDbEntity
  8
AM_VIS
100
AcDbLine
 10
2206.275371165054
 20
1663.993379639453
 30
0.0
 11
2206.275371165054
 21
1661.639130950518
 31
0.0
  0
LINE
  5
183F
330
1F
100
AcDbEntity
  8
AM_VIS
100
AcDbLine
 10
2206.275371165054
 20
1642.347628328389
 30
0.0
 11
2206.275371165054
 21
1622.993379639454
 31
0.0
  0
ARC
  5
1840
330
1F
100
AcDbEntity
  8
AM_VIS
100
AcDbCircle
 10
2179.275371165054
 20
1658.993379639453
 30
0.0
 40
4.0
100
AcDbArc
 50
270.0
 51
318.5903778907302
  0
LINE
  5
1841
330
1F
100
AcDbEntity
  8
AM_VIS
100
AcDbLine
 10
2182.275371165054
 20
1656.347628328389
 30
0.0
 11
2182.275371165054
 21
1647.639130950518
 31
0.0
  0
ARC
  5
1842
330
1F
100
AcDbEntity
  8
AM_VIS
100
AcDbCircle
 10
2179.275371165054
 20
1658.993379639453
 30
0.0
 40
4.0
100
AcDbArc
 50
221.4096221092698
 51
270.0
  0
LINE
  5
1843
330
1F
100
AcDbEntity
  8
AM_VIS
100
AcDbLine
 10
2179.275371165054
 20
1654.993379639454
 30
0.0
 11
2179.275371165054
 21
1648.993379639454
 31
0.0
  0
ARC
  5
1844
330
1F
100
AcDbEntity
  8
AM_VIS
100
AcDbCircle
 10
2203.275371165054
 20
1658.993379639453
 30
0.0
 40
4.0
100
AcDbArc
 50
270.0
 51
318.5903778907302
  0
ARC
  5
1845
330
1F
100
AcDbEntity
  8
AM_VIS
100
AcDbCircle
 10
2203.275371165054
 20
1658.993379639453
 30
0.0
 40
4.0
100
AcDbArc
 50
221.4096221092698
 51
270.0
  0
ARC
  5
1846
330
1F
100
AcDbEntity
  8
AM_VIS
100
AcDbCircle
 10
2203.275371165054
 20
1658.993379639453
 30
0.0
 40
4.0
100
AcDbArc
 50
90.0
 51
138.5903778907302
  0
ARC
  5
1847
330
1F
100
AcDbEntity
  8
AM_VIS
100
AcDbCircle
 10
2203.275371165054
 20
1658.993379639453
 30
0.0
 40
4.0
100
AcDbArc
 50
41.40962210926974
 51
90.0
  0
ARC
  5
1848
330
1F
100
AcDbEntity
  8
AM_VIS
100
AcDbCircle
 10
2179.275371165054
 20
1644.993379639453
 30
0.0
 40
4.0
100
AcDbArc
 50
90.0
 51
138.5903778907302
  0
ARC
  5
1849
330
1F
100
AcDbEntity
  8
AM_VIS
100
AcDbCircle
 10
2179.275371165054
 20
1644.993379639453
 30
0.0
 40
4.0
100
AcDbArc
 50
41.40962210926974
 51
90.0
  0
ARC
  5
184A
330
1F
100
AcDbEntity
  8
AM_VIS
100
AcDbCircle
 10
2179.275371165054
 20
1644.993379639453
 30
0.0
 40
4.0
100
AcDbArc
 50
270.0
 51
318.5903778907302
  0
ARC
  5
184B
330
1F
100
AcDbEntity
  8
AM_VIS
100
AcDbCircle
 10
2179.275371165054
 20
1644.993379639453
 30
0.0
 40
4.0
100
AcDbArc
 50
221.4096221092698
 51
270.0
  0
ARC
  5
184C
330
1F
100
AcDbEntity
  8
AM_VIS
100
AcDbCircle
 10
2203.275371165054
 20
1644.993379639453
 30
0.0
 40
4.0
100
AcDbArc
 50
270.0
 51
318.5903778907302
  0
ARC
  5
184D
330
1F
100
AcDbEntity
  8
AM_VIS
100
AcDbCircle
 10
2203.275371165054
 20
1644.993379639453
 30
0.0
 40
4.0
100
AcDbArc
 50
221.4096221092698
 51
270.0
  0
ARC
  5
184E
330
1F
100
AcDbEntity
  8
AM_VIS
100
AcDbCircle
 10
2203.275371165054
 20
1644.993379639453
 30
0.0
 40
4.0
100
AcDbArc
 50
90.0
 51
138.5903778907302
  0
ARC
  5
184F
330
1F
100
AcDbEntity
  8
AM_VIS
100
AcDbCircle
 10
2203.275371165054
 20
1644.993379639453
 30
0.0
 40
4.0
100
AcDbArc
 50
41.40962210926974
 51
90.0
  0
LINE
  5
1850
330
1F
100
AcDbEntity
  8
AM_VIS
100
AcDbLine
 10
2222.275371165054
 20
1663.993379639453
 30
0.0
 11
2206.275371165054
 21
1663.993379639453
 31
0.0
  0
LINE
  5
1851
330
1F
100
AcDbEntity
  8
AM_VIS
100
AcDbLine
 10
2203.275371165054
 20
1663.993379639453
 30
0.0
 11
2206.275371165054
 21
1663.993379639453
 31
0.0
  0
LINE
  5
1852
330
1F
100
AcDbEntity
  8
AM_VIS
100
AcDbLine
 10
2200.275371165054
 20
1663.993379639453
 30
0.0
 11
2203.275371165054
 21
1663.993379639453
 31
0.0
  0
LINE
  5
1853
330
1F
100
AcDbEntity
  8
AM_VIS
100
AcDbLine
 10
2200.275371165054
 20
1663.993379639453
 30
0.0
 11
2197.775371165054
 21
1663.993379639453
 31
0.0
  0
LINE
  5
1854
330
1F
100
AcDbEntity
  8
AM_VIS
100
AcDbLine
 10
2197.475371165054
 20
1663.993379639453
 30
0.0
 11
2197.775371165054
 21
1663.993379639453
 31
0.0
  0
LINE
  5
1855
330
1F
100
AcDbEntity
  8
AM_VIS
100
AcDbLine
 10
2196.975371165054
 20
1663.993379639453
 30
0.0
 11
2197.475371165054
 21
1663.993379639453
 31
0.0
  0
LINE
  5
1856
330
1F
100
AcDbEntity
  8
AM_VIS
100
AcDbLine
 10
2194.825371165054
 20
1663.993379639453
 30
0.0
 11
2195.725371165054
 21
1663.993379639453
 31
0.0
  0
LINE
  5
1858
330
1F
100
AcDbEntity
  8
AM_VIS
100
AcDbLine
 10
2186.825371165054
 20
1663.993379639453
 30
0.0
 11
2187.725371165054
 21
1663.993379639453
 31
0.0
  0
LINE
  5
1859
330
1F
100
AcDbEntity
  8
AM_VIS
100
AcDbLine
 10
2185.075371165054
 20
1663.993379639453
 30
0.0
 11
2185.575371165054
 21
1663.993379639453
 31
0.0
  0
LINE
  5
185A
330
1F
100
AcDbEntity
  8
AM_VIS
100
AcDbLine
 10
2184.775371165054
 20
1663.993379639453
 30
0.0
 11
2185.075371165054
 21
1663.993379639453
 31
0.0
  0
LINE
  5
185B
330
1F
100
AcDbEntity
  8
AM_VIS
100
AcDbLine
 10
2184.775371165054
 20
1663.993379639453
 30
0.0
 11
2182.275371165054
 21
1663.993379639453
 31
0.0
  0
LINE
  5
185C
330
1F
100
AcDbEntity
  8
AM_VIS
100
AcDbLine
 10
2179.275371165054
 20
1663.993379639453
 30
0.0
 11
2182.275371165054
 21
1663.993379639453
 31
0.0
  0
LINE
  5
185D
330
1F
100
AcDbEntity
  8
AM_VIS
100
AcDbLine
 10
2176.275371165054
 20
1663.993379639453
 30
0.0
 11
2179.275371165054
 21
1663.993379639453
 31
0.0
  0
LINE
  5
185E
330
1F
100
AcDbEntity
  8
AM_VIS
100
AcDbLine
 10
2176.275371165054
 20
1622.993379639454
 30
0.0
 11
2176.275371165054
 21
1642.347628328389
 31
0.0
  0
LINE
  5
185F
330
1F
100
AcDbEntity
  8
AM_VIS
100
AcDbLine
 10
2176.275371165054
 20
1663.993379639453
 30
0.0
 11
2160.275371165054
 21
1663.993379639453
 31
0.0
  0
LINE
  5
1860
330
1F
100
AcDbEntity
  8
AM_VIS
100
AcDbLine
 10
2176.275371165054
 20
1661.639130950518
 30
0.0
 11
2176.275371165054
 21
1663.993379639453
 31
0.0
  0
LINE
  5
1861
330
1F
100
AcDbEntity
  8
AM_VIS
100
AcDbLine
 10
2176.275371165054
 20
1647.639130950518
 30
0.0
 11
2176.275371165054
 21
1656.347628328389
 31
0.0
  0
LINE
  5
1864
330
1F
100
AcDbEntity
  8
AM_VIS
100
AcDbLine
 10
2159.275371165054
 20
1663.993379639453
 30
0.0
 11
2159.275371165054
 21
1622.993379639454
 31
0.0
  0
LINE
  5
1865
330
1F
100
AcDbEntity
  8
AM_VIS
100
AcDbLine
 10
2160.275371165054
 20
1622.993379639454
 30
0.0
 11
2176.275371165054
 21
1622.993379639454
 31
0.0
  0
LINE
  5
1866
330
1F
100
AcDbEntity
  8
AM_VIS
100
AcDbLine
 10
2179.275371165054
 20
1622.993379639454
 30
0.0
 11
2176.275371165054
 21
1622.993379639454
 31
0.0
  0
LINE
  5
1867
330
1F
100
AcDbEntity
  8
AM_VIS
100
AcDbLine
 10
2182.275371165054
 20
1622.993379639454
 30
0.0
 11
2179.275371165054
 21
1622.993379639454
 31
0.0
  0
LINE
  5
1868
330
1F
100
AcDbEntity
  8
AM_VIS
100
AcDbLine
 10
2182.275371165054
 20
1622.993379639454
 30
0.0
 11
2184.775371165054
 21
1622.993379639454
 31
0.0
  0
LINE
  5
1869
330
1F
100
AcDbEntity
  8
AM_VIS
100
AcDbLine
 10
2185.075371165054
 20
1622.993379639454
 30
0.0
 11
2184.775371165054
 21
1622.993379639454
 31
0.0
  0
LINE
  5
186A
330
1F
100
AcDbEntity
  8
AM_VIS
100
AcDbLine
 10
2185.575371165054
 20
1622.993379639454
 30
0.0
 11
2185.075371165054
 21
1622.993379639454
 31
0.0
  0
LINE
  5
186B
330
1F
100
AcDbEntity
  8
AM_VIS
100
AcDbLine
 10
2187.725371165054
 20
1622.993379639454
 30
0.0
 11
2186.825371165054
 21
1622.993379639454
 31
0.0
  0
LINE
  5
186C
330
1F
100
AcDbEntity
  8
AM_VIS
100
AcDbLine
 10
2193.575371165054
 20
1622.993379639454
 30
0.0
 11
2188.975371165054
 21
1622.993379639454
 31
0.0
  0
LINE
  5
186D
330
1F
100
AcDbEntity
  8
AM_VIS
100
AcDbLine
 10
2195.725371165054
 20
1622.993379639454
 30
0.0
 11
2194.825371165054
 21
1622.993379639454
 31
0.0
  0
LINE
  5
186E
330
1F
100
AcDbEntity
  8
AM_VIS
100
AcDbLine
 10
2197.475371165054
 20
1622.993379639454
 30
0.0
 11
2196.975371165054
 21
1622.993379639454
 31
0.0
  0
LINE
  5
186F
330
1F
100
AcDbEntity
  8
AM_VIS
100
AcDbLine
 10
2197.775371165054
 20
1622.993379639454
 30
0.0
 11
2197.475371165054
 21
1622.993379639454
 31
0.0
  0
LINE
  5
1870
330
1F
100
AcDbEntity
  8
AM_VIS
100
AcDbLine
 10
2197.775371165054
 20
1622.993379639454
 30
0.0
 11
2200.275371165054
 21
1622.993379639454
 31
0.0
  0
LINE
  5
1871
330
1F
100
AcDbEntity
  8
AM_VIS
100
AcDbLine
 10
2203.275371165054
 20
1622.993379639454
 30
0.0
 11
2200.275371165054
 21
1622.993379639454
 31
0.0
  0
LINE
  5
1872
330
1F
100
AcDbEntity
  8
AM_VIS
100
AcDbLine
 10
2206.275371165054
 20
1622.993379639454
 30
0.0
 11
2203.275371165054
 21
1622.993379639454
 31
0.0
  0
LINE
  5
1873
330
1F
100
AcDbEntity
  8
AM_VIS
100
AcDbLine
 10
2206.275371165054
 20
1622.993379639454
 30
0.0
 11
2222.275371165054
 21
1622.993379639454
 31
0.0
  0
ARC
  5
1874
330
1F
100
AcDbEntity
  8
AM_VIS
100
AcDbCircle
 10
2179.275371165054
 20
1658.993379639453
 30
0.0
 40
4.0
100
AcDbArc
 50
318.5903778907302
 51
41.40962210926974
  0
CIRCLE
  5
1875
330
1F
100
AcDbEntity
  8
AM_VIS
100
AcDbCircle
 10
2179.275371165054
 20
1658.993379639453
 30
0.0
 40
2.095
  0
ARC
  5
1876
330
1F
100
AcDbEntity
  8
AM_VIS
100
AcDbCircle
 10
2203.275371165054
 20
1658.993379639453
 30
0.0
 40
4.0
100
AcDbArc
 50
318.5903778907302
 51
41.40962210926974
  0
ARC
  5
1877
330
1F
100
AcDbEntity
  8
AM_VIS
100
AcDbCircle
 10
2203.275371165054
 20
1658.993379639453
 30
0.0
 40
4.0
100
AcDbArc
 50
138.5903778907302
 51
221.4096221092698
  0
CIRCLE
  5
1878
330
1F
100
AcDbEntity
  8
AM_VIS
100
AcDbCircle
 10
2203.275371165054
 20
1658.993379639453
 30
0.0
 40
2.095
  0
ARC
  5
1879
330
1F
100
AcDbEntity
  8
AM_VIS
100
AcDbCircle
 10
2179.275371165054
 20
1644.993379639453
 30
0.0
 40
4.0
100
AcDbArc
 50
318.5903778907302
 51
41.40962210926974
  0
CIRCLE
  5
187A
330
1F
100
AcDbEntity
  8
AM_VIS
100
AcDbCircle
 10
2179.275371165054
 20
1644.993379639453
 30
0.0
 40
2.095
  0
ARC
  5
187B
330
1F
100
AcDbEntity
  8
AM_VIS
100
AcDbCircle
 10
2203.275371165054
 20
1644.993379639453
 30
0.0
 40
4.0
100
AcDbArc
 50
318.5903778907302
 51
41.40962210926974
  0
ARC
  5
187C
330
1F
100
AcDbEntity
  8
AM_VIS
100
AcDbCircle
 10
2203.275371165054
 20
1644.993379639453
 30
0.0
 40
4.0
100
AcDbArc
 50
138.5903778907302
 51
221.4096221092698
  0
CIRCLE
  5
187D
330
1F
100
AcDbEntity
  8
AM_VIS
100
AcDbCircle
 10
2203.275371165054
 20
1644.993379639453
 30
0.0
 40
2.095
  0
LINE
  5
187E
330
1F
100
AcDbEntity
  8
AM_VIS
100
AcDbLine
 10
2222.275371165054
 20
1663.993379639453
 30
0.0
 11
2223.275371165054
 21
1663.993379639453
 31
0.0
  0
LINE
  5
187F
330
1F
100
AcDbEntity
  8
AM_VIS
100
AcDbLine
 10
2196.975371165054
 20
1663.993379639453
 30
0.0
 11
2195.725371165054
 21
1663.993379639453
 31
0.0
  0
LINE
  5
1880
330
1F
100
AcDbEntity
  8
AM_VIS
100
AcDbLine
 10
2194.825371165054
 20
1663.993379639453
 30
0.0
 11
2191.275371165055
 21
1663.993379639453
 31
0.0
  0
LINE
  5
1881
330
1F
100
AcDbEntity
  8
AM_VIS
100
AcDbLine
 10
2187.725371165054
 20
1663.993379639453
 30
0.0
 11
2191.275371165055
 21
1663.993379639453
 31
0.0
  0
LINE
  5
1882
330
1F
100
AcDbEntity
  8
AM_VIS
100
AcDbLine
 10
2185.575371165054
 20
1663.993379639453
 30
0.0
 11
2186.825371165054
 21
1663.993379639453
 31
0.0
  0
LINE
  5
1883
330
1F
100
AcDbEntity
  8
AM_VIS
100
AcDbLine
 10
2159.275371165054
 20
1663.993379639453
 30
0.0
 11
2160.275371165054
 21
1663.993379639453
 31
0.0
  0
ARC
  5
1884
330
1F
100
AcDbEntity
  8
AM_VIS
100
AcDbCircle
 10
2179.275371165054
 20
1658.993379639453
 30
0.0
 40
4.0
100
AcDbArc
 50
138.5903778907302
 51
221.4096221092698
  0
ARC
  5
1885
330
1F
100
AcDbEntity
  8
AM_VIS
100
AcDbCircle
 10
2179.275371165054
 20
1644.993379639453
 30
0.0
 40
4.0
100
AcDbArc
 50
138.5903778907302
 51
221.4096221092698
  0
LINE
  5
188A
330
1F
100
AcDbEntity
  8
AM_VIS
100
AcDbLine
 10
2160.275371165054
 20
1622.993379639454
 30
0.0
 11
2159.275371165054
 21
1622.993379639454
 31
0.0
  0
LINE
  5
188B
330
1F
100
AcDbEntity
  8
AM_VIS
100
AcDbLine
 10
2186.825371165054
 20
1622.993379639454
 30
0.0
 11
2185.575371165054
 21
1622.993379639454
 31
0.0
  0
LINE
  5
188C
330
1F
100
AcDbEntity
  8
AM_VIS
100
AcDbLine
 10
2188.975371165054
 20
1622.993379639454
 30
0.0
 11
2187.725371165054
 21
1622.993379639454
 31
0.0
  0
LINE
  5
188D
330
1F
100
AcDbEntity
  8
AM_VIS
100
AcDbLine
 10
2193.575371165054
 20
1622.993379639454
 30
0.0
 11
2194.825371165054
 21
1622.993379639454
 31
0.0
  0
LINE
  5
188E
330
1F
100
AcDbEntity
  8
AM_VIS
100
AcDbLine
 10
2195.725371165054
 20
1622.993379639454
 30
0.0
 11
2196.975371165054
 21
1622.993379639454
 31
0.0
  0
LINE
  5
188F
330
1F
100
AcDbEntity
  8
AM_VIS
100
AcDbLine
 10
2223.275371165054
 20
1622.993379639454
 30
0.0
 11
2222.275371165054
 21
1622.993379639454
 31
0.0
  0
LINE
  5
1890
330
1F
100
AcDbEntity
  8
AM_VIS
100
AcDbLine
 10
2213.433706148554
 20
1715.458269770001
 30
0.0
 11
2212.555371165054
 21
1716.958269770001
 31
0.0
  0
LINE
  5
1891
330
1F
100
AcDbEntity
  8
AM_VIS
100
AcDbLine
 10
2213.433706148554
 20
1718.458269770001
 30
0.0
 11
2215.117036181554
 21
1718.458269770001
 31
0.0
  0
LINE
  5
1892
330
1F
100
AcDbEntity
  8
AM_VIS
100
AcDbLine
 10
2212.555371165054
 20
1716.958269770001
 30
0.0
 11
2213.433706148554
 21
1718.458269770001
 31
0.0
  0
LINE
  5
1893
330
1F
100
AcDbEntity
  8
AM_VIS
100
AcDbLine
 10
2215.117036181554
 20
1715.458269770001
 30
0.0
 11
2213.433706148554
 21
1715.458269770001
 31
0.0
  0
LINE
  5
1894
330
1F
100
AcDbEntity
  8
AM_VIS
100
AcDbLine
 10
2215.995371165054
 20
1716.958269770001
 30
0.0
 11
2215.117036181554
 21
1715.458269770001
 31
0.0
  0
LINE
  5
1895
330
1F
100
AcDbEntity
  8
AM_VIS
100
AcDbLine
 10
2215.117036181554
 20
1718.458269770001
 30
0.0
 11
2215.995371165054
 21
1716.958269770001
 31
0.0
  0
LINE
  5
1897
330
1F
100
AcDbEntity
  8
AM_VIS
100
AcDbLine
 10
2190.433706148554
 20
1715.458269770001
 30
0.0
 11
2189.555371165054
 21
1716.958269770001
 31
0.0
  0
LINE
  5
1898
330
1F
100
AcDbEntity
  8
AM_VIS
100
AcDbLine
 10
2190.433706148554
 20
1718.458269770001
 30
0.0
 11
2192.117036181554
 21
1718.458269770001
 31
0.0
  0
LINE
  5
1899
330
1F
100
AcDbEntity
  8
AM_VIS
100
AcDbLine
 10
2189.555371165054
 20
1716.958269770001
 30
0.0
 11
2190.433706148554
 21
1718.458269770001
 31
0.0
  0
LINE
  5
189A
330
1F
100
AcDbEntity
  8
AM_VIS
100
AcDbLine
 10
2192.117036181554
 20
1715.458269770001
 30
0.0
 11
2190.433706148554
 21
1715.458269770001
 31
0.0
  0
LINE
  5
189B
330
1F
100
AcDbEntity
  8
AM_VIS
100
AcDbLine
 10
2192.995371165054
 20
1716.958269770001
 30
0.0
 11
2192.117036181554
 21
1715.458269770001
 31
0.0
  0
LINE
  5
189C
330
1F
100
AcDbEntity
  8
AM_VIS
100
AcDbLine
 10
2192.117036181554
 20
1718.458269770001
 30
0.0
 11
2192.995371165054
 21
1716.958269770001
 31
0.0
  0
LINE
  5
189E
330
1F
100
AcDbEntity
  8
AM_VIS
100
AcDbLine
 10
2167.433706148554
 20
1715.458269770001
 30
0.0
 11
2166.555371165054
 21
1716.958269770001
 31
0.0
  0
LINE
  5
189F
330
1F
100
AcDbEntity
  8
AM_VIS
100
AcDbLine
 10
2167.433706148554
 20
1718.458269770001
 30
0.0
 11
2169.117036181554
 21
1718.458269770001
 31
0.0
  0
LINE
  5
18A0
330
1F
100
AcDbEntity
  8
AM_VIS
100
AcDbLine
 10
2166.555371165054
 20
1716.958269770001
 30
0.0
 11
2167.433706148554
 21
1718.458269770001
 31
0.0
  0
LINE
  5
18A1
330
1F
100
AcDbEntity
  8
AM_VIS
100
AcDbLine
 10
2169.117036181554
 20
1715.458269770001
 30
0.0
 11
2167.433706148554
 21
1715.458269770001
 31
0.0
  0
LINE
  5
18A2
330
1F
100
AcDbEntity
  8
AM_VIS
100
AcDbLine
 10
2169.995371165054
 20
1716.958269770001
 30
0.0
 11
2169.117036181554
 21
1715.458269770001
 31
0.0
  0
LINE
  5
18A3
330
1F
100
AcDbEntity
  8
AM_VIS
100
AcDbLine
 10
2169.117036181554
 20
1718.458269770001
 30
0.0
 11
2169.995371165054
 21
1716.958269770001
 31
0.0
  0
LINE
  5
18A5
330
1F
100
AcDbEntity
  8
AM_VIS
100
AcDbLine
 10
2160.275371165054
 20
1728.958269770001
 30
0.0
 11
2160.275371165054
 21
1704.958269770002
 31
0.0
  0
LINE
  5
18A7
330
1F
100
AcDbEntity
  8
AM_VIS
100
AcDbLine
 10
2221.775371165054
 20
1704.458269770001
 30
0.0
 11
2222.025371165054
 21
1704.708269770002
 31
0.0
  0
LINE
  5
18A9
330
1F
100
AcDbEntity
  8
AM_VIS
100
AcDbLine
 10
2222.025371165054
 20
1704.708269770002
 30
0.0
 11
2222.275371165054
 21
1704.958269770002
 31
0.0
  0
LINE
  5
18AC
330
1F
100
AcDbEntity
  8
AM_VIS
100
AcDbLine
 10
2222.275371165054
 20
1728.958269770001
 30
0.0
 11
2222.025371165054
 21
1729.208269770001
 31
0.0
  0
LINE
  5
18AD
330
1F
100
AcDbEntity
  8
AM_VIS
100
AcDbLine
 10
2222.025371165054
 20
1729.208269770001
 30
0.0
 11
2221.775371165054
 21
1729.458269770001
 31
0.0
  0
LINE
  5
18AE
330
1F
100
AcDbEntity
  8
AM_VIS
100
AcDbLine
 10
2222.275371165054
 20
1704.958269770002
 30
0.0
 11
2222.275371165054
 21
1728.958269770001
 31
0.0
  0
LINE
  5
18AF
330
1F
100
AcDbEntity
  8
AM_VIS
100
AcDbLine
 10
2160.775371165054
 20
1704.458269770001
 30
0.0
 11
2221.775371165054
 21
1704.458269770001
 31
0.0
  0
LINE
  5
18B0
330
1F
100
AcDbEntity
  8
AM_VIS
100
AcDbLine
 10
2160.275371165054
 20
1704.958269770002
 30
0.0
 11
2160.525371165054
 21
1704.708269770002
 31
0.0
  0
LINE
  5
18B1
330
1F
100
AcDbEntity
  8
AM_VIS
100
AcDbLine
 10
2160.525371165054
 20
1704.708269770002
 30
0.0
 11
2160.775371165054
 21
1704.458269770001
 31
0.0
  0
LINE
  5
18B2
330
1F
100
AcDbEntity
  8
AM_VIS
100
AcDbLine
 10
2160.775371165054
 20
1729.458269770001
 30
0.0
 11
2160.525371165054
 21
1729.208269770001
 31
0.0
  0
LINE
  5
18B3
330
1F
100
AcDbEntity
  8
AM_VIS
100
AcDbLine
 10
2160.525371165054
 20
1729.208269770001
 30
0.0
 11
2160.275371165054
 21
1728.958269770001
 31
0.0
  0
LINE
  5
18B4
330
1F
100
AcDbEntity
  8
AM_VIS
100
AcDbLine
 10
2221.775371165054
 20
1729.458269770001
 30
0.0
 11
2160.775371165054
 21
1729.458269770001
 31
0.0
  0
CIRCLE
  5
18BA
330
1F
100
AcDbEntity
  8
AM_VIS
100
AcDbCircle
 10
2168.275371165054
 20
1716.958269770001
 30
0.0
 40
5.25
  0
CIRCLE
  5
18BB
330
1F
100
AcDbEntity
  8
AM_VIS
100
AcDbCircle
 10
2191.275371165054
 20
1716.958269770001
 30
0.0
 40
5.25
  0
CIRCLE
  5
18C3
330
1F
100
AcDbEntity
  8
AM_VIS
100
AcDbCircle
 10
2214.275371165054
 20
1716.958269770001
 30
0.0
 40
5.25
  0
LINE
  5
18C7
330
1F
100
AcDbEntity
  8
AM_VIS
100
AcDbLine
 10
2169.875371165054
 20
1731.658269770002
 30
0.0
 11
2169.575371165054
 21
1731.958269770002
 31
0.0
  0
LINE
  5
18C8
330
1F
100
AcDbEntity
  8
AM_VIS
100
AcDbLine
 10
2172.875371165054
 20
1731.658269770002
 30
0.0
 11
2169.875371165054
 21
1731.658269770002
 31
0.0
  0
LINE
  5
18C9
330
1F
100
AcDbEntity
  8
AM_VIS
100
AcDbLine
 10
2173.775371165054
 20
1730.758269770001
 30
0.0
 11
2172.875371165054
 21
1731.658269770002
 31
0.0
  0
LINE
  5
18CA
330
1F
100
AcDbEntity
  8
AM_VIS
100
AcDbLine
 10
2174.975371165054
 20
1731.958269770002
 30
0.0
 11
2173.775371165054
 21
1730.758269770001
 31
0.0
  0
LINE
  5
18CB
330
1F
100
AcDbEntity
  8
AM_VIS
100
AcDbLine
 10
2183.575371165054
 20
1731.958269770002
 30
0.0
 11
2174.975371165054
 21
1731.958269770002
 31
0.0
  0
LINE
  5
18CC
330
1F
100
AcDbEntity
  8
AM_VIS
100
AcDbLine
 10
2183.875371165054
 20
1731.658269770002
 30
0.0
 11
2183.575371165054
 21
1731.958269770002
 31
0.0
  0
LINE
  5
18CD
330
1F
100
AcDbEntity
  8
AM_VIS
100
AcDbLine
 10
2185.575371165054
 20
1731.658269770002
 30
0.0
 11
2183.875371165054
 21
1731.658269770002
 31
0.0
  0
LINE
  5
18CE
330
1F
100
AcDbEntity
  8
AM_VIS
100
AcDbLine
 10
2185.575371165054
 20
1731.158269770001
 30
0.0
 11
2185.575371165054
 21
1731.658269770001
 31
0.0
  0
LINE
  5
18CF
330
1F
100
AcDbEntity
  8
AM_VIS
100
AcDbLine
 10
2185.125371165054
 20
1730.658269770001
 30
0.0
 11
2185.575371165054
 21
1731.158269770002
 31
0.0
  0
LINE
  5
18D0
330
1F
100
AcDbEntity
  8
AM_VIS
100
AcDbLine
 10
2185.125371165054
 20
1729.458269770001
 30
0.0
 11
2185.125371165054
 21
1730.658269770001
 31
0.0
  0
LINE
  5
18D1
330
1F
100
AcDbEntity
  8
AM_VIS
100
AcDbLine
 10
2189.425371165054
 20
1730.658269770001
 30
0.0
 11
2189.425371165054
 21
1729.458269770001
 31
0.0
  0
LINE
  5
18D2
330
1F
100
AcDbEntity
  8
AM_VIS
100
AcDbLine
 10
2188.975371165054
 20
1731.158269770001
 30
0.0
 11
2189.425371165054
 21
1730.658269770001
 31
0.0
  0
LINE
  5
18D3
330
1F
100
AcDbEntity
  8
AM_VIS
100
AcDbLine
 10
2188.975371165054
 20
1731.658269770001
 30
0.0
 11
2188.975371165054
 21
1731.158269770001
 31
0.0
  0
LINE
  5
18D4
330
1F
100
AcDbEntity
  8
AM_VIS
100
AcDbLine
 10
2193.575371165054
 20
1731.658269770001
 30
0.0
 11
2188.975371165054
 21
1731.658269770001
 31
0.0
  0
LINE
  5
18D5
330
1F
100
AcDbEntity
  8
AM_VIS
100
AcDbLine
 10
2193.575371165054
 20
1731.158269770001
 30
0.0
 11
2193.575371165054
 21
1731.658269770001
 31
0.0
  0
LINE
  5
18D6
330
1F
100
AcDbEntity
  8
AM_VIS
100
AcDbLine
 10
2193.125371165054
 20
1730.658269770001
 30
0.0
 11
2193.575371165054
 21
1731.158269770001
 31
0.0
  0
LINE
  5
18D7
330
1F
100
AcDbEntity
  8
AM_VIS
100
AcDbLine
 10
2193.125371165054
 20
1729.458269770001
 30
0.0
 11
2193.125371165054
 21
1730.658269770001
 31
0.0
  0
LINE
  5
18D8
330
1F
100
AcDbEntity
  8
AM_VIS
100
AcDbLine
 10
2197.425371165054
 20
1730.658269770001
 30
0.0
 11
2197.425371165054
 21
1729.458269770001
 31
0.0
  0
LINE
  5
18D9
330
1F
100
AcDbEntity
  8
AM_VIS
100
AcDbLine
 10
2196.975371165054
 20
1731.158269770001
 30
0.0
 11
2197.425371165054
 21
1730.658269770001
 31
0.0
  0
LINE
  5
18DA
330
1F
100
AcDbEntity
  8
AM_VIS
100
AcDbLine
 10
2196.975371165054
 20
1731.658269770001
 30
0.0
 11
2196.975371165054
 21
1731.158269770001
 31
0.0
  0
LINE
  5
18DB
330
1F
100
AcDbEntity
  8
AM_VIS
100
AcDbLine
 10
2198.675371165054
 20
1731.658269770001
 30
0.0
 11
2196.975371165054
 21
1731.658269770001
 31
0.0
  0
LINE
  5
18DC
330
1F
100
AcDbEntity
  8
AM_VIS
100
AcDbLine
 10
2198.975371165054
 20
1731.958269770002
 30
0.0
 11
2198.675371165054
 21
1731.658269770001
 31
0.0
  0
LINE
  5
18DD
330
1F
100
AcDbEntity
  8
AM_VIS
100
AcDbLine
 10
2207.575371165054
 20
1731.958269770002
 30
0.0
 11
2198.975371165054
 21
1731.958269770002
 31
0.0
  0
LINE
  5
18DE
330
1F
100
AcDbEntity
  8
AM_VIS
100
AcDbLine
 10
2208.775371165054
 20
1730.758269770001
 30
0.0
 11
2207.575371165054
 21
1731.958269770002
 31
0.0
  0
LINE
  5
18DF
330
1F
100
AcDbEntity
  8
AM_VIS
100
AcDbLine
 10
2209.675371165054
 20
1731.658269770001
 30
0.0
 11
2208.775371165054
 21
1730.758269770001
 31
0.0
  0
LINE
  5
18E0
330
1F
100
AcDbEntity
  8
AM_VIS
100
AcDbLine
 10
2212.675371165054
 20
1731.658269770001
 30
0.0
 11
2209.675371165054
 21
1731.658269770001
 31
0.0
  0
LINE
  5
18E1
330
1F
100
AcDbEntity
  8
AM_VIS
100
AcDbLine
 10
2212.975371165054
 20
1731.958269770002
 30
0.0
 11
2212.675371165054
 21
1731.658269770002
 31
0.0
  0
LINE
  5
18E2
330
1F
100
AcDbEntity
  8
AM_VIS
100
AcDbLine
 10
2222.989514007908
 20
1731.958269770002
 30
0.0
 11
2212.975371165054
 21
1731.958269770002
 31
0.0
  0
LINE
  5
18E3
330
1F
100
AcDbEntity
  8
AM_VIS
100
AcDbLine
 10
2223.275371165054
 20
1731.258269770001
 30
0.0
 11
2223.275371165054
 21
1702.958269770001
 31
0.0
  0
LINE
  5
18E4
330
1F
100
AcDbEntity
  8
AM_VIS
100
AcDbLine
 10
2222.275371165054
 20
1701.958269770002
 30
0.0
 11
2206.275371165054
 21
1701.958269770002
 31
0.0
  0
LINE
  5
18E5
330
1F
100
AcDbEntity
  8
AM_VIS
100
AcDbLine
 10
2203.275371165054
 20
1703.69032057757
 30
0.0
 11
2206.275371165054
 21
1701.958269770002
 31
0.0
  0
LINE
  5
18E6
330
1F
100
AcDbEntity
  8
AM_VIS
100
AcDbLine
 10
2200.275371165054
 20
1701.958269770002
 30
0.0
 11
2203.275371165054
 21
1703.69032057757
 31
0.0
  0
LINE
  5
18E7
330
1F
100
AcDbEntity
  8
AM_VIS
100
AcDbLine
 10
2200.275371165054
 20
1701.958269770002
 30
0.0
 11
2197.775371165054
 21
1701.958269770002
 31
0.0
  0
LINE
  5
18E8
330
1F
100
AcDbEntity
  8
AM_VIS
100
AcDbLine
 10
2197.475371165054
 20
1702.258269770001
 30
0.0
 11
2197.775371165054
 21
1701.958269770002
 31
0.0
  0
LINE
  5
18E9
330
1F
100
AcDbEntity
  8
AM_VIS
100
AcDbLine
 10
2196.975371165054
 20
1702.258269770001
 30
0.0
 11
2197.475371165054
 21
1702.258269770001
 31
0.0
  0
LINE
  5
18EA
330
1F
100
AcDbEntity
  8
AM_VIS
100
AcDbLine
 10
2196.975371165054
 20
1702.758269770001
 30
0.0
 11
2196.975371165054
 21
1702.258269770001
 31
0.0
  0
LINE
  5
18EB
330
1F
100
AcDbEntity
  8
AM_VIS
100
AcDbLine
 10
2197.425371165054
 20
1703.258269770001
 30
0.0
 11
2196.975371165054
 21
1702.758269770001
 31
0.0
  0
LINE
  5
18EC
330
1F
100
AcDbEntity
  8
AM_VIS
100
AcDbLine
 10
2197.425371165054
 20
1704.458269770001
 30
0.0
 11
2197.425371165054
 21
1703.258269770001
 31
0.0
  0
LINE
  5
18ED
330
1F
100
AcDbEntity
  8
AM_VIS
100
AcDbLine
 10
2193.125371165054
 20
1703.258269770001
 30
0.0
 11
2193.125371165054
 21
1704.458269770001
 31
0.0
  0
LINE
  5
18EE
330
1F
100
AcDbEntity
  8
AM_VIS
100
AcDbLine
 10
2193.575371165054
 20
1702.758269770001
 30
0.0
 11
2193.125371165054
 21
1703.258269770001
 31
0.0
  0
LINE
  5
18EF
330
1F
100
AcDbEntity
  8
AM_VIS
100
AcDbLine
 10
2193.575371165054
 20
1702.258269770001
 30
0.0
 11
2193.575371165054
 21
1702.758269770001
 31
0.0
  0
LINE
  5
18F0
330
1F
100
AcDbEntity
  8
AM_VIS
100
AcDbLine
 10
2188.975371165054
 20
1702.258269770001
 30
0.0
 11
2193.575371165054
 21
1702.258269770001
 31
0.0
  0
LINE
  5
18F1
330
1F
100
AcDbEntity
  8
AM_VIS
100
AcDbLine
 10
2188.975371165054
 20
1702.758269770001
 30
0.0
 11
2188.975371165054
 21
1702.258269770001
 31
0.0
  0
LINE
  5
18F2
330
1F
100
AcDbEntity
  8
AM_VIS
100
AcDbLine
 10
2189.425371165054
 20
1703.258269770001
 30
0.0
 11
2188.975371165054
 21
1702.758269770001
 31
0.0
  0
LINE
  5
18F3
330
1F
100
AcDbEntity
  8
AM_VIS
100
AcDbLine
 10
2189.425371165054
 20
1704.458269770001
 30
0.0
 11
2189.425371165054
 21
1703.258269770001
 31
0.0
  0
LINE
  5
18F4
330
1F
100
AcDbEntity
  8
AM_VIS
100
AcDbLine
 10
2185.125371165054
 20
1703.258269770001
 30
0.0
 11
2185.125371165054
 21
1704.458269770001
 31
0.0
  0
LINE
  5
18F5
330
1F
100
AcDbEntity
  8
AM_VIS
100
AcDbLine
 10
2185.575371165054
 20
1702.758269770001
 30
0.0
 11
2185.125371165054
 21
1703.258269770001
 31
0.0
  0
LINE
  5
18F6
330
1F
100
AcDbEntity
  8
AM_VIS
100
AcDbLine
 10
2185.575371165054
 20
1702.258269770001
 30
0.0
 11
2185.575371165054
 21
1702.758269770001
 31
0.0
  0
LINE
  5
18F7
330
1F
100
AcDbEntity
  8
AM_VIS
100
AcDbLine
 10
2185.075371165054
 20
1702.258269770001
 30
0.0
 11
2185.575371165054
 21
1702.258269770001
 31
0.0
  0
LINE
  5
18F8
330
1F
100
AcDbEntity
  8
AM_VIS
100
AcDbLine
 10
2184.775371165054
 20
1701.958269770002
 30
0.0
 11
2185.075371165054
 21
1702.258269770001
 31
0.0
  0
LINE
  5
18F9
330
1F
100
AcDbEntity
  8
AM_VIS
100
AcDbLine
 10
2184.775371165054
 20
1701.958269770002
 30
0.0
 11
2182.275371165054
 21
1701.958269770002
 31
0.0
  0
LINE
  5
18FA
330
1F
100
AcDbEntity
  8
AM_VIS
100
AcDbLine
 10
2179.275371165054
 20
1703.69032057757
 30
0.0
 11
2182.275371165054
 21
1701.958269770002
 31
0.0
  0
LINE
  5
18FB
330
1F
100
AcDbEntity
  8
AM_VIS
100
AcDbLine
 10
2176.275371165054
 20
1701.958269770002
 30
0.0
 11
2179.275371165054
 21
1703.69032057757
 31
0.0
  0
LINE
  5
18FC
330
1F
100
AcDbEntity
  8
AM_VIS
100
AcDbLine
 10
2169.575371165054
 20
1731.958269770002
 30
0.0
 11
2159.5612283222
 21
1731.958269770002
 31
0.0
  0
LINE
  5
18FD
330
1F
100
AcDbEntity
  8
AM_VIS
100
AcDbLine
 10
2176.275371165054
 20
1701.958269770002
 30
0.0
 11
2160.275371165054
 21
1701.958269770002
 31
0.0
  0
LINE
  5
18FE
330
1F
100
AcDbEntity
  8
AM_VIS
100
AcDbLine
 10
2159.275371165054
 20
1702.958269770001
 30
0.0
 11
2159.275371165054
 21
1731.258269770001
 31
0.0
  0
ARC
  5
18FF
330
1F
100
AcDbEntity
  8
AM_VIS
100
AcDbCircle
 10
2222.275371165054
 20
1731.258269770001
 30
0.0
 40
0.9999999999999998
100
AcDbArc
 50
0.0
 51
44.42700400080009
  0
ARC
  5
1900
330
1F
100
AcDbEntity
  8
AM_VIS
100
AcDbCircle
 10
2222.275371165054
 20
1702.958269770001
 30
0.0
 40
0.9999999999999998
100
AcDbArc
 50
270.0
 51
0.0
  0
ARC
  5
1901
330
1F
100
AcDbEntity
  8
AM_VIS
100
AcDbCircle
 10
2160.275371165054
 20
1702.958269770001
 30
0.0
 40
0.9999999999999998
100
AcDbArc
 50
180.0
 51
270.0
  0
ARC
  5
1902
330
1F
100
AcDbEntity
  8
AM_VIS
100
AcDbCircle
 10
2160.275371165054
 20
1731.258269770001
 30
0.0
 40
1.0
100
AcDbArc
 50
135.5729959991999
 51
180.0
  0
LINE
  5
190A
330
1F
100
AcDbEntity
  8
AM_VIS
100
AcDbLine
 10
2185.125371165054
 20
1553.072507952017
 30
0.0
 11
2189.425371165054
 21
1553.072507952017
 31
0.0
  0
LINE
  5
190B
330
1F
100
AcDbEntity
  8
AM_VIS
100
AcDbLine
 10
2193.125371165054
 20
1553.072507952017
 30
0.0
 11
2197.425371165054
 21
1553.072507952017
 31
0.0
  0
LINE
  5
190C
330
1F
100
AcDbEntity
  8
AM_VIS
100
AcDbLine
 10
2197.425371165054
 20
1578.072507952017
 30
0.0
 11
2193.125371165054
 21
1578.072507952017
 31
0.0
  0
LINE
  5
190D
330
1F
100
AcDbEntity
  8
AM_VIS
100
AcDbLine
 10
2189.425371165054
 20
1578.072507952017
 30
0.0
 11
2185.125371165054
 21
1578.072507952017
 31
0.0
  0
LINE
  5
1912
330
1F
100
AcDbEntity
  8
AM_VIS
100
AcDbLine
 10
2159.275371165054
 20
1551.272507952017
 30
0.0
 11
2159.275371165054
 21
1579.572507952017
 31
0.0
  0
LINE
  5
1913
330
1F
100
AcDbEntity
  8
AM_VIS
100
AcDbLine
 10
2160.275371165054
 20
1580.572507952017
 30
0.0
 11
2176.275371165054
 21
1580.572507952017
 31
0.0
  0
LINE
  5
1914
330
1F
100
AcDbEntity
  8
AM_VIS
100
AcDbLine
 10
2179.275371165054
 20
1578.840457144449
 30
0.0
 11
2176.275371165054
 21
1580.572507952017
 31
0.0
  0
LINE
  5
1915
330
1F
100
AcDbEntity
  8
AM_VIS
100
AcDbLine
 10
2182.275371165054
 20
1580.572507952017
 30
0.0
 11
2179.275371165054
 21
1578.840457144449
 31
0.0
  0
LINE
  5
1916
330
1F
100
AcDbEntity
  8
AM_VIS
100
AcDbLine
 10
2182.275371165054
 20
1580.572507952017
 30
0.0
 11
2184.775371165054
 21
1580.572507952017
 31
0.0
  0
LINE
  5
1917
330
1F
100
AcDbEntity
  8
AM_VIS
100
AcDbLine
 10
2185.075371165054
 20
1580.272507952017
 30
0.0
 11
2184.775371165054
 21
1580.572507952017
 31
0.0
  0
LINE
  5
1918
330
1F
100
AcDbEntity
  8
AM_VIS
100
AcDbLine
 10
2185.575371165054
 20
1580.272507952017
 30
0.0
 11
2185.075371165054
 21
1580.272507952017
 31
0.0
  0
LINE
  5
1919
330
1F
100
AcDbEntity
  8
AM_VIS
100
AcDbLine
 10
2185.575371165054
 20
1579.772507952017
 30
0.0
 11
2185.575371165054
 21
1580.272507952017
 31
0.0
  0
LINE
  5
191A
330
1F
100
AcDbEntity
  8
AM_VIS
100
AcDbLine
 10
2185.125371165054
 20
1579.272507952017
 30
0.0
 11
2185.575371165054
 21
1579.772507952017
 31
0.0
  0
LINE
  5
191B
330
1F
100
AcDbEntity
  8
AM_VIS
100
AcDbLine
 10
2185.125371165054
 20
1577.172507952017
 30
0.0
 11
2185.125371165054
 21
1579.272507952017
 31
0.0
  0
LINE
  5
191C
330
1F
100
AcDbEntity
  8
AM_VIS
100
AcDbLine
 10
2187.725371165054
 20
1575.472507952017
 30
0.0
 11
2186.825371165054
 21
1575.472507952017
 31
0.0
  0
LINE
  5
191D
330
1F
100
AcDbEntity
  8
AM_VIS
100
AcDbLine
 10
2189.425371165054
 20
1579.272507952017
 30
0.0
 11
2189.425371165054
 21
1577.172507952017
 31
0.0
  0
LINE
  5
191E
330
1F
100
AcDbEntity
  8
AM_VIS
100
AcDbLine
 10
2188.975371165054
 20
1579.772507952017
 30
0.0
 11
2189.425371165054
 21
1579.272507952017
 31
0.0
  0
LINE
  5
191F
330
1F
100
AcDbEntity
  8
AM_VIS
100
AcDbLine
 10
2188.975371165054
 20
1580.272507952017
 30
0.0
 11
2188.975371165054
 21
1579.772507952017
 31
0.0
  0
LINE
  5
1920
330
1F
100
AcDbEntity
  8
AM_VIS
100
AcDbLine
 10
2193.575371165054
 20
1580.272507952017
 30
0.0
 11
2188.975371165054
 21
1580.272507952017
 31
0.0
  0
LINE
  5
1921
330
1F
100
AcDbEntity
  8
AM_VIS
100
AcDbLine
 10
2193.575371165054
 20
1579.772507952017
 30
0.0
 11
2193.575371165054
 21
1580.272507952017
 31
0.0
  0
LINE
  5
1922
330
1F
100
AcDbEntity
  8
AM_VIS
100
AcDbLine
 10
2193.125371165054
 20
1579.272507952017
 30
0.0
 11
2193.575371165054
 21
1579.772507952017
 31
0.0
  0
LINE
  5
1923
330
1F
100
AcDbEntity
  8
AM_VIS
100
AcDbLine
 10
2193.125371165054
 20
1577.172507952017
 30
0.0
 11
2193.125371165054
 21
1579.272507952017
 31
0.0
  0
LINE
  5
1924
330
1F
100
AcDbEntity
  8
AM_VIS
100
AcDbLine
 10
2195.725371165054
 20
1575.472507952017
 30
0.0
 11
2194.825371165054
 21
1575.472507952017
 31
0.0
  0
LINE
  5
1925
330
1F
100
AcDbEntity
  8
AM_VIS
100
AcDbLine
 10
2197.425371165054
 20
1579.272507952017
 30
0.0
 11
2197.425371165054
 21
1577.172507952017
 31
0.0
  0
LINE
  5
1926
330
1F
100
AcDbEntity
  8
AM_VIS
100
AcDbLine
 10
2196.975371165054
 20
1579.772507952017
 30
0.0
 11
2197.425371165054
 21
1579.272507952017
 31
0.0
  0
LINE
  5
1927
330
1F
100
AcDbEntity
  8
AM_VIS
100
AcDbLine
 10
2196.975371165054
 20
1580.272507952017
 30
0.0
 11
2196.975371165054
 21
1579.772507952017
 31
0.0
  0
LINE
  5
1928
330
1F
100
AcDbEntity
  8
AM_VIS
100
AcDbLine
 10
2197.475371165054
 20
1580.272507952017
 30
0.0
 11
2196.975371165054
 21
1580.272507952017
 31
0.0
  0
LINE
  5
1929
330
1F
100
AcDbEntity
  8
AM_VIS
100
AcDbLine
 10
2197.775371165054
 20
1580.572507952017
 30
0.0
 11
2197.475371165054
 21
1580.272507952017
 31
0.0
  0
LINE
  5
192A
330
1F
100
AcDbEntity
  8
AM_VIS
100
AcDbLine
 10
2197.775371165054
 20
1580.572507952017
 30
0.0
 11
2200.275371165054
 21
1580.572507952017
 31
0.0
  0
LINE
  5
192B
330
1F
100
AcDbEntity
  8
AM_VIS
100
AcDbLine
 10
2203.275371165054
 20
1578.840457144449
 30
0.0
 11
2200.275371165054
 21
1580.572507952017
 31
0.0
  0
LINE
  5
192C
330
1F
100
AcDbEntity
  8
AM_VIS
100
AcDbLine
 10
2206.275371165054
 20
1580.572507952017
 30
0.0
 11
2203.275371165054
 21
1578.840457144449
 31
0.0
  0
LINE
  5
192D
330
1F
100
AcDbEntity
  8
AM_VIS
100
AcDbLine
 10
2206.275371165054
 20
1580.572507952017
 30
0.0
 11
2222.275371165054
 21
1580.572507952017
 31
0.0
  0
LINE
  5
192E
330
1F
100
AcDbEntity
  8
AM_VIS
100
AcDbLine
 10
2223.275371165054
 20
1579.572507952017
 30
0.0
 11
2223.275371165054
 21
1551.272507952017
 31
0.0
  0
LINE
  5
192F
330
1F
100
AcDbEntity
  8
AM_VIS
100
AcDbLine
 10
2212.975371165054
 20
1550.572507952017
 30
0.0
 11
2222.989514007908
 21
1550.572507952017
 31
0.0
  0
LINE
  5
1930
330
1F
100
AcDbEntity
  8
AM_VIS
100
AcDbLine
 10
2212.675371165054
 20
1550.872507952017
 30
0.0
 11
2212.975371165054
 21
1550.572507952017
 31
0.0
  0
LINE
  5
1931
330
1F
100
AcDbEntity
  8
AM_VIS
100
AcDbLine
 10
2209.675371165054
 20
1550.872507952017
 30
0.0
 11
2212.675371165054
 21
1550.872507952017
 31
0.0
  0
LINE
  5
1932
330
1F
100
AcDbEntity
  8
AM_VIS
100
AcDbLine
 10
2208.775371165054
 20
1551.772507952017
 30
0.0
 11
2209.675371165054
 21
1550.872507952017
 31
0.0
  0
LINE
  5
1933
330
1F
100
AcDbEntity
  8
AM_VIS
100
AcDbLine
 10
2207.575371165054
 20
1550.572507952017
 30
0.0
 11
2208.775371165054
 21
1551.772507952017
 31
0.0
  0
LINE
  5
1934
330
1F
100
AcDbEntity
  8
AM_VIS
100
AcDbLine
 10
2198.975371165054
 20
1550.572507952017
 30
0.0
 11
2207.575371165054
 21
1550.572507952017
 31
0.0
  0
LINE
  5
1935
330
1F
100
AcDbEntity
  8
AM_VIS
100
AcDbLine
 10
2198.675371165054
 20
1550.872507952017
 30
0.0
 11
2198.975371165054
 21
1550.572507952017
 31
0.0
  0
LINE
  5
1936
330
1F
100
AcDbEntity
  8
AM_VIS
100
AcDbLine
 10
2196.975371165054
 20
1550.872507952017
 30
0.0
 11
2198.675371165054
 21
1550.872507952017
 31
0.0
  0
LINE
  5
1937
330
1F
100
AcDbEntity
  8
AM_VIS
100
AcDbLine
 10
2196.975371165054
 20
1551.372507952017
 30
0.0
 11
2196.975371165054
 21
1550.872507952017
 31
0.0
  0
LINE
  5
1938
330
1F
100
AcDbEntity
  8
AM_VIS
100
AcDbLine
 10
2197.425371165054
 20
1551.872507952017
 30
0.0
 11
2196.975371165054
 21
1551.372507952017
 31
0.0
  0
LINE
  5
1939
330
1F
100
AcDbEntity
  8
AM_VIS
100
AcDbLine
 10
2197.425371165054
 20
1553.972507952017
 30
0.0
 11
2197.425371165054
 21
1551.872507952017
 31
0.0
  0
LINE
  5
193A
330
1F
100
AcDbEntity
  8
AM_VIS
100
AcDbLine
 10
2194.825371165054
 20
1555.672507952017
 30
0.0
 11
2195.725371165054
 21
1555.672507952017
 31
0.0
  0
LINE
  5
193B
330
1F
100
AcDbEntity
  8
AM_VIS
100
AcDbLine
 10
2193.125371165054
 20
1551.872507952017
 30
0.0
 11
2193.125371165054
 21
1553.972507952017
 31
0.0
  0
LINE
  5
193C
330
1F
100
AcDbEntity
  8
AM_VIS
100
AcDbLine
 10
2193.575371165054
 20
1551.372507952017
 30
0.0
 11
2193.125371165054
 21
1551.872507952017
 31
0.0
  0
LINE
  5
193D
330
1F
100
AcDbEntity
  8
AM_VIS
100
AcDbLine
 10
2193.575371165054
 20
1550.872507952017
 30
0.0
 11
2193.575371165054
 21
1551.372507952017
 31
0.0
  0
LINE
  5
193E
330
1F
100
AcDbEntity
  8
AM_VIS
100
AcDbLine
 10
2188.975371165054
 20
1550.872507952017
 30
0.0
 11
2193.575371165054
 21
1550.872507952017
 31
0.0
  0
LINE
  5
193F
330
1F
100
AcDbEntity
  8
AM_VIS
100
AcDbLine
 10
2188.975371165054
 20
1551.372507952017
 30
0.0
 11
2188.975371165054
 21
1550.872507952017
 31
0.0
  0
LINE
  5
1940
330
1F
100
AcDbEntity
  8
AM_VIS
100
AcDbLine
 10
2189.425371165054
 20
1551.872507952017
 30
0.0
 11
2188.975371165054
 21
1551.372507952017
 31
0.0
  0
LINE
  5
1941
330
1F
100
AcDbEntity
  8
AM_VIS
100
AcDbLine
 10
2189.425371165054
 20
1553.972507952017
 30
0.0
 11
2189.425371165054
 21
1551.872507952017
 31
0.0
  0
LINE
  5
1942
330
1F
100
AcDbEntity
  8
AM_VIS
100
AcDbLine
 10
2186.825371165054
 20
1555.672507952017
 30
0.0
 11
2187.725371165054
 21
1555.672507952017
 31
0.0
  0
LINE
  5
1943
330
1F
100
AcDbEntity
  8
AM_VIS
100
AcDbLine
 10
2185.125371165054
 20
1551.872507952017
 30
0.0
 11
2185.125371165054
 21
1553.972507952017
 31
0.0
  0
LINE
  5
1944
330
1F
100
AcDbEntity
  8
AM_VIS
100
AcDbLine
 10
2185.575371165054
 20
1551.372507952017
 30
0.0
 11
2185.125371165054
 21
1551.872507952017
 31
0.0
  0
LINE
  5
1945
330
1F
100
AcDbEntity
  8
AM_VIS
100
AcDbLine
 10
2185.575371165054
 20
1550.872507952017
 30
0.0
 11
2185.575371165054
 21
1551.372507952017
 31
0.0
  0
LINE
  5
1946
330
1F
100
AcDbEntity
  8
AM_VIS
100
AcDbLine
 10
2183.875371165054
 20
1550.872507952017
 30
0.0
 11
2185.575371165054
 21
1550.872507952017
 31
0.0
  0
LINE
  5
1947
330
1F
100
AcDbEntity
  8
AM_VIS
100
AcDbLine
 10
2183.575371165054
 20
1550.572507952017
 30
0.0
 11
2183.875371165054
 21
1550.872507952017
 31
0.0
  0
LINE
  5
1948
330
1F
100
AcDbEntity
  8
AM_VIS
100
AcDbLine
 10
2174.975371165054
 20
1550.572507952017
 30
0.0
 11
2183.575371165054
 21
1550.572507952017
 31
0.0
  0
LINE
  5
1949
330
1F
100
AcDbEntity
  8
AM_VIS
100
AcDbLine
 10
2173.775371165054
 20
1551.772507952017
 30
0.0
 11
2174.975371165054
 21
1550.572507952017
 31
0.0
  0
LINE
  5
194A
330
1F
100
AcDbEntity
  8
AM_VIS
100
AcDbLine
 10
2172.875371165054
 20
1550.872507952017
 30
0.0
 11
2173.775371165054
 21
1551.772507952017
 31
0.0
  0
LINE
  5
194B
330
1F
100
AcDbEntity
  8
AM_VIS
100
AcDbLine
 10
2169.875371165054
 20
1550.872507952017
 30
0.0
 11
2172.875371165054
 21
1550.872507952017
 31
0.0
  0
LINE
  5
194C
330
1F
100
AcDbEntity
  8
AM_VIS
100
AcDbLine
 10
2169.575371165054
 20
1550.572507952017
 30
0.0
 11
2169.875371165054
 21
1550.872507952017
 31
0.0
  0
LINE
  5
194D
330
1F
100
AcDbEntity
  8
AM_VIS
100
AcDbLine
 10
2159.5612283222
 20
1550.572507952017
 30
0.0
 11
2169.575371165054
 21
1550.572507952017
 31
0.0
  0
ARC
  5
1959
330
1F
100
AcDbEntity
  8
AM_VIS
100
AcDbCircle
 10
2160.275371165054
 20
1551.272507952017
 30
0.0
 40
1.0
100
AcDbArc
 50
180.0
 51
224.4270040008001
  0
ARC
  5
195A
330
1F
100
AcDbEntity
  8
AM_VIS
100
AcDbCircle
 10
2160.275371165054
 20
1579.572507952017
 30
0.0
 40
0.9999999999999998
100
AcDbArc
 50
90.0
 51
180.0
  0
ARC
  5
195B
330
1F
100
AcDbEntity
  8
AM_VIS
100
AcDbCircle
 10
2186.825371165054
 20
1577.172507952017
 30
0.0
 40
1.7
100
AcDbArc
 50
180.0
 51
270.0
  0
ARC
  5
195C
330
1F
100
AcDbEntity
  8
AM_VIS
100
AcDbCircle
 10
2187.725371165054
 20
1577.172507952017
 30
0.0
 40
1.7
100
AcDbArc
 50
270.0
 51
0.0
  0
ARC
  5
195D
330
1F
100
AcDbEntity
  8
AM_VIS
100
AcDbCircle
 10
2194.825371165054
 20
1577.172507952017
 30
0.0
 40
1.7
100
AcDbArc
 50
180.0
 51
270.0
  0
ARC
  5
195E
330
1F
100
AcDbEntity
  8
AM_VIS
100
AcDbCircle
 10
2195.725371165054
 20
1577.172507952017
 30
0.0
 40
1.7
100
AcDbArc
 50
270.0
 51
0.0
  0
ARC
  5
195F
330
1F
100
AcDbEntity
  8
AM_VIS
100
AcDbCircle
 10
2222.275371165054
 20
1579.572507952017
 30
0.0
 40
0.9999999999999998
100
AcDbArc
 50
0.0
 51
90.0
  0
ARC
  5
1960
330
1F
100
AcDbEntity
  8
AM_VIS
100
AcDbCircle
 10
2222.275371165054
 20
1551.272507952018
 30
0.0
 40
0.9999999999999998
100
AcDbArc
 50
315.5729959991999
 51
0.0
  0
ARC
  5
1961
330
1F
100
AcDbEntity
  8
AM_VIS
100
AcDbCircle
 10
2195.725371165054
 20
1553.972507952017
 30
0.0
 40
1.7
100
AcDbArc
 50
0.0
 51
90.0
  0
ARC
  5
1962
330
1F
100
AcDbEntity
  8
AM_VIS
100
AcDbCircle
 10
2194.825371165054
 20
1553.972507952017
 30
0.0
 40
1.7
100
AcDbArc
 50
90.0
 51
180.0
  0
ARC
  5
1963
330
1F
100
AcDbEntity
  8
AM_VIS
100
AcDbCircle
 10
2187.725371165054
 20
1553.972507952017
 30
0.0
 40
1.7
100
AcDbArc
 50
0.0
 51
90.0
  0
ARC
  5
1964
330
1F
100
AcDbEntity
  8
AM_VIS
100
AcDbCircle
 10
2186.825371165054
 20
1553.972507952017
 30
0.0
 40
1.7
100
AcDbArc
 50
90.0
 51
180.0
  0
LINE
  5
1970
330
1F
100
AcDbEntity
  8
AM_VIS
100
AcDbLine
 10
2117.505981099593
 20
1663.993379639453
 30
0.0
 11
2117.505981099593
 21
1665.993379639453
 31
0.0
  0
LINE
  5
1971
330
1F
100
AcDbEntity
  8
AM_VIS
100
AcDbLine
 10
2107.505981099594
 20
1663.993379639453
 30
0.0
 11
2107.505981099594
 21
1665.993379639453
 31
0.0
  0
LINE
  5
1972
330
1F
100
AcDbEntity
  8
AM_VIS
100
AcDbLine
 10
2100.505981099594
 20
1675.993379639454
 30
0.0
 11
2100.255981099594
 21
1675.743379639454
 31
0.0
  0
LINE
  5
1973
330
1F
100
AcDbEntity
  8
AM_VIS
100
AcDbLine
 10
2124.505981099594
 20
1675.993379639454
 30
0.0
 11
2124.755981099593
 21
1675.743379639454
 31
0.0
  0
LINE
  5
1974
330
1F
100
AcDbEntity
  8
AM_VIS
100
AcDbLine
 10
2124.755981099593
 20
1675.743379639454
 30
0.0
 11
2125.005981099594
 21
1675.493379639453
 31
0.0
  0
LINE
  5
1975
330
1F
100
AcDbEntity
  8
AM_VIS
100
AcDbLine
 10
2125.005981099594
 20
1666.493379639453
 30
0.0
 11
2125.005981099594
 21
1675.493379639453
 31
0.0
  0
LINE
  5
1976
330
1F
100
AcDbEntity
  8
AM_VIS
100
AcDbLine
 10
2100.005981099593
 20
1675.493379639453
 30
0.0
 11
2100.255981099594
 21
1675.743379639454
 31
0.0
  0
LINE
  5
1977
330
1F
100
AcDbEntity
  8
AM_VIS
100
AcDbLine
 10
2100.005981099593
 20
1675.493379639453
 30
0.0
 11
2100.005981099593
 21
1666.493379639453
 31
0.0
  0
LINE
  5
1978
330
1F
100
AcDbEntity
  8
AM_VIS
100
AcDbLine
 10
2100.255981099594
 20
1666.243379639453
 30
0.0
 11
2100.005981099593
 21
1666.493379639453
 31
0.0
  0
LINE
  5
1979
330
1F
100
AcDbEntity
  8
AM_VIS
100
AcDbLine
 10
2125.005981099594
 20
1666.493379639453
 30
0.0
 11
2124.755981099593
 21
1666.243379639453
 31
0.0
  0
LINE
  5
197A
330
1F
100
AcDbEntity
  8
AM_VIS
100
AcDbLine
 10
2124.505981099594
 20
1665.993379639453
 30
0.0
 11
2124.755981099593
 21
1666.243379639453
 31
0.0
  0
LINE
  5
197B
330
1F
100
AcDbEntity
  8
AM_VIS
100
AcDbLine
 10
2100.255981099594
 20
1666.243379639453
 30
0.0
 11
2100.505981099594
 21
1665.993379639453
 31
0.0
  0
LINE
  5
197C
330
1F
100
AcDbEntity
  8
AM_VIS
100
AcDbLine
 10
2124.505981099594
 20
1675.993379639454
 30
0.0
 11
2100.505981099594
 21
1675.993379639454
 31
0.0
  0
LINE
  5
197D
330
1F
100
AcDbEntity
  8
AM_VIS
100
AcDbLine
 10
2100.505981099594
 20
1665.993379639453
 30
0.0
 11
2124.505981099594
 21
1665.993379639453
 31
0.0
  0
LINE
  5
197E
330
1F
100
AcDbEntity
  8
AM_VIS
100
AcDbLine
 10
2097.505981099594
 20
1663.993379639453
 30
0.0
 11
2097.505981099594
 21
1622.993379639454
 31
0.0
  0
LINE
  5
197F
330
1F
100
AcDbEntity
  8
AM_VIS
100
AcDbLine
 10
2127.505981099594
 20
1622.993379639454
 30
0.0
 11
2127.505981099594
 21
1663.993379639453
 31
0.0
  0
LINE
  5
1982
330
1F
100
AcDbEntity
  8
AM_VIS
100
AcDbLine
 10
2126.505981099594
 20
1663.993379639453
 30
0.0
 11
2098.205981099594
 21
1663.993379639453
 31
0.0
  0
LINE
  5
198F
330
1F
100
AcDbEntity
  8
AM_VIS
100
AcDbLine
 10
2098.205981099594
 20
1622.993379639454
 30
0.0
 11
2126.505981099594
 21
1622.993379639454
 31
0.0
  0
LINE
  5
1990
330
1F
100
AcDbEntity
  8
AM_VIS
100
AcDbLine
 10
2126.505981099594
 20
1663.993379639453
 30
0.0
 11
2127.505981099594
 21
1663.993379639453
 31
0.0
  0
LINE
  5
1991
330
1F
100
AcDbEntity
  8
AM_VIS
100
AcDbLine
 10
2097.505981099594
 20
1663.993379639453
 30
0.0
 11
2098.205981099594
 21
1663.993379639453
 31
0.0
  0
LINE
  5
1999
330
1F
100
AcDbEntity
  8
AM_VIS
100
AcDbLine
 10
2098.205981099594
 20
1622.993379639454
 30
0.0
 11
2097.505981099594
 21
1622.993379639454
 31
0.0
  0
LINE
  5
199A
330
1F
100
AcDbEntity
  8
AM_VIS
100
AcDbLine
 10
2127.505981099594
 20
1622.993379639454
 30
0.0
 11
2126.505981099594
 21
1622.993379639454
 31
0.0
  0
LINE
  5
199B
330
1F
100
AcDbEntity
  8
AM_VIS
100
AcDbLine
 10
2274.603755032952
 20
1663.993379639453
 30
0.0
 11
2274.603755032952
 21
1665.993379639453
 31
0.0
  0
LINE
  5
199C
330
1F
100
AcDbEntity
  8
AM_VIS
100
AcDbLine
 10
2264.603755032952
 20
1663.993379639453
 30
0.0
 11
2264.603755032952
 21
1665.993379639453
 31
0.0
  0
LINE
  5
199D
330
1F
100
AcDbEntity
  8
AM_VIS
100
AcDbLine
 10
2257.103755032952
 20
1675.493379639453
 30
0.0
 11
2257.353755032951
 21
1675.743379639454
 31
0.0
  0
LINE
  5
199E
330
1F
100
AcDbEntity
  8
AM_VIS
100
AcDbLine
 10
2257.603755032952
 20
1675.993379639454
 30
0.0
 11
2257.353755032951
 21
1675.743379639454
 31
0.0
  0
LINE
  5
199F
330
1F
100
AcDbEntity
  8
AM_VIS
100
AcDbLine
 10
2281.853755032952
 20
1675.743379639454
 30
0.0
 11
2281.603755032952
 21
1675.993379639454
 31
0.0
  0
LINE
  5
19A0
330
1F
100
AcDbEntity
  8
AM_VIS
100
AcDbLine
 10
2281.853755032952
 20
1675.743379639454
 30
0.0
 11
2282.103755032952
 21
1675.493379639453
 31
0.0
  0
LINE
  5
19A1
330
1F
100
AcDbEntity
  8
AM_VIS
100
AcDbLine
 10
2257.103755032952
 20
1675.493379639453
 30
0.0
 11
2257.103755032952
 21
1666.493379639453
 31
0.0
  0
LINE
  5
19A2
330
1F
100
AcDbEntity
  8
AM_VIS
100
AcDbLine
 10
2282.103755032952
 20
1666.493379639453
 30
0.0
 11
2282.103755032952
 21
1675.493379639453
 31
0.0
  0
LINE
  5
19A3
330
1F
100
AcDbEntity
  8
AM_VIS
100
AcDbLine
 10
2281.853755032952
 20
1666.243379639453
 30
0.0
 11
2281.603755032952
 21
1665.993379639453
 31
0.0
  0
LINE
  5
19A4
330
1F
100
AcDbEntity
  8
AM_VIS
100
AcDbLine
 10
2282.103755032952
 20
1666.493379639453
 30
0.0
 11
2281.853755032952
 21
1666.243379639453
 31
0.0
  0
LINE
  5
19A5
330
1F
100
AcDbEntity
  8
AM_VIS
100
AcDbLine
 10
2257.353755032951
 20
1666.243379639453
 30
0.0
 11
2257.103755032952
 21
1666.493379639453
 31
0.0
  0
LINE
  5
19A6
330
1F
100
AcDbEntity
  8
AM_VIS
100
AcDbLine
 10
2257.603755032952
 20
1665.993379639453
 30
0.0
 11
2257.353755032951
 21
1666.243379639453
 31
0.0
  0
LINE
  5
19A7
330
1F
100
AcDbEntity
  8
AM_VIS
100
AcDbLine
 10
2281.603755032952
 20
1675.993379639454
 30
0.0
 11
2257.603755032952
 21
1675.993379639454
 31
0.0
  0
LINE
  5
19A8
330
1F
100
AcDbEntity
  8
AM_VIS
100
AcDbLine
 10
2257.603755032952
 20
1665.993379639453
 30
0.0
 11
2281.603755032952
 21
1665.993379639453
 31
0.0
  0
LINE
  5
19A9
330
1F
100
AcDbEntity
  8
AM_VIS
100
AcDbLine
 10
2254.603755032952
 20
1663.993379639453
 30
0.0
 11
2254.603755032952
 21
1622.993379639454
 31
0.0
  0
LINE
  5
19AA
330
1F
100
AcDbEntity
  8
AM_VIS
100
AcDbLine
 10
2284.603755032952
 20
1622.993379639454
 30
0.0
 11
2284.603755032952
 21
1663.993379639453
 31
0.0
  0
LINE
  5
19AB
330
1F
100
AcDbEntity
  8
AM_VIS
100
AcDbLine
 10
2283.903755032952
 20
1663.993379639453
 30
0.0
 11
2255.603755032952
 21
1663.993379639453
 31
0.0
  0
LINE
  5
19AC
330
1F
100
AcDbEntity
  8
AM_VIS
100
AcDbLine
 10
2255.603755032952
 20
1622.993379639454
 30
0.0
 11
2283.903755032952
 21
1622.993379639454
 31
0.0
  0
LINE
  5
19AD
330
1F
100
AcDbEntity
  8
AM_VIS
100
AcDbLine
 10
2283.903755032952
 20
1663.993379639453
 30
0.0
 11
2284.603755032952
 21
1663.993379639453
 31
0.0
  0
LINE
  5
19AE
330
1F
100
AcDbEntity
  8
AM_VIS
100
AcDbLine
 10
2254.603755032952
 20
1663.993379639453
 30
0.0
 11
2255.603755032952
 21
1663.993379639453
 31
0.0
  0
LINE
  5
19AF
330
1F
100
AcDbEntity
  8
AM_VIS
100
AcDbLine
 10
2255.603755032952
 20
1622.993379639454
 30
0.0
 11
2254.603755032952
 21
1622.993379639454
 31
0.0
  0
LINE
  5
19B0
330
1F
100
AcDbEntity
  8
AM_VIS
100
AcDbLine
 10
2284.603755032952
 20
1622.993379639454
 30
0.0
 11
2283.903755032952
 21
1622.993379639454
 31
0.0
  0
LINE
  5
19B1
330
1F
100
AcDbEntity
  8
AM_VIS
100
AcDbLine
 10
2324.671434291667
 20
1663.993379639453
 30
0.0
 11
2324.671434291667
 21
1665.993379639453
 31
0.0
  0
LINE
  5
19B2
330
1F
100
AcDbEntity
  8
AM_VIS
100
AcDbLine
 10
2314.671434291667
 20
1663.993379639453
 30
0.0
 11
2314.671434291667
 21
1665.993379639453
 31
0.0
  0
LINE
  5
19B3
330
1F
100
AcDbEntity
  8
AM_VIS
100
AcDbLine
 10
2370.671434291667
 20
1663.993379639453
 30
0.0
 11
2370.671434291667
 21
1665.993379639453
 31
0.0
  0
LINE
  5
19B4
330
1F
100
AcDbEntity
  8
AM_VIS
100
AcDbLine
 10
2360.671434291667
 20
1663.993379639453
 30
0.0
 11
2360.671434291667
 21
1665.993379639453
 31
0.0
  0
LINE
  5
19B7
330
1F
100
AcDbEntity
  8
AM_VIS
100
AcDbLine
 10
2346.671434291667
 20
1663.993379639453
 30
0.0
 11
2346.671434291667
 21
1665.993379639453
 31
0.0
  0
LINE
  5
19B8
330
1F
100
AcDbEntity
  8
AM_VIS
100
AcDbLine
 10
2338.671434291667
 20
1663.993379639453
 30
0.0
 11
2338.671434291667
 21
1665.993379639453
 31
0.0
  0
LINE
  5
19B9
330
1F
100
AcDbEntity
  8
AM_VIS
100
AcDbLine
 10
2373.171434291667
 20
1675.993379639454
 30
0.0
 11
2373.421434291667
 21
1675.743379639454
 31
0.0
  0
LINE
  5
19BA
330
1F
100
AcDbEntity
  8
AM_VIS
100
AcDbLine
 10
2311.921434291667
 20
1675.743379639454
 30
0.0
 11
2312.171434291667
 21
1675.993379639454
 31
0.0
  0
LINE
  5
19BB
330
1F
100
AcDbEntity
  8
AM_VIS
100
AcDbLine
 10
2311.671434291667
 20
1675.493379639453
 30
0.0
 11
2311.921434291667
 21
1675.743379639454
 31
0.0
  0
LINE
  5
19BC
330
1F
100
AcDbEntity
  8
AM_VIS
100
AcDbLine
 10
2311.671434291667
 20
1675.493379639453
 30
0.0
 11
2311.671434291667
 21
1666.493379639453
 31
0.0
  0
LINE
  5
19BD
330
1F
100
AcDbEntity
  8
AM_VIS
100
AcDbLine
 10
2311.921434291667
 20
1666.243379639453
 30
0.0
 11
2311.671434291667
 21
1666.493379639453
 31
0.0
  0
LINE
  5
19BE
330
1F
100
AcDbEntity
  8
AM_VIS
100
AcDbLine
 10
2373.421434291667
 20
1675.743379639454
 30
0.0
 11
2373.671434291667
 21
1675.493379639453
 31
0.0
  0
LINE
  5
19BF
330
1F
100
AcDbEntity
  8
AM_VIS
100
AcDbLine
 10
2373.671434291667
 20
1666.493379639453
 30
0.0
 11
2373.671434291667
 21
1675.493379639453
 31
0.0
  0
LINE
  5
19C0
330
1F
100
AcDbEntity
  8
AM_VIS
100
AcDbLine
 10
2311.921434291667
 20
1666.243379639453
 30
0.0
 11
2312.171434291667
 21
1665.993379639453
 31
0.0
  0
LINE
  5
19C1
330
1F
100
AcDbEntity
  8
AM_VIS
100
AcDbLine
 10
2373.421434291667
 20
1666.243379639453
 30
0.0
 11
2373.171434291667
 21
1665.993379639453
 31
0.0
  0
LINE
  5
19C2
330
1F
100
AcDbEntity
  8
AM_VIS
100
AcDbLine
 10
2373.671434291667
 20
1666.493379639453
 30
0.0
 11
2373.421434291667
 21
1666.243379639453
 31
0.0
  0
LINE
  5
19C3
330
1F
100
AcDbEntity
  8
AM_VIS
100
AcDbLine
 10
2373.171434291667
 20
1675.993379639454
 30
0.0
 11
2312.171434291667
 21
1675.993379639454
 31
0.0
  0
LINE
  5
19C4
330
1F
100
AcDbEntity
  8
AM_VIS
100
AcDbLine
 10
2312.171434291667
 20
1665.993379639453
 30
0.0
 11
2373.171434291667
 21
1665.993379639453
 31
0.0
  0
LINE
  5
19C5
330
1F
100
AcDbEntity
  8
AM_VIS
100
AcDbLine
 10
2324.271434291667
 20
1663.993379639453
 30
0.0
 11
2324.271434291667
 21
1622.993379639454
 31
0.0
  0
LINE
  5
19C6
330
1F
100
AcDbEntity
  8
AM_VIS
100
AcDbLine
 10
2321.271434291667
 20
1663.993379639453
 30
0.0
 11
2321.271434291667
 21
1622.993379639454
 31
0.0
  0
LINE
  5
19C7
330
1F
100
AcDbEntity
  8
AM_VIS
100
AcDbLine
 10
2364.071434291667
 20
1663.993379639453
 30
0.0
 11
2364.071434291667
 21
1622.993379639454
 31
0.0
  0
LINE
  5
19C8
330
1F
100
AcDbEntity
  8
AM_VIS
100
AcDbLine
 10
2360.171434291666
 20
1663.993379639453
 30
0.0
 11
2360.171434291666
 21
1622.993379639454
 31
0.0
  0
LINE
  5
19C9
330
1F
100
AcDbEntity
  8
AM_VIS
100
AcDbLine
 10
2361.071434291667
 20
1663.993379639453
 30
0.0
 11
2361.071434291667
 21
1622.993379639454
 31
0.0
  0
LINE
  5
19CA
330
1F
100
AcDbEntity
  8
AM_VIS
100
AcDbLine
 10
2335.271434291667
 20
1663.993379639453
 30
0.0
 11
2335.271434291667
 21
1622.993379639454
 31
0.0
  0
LINE
  5
19CB
330
1F
100
AcDbEntity
  8
AM_VIS
100
AcDbLine
 10
2340.371434291667
 20
1663.993379639453
 30
0.0
 11
2340.371434291667
 21
1622.993379639454
 31
0.0
  0
LINE
  5
19CC
330
1F
100
AcDbEntity
  8
AM_VIS
100
AcDbLine
 10
2336.971434291667
 20
1622.993379639454
 30
0.0
 11
2336.971434291667
 21
1663.993379639453
 31
0.0
  0
LINE
  5
19CD
330
1F
100
AcDbEntity
  8
AM_VIS
100
AcDbLine
 10
2348.371434291667
 20
1663.993379639453
 30
0.0
 11
2348.371434291667
 21
1622.993379639454
 31
0.0
  0
LINE
  5
19CE
330
1F
100
AcDbEntity
  8
AM_VIS
100
AcDbLine
 10
2344.971434291667
 20
1622.993379639454
 30
0.0
 11
2344.971434291667
 21
1663.993379639453
 31
0.0
  0
LINE
  5
19CF
330
1F
100
AcDbEntity
  8
AM_VIS
100
AcDbLine
 10
2350.071434291667
 20
1663.993379639453
 30
0.0
 11
2350.071434291667
 21
1622.993379639454
 31
0.0
  0
LINE
  5
19D0
330
1F
100
AcDbEntity
  8
AM_VIS
100
AcDbLine
 10
2325.171434291667
 20
1663.993379639453
 30
0.0
 11
2325.171434291667
 21
1622.993379639454
 31
0.0
  0
LINE
  5
19D1
330
1F
100
AcDbEntity
  8
AM_VIS
100
AcDbLine
 10
2310.671434291667
 20
1663.993379639453
 30
0.0
 11
2310.671434291667
 21
1622.993379639454
 31
0.0
  0
LINE
  5
19D2
330
1F
100
AcDbEntity
  8
AM_VIS
100
AcDbLine
 10
2350.371434291667
 20
1622.993379639454
 30
0.0
 11
2350.371434291667
 21
1663.993379639453
 31
0.0
  0
LINE
  5
19D3
330
1F
100
AcDbEntity
  8
AM_VIS
100
AcDbLine
 10
2358.971434291667
 20
1663.993379639453
 30
0.0
 11
2358.971434291667
 21
1622.993379639454
 31
0.0
  0
LINE
  5
19D4
330
1F
100
AcDbEntity
  8
AM_VIS
100
AcDbLine
 10
2326.371434291667
 20
1622.993379639454
 30
0.0
 11
2326.371434291667
 21
1663.993379639453
 31
0.0
  0
LINE
  5
19D5
330
1F
100
AcDbEntity
  8
AM_VIS
100
AcDbLine
 10
2334.971434291667
 20
1663.993379639453
 30
0.0
 11
2334.971434291667
 21
1622.993379639454
 31
0.0
  0
LINE
  5
19D6
330
1F
100
AcDbEntity
  8
AM_VIS
100
AcDbLine
 10
2320.971434291667
 20
1663.993379639453
 30
0.0
 11
2320.971434291667
 21
1622.993379639454
 31
0.0
  0
LINE
  5
19D7
330
1F
100
AcDbEntity
  8
AM_VIS
100
AcDbLine
 10
2364.371434291667
 20
1622.993379639454
 30
0.0
 11
2364.371434291667
 21
1663.993379639453
 31
0.0
  0
LINE
  5
19D8
330
1F
100
AcDbEntity
  8
AM_VIS
100
AcDbLine
 10
2364.071434291667
 20
1663.993379639453
 30
0.0
 11
2364.371434291667
 21
1663.993379639453
 31
0.0
  0
LINE
  5
19D9
330
1F
100
AcDbEntity
  8
AM_VIS
100
AcDbLine
 10
2361.071434291667
 20
1663.993379639453
 30
0.0
 11
2364.071434291667
 21
1663.993379639453
 31
0.0
  0
LINE
  5
19DA
330
1F
100
AcDbEntity
  8
AM_VIS
100
AcDbLine
 10
2360.171434291666
 20
1663.993379639453
 30
0.0
 11
2361.071434291667
 21
1663.993379639453
 31
0.0
  0
LINE
  5
19DB
330
1F
100
AcDbEntity
  8
AM_VIS
100
AcDbLine
 10
2358.971434291667
 20
1663.993379639453
 30
0.0
 11
2360.171434291666
 21
1663.993379639453
 31
0.0
  0
LINE
  5
19DC
330
1F
100
AcDbEntity
  8
AM_VIS
100
AcDbLine
 10
2350.371434291667
 20
1663.993379639453
 30
0.0
 11
2358.971434291667
 21
1663.993379639453
 31
0.0
  0
LINE
  5
19DD
330
1F
100
AcDbEntity
  8
AM_VIS
100
AcDbLine
 10
2350.071434291667
 20
1663.993379639453
 30
0.0
 11
2350.371434291667
 21
1663.993379639453
 31
0.0
  0
LINE
  5
19DE
330
1F
100
AcDbEntity
  8
AM_VIS
100
AcDbLine
 10
2348.371434291667
 20
1663.993379639453
 30
0.0
 11
2350.071434291667
 21
1663.993379639453
 31
0.0
  0
LINE
  5
19DF
330
1F
100
AcDbEntity
  8
AM_VIS
100
AcDbLine
 10
2346.221434291667
 20
1663.993379639453
 30
0.0
 11
2347.121434291667
 21
1663.993379639453
 31
0.0
  0
LINE
  5
19E0
330
1F
100
AcDbEntity
  8
AM_VIS
100
AcDbLine
 10
2340.371434291667
 20
1663.993379639453
 30
0.0
 11
2344.971434291667
 21
1663.993379639453
 31
0.0
  0
LINE
  5
19E1
330
1F
100
AcDbEntity
  8
AM_VIS
100
AcDbLine
 10
2338.221434291667
 20
1663.993379639453
 30
0.0
 11
2339.121434291667
 21
1663.993379639453
 31
0.0
  0
LINE
  5
19E2
330
1F
100
AcDbEntity
  8
AM_VIS
100
AcDbLine
 10
2335.271434291667
 20
1663.993379639453
 30
0.0
 11
2336.971434291667
 21
1663.993379639453
 31
0.0
  0
LINE
  5
19E3
330
1F
100
AcDbEntity
  8
AM_VIS
100
AcDbLine
 10
2334.971434291667
 20
1663.993379639453
 30
0.0
 11
2335.271434291667
 21
1663.993379639453
 31
0.0
  0
LINE
  5
19E4
330
1F
100
AcDbEntity
  8
AM_VIS
100
AcDbLine
 10
2326.371434291667
 20
1663.993379639453
 30
0.0
 11
2334.971434291667
 21
1663.993379639453
 31
0.0
  0
LINE
  5
19E5
330
1F
100
AcDbEntity
  8
AM_VIS
100
AcDbLine
 10
2325.171434291667
 20
1663.993379639453
 30
0.0
 11
2326.371434291667
 21
1663.993379639453
 31
0.0
  0
LINE
  5
19E6
330
1F
100
AcDbEntity
  8
AM_VIS
100
AcDbLine
 10
2324.271434291667
 20
1663.993379639453
 30
0.0
 11
2325.171434291667
 21
1663.993379639453
 31
0.0
  0
LINE
  5
19E7
330
1F
100
AcDbEntity
  8
AM_VIS
100
AcDbLine
 10
2321.271434291667
 20
1663.993379639453
 30
0.0
 11
2324.271434291667
 21
1663.993379639453
 31
0.0
  0
LINE
  5
19E8
330
1F
100
AcDbEntity
  8
AM_VIS
100
AcDbLine
 10
2320.971434291667
 20
1663.993379639453
 30
0.0
 11
2321.271434291667
 21
1663.993379639453
 31
0.0
  0
LINE
  5
19E9
330
1F
100
AcDbEntity
  8
AM_VIS
100
AcDbLine
 10
2310.957291448813
 20
1663.993379639453
 30
0.0
 11
2320.971434291667
 21
1663.993379639453
 31
0.0
  0
LINE
  5
19EA
330
1F
100
AcDbEntity
  8
AM_VIS
100
AcDbLine
 10
2364.371434291667
 20
1663.993379639453
 30
0.0
 11
2374.385577134521
 21
1663.993379639453
 31
0.0
  0
LINE
  5
19EB
330
1F
100
AcDbEntity
  8
AM_VIS
100
AcDbLine
 10
2374.671434291667
 20
1622.993379639454
 30
0.0
 11
2374.671434291667
 21
1663.993379639453
 31
0.0
  0
LINE
  5
19EC
330
1F
100
AcDbEntity
  8
AM_VIS
100
AcDbLine
 10
2320.971434291667
 20
1622.993379639454
 30
0.0
 11
2310.957291448813
 21
1622.993379639454
 31
0.0
  0
LINE
  5
19ED
330
1F
100
AcDbEntity
  8
AM_VIS
100
AcDbLine
 10
2321.271434291667
 20
1622.993379639454
 30
0.0
 11
2320.971434291667
 21
1622.993379639454
 31
0.0
  0
LINE
  5
19EE
330
1F
100
AcDbEntity
  8
AM_VIS
100
AcDbLine
 10
2324.271434291667
 20
1622.993379639454
 30
0.0
 11
2321.271434291667
 21
1622.993379639454
 31
0.0
  0
LINE
  5
19EF
330
1F
100
AcDbEntity
  8
AM_VIS
100
AcDbLine
 10
2325.171434291667
 20
1622.993379639454
 30
0.0
 11
2324.271434291667
 21
1622.993379639454
 31
0.0
  0
LINE
  5
19F0
330
1F
100
AcDbEntity
  8
AM_VIS
100
AcDbLine
 10
2326.371434291667
 20
1622.993379639454
 30
0.0
 11
2325.171434291667
 21
1622.993379639454
 31
0.0
  0
LINE
  5
19F1
330
1F
100
AcDbEntity
  8
AM_VIS
100
AcDbLine
 10
2334.971434291667
 20
1622.993379639454
 30
0.0
 11
2326.371434291667
 21
1622.993379639454
 31
0.0
  0
LINE
  5
19F2
330
1F
100
AcDbEntity
  8
AM_VIS
100
AcDbLine
 10
2335.271434291667
 20
1622.993379639454
 30
0.0
 11
2334.971434291667
 21
1622.993379639454
 31
0.0
  0
LINE
  5
19F3
330
1F
100
AcDbEntity
  8
AM_VIS
100
AcDbLine
 10
2336.971434291667
 20
1622.993379639454
 30
0.0
 11
2335.271434291667
 21
1622.993379639454
 31
0.0
  0
LINE
  5
19F4
330
1F
100
AcDbEntity
  8
AM_VIS
100
AcDbLine
 10
2339.121434291667
 20
1622.993379639454
 30
0.0
 11
2338.221434291667
 21
1622.993379639454
 31
0.0
  0
LINE
  5
19F5
330
1F
100
AcDbEntity
  8
AM_VIS
100
AcDbLine
 10
2344.971434291667
 20
1622.993379639454
 30
0.0
 11
2340.371434291667
 21
1622.993379639454
 31
0.0
  0
LINE
  5
19F6
330
1F
100
AcDbEntity
  8
AM_VIS
100
AcDbLine
 10
2347.121434291667
 20
1622.993379639454
 30
0.0
 11
2346.221434291667
 21
1622.993379639454
 31
0.0
  0
LINE
  5
19F7
330
1F
100
AcDbEntity
  8
AM_VIS
100
AcDbLine
 10
2350.071434291667
 20
1622.993379639454
 30
0.0
 11
2348.371434291667
 21
1622.993379639454
 31
0.0
  0
LINE
  5
19F8
330
1F
100
AcDbEntity
  8
AM_VIS
100
AcDbLine
 10
2350.371434291667
 20
1622.993379639454
 30
0.0
 11
2350.071434291667
 21
1622.993379639454
 31
0.0
  0
LINE
  5
19F9
330
1F
100
AcDbEntity
  8
AM_VIS
100
AcDbLine
 10
2358.971434291667
 20
1622.993379639454
 30
0.0
 11
2350.371434291667
 21
1622.993379639454
 31
0.0
  0
LINE
  5
19FA
330
1F
100
AcDbEntity
  8
AM_VIS
100
AcDbLine
 10
2360.171434291666
 20
1622.993379639454
 30
0.0
 11
2358.971434291667
 21
1622.993379639454
 31
0.0
  0
LINE
  5
19FB
330
1F
100
AcDbEntity
  8
AM_VIS
100
AcDbLine
 10
2361.071434291667
 20
1622.993379639454
 30
0.0
 11
2360.171434291666
 21
1622.993379639454
 31
0.0
  0
LINE
  5
19FC
330
1F
100
AcDbEntity
  8
AM_VIS
100
AcDbLine
 10
2364.071434291667
 20
1622.993379639454
 30
0.0
 11
2361.071434291667
 21
1622.993379639454
 31
0.0
  0
LINE
  5
19FD
330
1F
100
AcDbEntity
  8
AM_VIS
100
AcDbLine
 10
2364.371434291667
 20
1622.993379639454
 30
0.0
 11
2364.071434291667
 21
1622.993379639454
 31
0.0
  0
LINE
  5
19FE
330
1F
100
AcDbEntity
  8
AM_VIS
100
AcDbLine
 10
2374.385577134521
 20
1622.993379639454
 30
0.0
 11
2364.371434291667
 21
1622.993379639454
 31
0.0
  0
LINE
  5
1A13
330
1F
100
AcDbEntity
  8
AM_VIS
100
AcDbLine
 10
2347.121434291667
 20
1663.993379639453
 30
0.0
 11
2348.371434291667
 21
1663.993379639453
 31
0.0
  0
LINE
  5
1A14
330
1F
100
AcDbEntity
  8
AM_VIS
100
AcDbLine
 10
2344.971434291667
 20
1663.993379639453
 30
0.0
 11
2346.221434291667
 21
1663.993379639453
 31
0.0
  0
LINE
  5
1A15
330
1F
100
AcDbEntity
  8
AM_VIS
100
AcDbLine
 10
2340.371434291667
 20
1663.993379639453
 30
0.0
 11
2339.121434291667
 21
1663.993379639453
 31
0.0
  0
LINE
  5
1A16
330
1F
100
AcDbEntity
  8
AM_VIS
100
AcDbLine
 10
2338.221434291667
 20
1663.993379639453
 30
0.0
 11
2336.971434291667
 21
1663.993379639453
 31
0.0
  0
LINE
  5
1A17
330
1F
100
AcDbEntity
  8
AM_VIS
100
AcDbLine
 10
2310.671434291667
 20
1663.993379639453
 30
0.0
 11
2310.957291448813
 21
1663.993379639453
 31
0.0
  0
LINE
  5
1A18
330
1F
100
AcDbEntity
  8
AM_VIS
100
AcDbLine
 10
2374.385577134521
 20
1663.993379639453
 30
0.0
 11
2374.671434291667
 21
1663.993379639453
 31
0.0
  0
LINE
  5
1A19
330
1F
100
AcDbEntity
  8
AM_VIS
100
AcDbLine
 10
2374.671434291667
 20
1622.993379639454
 30
0.0
 11
2374.385577134521
 21
1622.993379639454
 31
0.0
  0
LINE
  5
1A1A
330
1F
100
AcDbEntity
  8
AM_VIS
100
AcDbLine
 10
2310.957291448813
 20
1622.993379639454
 30
0.0
 11
2310.671434291667
 21
1622.993379639454
 31
0.0
  0
LINE
  5
1A1B
330
1F
100
AcDbEntity
  8
AM_VIS
100
AcDbLine
 10
2336.971434291667
 20
1622.993379639454
 30
0.0
 11
2338.221434291667
 21
1622.993379639454
 31
0.0
  0
LINE
  5
1A1C
330
1F
100
AcDbEntity
  8
AM_VIS
100
AcDbLine
 10
2339.121434291667
 20
1622.993379639454
 30
0.0
 11
2340.371434291667
 21
1622.993379639454
 31
0.0
  0
LINE
  5
1A1D
330
1F
100
AcDbEntity
  8
AM_VIS
100
AcDbLine
 10
2346.221434291667
 20
1622.993379639454
 30
0.0
 11
2344.971434291667
 21
1622.993379639454
 31
0.0
  0
LINE
  5
1A1E
330
1F
100
AcDbEntity
  8
AM_VIS
100
AcDbLine
 10
2348.371434291667
 20
1622.993379639454
 30
0.0
 11
2347.121434291667
 21
1622.993379639454
 31
0.0
  0
ARC
  5
1A57
330
1F
100
AcDbEntity
  8
AM_4
100
AcDbCircle
 10
2122.505981099594
 20
1652.993379639454
 30
0.0
 40
2.5
100
AcDbArc
 50
259.9999999999939
 51
170.0000000000089
  0
CIRCLE
  5
1A58
330
1F
100
AcDbEntity
  8
AM_0
100
AcDbCircle
 10
2122.505981099594
 20
1652.993379639454
 30
0.0
 40
2.066987298107819
  0
LINE
  5
1A59
330
1F
100
AcDbEntity
  8
AM_7
  6
AM_ISO08W050x2
100
AcDbLine
 10
2119.005981099594
 20
1652.993379639454
 30
0.0
 11
2126.005981099594
 21
1652.993379639454
 31
0.0
  0
LINE
  5
1A5A
330
1F
100
AcDbEntity
  8
AM_7
  6
AM_ISO08W050x2
100
AcDbLine
 10
2122.505981099594
 20
1649.493379639453
 30
0.0
 11
2122.505981099594
 21
1656.493379639454
 31
0.0
  0
ARC
  5
1A5B
330
1F
100
AcDbEntity
  8
AM_4
100
AcDbCircle
 10
2122.505981099594
 20
1640.043379639448
 30
0.0
 40
2.5
100
AcDbArc
 50
259.9999999999939
 51
170.0000000000089
  0
CIRCLE
  5
1A5C
330
1F
100
AcDbEntity
  8
AM_0
100
AcDbCircle
 10
2122.505981099594
 20
1640.043379639448
 30
0.0
 40
2.066987298107819
  0
LINE
  5
1A5D
330
1F
100
AcDbEntity
  8
AM_7
  6
AM_ISO08W050x2
100
AcDbLine
 10
2119.005981099594
 20
1640.043379639448
 30
0.0
 11
2126.005981099594
 21
1640.043379639448
 31
0.0
  0
LINE
  5
1A5E
330
1F
100
AcDbEntity
  8
AM_7
  6
AM_ISO08W050x2
100
AcDbLine
 10
2122.505981099594
 20
1636.543379639448
 30
0.0
 11
2122.505981099594
 21
1643.543379639448
 31
0.0
  0
ARC
  5
1A5F
330
1F
100
AcDbEntity
  8
AM_4
100
AcDbCircle
 10
2168.275371165054
 20
1652.993379639454
 30
0.0
 40
2.5
100
AcDbArc
 50
259.9999999999939
 51
170.0000000000089
  0
CIRCLE
  5
1A60
330
1F
100
AcDbEntity
  8
AM_0
100
AcDbCircle
 10
2168.275371165054
 20
1652.993379639454
 30
0.0
 40
2.066987298107819
  0
LINE
  5
1A61
330
1F
100
AcDbEntity
  8
AM_7
  6
AM_ISO08W050x2
100
AcDbLine
 10
2164.775371165054
 20
1652.993379639454
 30
0.0
 11
2171.775371165054
 21
1652.993379639454
 31
0.0
  0
LINE
  5
1A62
330
1F
100
AcDbEntity
  8
AM_7
  6
AM_ISO08W050x2
100
AcDbLine
 10
2168.275371165054
 20
1649.493379639453
 30
0.0
 11
2168.275371165054
 21
1656.493379639454
 31
0.0
  0
ARC
  5
1A63
330
1F
100
AcDbEntity
  8
AM_4
100
AcDbCircle
 10
2168.275371165054
 20
1640.043379639448
 30
0.0
 40
2.5
100
AcDbArc
 50
259.9999999999939
 51
170.0000000000089
  0
CIRCLE
  5
1A64
330
1F
100
AcDbEntity
  8
AM_0
100
AcDbCircle
 10
2168.275371165054
 20
1640.043379639448
 30
0.0
 40
2.066987298107819
  0
LINE
  5
1A65
330
1F
100
AcDbEntity
  8
AM_7
  6
AM_ISO08W050x2
100
AcDbLine
 10
2164.775371165054
 20
1640.043379639448
 30
0.0
 11
2171.775371165054
 21
1640.043379639448
 31
0.0
  0
LINE
  5
1A66
330
1F
100
AcDbEntity
  8
AM_7
  6
AM_ISO08W050x2
100
AcDbLine
 10
2168.275371165054
 20
1636.543379639448
 30
0.0
 11
2168.275371165054
 21
1643.543379639448
 31
0.0
  0
LINE
  5
1A74
330
1F
100
AcDbEntity
  8
AM_7
  6
AM_ISO08W050x2
100
AcDbLine
 10
2179.275371165054
 20
1658.993379639453
 30
0.0
 11
2185.275371165054
 21
1658.993379639453
 31
0.0
1001
GENIUS_GENOREF_13
1005
1A78
  0
LINE
  5
1A75
330
1F
100
AcDbEntity
  8
AM_7
  6
AM_ISO08W050x2
100
AcDbLine
 10
2179.275371165054
 20
1658.993379639453
 30
0.0
 11
2179.275371165054
 21
1664.993379639454
 31
0.0
1001
GENIUS_GENOREF_13
1005
1A78
  0
LINE
  5
1A76
330
1F
100
AcDbEntity
  8
AM_7
  6
AM_ISO08W050x2
100
AcDbLine
 10
2179.275371165054
 20
1658.993379639453
 30
0.0
 11
2173.275371165054
 21
1658.993379639453
 31
0.0
1001
GENIUS_GENOREF_13
1005
1A78
  0
LINE
  5
1A77
330
1F
100
AcDbEntity
  8
AM_7
  6
AM_ISO08W050x2
100
AcDbLine
 10
2179.275371165054
 20
1658.993379639453
 30
0.0
 11
2179.275371165054
 21
1652.993379639454
 31
0.0
1001
GENIUS_GENOREF_13
1005
1A78
  0
POINT
  5
1A78
330
1F
100
AcDbEntity
  8
0
 60
     1
100
AcDbPoint
 10
0.0
 20
0.0
 30
0.0
1001
GENIUS_GENOBJ-N-CRS_13
1002
{
1000
OWNER
1000
GEN
1002
}
1001
GENIUS_GENOLIS_13
1002
{
1000
ENT
1005
1A77
1005
1A76
1005
1A75
1005
1A74
1002
}
1001
GENIUS_GENOENT_13
1002
{
1000
MYREF
1005
1A78
1002
}
1002
{
1000
GRP
1005
0
1002
}
1001
GENIUS_GENODEF_13
1002
{
1000
HIER
1070
    10
1002
}
1002
{
1000
MANEDIT
1070
     0
1002
}
1002
{
1000
NOSEL
1070
     0
1002
}
1002
{
1000
BEHIND
1070
     0
1002
}
1002
{
1000
OTHER
1070
     0
1002
}
1002
{
1000
REACTOR
1002
}
  0
LINE
  5
1A86
330
1F
100
AcDbEntity
  8
AM_7
  6
AM_ISO08W050x2
100
AcDbLine
 10
2179.275371165054
 20
1644.993379639453
 30
0.0
 11
2185.275371165054
 21
1644.993379639453
 31
0.0
1001
GENIUS_GENOREF_13
1005
1A8A
  0
LINE
  5
1A87
330
1F
100
AcDbEntity
  8
AM_7
  6
AM_ISO08W050x2
100
AcDbLine
 10
2179.275371165054
 20
1644.993379639453
 30
0.0
 11
2179.275371165054
 21
1650.993379639453
 31
0.0
1001
GENIUS_GENOREF_13
1005
1A8A
  0
LINE
  5
1A88
330
1F
100
AcDbEntity
  8
AM_7
  6
AM_ISO08W050x2
100
AcDbLine
 10
2179.275371165054
 20
1644.993379639453
 30
0.0
 11
2173.275371165054
 21
1644.993379639453
 31
0.0
1001
GENIUS_GENOREF_13
1005
1A8A
  0
LINE
  5
1A89
330
1F
100
AcDbEntity
  8
AM_7
  6
AM_ISO08W050x2
100
AcDbLine
 10
2179.275371165054
 20
1644.993379639453
 30
0.0
 11
2179.275371165054
 21
1638.993379639454
 31
0.0
1001
GENIUS_GENOREF_13
1005
1A8A
  0
POINT
  5
1A8A
330
1F
100
AcDbEntity
  8
0
 60
     1
100
AcDbPoint
 10
0.0
 20
0.0
 30
0.0
1001
GENIUS_GENOLIS_13
1002
{
1000
ENT
1005
1A89
1005
1A88
1005
1A87
1005
1A86
1002
}
1001
GENIUS_GENOENT_13
1002
{
1000
MYREF
1005
1A8A
1002
}
1002
{
1000
GRP
1005
0
1002
}
1001
GENIUS_GENODEF_13
1002
{
1000
HIER
1070
    10
1002
}
1002
{
1000
MANEDIT
1070
     0
1002
}
1002
{
1000
NOSEL
1070
     0
1002
}
1002
{
1000
BEHIND
1070
     0
1002
}
1002
{
1000
OTHER
1070
     0
1002
}
1002
{
1000
REACTOR
1002
}
1001
GENIUS_GENOBJ-N-CRS_13
1002
{
1000
OWNER
1000
GEN
1002
}
  0
LINE
  5
1A98
330
1F
100
AcDbEntity
  8
AM_7
  6
AM_ISO08W050x2
100
AcDbLine
 10
2203.275371165054
 20
1644.993379639453
 30
0.0
 11
2209.275371165054
 21
1644.993379639453
 31
0.0
1001
GENIUS_GENOREF_13
1005
1A9C
  0
LINE
  5
1A99
330
1F
100
AcDbEntity
  8
AM_7
  6
AM_ISO08W050x2
100
AcDbLine
 10
2203.275371165054
 20
1644.993379639453
 30
0.0
 11
2203.275371165054
 21
1650.993379639453
 31
0.0
1001
GENIUS_GENOREF_13
1005
1A9C
  0
LINE
  5
1A9A
330
1F
100
AcDbEntity
  8
AM_7
  6
AM_ISO08W050x2
100
AcDbLine
 10
2203.275371165054
 20
1644.993379639453
 30
0.0
 11
2197.275371165054
 21
1644.993379639453
 31
0.0
1001
GENIUS_GENOREF_13
1005
1A9C
  0
LINE
  5
1A9B
330
1F
100
AcDbEntity
  8
AM_7
  6
AM_ISO08W050x2
100
AcDbLine
 10
2203.275371165054
 20
1644.993379639453
 30
0.0
 11
2203.275371165054
 21
1638.993379639454
 31
0.0
1001
GENIUS_GENOREF_13
1005
1A9C
  0
POINT
  5
1A9C
330
1F
100
AcDbEntity
  8
0
 60
     1
100
AcDbPoint
 10
0.0
 20
0.0
 30
0.0
1001
GENIUS_GENOENT_13
1002
{
1000
MYREF
1005
1A9C
1002
}
1002
{
1000
GRP
1005
0
1002
}
1001
GENIUS_GENOBJ-N-CRS_13
1002
{
1000
OWNER
1000
GEN
1002
}
1001
GENIUS_GENODEF_13
1002
{
1000
HIER
1070
    10
1002
}
1002
{
1000
MANEDIT
1070
     0
1002
}
1002
{
1000
NOSEL
1070
     0
1002
}
1002
{
1000
BEHIND
1070
     0
1002
}
1002
{
1000
OTHER
1070
     0
1002
}
1002
{
1000
REACTOR
1002
}
1001
GENIUS_GENOLIS_13
1002
{
1000
ENT
1005
1A9B
1005
1A9A
1005
1A99
1005
1A98
1002
}
  0
LINE
  5
1AAA
330
1F
100
AcDbEntity
  8
AM_7
  6
AM_ISO08W050x2
100
AcDbLine
 10
2203.275371165054
 20
1658.993379639453
 30
0.0
 11
2209.275371165054
 21
1658.993379639453
 31
0.0
1001
GENIUS_GENOREF_13
1005
1AAE
  0
LINE
  5
1AAB
330
1F
100
AcDbEntity
  8
AM_7
  6
AM_ISO08W050x2
100
AcDbLine
 10
2203.275371165054
 20
1658.993379639453
 30
0.0
 11
2203.275371165054
 21
1664.993379639454
 31
0.0
1001
GENIUS_GENOREF_13
1005
1AAE
  0
LINE
  5
1AAC
330
1F
100
AcDbEntity
  8
AM_7
  6
AM_ISO08W050x2
100
AcDbLine
 10
2203.275371165054
 20
1658.993379639453
 30
0.0
 11
2197.275371165054
 21
1658.993379639453
 31
0.0
1001
GENIUS_GENOREF_13
1005
1AAE
  0
LINE
  5
1AAD
330
1F
100
AcDbEntity
  8
AM_7
  6
AM_ISO08W050x2
100
AcDbLine
 10
2203.275371165054
 20
1658.993379639453
 30
0.0
 11
2203.275371165054
 21
1652.993379639454
 31
0.0
1001
GENIUS_GENOREF_13
1005
1AAE
  0
POINT
  5
1AAE
330
1F
100
AcDbEntity
  8
0
 60
     1
100
AcDbPoint
 10
0.0
 20
0.0
 30
0.0
1001
GENIUS_GENOENT_13
1002
{
1000
MYREF
1005
1AAE
1002
}
1002
{
1000
GRP
1005
0
1002
}
1001
GENIUS_GENODEF_13
1002
{
1000
HIER
1070
    10
1002
}
1002
{
1000
MANEDIT
1070
     0
1002
}
1002
{
1000
NOSEL
1070
     0
1002
}
1002
{
1000
BEHIND
1070
     0
1002
}
1002
{
1000
OTHER
1070
     0
1002
}
1002
{
1000
REACTOR
1002
}
1001
GENIUS_GENOBJ-N-CRS_13
1002
{
1000
OWNER
1000
GEN
1002
}
1001
GENIUS_GENOLIS_13
1002
{
1000
ENT
1005
1AAD
1005
1AAC
1005
1AAB
1005
1AAA
1002
}
  0
ARC
  5
1AC8
330
1F
100
AcDbEntity
  8
AM_4
100
AcDbCircle
 10
2330.671434291667
 20
1658.993379639453
 30
0.0
 40
2.5
100
AcDbArc
 50
259.9999999999939
 51
170.0000000000089
  0
CIRCLE
  5
1AC9
330
1F
100
AcDbEntity
  8
AM_0
100
AcDbCircle
 10
2330.671434291667
 20
1658.993379639453
 30
0.0
 40
2.066987298107819
  0
LINE
  5
1ACA
330
1F
100
AcDbEntity
  8
AM_7
  6
AM_ISO08W050x2
100
AcDbLine
 10
2327.171434291667
 20
1658.993379639453
 30
0.0
 11
2334.171434291667
 21
1658.993379639453
 31
0.0
  0
LINE
  5
1ACB
330
1F
100
AcDbEntity
  8
AM_7
  6
AM_ISO08W050x2
100
AcDbLine
 10
2330.671434291667
 20
1655.493379639453
 30
0.0
 11
2330.671434291667
 21
1662.493379639453
 31
0.0
  0
ARC
  5
1ACC
330
1F
100
AcDbEntity
  8
AM_4
100
AcDbCircle
 10
2330.671434291667
 20
1644.993379639453
 30
0.0
 40
2.5
100
AcDbArc
 50
259.9999999999939
 51
170.0000000000089
  0
CIRCLE
  5
1ACD
330
1F
100
AcDbEntity
  8
AM_0
100
AcDbCircle
 10
2330.671434291667
 20
1644.993379639453
 30
0.0
 40
2.066987298107819
  0
LINE
  5
1ACE
330
1F
100
AcDbEntity
  8
AM_7
  6
AM_ISO08W050x2
100
AcDbLine
 10
2327.171434291667
 20
1644.993379639453
 30
0.0
 11
2334.171434291667
 21
1644.993379639453
 31
0.0
  0
LINE
  5
1ACF
330
1F
100
AcDbEntity
  8
AM_7
  6
AM_ISO08W050x2
100
AcDbLine
 10
2330.671434291667
 20
1641.493379639453
 30
0.0
 11
2330.671434291667
 21
1648.493379639453
 31
0.0
  0
ARC
  5
1AD0
330
1F
100
AcDbEntity
  8
AM_4
100
AcDbCircle
 10
2354.671434291667
 20
1644.993379639453
 30
0.0
 40
2.5
100
AcDbArc
 50
259.9999999999939
 51
170.0000000000089
  0
CIRCLE
  5
1AD1
330
1F
100
AcDbEntity
  8
AM_0
100
AcDbCircle
 10
2354.671434291667
 20
1644.993379639453
 30
0.0
 40
2.066987298107819
  0
LINE
  5
1AD2
330
1F
100
AcDbEntity
  8
AM_7
  6
AM_ISO08W050x2
100
AcDbLine
 10
2351.171434291666
 20
1644.993379639453
 30
0.0
 11
2358.171434291667
 21
1644.993379639453
 31
0.0
  0
LINE
  5
1AD3
330
1F
100
AcDbEntity
  8
AM_7
  6
AM_ISO08W050x2
100
AcDbLine
 10
2354.671434291667
 20
1641.493379639453
 30
0.0
 11
2354.671434291667
 21
1648.493379639453
 31
0.0
  0
ARC
  5
1AD4
330
1F
100
AcDbEntity
  8
AM_4
100
AcDbCircle
 10
2354.671434291667
 20
1658.993379639453
 30
0.0
 40
2.5
100
AcDbArc
 50
259.9999999999939
 51
170.0000000000089
  0
CIRCLE
  5
1AD5
330
1F
100
AcDbEntity
  8
AM_0
100
AcDbCircle
 10
2354.671434291667
 20
1658.993379639453
 30
0.0
 40
2.066987298107819
  0
LINE
  5
1AD6
330
1F
100
AcDbEntity
  8
AM_7
  6
AM_ISO08W050x2
100
AcDbLine
 10
2351.171434291666
 20
1658.993379639453
 30
0.0
 11
2358.171434291667
 21
1658.993379639453
 31
0.0
  0
LINE
  5
1AD7
330
1F
100
AcDbEntity
  8
AM_7
  6
AM_ISO08W050x2
100
AcDbLine
 10
2354.671434291667
 20
1655.493379639453
 30
0.0
 11
2354.671434291667
 21
1662.493379639453
 31
0.0
  0
ARC
  5
1AF1
330
1F
100
AcDbEntity
  8
AM_4
100
AcDbCircle
 10
2315.671434291667
 20
1652.993379639454
 30
0.0
 40
2.5
100
AcDbArc
 50
259.9999999999939
 51
170.0000000000089
  0
CIRCLE
  5
1AF2
330
1F
100
AcDbEntity
  8
AM_0
100
AcDbCircle
 10
2315.671434291667
 20
1652.993379639454
 30
0.0
 40
2.066987298107819
  0
LINE
  5
1AF3
330
1F
100
AcDbEntity
  8
AM_7
  6
AM_ISO08W050x2
100
AcDbLine
 10
2312.171434291667
 20
1652.993379639454
 30
0.0
 11
2319.171434291666
 21
1652.993379639454
 31
0.0
  0
LINE
  5
1AF4
330
1F
100
AcDbEntity
  8
AM_7
  6
AM_ISO08W050x2
100
AcDbLine
 10
2315.671434291667
 20
1649.493379639453
 30
0.0
 11
2315.671434291667
 21
1656.493379639454
 31
0.0
  0
ARC
  5
1AF5
330
1F
100
AcDbEntity
  8
AM_4
100
AcDbCircle
 10
2315.671434291667
 20
1635.993379639453
 30
0.0
 40
2.5
100
AcDbArc
 50
259.9999999999939
 51
170.0000000000089
  0
CIRCLE
  5
1AF6
330
1F
100
AcDbEntity
  8
AM_0
100
AcDbCircle
 10
2315.671434291667
 20
1635.993379639453
 30
0.0
 40
2.066987298107819
  0
LINE
  5
1AF7
330
1F
100
AcDbEntity
  8
AM_7
  6
AM_ISO08W050x2
100
AcDbLine
 10
2312.171434291667
 20
1635.993379639453
 30
0.0
 11
2319.171434291666
 21
1635.993379639453
 31
0.0
  0
LINE
  5
1AF8
330
1F
100
AcDbEntity
  8
AM_7
  6
AM_ISO08W050x2
100
AcDbLine
 10
2315.671434291667
 20
1632.493379639453
 30
0.0
 11
2315.671434291667
 21
1639.493379639453
 31
0.0
  0
ARC
  5
1AF9
330
1F
100
AcDbEntity
  8
AM_4
100
AcDbCircle
 10
2369.671434291667
 20
1635.993379639453
 30
0.0
 40
2.5
100
AcDbArc
 50
259.9999999999939
 51
170.0000000000089
  0
CIRCLE
  5
1AFA
330
1F
100
AcDbEntity
  8
AM_0
100
AcDbCircle
 10
2369.671434291667
 20
1635.993379639453
 30
0.0
 40
2.066987298107819
  0
LINE
  5
1AFB
330
1F
100
AcDbEntity
  8
AM_7
  6
AM_ISO08W050x2
100
AcDbLine
 10
2366.171434291667
 20
1635.993379639453
 30
0.0
 11
2373.171434291667
 21
1635.993379639453
 31
0.0
  0
LINE
  5
1AFC
330
1F
100
AcDbEntity
  8
AM_7
  6
AM_ISO08W050x2
100
AcDbLine
 10
2369.671434291667
 20
1632.493379639453
 30
0.0
 11
2369.671434291667
 21
1639.493379639453
 31
0.0
  0
ARC
  5
1AFD
330
1F
100
AcDbEntity
  8
AM_4
100
AcDbCircle
 10
2369.671434291667
 20
1652.993379639454
 30
0.0
 40
2.5
100
AcDbArc
 50
259.9999999999939
 51
170.0000000000089
  0
CIRCLE
  5
1AFE
330
1F
100
AcDbEntity
  8
AM_0
100
AcDbCircle
 10
2369.671434291667
 20
1652.993379639454
 30
0.0
 40
2.066987298107819
  0
LINE
  5
1AFF
330
1F
100
AcDbEntity
  8
AM_7
  6
AM_ISO08W050x2
100
AcDbLine
 10
2366.171434291667
 20
1652.993379639454
 30
0.0
 11
2373.171434291667
 21
1652.993379639454
 31
0.0
  0
LINE
  5
1B00
330
1F
100
AcDbEntity
  8
AM_7
  6
AM_ISO08W050x2
100
AcDbLine
 10
2369.671434291667
 20
1649.493379639453
 30
0.0
 11
2369.671434291667
 21
1656.493379639454
 31
0.0
  0
ARC
  5
1B1B
330
1F
100
AcDbEntity
  8
AM_4
100
AcDbCircle
 10
2165.275371165054
 20
1708.958269770002
 30
0.0
 40
2.5
100
AcDbArc
 50
259.9999999999939
 51
170.0000000000089
  0
CIRCLE
  5
1B1C
330
1F
100
AcDbEntity
  8
AM_0
100
AcDbCircle
 10
2165.275371165054
 20
1708.958269770002
 30
0.0
 40
2.066987298107819
  0
LINE
  5
1B1D
330
1F
100
AcDbEntity
  8
AM_7
  6
AM_ISO08W050x2
100
AcDbLine
 10
2161.775371165054
 20
1708.958269770002
 30
0.0
 11
2168.775371165054
 21
1708.958269770002
 31
0.0
  0
LINE
  5
1B1E
330
1F
100
AcDbEntity
  8
AM_7
  6
AM_ISO08W050x2
100
AcDbLine
 10
2165.275371165054
 20
1705.458269770002
 30
0.0
 11
2165.275371165054
 21
1712.458269770001
 31
0.0
  0
ARC
  5
1B1F
330
1F
100
AcDbEntity
  8
AM_4
100
AcDbCircle
 10
2165.275371165054
 20
1724.958269770002
 30
0.0
 40
2.5
100
AcDbArc
 50
259.9999999999939
 51
170.0000000000089
  0
CIRCLE
  5
1B20
330
1F
100
AcDbEntity
  8
AM_0
100
AcDbCircle
 10
2165.275371165054
 20
1724.958269770002
 30
0.0
 40
2.066987298107819
  0
LINE
  5
1B21
330
1F
100
AcDbEntity
  8
AM_7
  6
AM_ISO08W050x2
100
AcDbLine
 10
2161.775371165054
 20
1724.958269770002
 30
0.0
 11
2168.775371165054
 21
1724.958269770002
 31
0.0
  0
LINE
  5
1B22
330
1F
100
AcDbEntity
  8
AM_7
  6
AM_ISO08W050x2
100
AcDbLine
 10
2165.275371165054
 20
1721.458269770002
 30
0.0
 11
2165.275371165054
 21
1728.458269770001
 31
0.0
  0
ARC
  5
1B23
330
1F
100
AcDbEntity
  8
AM_4
100
AcDbCircle
 10
2217.275371165054
 20
1724.958269770002
 30
0.0
 40
2.5
100
AcDbArc
 50
259.9999999999939
 51
170.0000000000089
  0
CIRCLE
  5
1B24
330
1F
100
AcDbEntity
  8
AM_0
100
AcDbCircle
 10
2217.275371165054
 20
1724.958269770002
 30
0.0
 40
2.066987298107819
  0
LINE
  5
1B25
330
1F
100
AcDbEntity
  8
AM_7
  6
AM_ISO08W050x2
100
AcDbLine
 10
2213.775371165054
 20
1724.958269770002
 30
0.0
 11
2220.775371165054
 21
1724.958269770002
 31
0.0
  0
LINE
  5
1B26
330
1F
100
AcDbEntity
  8
AM_7
  6
AM_ISO08W050x2
100
AcDbLine
 10
2217.275371165054
 20
1721.458269770002
 30
0.0
 11
2217.275371165054
 21
1728.458269770001
 31
0.0
  0
ARC
  5
1B27
330
1F
100
AcDbEntity
  8
AM_4
100
AcDbCircle
 10
2217.275371165054
 20
1708.958269770002
 30
0.0
 40
2.5
100
AcDbArc
 50
259.9999999999939
 51
170.0000000000089
  0
CIRCLE
  5
1B28
330
1F
100
AcDbEntity
  8
AM_0
100
AcDbCircle
 10
2217.275371165054
 20
1708.958269770002
 30
0.0
 40
2.066987298107819
  0
LINE
  5
1B29
330
1F
100
AcDbEntity
  8
AM_7
  6
AM_ISO08W050x2
100
AcDbLine
 10
2213.775371165054
 20
1708.958269770002
 30
0.0
 11
2220.775371165054
 21
1708.958269770002
 31
0.0
  0
LINE
  5
1B2A
330
1F
100
AcDbEntity
  8
AM_7
  6
AM_ISO08W050x2
100
AcDbLine
 10
2217.275371165054
 20
1705.458269770002
 30
0.0
 11
2217.275371165054
 21
1712.458269770001
 31
0.0
  0
LINE
  5
1B39
330
1F
100
AcDbEntity
  8
AM_7
  6
AM_ISO08W050x2
100
AcDbLine
 10
2168.275371165054
 20
1667.993379639453
 30
0.0
 11
2168.275371165054
 21
1661.993379639454
 31
0.0
1001
GENIUS_GENOBJ-N-CEN_13
1002
{
1000
OWNER
1000
GEN
1002
}
1001
GENIUS_GENODEF_13
1002
{
1000
HIER
1070
     0
1002
}
1002
{
1000
MANEDIT
1070
     0
1002
}
1002
{
1000
NOSEL
1070
     0
1002
}
1002
{
1000
BEHIND
1070
     0
1002
}
1002
{
1000
OTHER
1070
     0
1002
}
1002
{
1000
REACTOR
1002
}
1001
GENIUS_GENCEN_19
1002
{
1040
2.0
1002
}
  0
LINE
  5
1B3A
330
1F
100
AcDbEntity
  8
AM_7
  6
AM_ISO08W050x2
100
AcDbLine
 10
2214.275371165054
 20
1667.993379639453
 30
0.0
 11
2214.275371165054
 21
1661.993379639454
 31
0.0
1001
GENIUS_GENOBJ-N-CEN_13
1002
{
1000
OWNER
1000
GEN
1002
}
1001
GENIUS_GENODEF_13
1002
{
1000
HIER
1070
     0
1002
}
1002
{
1000
MANEDIT
1070
     0
1002
}
1002
{
1000
NOSEL
1070
     0
1002
}
1002
{
1000
BEHIND
1070
     0
1002
}
1002
{
1000
OTHER
1070
     0
1002
}
1002
{
1000
REACTOR
1002
}
1001
GENIUS_GENCEN_19
1002
{
1040
2.0
1002
}
  0
LINE
  5
1B3C
330
1F
100
AcDbEntity
  8
AM_7
  6
AM_ISO08W050x2
100
AcDbLine
 10
2112.505981099594
 20
1667.993379639453
 30
0.0
 11
2112.505981099594
 21
1661.993379639454
 31
0.0
1001
GENIUS_GENOBJ-N-CEN_13
1002
{
1000
OWNER
1000
GEN
1002
}
1001
GENIUS_GENODEF_13
1002
{
1000
HIER
1070
     0
1002
}
1002
{
1000
MANEDIT
1070
     0
1002
}
1002
{
1000
NOSEL
1070
     0
1002
}
1002
{
1000
BEHIND
1070
     0
1002
}
1002
{
1000
OTHER
1070
     0
1002
}
1002
{
1000
REACTOR
1002
}
1001
GENIUS_GENCEN_19
1002
{
1040
2.0
1002
}
  0
LINE
  5
1B3D
330
1F
100
AcDbEntity
  8
AM_7
  6
AM_ISO08W050x2
100
AcDbLine
 10
2269.603755032952
 20
1667.993379639453
 30
0.0
 11
2269.603755032952
 21
1661.993379639454
 31
0.0
1001
GENIUS_GENOBJ-N-CEN_13
1002
{
1000
OWNER
1000
GEN
1002
}
1001
GENIUS_GENODEF_13
1002
{
1000
HIER
1070
     0
1002
}
1002
{
1000
MANEDIT
1070
     0
1002
}
1002
{
1000
NOSEL
1070
     0
1002
}
1002
{
1000
BEHIND
1070
     0
1002
}
1002
{
1000
OTHER
1070
     0
1002
}
1002
{
1000
REACTOR
1002
}
1001
GENIUS_GENCEN_19
1002
{
1040
2.0
1002
}
  0
LINE
  5
1B40
330
1F
100
AcDbEntity
  8
AM_7
  6
AM_ISO08W050x2
100
AcDbLine
 10
2319.671434291667
 20
1667.993379639453
 30
0.0
 11
2319.671434291667
 21
1661.993379639454
 31
0.0
1001
GENIUS_GENOBJ-N-CEN_13
1002
{
1000
OWNER
1000
GEN
1002
}
1001
GENIUS_GENODEF_13
1002
{
1000
HIER
1070
     0
1002
}
1002
{
1000
MANEDIT
1070
     0
1002
}
1002
{
1000
NOSEL
1070
     0
1002
}
1002
{
1000
BEHIND
1070
     0
1002
}
1002
{
1000
OTHER
1070
     0
1002
}
1002
{
1000
REACTOR
1002
}
1001
GENIUS_GENCEN_19
1002
{
1040
2.0
1002
}
  0
LINE
  5
1B41
330
1F
100
AcDbEntity
  8
AM_7
  6
AM_ISO08W050x2
100
AcDbLine
 10
2365.671434291667
 20
1667.993379639453
 30
0.0
 11
2365.671434291667
 21
1661.993379639454
 31
0.0
1001
GENIUS_GENOBJ-N-CEN_13
1002
{
1000
OWNER
1000
GEN
1002
}
1001
GENIUS_GENODEF_13
1002
{
1000
HIER
1070
     0
1002
}
1002
{
1000
MANEDIT
1070
     0
1002
}
1002
{
1000
NOSEL
1070
     0
1002
}
1002
{
1000
BEHIND
1070
     0
1002
}
1002
{
1000
OTHER
1070
     0
1002
}
1002
{
1000
REACTOR
1002
}
1001
GENIUS_GENCEN_19
1002
{
1040
2.0
1002
}
  0
LINE
  5
1B4E
330
1F
100
AcDbEntity
  8
AM_7
  6
AM_ISO08W050x2
100
AcDbLine
 10
2342.671434291667
 20
1661.993379639454
 30
0.0
 11
2342.671434291667
 21
1667.993379639453
 31
0.0
1001
GENIUS_GENODEF_13
1002
{
1000
HIER
1070
     0
1002
}
1002
{
1000
MANEDIT
1070
     0
1002
}
1002
{
1000
NOSEL
1070
     0
1002
}
1002
{
1000
BEHIND
1070
     0
1002
}
1002
{
1000
OTHER
1070
     0
1002
}
1002
{
1000
REACTOR
1002
}
1001
GENIUS_GENOBJ-N-CEN_13
1002
{
1000
OWNER
1000
GEN
1002
}
1001
GENIUS_GENCEN_19
1002
{
1040
2.0
1002
}
  0
LINE
  5
1B4F
330
1F
100
AcDbEntity
  8
AM_7
  6
AM_ISO08W050x2
100
AcDbLine
 10
2191.275371165054
 20
1661.993379639454
 30
0.0
 11
2191.275371165054
 21
1667.993379639453
 31
0.0
1001
GENIUS_GENODEF_13
1002
{
1000
HIER
1070
     0
1002
}
1002
{
1000
MANEDIT
1070
     0
1002
}
1002
{
1000
NOSEL
1070
     0
1002
}
1002
{
1000
BEHIND
1070
     0
1002
}
1002
{
1000
OTHER
1070
     0
1002
}
1002
{
1000
REACTOR
1002
}
1001
GENIUS_GENOBJ-N-CEN_13
1002
{
1000
OWNER
1000
GEN
1002
}
1001
GENIUS_GENCEN_19
1002
{
1040
2.0
1002
}
  0
CIRCLE
  5
1B69
330
1F
100
AcDbEntity
  8
0
100
AcDbCircle
 10
2168.275371165054
 20
1565.572507952017
 30
0.0
 40
5.0
  0
CIRCLE
  5
1B6A
330
1F
100
AcDbEntity
  8
0
100
AcDbCircle
 10
2214.275371165054
 20
1565.572507952017
 30
0.0
 40
5.0
  0
ARC
  5
1B84
330
1F
100
AcDbEntity
  8
AM_4
100
AcDbCircle
 10
2170.275371165054
 20
1576.572507952017
 30
0.0
 40
2.5
100
AcDbArc
 50
259.9999999999939
 51
170.0000000000089
  0
CIRCLE
  5
1B85
330
1F
100
AcDbEntity
  8
AM_0
100
AcDbCircle
 10
2170.275371165054
 20
1576.572507952017
 30
0.0
 40
2.066987298107819
  0
LINE
  5
1B86
330
1F
100
AcDbEntity
  8
AM_7
  6
AM_ISO08W050x2
100
AcDbLine
 10
2166.775371165054
 20
1576.572507952017
 30
0.0
 11
2173.775371165054
 21
1576.572507952017
 31
0.0
  0
LINE
  5
1B87
330
1F
100
AcDbEntity
  8
AM_7
  6
AM_ISO08W050x2
100
AcDbLine
 10
2170.275371165054
 20
1573.072507952017
 30
0.0
 11
2170.275371165054
 21
1580.072507952017
 31
0.0
  0
ARC
  5
1B88
330
1F
100
AcDbEntity
  8
AM_4
100
AcDbCircle
 10
2170.275371165054
 20
1554.572507952017
 30
0.0
 40
2.5
100
AcDbArc
 50
259.9999999999939
 51
170.0000000000089
  0
CIRCLE
  5
1B89
330
1F
100
AcDbEntity
  8
AM_0
100
AcDbCircle
 10
2170.275371165054
 20
1554.572507952017
 30
0.0
 40
2.066987298107819
  0
LINE
  5
1B8A
330
1F
100
AcDbEntity
  8
AM_7
  6
AM_ISO08W050x2
100
AcDbLine
 10
2166.775371165054
 20
1554.572507952017
 30
0.0
 11
2173.775371165054
 21
1554.572507952017
 31
0.0
  0
LINE
  5
1B8B
102
{ACAD_REACTORS
330
2494
102
}
330
1F
100
AcDbEntity
  8
AM_7
  6
AM_ISO08W050x2
100
AcDbLine
 10
2170.275371165054
 20
1551.072507952017
 30
0.0
 11
2170.275371165054
 21
1558.072507952017
 31
0.0
  0
ARC
  5
1B8C
330
1F
100
AcDbEntity
  8
AM_4
100
AcDbCircle
 10
2212.275371165054
 20
1554.572507952017
 30
0.0
 40
2.5
100
AcDbArc
 50
259.9999999999939
 51
170.0000000000089
  0
CIRCLE
  5
1B8D
330
1F
100
AcDbEntity
  8
AM_0
100
AcDbCircle
 10
2212.275371165054
 20
1554.572507952017
 30
0.0
 40
2.066987298107819
  0
LINE
  5
1B8E
102
{ACAD_REACTORS
330
24E8
102
}
330
1F
100
AcDbEntity
  8
AM_7
  6
AM_ISO08W050x2
100
AcDbLine
 10
2208.775371165054
 20
1554.572507952017
 30
0.0
 11
2215.775371165054
 21
1554.572507952017
 31
0.0
  0
LINE
  5
1B8F
102
{ACAD_REACTORS
330
24BE
102
}
330
1F
100
AcDbEntity
  8
AM_7
  6
AM_ISO08W050x2
100
AcDbLine
 10
2212.275371165054
 20
1551.072507952017
 30
0.0
 11
2212.275371165054
 21
1558.072507952017
 31
0.0
  0
ARC
  5
1B90
330
1F
100
AcDbEntity
  8
AM_4
100
AcDbCircle
 10
2212.275371165054
 20
1576.572507952017
 30
0.0
 40
2.5
100
AcDbArc
 50
259.9999999999939
 51
170.0000000000089
  0
CIRCLE
  5
1B91
330
1F
100
AcDbEntity
  8
AM_0
100
AcDbCircle
 10
2212.275371165054
 20
1576.572507952017
 30
0.0
 40
2.066987298107819
  0
LINE
  5
1B92
102
{ACAD_REACTORS
330
2512
102
}
330
1F
100
AcDbEntity
  8
AM_7
  6
AM_ISO08W050x2
100
AcDbLine
 10
2208.775371165054
 20
1576.572507952017
 30
0.0
 11
2215.775371165054
 21
1576.572507952017
 31
0.0
  0
LINE
  5
1B93
330
1F
100
AcDbEntity
  8
AM_7
  6
AM_ISO08W050x2
100
AcDbLine
 10
2212.275371165054
 20
1573.072507952017
 30
0.0
 11
2212.275371165054
 21
1580.072507952017
 31
0.0
  0
CIRCLE
  5
1BA9
102
{ACAD_REACTORS
330
2494
330
24BE
102
}
330
1F
100
AcDbEntity
  8
0
100
AcDbCircle
 10
2191.275371165054
 20
1565.572507952017
 30
0.0
 40
9.0
  0
LINE
  5
1BB7
330
1F
100
AcDbEntity
  8
AM_7
  6
AM_ISO08W050x2
100
AcDbLine
 10
2168.275371165054
 20
1565.572507952017
 30
0.0
 11
2175.275371165054
 21
1565.572507952017
 31
0.0
1001
GENIUS_GENOREF_13
1005
1BBB
  0
LINE
  5
1BB8
330
1F
100
AcDbEntity
  8
AM_7
  6
AM_ISO08W050x2
100
AcDbLine
 10
2168.275371165054
 20
1565.572507952017
 30
0.0
 11
2168.275371165054
 21
1572.572507952017
 31
0.0
1001
GENIUS_GENOREF_13
1005
1BBB
  0
LINE
  5
1BB9
330
1F
100
AcDbEntity
  8
AM_7
  6
AM_ISO08W050x2
100
AcDbLine
 10
2168.275371165054
 20
1565.572507952017
 30
0.0
 11
2161.275371165054
 21
1565.572507952017
 31
0.0
1001
GENIUS_GENOREF_13
1005
1BBB
  0
LINE
  5
1BBA
330
1F
100
AcDbEntity
  8
AM_7
  6
AM_ISO08W050x2
100
AcDbLine
 10
2168.275371165054
 20
1565.572507952017
 30
0.0
 11
2168.275371165054
 21
1558.572507952017
 31
0.0
1001
GENIUS_GENOREF_13
1005
1BBB
  0
POINT
  5
1BBB
330
1F
100
AcDbEntity
  8
0
 60
     1
100
AcDbPoint
 10
0.0
 20
0.0
 30
0.0
1001
GENIUS_GENOBJ-N-CRS_13
1002
{
1000
OWNER
1000
GEN
1002
}
1001
GENIUS_GENOENT_13
1002
{
1000
MYREF
1005
1BBB
1002
}
1002
{
1000
GRP
1005
0
1002
}
1001
GENIUS_GENOLIS_13
1002
{
1000
ENT
1005
1BBA
1005
1BB9
1005
1BB8
1005
1BB7
1002
}
1001
GENIUS_GENODEF_13
1002
{
1000
HIER
1070
    10
1002
}
1002
{
1000
MANEDIT
1070
     0
1002
}
1002
{
1000
NOSEL
1070
     0
1002
}
1002
{
1000
BEHIND
1070
     0
1002
}
1002
{
1000
OTHER
1070
     0
1002
}
1002
{
1000
REACTOR
1002
}
  0
LINE
  5
1BC9
102
{ACAD_REACTORS
330
24E8
330
2512
102
}
330
1F
100
AcDbEntity
  8
AM_7
  6
AM_ISO08W050x2
100
AcDbLine
 10
2214.275371165054
 20
1565.572507952017
 30
0.0
 11
2221.275371165054
 21
1565.572507952017
 31
0.0
1001
GENIUS_GENOREF_13
1005
1BCD
  0
LINE
  5
1BCA
330
1F
100
AcDbEntity
  8
AM_7
  6
AM_ISO08W050x2
100
AcDbLine
 10
2214.275371165054
 20
1565.572507952017
 30
0.0
 11
2214.275371165054
 21
1572.572507952017
 31
0.0
1001
GENIUS_GENOREF_13
1005
1BCD
  0
LINE
  5
1BCB
330
1F
100
AcDbEntity
  8
AM_7
  6
AM_ISO08W050x2
100
AcDbLine
 10
2214.275371165054
 20
1565.572507952017
 30
0.0
 11
2207.275371165054
 21
1565.572507952017
 31
0.0
1001
GENIUS_GENOREF_13
1005
1BCD
  0
LINE
  5
1BCC
330
1F
100
AcDbEntity
  8
AM_7
  6
AM_ISO08W050x2
100
AcDbLine
 10
2214.275371165054
 20
1565.572507952017
 30
0.0
 11
2214.275371165054
 21
1558.572507952017
 31
0.0
1001
GENIUS_GENOREF_13
1005
1BCD
  0
POINT
  5
1BCD
330
1F
100
AcDbEntity
  8
0
 60
     1
100
AcDbPoint
 10
0.0
 20
0.0
 30
0.0
1001
GENIUS_GENOLIS_13
1002
{
1000
ENT
1005
1BCC
1005
1BCB
1005
1BCA
1005
1BC9
1002
}
1001
GENIUS_GENODEF_13
1002
{
1000
HIER
1070
    10
1002
}
1002
{
1000
MANEDIT
1070
     0
1002
}
1002
{
1000
NOSEL
1070
     0
1002
}
1002
{
1000
BEHIND
1070
     0
1002
}
1002
{
1000
OTHER
1070
     0
1002
}
1002
{
1000
REACTOR
1002
}
1001
GENIUS_GENOBJ-N-CRS_13
1002
{
1000
OWNER
1000
GEN
1002
}
1001
GENIUS_GENOENT_13
1002
{
1000
MYREF
1005
1BCD
1002
}
1002
{
1000
GRP
1005
0
1002
}
  0
LINE
  5
1BD8
330
1F
100
AcDbEntity
  8
0
 62
     2
100
AcDbLine
 10
2173.275371165054
 20
1622.993379639454
 30
0.0
 11
2173.275371165054
 21
1601.993379639453
 31
0.0
  0
LINE
  5
1BD9
330
1F
100
AcDbEntity
  8
0
 62
     2
100
AcDbLine
 10
2163.275371165054
 20
1622.993379639454
 30
0.0
 11
2163.275371165054
 21
1601.993379639453
 31
0.0
  0
LINE
  5
1BDA
330
1F
100
AcDbEntity
  8
AM_7
  6
AM_ISO08W050x2
100
AcDbLine
 10
2168.275371165054
 20
1623.993379639454
 30
0.0
 11
2168.275371165054
 21
1600.993379639454
 31
0.0
1001
GENIUS_GENODEF_13
1002
{
1000
HIER
1070
     0
1002
}
1002
{
1000
MANEDIT
1070
     0
1002
}
1002
{
1000
NOSEL
1070
     0
1002
}
1002
{
1000
BEHIND
1070
     0
1002
}
1002
{
1000
OTHER
1070
     0
1002
}
1002
{
1000
REACTOR
1002
}
1001
GENIUS_GENOBJ-N-CEN_13
1002
{
1000
OWNER
1000
GEN
1002
}
1001
GENIUS_GENCEN_19
1002
{
1040
1.0
1002
}
  0
LINE
  5
1BDB
330
1F
100
AcDbEntity
  8
0
 62
     2
100
AcDbLine
 10
2163.275371165054
 20
1601.993379639453
 30
0.0
 11
2173.275371165054
 21
1601.993379639453
 31
0.0
  0
LINE
  5
1BDC
330
1F
100
AcDbEntity
  8
0
 62
     2
100
AcDbLine
 10
2209.275371165054
 20
1622.993379639454
 30
0.0
 11
2209.275371165054
 21
1601.993379639453
 31
0.0
  0
LINE
  5
1BDD
330
1F
100
AcDbEntity
  8
0
 62
     2
100
AcDbLine
 10
2219.275371165053
 20
1622.993379639454
 30
0.0
 11
2219.275371165053
 21
1601.993379639453
 31
0.0
  0
LINE
  5
1BDE
330
1F
100
AcDbEntity
  8
AM_7
  6
AM_ISO08W050x2
100
AcDbLine
 10
2214.275371165054
 20
1623.993379639454
 30
0.0
 11
2214.275371165054
 21
1600.993379639454
 31
0.0
1001
GENIUS_GENODEF_13
1002
{
1000
HIER
1070
     0
1002
}
1002
{
1000
MANEDIT
1070
     0
1002
}
1002
{
1000
NOSEL
1070
     0
1002
}
1002
{
1000
BEHIND
1070
     0
1002
}
1002
{
1000
OTHER
1070
     0
1002
}
1002
{
1000
REACTOR
1002
}
1001
GENIUS_GENOBJ-N-CEN_13
1002
{
1000
OWNER
1000
GEN
1002
}
1001
GENIUS_GENCEN_19
1002
{
1040
1.0
1002
}
  0
LINE
  5
1BDF
330
1F
100
AcDbEntity
  8
0
 62
     2
100
AcDbLine
 10
2219.275371165053
 20
1601.993379639453
 30
0.0
 11
2209.275371165054
 21
1601.993379639453
 31
0.0
  0
LINE
  5
1BE0
330
1F
100
AcDbEntity
  8
0
 62
     2
100
AcDbLine
 10
2324.671434291667
 20
1622.993379639454
 30
0.0
 11
2324.671434291667
 21
1601.993379639453
 31
0.0
  0
LINE
  5
1BE1
330
1F
100
AcDbEntity
  8
0
 62
     2
100
AcDbLine
 10
2314.671434291667
 20
1622.993379639454
 30
0.0
 11
2314.671434291667
 21
1601.993379639453
 31
0.0
  0
LINE
  5
1BE2
330
1F
100
AcDbEntity
  8
AM_7
  6
AM_ISO08W050x2
100
AcDbLine
 10
2319.671434291667
 20
1623.993379639454
 30
0.0
 11
2319.671434291667
 21
1600.993379639454
 31
0.0
1001
GENIUS_GENODEF_13
1002
{
1000
HIER
1070
     0
1002
}
1002
{
1000
MANEDIT
1070
     0
1002
}
1002
{
1000
NOSEL
1070
     0
1002
}
1002
{
1000
BEHIND
1070
     0
1002
}
1002
{
1000
OTHER
1070
     0
1002
}
1002
{
1000
REACTOR
1002
}
1001
GENIUS_GENOBJ-N-CEN_13
1002
{
1000
OWNER
1000
GEN
1002
}
1001
GENIUS_GENCEN_19
1002
{
1040
1.0
1002
}
  0
LINE
  5
1BE3
330
1F
100
AcDbEntity
  8
0
 62
     2
100
AcDbLine
 10
2314.671434291667
 20
1601.993379639453
 30
0.0
 11
2324.671434291667
 21
1601.993379639453
 31
0.0
  0
LINE
  5
1BE4
330
1F
100
AcDbEntity
  8
0
 62
     2
100
AcDbLine
 10
2360.671434291666
 20
1622.993379639454
 30
0.0
 11
2360.671434291666
 21
1601.993379639453
 31
0.0
  0
LINE
  5
1BE5
330
1F
100
AcDbEntity
  8
0
 62
     2
100
AcDbLine
 10
2370.671434291666
 20
1622.993379639454
 30
0.0
 11
2370.671434291666
 21
1601.993379639453
 31
0.0
  0
LINE
  5
1BE6
330
1F
100
AcDbEntity
  8
AM_7
  6
AM_ISO08W050x2
100
AcDbLine
 10
2365.671434291666
 20
1623.993379639454
 30
0.0
 11
2365.671434291666
 21
1600.993379639454
 31
0.0
1001
GENIUS_GENODEF_13
1002
{
1000
HIER
1070
     0
1002
}
1002
{
1000
MANEDIT
1070
     0
1002
}
1002
{
1000
NOSEL
1070
     0
1002
}
1002
{
1000
BEHIND
1070
     0
1002
}
1002
{
1000
OTHER
1070
     0
1002
}
1002
{
1000
REACTOR
1002
}
1001
GENIUS_GENOBJ-N-CEN_13
1002
{
1000
OWNER
1000
GEN
1002
}
1001
GENIUS_GENCEN_19
1002
{
1040
1.0
1002
}
  0
LINE
  5
1BE7
330
1F
100
AcDbEntity
  8
0
 62
     2
100
AcDbLine
 10
2370.671434291666
 20
1601.993379639453
 30
0.0
 11
2360.671434291666
 21
1601.993379639453
 31
0.0
  0
LINE
  5
1BFC
330
1F
100
AcDbEntity
  8
0
 62
     2
100
AcDbLine
 10
2117.505981099593
 20
1622.993379639454
 30
0.0
 11
2117.505981099593
 21
1601.993379639453
 31
0.0
  0
LINE
  5
1BFD
330
1F
100
AcDbEntity
  8
0
 62
     2
100
AcDbLine
 10
2107.505981099594
 20
1622.993379639454
 30
0.0
 11
2107.505981099594
 21
1601.993379639453
 31
0.0
  0
LINE
  5
1BFE
330
1F
100
AcDbEntity
  8
AM_7
  6
AM_ISO08W050x2
100
AcDbLine
 10
2112.505981099594
 20
1623.993379639454
 30
0.0
 11
2112.505981099594
 21
1600.993379639454
 31
0.0
1001
GENIUS_GENODEF_13
1002
{
1000
HIER
1070
     0
1002
}
1002
{
1000
MANEDIT
1070
     0
1002
}
1002
{
1000
NOSEL
1070
     0
1002
}
1002
{
1000
BEHIND
1070
     0
1002
}
1002
{
1000
OTHER
1070
     0
1002
}
1002
{
1000
REACTOR
1002
}
1001
GENIUS_GENOBJ-N-CEN_13
1002
{
1000
OWNER
1000
GEN
1002
}
1001
GENIUS_GENCEN_19
1002
{
1040
1.0
1002
}
  0
LINE
  5
1BFF
330
1F
100
AcDbEntity
  8
0
 62
     2
100
AcDbLine
 10
2107.505981099594
 20
1601.993379639453
 30
0.0
 11
2117.505981099593
 21
1601.993379639453
 31
0.0
  0
LINE
  5
1C00
330
1F
100
AcDbEntity
  8
0
 62
     2
100
AcDbLine
 10
2264.603755032952
 20
1622.993379639454
 30
0.0
 11
2264.603755032952
 21
1601.993379639453
 31
0.0
  0
LINE
  5
1C01
330
1F
100
AcDbEntity
  8
0
 62
     2
100
AcDbLine
 10
2274.603755032952
 20
1622.993379639454
 30
0.0
 11
2274.603755032952
 21
1601.993379639453
 31
0.0
  0
LINE
  5
1C02
330
1F
100
AcDbEntity
  8
AM_7
  6
AM_ISO08W050x2
100
AcDbLine
 10
2269.603755032952
 20
1623.993379639454
 30
0.0
 11
2269.603755032952
 21
1600.993379639454
 31
0.0
1001
GENIUS_GENODEF_13
1002
{
1000
HIER
1070
     0
1002
}
1002
{
1000
MANEDIT
1070
     0
1002
}
1002
{
1000
NOSEL
1070
     0
1002
}
1002
{
1000
BEHIND
1070
     0
1002
}
1002
{
1000
OTHER
1070
     0
1002
}
1002
{
1000
REACTOR
1002
}
1001
GENIUS_GENOBJ-N-CEN_13
1002
{
1000
OWNER
1000
GEN
1002
}
1001
GENIUS_GENCEN_19
1002
{
1040
1.0
1002
}
  0
LINE
  5
1C03
330
1F
100
AcDbEntity
  8
0
 62
     2
100
AcDbLine
 10
2274.603755032952
 20
1601.993379639453
 30
0.0
 11
2264.603755032952
 21
1601.993379639453
 31
0.0
  0
LINE
  5
1C04
330
1F
100
AcDbEntity
  8
AM_7
  6
AM_ISO08W050x2
100
AcDbLine
 10
2269.603755032952
 20
1667.993379639453
 30
0.0
 11
2269.603755032952
 21
1661.993379639454
 31
0.0
1001
GENIUS_GENOBJ-N-CEN_13
1002
{
1000
OWNER
1000
GEN
1002
}
1001
GENIUS_GENODEF_13
1002
{
1000
HIER
1070
     0
1002
}
1002
{
1000
MANEDIT
1070
     0
1002
}
1002
{
1000
NOSEL
1070
     0
1002
}
1002
{
1000
BEHIND
1070
     0
1002
}
1002
{
1000
OTHER
1070
     0
1002
}
1002
{
1000
REACTOR
1002
}
1001
GENIUS_GENCEN_19
1002
{
1040
2.0
1002
}
  0
DIMENSION
  5
1C06
330
1F
100
AcDbEntity
  8
AM_5
100
AcDbDimension
  2
*D2
 10
2242.275371165055
 20
1622.993379639454
 30
0.0
 11
2242.275371165054
 21
1613.993379639454
 31
0.0
 70
   160
  1
L2
 71
     5
 42
21.0
  3
AM_ISO$0
100
AcDbAlignedDimension
 13
2219.275371165053
 23
1601.993379639453
 33
0.0
 14
2223.275371165054
 24
1622.993379639454
 34
0.0
 50
90.0
100
AcDbRotatedDimension
1001
ACAD
1000
DSTYLE
1002
{
1070
    40
1040
1.0
1070
   144
1040
1.0
1070
   272
1070
     8
1002
}
  0
DIMENSION
  5
1C09
330
1F
100
AcDbEntity
  8
AM_5
100
AcDbDimension
  2
*D3
 10
2235.275371165054
 20
1663.993379639453
 30
0.0
 11
2232.775371165053
 21
1643.493379639454
 31
0.0
 70
    32
  1
L1
 71
     5
 42
41.0
  3
AM_ISO$0
100
AcDbAlignedDimension
 13
2223.275371165054
 23
1622.993379639454
 33
0.0
 14
2223.275371165054
 24
1663.993379639453
 34
0.0
 50
90.0
100
AcDbRotatedDimension
1001
ACAD
1000
DSTYLE
1002
{
1070
    40
1040
1.0
1070
   144
1040
1.0
1070
   272
1070
     8
1002
}
  0
DIMENSION
  5
1C0C
330
1F
100
AcDbEntity
  8
AM_5
100
AcDbDimension
  2
*D4
 10
2242.275371165054
 20
1675.993379639454
 30
0.0
 11
2239.775371165054
 21
1649.493379639454
 31
0.0
 70
    32
  1
L
 71
     5
 42
53.0
  3
AM_ISO$0
100
AcDbAlignedDimension
 13
2223.275371165054
 23
1622.993379639454
 33
0.0
 14
2221.775371165054
 24
1675.993379639454
 34
0.0
 50
90.0
100
AcDbRotatedDimension
1001
ACAD
1000
DSTYLE
1002
{
1070
    40
1040
1.0
1070
   144
1040
1.0
1070
   272
1070
     8
1002
}
  0
LINE
  5
1C7F
330
1F
100
AcDbEntity
  8
AM_VIS
100
AcDbLine
 10
2195.275371165054
 20
1419.870545156516
 30
0.0
 11
2195.275371165054
 21
1421.870545156516
 31
0.0
  0
LINE
  5
1C80
330
1F
100
AcDbEntity
  8
AM_VIS
100
AcDbLine
 10
2187.275371165054
 20
1419.870545156516
 30
0.0
 11
2187.275371165054
 21
1421.870545156516
 31
0.0
  0
LINE
  5
1C81
330
1F
100
AcDbEntity
  8
AM_VIS
100
AcDbLine
 10
2160.775371165054
 20
1431.870545156516
 30
0.0
 11
2160.525371165054
 21
1431.620545156516
 31
0.0
  0
LINE
  5
1C82
330
1F
100
AcDbEntity
  8
AM_VIS
100
AcDbLine
 10
2222.025371165054
 20
1431.620545156516
 30
0.0
 11
2222.275371165054
 21
1431.370545156516
 31
0.0
  0
LINE
  5
1C83
330
1F
100
AcDbEntity
  8
AM_VIS
100
AcDbLine
 10
2221.775371165054
 20
1431.870545156516
 30
0.0
 11
2222.025371165054
 21
1431.620545156516
 31
0.0
  0
LINE
  5
1C84
330
1F
100
AcDbEntity
  8
AM_VIS
100
AcDbLine
 10
2222.275371165054
 20
1422.370545156516
 30
0.0
 11
2222.275371165054
 21
1431.370545156516
 31
0.0
  0
LINE
  5
1C85
330
1F
100
AcDbEntity
  8
AM_VIS
100
AcDbLine
 10
2222.275371165054
 20
1422.370545156516
 30
0.0
 11
2222.025371165054
 21
1422.120545156516
 31
0.0
  0
LINE
  5
1C86
330
1F
100
AcDbEntity
  8
AM_VIS
100
AcDbLine
 10
2160.275371165054
 20
1431.370545156516
 30
0.0
 11
2160.275371165054
 21
1422.370545156516
 31
0.0
  0
LINE
  5
1C87
330
1F
100
AcDbEntity
  8
AM_VIS
100
AcDbLine
 10
2160.275371165054
 20
1431.370545156516
 30
0.0
 11
2160.525371165054
 21
1431.620545156516
 31
0.0
  0
LINE
  5
1C88
330
1F
100
AcDbEntity
  8
AM_VIS
100
AcDbLine
 10
2221.775371165054
 20
1421.870545156516
 30
0.0
 11
2222.025371165054
 21
1422.120545156516
 31
0.0
  0
LINE
  5
1C89
330
1F
100
AcDbEntity
  8
AM_VIS
100
AcDbLine
 10
2160.775371165054
 20
1421.870545156516
 30
0.0
 11
2160.525371165054
 21
1422.120545156516
 31
0.0
  0
LINE
  5
1C8A
330
1F
100
AcDbEntity
  8
AM_VIS
100
AcDbLine
 10
2160.525371165054
 20
1422.120545156516
 30
0.0
 11
2160.275371165054
 21
1422.370545156516
 31
0.0
  0
LINE
  5
1C8B
330
1F
100
AcDbEntity
  8
AM_VIS
100
AcDbLine
 10
2221.775371165054
 20
1431.870545156516
 30
0.0
 11
2160.775371165054
 21
1431.870545156516
 31
0.0
  0
LINE
  5
1C8C
330
1F
100
AcDbEntity
  8
AM_VIS
100
AcDbLine
 10
2160.775371165054
 20
1421.870545156516
 30
0.0
 11
2221.775371165054
 21
1421.870545156516
 31
0.0
  0
LINE
  5
1C8D
330
1F
100
AcDbEntity
  8
AM_VIS
100
AcDbLine
 10
2203.275371165054
 20
1410.870545156516
 30
0.0
 11
2203.275371165054
 21
1404.870545156516
 31
0.0
  0
LINE
  5
1C8E
330
1F
100
AcDbEntity
  8
AM_VIS
100
AcDbLine
 10
2179.275371165054
 20
1396.870545156516
 30
0.0
 11
2179.275371165054
 21
1378.870545156516
 31
0.0
  0
LINE
  5
1C8F
330
1F
100
AcDbEntity
  8
AM_VIS
100
AcDbLine
 10
2182.275371165054
 20
1398.224793845451
 30
0.0
 11
2182.275371165054
 21
1378.870545156516
 31
0.0
  0
LINE
  5
1C90
330
1F
100
AcDbEntity
  8
AM_VIS
100
AcDbLine
 10
2200.275371165054
 20
1403.516296467581
 30
0.0
 11
2200.275371165054
 21
1412.224793845451
 31
0.0
  0
LINE
  5
1C91
330
1F
100
AcDbEntity
  8
AM_VIS
100
AcDbLine
 10
2197.775371165054
 20
1419.870545156516
 30
0.0
 11
2197.775371165054
 21
1378.870545156516
 31
0.0
  0
LINE
  5
1C92
330
1F
100
AcDbEntity
  8
AM_VIS
100
AcDbLine
 10
2184.775371165054
 20
1378.870545156516
 30
0.0
 11
2184.775371165054
 21
1419.870545156516
 31
0.0
  0
LINE
  5
1C93
330
1F
100
AcDbEntity
  8
AM_VIS
100
AcDbLine
 10
2196.975371165054
 20
1419.870545156516
 30
0.0
 11
2196.975371165054
 21
1378.870545156516
 31
0.0
  0
LINE
  5
1C94
330
1F
100
AcDbEntity
  8
AM_VIS
100
AcDbLine
 10
2193.575371165054
 20
1378.870545156516
 30
0.0
 11
2193.575371165054
 21
1419.870545156516
 31
0.0
  0
LINE
  5
1C95
330
1F
100
AcDbEntity
  8
AM_VIS
100
AcDbLine
 10
2188.975371165054
 20
1419.870545156516
 30
0.0
 11
2188.975371165054
 21
1378.870545156516
 31
0.0
  0
LINE
  5
1C96
330
1F
100
AcDbEntity
  8
AM_VIS
100
AcDbLine
 10
2185.575371165054
 20
1378.870545156516
 30
0.0
 11
2185.575371165054
 21
1419.870545156516
 31
0.0
  0
LINE
  5
1C97
330
1F
100
AcDbEntity
  8
AM_VIS
100
AcDbLine
 10
2223.275371165054
 20
1378.870545156516
 30
0.0
 11
2223.275371165054
 21
1419.870545156516
 31
0.0
  0
LINE
  5
1C98
330
1F
100
AcDbEntity
  8
AM_VIS
100
AcDbLine
 10
2182.275371165054
 20
1419.870545156516
 30
0.0
 11
2182.275371165054
 21
1417.51629646758
 31
0.0
  0
LINE
  5
1C99
330
1F
100
AcDbEntity
  8
AM_VIS
100
AcDbLine
 10
2179.275371165054
 20
1419.870545156516
 30
0.0
 11
2179.275371165054
 21
1418.870545156516
 31
0.0
  0
ARC
  5
1C9A
330
1F
100
AcDbEntity
  8
AM_VIS
100
AcDbCircle
 10
2179.275371165054
 20
1414.870545156516
 30
0.0
 40
4.0
100
AcDbArc
 50
90.0
 51
138.5903778907302
  0
ARC
  5
1C9B
330
1F
100
AcDbEntity
  8
AM_VIS
100
AcDbCircle
 10
2179.275371165054
 20
1414.870545156516
 30
0.0
 40
4.0
100
AcDbArc
 50
41.40962210926974
 51
90.0
  0
LINE
  5
1C9C
330
1F
100
AcDbEntity
  8
AM_VIS
100
AcDbLine
 10
2200.275371165054
 20
1417.51629646758
 30
0.0
 11
2200.275371165054
 21
1419.870545156516
 31
0.0
  0
LINE
  5
1C9D
330
1F
100
AcDbEntity
  8
AM_VIS
100
AcDbLine
 10
2200.275371165054
 20
1378.870545156516
 30
0.0
 11
2200.275371165054
 21
1398.224793845451
 31
0.0
  0
LINE
  5
1C9E
330
1F
100
AcDbEntity
  8
AM_VIS
100
AcDbLine
 10
2203.275371165054
 20
1419.870545156516
 30
0.0
 11
2203.275371165054
 21
1418.870545156516
 31
0.0
  0
LINE
  5
1C9F
330
1F
100
AcDbEntity
  8
AM_VIS
100
AcDbLine
 10
2203.275371165054
 20
1396.870545156516
 30
0.0
 11
2203.275371165054
 21
1378.870545156516
 31
0.0
  0
LINE
  5
1CA0
330
1F
100
AcDbEntity
  8
AM_VIS
100
AcDbLine
 10
2206.275371165054
 20
1412.224793845451
 30
0.0
 11
2206.275371165054
 21
1403.51629646758
 31
0.0
  0
LINE
  5
1CA1
330
1F
100
AcDbEntity
  8
AM_VIS
100
AcDbLine
 10
2206.275371165054
 20
1419.870545156516
 30
0.0
 11
2206.275371165054
 21
1417.51629646758
 31
0.0
  0
LINE
  5
1CA2
330
1F
100
AcDbEntity
  8
AM_VIS
100
AcDbLine
 10
2206.275371165054
 20
1398.224793845451
 30
0.0
 11
2206.275371165054
 21
1378.870545156516
 31
0.0
  0
ARC
  5
1CA3
330
1F
100
AcDbEntity
  8
AM_VIS
100
AcDbCircle
 10
2179.275371165054
 20
1414.870545156516
 30
0.0
 40
4.0
100
AcDbArc
 50
270.0
 51
318.5903778907302
  0
LINE
  5
1CA4
330
1F
100
AcDbEntity
  8
AM_VIS
100
AcDbLine
 10
2182.275371165054
 20
1412.224793845451
 30
0.0
 11
2182.275371165054
 21
1403.51629646758
 31
0.0
  0
ARC
  5
1CA5
330
1F
100
AcDbEntity
  8
AM_VIS
100
AcDbCircle
 10
2179.275371165054
 20
1414.870545156516
 30
0.0
 40
4.0
100
AcDbArc
 50
221.4096221092698
 51
270.0
  0
LINE
  5
1CA6
330
1F
100
AcDbEntity
  8
AM_VIS
100
AcDbLine
 10
2179.275371165054
 20
1410.870545156516
 30
0.0
 11
2179.275371165054
 21
1404.870545156516
 31
0.0
  0
ARC
  5
1CA7
330
1F
100
AcDbEntity
  8
AM_VIS
100
AcDbCircle
 10
2203.275371165054
 20
1414.870545156516
 30
0.0
 40
4.0
100
AcDbArc
 50
270.0
 51
318.5903778907302
  0
ARC
  5
1CA8
330
1F
100
AcDbEntity
  8
AM_VIS
100
AcDbCircle
 10
2203.275371165054
 20
1414.870545156516
 30
0.0
 40
4.0
100
AcDbArc
 50
221.4096221092698
 51
270.0
  0
ARC
  5
1CA9
330
1F
100
AcDbEntity
  8
AM_VIS
100
AcDbCircle
 10
2203.275371165054
 20
1414.870545156516
 30
0.0
 40
4.0
100
AcDbArc
 50
90.0
 51
138.5903778907302
  0
ARC
  5
1CAA
330
1F
100
AcDbEntity
  8
AM_VIS
100
AcDbCircle
 10
2203.275371165054
 20
1414.870545156516
 30
0.0
 40
4.0
100
AcDbArc
 50
41.40962210926974
 51
90.0
  0
ARC
  5
1CAB
330
1F
100
AcDbEntity
  8
AM_VIS
100
AcDbCircle
 10
2179.275371165054
 20
1400.870545156516
 30
0.0
 40
4.0
100
AcDbArc
 50
90.0
 51
138.5903778907302
  0
ARC
  5
1CAC
330
1F
100
AcDbEntity
  8
AM_VIS
100
AcDbCircle
 10
2179.275371165054
 20
1400.870545156516
 30
0.0
 40
4.0
100
AcDbArc
 50
41.40962210926974
 51
90.0
  0
ARC
  5
1CAD
330
1F
100
AcDbEntity
  8
AM_VIS
100
AcDbCircle
 10
2179.275371165054
 20
1400.870545156516
 30
0.0
 40
4.0
100
AcDbArc
 50
270.0
 51
318.5903778907302
  0
ARC
  5
1CAE
330
1F
100
AcDbEntity
  8
AM_VIS
100
AcDbCircle
 10
2179.275371165054
 20
1400.870545156516
 30
0.0
 40
4.0
100
AcDbArc
 50
221.4096221092698
 51
270.0
  0
ARC
  5
1CAF
330
1F
100
AcDbEntity
  8
AM_VIS
100
AcDbCircle
 10
2203.275371165054
 20
1400.870545156516
 30
0.0
 40
4.0
100
AcDbArc
 50
270.0
 51
318.5903778907302
  0
ARC
  5
1CB0
330
1F
100
AcDbEntity
  8
AM_VIS
100
AcDbCircle
 10
2203.275371165054
 20
1400.870545156516
 30
0.0
 40
4.0
100
AcDbArc
 50
221.4096221092698
 51
270.0
  0
ARC
  5
1CB1
330
1F
100
AcDbEntity
  8
AM_VIS
100
AcDbCircle
 10
2203.275371165054
 20
1400.870545156516
 30
0.0
 40
4.0
100
AcDbArc
 50
90.0
 51
138.5903778907302
  0
ARC
  5
1CB2
330
1F
100
AcDbEntity
  8
AM_VIS
100
AcDbCircle
 10
2203.275371165054
 20
1400.870545156516
 30
0.0
 40
4.0
100
AcDbArc
 50
41.40962210926974
 51
90.0
  0
LINE
  5
1CB3
330
1F
100
AcDbEntity
  8
AM_VIS
100
AcDbLine
 10
2222.275371165054
 20
1419.870545156516
 30
0.0
 11
2206.275371165054
 21
1419.870545156516
 31
0.0
  0
LINE
  5
1CB4
330
1F
100
AcDbEntity
  8
AM_VIS
100
AcDbLine
 10
2203.275371165054
 20
1419.870545156516
 30
0.0
 11
2206.275371165054
 21
1419.870545156516
 31
0.0
  0
LINE
  5
1CB5
330
1F
100
AcDbEntity
  8
AM_VIS
100
AcDbLine
 10
2200.275371165054
 20
1419.870545156516
 30
0.0
 11
2203.275371165054
 21
1419.870545156516
 31
0.0
  0
LINE
  5
1CB6
330
1F
100
AcDbEntity
  8
AM_VIS
100
AcDbLine
 10
2200.275371165054
 20
1419.870545156516
 30
0.0
 11
2197.775371165054
 21
1419.870545156516
 31
0.0
  0
LINE
  5
1CB7
330
1F
100
AcDbEntity
  8
AM_VIS
100
AcDbLine
 10
2197.475371165054
 20
1419.870545156516
 30
0.0
 11
2197.775371165054
 21
1419.870545156516
 31
0.0
  0
LINE
  5
1CB8
330
1F
100
AcDbEntity
  8
AM_VIS
100
AcDbLine
 10
2196.975371165054
 20
1419.870545156516
 30
0.0
 11
2197.475371165054
 21
1419.870545156516
 31
0.0
  0
LINE
  5
1CB9
330
1F
100
AcDbEntity
  8
AM_VIS
100
AcDbLine
 10
2194.825371165054
 20
1419.870545156516
 30
0.0
 11
2195.725371165054
 21
1419.870545156516
 31
0.0
  0
LINE
  5
1CBA
330
1F
100
AcDbEntity
  8
AM_VIS
100
AcDbLine
 10
2186.825371165054
 20
1419.870545156516
 30
0.0
 11
2187.725371165054
 21
1419.870545156516
 31
0.0
  0
LINE
  5
1CBB
330
1F
100
AcDbEntity
  8
AM_VIS
100
AcDbLine
 10
2185.075371165054
 20
1419.870545156516
 30
0.0
 11
2185.575371165054
 21
1419.870545156516
 31
0.0
  0
LINE
  5
1CBC
330
1F
100
AcDbEntity
  8
AM_VIS
100
AcDbLine
 10
2184.775371165054
 20
1419.870545156516
 30
0.0
 11
2185.075371165054
 21
1419.870545156516
 31
0.0
  0
LINE
  5
1CBD
330
1F
100
AcDbEntity
  8
AM_VIS
100
AcDbLine
 10
2184.775371165054
 20
1419.870545156516
 30
0.0
 11
2182.275371165054
 21
1419.870545156516
 31
0.0
  0
LINE
  5
1CBE
330
1F
100
AcDbEntity
  8
AM_VIS
100
AcDbLine
 10
2179.275371165054
 20
1419.870545156516
 30
0.0
 11
2182.275371165054
 21
1419.870545156516
 31
0.0
  0
LINE
  5
1CBF
330
1F
100
AcDbEntity
  8
AM_VIS
100
AcDbLine
 10
2176.275371165054
 20
1419.870545156516
 30
0.0
 11
2179.275371165054
 21
1419.870545156516
 31
0.0
  0
LINE
  5
1CC0
330
1F
100
AcDbEntity
  8
AM_VIS
100
AcDbLine
 10
2176.275371165054
 20
1378.870545156516
 30
0.0
 11
2176.275371165054
 21
1398.224793845451
 31
0.0
  0
LINE
  5
1CC1
330
1F
100
AcDbEntity
  8
AM_VIS
100
AcDbLine
 10
2176.275371165054
 20
1419.870545156516
 30
0.0
 11
2160.275371165054
 21
1419.870545156516
 31
0.0
  0
LINE
  5
1CC2
330
1F
100
AcDbEntity
  8
AM_VIS
100
AcDbLine
 10
2176.275371165054
 20
1417.516296467581
 30
0.0
 11
2176.275371165054
 21
1419.870545156516
 31
0.0
  0
LINE
  5
1CC3
330
1F
100
AcDbEntity
  8
AM_VIS
100
AcDbLine
 10
2176.275371165054
 20
1403.516296467581
 30
0.0
 11
2176.275371165054
 21
1412.224793845451
 31
0.0
  0
LINE
  5
1CC4
330
1F
100
AcDbEntity
  8
AM_VIS
100
AcDbLine
 10
2159.275371165054
 20
1419.870545156516
 30
0.0
 11
2159.275371165054
 21
1378.870545156516
 31
0.0
  0
LINE
  5
1CC5
330
1F
100
AcDbEntity
  8
AM_VIS
100
AcDbLine
 10
2160.275371165054
 20
1378.870545156516
 30
0.0
 11
2176.275371165054
 21
1378.870545156516
 31
0.0
  0
LINE
  5
1CC6
330
1F
100
AcDbEntity
  8
AM_VIS
100
AcDbLine
 10
2179.275371165054
 20
1378.870545156516
 30
0.0
 11
2176.275371165054
 21
1378.870545156516
 31
0.0
  0
LINE
  5
1CC7
330
1F
100
AcDbEntity
  8
AM_VIS
100
AcDbLine
 10
2182.275371165054
 20
1378.870545156516
 30
0.0
 11
2179.275371165054
 21
1378.870545156516
 31
0.0
  0
LINE
  5
1CC8
330
1F
100
AcDbEntity
  8
AM_VIS
100
AcDbLine
 10
2182.275371165054
 20
1378.870545156516
 30
0.0
 11
2184.775371165054
 21
1378.870545156516
 31
0.0
  0
LINE
  5
1CC9
330
1F
100
AcDbEntity
  8
AM_VIS
100
AcDbLine
 10
2185.075371165054
 20
1378.870545156516
 30
0.0
 11
2184.775371165054
 21
1378.870545156516
 31
0.0
  0
LINE
  5
1CCA
330
1F
100
AcDbEntity
  8
AM_VIS
100
AcDbLine
 10
2185.575371165054
 20
1378.870545156516
 30
0.0
 11
2185.075371165054
 21
1378.870545156516
 31
0.0
  0
LINE
  5
1CCB
330
1F
100
AcDbEntity
  8
AM_VIS
100
AcDbLine
 10
2187.725371165054
 20
1378.870545156516
 30
0.0
 11
2186.825371165054
 21
1378.870545156516
 31
0.0
  0
LINE
  5
1CCC
330
1F
100
AcDbEntity
  8
AM_VIS
100
AcDbLine
 10
2193.575371165054
 20
1378.870545156516
 30
0.0
 11
2188.975371165054
 21
1378.870545156516
 31
0.0
  0
LINE
  5
1CCD
330
1F
100
AcDbEntity
  8
AM_VIS
100
AcDbLine
 10
2195.725371165054
 20
1378.870545156516
 30
0.0
 11
2194.825371165054
 21
1378.870545156516
 31
0.0
  0
LINE
  5
1CCE
330
1F
100
AcDbEntity
  8
AM_VIS
100
AcDbLine
 10
2197.475371165054
 20
1378.870545156516
 30
0.0
 11
2196.975371165054
 21
1378.870545156516
 31
0.0
  0
LINE
  5
1CCF
330
1F
100
AcDbEntity
  8
AM_VIS
100
AcDbLine
 10
2197.775371165054
 20
1378.870545156516
 30
0.0
 11
2197.475371165054
 21
1378.870545156516
 31
0.0
  0
LINE
  5
1CD0
330
1F
100
AcDbEntity
  8
AM_VIS
100
AcDbLine
 10
2197.775371165054
 20
1378.870545156516
 30
0.0
 11
2200.275371165054
 21
1378.870545156516
 31
0.0
  0
LINE
  5
1CD1
330
1F
100
AcDbEntity
  8
AM_VIS
100
AcDbLine
 10
2203.275371165054
 20
1378.870545156516
 30
0.0
 11
2200.275371165054
 21
1378.870545156516
 31
0.0
  0
LINE
  5
1CD2
330
1F
100
AcDbEntity
  8
AM_VIS
100
AcDbLine
 10
2206.275371165054
 20
1378.870545156516
 30
0.0
 11
2203.275371165054
 21
1378.870545156516
 31
0.0
  0
LINE
  5
1CD3
330
1F
100
AcDbEntity
  8
AM_VIS
100
AcDbLine
 10
2206.275371165054
 20
1378.870545156516
 30
0.0
 11
2222.275371165054
 21
1378.870545156516
 31
0.0
  0
ARC
  5
1CD4
330
1F
100
AcDbEntity
  8
AM_VIS
100
AcDbCircle
 10
2179.275371165054
 20
1414.870545156516
 30
0.0
 40
4.0
100
AcDbArc
 50
318.5903778907302
 51
41.40962210926974
  0
CIRCLE
  5
1CD5
330
1F
100
AcDbEntity
  8
AM_VIS
100
AcDbCircle
 10
2179.275371165054
 20
1414.870545156516
 30
0.0
 40
2.095
  0
ARC
  5
1CD6
330
1F
100
AcDbEntity
  8
AM_VIS
100
AcDbCircle
 10
2203.275371165054
 20
1414.870545156516
 30
0.0
 40
4.0
100
AcDbArc
 50
318.5903778907302
 51
41.40962210926974
  0
ARC
  5
1CD7
330
1F
100
AcDbEntity
  8
AM_VIS
100
AcDbCircle
 10
2203.275371165054
 20
1414.870545156516
 30
0.0
 40
4.0
100
AcDbArc
 50
138.5903778907302
 51
221.4096221092698
  0
CIRCLE
  5
1CD8
330
1F
100
AcDbEntity
  8
AM_VIS
100
AcDbCircle
 10
2203.275371165054
 20
1414.870545156516
 30
0.0
 40
2.095
  0
ARC
  5
1CD9
330
1F
100
AcDbEntity
  8
AM_VIS
100
AcDbCircle
 10
2179.275371165054
 20
1400.870545156516
 30
0.0
 40
4.0
100
AcDbArc
 50
318.5903778907302
 51
41.40962210926974
  0
CIRCLE
  5
1CDA
330
1F
100
AcDbEntity
  8
AM_VIS
100
AcDbCircle
 10
2179.275371165054
 20
1400.870545156516
 30
0.0
 40
2.095
  0
ARC
  5
1CDB
330
1F
100
AcDbEntity
  8
AM_VIS
100
AcDbCircle
 10
2203.275371165054
 20
1400.870545156516
 30
0.0
 40
4.0
100
AcDbArc
 50
318.5903778907302
 51
41.40962210926974
  0
ARC
  5
1CDC
330
1F
100
AcDbEntity
  8
AM_VIS
100
AcDbCircle
 10
2203.275371165054
 20
1400.870545156516
 30
0.0
 40
4.0
100
AcDbArc
 50
138.5903778907302
 51
221.4096221092698
  0
CIRCLE
  5
1CDD
330
1F
100
AcDbEntity
  8
AM_VIS
100
AcDbCircle
 10
2203.275371165054
 20
1400.870545156516
 30
0.0
 40
2.095
  0
LINE
  5
1CDE
330
1F
100
AcDbEntity
  8
AM_VIS
100
AcDbLine
 10
2222.275371165054
 20
1419.870545156516
 30
0.0
 11
2223.275371165054
 21
1419.870545156516
 31
0.0
  0
LINE
  5
1CDF
330
1F
100
AcDbEntity
  8
AM_VIS
100
AcDbLine
 10
2196.975371165054
 20
1419.870545156516
 30
0.0
 11
2195.725371165054
 21
1419.870545156516
 31
0.0
  0
LINE
  5
1CE0
330
1F
100
AcDbEntity
  8
AM_VIS
100
AcDbLine
 10
2194.825371165054
 20
1419.870545156516
 30
0.0
 11
2191.275371165055
 21
1419.870545156516
 31
0.0
  0
LINE
  5
1CE1
330
1F
100
AcDbEntity
  8
AM_VIS
100
AcDbLine
 10
2187.725371165054
 20
1419.870545156516
 30
0.0
 11
2191.275371165055
 21
1419.870545156516
 31
0.0
  0
LINE
  5
1CE2
330
1F
100
AcDbEntity
  8
AM_VIS
100
AcDbLine
 10
2185.575371165054
 20
1419.870545156516
 30
0.0
 11
2186.825371165054
 21
1419.870545156516
 31
0.0
  0
LINE
  5
1CE3
330
1F
100
AcDbEntity
  8
AM_VIS
100
AcDbLine
 10
2159.275371165054
 20
1419.870545156516
 30
0.0
 11
2160.275371165054
 21
1419.870545156516
 31
0.0
  0
ARC
  5
1CE4
330
1F
100
AcDbEntity
  8
AM_VIS
100
AcDbCircle
 10
2179.275371165054
 20
1414.870545156516
 30
0.0
 40
4.0
100
AcDbArc
 50
138.5903778907302
 51
221.4096221092698
  0
ARC
  5
1CE5
330
1F
100
AcDbEntity
  8
AM_VIS
100
AcDbCircle
 10
2179.275371165054
 20
1400.870545156516
 30
0.0
 40
4.0
100
AcDbArc
 50
138.5903778907302
 51
221.4096221092698
  0
LINE
  5
1CE6
330
1F
100
AcDbEntity
  8
AM_VIS
100
AcDbLine
 10
2160.275371165054
 20
1378.870545156516
 30
0.0
 11
2159.275371165054
 21
1378.870545156516
 31
0.0
  0
LINE
  5
1CE7
330
1F
100
AcDbEntity
  8
AM_VIS
100
AcDbLine
 10
2186.825371165054
 20
1378.870545156516
 30
0.0
 11
2185.575371165054
 21
1378.870545156516
 31
0.0
  0
LINE
  5
1CE8
330
1F
100
AcDbEntity
  8
AM_VIS
100
AcDbLine
 10
2188.975371165054
 20
1378.870545156516
 30
0.0
 11
2187.725371165054
 21
1378.870545156516
 31
0.0
  0
LINE
  5
1CE9
330
1F
100
AcDbEntity
  8
AM_VIS
100
AcDbLine
 10
2193.575371165054
 20
1378.870545156516
 30
0.0
 11
2194.825371165054
 21
1378.870545156516
 31
0.0
  0
LINE
  5
1CEA
330
1F
100
AcDbEntity
  8
AM_VIS
100
AcDbLine
 10
2195.725371165054
 20
1378.870545156516
 30
0.0
 11
2196.975371165054
 21
1378.870545156516
 31
0.0
  0
LINE
  5
1CEB
330
1F
100
AcDbEntity
  8
AM_VIS
100
AcDbLine
 10
2223.275371165054
 20
1378.870545156516
 30
0.0
 11
2222.275371165054
 21
1378.870545156516
 31
0.0
  0
LINE
  5
1CEC
330
1F
100
AcDbEntity
  8
AM_VIS
100
AcDbLine
 10
2213.433706148554
 20
1471.335435287064
 30
0.0
 11
2212.555371165054
 21
1472.835435287064
 31
0.0
  0
LINE
  5
1CED
330
1F
100
AcDbEntity
  8
AM_VIS
100
AcDbLine
 10
2213.433706148554
 20
1474.335435287064
 30
0.0
 11
2215.117036181554
 21
1474.335435287064
 31
0.0
  0
LINE
  5
1CEE
330
1F
100
AcDbEntity
  8
AM_VIS
100
AcDbLine
 10
2212.555371165054
 20
1472.835435287064
 30
0.0
 11
2213.433706148554
 21
1474.335435287064
 31
0.0
  0
LINE
  5
1CEF
330
1F
100
AcDbEntity
  8
AM_VIS
100
AcDbLine
 10
2215.117036181554
 20
1471.335435287064
 30
0.0
 11
2213.433706148554
 21
1471.335435287064
 31
0.0
  0
LINE
  5
1CF0
330
1F
100
AcDbEntity
  8
AM_VIS
100
AcDbLine
 10
2215.995371165054
 20
1472.835435287064
 30
0.0
 11
2215.117036181554
 21
1471.335435287064
 31
0.0
  0
LINE
  5
1CF1
330
1F
100
AcDbEntity
  8
AM_VIS
100
AcDbLine
 10
2215.117036181554
 20
1474.335435287064
 30
0.0
 11
2215.995371165054
 21
1472.835435287064
 31
0.0
  0
LINE
  5
1CF2
330
1F
100
AcDbEntity
  8
AM_VIS
100
AcDbLine
 10
2190.433706148554
 20
1471.335435287064
 30
0.0
 11
2189.555371165054
 21
1472.835435287064
 31
0.0
  0
LINE
  5
1CF3
330
1F
100
AcDbEntity
  8
AM_VIS
100
AcDbLine
 10
2190.433706148554
 20
1474.335435287064
 30
0.0
 11
2192.117036181554
 21
1474.335435287064
 31
0.0
  0
LINE
  5
1CF4
330
1F
100
AcDbEntity
  8
AM_VIS
100
AcDbLine
 10
2189.555371165054
 20
1472.835435287064
 30
0.0
 11
2190.433706148554
 21
1474.335435287064
 31
0.0
  0
LINE
  5
1CF5
330
1F
100
AcDbEntity
  8
AM_VIS
100
AcDbLine
 10
2192.117036181554
 20
1471.335435287064
 30
0.0
 11
2190.433706148554
 21
1471.335435287064
 31
0.0
  0
LINE
  5
1CF6
330
1F
100
AcDbEntity
  8
AM_VIS
100
AcDbLine
 10
2192.995371165054
 20
1472.835435287064
 30
0.0
 11
2192.117036181554
 21
1471.335435287064
 31
0.0
  0
LINE
  5
1CF7
330
1F
100
AcDbEntity
  8
AM_VIS
100
AcDbLine
 10
2192.117036181554
 20
1474.335435287064
 30
0.0
 11
2192.995371165054
 21
1472.835435287064
 31
0.0
  0
LINE
  5
1CF8
330
1F
100
AcDbEntity
  8
AM_VIS
100
AcDbLine
 10
2167.433706148554
 20
1471.335435287064
 30
0.0
 11
2166.555371165054
 21
1472.835435287064
 31
0.0
  0
LINE
  5
1CF9
330
1F
100
AcDbEntity
  8
AM_VIS
100
AcDbLine
 10
2167.433706148554
 20
1474.335435287064
 30
0.0
 11
2169.117036181554
 21
1474.335435287064
 31
0.0
  0
LINE
  5
1CFA
330
1F
100
AcDbEntity
  8
AM_VIS
100
AcDbLine
 10
2166.555371165054
 20
1472.835435287064
 30
0.0
 11
2167.433706148554
 21
1474.335435287064
 31
0.0
  0
LINE
  5
1CFB
330
1F
100
AcDbEntity
  8
AM_VIS
100
AcDbLine
 10
2169.117036181554
 20
1471.335435287064
 30
0.0
 11
2167.433706148554
 21
1471.335435287064
 31
0.0
  0
LINE
  5
1CFC
330
1F
100
AcDbEntity
  8
AM_VIS
100
AcDbLine
 10
2169.995371165054
 20
1472.835435287064
 30
0.0
 11
2169.117036181554
 21
1471.335435287064
 31
0.0
  0
LINE
  5
1CFD
330
1F
100
AcDbEntity
  8
AM_VIS
100
AcDbLine
 10
2169.117036181554
 20
1474.335435287064
 30
0.0
 11
2169.995371165054
 21
1472.835435287064
 31
0.0
  0
LINE
  5
1CFE
330
1F
100
AcDbEntity
  8
AM_VIS
100
AcDbLine
 10
2160.275371165054
 20
1484.835435287064
 30
0.0
 11
2160.275371165054
 21
1460.835435287064
 31
0.0
  0
LINE
  5
1CFF
330
1F
100
AcDbEntity
  8
AM_VIS
100
AcDbLine
 10
2221.775371165054
 20
1460.335435287064
 30
0.0
 11
2222.025371165054
 21
1460.585435287064
 31
0.0
  0
LINE
  5
1D00
330
1F
100
AcDbEntity
  8
AM_VIS
100
AcDbLine
 10
2222.025371165054
 20
1460.585435287064
 30
0.0
 11
2222.275371165054
 21
1460.835435287064
 31
0.0
  0
LINE
  5
1D01
330
1F
100
AcDbEntity
  8
AM_VIS
100
AcDbLine
 10
2222.275371165054
 20
1484.835435287064
 30
0.0
 11
2222.025371165054
 21
1485.085435287064
 31
0.0
  0
LINE
  5
1D02
330
1F
100
AcDbEntity
  8
AM_VIS
100
AcDbLine
 10
2222.025371165054
 20
1485.085435287064
 30
0.0
 11
2221.775371165054
 21
1485.335435287064
 31
0.0
  0
LINE
  5
1D03
330
1F
100
AcDbEntity
  8
AM_VIS
100
AcDbLine
 10
2222.275371165054
 20
1460.835435287064
 30
0.0
 11
2222.275371165054
 21
1484.835435287064
 31
0.0
  0
LINE
  5
1D04
330
1F
100
AcDbEntity
  8
AM_VIS
100
AcDbLine
 10
2160.775371165054
 20
1460.335435287064
 30
0.0
 11
2221.775371165054
 21
1460.335435287064
 31
0.0
  0
LINE
  5
1D05
330
1F
100
AcDbEntity
  8
AM_VIS
100
AcDbLine
 10
2160.275371165054
 20
1460.835435287064
 30
0.0
 11
2160.525371165054
 21
1460.585435287064
 31
0.0
  0
LINE
  5
1D06
330
1F
100
AcDbEntity
  8
AM_VIS
100
AcDbLine
 10
2160.525371165054
 20
1460.585435287064
 30
0.0
 11
2160.775371165054
 21
1460.335435287064
 31
0.0
  0
LINE
  5
1D07
330
1F
100
AcDbEntity
  8
AM_VIS
100
AcDbLine
 10
2160.775371165054
 20
1485.335435287064
 30
0.0
 11
2160.525371165054
 21
1485.085435287064
 31
0.0
  0
LINE
  5
1D08
330
1F
100
AcDbEntity
  8
AM_VIS
100
AcDbLine
 10
2160.525371165054
 20
1485.085435287064
 30
0.0
 11
2160.275371165054
 21
1484.835435287064
 31
0.0
  0
LINE
  5
1D09
330
1F
100
AcDbEntity
  8
AM_VIS
100
AcDbLine
 10
2221.775371165054
 20
1485.335435287064
 30
0.0
 11
2160.775371165054
 21
1485.335435287064
 31
0.0
  0
CIRCLE
  5
1D0A
330
1F
100
AcDbEntity
  8
AM_VIS
100
AcDbCircle
 10
2168.275371165054
 20
1472.835435287064
 30
0.0
 40
5.25
  0
CIRCLE
  5
1D0B
330
1F
100
AcDbEntity
  8
AM_VIS
100
AcDbCircle
 10
2191.275371165054
 20
1472.835435287064
 30
0.0
 40
5.25
  0
CIRCLE
  5
1D0C
330
1F
100
AcDbEntity
  8
AM_VIS
100
AcDbCircle
 10
2214.275371165054
 20
1472.835435287064
 30
0.0
 40
5.25
  0
LINE
  5
1D0D
330
1F
100
AcDbEntity
  8
AM_VIS
100
AcDbLine
 10
2169.875371165054
 20
1487.535435287064
 30
0.0
 11
2169.575371165054
 21
1487.835435287064
 31
0.0
  0
LINE
  5
1D0E
330
1F
100
AcDbEntity
  8
AM_VIS
100
AcDbLine
 10
2172.875371165054
 20
1487.535435287064
 30
0.0
 11
2169.875371165054
 21
1487.535435287064
 31
0.0
  0
LINE
  5
1D0F
330
1F
100
AcDbEntity
  8
AM_VIS
100
AcDbLine
 10
2173.775371165054
 20
1486.635435287064
 30
0.0
 11
2172.875371165054
 21
1487.535435287064
 31
0.0
  0
LINE
  5
1D10
330
1F
100
AcDbEntity
  8
AM_VIS
100
AcDbLine
 10
2174.975371165054
 20
1487.835435287064
 30
0.0
 11
2173.775371165054
 21
1486.635435287064
 31
0.0
  0
LINE
  5
1D11
330
1F
100
AcDbEntity
  8
AM_VIS
100
AcDbLine
 10
2183.575371165054
 20
1487.835435287064
 30
0.0
 11
2174.975371165054
 21
1487.835435287064
 31
0.0
  0
LINE
  5
1D12
330
1F
100
AcDbEntity
  8
AM_VIS
100
AcDbLine
 10
2183.875371165054
 20
1487.535435287064
 30
0.0
 11
2183.575371165054
 21
1487.835435287064
 31
0.0
  0
LINE
  5
1D13
330
1F
100
AcDbEntity
  8
AM_VIS
100
AcDbLine
 10
2185.575371165054
 20
1487.535435287064
 30
0.0
 11
2183.875371165054
 21
1487.535435287064
 31
0.0
  0
LINE
  5
1D14
330
1F
100
AcDbEntity
  8
AM_VIS
100
AcDbLine
 10
2185.575371165054
 20
1487.035435287064
 30
0.0
 11
2185.575371165054
 21
1487.535435287064
 31
0.0
  0
LINE
  5
1D15
330
1F
100
AcDbEntity
  8
AM_VIS
100
AcDbLine
 10
2185.125371165054
 20
1486.535435287064
 30
0.0
 11
2185.575371165054
 21
1487.035435287064
 31
0.0
  0
LINE
  5
1D16
330
1F
100
AcDbEntity
  8
AM_VIS
100
AcDbLine
 10
2185.125371165054
 20
1485.335435287064
 30
0.0
 11
2185.125371165054
 21
1486.535435287064
 31
0.0
  0
LINE
  5
1D17
330
1F
100
AcDbEntity
  8
AM_VIS
100
AcDbLine
 10
2189.425371165054
 20
1486.535435287064
 30
0.0
 11
2189.425371165054
 21
1485.335435287064
 31
0.0
  0
LINE
  5
1D18
330
1F
100
AcDbEntity
  8
AM_VIS
100
AcDbLine
 10
2188.975371165054
 20
1487.035435287064
 30
0.0
 11
2189.425371165054
 21
1486.535435287064
 31
0.0
  0
LINE
  5
1D19
330
1F
100
AcDbEntity
  8
AM_VIS
100
AcDbLine
 10
2188.975371165054
 20
1487.535435287064
 30
0.0
 11
2188.975371165054
 21
1487.035435287064
 31
0.0
  0
LINE
  5
1D1A
330
1F
100
AcDbEntity
  8
AM_VIS
100
AcDbLine
 10
2193.575371165054
 20
1487.535435287064
 30
0.0
 11
2188.975371165054
 21
1487.535435287064
 31
0.0
  0
LINE
  5
1D1B
330
1F
100
AcDbEntity
  8
AM_VIS
100
AcDbLine
 10
2193.575371165054
 20
1487.035435287064
 30
0.0
 11
2193.575371165054
 21
1487.535435287064
 31
0.0
  0
LINE
  5
1D1C
330
1F
100
AcDbEntity
  8
AM_VIS
100
AcDbLine
 10
2193.125371165054
 20
1486.535435287064
 30
0.0
 11
2193.575371165054
 21
1487.035435287064
 31
0.0
  0
LINE
  5
1D1D
330
1F
100
AcDbEntity
  8
AM_VIS
100
AcDbLine
 10
2193.125371165054
 20
1485.335435287064
 30
0.0
 11
2193.125371165054
 21
1486.535435287064
 31
0.0
  0
LINE
  5
1D1E
330
1F
100
AcDbEntity
  8
AM_VIS
100
AcDbLine
 10
2197.425371165054
 20
1486.535435287064
 30
0.0
 11
2197.425371165054
 21
1485.335435287064
 31
0.0
  0
LINE
  5
1D1F
330
1F
100
AcDbEntity
  8
AM_VIS
100
AcDbLine
 10
2196.975371165054
 20
1487.035435287064
 30
0.0
 11
2197.425371165054
 21
1486.535435287064
 31
0.0
  0
LINE
  5
1D20
330
1F
100
AcDbEntity
  8
AM_VIS
100
AcDbLine
 10
2196.975371165054
 20
1487.535435287064
 30
0.0
 11
2196.975371165054
 21
1487.035435287064
 31
0.0
  0
LINE
  5
1D21
330
1F
100
AcDbEntity
  8
AM_VIS
100
AcDbLine
 10
2198.675371165054
 20
1487.535435287064
 30
0.0
 11
2196.975371165054
 21
1487.535435287064
 31
0.0
  0
LINE
  5
1D22
330
1F
100
AcDbEntity
  8
AM_VIS
100
AcDbLine
 10
2198.975371165054
 20
1487.835435287064
 30
0.0
 11
2198.675371165054
 21
1487.535435287064
 31
0.0
  0
LINE
  5
1D23
330
1F
100
AcDbEntity
  8
AM_VIS
100
AcDbLine
 10
2207.575371165054
 20
1487.835435287064
 30
0.0
 11
2198.975371165054
 21
1487.835435287064
 31
0.0
  0
LINE
  5
1D24
330
1F
100
AcDbEntity
  8
AM_VIS
100
AcDbLine
 10
2208.775371165054
 20
1486.635435287064
 30
0.0
 11
2207.575371165054
 21
1487.835435287064
 31
0.0
  0
LINE
  5
1D25
330
1F
100
AcDbEntity
  8
AM_VIS
100
AcDbLine
 10
2209.675371165054
 20
1487.535435287064
 30
0.0
 11
2208.775371165054
 21
1486.635435287064
 31
0.0
  0
LINE
  5
1D26
330
1F
100
AcDbEntity
  8
AM_VIS
100
AcDbLine
 10
2212.675371165054
 20
1487.535435287064
 30
0.0
 11
2209.675371165054
 21
1487.535435287064
 31
0.0
  0
LINE
  5
1D27
330
1F
100
AcDbEntity
  8
AM_VIS
100
AcDbLine
 10
2212.975371165054
 20
1487.835435287064
 30
0.0
 11
2212.675371165054
 21
1487.535435287064
 31
0.0
  0
LINE
  5
1D28
330
1F
100
AcDbEntity
  8
AM_VIS
100
AcDbLine
 10
2222.989514007908
 20
1487.835435287064
 30
0.0
 11
2212.975371165054
 21
1487.835435287064
 31
0.0
  0
LINE
  5
1D29
330
1F
100
AcDbEntity
  8
AM_VIS
100
AcDbLine
 10
2223.275371165054
 20
1487.135435287064
 30
0.0
 11
2223.275371165054
 21
1458.835435287064
 31
0.0
  0
LINE
  5
1D2A
330
1F
100
AcDbEntity
  8
AM_VIS
100
AcDbLine
 10
2222.275371165054
 20
1457.835435287064
 30
0.0
 11
2206.275371165054
 21
1457.835435287064
 31
0.0
  0
LINE
  5
1D2B
330
1F
100
AcDbEntity
  8
AM_VIS
100
AcDbLine
 10
2203.275371165054
 20
1459.567486094633
 30
0.0
 11
2206.275371165054
 21
1457.835435287064
 31
0.0
  0
LINE
  5
1D2C
330
1F
100
AcDbEntity
  8
AM_VIS
100
AcDbLine
 10
2200.275371165054
 20
1457.835435287064
 30
0.0
 11
2203.275371165054
 21
1459.567486094633
 31
0.0
  0
LINE
  5
1D2D
330
1F
100
AcDbEntity
  8
AM_VIS
100
AcDbLine
 10
2200.275371165054
 20
1457.835435287064
 30
0.0
 11
2197.775371165054
 21
1457.835435287064
 31
0.0
  0
LINE
  5
1D2E
330
1F
100
AcDbEntity
  8
AM_VIS
100
AcDbLine
 10
2197.475371165054
 20
1458.135435287064
 30
0.0
 11
2197.775371165054
 21
1457.835435287064
 31
0.0
  0
LINE
  5
1D2F
330
1F
100
AcDbEntity
  8
AM_VIS
100
AcDbLine
 10
2196.975371165054
 20
1458.135435287064
 30
0.0
 11
2197.475371165054
 21
1458.135435287064
 31
0.0
  0
LINE
  5
1D30
330
1F
100
AcDbEntity
  8
AM_VIS
100
AcDbLine
 10
2196.975371165054
 20
1458.635435287064
 30
0.0
 11
2196.975371165054
 21
1458.135435287064
 31
0.0
  0
LINE
  5
1D31
330
1F
100
AcDbEntity
  8
AM_VIS
100
AcDbLine
 10
2197.425371165054
 20
1459.135435287064
 30
0.0
 11
2196.975371165054
 21
1458.635435287064
 31
0.0
  0
LINE
  5
1D32
330
1F
100
AcDbEntity
  8
AM_VIS
100
AcDbLine
 10
2197.425371165054
 20
1460.335435287064
 30
0.0
 11
2197.425371165054
 21
1459.135435287064
 31
0.0
  0
LINE
  5
1D33
330
1F
100
AcDbEntity
  8
AM_VIS
100
AcDbLine
 10
2193.125371165054
 20
1459.135435287064
 30
0.0
 11
2193.125371165054
 21
1460.335435287064
 31
0.0
  0
LINE
  5
1D34
330
1F
100
AcDbEntity
  8
AM_VIS
100
AcDbLine
 10
2193.575371165054
 20
1458.635435287064
 30
0.0
 11
2193.125371165054
 21
1459.135435287064
 31
0.0
  0
LINE
  5
1D35
330
1F
100
AcDbEntity
  8
AM_VIS
100
AcDbLine
 10
2193.575371165054
 20
1458.135435287064
 30
0.0
 11
2193.575371165054
 21
1458.635435287064
 31
0.0
  0
LINE
  5
1D36
330
1F
100
AcDbEntity
  8
AM_VIS
100
AcDbLine
 10
2188.975371165054
 20
1458.135435287064
 30
0.0
 11
2193.575371165054
 21
1458.135435287064
 31
0.0
  0
LINE
  5
1D37
330
1F
100
AcDbEntity
  8
AM_VIS
100
AcDbLine
 10
2188.975371165054
 20
1458.635435287064
 30
0.0
 11
2188.975371165054
 21
1458.135435287064
 31
0.0
  0
LINE
  5
1D38
330
1F
100
AcDbEntity
  8
AM_VIS
100
AcDbLine
 10
2189.425371165054
 20
1459.135435287064
 30
0.0
 11
2188.975371165054
 21
1458.635435287064
 31
0.0
  0
LINE
  5
1D39
330
1F
100
AcDbEntity
  8
AM_VIS
100
AcDbLine
 10
2189.425371165054
 20
1460.335435287064
 30
0.0
 11
2189.425371165054
 21
1459.135435287064
 31
0.0
  0
LINE
  5
1D3A
330
1F
100
AcDbEntity
  8
AM_VIS
100
AcDbLine
 10
2185.125371165054
 20
1459.135435287064
 30
0.0
 11
2185.125371165054
 21
1460.335435287064
 31
0.0
  0
LINE
  5
1D3B
330
1F
100
AcDbEntity
  8
AM_VIS
100
AcDbLine
 10
2185.575371165054
 20
1458.635435287064
 30
0.0
 11
2185.125371165054
 21
1459.135435287064
 31
0.0
  0
LINE
  5
1D3C
330
1F
100
AcDbEntity
  8
AM_VIS
100
AcDbLine
 10
2185.575371165054
 20
1458.135435287064
 30
0.0
 11
2185.575371165054
 21
1458.635435287064
 31
0.0
  0
LINE
  5
1D3D
330
1F
100
AcDbEntity
  8
AM_VIS
100
AcDbLine
 10
2185.075371165054
 20
1458.135435287064
 30
0.0
 11
2185.575371165054
 21
1458.135435287064
 31
0.0
  0
LINE
  5
1D3E
330
1F
100
AcDbEntity
  8
AM_VIS
100
AcDbLine
 10
2184.775371165054
 20
1457.835435287064
 30
0.0
 11
2185.075371165054
 21
1458.135435287064
 31
0.0
  0
LINE
  5
1D3F
330
1F
100
AcDbEntity
  8
AM_VIS
100
AcDbLine
 10
2184.775371165054
 20
1457.835435287064
 30
0.0
 11
2182.275371165054
 21
1457.835435287064
 31
0.0
  0
LINE
  5
1D40
330
1F
100
AcDbEntity
  8
AM_VIS
100
AcDbLine
 10
2179.275371165054
 20
1459.567486094633
 30
0.0
 11
2182.275371165054
 21
1457.835435287064
 31
0.0
  0
LINE
  5
1D41
330
1F
100
AcDbEntity
  8
AM_VIS
100
AcDbLine
 10
2176.275371165054
 20
1457.835435287064
 30
0.0
 11
2179.275371165054
 21
1459.567486094633
 31
0.0
  0
LINE
  5
1D42
330
1F
100
AcDbEntity
  8
AM_VIS
100
AcDbLine
 10
2169.575371165054
 20
1487.835435287064
 30
0.0
 11
2159.5612283222
 21
1487.835435287064
 31
0.0
  0
LINE
  5
1D43
330
1F
100
AcDbEntity
  8
AM_VIS
100
AcDbLine
 10
2176.275371165054
 20
1457.835435287064
 30
0.0
 11
2160.275371165054
 21
1457.835435287064
 31
0.0
  0
LINE
  5
1D44
330
1F
100
AcDbEntity
  8
AM_VIS
100
AcDbLine
 10
2159.275371165054
 20
1458.835435287064
 30
0.0
 11
2159.275371165054
 21
1487.135435287064
 31
0.0
  0
ARC
  5
1D45
330
1F
100
AcDbEntity
  8
AM_VIS
100
AcDbCircle
 10
2222.275371165054
 20
1487.135435287064
 30
0.0
 40
0.9999999999999998
100
AcDbArc
 50
0.0
 51
44.42700400080009
  0
ARC
  5
1D46
330
1F
100
AcDbEntity
  8
AM_VIS
100
AcDbCircle
 10
2222.275371165054
 20
1458.835435287064
 30
0.0
 40
0.9999999999999998
100
AcDbArc
 50
270.0
 51
0.0
  0
ARC
  5
1D47
330
1F
100
AcDbEntity
  8
AM_VIS
100
AcDbCircle
 10
2160.275371165054
 20
1458.835435287064
 30
0.0
 40
0.9999999999999998
100
AcDbArc
 50
180.0
 51
270.0
  0
ARC
  5
1D48
330
1F
100
AcDbEntity
  8
AM_VIS
100
AcDbCircle
 10
2160.275371165054
 20
1487.135435287064
 30
0.0
 40
1.0
100
AcDbArc
 50
135.5729959991999
 51
180.0
  0
LINE
  5
1D49
330
1F
100
AcDbEntity
  8
AM_VIS
100
AcDbLine
 10
2185.125371165054
 20
1308.94967346908
 30
0.0
 11
2189.425371165054
 21
1308.94967346908
 31
0.0
  0
LINE
  5
1D4A
330
1F
100
AcDbEntity
  8
AM_VIS
100
AcDbLine
 10
2193.125371165054
 20
1308.94967346908
 30
0.0
 11
2197.425371165054
 21
1308.94967346908
 31
0.0
  0
LINE
  5
1D4B
330
1F
100
AcDbEntity
  8
AM_VIS
100
AcDbLine
 10
2197.425371165054
 20
1333.94967346908
 30
0.0
 11
2193.125371165054
 21
1333.94967346908
 31
0.0
  0
LINE
  5
1D4C
330
1F
100
AcDbEntity
  8
AM_VIS
100
AcDbLine
 10
2189.425371165054
 20
1333.94967346908
 30
0.0
 11
2185.125371165054
 21
1333.94967346908
 31
0.0
  0
LINE
  5
1D4D
330
1F
100
AcDbEntity
  8
AM_VIS
100
AcDbLine
 10
2159.275371165054
 20
1307.149673469079
 30
0.0
 11
2159.275371165054
 21
1335.44967346908
 31
0.0
  0
LINE
  5
1D4E
330
1F
100
AcDbEntity
  8
AM_VIS
100
AcDbLine
 10
2160.275371165054
 20
1336.44967346908
 30
0.0
 11
2176.275371165054
 21
1336.44967346908
 31
0.0
  0
LINE
  5
1D4F
330
1F
100
AcDbEntity
  8
AM_VIS
100
AcDbLine
 10
2179.275371165054
 20
1334.717622661511
 30
0.0
 11
2176.275371165054
 21
1336.44967346908
 31
0.0
  0
LINE
  5
1D50
330
1F
100
AcDbEntity
  8
AM_VIS
100
AcDbLine
 10
2182.275371165054
 20
1336.44967346908
 30
0.0
 11
2179.275371165054
 21
1334.717622661511
 31
0.0
  0
LINE
  5
1D51
330
1F
100
AcDbEntity
  8
AM_VIS
100
AcDbLine
 10
2182.275371165054
 20
1336.44967346908
 30
0.0
 11
2184.775371165054
 21
1336.44967346908
 31
0.0
  0
LINE
  5
1D52
330
1F
100
AcDbEntity
  8
AM_VIS
100
AcDbLine
 10
2185.075371165054
 20
1336.14967346908
 30
0.0
 11
2184.775371165054
 21
1336.44967346908
 31
0.0
  0
LINE
  5
1D53
330
1F
100
AcDbEntity
  8
AM_VIS
100
AcDbLine
 10
2185.575371165054
 20
1336.14967346908
 30
0.0
 11
2185.075371165054
 21
1336.14967346908
 31
0.0
  0
LINE
  5
1D54
330
1F
100
AcDbEntity
  8
AM_VIS
100
AcDbLine
 10
2185.575371165054
 20
1335.649673469079
 30
0.0
 11
2185.575371165054
 21
1336.14967346908
 31
0.0
  0
LINE
  5
1D55
330
1F
100
AcDbEntity
  8
AM_VIS
100
AcDbLine
 10
2185.125371165054
 20
1335.14967346908
 30
0.0
 11
2185.575371165054
 21
1335.649673469079
 31
0.0
  0
LINE
  5
1D56
330
1F
100
AcDbEntity
  8
AM_VIS
100
AcDbLine
 10
2185.125371165054
 20
1333.04967346908
 30
0.0
 11
2185.125371165054
 21
1335.14967346908
 31
0.0
  0
LINE
  5
1D57
330
1F
100
AcDbEntity
  8
AM_VIS
100
AcDbLine
 10
2187.725371165054
 20
1331.34967346908
 30
0.0
 11
2186.825371165054
 21
1331.34967346908
 31
0.0
  0
LINE
  5
1D58
330
1F
100
AcDbEntity
  8
AM_VIS
100
AcDbLine
 10
2189.425371165054
 20
1335.14967346908
 30
0.0
 11
2189.425371165054
 21
1333.04967346908
 31
0.0
  0
LINE
  5
1D59
330
1F
100
AcDbEntity
  8
AM_VIS
100
AcDbLine
 10
2188.975371165054
 20
1335.649673469079
 30
0.0
 11
2189.425371165054
 21
1335.14967346908
 31
0.0
  0
LINE
  5
1D5A
330
1F
100
AcDbEntity
  8
AM_VIS
100
AcDbLine
 10
2188.975371165054
 20
1336.14967346908
 30
0.0
 11
2188.975371165054
 21
1335.649673469079
 31
0.0
  0
LINE
  5
1D5B
330
1F
100
AcDbEntity
  8
AM_VIS
100
AcDbLine
 10
2193.575371165054
 20
1336.14967346908
 30
0.0
 11
2188.975371165054
 21
1336.14967346908
 31
0.0
  0
LINE
  5
1D5C
330
1F
100
AcDbEntity
  8
AM_VIS
100
AcDbLine
 10
2193.575371165054
 20
1335.649673469079
 30
0.0
 11
2193.575371165054
 21
1336.14967346908
 31
0.0
  0
LINE
  5
1D5D
330
1F
100
AcDbEntity
  8
AM_VIS
100
AcDbLine
 10
2193.125371165054
 20
1335.14967346908
 30
0.0
 11
2193.575371165054
 21
1335.649673469079
 31
0.0
  0
LINE
  5
1D5E
330
1F
100
AcDbEntity
  8
AM_VIS
100
AcDbLine
 10
2193.125371165054
 20
1333.04967346908
 30
0.0
 11
2193.125371165054
 21
1335.14967346908
 31
0.0
  0
LINE
  5
1D5F
330
1F
100
AcDbEntity
  8
AM_VIS
100
AcDbLine
 10
2195.725371165054
 20
1331.34967346908
 30
0.0
 11
2194.825371165054
 21
1331.34967346908
 31
0.0
  0
LINE
  5
1D60
330
1F
100
AcDbEntity
  8
AM_VIS
100
AcDbLine
 10
2197.425371165054
 20
1335.14967346908
 30
0.0
 11
2197.425371165054
 21
1333.04967346908
 31
0.0
  0
LINE
  5
1D61
330
1F
100
AcDbEntity
  8
AM_VIS
100
AcDbLine
 10
2196.975371165054
 20
1335.64967346908
 30
0.0
 11
2197.425371165054
 21
1335.14967346908
 31
0.0
  0
LINE
  5
1D62
330
1F
100
AcDbEntity
  8
AM_VIS
100
AcDbLine
 10
2196.975371165054
 20
1336.14967346908
 30
0.0
 11
2196.975371165054
 21
1335.649673469079
 31
0.0
  0
LINE
  5
1D63
330
1F
100
AcDbEntity
  8
AM_VIS
100
AcDbLine
 10
2197.475371165054
 20
1336.14967346908
 30
0.0
 11
2196.975371165054
 21
1336.14967346908
 31
0.0
  0
LINE
  5
1D64
330
1F
100
AcDbEntity
  8
AM_VIS
100
AcDbLine
 10
2197.775371165054
 20
1336.44967346908
 30
0.0
 11
2197.475371165054
 21
1336.14967346908
 31
0.0
  0
LINE
  5
1D65
330
1F
100
AcDbEntity
  8
AM_VIS
100
AcDbLine
 10
2197.775371165054
 20
1336.44967346908
 30
0.0
 11
2200.275371165054
 21
1336.44967346908
 31
0.0
  0
LINE
  5
1D66
330
1F
100
AcDbEntity
  8
AM_VIS
100
AcDbLine
 10
2203.275371165054
 20
1334.717622661511
 30
0.0
 11
2200.275371165054
 21
1336.44967346908
 31
0.0
  0
LINE
  5
1D67
330
1F
100
AcDbEntity
  8
AM_VIS
100
AcDbLine
 10
2206.275371165054
 20
1336.44967346908
 30
0.0
 11
2203.275371165054
 21
1334.717622661511
 31
0.0
  0
LINE
  5
1D68
330
1F
100
AcDbEntity
  8
AM_VIS
100
AcDbLine
 10
2206.275371165054
 20
1336.44967346908
 30
0.0
 11
2222.275371165054
 21
1336.44967346908
 31
0.0
  0
LINE
  5
1D69
330
1F
100
AcDbEntity
  8
AM_VIS
100
AcDbLine
 10
2223.275371165054
 20
1335.44967346908
 30
0.0
 11
2223.275371165054
 21
1307.149673469079
 31
0.0
  0
LINE
  5
1D6A
330
1F
100
AcDbEntity
  8
AM_VIS
100
AcDbLine
 10
2212.975371165054
 20
1306.44967346908
 30
0.0
 11
2222.989514007908
 21
1306.44967346908
 31
0.0
  0
LINE
  5
1D6B
330
1F
100
AcDbEntity
  8
AM_VIS
100
AcDbLine
 10
2212.675371165054
 20
1306.74967346908
 30
0.0
 11
2212.975371165054
 21
1306.44967346908
 31
0.0
  0
LINE
  5
1D6C
330
1F
100
AcDbEntity
  8
AM_VIS
100
AcDbLine
 10
2209.675371165054
 20
1306.74967346908
 30
0.0
 11
2212.675371165054
 21
1306.74967346908
 31
0.0
  0
LINE
  5
1D6D
330
1F
100
AcDbEntity
  8
AM_VIS
100
AcDbLine
 10
2208.775371165054
 20
1307.64967346908
 30
0.0
 11
2209.675371165054
 21
1306.74967346908
 31
0.0
  0
LINE
  5
1D6E
330
1F
100
AcDbEntity
  8
AM_VIS
100
AcDbLine
 10
2207.575371165054
 20
1306.44967346908
 30
0.0
 11
2208.775371165054
 21
1307.64967346908
 31
0.0
  0
LINE
  5
1D6F
330
1F
100
AcDbEntity
  8
AM_VIS
100
AcDbLine
 10
2198.975371165054
 20
1306.44967346908
 30
0.0
 11
2207.575371165054
 21
1306.44967346908
 31
0.0
  0
LINE
  5
1D70
330
1F
100
AcDbEntity
  8
AM_VIS
100
AcDbLine
 10
2198.675371165054
 20
1306.74967346908
 30
0.0
 11
2198.975371165054
 21
1306.44967346908
 31
0.0
  0
LINE
  5
1D71
330
1F
100
AcDbEntity
  8
AM_VIS
100
AcDbLine
 10
2196.975371165054
 20
1306.74967346908
 30
0.0
 11
2198.675371165054
 21
1306.74967346908
 31
0.0
  0
LINE
  5
1D72
330
1F
100
AcDbEntity
  8
AM_VIS
100
AcDbLine
 10
2196.975371165054
 20
1307.24967346908
 30
0.0
 11
2196.975371165054
 21
1306.74967346908
 31
0.0
  0
LINE
  5
1D73
330
1F
100
AcDbEntity
  8
AM_VIS
100
AcDbLine
 10
2197.425371165054
 20
1307.74967346908
 30
0.0
 11
2196.975371165054
 21
1307.24967346908
 31
0.0
  0
LINE
  5
1D74
330
1F
100
AcDbEntity
  8
AM_VIS
100
AcDbLine
 10
2197.425371165054
 20
1309.84967346908
 30
0.0
 11
2197.425371165054
 21
1307.74967346908
 31
0.0
  0
LINE
  5
1D75
330
1F
100
AcDbEntity
  8
AM_VIS
100
AcDbLine
 10
2194.825371165054
 20
1311.54967346908
 30
0.0
 11
2195.725371165054
 21
1311.54967346908
 31
0.0
  0
LINE
  5
1D76
330
1F
100
AcDbEntity
  8
AM_VIS
100
AcDbLine
 10
2193.125371165054
 20
1307.74967346908
 30
0.0
 11
2193.125371165054
 21
1309.84967346908
 31
0.0
  0
LINE
  5
1D77
330
1F
100
AcDbEntity
  8
AM_VIS
100
AcDbLine
 10
2193.575371165054
 20
1307.24967346908
 30
0.0
 11
2193.125371165054
 21
1307.74967346908
 31
0.0
  0
LINE
  5
1D78
330
1F
100
AcDbEntity
  8
AM_VIS
100
AcDbLine
 10
2193.575371165054
 20
1306.74967346908
 30
0.0
 11
2193.575371165054
 21
1307.24967346908
 31
0.0
  0
LINE
  5
1D79
330
1F
100
AcDbEntity
  8
AM_VIS
100
AcDbLine
 10
2188.975371165054
 20
1306.74967346908
 30
0.0
 11
2193.575371165054
 21
1306.74967346908
 31
0.0
  0
LINE
  5
1D7A
330
1F
100
AcDbEntity
  8
AM_VIS
100
AcDbLine
 10
2188.975371165054
 20
1307.24967346908
 30
0.0
 11
2188.975371165054
 21
1306.74967346908
 31
0.0
  0
LINE
  5
1D7B
330
1F
100
AcDbEntity
  8
AM_VIS
100
AcDbLine
 10
2189.425371165054
 20
1307.74967346908
 30
0.0
 11
2188.975371165054
 21
1307.24967346908
 31
0.0
  0
LINE
  5
1D7C
330
1F
100
AcDbEntity
  8
AM_VIS
100
AcDbLine
 10
2189.425371165054
 20
1309.84967346908
 30
0.0
 11
2189.425371165054
 21
1307.74967346908
 31
0.0
  0
LINE
  5
1D7D
330
1F
100
AcDbEntity
  8
AM_VIS
100
AcDbLine
 10
2186.825371165054
 20
1311.54967346908
 30
0.0
 11
2187.725371165054
 21
1311.54967346908
 31
0.0
  0
LINE
  5
1D7E
330
1F
100
AcDbEntity
  8
AM_VIS
100
AcDbLine
 10
2185.125371165054
 20
1307.74967346908
 30
0.0
 11
2185.125371165054
 21
1309.84967346908
 31
0.0
  0
LINE
  5
1D7F
330
1F
100
AcDbEntity
  8
AM_VIS
100
AcDbLine
 10
2185.575371165054
 20
1307.24967346908
 30
0.0
 11
2185.125371165054
 21
1307.74967346908
 31
0.0
  0
LINE
  5
1D80
330
1F
100
AcDbEntity
  8
AM_VIS
100
AcDbLine
 10
2185.575371165054
 20
1306.74967346908
 30
0.0
 11
2185.575371165054
 21
1307.24967346908
 31
0.0
  0
LINE
  5
1D81
330
1F
100
AcDbEntity
  8
AM_VIS
100
AcDbLine
 10
2183.875371165054
 20
1306.74967346908
 30
0.0
 11
2185.575371165054
 21
1306.74967346908
 31
0.0
  0
LINE
  5
1D82
330
1F
100
AcDbEntity
  8
AM_VIS
100
AcDbLine
 10
2183.575371165054
 20
1306.44967346908
 30
0.0
 11
2183.875371165054
 21
1306.74967346908
 31
0.0
  0
LINE
  5
1D83
330
1F
100
AcDbEntity
  8
AM_VIS
100
AcDbLine
 10
2174.975371165054
 20
1306.44967346908
 30
0.0
 11
2183.575371165054
 21
1306.44967346908
 31
0.0
  0
LINE
  5
1D84
330
1F
100
AcDbEntity
  8
AM_VIS
100
AcDbLine
 10
2173.775371165054
 20
1307.64967346908
 30
0.0
 11
2174.975371165054
 21
1306.44967346908
 31
0.0
  0
LINE
  5
1D85
330
1F
100
AcDbEntity
  8
AM_VIS
100
AcDbLine
 10
2172.875371165054
 20
1306.74967346908
 30
0.0
 11
2173.775371165054
 21
1307.64967346908
 31
0.0
  0
LINE
  5
1D86
330
1F
100
AcDbEntity
  8
AM_VIS
100
AcDbLine
 10
2169.875371165054
 20
1306.74967346908
 30
0.0
 11
2172.875371165054
 21
1306.74967346908
 31
0.0
  0
LINE
  5
1D87
330
1F
100
AcDbEntity
  8
AM_VIS
100
AcDbLine
 10
2169.575371165054
 20
1306.44967346908
 30
0.0
 11
2169.875371165054
 21
1306.74967346908
 31
0.0
  0
LINE
  5
1D88
330
1F
100
AcDbEntity
  8
AM_VIS
100
AcDbLine
 10
2159.5612283222
 20
1306.44967346908
 30
0.0
 11
2169.575371165054
 21
1306.44967346908
 31
0.0
  0
ARC
  5
1D89
330
1F
100
AcDbEntity
  8
AM_VIS
100
AcDbCircle
 10
2160.275371165054
 20
1307.149673469079
 30
0.0
 40
1.0
100
AcDbArc
 50
180.0
 51
224.4270040008001
  0
ARC
  5
1D8A
330
1F
100
AcDbEntity
  8
AM_VIS
100
AcDbCircle
 10
2160.275371165054
 20
1335.44967346908
 30
0.0
 40
0.9999999999999998
100
AcDbArc
 50
90.0
 51
180.0
  0
ARC
  5
1D8B
330
1F
100
AcDbEntity
  8
AM_VIS
100
AcDbCircle
 10
2186.825371165054
 20
1333.04967346908
 30
0.0
 40
1.7
100
AcDbArc
 50
180.0
 51
270.0
  0
ARC
  5
1D8C
330
1F
100
AcDbEntity
  8
AM_VIS
100
AcDbCircle
 10
2187.725371165054
 20
1333.04967346908
 30
0.0
 40
1.7
100
AcDbArc
 50
270.0
 51
0.0
  0
ARC
  5
1D8D
330
1F
100
AcDbEntity
  8
AM_VIS
100
AcDbCircle
 10
2194.825371165054
 20
1333.04967346908
 30
0.0
 40
1.7
100
AcDbArc
 50
180.0
 51
270.0
  0
ARC
  5
1D8E
330
1F
100
AcDbEntity
  8
AM_VIS
100
AcDbCircle
 10
2195.725371165054
 20
1333.04967346908
 30
0.0
 40
1.7
100
AcDbArc
 50
270.0
 51
0.0
  0
ARC
  5
1D8F
330
1F
100
AcDbEntity
  8
AM_VIS
100
AcDbCircle
 10
2222.275371165054
 20
1335.44967346908
 30
0.0
 40
0.9999999999999998
100
AcDbArc
 50
0.0
 51
90.0
  0
ARC
  5
1D90
330
1F
100
AcDbEntity
  8
AM_VIS
100
AcDbCircle
 10
2222.275371165054
 20
1307.14967346908
 30
0.0
 40
0.9999999999999998
100
AcDbArc
 50
315.5729959991999
 51
0.0
  0
ARC
  5
1D91
330
1F
100
AcDbEntity
  8
AM_VIS
100
AcDbCircle
 10
2195.725371165054
 20
1309.84967346908
 30
0.0
 40
1.7
100
AcDbArc
 50
0.0
 51
90.0
  0
ARC
  5
1D92
330
1F
100
AcDbEntity
  8
AM_VIS
100
AcDbCircle
 10
2194.825371165054
 20
1309.84967346908
 30
0.0
 40
1.7
100
AcDbArc
 50
90.0
 51
180.0
  0
ARC
  5
1D93
330
1F
100
AcDbEntity
  8
AM_VIS
100
AcDbCircle
 10
2187.725371165054
 20
1309.84967346908
 30
0.0
 40
1.7
100
AcDbArc
 50
0.0
 51
90.0
  0
ARC
  5
1D94
330
1F
100
AcDbEntity
  8
AM_VIS
100
AcDbCircle
 10
2186.825371165054
 20
1309.84967346908
 30
0.0
 40
1.7
100
AcDbArc
 50
90.0
 51
180.0
  0
LINE
  5
1D97
330
1F
100
AcDbEntity
  8
AM_VIS
100
AcDbLine
 10
2100.505981099594
 20
1431.870545156516
 30
0.0
 11
2100.255981099594
 21
1431.620545156516
 31
0.0
  0
LINE
  5
1D98
330
1F
100
AcDbEntity
  8
AM_VIS
100
AcDbLine
 10
2124.505981099594
 20
1431.870545156516
 30
0.0
 11
2124.755981099593
 21
1431.620545156516
 31
0.0
  0
LINE
  5
1D99
330
1F
100
AcDbEntity
  8
AM_VIS
100
AcDbLine
 10
2124.755981099593
 20
1431.620545156516
 30
0.0
 11
2125.005981099594
 21
1431.370545156516
 31
0.0
  0
LINE
  5
1D9A
330
1F
100
AcDbEntity
  8
AM_VIS
100
AcDbLine
 10
2125.005981099594
 20
1422.370545156516
 30
0.0
 11
2125.005981099594
 21
1431.370545156516
 31
0.0
  0
LINE
  5
1D9B
330
1F
100
AcDbEntity
  8
AM_VIS
100
AcDbLine
 10
2100.005981099593
 20
1431.370545156516
 30
0.0
 11
2100.255981099594
 21
1431.620545156516
 31
0.0
  0
LINE
  5
1D9C
330
1F
100
AcDbEntity
  8
AM_VIS
100
AcDbLine
 10
2100.005981099593
 20
1431.370545156516
 30
0.0
 11
2100.005981099593
 21
1422.370545156516
 31
0.0
  0
LINE
  5
1D9D
330
1F
100
AcDbEntity
  8
AM_VIS
100
AcDbLine
 10
2100.255981099594
 20
1422.120545156516
 30
0.0
 11
2100.005981099593
 21
1422.370545156516
 31
0.0
  0
LINE
  5
1D9E
330
1F
100
AcDbEntity
  8
AM_VIS
100
AcDbLine
 10
2125.005981099594
 20
1422.370545156516
 30
0.0
 11
2124.755981099593
 21
1422.120545156516
 31
0.0
  0
LINE
  5
1D9F
330
1F
100
AcDbEntity
  8
AM_VIS
100
AcDbLine
 10
2124.505981099594
 20
1421.870545156516
 30
0.0
 11
2124.755981099593
 21
1422.120545156516
 31
0.0
  0
LINE
  5
1DA0
330
1F
100
AcDbEntity
  8
AM_VIS
100
AcDbLine
 10
2100.255981099594
 20
1422.120545156516
 30
0.0
 11
2100.505981099594
 21
1421.870545156516
 31
0.0
  0
LINE
  5
1DA1
330
1F
100
AcDbEntity
  8
AM_VIS
100
AcDbLine
 10
2124.505981099594
 20
1431.870545156516
 30
0.0
 11
2100.505981099594
 21
1431.870545156516
 31
0.0
  0
LINE
  5
1DA2
330
1F
100
AcDbEntity
  8
AM_VIS
100
AcDbLine
 10
2100.505981099594
 20
1421.870545156516
 30
0.0
 11
2124.505981099594
 21
1421.870545156516
 31
0.0
  0
LINE
  5
1DA3
330
1F
100
AcDbEntity
  8
AM_VIS
100
AcDbLine
 10
2097.505981099594
 20
1419.870545156516
 30
0.0
 11
2097.505981099594
 21
1378.870545156516
 31
0.0
  0
LINE
  5
1DA4
330
1F
100
AcDbEntity
  8
AM_VIS
100
AcDbLine
 10
2127.505981099594
 20
1378.870545156516
 30
0.0
 11
2127.505981099594
 21
1419.870545156516
 31
0.0
  0
LINE
  5
1DA5
330
1F
100
AcDbEntity
  8
AM_VIS
100
AcDbLine
 10
2126.505981099594
 20
1419.870545156516
 30
0.0
 11
2098.205981099594
 21
1419.870545156516
 31
0.0
  0
LINE
  5
1DA6
330
1F
100
AcDbEntity
  8
AM_VIS
100
AcDbLine
 10
2098.205981099594
 20
1378.870545156516
 30
0.0
 11
2126.505981099594
 21
1378.870545156516
 31
0.0
  0
LINE
  5
1DA7
330
1F
100
AcDbEntity
  8
AM_VIS
100
AcDbLine
 10
2126.505981099594
 20
1419.870545156516
 30
0.0
 11
2127.505981099594
 21
1419.870545156516
 31
0.0
  0
LINE
  5
1DA8
330
1F
100
AcDbEntity
  8
AM_VIS
100
AcDbLine
 10
2097.505981099594
 20
1419.870545156516
 30
0.0
 11
2098.205981099594
 21
1419.870545156516
 31
0.0
  0
LINE
  5
1DA9
330
1F
100
AcDbEntity
  8
AM_VIS
100
AcDbLine
 10
2098.205981099594
 20
1378.870545156516
 30
0.0
 11
2097.505981099594
 21
1378.870545156516
 31
0.0
  0
LINE
  5
1DAA
330
1F
100
AcDbEntity
  8
AM_VIS
100
AcDbLine
 10
2127.505981099594
 20
1378.870545156516
 30
0.0
 11
2126.505981099594
 21
1378.870545156516
 31
0.0
  0
LINE
  5
1DAD
330
1F
100
AcDbEntity
  8
AM_VIS
100
AcDbLine
 10
2257.103755032952
 20
1431.370545156516
 30
0.0
 11
2257.353755032951
 21
1431.620545156516
 31
0.0
  0
LINE
  5
1DAE
330
1F
100
AcDbEntity
  8
AM_VIS
100
AcDbLine
 10
2257.603755032952
 20
1431.870545156516
 30
0.0
 11
2257.353755032951
 21
1431.620545156516
 31
0.0
  0
LINE
  5
1DAF
330
1F
100
AcDbEntity
  8
AM_VIS
100
AcDbLine
 10
2281.853755032952
 20
1431.620545156516
 30
0.0
 11
2281.603755032952
 21
1431.870545156516
 31
0.0
  0
LINE
  5
1DB0
330
1F
100
AcDbEntity
  8
AM_VIS
100
AcDbLine
 10
2281.853755032952
 20
1431.620545156516
 30
0.0
 11
2282.103755032952
 21
1431.370545156516
 31
0.0
  0
LINE
  5
1DB1
330
1F
100
AcDbEntity
  8
AM_VIS
100
AcDbLine
 10
2257.103755032952
 20
1431.370545156516
 30
0.0
 11
2257.103755032952
 21
1422.370545156516
 31
0.0
  0
LINE
  5
1DB2
330
1F
100
AcDbEntity
  8
AM_VIS
100
AcDbLine
 10
2282.103755032952
 20
1422.370545156516
 30
0.0
 11
2282.103755032952
 21
1431.370545156516
 31
0.0
  0
LINE
  5
1DB3
330
1F
100
AcDbEntity
  8
AM_VIS
100
AcDbLine
 10
2281.853755032952
 20
1422.120545156516
 30
0.0
 11
2281.603755032952
 21
1421.870545156516
 31
0.0
  0
LINE
  5
1DB4
330
1F
100
AcDbEntity
  8
AM_VIS
100
AcDbLine
 10
2282.103755032952
 20
1422.370545156516
 30
0.0
 11
2281.853755032952
 21
1422.120545156516
 31
0.0
  0
LINE
  5
1DB5
330
1F
100
AcDbEntity
  8
AM_VIS
100
AcDbLine
 10
2257.353755032951
 20
1422.120545156516
 30
0.0
 11
2257.103755032952
 21
1422.370545156516
 31
0.0
  0
LINE
  5
1DB6
330
1F
100
AcDbEntity
  8
AM_VIS
100
AcDbLine
 10
2257.603755032952
 20
1421.870545156516
 30
0.0
 11
2257.353755032951
 21
1422.120545156516
 31
0.0
  0
LINE
  5
1DB7
330
1F
100
AcDbEntity
  8
AM_VIS
100
AcDbLine
 10
2281.603755032952
 20
1431.870545156516
 30
0.0
 11
2257.603755032952
 21
1431.870545156516
 31
0.0
  0
LINE
  5
1DB8
330
1F
100
AcDbEntity
  8
AM_VIS
100
AcDbLine
 10
2257.603755032952
 20
1421.870545156516
 30
0.0
 11
2281.603755032952
 21
1421.870545156516
 31
0.0
  0
LINE
  5
1DB9
330
1F
100
AcDbEntity
  8
AM_VIS
100
AcDbLine
 10
2254.603755032952
 20
1419.870545156516
 30
0.0
 11
2254.603755032952
 21
1378.870545156516
 31
0.0
  0
LINE
  5
1DBA
330
1F
100
AcDbEntity
  8
AM_VIS
100
AcDbLine
 10
2284.603755032952
 20
1378.870545156516
 30
0.0
 11
2284.603755032952
 21
1419.870545156516
 31
0.0
  0
LINE
  5
1DBB
330
1F
100
AcDbEntity
  8
AM_VIS
100
AcDbLine
 10
2283.903755032952
 20
1419.870545156516
 30
0.0
 11
2255.603755032952
 21
1419.870545156516
 31
0.0
  0
LINE
  5
1DBC
330
1F
100
AcDbEntity
  8
AM_VIS
100
AcDbLine
 10
2255.603755032952
 20
1378.870545156516
 30
0.0
 11
2283.903755032952
 21
1378.870545156516
 31
0.0
  0
LINE
  5
1DBD
330
1F
100
AcDbEntity
  8
AM_VIS
100
AcDbLine
 10
2283.903755032952
 20
1419.870545156516
 30
0.0
 11
2284.603755032952
 21
1419.870545156516
 31
0.0
  0
LINE
  5
1DBE
330
1F
100
AcDbEntity
  8
AM_VIS
100
AcDbLine
 10
2254.603755032952
 20
1419.870545156516
 30
0.0
 11
2255.603755032952
 21
1419.870545156516
 31
0.0
  0
LINE
  5
1DBF
330
1F
100
AcDbEntity
  8
AM_VIS
100
AcDbLine
 10
2255.603755032952
 20
1378.870545156516
 30
0.0
 11
2254.603755032952
 21
1378.870545156516
 31
0.0
  0
LINE
  5
1DC0
330
1F
100
AcDbEntity
  8
AM_VIS
100
AcDbLine
 10
2284.603755032952
 20
1378.870545156516
 30
0.0
 11
2283.903755032952
 21
1378.870545156516
 31
0.0
  0
LINE
  5
1DC5
330
1F
100
AcDbEntity
  8
AM_VIS
100
AcDbLine
 10
2346.671434291667
 20
1419.870545156516
 30
0.0
 11
2346.671434291667
 21
1421.870545156516
 31
0.0
  0
LINE
  5
1DC6
330
1F
100
AcDbEntity
  8
AM_VIS
100
AcDbLine
 10
2338.671434291667
 20
1419.870545156516
 30
0.0
 11
2338.671434291667
 21
1421.870545156516
 31
0.0
  0
LINE
  5
1DC7
330
1F
100
AcDbEntity
  8
AM_VIS
100
AcDbLine
 10
2373.171434291667
 20
1431.870545156516
 30
0.0
 11
2373.421434291667
 21
1431.620545156516
 31
0.0
  0
LINE
  5
1DC8
330
1F
100
AcDbEntity
  8
AM_VIS
100
AcDbLine
 10
2311.921434291667
 20
1431.620545156516
 30
0.0
 11
2312.171434291667
 21
1431.870545156516
 31
0.0
  0
LINE
  5
1DC9
330
1F
100
AcDbEntity
  8
AM_VIS
100
AcDbLine
 10
2311.671434291667
 20
1431.370545156516
 30
0.0
 11
2311.921434291667
 21
1431.620545156516
 31
0.0
  0
LINE
  5
1DCA
330
1F
100
AcDbEntity
  8
AM_VIS
100
AcDbLine
 10
2311.671434291667
 20
1431.370545156516
 30
0.0
 11
2311.671434291667
 21
1422.370545156516
 31
0.0
  0
LINE
  5
1DCB
330
1F
100
AcDbEntity
  8
AM_VIS
100
AcDbLine
 10
2311.921434291667
 20
1422.120545156516
 30
0.0
 11
2311.671434291667
 21
1422.370545156516
 31
0.0
  0
LINE
  5
1DCC
330
1F
100
AcDbEntity
  8
AM_VIS
100
AcDbLine
 10
2373.421434291667
 20
1431.620545156516
 30
0.0
 11
2373.671434291667
 21
1431.370545156516
 31
0.0
  0
LINE
  5
1DCD
330
1F
100
AcDbEntity
  8
AM_VIS
100
AcDbLine
 10
2373.671434291667
 20
1422.370545156516
 30
0.0
 11
2373.671434291667
 21
1431.370545156516
 31
0.0
  0
LINE
  5
1DCE
330
1F
100
AcDbEntity
  8
AM_VIS
100
AcDbLine
 10
2311.921434291667
 20
1422.120545156516
 30
0.0
 11
2312.171434291667
 21
1421.870545156516
 31
0.0
  0
LINE
  5
1DCF
330
1F
100
AcDbEntity
  8
AM_VIS
100
AcDbLine
 10
2373.421434291667
 20
1422.120545156516
 30
0.0
 11
2373.171434291667
 21
1421.870545156516
 31
0.0
  0
LINE
  5
1DD0
330
1F
100
AcDbEntity
  8
AM_VIS
100
AcDbLine
 10
2373.671434291667
 20
1422.370545156516
 30
0.0
 11
2373.421434291667
 21
1422.120545156516
 31
0.0
  0
LINE
  5
1DD1
330
1F
100
AcDbEntity
  8
AM_VIS
100
AcDbLine
 10
2373.171434291667
 20
1431.870545156516
 30
0.0
 11
2312.171434291667
 21
1431.870545156516
 31
0.0
  0
LINE
  5
1DD2
330
1F
100
AcDbEntity
  8
AM_VIS
100
AcDbLine
 10
2312.171434291667
 20
1421.870545156516
 30
0.0
 11
2373.171434291667
 21
1421.870545156516
 31
0.0
  0
LINE
  5
1DD3
330
1F
100
AcDbEntity
  8
AM_VIS
100
AcDbLine
 10
2324.271434291667
 20
1419.870545156516
 30
0.0
 11
2324.271434291667
 21
1378.870545156516
 31
0.0
  0
LINE
  5
1DD4
330
1F
100
AcDbEntity
  8
AM_VIS
100
AcDbLine
 10
2321.271434291667
 20
1419.870545156516
 30
0.0
 11
2321.271434291667
 21
1378.870545156516
 31
0.0
  0
LINE
  5
1DD5
330
1F
100
AcDbEntity
  8
AM_VIS
100
AcDbLine
 10
2364.071434291667
 20
1419.870545156516
 30
0.0
 11
2364.071434291667
 21
1378.870545156516
 31
0.0
  0
LINE
  5
1DD6
330
1F
100
AcDbEntity
  8
AM_VIS
100
AcDbLine
 10
2360.171434291666
 20
1419.870545156516
 30
0.0
 11
2360.171434291666
 21
1378.870545156516
 31
0.0
  0
LINE
  5
1DD7
330
1F
100
AcDbEntity
  8
AM_VIS
100
AcDbLine
 10
2361.071434291667
 20
1419.870545156516
 30
0.0
 11
2361.071434291667
 21
1378.870545156516
 31
0.0
  0
LINE
  5
1DD8
330
1F
100
AcDbEntity
  8
AM_VIS
100
AcDbLine
 10
2335.271434291667
 20
1419.870545156516
 30
0.0
 11
2335.271434291667
 21
1378.870545156516
 31
0.0
  0
LINE
  5
1DD9
330
1F
100
AcDbEntity
  8
AM_VIS
100
AcDbLine
 10
2340.371434291667
 20
1419.870545156516
 30
0.0
 11
2340.371434291667
 21
1378.870545156516
 31
0.0
  0
LINE
  5
1DDA
330
1F
100
AcDbEntity
  8
AM_VIS
100
AcDbLine
 10
2336.971434291667
 20
1378.870545156516
 30
0.0
 11
2336.971434291667
 21
1419.870545156516
 31
0.0
  0
LINE
  5
1DDB
330
1F
100
AcDbEntity
  8
AM_VIS
100
AcDbLine
 10
2348.371434291667
 20
1419.870545156516
 30
0.0
 11
2348.371434291667
 21
1378.870545156516
 31
0.0
  0
LINE
  5
1DDC
330
1F
100
AcDbEntity
  8
AM_VIS
100
AcDbLine
 10
2344.971434291667
 20
1378.870545156516
 30
0.0
 11
2344.971434291667
 21
1419.870545156516
 31
0.0
  0
LINE
  5
1DDD
330
1F
100
AcDbEntity
  8
AM_VIS
100
AcDbLine
 10
2350.071434291667
 20
1419.870545156516
 30
0.0
 11
2350.071434291667
 21
1378.870545156516
 31
0.0
  0
LINE
  5
1DDE
330
1F
100
AcDbEntity
  8
AM_VIS
100
AcDbLine
 10
2325.171434291667
 20
1419.870545156516
 30
0.0
 11
2325.171434291667
 21
1378.870545156516
 31
0.0
  0
LINE
  5
1DDF
330
1F
100
AcDbEntity
  8
AM_VIS
100
AcDbLine
 10
2310.671434291667
 20
1419.870545156516
 30
0.0
 11
2310.671434291667
 21
1378.870545156516
 31
0.0
  0
LINE
  5
1DE0
330
1F
100
AcDbEntity
  8
AM_VIS
100
AcDbLine
 10
2350.371434291667
 20
1378.870545156516
 30
0.0
 11
2350.371434291667
 21
1419.870545156516
 31
0.0
  0
LINE
  5
1DE1
330
1F
100
AcDbEntity
  8
AM_VIS
100
AcDbLine
 10
2358.971434291667
 20
1419.870545156516
 30
0.0
 11
2358.971434291667
 21
1378.870545156516
 31
0.0
  0
LINE
  5
1DE2
330
1F
100
AcDbEntity
  8
AM_VIS
100
AcDbLine
 10
2326.371434291667
 20
1378.870545156516
 30
0.0
 11
2326.371434291667
 21
1419.870545156516
 31
0.0
  0
LINE
  5
1DE3
330
1F
100
AcDbEntity
  8
AM_VIS
100
AcDbLine
 10
2334.971434291667
 20
1419.870545156516
 30
0.0
 11
2334.971434291667
 21
1378.870545156516
 31
0.0
  0
LINE
  5
1DE4
330
1F
100
AcDbEntity
  8
AM_VIS
100
AcDbLine
 10
2320.971434291667
 20
1419.870545156516
 30
0.0
 11
2320.971434291667
 21
1378.870545156516
 31
0.0
  0
LINE
  5
1DE5
330
1F
100
AcDbEntity
  8
AM_VIS
100
AcDbLine
 10
2364.371434291667
 20
1378.870545156516
 30
0.0
 11
2364.371434291667
 21
1419.870545156516
 31
0.0
  0
LINE
  5
1DE6
330
1F
100
AcDbEntity
  8
AM_VIS
100
AcDbLine
 10
2364.071434291667
 20
1419.870545156516
 30
0.0
 11
2364.371434291667
 21
1419.870545156516
 31
0.0
  0
LINE
  5
1DE7
330
1F
100
AcDbEntity
  8
AM_VIS
100
AcDbLine
 10
2361.071434291667
 20
1419.870545156516
 30
0.0
 11
2364.071434291667
 21
1419.870545156516
 31
0.0
  0
LINE
  5
1DE8
330
1F
100
AcDbEntity
  8
AM_VIS
100
AcDbLine
 10
2360.171434291666
 20
1419.870545156516
 30
0.0
 11
2361.071434291667
 21
1419.870545156516
 31
0.0
  0
LINE
  5
1DE9
330
1F
100
AcDbEntity
  8
AM_VIS
100
AcDbLine
 10
2358.971434291667
 20
1419.870545156516
 30
0.0
 11
2360.171434291666
 21
1419.870545156516
 31
0.0
  0
LINE
  5
1DEA
330
1F
100
AcDbEntity
  8
AM_VIS
100
AcDbLine
 10
2350.371434291667
 20
1419.870545156516
 30
0.0
 11
2358.971434291667
 21
1419.870545156516
 31
0.0
  0
LINE
  5
1DEB
330
1F
100
AcDbEntity
  8
AM_VIS
100
AcDbLine
 10
2350.071434291667
 20
1419.870545156516
 30
0.0
 11
2350.371434291667
 21
1419.870545156516
 31
0.0
  0
LINE
  5
1DEC
330
1F
100
AcDbEntity
  8
AM_VIS
100
AcDbLine
 10
2348.371434291667
 20
1419.870545156516
 30
0.0
 11
2350.071434291667
 21
1419.870545156516
 31
0.0
  0
LINE
  5
1DED
330
1F
100
AcDbEntity
  8
AM_VIS
100
AcDbLine
 10
2346.221434291667
 20
1419.870545156516
 30
0.0
 11
2347.121434291667
 21
1419.870545156516
 31
0.0
  0
LINE
  5
1DEE
330
1F
100
AcDbEntity
  8
AM_VIS
100
AcDbLine
 10
2340.371434291667
 20
1419.870545156516
 30
0.0
 11
2344.971434291667
 21
1419.870545156516
 31
0.0
  0
LINE
  5
1DEF
330
1F
100
AcDbEntity
  8
AM_VIS
100
AcDbLine
 10
2338.221434291667
 20
1419.870545156516
 30
0.0
 11
2339.121434291667
 21
1419.870545156516
 31
0.0
  0
LINE
  5
1DF0
330
1F
100
AcDbEntity
  8
AM_VIS
100
AcDbLine
 10
2335.271434291667
 20
1419.870545156516
 30
0.0
 11
2336.971434291667
 21
1419.870545156516
 31
0.0
  0
LINE
  5
1DF1
330
1F
100
AcDbEntity
  8
AM_VIS
100
AcDbLine
 10
2334.971434291667
 20
1419.870545156516
 30
0.0
 11
2335.271434291667
 21
1419.870545156516
 31
0.0
  0
LINE
  5
1DF2
330
1F
100
AcDbEntity
  8
AM_VIS
100
AcDbLine
 10
2326.371434291667
 20
1419.870545156516
 30
0.0
 11
2334.971434291667
 21
1419.870545156516
 31
0.0
  0
LINE
  5
1DF3
330
1F
100
AcDbEntity
  8
AM_VIS
100
AcDbLine
 10
2325.171434291667
 20
1419.870545156516
 30
0.0
 11
2326.371434291667
 21
1419.870545156516
 31
0.0
  0
LINE
  5
1DF4
330
1F
100
AcDbEntity
  8
AM_VIS
100
AcDbLine
 10
2324.271434291667
 20
1419.870545156516
 30
0.0
 11
2325.171434291667
 21
1419.870545156516
 31
0.0
  0
LINE
  5
1DF5
330
1F
100
AcDbEntity
  8
AM_VIS
100
AcDbLine
 10
2321.271434291667
 20
1419.870545156516
 30
0.0
 11
2324.271434291667
 21
1419.870545156516
 31
0.0
  0
LINE
  5
1DF6
330
1F
100
AcDbEntity
  8
AM_VIS
100
AcDbLine
 10
2320.971434291667
 20
1419.870545156516
 30
0.0
 11
2321.271434291667
 21
1419.870545156516
 31
0.0
  0
LINE
  5
1DF7
330
1F
100
AcDbEntity
  8
AM_VIS
100
AcDbLine
 10
2310.957291448813
 20
1419.870545156516
 30
0.0
 11
2320.971434291667
 21
1419.870545156516
 31
0.0
  0
LINE
  5
1DF8
330
1F
100
AcDbEntity
  8
AM_VIS
100
AcDbLine
 10
2364.371434291667
 20
1419.870545156516
 30
0.0
 11
2374.385577134521
 21
1419.870545156516
 31
0.0
  0
LINE
  5
1DF9
330
1F
100
AcDbEntity
  8
AM_VIS
100
AcDbLine
 10
2374.671434291667
 20
1378.870545156516
 30
0.0
 11
2374.671434291667
 21
1419.870545156516
 31
0.0
  0
LINE
  5
1DFA
330
1F
100
AcDbEntity
  8
AM_VIS
100
AcDbLine
 10
2320.971434291667
 20
1378.870545156516
 30
0.0
 11
2310.957291448813
 21
1378.870545156516
 31
0.0
  0
LINE
  5
1DFB
330
1F
100
AcDbEntity
  8
AM_VIS
100
AcDbLine
 10
2321.271434291667
 20
1378.870545156516
 30
0.0
 11
2320.971434291667
 21
1378.870545156516
 31
0.0
  0
LINE
  5
1DFC
330
1F
100
AcDbEntity
  8
AM_VIS
100
AcDbLine
 10
2324.271434291667
 20
1378.870545156516
 30
0.0
 11
2321.271434291667
 21
1378.870545156516
 31
0.0
  0
LINE
  5
1DFD
330
1F
100
AcDbEntity
  8
AM_VIS
100
AcDbLine
 10
2325.171434291667
 20
1378.870545156516
 30
0.0
 11
2324.271434291667
 21
1378.870545156516
 31
0.0
  0
LINE
  5
1DFE
330
1F
100
AcDbEntity
  8
AM_VIS
100
AcDbLine
 10
2326.371434291667
 20
1378.870545156516
 30
0.0
 11
2325.171434291667
 21
1378.870545156516
 31
0.0
  0
LINE
  5
1DFF
330
1F
100
AcDbEntity
  8
AM_VIS
100
AcDbLine
 10
2334.971434291667
 20
1378.870545156516
 30
0.0
 11
2326.371434291667
 21
1378.870545156516
 31
0.0
  0
LINE
  5
1E00
330
1F
100
AcDbEntity
  8
AM_VIS
100
AcDbLine
 10
2335.271434291667
 20
1378.870545156516
 30
0.0
 11
2334.971434291667
 21
1378.870545156516
 31
0.0
  0
LINE
  5
1E01
330
1F
100
AcDbEntity
  8
AM_VIS
100
AcDbLine
 10
2336.971434291667
 20
1378.870545156516
 30
0.0
 11
2335.271434291667
 21
1378.870545156516
 31
0.0
  0
LINE
  5
1E02
330
1F
100
AcDbEntity
  8
AM_VIS
100
AcDbLine
 10
2339.121434291667
 20
1378.870545156516
 30
0.0
 11
2338.221434291667
 21
1378.870545156516
 31
0.0
  0
LINE
  5
1E03
330
1F
100
AcDbEntity
  8
AM_VIS
100
AcDbLine
 10
2344.971434291667
 20
1378.870545156516
 30
0.0
 11
2340.371434291667
 21
1378.870545156516
 31
0.0
  0
LINE
  5
1E04
330
1F
100
AcDbEntity
  8
AM_VIS
100
AcDbLine
 10
2347.121434291667
 20
1378.870545156516
 30
0.0
 11
2346.221434291667
 21
1378.870545156516
 31
0.0
  0
LINE
  5
1E05
330
1F
100
AcDbEntity
  8
AM_VIS
100
AcDbLine
 10
2350.071434291667
 20
1378.870545156516
 30
0.0
 11
2348.371434291667
 21
1378.870545156516
 31
0.0
  0
LINE
  5
1E06
330
1F
100
AcDbEntity
  8
AM_VIS
100
AcDbLine
 10
2350.371434291667
 20
1378.870545156516
 30
0.0
 11
2350.071434291667
 21
1378.870545156516
 31
0.0
  0
LINE
  5
1E07
330
1F
100
AcDbEntity
  8
AM_VIS
100
AcDbLine
 10
2358.971434291667
 20
1378.870545156516
 30
0.0
 11
2350.371434291667
 21
1378.870545156516
 31
0.0
  0
LINE
  5
1E08
330
1F
100
AcDbEntity
  8
AM_VIS
100
AcDbLine
 10
2360.171434291666
 20
1378.870545156516
 30
0.0
 11
2358.971434291667
 21
1378.870545156516
 31
0.0
  0
LINE
  5
1E09
330
1F
100
AcDbEntity
  8
AM_VIS
100
AcDbLine
 10
2361.071434291667
 20
1378.870545156516
 30
0.0
 11
2360.171434291666
 21
1378.870545156516
 31
0.0
  0
LINE
  5
1E0A
330
1F
100
AcDbEntity
  8
AM_VIS
100
AcDbLine
 10
2364.071434291667
 20
1378.870545156516
 30
0.0
 11
2361.071434291667
 21
1378.870545156516
 31
0.0
  0
LINE
  5
1E0B
330
1F
100
AcDbEntity
  8
AM_VIS
100
AcDbLine
 10
2364.371434291667
 20
1378.870545156516
 30
0.0
 11
2364.071434291667
 21
1378.870545156516
 31
0.0
  0
LINE
  5
1E0C
330
1F
100
AcDbEntity
  8
AM_VIS
100
AcDbLine
 10
2374.385577134521
 20
1378.870545156516
 30
0.0
 11
2364.371434291667
 21
1378.870545156516
 31
0.0
  0
LINE
  5
1E0D
330
1F
100
AcDbEntity
  8
AM_VIS
100
AcDbLine
 10
2347.121434291667
 20
1419.870545156516
 30
0.0
 11
2348.371434291667
 21
1419.870545156516
 31
0.0
  0
LINE
  5
1E0E
330
1F
100
AcDbEntity
  8
AM_VIS
100
AcDbLine
 10
2344.971434291667
 20
1419.870545156516
 30
0.0
 11
2346.221434291667
 21
1419.870545156516
 31
0.0
  0
LINE
  5
1E0F
330
1F
100
AcDbEntity
  8
AM_VIS
100
AcDbLine
 10
2340.371434291667
 20
1419.870545156516
 30
0.0
 11
2339.121434291667
 21
1419.870545156516
 31
0.0
  0
LINE
  5
1E10
330
1F
100
AcDbEntity
  8
AM_VIS
100
AcDbLine
 10
2338.221434291667
 20
1419.870545156516
 30
0.0
 11
2336.971434291667
 21
1419.870545156516
 31
0.0
  0
LINE
  5
1E11
330
1F
100
AcDbEntity
  8
AM_VIS
100
AcDbLine
 10
2310.671434291667
 20
1419.870545156516
 30
0.0
 11
2310.957291448813
 21
1419.870545156516
 31
0.0
  0
LINE
  5
1E12
330
1F
100
AcDbEntity
  8
AM_VIS
100
AcDbLine
 10
2374.385577134521
 20
1419.870545156516
 30
0.0
 11
2374.671434291667
 21
1419.870545156516
 31
0.0
  0
LINE
  5
1E13
330
1F
100
AcDbEntity
  8
AM_VIS
100
AcDbLine
 10
2374.671434291667
 20
1378.870545156516
 30
0.0
 11
2374.385577134521
 21
1378.870545156516
 31
0.0
  0
LINE
  5
1E14
330
1F
100
AcDbEntity
  8
AM_VIS
100
AcDbLine
 10
2310.957291448813
 20
1378.870545156516
 30
0.0
 11
2310.671434291667
 21
1378.870545156516
 31
0.0
  0
LINE
  5
1E15
330
1F
100
AcDbEntity
  8
AM_VIS
100
AcDbLine
 10
2336.971434291667
 20
1378.870545156516
 30
0.0
 11
2338.221434291667
 21
1378.870545156516
 31
0.0
  0
LINE
  5
1E16
330
1F
100
AcDbEntity
  8
AM_VIS
100
AcDbLine
 10
2339.121434291667
 20
1378.870545156516
 30
0.0
 11
2340.371434291667
 21
1378.870545156516
 31
0.0
  0
LINE
  5
1E17
330
1F
100
AcDbEntity
  8
AM_VIS
100
AcDbLine
 10
2346.221434291667
 20
1378.870545156516
 30
0.0
 11
2344.971434291667
 21
1378.870545156516
 31
0.0
  0
LINE
  5
1E18
330
1F
100
AcDbEntity
  8
AM_VIS
100
AcDbLine
 10
2348.371434291667
 20
1378.870545156516
 30
0.0
 11
2347.121434291667
 21
1378.870545156516
 31
0.0
  0
ARC
  5
1E19
330
1F
100
AcDbEntity
  8
AM_4
100
AcDbCircle
 10
2122.505981099594
 20
1408.870545156516
 30
0.0
 40
2.5
100
AcDbArc
 50
259.9999999999939
 51
170.0000000000089
  0
CIRCLE
  5
1E1A
330
1F
100
AcDbEntity
  8
AM_0
100
AcDbCircle
 10
2122.505981099594
 20
1408.870545156516
 30
0.0
 40
2.066987298107819
  0
LINE
  5
1E1B
330
1F
100
AcDbEntity
  8
AM_7
  6
AM_ISO08W050x2
100
AcDbLine
 10
2119.005981099594
 20
1408.870545156516
 30
0.0
 11
2126.005981099594
 21
1408.870545156516
 31
0.0
  0
LINE
  5
1E1C
330
1F
100
AcDbEntity
  8
AM_7
  6
AM_ISO08W050x2
100
AcDbLine
 10
2122.505981099594
 20
1405.370545156516
 30
0.0
 11
2122.505981099594
 21
1412.370545156516
 31
0.0
  0
ARC
  5
1E1D
330
1F
100
AcDbEntity
  8
AM_4
100
AcDbCircle
 10
2122.505981099594
 20
1395.920545156511
 30
0.0
 40
2.5
100
AcDbArc
 50
259.9999999999939
 51
170.0000000000089
  0
CIRCLE
  5
1E1E
330
1F
100
AcDbEntity
  8
AM_0
100
AcDbCircle
 10
2122.505981099594
 20
1395.920545156511
 30
0.0
 40
2.066987298107819
  0
LINE
  5
1E1F
330
1F
100
AcDbEntity
  8
AM_7
  6
AM_ISO08W050x2
100
AcDbLine
 10
2119.005981099594
 20
1395.920545156511
 30
0.0
 11
2126.005981099594
 21
1395.920545156511
 31
0.0
  0
LINE
  5
1E20
330
1F
100
AcDbEntity
  8
AM_7
  6
AM_ISO08W050x2
100
AcDbLine
 10
2122.505981099594
 20
1392.420545156511
 30
0.0
 11
2122.505981099594
 21
1399.420545156511
 31
0.0
  0
ARC
  5
1E21
330
1F
100
AcDbEntity
  8
AM_4
100
AcDbCircle
 10
2168.275371165054
 20
1408.870545156516
 30
0.0
 40
2.5
100
AcDbArc
 50
259.9999999999939
 51
170.0000000000089
  0
CIRCLE
  5
1E22
330
1F
100
AcDbEntity
  8
AM_0
100
AcDbCircle
 10
2168.275371165054
 20
1408.870545156516
 30
0.0
 40
2.066987298107819
  0
LINE
  5
1E23
330
1F
100
AcDbEntity
  8
AM_7
  6
AM_ISO08W050x2
100
AcDbLine
 10
2164.775371165054
 20
1408.870545156516
 30
0.0
 11
2171.775371165054
 21
1408.870545156516
 31
0.0
  0
LINE
  5
1E24
330
1F
100
AcDbEntity
  8
AM_7
  6
AM_ISO08W050x2
100
AcDbLine
 10
2168.275371165054
 20
1405.370545156516
 30
0.0
 11
2168.275371165054
 21
1412.370545156516
 31
0.0
  0
ARC
  5
1E25
330
1F
100
AcDbEntity
  8
AM_4
100
AcDbCircle
 10
2168.275371165054
 20
1395.920545156511
 30
0.0
 40
2.5
100
AcDbArc
 50
259.9999999999939
 51
170.0000000000089
  0
CIRCLE
  5
1E26
330
1F
100
AcDbEntity
  8
AM_0
100
AcDbCircle
 10
2168.275371165054
 20
1395.920545156511
 30
0.0
 40
2.066987298107819
  0
LINE
  5
1E27
330
1F
100
AcDbEntity
  8
AM_7
  6
AM_ISO08W050x2
100
AcDbLine
 10
2164.775371165054
 20
1395.920545156511
 30
0.0
 11
2171.775371165054
 21
1395.920545156511
 31
0.0
  0
LINE
  5
1E28
330
1F
100
AcDbEntity
  8
AM_7
  6
AM_ISO08W050x2
100
AcDbLine
 10
2168.275371165054
 20
1392.420545156511
 30
0.0
 11
2168.275371165054
 21
1399.420545156511
 31
0.0
  0
LINE
  5
1E29
330
1F
100
AcDbEntity
  8
AM_7
  6
AM_ISO08W050x2
100
AcDbLine
 10
2179.275371165054
 20
1414.870545156516
 30
0.0
 11
2185.275371165054
 21
1414.870545156516
 31
0.0
1001
GENIUS_GENOREF_13
1005
1EAB
  0
LINE
  5
1E2A
330
1F
100
AcDbEntity
  8
AM_7
  6
AM_ISO08W050x2
100
AcDbLine
 10
2179.275371165054
 20
1414.870545156516
 30
0.0
 11
2179.275371165054
 21
1420.870545156516
 31
0.0
1001
GENIUS_GENOREF_13
1005
1EAB
  0
LINE
  5
1E2B
330
1F
100
AcDbEntity
  8
AM_7
  6
AM_ISO08W050x2
100
AcDbLine
 10
2179.275371165054
 20
1414.870545156516
 30
0.0
 11
2173.275371165054
 21
1414.870545156516
 31
0.0
1001
GENIUS_GENOREF_13
1005
1EAB
  0
LINE
  5
1E2C
330
1F
100
AcDbEntity
  8
AM_7
  6
AM_ISO08W050x2
100
AcDbLine
 10
2179.275371165054
 20
1414.870545156516
 30
0.0
 11
2179.275371165054
 21
1408.870545156516
 31
0.0
1001
GENIUS_GENOREF_13
1005
1EAB
  0
LINE
  5
1E2D
330
1F
100
AcDbEntity
  8
AM_7
  6
AM_ISO08W050x2
100
AcDbLine
 10
2179.275371165054
 20
1400.870545156516
 30
0.0
 11
2185.275371165054
 21
1400.870545156516
 31
0.0
1001
GENIUS_GENOREF_13
1005
1EAA
  0
LINE
  5
1E2E
330
1F
100
AcDbEntity
  8
AM_7
  6
AM_ISO08W050x2
100
AcDbLine
 10
2179.275371165054
 20
1400.870545156516
 30
0.0
 11
2179.275371165054
 21
1406.870545156516
 31
0.0
1001
GENIUS_GENOREF_13
1005
1EAA
  0
LINE
  5
1E2F
330
1F
100
AcDbEntity
  8
AM_7
  6
AM_ISO08W050x2
100
AcDbLine
 10
2179.275371165054
 20
1400.870545156516
 30
0.0
 11
2173.275371165054
 21
1400.870545156516
 31
0.0
1001
GENIUS_GENOREF_13
1005
1EAA
  0
LINE
  5
1E30
330
1F
100
AcDbEntity
  8
AM_7
  6
AM_ISO08W050x2
100
AcDbLine
 10
2179.275371165054
 20
1400.870545156516
 30
0.0
 11
2179.275371165054
 21
1394.870545156516
 31
0.0
1001
GENIUS_GENOREF_13
1005
1EAA
  0
LINE
  5
1E31
330
1F
100
AcDbEntity
  8
AM_7
  6
AM_ISO08W050x2
100
AcDbLine
 10
2203.275371165054
 20
1400.870545156516
 30
0.0
 11
2209.275371165054
 21
1400.870545156516
 31
0.0
1001
GENIUS_GENOREF_13
1005
1EA9
  0
LINE
  5
1E32
330
1F
100
AcDbEntity
  8
AM_7
  6
AM_ISO08W050x2
100
AcDbLine
 10
2203.275371165054
 20
1400.870545156516
 30
0.0
 11
2203.275371165054
 21
1406.870545156516
 31
0.0
1001
GENIUS_GENOREF_13
1005
1EA9
  0
LINE
  5
1E33
330
1F
100
AcDbEntity
  8
AM_7
  6
AM_ISO08W050x2
100
AcDbLine
 10
2203.275371165054
 20
1400.870545156516
 30
0.0
 11
2197.275371165054
 21
1400.870545156516
 31
0.0
1001
GENIUS_GENOREF_13
1005
1EA9
  0
LINE
  5
1E34
330
1F
100
AcDbEntity
  8
AM_7
  6
AM_ISO08W050x2
100
AcDbLine
 10
2203.275371165054
 20
1400.870545156516
 30
0.0
 11
2203.275371165054
 21
1394.870545156516
 31
0.0
1001
GENIUS_GENOREF_13
1005
1EA9
  0
LINE
  5
1E35
330
1F
100
AcDbEntity
  8
AM_7
  6
AM_ISO08W050x2
100
AcDbLine
 10
2203.275371165054
 20
1414.870545156516
 30
0.0
 11
2209.275371165054
 21
1414.870545156516
 31
0.0
1001
GENIUS_GENOREF_13
1005
1EA8
  0
LINE
  5
1E36
330
1F
100
AcDbEntity
  8
AM_7
  6
AM_ISO08W050x2
100
AcDbLine
 10
2203.275371165054
 20
1414.870545156516
 30
0.0
 11
2203.275371165054
 21
1420.870545156516
 31
0.0
1001
GENIUS_GENOREF_13
1005
1EA8
  0
LINE
  5
1E37
330
1F
100
AcDbEntity
  8
AM_7
  6
AM_ISO08W050x2
100
AcDbLine
 10
2203.275371165054
 20
1414.870545156516
 30
0.0
 11
2197.275371165054
 21
1414.870545156516
 31
0.0
1001
GENIUS_GENOREF_13
1005
1EA8
  0
LINE
  5
1E38
330
1F
100
AcDbEntity
  8
AM_7
  6
AM_ISO08W050x2
100
AcDbLine
 10
2203.275371165054
 20
1414.870545156516
 30
0.0
 11
2203.275371165054
 21
1408.870545156516
 31
0.0
1001
GENIUS_GENOREF_13
1005
1EA8
  0
ARC
  5
1E39
330
1F
100
AcDbEntity
  8
AM_4
100
AcDbCircle
 10
2330.671434291667
 20
1414.870545156516
 30
0.0
 40
2.5
100
AcDbArc
 50
259.9999999999939
 51
170.0000000000089
  0
CIRCLE
  5
1E3A
330
1F
100
AcDbEntity
  8
AM_0
100
AcDbCircle
 10
2330.671434291667
 20
1414.870545156516
 30
0.0
 40
2.066987298107819
  0
LINE
  5
1E3B
330
1F
100
AcDbEntity
  8
AM_7
  6
AM_ISO08W050x2
100
AcDbLine
 10
2327.171434291667
 20
1414.870545156516
 30
0.0
 11
2334.171434291667
 21
1414.870545156516
 31
0.0
  0
LINE
  5
1E3C
330
1F
100
AcDbEntity
  8
AM_7
  6
AM_ISO08W050x2
100
AcDbLine
 10
2330.671434291667
 20
1411.370545156516
 30
0.0
 11
2330.671434291667
 21
1418.370545156516
 31
0.0
  0
ARC
  5
1E3D
330
1F
100
AcDbEntity
  8
AM_4
100
AcDbCircle
 10
2330.671434291667
 20
1400.870545156516
 30
0.0
 40
2.5
100
AcDbArc
 50
259.9999999999939
 51
170.0000000000089
  0
CIRCLE
  5
1E3E
330
1F
100
AcDbEntity
  8
AM_0
100
AcDbCircle
 10
2330.671434291667
 20
1400.870545156516
 30
0.0
 40
2.066987298107819
  0
LINE
  5
1E3F
330
1F
100
AcDbEntity
  8
AM_7
  6
AM_ISO08W050x2
100
AcDbLine
 10
2327.171434291667
 20
1400.870545156516
 30
0.0
 11
2334.171434291667
 21
1400.870545156516
 31
0.0
  0
LINE
  5
1E40
330
1F
100
AcDbEntity
  8
AM_7
  6
AM_ISO08W050x2
100
AcDbLine
 10
2330.671434291667
 20
1397.370545156516
 30
0.0
 11
2330.671434291667
 21
1404.370545156516
 31
0.0
  0
ARC
  5
1E41
330
1F
100
AcDbEntity
  8
AM_4
100
AcDbCircle
 10
2354.671434291667
 20
1400.870545156516
 30
0.0
 40
2.5
100
AcDbArc
 50
259.9999999999939
 51
170.0000000000089
  0
CIRCLE
  5
1E42
330
1F
100
AcDbEntity
  8
AM_0
100
AcDbCircle
 10
2354.671434291667
 20
1400.870545156516
 30
0.0
 40
2.066987298107819
  0
LINE
  5
1E43
330
1F
100
AcDbEntity
  8
AM_7
  6
AM_ISO08W050x2
100
AcDbLine
 10
2351.171434291666
 20
1400.870545156516
 30
0.0
 11
2358.171434291667
 21
1400.870545156516
 31
0.0
  0
LINE
  5
1E44
330
1F
100
AcDbEntity
  8
AM_7
  6
AM_ISO08W050x2
100
AcDbLine
 10
2354.671434291667
 20
1397.370545156516
 30
0.0
 11
2354.671434291667
 21
1404.370545156516
 31
0.0
  0
ARC
  5
1E45
330
1F
100
AcDbEntity
  8
AM_4
100
AcDbCircle
 10
2354.671434291667
 20
1414.870545156516
 30
0.0
 40
2.5
100
AcDbArc
 50
259.9999999999939
 51
170.0000000000089
  0
CIRCLE
  5
1E46
330
1F
100
AcDbEntity
  8
AM_0
100
AcDbCircle
 10
2354.671434291667
 20
1414.870545156516
 30
0.0
 40
2.066987298107819
  0
LINE
  5
1E47
330
1F
100
AcDbEntity
  8
AM_7
  6
AM_ISO08W050x2
100
AcDbLine
 10
2351.171434291666
 20
1414.870545156516
 30
0.0
 11
2358.171434291667
 21
1414.870545156516
 31
0.0
  0
LINE
  5
1E48
330
1F
100
AcDbEntity
  8
AM_7
  6
AM_ISO08W050x2
100
AcDbLine
 10
2354.671434291667
 20
1411.370545156516
 30
0.0
 11
2354.671434291667
 21
1418.370545156516
 31
0.0
  0
ARC
  5
1E49
330
1F
100
AcDbEntity
  8
AM_4
100
AcDbCircle
 10
2315.671434291667
 20
1408.870545156516
 30
0.0
 40
2.5
100
AcDbArc
 50
259.9999999999939
 51
170.0000000000089
  0
CIRCLE
  5
1E4A
330
1F
100
AcDbEntity
  8
AM_0
100
AcDbCircle
 10
2315.671434291667
 20
1408.870545156516
 30
0.0
 40
2.066987298107819
  0
LINE
  5
1E4B
330
1F
100
AcDbEntity
  8
AM_7
  6
AM_ISO08W050x2
100
AcDbLine
 10
2312.171434291667
 20
1408.870545156516
 30
0.0
 11
2319.171434291666
 21
1408.870545156516
 31
0.0
  0
LINE
  5
1E4C
330
1F
100
AcDbEntity
  8
AM_7
  6
AM_ISO08W050x2
100
AcDbLine
 10
2315.671434291667
 20
1405.370545156516
 30
0.0
 11
2315.671434291667
 21
1412.370545156516
 31
0.0
  0
ARC
  5
1E4D
330
1F
100
AcDbEntity
  8
AM_4
100
AcDbCircle
 10
2315.671434291667
 20
1391.870545156516
 30
0.0
 40
2.5
100
AcDbArc
 50
259.9999999999939
 51
170.0000000000089
  0
CIRCLE
  5
1E4E
330
1F
100
AcDbEntity
  8
AM_0
100
AcDbCircle
 10
2315.671434291667
 20
1391.870545156516
 30
0.0
 40
2.066987298107819
  0
LINE
  5
1E4F
330
1F
100
AcDbEntity
  8
AM_7
  6
AM_ISO08W050x2
100
AcDbLine
 10
2312.171434291667
 20
1391.870545156516
 30
0.0
 11
2319.171434291666
 21
1391.870545156516
 31
0.0
  0
LINE
  5
1E50
330
1F
100
AcDbEntity
  8
AM_7
  6
AM_ISO08W050x2
100
AcDbLine
 10
2315.671434291667
 20
1388.370545156516
 30
0.0
 11
2315.671434291667
 21
1395.370545156516
 31
0.0
  0
ARC
  5
1E51
330
1F
100
AcDbEntity
  8
AM_4
100
AcDbCircle
 10
2369.671434291667
 20
1391.870545156516
 30
0.0
 40
2.5
100
AcDbArc
 50
259.9999999999939
 51
170.0000000000089
  0
CIRCLE
  5
1E52
330
1F
100
AcDbEntity
  8
AM_0
100
AcDbCircle
 10
2369.671434291667
 20
1391.870545156516
 30
0.0
 40
2.066987298107819
  0
LINE
  5
1E53
330
1F
100
AcDbEntity
  8
AM_7
  6
AM_ISO08W050x2
100
AcDbLine
 10
2366.171434291667
 20
1391.870545156516
 30
0.0
 11
2373.171434291667
 21
1391.870545156516
 31
0.0
  0
LINE
  5
1E54
330
1F
100
AcDbEntity
  8
AM_7
  6
AM_ISO08W050x2
100
AcDbLine
 10
2369.671434291667
 20
1388.370545156516
 30
0.0
 11
2369.671434291667
 21
1395.370545156516
 31
0.0
  0
ARC
  5
1E55
330
1F
100
AcDbEntity
  8
AM_4
100
AcDbCircle
 10
2369.671434291667
 20
1408.870545156516
 30
0.0
 40
2.5
100
AcDbArc
 50
259.9999999999939
 51
170.0000000000089
  0
CIRCLE
  5
1E56
330
1F
100
AcDbEntity
  8
AM_0
100
AcDbCircle
 10
2369.671434291667
 20
1408.870545156516
 30
0.0
 40
2.066987298107819
  0
LINE
  5
1E57
330
1F
100
AcDbEntity
  8
AM_7
  6
AM_ISO08W050x2
100
AcDbLine
 10
2366.171434291667
 20
1408.870545156516
 30
0.0
 11
2373.171434291667
 21
1408.870545156516
 31
0.0
  0
LINE
  5
1E58
330
1F
100
AcDbEntity
  8
AM_7
  6
AM_ISO08W050x2
100
AcDbLine
 10
2369.671434291667
 20
1405.370545156516
 30
0.0
 11
2369.671434291667
 21
1412.370545156516
 31
0.0
  0
ARC
  5
1E59
330
1F
100
AcDbEntity
  8
AM_4
100
AcDbCircle
 10
2165.275371165054
 20
1464.835435287064
 30
0.0
 40
2.5
100
AcDbArc
 50
259.9999999999939
 51
170.0000000000089
  0
CIRCLE
  5
1E5A
330
1F
100
AcDbEntity
  8
AM_0
100
AcDbCircle
 10
2165.275371165054
 20
1464.835435287064
 30
0.0
 40
2.066987298107819
  0
LINE
  5
1E5B
330
1F
100
AcDbEntity
  8
AM_7
  6
AM_ISO08W050x2
100
AcDbLine
 10
2161.775371165054
 20
1464.835435287064
 30
0.0
 11
2168.775371165054
 21
1464.835435287064
 31
0.0
  0
LINE
  5
1E5C
330
1F
100
AcDbEntity
  8
AM_7
  6
AM_ISO08W050x2
100
AcDbLine
 10
2165.275371165054
 20
1461.335435287064
 30
0.0
 11
2165.275371165054
 21
1468.335435287064
 31
0.0
  0
ARC
  5
1E5D
330
1F
100
AcDbEntity
  8
AM_4
100
AcDbCircle
 10
2165.275371165054
 20
1480.835435287064
 30
0.0
 40
2.5
100
AcDbArc
 50
259.9999999999939
 51
170.0000000000089
  0
CIRCLE
  5
1E5E
330
1F
100
AcDbEntity
  8
AM_0
100
AcDbCircle
 10
2165.275371165054
 20
1480.835435287064
 30
0.0
 40
2.066987298107819
  0
LINE
  5
1E5F
330
1F
100
AcDbEntity
  8
AM_7
  6
AM_ISO08W050x2
100
AcDbLine
 10
2161.775371165054
 20
1480.835435287064
 30
0.0
 11
2168.775371165054
 21
1480.835435287064
 31
0.0
  0
LINE
  5
1E60
330
1F
100
AcDbEntity
  8
AM_7
  6
AM_ISO08W050x2
100
AcDbLine
 10
2165.275371165054
 20
1477.335435287064
 30
0.0
 11
2165.275371165054
 21
1484.335435287064
 31
0.0
  0
ARC
  5
1E61
330
1F
100
AcDbEntity
  8
AM_4
100
AcDbCircle
 10
2217.275371165054
 20
1480.835435287064
 30
0.0
 40
2.5
100
AcDbArc
 50
259.9999999999939
 51
170.0000000000089
  0
CIRCLE
  5
1E62
330
1F
100
AcDbEntity
  8
AM_0
100
AcDbCircle
 10
2217.275371165054
 20
1480.835435287064
 30
0.0
 40
2.066987298107819
  0
LINE
  5
1E63
330
1F
100
AcDbEntity
  8
AM_7
  6
AM_ISO08W050x2
100
AcDbLine
 10
2213.775371165054
 20
1480.835435287064
 30
0.0
 11
2220.775371165054
 21
1480.835435287064
 31
0.0
  0
LINE
  5
1E64
330
1F
100
AcDbEntity
  8
AM_7
  6
AM_ISO08W050x2
100
AcDbLine
 10
2217.275371165054
 20
1477.335435287064
 30
0.0
 11
2217.275371165054
 21
1484.335435287064
 31
0.0
  0
ARC
  5
1E65
330
1F
100
AcDbEntity
  8
AM_4
100
AcDbCircle
 10
2217.275371165054
 20
1464.835435287064
 30
0.0
 40
2.5
100
AcDbArc
 50
259.9999999999939
 51
170.0000000000089
  0
CIRCLE
  5
1E66
330
1F
100
AcDbEntity
  8
AM_0
100
AcDbCircle
 10
2217.275371165054
 20
1464.835435287064
 30
0.0
 40
2.066987298107819
  0
LINE
  5
1E67
330
1F
100
AcDbEntity
  8
AM_7
  6
AM_ISO08W050x2
100
AcDbLine
 10
2213.775371165054
 20
1464.835435287064
 30
0.0
 11
2220.775371165054
 21
1464.835435287064
 31
0.0
  0
LINE
  5
1E68
330
1F
100
AcDbEntity
  8
AM_7
  6
AM_ISO08W050x2
100
AcDbLine
 10
2217.275371165054
 20
1461.335435287064
 30
0.0
 11
2217.275371165054
 21
1468.335435287064
 31
0.0
  0
LINE
  5
1E69
330
1F
100
AcDbEntity
  8
AM_7
  6
AM_ISO08W050x2
100
AcDbLine
 10
2168.275371165054
 20
1423.870545156516
 30
0.0
 11
2168.275371165054
 21
1417.870545156516
 31
0.0
1001
GENIUS_GENOBJ-N-CEN_13
1002
{
1000
OWNER
1000
GEN
1002
}
1001
GENIUS_GENODEF_13
1002
{
1000
HIER
1070
     0
1002
}
1002
{
1000
MANEDIT
1070
     0
1002
}
1002
{
1000
NOSEL
1070
     0
1002
}
1002
{
1000
BEHIND
1070
     0
1002
}
1002
{
1000
OTHER
1070
     0
1002
}
1002
{
1000
REACTOR
1002
}
1001
GENIUS_GENCEN_19
1002
{
1040
2.0
1002
}
  0
LINE
  5
1E6A
330
1F
100
AcDbEntity
  8
AM_7
  6
AM_ISO08W050x2
100
AcDbLine
 10
2214.275371165054
 20
1423.870545156516
 30
0.0
 11
2214.275371165054
 21
1417.870545156516
 31
0.0
1001
GENIUS_GENOBJ-N-CEN_13
1002
{
1000
OWNER
1000
GEN
1002
}
1001
GENIUS_GENODEF_13
1002
{
1000
HIER
1070
     0
1002
}
1002
{
1000
MANEDIT
1070
     0
1002
}
1002
{
1000
NOSEL
1070
     0
1002
}
1002
{
1000
BEHIND
1070
     0
1002
}
1002
{
1000
OTHER
1070
     0
1002
}
1002
{
1000
REACTOR
1002
}
1001
GENIUS_GENCEN_19
1002
{
1040
2.0
1002
}
  0
LINE
  5
1E6B
330
1F
100
AcDbEntity
  8
AM_7
  6
AM_ISO08W050x2
100
AcDbLine
 10
2112.505981099594
 20
1423.870545156516
 30
0.0
 11
2112.505981099594
 21
1417.870545156516
 31
0.0
1001
GENIUS_GENOBJ-N-CEN_13
1002
{
1000
OWNER
1000
GEN
1002
}
1001
GENIUS_GENODEF_13
1002
{
1000
HIER
1070
     0
1002
}
1002
{
1000
MANEDIT
1070
     0
1002
}
1002
{
1000
NOSEL
1070
     0
1002
}
1002
{
1000
BEHIND
1070
     0
1002
}
1002
{
1000
OTHER
1070
     0
1002
}
1002
{
1000
REACTOR
1002
}
1001
GENIUS_GENCEN_19
1002
{
1040
2.0
1002
}
  0
LINE
  5
1E6C
330
1F
100
AcDbEntity
  8
AM_7
  6
AM_ISO08W050x2
100
AcDbLine
 10
2269.603755032952
 20
1423.870545156516
 30
0.0
 11
2269.603755032952
 21
1417.870545156516
 31
0.0
1001
GENIUS_GENOBJ-N-CEN_13
1002
{
1000
OWNER
1000
GEN
1002
}
1001
GENIUS_GENODEF_13
1002
{
1000
HIER
1070
     0
1002
}
1002
{
1000
MANEDIT
1070
     0
1002
}
1002
{
1000
NOSEL
1070
     0
1002
}
1002
{
1000
BEHIND
1070
     0
1002
}
1002
{
1000
OTHER
1070
     0
1002
}
1002
{
1000
REACTOR
1002
}
1001
GENIUS_GENCEN_19
1002
{
1040
2.0
1002
}
  0
LINE
  5
1E6D
330
1F
100
AcDbEntity
  8
AM_7
  6
AM_ISO08W050x2
100
AcDbLine
 10
2319.671434291667
 20
1423.870545156516
 30
0.0
 11
2319.671434291667
 21
1417.870545156516
 31
0.0
1001
GENIUS_GENOBJ-N-CEN_13
1002
{
1000
OWNER
1000
GEN
1002
}
1001
GENIUS_GENODEF_13
1002
{
1000
HIER
1070
     0
1002
}
1002
{
1000
MANEDIT
1070
     0
1002
}
1002
{
1000
NOSEL
1070
     0
1002
}
1002
{
1000
BEHIND
1070
     0
1002
}
1002
{
1000
OTHER
1070
     0
1002
}
1002
{
1000
REACTOR
1002
}
1001
GENIUS_GENCEN_19
1002
{
1040
2.0
1002
}
  0
LINE
  5
1E6E
330
1F
100
AcDbEntity
  8
AM_7
  6
AM_ISO08W050x2
100
AcDbLine
 10
2365.671434291667
 20
1423.870545156516
 30
0.0
 11
2365.671434291667
 21
1417.870545156516
 31
0.0
1001
GENIUS_GENOBJ-N-CEN_13
1002
{
1000
OWNER
1000
GEN
1002
}
1001
GENIUS_GENODEF_13
1002
{
1000
HIER
1070
     0
1002
}
1002
{
1000
MANEDIT
1070
     0
1002
}
1002
{
1000
NOSEL
1070
     0
1002
}
1002
{
1000
BEHIND
1070
     0
1002
}
1002
{
1000
OTHER
1070
     0
1002
}
1002
{
1000
REACTOR
1002
}
1001
GENIUS_GENCEN_19
1002
{
1040
2.0
1002
}
  0
LINE
  5
1E6F
330
1F
100
AcDbEntity
  8
AM_7
  6
AM_ISO08W050x2
100
AcDbLine
 10
2342.671434291667
 20
1417.870545156516
 30
0.0
 11
2342.671434291667
 21
1423.870545156516
 31
0.0
1001
GENIUS_GENODEF_13
1002
{
1000
HIER
1070
     0
1002
}
1002
{
1000
MANEDIT
1070
     0
1002
}
1002
{
1000
NOSEL
1070
     0
1002
}
1002
{
1000
BEHIND
1070
     0
1002
}
1002
{
1000
OTHER
1070
     0
1002
}
1002
{
1000
REACTOR
1002
}
1001
GENIUS_GENOBJ-N-CEN_13
1002
{
1000
OWNER
1000
GEN
1002
}
1001
GENIUS_GENCEN_19
1002
{
1040
2.0
1002
}
  0
LINE
  5
1E70
330
1F
100
AcDbEntity
  8
AM_7
  6
AM_ISO08W050x2
100
AcDbLine
 10
2191.275371165054
 20
1417.870545156516
 30
0.0
 11
2191.275371165054
 21
1423.870545156516
 31
0.0
1001
GENIUS_GENODEF_13
1002
{
1000
HIER
1070
     0
1002
}
1002
{
1000
MANEDIT
1070
     0
1002
}
1002
{
1000
NOSEL
1070
     0
1002
}
1002
{
1000
BEHIND
1070
     0
1002
}
1002
{
1000
OTHER
1070
     0
1002
}
1002
{
1000
REACTOR
1002
}
1001
GENIUS_GENOBJ-N-CEN_13
1002
{
1000
OWNER
1000
GEN
1002
}
1001
GENIUS_GENCEN_19
1002
{
1040
2.0
1002
}
  0
ARC
  5
1E73
330
1F
100
AcDbEntity
  8
AM_4
100
AcDbCircle
 10
2170.275371165054
 20
1332.44967346908
 30
0.0
 40
2.5
100
AcDbArc
 50
259.9999999999939
 51
170.0000000000089
  0
CIRCLE
  5
1E74
330
1F
100
AcDbEntity
  8
AM_0
100
AcDbCircle
 10
2170.275371165054
 20
1332.44967346908
 30
0.0
 40
2.066987298107819
  0
LINE
  5
1E75
330
1F
100
AcDbEntity
  8
AM_7
  6
AM_ISO08W050x2
100
AcDbLine
 10
2166.775371165054
 20
1332.44967346908
 30
0.0
 11
2173.775371165054
 21
1332.44967346908
 31
0.0
  0
LINE
  5
1E76
330
1F
100
AcDbEntity
  8
AM_7
  6
AM_ISO08W050x2
100
AcDbLine
 10
2170.275371165054
 20
1328.94967346908
 30
0.0
 11
2170.275371165054
 21
1335.94967346908
 31
0.0
  0
ARC
  5
1E77
330
1F
100
AcDbEntity
  8
AM_4
100
AcDbCircle
 10
2170.275371165054
 20
1310.44967346908
 30
0.0
 40
2.5
100
AcDbArc
 50
259.9999999999939
 51
170.0000000000089
  0
CIRCLE
  5
1E78
330
1F
100
AcDbEntity
  8
AM_0
100
AcDbCircle
 10
2170.275371165054
 20
1310.44967346908
 30
0.0
 40
2.066987298107819
  0
LINE
  5
1E79
330
1F
100
AcDbEntity
  8
AM_7
  6
AM_ISO08W050x2
100
AcDbLine
 10
2166.775371165054
 20
1310.44967346908
 30
0.0
 11
2173.775371165054
 21
1310.44967346908
 31
0.0
  0
LINE
  5
1E7A
330
1F
100
AcDbEntity
  8
AM_7
  6
AM_ISO08W050x2
100
AcDbLine
 10
2170.275371165054
 20
1306.94967346908
 30
0.0
 11
2170.275371165054
 21
1313.94967346908
 31
0.0
  0
ARC
  5
1E7B
330
1F
100
AcDbEntity
  8
AM_4
100
AcDbCircle
 10
2212.275371165054
 20
1310.44967346908
 30
0.0
 40
2.5
100
AcDbArc
 50
259.9999999999939
 51
170.0000000000089
  0
CIRCLE
  5
1E7C
330
1F
100
AcDbEntity
  8
AM_0
100
AcDbCircle
 10
2212.275371165054
 20
1310.44967346908
 30
0.0
 40
2.066987298107819
  0
LINE
  5
1E7D
102
{ACAD_REACTORS
330
23BF
102
}
330
1F
100
AcDbEntity
  8
AM_7
  6
AM_ISO08W050x2
100
AcDbLine
 10
2208.775371165054
 20
1310.44967346908
 30
0.0
 11
2215.775371165054
 21
1310.44967346908
 31
0.0
  0
LINE
  5
1E7E
102
{ACAD_REACTORS
330
2394
102
}
330
1F
100
AcDbEntity
  8
AM_7
  6
AM_ISO08W050x2
100
AcDbLine
 10
2212.275371165054
 20
1306.94967346908
 30
0.0
 11
2212.275371165054
 21
1313.94967346908
 31
0.0
  0
ARC
  5
1E7F
330
1F
100
AcDbEntity
  8
AM_4
100
AcDbCircle
 10
2212.275371165054
 20
1332.44967346908
 30
0.0
 40
2.5
100
AcDbArc
 50
259.9999999999939
 51
170.0000000000089
  0
CIRCLE
  5
1E80
330
1F
100
AcDbEntity
  8
AM_0
100
AcDbCircle
 10
2212.275371165054
 20
1332.44967346908
 30
0.0
 40
2.066987298107819
  0
LINE
  5
1E81
102
{ACAD_REACTORS
330
23E9
102
}
330
1F
100
AcDbEntity
  8
AM_7
  6
AM_ISO08W050x2
100
AcDbLine
 10
2208.775371165054
 20
1332.44967346908
 30
0.0
 11
2215.775371165054
 21
1332.44967346908
 31
0.0
  0
LINE
  5
1E82
330
1F
100
AcDbEntity
  8
AM_7
  6
AM_ISO08W050x2
100
AcDbLine
 10
2212.275371165054
 20
1328.94967346908
 30
0.0
 11
2212.275371165054
 21
1335.94967346908
 31
0.0
  0
CIRCLE
  5
1E83
102
{ACAD_REACTORS
330
236A
330
2394
102
}
330
1F
100
AcDbEntity
  8
0
100
AcDbCircle
 10
2191.275371165054
 20
1321.44967346908
 30
0.0
 40
9.0
  0
LINE
  5
1E84
330
1F
100
AcDbEntity
  8
AM_7
  6
AM_ISO08W050x2
100
AcDbLine
 10
2168.275371165054
 20
1321.44967346908
 30
0.0
 11
2175.275371165054
 21
1321.44967346908
 31
0.0
1001
GENIUS_GENOREF_13
1005
1EAD
  0
LINE
  5
1E85
330
1F
100
AcDbEntity
  8
AM_7
  6
AM_ISO08W050x2
100
AcDbLine
 10
2168.275371165054
 20
1321.44967346908
 30
0.0
 11
2168.275371165054
 21
1328.44967346908
 31
0.0
1001
GENIUS_GENOREF_13
1005
1EAD
  0
LINE
  5
1E86
330
1F
100
AcDbEntity
  8
AM_7
  6
AM_ISO08W050x2
100
AcDbLine
 10
2168.275371165054
 20
1321.44967346908
 30
0.0
 11
2161.275371165054
 21
1321.44967346908
 31
0.0
1001
GENIUS_GENOREF_13
1005
1EAD
  0
LINE
  5
1E87
330
1F
100
AcDbEntity
  8
AM_7
  6
AM_ISO08W050x2
100
AcDbLine
 10
2168.275371165054
 20
1321.44967346908
 30
0.0
 11
2168.275371165054
 21
1314.44967346908
 31
0.0
1001
GENIUS_GENOREF_13
1005
1EAD
  0
LINE
  5
1E88
102
{ACAD_REACTORS
330
23BF
330
23E9
102
}
330
1F
100
AcDbEntity
  8
AM_7
  6
AM_ISO08W050x2
100
AcDbLine
 10
2214.275371165054
 20
1321.44967346908
 30
0.0
 11
2221.275371165054
 21
1321.44967346908
 31
0.0
1001
GENIUS_GENOREF_13
1005
1EAC
  0
LINE
  5
1E89
330
1F
100
AcDbEntity
  8
AM_7
  6
AM_ISO08W050x2
100
AcDbLine
 10
2214.275371165054
 20
1321.44967346908
 30
0.0
 11
2214.275371165054
 21
1328.44967346908
 31
0.0
1001
GENIUS_GENOREF_13
1005
1EAC
  0
LINE
  5
1E8A
330
1F
100
AcDbEntity
  8
AM_7
  6
AM_ISO08W050x2
100
AcDbLine
 10
2214.275371165054
 20
1321.44967346908
 30
0.0
 11
2207.275371165054
 21
1321.44967346908
 31
0.0
1001
GENIUS_GENOREF_13
1005
1EAC
  0
LINE
  5
1E8B
330
1F
100
AcDbEntity
  8
AM_7
  6
AM_ISO08W050x2
100
AcDbLine
 10
2214.275371165054
 20
1321.44967346908
 30
0.0
 11
2214.275371165054
 21
1314.44967346908
 31
0.0
1001
GENIUS_GENOREF_13
1005
1EAC
  0
LINE
  5
1E8E
330
1F
100
AcDbEntity
  8
AM_7
  6
AM_ISO08W050x2
100
AcDbLine
 10
2168.275371165054
 20
1379.870545156516
 30
0.0
 11
2168.275371165054
 21
1356.870545156516
 31
0.0
1001
GENIUS_GENODEF_13
1002
{
1000
HIER
1070
     0
1002
}
1002
{
1000
MANEDIT
1070
     0
1002
}
1002
{
1000
NOSEL
1070
     0
1002
}
1002
{
1000
BEHIND
1070
     0
1002
}
1002
{
1000
OTHER
1070
     0
1002
}
1002
{
1000
REACTOR
1002
}
1001
GENIUS_GENOBJ-N-CEN_13
1002
{
1000
OWNER
1000
GEN
1002
}
1001
GENIUS_GENCEN_19
1002
{
1040
1.0
1002
}
  0
LINE
  5
1E92
330
1F
100
AcDbEntity
  8
AM_7
  6
AM_ISO08W050x2
100
AcDbLine
 10
2214.275371165054
 20
1379.870545156516
 30
0.0
 11
2214.275371165054
 21
1356.870545156516
 31
0.0
1001
GENIUS_GENODEF_13
1002
{
1000
HIER
1070
     0
1002
}
1002
{
1000
MANEDIT
1070
     0
1002
}
1002
{
1000
NOSEL
1070
     0
1002
}
1002
{
1000
BEHIND
1070
     0
1002
}
1002
{
1000
OTHER
1070
     0
1002
}
1002
{
1000
REACTOR
1002
}
1001
GENIUS_GENOBJ-N-CEN_13
1002
{
1000
OWNER
1000
GEN
1002
}
1001
GENIUS_GENCEN_19
1002
{
1040
1.0
1002
}
  0
LINE
  5
1E96
330
1F
100
AcDbEntity
  8
AM_7
  6
AM_ISO08W050x2
100
AcDbLine
 10
2319.671434291667
 20
1379.870545156516
 30
0.0
 11
2319.671434291667
 21
1356.870545156516
 31
0.0
1001
GENIUS_GENODEF_13
1002
{
1000
HIER
1070
     0
1002
}
1002
{
1000
MANEDIT
1070
     0
1002
}
1002
{
1000
NOSEL
1070
     0
1002
}
1002
{
1000
BEHIND
1070
     0
1002
}
1002
{
1000
OTHER
1070
     0
1002
}
1002
{
1000
REACTOR
1002
}
1001
GENIUS_GENOBJ-N-CEN_13
1002
{
1000
OWNER
1000
GEN
1002
}
1001
GENIUS_GENCEN_19
1002
{
1040
1.0
1002
}
  0
LINE
  5
1E98
330
1F
100
AcDbEntity
  8
0
 62
     2
100
AcDbLine
 10
2361.671434291666
 20
1378.870545156516
 30
0.0
 11
2361.671434291666
 21
1357.870545156516
 31
0.0
  0
LINE
  5
1E99
330
1F
100
AcDbEntity
  8
0
 62
     2
100
AcDbLine
 10
2369.671434291666
 20
1378.870545156516
 30
0.0
 11
2369.671434291666
 21
1357.870545156516
 31
0.0
  0
LINE
  5
1E9A
330
1F
100
AcDbEntity
  8
AM_7
  6
AM_ISO08W050x2
100
AcDbLine
 10
2365.671434291666
 20
1379.870545156516
 30
0.0
 11
2365.671434291666
 21
1356.870545156516
 31
0.0
1001
GENIUS_GENODEF_13
1002
{
1000
HIER
1070
     0
1002
}
1002
{
1000
MANEDIT
1070
     0
1002
}
1002
{
1000
NOSEL
1070
     0
1002
}
1002
{
1000
BEHIND
1070
     0
1002
}
1002
{
1000
OTHER
1070
     0
1002
}
1002
{
1000
REACTOR
1002
}
1001
GENIUS_GENOBJ-N-CEN_13
1002
{
1000
OWNER
1000
GEN
1002
}
1001
GENIUS_GENCEN_19
1002
{
1040
1.0
1002
}
  0
LINE
  5
1E9B
330
1F
100
AcDbEntity
  8
0
 62
     2
100
AcDbLine
 10
2369.671434291666
 20
1357.870545156516
 30
0.0
 11
2361.671434291666
 21
1357.870545156516
 31
0.0
  0
LINE
  5
1E9E
330
1F
100
AcDbEntity
  8
AM_7
  6
AM_ISO08W050x2
100
AcDbLine
 10
2112.505981099594
 20
1379.870545156516
 30
0.0
 11
2112.505981099594
 21
1356.870545156516
 31
0.0
1001
GENIUS_GENODEF_13
1002
{
1000
HIER
1070
     0
1002
}
1002
{
1000
MANEDIT
1070
     0
1002
}
1002
{
1000
NOSEL
1070
     0
1002
}
1002
{
1000
BEHIND
1070
     0
1002
}
1002
{
1000
OTHER
1070
     0
1002
}
1002
{
1000
REACTOR
1002
}
1001
GENIUS_GENOBJ-N-CEN_13
1002
{
1000
OWNER
1000
GEN
1002
}
1001
GENIUS_GENCEN_19
1002
{
1040
1.0
1002
}
  0
LINE
  5
1EA2
330
1F
100
AcDbEntity
  8
AM_7
  6
AM_ISO08W050x2
100
AcDbLine
 10
2269.603755032952
 20
1379.870545156516
 30
0.0
 11
2269.603755032952
 21
1356.870545156516
 31
0.0
1001
GENIUS_GENODEF_13
1002
{
1000
HIER
1070
     0
1002
}
1002
{
1000
MANEDIT
1070
     0
1002
}
1002
{
1000
NOSEL
1070
     0
1002
}
1002
{
1000
BEHIND
1070
     0
1002
}
1002
{
1000
OTHER
1070
     0
1002
}
1002
{
1000
REACTOR
1002
}
1001
GENIUS_GENOBJ-N-CEN_13
1002
{
1000
OWNER
1000
GEN
1002
}
1001
GENIUS_GENCEN_19
1002
{
1040
1.0
1002
}
  0
LINE
  5
1EA4
330
1F
100
AcDbEntity
  8
AM_7
  6
AM_ISO08W050x2
100
AcDbLine
 10
2269.603755032952
 20
1423.870545156516
 30
0.0
 11
2269.603755032952
 21
1417.870545156516
 31
0.0
1001
GENIUS_GENOBJ-N-CEN_13
1002
{
1000
OWNER
1000
GEN
1002
}
1001
GENIUS_GENODEF_13
1002
{
1000
HIER
1070
     0
1002
}
1002
{
1000
MANEDIT
1070
     0
1002
}
1002
{
1000
NOSEL
1070
     0
1002
}
1002
{
1000
BEHIND
1070
     0
1002
}
1002
{
1000
OTHER
1070
     0
1002
}
1002
{
1000
REACTOR
1002
}
1001
GENIUS_GENCEN_19
1002
{
1040
2.0
1002
}
  0
DIMENSION
  5
1EA5
330
1F
100
AcDbEntity
  8
AM_5
100
AcDbDimension
  2
*D5
 10
2242.275371165055
 20
1378.870545156516
 30
0.0
 11
2242.275371165054
 21
1369.870545156516
 31
0.0
 70
   160
  1
L2
 71
     5
 42
21.0
  3
AM_ISO$0
100
AcDbAlignedDimension
 13
2219.275371165053
 23
1357.870545156516
 33
0.0
 14
2223.275371165054
 24
1378.870545156516
 34
0.0
 50
90.0
100
AcDbRotatedDimension
1001
ACAD
1000
DSTYLE
1002
{
1070
    40
1040
1.0
1070
   144
1040
1.0
1070
   272
1070
     8
1002
}
  0
DIMENSION
  5
1EA6
330
1F
100
AcDbEntity
  8
AM_5
100
AcDbDimension
  2
*D6
 10
2235.275371165054
 20
1419.870545156516
 30
0.0
 11
2232.775371165053
 21
1399.370545156516
 31
0.0
 70
    32
  1
L1
 71
     5
 42
41.0
  3
AM_ISO$0
100
AcDbAlignedDimension
 13
2223.275371165054
 23
1378.870545156516
 33
0.0
 14
2223.275371165054
 24
1419.870545156516
 34
0.0
 50
90.0
100
AcDbRotatedDimension
1001
ACAD
1000
DSTYLE
1002
{
1070
    40
1040
1.0
1070
   144
1040
1.0
1070
   272
1070
     8
1002
}
  0
DIMENSION
  5
1EA7
330
1F
100
AcDbEntity
  8
AM_5
100
AcDbDimension
  2
*D7
 10
2242.275371165054
 20
1431.870545156516
 30
0.0
 11
2239.775371165054
 21
1405.370545156516
 31
0.0
 70
    32
  1
L
 71
     5
 42
53.0
  3
AM_ISO$0
100
AcDbAlignedDimension
 13
2223.275371165054
 23
1378.870545156516
 33
0.0
 14
2221.775371165054
 24
1431.870545156516
 34
0.0
 50
90.0
100
AcDbRotatedDimension
1001
ACAD
1000
DSTYLE
1002
{
1070
    40
1040
1.0
1070
   144
1040
1.0
1070
   272
1070
     8
1002
}
  0
POINT
  5
1EA8
330
1F
100
AcDbEntity
  8
0
 60
     1
100
AcDbPoint
 10
0.0
 20
-244.1228344829376
 30
0.0
1001
GENIUS_GENOENT_13
1002
{
1000
MYREF
1005
1EA8
1002
}
1002
{
1000
GRP
1005
0
1002
}
1001
GENIUS_GENODEF_13
1002
{
1000
HIER
1070
    10
1002
}
1002
{
1000
MANEDIT
1070
     0
1002
}
1002
{
1000
NOSEL
1070
     0
1002
}
1002
{
1000
BEHIND
1070
     0
1002
}
1002
{
1000
OTHER
1070
     0
1002
}
1002
{
1000
REACTOR
1002
}
1001
GENIUS_GENOBJ-N-CRS_13
1002
{
1000
OWNER
1000
GEN
1002
}
1001
GENIUS_GENOLIS_13
1002
{
1000
ENT
1005
1E38
1005
1E37
1005
1E36
1005
1E35
1002
}
  0
POINT
  5
1EA9
330
1F
100
AcDbEntity
  8
0
 60
     1
100
AcDbPoint
 10
0.0
 20
-244.1228344829376
 30
0.0
1001
GENIUS_GENOENT_13
1002
{
1000
MYREF
1005
1EA9
1002
}
1002
{
1000
GRP
1005
0
1002
}
1001
GENIUS_GENOBJ-N-CRS_13
1002
{
1000
OWNER
1000
GEN
1002
}
1001
GENIUS_GENODEF_13
1002
{
1000
HIER
1070
    10
1002
}
1002
{
1000
MANEDIT
1070
     0
1002
}
1002
{
1000
NOSEL
1070
     0
1002
}
1002
{
1000
BEHIND
1070
     0
1002
}
1002
{
1000
OTHER
1070
     0
1002
}
1002
{
1000
REACTOR
1002
}
1001
GENIUS_GENOLIS_13
1002
{
1000
ENT
1005
1E34
1005
1E33
1005
1E32
1005
1E31
1002
}
  0
POINT
  5
1EAA
330
1F
100
AcDbEntity
  8
0
 60
     1
100
AcDbPoint
 10
0.0
 20
-244.1228344829376
 30
0.0
1001
GENIUS_GENOLIS_13
1002
{
1000
ENT
1005
1E30
1005
1E2F
1005
1E2E
1005
1E2D
1002
}
1001
GENIUS_GENOENT_13
1002
{
1000
MYREF
1005
1EAA
1002
}
1002
{
1000
GRP
1005
0
1002
}
1001
GENIUS_GENODEF_13
1002
{
1000
HIER
1070
    10
1002
}
1002
{
1000
MANEDIT
1070
     0
1002
}
1002
{
1000
NOSEL
1070
     0
1002
}
1002
{
1000
BEHIND
1070
     0
1002
}
1002
{
1000
OTHER
1070
     0
1002
}
1002
{
1000
REACTOR
1002
}
1001
GENIUS_GENOBJ-N-CRS_13
1002
{
1000
OWNER
1000
GEN
1002
}
  0
POINT
  5
1EAB
330
1F
100
AcDbEntity
  8
0
 60
     1
100
AcDbPoint
 10
0.0
 20
-244.1228344829376
 30
0.0
1001
GENIUS_GENOBJ-N-CRS_13
1002
{
1000
OWNER
1000
GEN
1002
}
1001
GENIUS_GENOLIS_13
1002
{
1000
ENT
1005
1E2C
1005
1E2B
1005
1E2A
1005
1E29
1002
}
1001
GENIUS_GENOENT_13
1002
{
1000
MYREF
1005
1EAB
1002
}
1002
{
1000
GRP
1005
0
1002
}
1001
GENIUS_GENODEF_13
1002
{
1000
HIER
1070
    10
1002
}
1002
{
1000
MANEDIT
1070
     0
1002
}
1002
{
1000
NOSEL
1070
     0
1002
}
1002
{
1000
BEHIND
1070
     0
1002
}
1002
{
1000
OTHER
1070
     0
1002
}
1002
{
1000
REACTOR
1002
}
  0
POINT
  5
1EAC
330
1F
100
AcDbEntity
  8
0
 60
     1
100
AcDbPoint
 10
0.0
 20
-244.1228344829376
 30
0.0
1001
GENIUS_GENOLIS_13
1002
{
1000
ENT
1005
1E8B
1005
1E8A
1005
1E89
1005
1E88
1002
}
1001
GENIUS_GENODEF_13
1002
{
1000
HIER
1070
    10
1002
}
1002
{
1000
MANEDIT
1070
     0
1002
}
1002
{
1000
NOSEL
1070
     0
1002
}
1002
{
1000
BEHIND
1070
     0
1002
}
1002
{
1000
OTHER
1070
     0
1002
}
1002
{
1000
REACTOR
1002
}
1001
GENIUS_GENOBJ-N-CRS_13
1002
{
1000
OWNER
1000
GEN
1002
}
1001
GENIUS_GENOENT_13
1002
{
1000
MYREF
1005
1EAC
1002
}
1002
{
1000
GRP
1005
0
1002
}
  0
POINT
  5
1EAD
330
1F
100
AcDbEntity
  8
0
 60
     1
100
AcDbPoint
 10
0.0
 20
-244.1228344829376
 30
0.0
1001
GENIUS_GENOBJ-N-CRS_13
1002
{
1000
OWNER
1000
GEN
1002
}
1001
GENIUS_GENOENT_13
1002
{
1000
MYREF
1005
1EAD
1002
}
1002
{
1000
GRP
1005
0
1002
}
1001
GENIUS_GENOLIS_13
1002
{
1000
ENT
1005
1E87
1005
1E86
1005
1E85
1005
1E84
1002
}
1001
GENIUS_GENODEF_13
1002
{
1000
HIER
1070
    10
1002
}
1002
{
1000
MANEDIT
1070
     0
1002
}
1002
{
1000
NOSEL
1070
     0
1002
}
1002
{
1000
BEHIND
1070
     0
1002
}
1002
{
1000
OTHER
1070
     0
1002
}
1002
{
1000
REACTOR
1002
}
  0
LINE
  5
1EED
330
1F
100
AcDbEntity
  8
AM_VIS
100
AcDbLine
 10
2369.671434291666
 20
1419.870545156516
 30
0.0
 11
2369.671434291666
 21
1421.870545156516
 31
0.0
  0
LINE
  5
1EEE
330
1F
100
AcDbEntity
  8
AM_VIS
100
AcDbLine
 10
2361.671434291666
 20
1419.870545156516
 30
0.0
 11
2361.671434291666
 21
1421.870545156516
 31
0.0
  0
LINE
  5
1EF0
330
1F
100
AcDbEntity
  8
0
 62
     2
100
AcDbLine
 10
2315.671434291667
 20
1378.870545156516
 30
0.0
 11
2315.671434291667
 21
1357.870545156516
 31
0.0
  0
LINE
  5
1EF1
330
1F
100
AcDbEntity
  8
0
 62
     2
100
AcDbLine
 10
2323.671434291667
 20
1378.870545156516
 30
0.0
 11
2323.671434291667
 21
1357.870545156516
 31
0.0
  0
LINE
  5
1EF2
330
1F
100
AcDbEntity
  8
0
 62
     2
100
AcDbLine
 10
2323.671434291667
 20
1357.870545156516
 30
0.0
 11
2315.671434291667
 21
1357.870545156516
 31
0.0
  0
LINE
  5
1EF3
330
1F
100
AcDbEntity
  8
AM_VIS
100
AcDbLine
 10
2323.671434291667
 20
1419.870545156516
 30
0.0
 11
2323.671434291667
 21
1421.870545156516
 31
0.0
  0
LINE
  5
1EF4
330
1F
100
AcDbEntity
  8
AM_VIS
100
AcDbLine
 10
2315.671434291667
 20
1419.870545156516
 30
0.0
 11
2315.671434291667
 21
1421.870545156516
 31
0.0
  0
LINE
  5
1EFA
330
1F
100
AcDbEntity
  8
0
 62
     2
100
AcDbLine
 10
2210.275371165054
 20
1378.870545156516
 30
0.0
 11
2210.275371165054
 21
1357.870545156516
 31
0.0
  0
LINE
  5
1EFB
330
1F
100
AcDbEntity
  8
0
 62
     2
100
AcDbLine
 10
2218.275371165054
 20
1378.870545156516
 30
0.0
 11
2218.275371165054
 21
1357.870545156516
 31
0.0
  0
LINE
  5
1EFC
330
1F
100
AcDbEntity
  8
0
 62
     2
100
AcDbLine
 10
2218.275371165054
 20
1357.870545156516
 30
0.0
 11
2210.275371165054
 21
1357.870545156516
 31
0.0
  0
LINE
  5
1EFD
330
1F
100
AcDbEntity
  8
AM_VIS
100
AcDbLine
 10
2218.275371165054
 20
1419.870545156516
 30
0.0
 11
2218.275371165054
 21
1421.870545156516
 31
0.0
  0
LINE
  5
1EFE
330
1F
100
AcDbEntity
  8
AM_VIS
100
AcDbLine
 10
2210.275371165054
 20
1419.870545156516
 30
0.0
 11
2210.275371165054
 21
1421.870545156516
 31
0.0
  0
LINE
  5
1EFF
330
1F
100
AcDbEntity
  8
0
 62
     2
100
AcDbLine
 10
2164.275371165054
 20
1378.870545156516
 30
0.0
 11
2164.275371165054
 21
1357.870545156516
 31
0.0
  0
LINE
  5
1F00
330
1F
100
AcDbEntity
  8
0
 62
     2
100
AcDbLine
 10
2172.275371165054
 20
1378.870545156516
 30
0.0
 11
2172.275371165054
 21
1357.870545156516
 31
0.0
  0
LINE
  5
1F01
330
1F
100
AcDbEntity
  8
0
 62
     2
100
AcDbLine
 10
2172.275371165054
 20
1357.870545156516
 30
0.0
 11
2164.275371165054
 21
1357.870545156516
 31
0.0
  0
LINE
  5
1F02
330
1F
100
AcDbEntity
  8
AM_VIS
100
AcDbLine
 10
2172.275371165054
 20
1419.870545156516
 30
0.0
 11
2172.275371165054
 21
1421.870545156516
 31
0.0
  0
LINE
  5
1F03
330
1F
100
AcDbEntity
  8
AM_VIS
100
AcDbLine
 10
2164.275371165054
 20
1419.870545156516
 30
0.0
 11
2164.275371165054
 21
1421.870545156516
 31
0.0
  0
LINE
  5
1F09
330
1F
100
AcDbEntity
  8
0
 62
     2
100
AcDbLine
 10
2265.603755032952
 20
1378.870545156516
 30
0.0
 11
2265.603755032952
 21
1357.870545156516
 31
0.0
  0
LINE
  5
1F0A
330
1F
100
AcDbEntity
  8
0
 62
     2
100
AcDbLine
 10
2273.603755032952
 20
1378.870545156516
 30
0.0
 11
2273.603755032952
 21
1357.870545156516
 31
0.0
  0
LINE
  5
1F0B
330
1F
100
AcDbEntity
  8
0
 62
     2
100
AcDbLine
 10
2273.603755032952
 20
1357.870545156516
 30
0.0
 11
2265.603755032952
 21
1357.870545156516
 31
0.0
  0
LINE
  5
1F0C
330
1F
100
AcDbEntity
  8
AM_VIS
100
AcDbLine
 10
2273.603755032952
 20
1419.870545156516
 30
0.0
 11
2273.603755032952
 21
1421.870545156516
 31
0.0
  0
LINE
  5
1F0D
330
1F
100
AcDbEntity
  8
AM_VIS
100
AcDbLine
 10
2265.603755032952
 20
1419.870545156516
 30
0.0
 11
2265.603755032952
 21
1421.870545156516
 31
0.0
  0
LINE
  5
1F0E
330
1F
100
AcDbEntity
  8
0
 62
     2
100
AcDbLine
 10
2108.505981099594
 20
1378.870545156516
 30
0.0
 11
2108.505981099594
 21
1357.870545156516
 31
0.0
  0
LINE
  5
1F0F
330
1F
100
AcDbEntity
  8
0
 62
     2
100
AcDbLine
 10
2116.505981099594
 20
1378.870545156516
 30
0.0
 11
2116.505981099594
 21
1357.870545156516
 31
0.0
  0
LINE
  5
1F10
330
1F
100
AcDbEntity
  8
0
 62
     2
100
AcDbLine
 10
2116.505981099594
 20
1357.870545156516
 30
0.0
 11
2108.505981099594
 21
1357.870545156516
 31
0.0
  0
LINE
  5
1F11
330
1F
100
AcDbEntity
  8
AM_VIS
100
AcDbLine
 10
2116.505981099594
 20
1419.870545156516
 30
0.0
 11
2116.505981099594
 21
1421.870545156516
 31
0.0
  0
LINE
  5
1F12
330
1F
100
AcDbEntity
  8
AM_VIS
100
AcDbLine
 10
2108.505981099594
 20
1419.870545156516
 30
0.0
 11
2108.505981099594
 21
1421.870545156516
 31
0.0
  0
CIRCLE
  5
1F13
330
1F
100
AcDbEntity
  8
0
100
AcDbCircle
 10
2168.275371165054
 20
1321.44967346908
 30
0.0
 40
4.0
  0
CIRCLE
  5
1F14
330
1F
100
AcDbEntity
  8
0
100
AcDbCircle
 10
2214.275371165054
 20
1321.44967346908
 30
0.0
 40
4.0
  0
INSERT
  5
1F15
330
1F
100
AcDbEntity
  8
AM_5
100
AcDbBlockReference
  2
*S8
 10
0.0
 20
0.0
 30
0.0
  0
TEXT
  5
1F16
330
1F
100
AcDbEntity
  8
AM_5
100
AcDbText
 10
2134.476146295502
 20
1616.111373020412
 30
0.0
 40
3.0
  1
M5x0.8
100
AcDbText
  0
INSERT
  5
1F17
330
1F
100
AcDbEntity
  8
AM_5
100
AcDbBlockReference
  2
*S9
 10
0.0
 20
0.0
 30
0.0
  0
TEXT
  5
1F18
330
1F
100
AcDbEntity
  8
AM_5
100
AcDbText
 10
2134.476146295502
 20
1371.988538537474
 30
0.0
 40
3.0
  1
M5x0.8
100
AcDbText
  0
LINE
  5
1F81
330
1F
100
AcDbEntity
  8
0
100
AcDbLine
 10
2351.216092578275
 20
1748.896149931885
 30
0.0
 11
2351.216092578275
 21
1704.659349931886
 31
0.0
  0
LINE
  5
1F82
330
1F
100
AcDbEntity
  8
0
100
AcDbLine
 10
2361.584092578275
 20
1748.896149931885
 30
0.0
 11
2361.584092578275
 21
1704.659349931886
 31
0.0
  0
LINE
  5
1F83
330
1F
100
AcDbEntity
  8
0
100
AcDbLine
 10
2340.848092578275
 20
1748.896149931885
 30
0.0
 11
2340.848092578275
 21
1704.659349931886
 31
0.0
  0
LINE
  5
1F84
330
1F
100
AcDbEntity
  8
0
100
AcDbLine
 10
2327.024092578275
 20
1748.896149931885
 30
0.0
 11
2327.024092578275
 21
1704.659349931886
 31
0.0
  0
TEXT
  5
1F85
330
1F
100
AcDbEntity
  8
0
100
AcDbText
 10
2343.761006863989
 20
1711.657749931885
 30
0.0
 40
2.591999999999999
  1
118
 41
0.8
  7
CHINESET
 72
     4
 11
2346.032092578275
 21
1712.953749931886
 31
0.0
100
AcDbText
  0
TEXT
  5
1F86
330
1F
100
AcDbEntity
  8
0
100
AcDbText
 10
2343.563521149703
 20
1706.128149931885
 30
0.0
 40
2.591999999999999
  1
143
 41
0.8
  7
CHINESET
 72
     4
 11
2346.032092578275
 21
1707.424149931886
 31
0.0
100
AcDbText
  0
LINE
  5
1F87
330
1F
100
AcDbEntity
  8
0
100
AcDbLine
 10
2327.024092578275
 20
1710.188949931886
 30
0.0
 11
2371.952092578275
 21
1710.188949931886
 31
0.0
  0
LINE
  5
1F88
330
1F
100
AcDbEntity
  8
0
100
AcDbLine
 10
2327.024092578275
 20
1704.659349931886
 30
0.0
 11
2371.952092578275
 21
1704.659349931886
 31
0.0
  0
LINE
  5
1F89
330
1F
100
AcDbEntity
  8
0
100
AcDbLine
 10
2327.024092578275
 20
1715.718549931885
 30
0.0
 11
2371.952092578275
 21
1715.718549931885
 31
0.0
  0
TEXT
  5
1F8A
330
1F
100
AcDbEntity
  8
0
100
AcDbText
 10
2331.467521149703
 20
1706.128149931885
 30
0.0
 40
2.591999999999999
  1
100
 41
0.8
  7
CHINESET
 72
     4
 11
2333.936092578275
 21
1707.424149931886
 31
0.0
100
AcDbText
  0
TEXT
  5
1F8B
330
1F
100
AcDbEntity
  8
0
100
AcDbText
 10
2332.257464006846
 20
1711.657749931885
 30
0.0
 40
2.591999999999999
  1
75
 41
0.8
  7
CHINESET
 72
     4
 11
2333.936092578275
 21
1712.953749931886
 31
0.0
100
AcDbText
  0
TEXT
  5
1F8C
330
1F
100
AcDbEntity
  8
0
100
AcDbText
 10
2353.980892578275
 20
1711.657749931885
 30
0.0
 40
2.591999999999999
  1
106
 41
0.8
  7
CHINESET
 72
     4
 11
2356.400092578275
 21
1712.953749931886
 31
0.0
100
AcDbText
  0
TEXT
  5
1F8D
330
1F
100
AcDbEntity
  8
0
100
AcDbText
 10
2354.375864006847
 20
1706.128149931885
 30
0.0
 40
2.591999999999999
  1
131
 41
0.8
  7
CHINESET
 72
     4
 11
2356.400092578275
 21
1707.424149931886
 31
0.0
100
AcDbText
  0
TEXT
  5
1F8E
330
1F
100
AcDbEntity
  8
0
100
AcDbText
 10
2365.533806863989
 20
1711.657749931885
 30
0.0
 40
2.591999999999999
  1
21
 41
0.8
  7
CHINESET
 72
     4
 11
2366.768092578275
 21
1712.953749931886
 31
0.0
100
AcDbText
  0
TEXT
  5
1F8F
330
1F
100
AcDbEntity
  8
0
100
AcDbText
 10
2365.533806863989
 20
1706.128149931885
 30
0.0
 40
2.591999999999999
  1
21
 41
0.8
  7
CHINESET
 72
     4
 11
2366.768092578275
 21
1707.424149931886
 31
0.0
100
AcDbText
  0
TEXT
  5
1F90
330
1F
100
AcDbEntity
  8
0
100
AcDbText
 10
2344.353464006847
 20
1733.776149931885
 30
0.0
 40
2.591999999999999
  1
63
 41
0.8
  7
CHINESET
 72
     4
 11
2346.032092578275
 21
1735.072149931886
 31
0.0
100
AcDbText
  0
TEXT
  5
1F91
330
1F
100
AcDbEntity
  8
0
100
AcDbText
 10
2344.353464006847
 20
1739.305749931886
 30
0.0
 40
2.591999999999999
  1
53
 41
0.8
  7
CHINESET
 72
     4
 11
2346.032092578275
 21
1740.601749931886
 31
0.0
100
AcDbText
  0
LINE
  5
1F92
330
1F
100
AcDbEntity
  8
0
100
AcDbLine
 10
2327.024092578275
 20
1748.896149931885
 30
0.0
 11
2371.952092578275
 21
1748.896149931885
 31
0.0
  0
LINE
  5
1F93
330
1F
100
AcDbEntity
  8
0
100
AcDbLine
 10
2327.024092578275
 20
1743.366549931885
 30
0.0
 11
2371.952092578275
 21
1743.366549931885
 31
0.0
  0
LINE
  5
1F94
330
1F
100
AcDbEntity
  8
0
100
AcDbLine
 10
2327.024092578275
 20
1737.836949931885
 30
0.0
 11
2371.952092578275
 21
1737.836949931885
 31
0.0
  0
LINE
  5
1F95
330
1F
100
AcDbEntity
  8
0
100
AcDbLine
 10
2327.024092578275
 20
1732.307349931886
 30
0.0
 11
2371.952092578275
 21
1732.307349931886
 31
0.0
  0
TEXT
  5
1F96
330
1F
100
AcDbEntity
  8
0
100
AcDbText
 10
2344.353464006847
 20
1722.716949931886
 30
0.0
 40
2.591999999999999
  1
83
 41
0.8
  7
CHINESET
 72
     4
 11
2346.032092578275
 21
1724.012949931886
 31
0.0
100
AcDbText
  0
TEXT
  5
1F97
330
1F
100
AcDbEntity
  8
0
100
AcDbText
 10
2344.353464006847
 20
1728.246549931886
 30
0.0
 40
2.591999999999999
  1
73
 41
0.8
  7
CHINESET
 72
     4
 11
2346.032092578275
 21
1729.542549931886
 31
0.0
100
AcDbText
  0
TEXT
  5
1F98
330
1F
100
AcDbEntity
  8
0
100
AcDbText
 10
2344.353464006847
 20
1717.187349931886
 30
0.0
 40
2.591999999999999
  1
93
 41
0.8
  7
CHINESET
 72
     4
 11
2346.032092578275
 21
1718.483349931886
 31
0.0
100
AcDbText
  0
LINE
  5
1F99
330
1F
100
AcDbEntity
  8
0
100
AcDbLine
 10
2327.024092578275
 20
1726.777749931885
 30
0.0
 11
2371.952092578275
 21
1726.777749931885
 31
0.0
  0
LINE
  5
1F9A
330
1F
100
AcDbEntity
  8
0
100
AcDbLine
 10
2327.024092578275
 20
1721.248149931886
 30
0.0
 11
2371.952092578275
 21
1721.248149931886
 31
0.0
  0
TEXT
  5
1F9B
330
1F
100
AcDbEntity
  8
0
100
AcDbText
 10
2332.257464006846
 20
1722.716949931886
 30
0.0
 40
2.591999999999999
  1
40
 41
0.8
  7
CHINESET
 72
     4
 11
2333.936092578275
 21
1724.012949931886
 31
0.0
100
AcDbText
  0
TEXT
  5
1F9C
330
1F
100
AcDbEntity
  8
0
100
AcDbText
 10
2332.257464006846
 20
1717.187349931886
 30
0.0
 40
2.591999999999999
  1
50
 41
0.8
  7
CHINESET
 72
     4
 11
2333.936092578275
 21
1718.483349931886
 31
0.0
100
AcDbText
  0
TEXT
  5
1F9D
330
1F
100
AcDbEntity
  8
0
100
AcDbText
 10
2332.257464006846
 20
1733.776149931885
 30
0.0
 40
2.591999999999999
  1
20
 41
0.8
  7
CHINESET
 72
     4
 11
2333.936092578275
 21
1735.072149931886
 31
0.0
100
AcDbText
  0
TEXT
  5
1F9E
330
1F
100
AcDbEntity
  8
0
100
AcDbText
 10
2332.257464006846
 20
1728.246549931886
 30
0.0
 40
2.591999999999999
  1
30
 41
0.8
  7
CHINESET
 72
     4
 11
2333.936092578275
 21
1729.542549931886
 31
0.0
100
AcDbText
  0
TEXT
  5
1FA0
330
1F
100
AcDbEntity
  8
0
100
AcDbText
 10
2344.64946730249
 20
1744.645994540385
 30
0.0
 40
2.591999999999999
  1
L
 41
0.8
  7
CHINESET
100
AcDbText
  0
TEXT
  5
1FA1
330
1F
100
AcDbEntity
  8
0
100
AcDbText
 10
2332.454949721132
 20
1739.305749931886
 30
0.0
 40
2.591999999999999
  1
10
 41
0.8
  7
CHINESET
 72
     4
 11
2333.936092578275
 21
1740.601749931886
 31
0.0
100
AcDbText
  0
TEXT
  5
1FA2
330
1F
100
AcDbEntity
  8
0
100
AcDbText
 10
2355.165806863989
 20
1722.716949931886
 30
0.0
 40
2.591999999999999
  1
71
 41
0.8
  7
CHINESET
 72
     4
 11
2356.400092578275
 21
1724.012949931886
 31
0.0
100
AcDbText
  0
TEXT
  5
1FA3
330
1F
100
AcDbEntity
  8
0
100
AcDbText
 10
2355.165806863989
 20
1717.187349931886
 30
0.0
 40
2.591999999999999
  1
81
 41
0.8
  7
CHINESET
 72
     4
 11
2356.400092578275
 21
1718.483349931886
 31
0.0
100
AcDbText
  0
TEXT
  5
1FA4
330
1F
100
AcDbEntity
  8
0
100
AcDbText
 10
2355.165806863989
 20
1733.776149931885
 30
0.0
 40
2.591999999999999
  1
51
 41
0.8
  7
CHINESET
 72
     4
 11
2356.400092578275
 21
1735.072149931886
 31
0.0
100
AcDbText
  0
TEXT
  5
1FA5
330
1F
100
AcDbEntity
  8
0
100
AcDbText
 10
2355.165806863989
 20
1728.246549931886
 30
0.0
 40
2.591999999999999
  1
61
 41
0.8
  7
CHINESET
 72
     4
 11
2356.400092578275
 21
1729.542549931886
 31
0.0
100
AcDbText
  0
TEXT
  5
1FA6
330
1F
100
AcDbEntity
  8
0
100
AcDbText
 10
2356.836252015104
 20
1744.669455169432
 30
0.0
 40
2.591999999999999
  1
1
 41
0.8
  7
CHINESET
100
AcDbText
  0
TEXT
  5
1FA7
330
1F
100
AcDbEntity
  8
0
100
AcDbText
 10
2355.165806863989
 20
1739.305749931886
 30
0.0
 40
2.591999999999999
  1
41
 41
0.8
  7
CHINESET
 72
     4
 11
2356.400092578275
 21
1740.601749931886
 31
0.0
100
AcDbText
  0
TEXT
  5
1FA8
330
1F
100
AcDbEntity
  8
0
100
AcDbText
 10
2354.270296331024
 20
1744.645994540385
 30
0.0
 40
2.591999999999999
  1
L
 41
0.8
  7
CHINESET
100
AcDbText
  0
TEXT
  5
1FA9
330
1F
100
AcDbEntity
  8
0
100
AcDbText
 10
2366.9981575377
 20
1744.672597048798
 30
0.0
 40
2.591999999999999
  1
2
 41
0.8
  7
CHINESET
100
AcDbText
  0
TEXT
  5
1FAA
330
1F
100
AcDbEntity
  8
0
100
AcDbText
 10
2364.613049220244
 20
1744.645994540385
 30
0.0
 40
2.591999999999999
  1
L
 41
0.8
  7
CHINESET
100
AcDbText
  0
LINE
  5
1FCE
330
1F
100
AcDbEntity
  8
0
100
AcDbLine
 10
2371.952092578275
 20
1748.896149931885
 30
0.0
 11
2371.952092578275
 21
1704.659349931886
 31
0.0
  0
TEXT
  5
1FD5
330
1F
100
AcDbEntity
  8
0
100
AcDbText
 10
2366.076892578274
 20
1717.187349931885
 30
0.0
 40
2.591999999999999
  1
0
 41
0.8
  7
CHINESET
 72
     4
 11
2366.768092578275
 21
1718.483349931885
 31
0.0
100
AcDbText
  0
TEXT
  5
1FD7
330
1F
100
AcDbEntity
  8
0
100
AcDbText
 10
2366.076892578274
 20
1722.716949931885
 30
0.0
 40
2.591999999999999
  1
0
 41
0.8
  7
CHINESET
 72
     4
 11
2366.768092578275
 21
1724.012949931885
 31
0.0
100
AcDbText
  0
TEXT
  5
1FD8
330
1F
100
AcDbEntity
  8
0
100
AcDbText
 10
2366.076892578274
 20
1728.246549931886
 30
0.0
 40
2.591999999999999
  1
0
 41
0.8
  7
CHINESET
 72
     4
 11
2366.768092578275
 21
1729.542549931885
 31
0.0
100
AcDbText
  0
TEXT
  5
1FD9
330
1F
100
AcDbEntity
  8
0
100
AcDbText
 10
2366.076892578274
 20
1733.776149931885
 30
0.0
 40
2.591999999999999
  1
0
 41
0.8
  7
CHINESET
 72
     4
 11
2366.768092578275
 21
1735.072149931886
 31
0.0
100
AcDbText
  0
TEXT
  5
1FDA
330
1F
100
AcDbEntity
  8
0
100
AcDbText
 10
2366.076892578274
 20
1739.305749931885
 30
0.0
 40
2.591999999999999
  1
0
 41
0.8
  7
CHINESET
 72
     4
 11
2366.768092578275
 21
1740.601749931886
 31
0.0
100
AcDbText
  0
TEXT
  5
204C
330
1F
100
AcDbEntity
  8
0
100
AcDbText
 10
2328.289956822992
 20
1744.731402821054
 30
0.0
 40
2.799999999999999
  1
Stroke
 41
0.8
  7
CHINESET
100
AcDbText
  0
LINE
  5
204D
330
1F
100
AcDbEntity
  8
0
100
AcDbLine
 10
2351.216092578275
 20
1509.75098221025
 30
0.0
 11
2351.216092578275
 21
1465.51418221025
 31
0.0
  0
LINE
  5
204E
330
1F
100
AcDbEntity
  8
0
100
AcDbLine
 10
2361.584092578275
 20
1509.75098221025
 30
0.0
 11
2361.584092578275
 21
1465.51418221025
 31
0.0
  0
LINE
  5
204F
330
1F
100
AcDbEntity
  8
0
100
AcDbLine
 10
2340.848092578275
 20
1509.75098221025
 30
0.0
 11
2340.848092578275
 21
1465.51418221025
 31
0.0
  0
LINE
  5
2050
330
1F
100
AcDbEntity
  8
0
100
AcDbLine
 10
2327.024092578275
 20
1509.75098221025
 30
0.0
 11
2327.024092578275
 21
1465.51418221025
 31
0.0
  0
LINE
  5
2053
330
1F
100
AcDbEntity
  8
0
100
AcDbLine
 10
2327.024092578275
 20
1471.04378221025
 30
0.0
 11
2371.952092578275
 21
1471.04378221025
 31
0.0
  0
LINE
  5
2054
330
1F
100
AcDbEntity
  8
0
100
AcDbLine
 10
2327.024092578275
 20
1465.51418221025
 30
0.0
 11
2371.952092578275
 21
1465.51418221025
 31
0.0
  0
LINE
  5
2055
330
1F
100
AcDbEntity
  8
0
100
AcDbLine
 10
2327.024092578275
 20
1476.57338221025
 30
0.0
 11
2371.952092578275
 21
1476.57338221025
 31
0.0
  0
TEXT
  5
2056
330
1F
100
AcDbEntity
  8
0
100
AcDbText
 10
2331.467521149703
 20
1466.98298221025
 30
0.0
 40
2.591999999999999
  1
100
 41
0.8
  7
CHINESET
 72
     4
 11
2333.936092578275
 21
1468.27898221025
 31
0.0
100
AcDbText
  0
TEXT
  5
2057
330
1F
100
AcDbEntity
  8
0
100
AcDbText
 10
2332.257464006846
 20
1472.51258221025
 30
0.0
 40
2.591999999999999
  1
75
 41
0.8
  7
CHINESET
 72
     4
 11
2333.936092578275
 21
1473.80858221025
 31
0.0
100
AcDbText
  0
LINE
  5
205E
330
1F
100
AcDbEntity
  8
0
100
AcDbLine
 10
2327.024092578275
 20
1509.75098221025
 30
0.0
 11
2371.952092578275
 21
1509.75098221025
 31
0.0
  0
LINE
  5
205F
330
1F
100
AcDbEntity
  8
0
100
AcDbLine
 10
2327.024092578275
 20
1504.22138221025
 30
0.0
 11
2371.952092578275
 21
1504.22138221025
 31
0.0
  0
LINE
  5
2060
330
1F
100
AcDbEntity
  8
0
100
AcDbLine
 10
2327.024092578275
 20
1498.69178221025
 30
0.0
 11
2371.952092578275
 21
1498.69178221025
 31
0.0
  0
LINE
  5
2061
330
1F
100
AcDbEntity
  8
0
100
AcDbLine
 10
2327.024092578275
 20
1493.16218221025
 30
0.0
 11
2371.952092578275
 21
1493.16218221025
 31
0.0
  0
LINE
  5
2065
330
1F
100
AcDbEntity
  8
0
100
AcDbLine
 10
2327.024092578275
 20
1487.63258221025
 30
0.0
 11
2371.952092578275
 21
1487.63258221025
 31
0.0
  0
LINE
  5
2066
330
1F
100
AcDbEntity
  8
0
100
AcDbLine
 10
2327.024092578275
 20
1482.10298221025
 30
0.0
 11
2371.952092578275
 21
1482.10298221025
 31
0.0
  0
TEXT
  5
2067
330
1F
100
AcDbEntity
  8
0
100
AcDbText
 10
2332.257464006846
 20
1483.57178221025
 30
0.0
 40
2.591999999999999
  1
40
 41
0.8
  7
CHINESET
 72
     4
 11
2333.936092578275
 21
1484.86778221025
 31
0.0
100
AcDbText
  0
TEXT
  5
2068
330
1F
100
AcDbEntity
  8
0
100
AcDbText
 10
2332.257464006846
 20
1478.04218221025
 30
0.0
 40
2.591999999999999
  1
50
 41
0.8
  7
CHINESET
 72
     4
 11
2333.936092578275
 21
1479.33818221025
 31
0.0
100
AcDbText
  0
TEXT
  5
2069
330
1F
100
AcDbEntity
  8
0
100
AcDbText
 10
2332.257464006846
 20
1494.63098221025
 30
0.0
 40
2.591999999999999
  1
20
 41
0.8
  7
CHINESET
 72
     4
 11
2333.936092578275
 21
1495.92698221025
 31
0.0
100
AcDbText
  0
TEXT
  5
206A
330
1F
100
AcDbEntity
  8
0
100
AcDbText
 10
2332.257464006846
 20
1489.10138221025
 30
0.0
 40
2.591999999999999
  1
30
 41
0.8
  7
CHINESET
 72
     4
 11
2333.936092578275
 21
1490.39738221025
 31
0.0
100
AcDbText
  0
TEXT
  5
206B
330
1F
100
AcDbEntity
  8
0
100
AcDbText
 10
2344.64946730249
 20
1505.50082681875
 30
0.0
 40
2.591999999999999
  1
L
 41
0.8
  7
CHINESET
100
AcDbText
  0
TEXT
  5
206C
330
1F
100
AcDbEntity
  8
0
100
AcDbText
 10
2332.454949721132
 20
1500.16058221025
 30
0.0
 40
2.591999999999999
  1
10
 41
0.8
  7
CHINESET
 72
     4
 11
2333.936092578275
 21
1501.45658221025
 31
0.0
100
AcDbText
  0
TEXT
  5
2071
330
1F
100
AcDbEntity
  8
0
100
AcDbText
 10
2356.836252015104
 20
1505.524287447796
 30
0.0
 40
2.591999999999999
  1
1
 41
0.8
  7
CHINESET
100
AcDbText
  0
TEXT
  5
2073
330
1F
100
AcDbEntity
  8
0
100
AcDbText
 10
2354.270296331024
 20
1505.500826818749
 30
0.0
 40
2.591999999999999
  1
L
 41
0.8
  7
CHINESET
100
AcDbText
  0
TEXT
  5
2074
330
1F
100
AcDbEntity
  8
0
100
AcDbText
 10
2366.9981575377
 20
1505.527429327162
 30
0.0
 40
2.591999999999999
  1
2
 41
0.8
  7
CHINESET
100
AcDbText
  0
TEXT
  5
2075
330
1F
100
AcDbEntity
  8
0
100
AcDbText
 10
2364.613049220244
 20
1505.500826818749
 30
0.0
 40
2.591999999999999
  1
L
 41
0.8
  7
CHINESET
100
AcDbText
  0
LINE
  5
2076
330
1F
100
AcDbEntity
  8
0
100
AcDbLine
 10
2371.952092578275
 20
1509.75098221025
 30
0.0
 11
2371.952092578275
 21
1465.51418221025
 31
0.0
  0
TEXT
  5
207C
330
1F
100
AcDbEntity
  8
0
100
AcDbText
 10
2328.289956822992
 20
1505.586235099418
 30
0.0
 40
2.799999999999999
  1
Stroke
 41
0.8
  7
CHINESET
100
AcDbText
  0
TEXT
  5
207D
330
1F
100
AcDbEntity
  8
0
100
AcDbText
 10
2353.980892578275
 20
1472.51258221025
 30
0.0
 40
2.591999999999999
  1
106
 41
0.8
  7
CHINESET
 72
     4
 11
2356.400092578275
 21
1473.80858221025
 31
0.0
100
AcDbText
  0
TEXT
  5
207E
330
1F
100
AcDbEntity
  8
0
100
AcDbText
 10
2354.375864006847
 20
1466.98298221025
 30
0.0
 40
2.591999999999999
  1
131
 41
0.8
  7
CHINESET
 72
     4
 11
2356.400092578275
 21
1468.27898221025
 31
0.0
100
AcDbText
  0
TEXT
  5
207F
330
1F
100
AcDbEntity
  8
0
100
AcDbText
 10
2343.761006863989
 20
1472.51258221025
 30
0.0
 40
2.591999999999999
  1
118
 41
0.8
  7
CHINESET
 72
     4
 11
2346.032092578275
 21
1473.80858221025
 31
0.0
100
AcDbText
  0
TEXT
  5
2080
330
1F
100
AcDbEntity
  8
0
100
AcDbText
 10
2343.563521149703
 20
1466.98298221025
 30
0.0
 40
2.591999999999999
  1
143
 41
0.8
  7
CHINESET
 72
     4
 11
2346.032092578275
 21
1468.27898221025
 31
0.0
100
AcDbText
  0
TEXT
  5
2081
330
1F
100
AcDbEntity
  8
0
100
AcDbText
 10
2365.533806863989
 20
1472.51258221025
 30
0.0
 40
2.591999999999999
  1
21
 41
0.8
  7
CHINESET
 72
     4
 11
2366.768092578275
 21
1473.80858221025
 31
0.0
100
AcDbText
  0
TEXT
  5
2082
330
1F
100
AcDbEntity
  8
0
100
AcDbText
 10
2365.533806863989
 20
1466.98298221025
 30
0.0
 40
2.591999999999999
  1
21
 41
0.8
  7
CHINESET
 72
     4
 11
2366.768092578275
 21
1468.27898221025
 31
0.0
100
AcDbText
  0
TEXT
  5
2083
330
1F
100
AcDbEntity
  8
0
100
AcDbText
 10
2344.353464006847
 20
1483.57178221025
 30
0.0
 40
2.591999999999999
  1
83
 41
0.8
  7
CHINESET
 72
     4
 11
2346.032092578275
 21
1484.86778221025
 31
0.0
100
AcDbText
  0
TEXT
  5
2084
330
1F
100
AcDbEntity
  8
0
100
AcDbText
 10
2344.353464006847
 20
1478.04218221025
 30
0.0
 40
2.591999999999999
  1
93
 41
0.8
  7
CHINESET
 72
     4
 11
2346.032092578275
 21
1479.33818221025
 31
0.0
100
AcDbText
  0
TEXT
  5
2085
330
1F
100
AcDbEntity
  8
0
100
AcDbText
 10
2365.533806863989
 20
1483.57178221025
 30
0.0
 40
2.591999999999999
  1
21
 41
0.8
  7
CHINESET
 72
     4
 11
2366.768092578275
 21
1484.86778221025
 31
0.0
100
AcDbText
  0
TEXT
  5
2086
330
1F
100
AcDbEntity
  8
0
100
AcDbText
 10
2355.165806863989
 20
1483.57178221025
 30
0.0
 40
2.591999999999999
  1
71
 41
0.8
  7
CHINESET
 72
     4
 11
2356.400092578275
 21
1484.86778221025
 31
0.0
100
AcDbText
  0
TEXT
  5
2087
330
1F
100
AcDbEntity
  8
0
100
AcDbText
 10
2365.533806863989
 20
1478.04218221025
 30
0.0
 40
2.591999999999999
  1
21
 41
0.8
  7
CHINESET
 72
     4
 11
2366.768092578275
 21
1479.33818221025
 31
0.0
100
AcDbText
  0
TEXT
  5
2088
330
1F
100
AcDbEntity
  8
0
100
AcDbText
 10
2355.165806863989
 20
1478.04218221025
 30
0.0
 40
2.591999999999999
  1
81
 41
0.8
  7
CHINESET
 72
     4
 11
2356.400092578275
 21
1479.33818221025
 31
0.0
100
AcDbText
  0
TEXT
  5
2089
330
1F
100
AcDbEntity
  8
0
100
AcDbText
 10
2344.353464006847
 20
1494.63098221025
 30
0.0
 40
2.591999999999999
  1
63
 41
0.8
  7
CHINESET
 72
     4
 11
2346.032092578275
 21
1495.92698221025
 31
0.0
100
AcDbText
  0
TEXT
  5
208A
330
1F
100
AcDbEntity
  8
0
100
AcDbText
 10
2344.353464006847
 20
1489.10138221025
 30
0.0
 40
2.591999999999999
  1
73
 41
0.8
  7
CHINESET
 72
     4
 11
2346.032092578275
 21
1490.39738221025
 31
0.0
100
AcDbText
  0
TEXT
  5
208B
330
1F
100
AcDbEntity
  8
0
100
AcDbText
 10
2355.165806863989
 20
1494.63098221025
 30
0.0
 40
2.591999999999999
  1
51
 41
0.8
  7
CHINESET
 72
     4
 11
2356.400092578275
 21
1495.92698221025
 31
0.0
100
AcDbText
  0
TEXT
  5
208C
330
1F
100
AcDbEntity
  8
0
100
AcDbText
 10
2355.165806863989
 20
1489.10138221025
 30
0.0
 40
2.591999999999999
  1
61
 41
0.8
  7
CHINESET
 72
     4
 11
2356.400092578275
 21
1490.39738221025
 31
0.0
100
AcDbText
  0
TEXT
  5
208D
330
1F
100
AcDbEntity
  8
0
100
AcDbText
 10
2344.353464006846
 20
1500.16058221025
 30
0.0
 40
2.591999999999999
  1
53
 41
0.8
  7
CHINESET
 72
     4
 11
2346.032092578274
 21
1501.45658221025
 31
0.0
100
AcDbText
  0
TEXT
  5
208E
330
1F
100
AcDbEntity
  8
0
100
AcDbText
 10
2355.165806863989
 20
1500.16058221025
 30
0.0
 40
2.591999999999999
  1
41
 41
0.8
  7
CHINESET
 72
     4
 11
2356.400092578275
 21
1501.45658221025
 31
0.0
100
AcDbText
  0
TEXT
  5
208F
330
1F
100
AcDbEntity
  8
0
100
AcDbText
 10
2366.076892578274
 20
1500.16058221025
 30
0.0
 40
2.591999999999999
  1
0
 41
0.8
  7
CHINESET
 72
     4
 11
2366.768092578275
 21
1501.45658221025
 31
0.0
100
AcDbText
  0
TEXT
  5
2090
330
1F
100
AcDbEntity
  8
0
100
AcDbText
 10
2366.076892578274
 20
1494.63098221025
 30
0.0
 40
2.591999999999999
  1
0
 41
0.8
  7
CHINESET
 72
     4
 11
2366.768092578275
 21
1495.92698221025
 31
0.0
100
AcDbText
  0
TEXT
  5
2091
330
1F
100
AcDbEntity
  8
0
100
AcDbText
 10
2366.076892578274
 20
1489.10138221025
 30
0.0
 40
2.591999999999999
  1
0
 41
0.8
  7
CHINESET
 72
     4
 11
2366.768092578275
 21
1490.39738221025
 31
0.0
100
AcDbText
  0
CIRCLE
  5
2092
330
1F
100
AcDbEntity
  8
0
100
AcDbCircle
 10
2324.492711753276
 20
1740.427387848187
 30
0.0
 40
1.118698613652357
  0
CIRCLE
  5
2093
330
1F
100
AcDbEntity
  8
0
100
AcDbCircle
 10
2324.492711753276
 20
1501.282220126551
 30
0.0
 40
1.118698613652357
  0
TEXT
  5
20ED
330
1F
100
AcDbEntity
  8
0
100
AcDbText
 10
2060.931235827387
 20
1748.944832295413
 30
0.0
 40
5.519923200000001
  1
Slide bearing type
 41
0.8
  7
CHINESET
100
AcDbText
  0
TEXT
  5
20FA
330
1F
100
AcDbEntity
  8
0
100
AcDbText
 10
2060.931235827387
 20
1509.799664573778
 30
0.0
 40
5.519923200000001
  1
Linear bush bearing type
 41
0.8
  7
CHINESET
100
AcDbText
  0
LWPOLYLINE
  5
2234
330
1F
100
AcDbEntity
  8
LOGO
 62
     4
100
AcDbPolyline
 90
        4
 70
     1
 43
0.0
 10
2054.162671431644
 20
1284.100610506813
 10
2417.625736813495
 20
1284.100610506813
 10
2417.625736813495
 20
1253.005113674233
 10
2054.162671431644
 20
1253.005113674233
1001
GENIUS_GENREC_14
1002
{
1000
PYDIR
1011
2054.162671431644
1021
1253.005113674233
1031
0.0
1002
}
1002
{
1000
PXDIR
1011
2417.625736813495
1021
1284.100610506813
1031
0.0
1002
}
1002
{
1000
PORI
1011
2054.162671431644
1021
1284.100610506813
1031
0.0
1002
}
1002
{
1000
PINS
1011
2054.162671431644
1021
1284.100610506813
1031
0.0
1002
}
1002
{
1000
PINS2
1011
2417.625736813495
1021
1253.005113674233
1031
0.0
1002
}
1002
{
1000
C
1070
     1
1002
}
1001
GENIUS_GENOBJ-N-REC_13
1002
{
1000
OWNER
1000
GEN
1002
}
1001
GENIUS_GENODEF_13
1002
{
1000
HIER
1070
     0
1002
}
1002
{
1000
MANEDIT
1070
     0
1002
}
1002
{
1000
NOSEL
1070
     0
1002
}
1002
{
1000
BEHIND
1070
     0
1002
}
1002
{
1000
OTHER
1070
     0
1002
}
1002
{
1000
REACTOR
1002
}
  0
TEXT
  5
2235
330
1F
100
AcDbEntity
  8
LOGO
 62
     7
100
AcDbText
 10
2124.374244309134
 20
1270.478202479553
 30
0.0
 40
4.146066244343891
  1
Order example:
 41
0.8
  7
CHINESET
100
AcDbText
  0
TEXT
  5
2236
330
1F
100
AcDbEntity
  8
LOGO
 62
     7
100
AcDbText
 10
2125.118082879943
 20
1276.31500529762
 30
0.0
 40
6.219099366515836
  1
訂購代號：
  7
CHINESET
100
AcDbText
  0
LINE
  5
2237
330
1F
100
AcDbEntity
  8
LOGO
 62
     4
100
AcDbLine
 10
2122.572764463319
 20
1253.005113674234
 30
0.0
 11
2122.572764463319
 21
1284.100610506813
 31
0.0
  0
TEXT
  5
2238
330
1F
100
AcDbEntity
  8
LOGO
  6
Continuous
100
AcDbText
 10
2065.33231367087
 20
1259.113777099798
 30
0.0
 40
4.664324524886877
  1
金器工業股份有限公司
  7
CHINESET
100
AcDbText
  0
TEXT
  5
2239
330
1F
100
AcDbEntity
  8
LOGO
  6
Continuous
100
AcDbText
 10
2056.764872309753
 20
1254.448538733001
 30
0.0
 40
3.109549683257918
  1
MINDMAN INDUSTRIAL CO., LTD.
 41
0.85
  7
CHINESET
100
AcDbText
  0
LINE
  5
223A
330
1F
100
AcDbEntity
  8
LOGO
 62
     4
100
AcDbLine
 10
2122.572764463319
 20
1277.881511140297
 30
0.0
 11
2076.966035775535
 21
1277.881511140297
 31
0.0
  0
LINE
  5
223B
330
1F
100
AcDbEntity
  8
LOGO
 62
     4
100
AcDbLine
 10
2122.572764463319
 20
1271.662411773781
 30
0.0
 11
2076.966035775535
 21
1271.662411773781
 31
0.0
  0
LINE
  5
223C
330
1F
100
AcDbEntity
  8
LOGO
 62
     4
100
AcDbLine
 10
2122.572764463319
 20
1265.443312407266
 30
0.0
 11
2054.162671431644
 21
1265.443312407266
 31
0.0
  0
LINE
  5
223D
330
1F
100
AcDbEntity
  8
LOGO
 62
     4
100
AcDbLine
 10
2076.966035775535
 20
1265.443312407266
 30
0.0
 11
2076.966035775535
 21
1284.100610506813
 31
0.0
  0
TEXT
  5
223E
330
1F
100
AcDbEntity
  8
LOGO
100
AcDbText
 10
2108.136082228829
 20
1266.998087248894
 30
0.0
 40
3.109549683257918
  1
mm
  7
CHINESET
 72
     1
 11
2111.986000884292
 21
1268.552862090523
 31
0.0
100
AcDbText
 73
     2
  0
TEXT
  5
223F
330
1F
100
AcDbEntity
  8
LOGO
100
AcDbText
 10
2106.50727048998
 20
1279.436285981926
 30
0.0
 40
3.109549683257918
  1
1 : 1
  7
CHINESET
 72
     1
 11
2111.986000884292
 21
1280.991060823555
 31
0.0
100
AcDbText
 73
     2
  0
LINE
  5
2240
330
1F
100
AcDbEntity
  8
LOGO
 62
     4
100
AcDbLine
 10
2101.842433241599
 20
1265.443312407266
 30
0.0
 11
2101.842433241599
 21
1284.100610506813
 31
0.0
  0
CIRCLE
  5
2241
330
1F
100
AcDbEntity
  8
LOGO
  6
Continuous
100
AcDbCircle
 10
2107.600153416477
 20
1274.778612806567
 30
0.0
 40
1.805477736648581
  0
CIRCLE
  5
2242
330
1F
100
AcDbEntity
  8
LOGO
  6
Continuous
100
AcDbCircle
 10
2107.600153416477
 20
1274.778612806567
 30
0.0
 40
1.057850123775003
  0
LINE
  5
2243
330
1F
100
AcDbEntity
  8
LOGO
100
AcDbLine
 10
2118.945985012354
 20
1272.973135069918
 30
0.0
 11
2118.945985012354
 21
1276.584090543216
 31
0.0
  0
LINE
  5
2244
330
1F
100
AcDbEntity
  8
LOGO
100
AcDbLine
 10
2113.285915947328
 20
1273.720762682792
 30
0.0
 11
2113.285915947328
 21
1275.836462930342
 31
0.0
  0
LINE
  5
2245
330
1F
100
AcDbEntity
  8
LOGO
  6
Continuous
100
AcDbLine
 10
2113.285915947328
 20
1275.836462930342
 30
0.0
 11
2118.945985012354
 21
1276.584090543216
 31
0.0
  0
LINE
  5
2246
330
1F
100
AcDbEntity
  8
LOGO
  6
Continuous
100
AcDbLine
 10
2113.285915947328
 20
1273.720762682792
 30
0.0
 11
2118.945985012354
 21
1272.973135069918
 31
0.0
  0
TEXT
  5
2247
330
1F
100
AcDbEntity
  8
LOGO
100
AcDbText
 10
2079.530026072401
 20
1279.437816272125
 30
203.7947635568774
 40
3.109549683257918
  1
比例 Scale:
 41
0.9
  7
CHINESET
 72
     4
 11
2089.404234508567
 21
1280.991060823555
 31
203.7947635568774
100
AcDbText
  0
TEXT
  5
2248
330
1F
100
AcDbEntity
  8
LOGO
100
AcDbText
 10
2079.350949327249
 20
1273.260927410249
 30
203.7947635568774
 40
3.109549683257918
  1
投影  View:
 41
0.9
  7
CHINESET
 72
     4
 11
2089.404234508567
 21
1274.771961457039
 31
203.7947635568774
100
AcDbText
  0
TEXT
  5
2249
330
1F
100
AcDbEntity
  8
LOGO
100
AcDbText
 10
2079.65496333646
 20
1266.998087248894
 30
203.7947635568774
 40
3.109549683257918
  1
單位  Unit:
 41
0.9
  7
CHINESET
 72
     4
 11
2089.404234508567
 21
1268.552862090523
 31
203.7947635568774
100
AcDbText
  0
SOLID
  5
224A
330
1F
100
AcDbEntity
  8
LOGO
 62
     5
100
AcDbTrace
 10
2057.388879132501
 20
1270.612496146138
 30
0.0
 11
2058.733366820958
 21
1270.612496146138
 31
0.0
 12
2064.343125796934
 22
1283.361948364265
 32
0.0
 13
2065.687613485391
 23
1283.361948364265
 33
0.0
  0
SOLID
  5
224B
330
1F
100
AcDbEntity
  8
LOGO
 62
     5
100
AcDbTrace
 10
2059.289706554114
 20
1270.612496146138
 30
0.0
 11
2060.634194242571
 21
1270.612496146138
 31
0.0
 12
2065.687613485391
 22
1282.341992186815
 32
0.0
 13
2064.343125796934
 23
1277.412203995806
 33
0.0
  0
SOLID
  5
224C
330
1F
100
AcDbEntity
  8
LOGO
 62
     2
100
AcDbTrace
 10
2058.733366820958
 20
1270.612496146138
 30
0.0
 11
2059.289706554114
 21
1270.612496146138
 31
0.0
 12
2065.687613485391
 22
1283.361948364265
 32
0.0
 13
2066.243953218547
 23
1283.361948364265
 33
0.0
  0
SOLID
  5
224D
330
1F
100
AcDbEntity
  8
LOGO
 62
     5
100
AcDbTrace
 10
2055.233335659136
 20
1265.976331703183
 30
0.0
 11
2055.696952103433
 21
1265.976331703183
 31
0.0
 12
2057.002532095589
 22
1268.29441392466
 32
0.0
 13
2057.466148539883
 23
1268.29441392466
 33
0.0
  0
SOLID
  5
224E
330
1F
100
AcDbEntity
  8
LOGO
 62
     5
100
AcDbTrace
 10
2057.002532095589
 20
1268.29441392466
 30
0.0
 11
2057.466148539883
 21
1268.29441392466
 31
0.0
 12
2057.002532095589
 22
1265.976331703183
 32
0.0
 13
2057.466148539883
 23
1265.976331703183
 33
0.0
  0
SOLID
  5
224F
330
1F
100
AcDbEntity
  8
LOGO
 62
     5
100
AcDbTrace
 10
2057.002532095589
 20
1265.976331703183
 30
0.0
 11
2057.466148539883
 21
1265.976331703183
 31
0.0
 12
2058.771728532041
 22
1268.29441392466
 32
0.0
 13
2059.235344976337
 23
1268.29441392466
 33
0.0
  0
SOLID
  5
2250
330
1F
100
AcDbEntity
  8
LOGO
 62
     5
100
AcDbTrace
 10
2058.771728532041
 20
1268.29441392466
 30
0.0
 11
2059.235344976337
 21
1268.29441392466
 31
0.0
 12
2058.771728532041
 22
1265.976331703183
 32
0.0
 13
2059.235344976337
 23
1265.976331703183
 33
0.0
  0
POLYLINE
  5
2251
330
1F
100
AcDbEntity
  8
LOGO
 62
     5
100
AcDb2dPolyline
 66
     1
 10
0.0
 20
0.0
 30
0.0
 40
0.4643594193665157
 41
0.4643594193665157
  0
VERTEX
  5
2252
330
2251
100
AcDbEntity
  8
LOGO
 62
     5
100
AcDbVertex
100
AcDb2dVertex
 10
2074.311993811895
 20
1267.367181036069
 30
0.0
 42
1.0
  0
VERTEX
  5
2253
330
2251
100
AcDbEntity
  8
LOGO
 62
     5
100
AcDbVertex
100
AcDb2dVertex
 10
2072.918915553795
 20
1267.367181036069
 30
0.0
 42
1.0
  0
SEQEND
  5
2254
330
2251
100
AcDbEntity
  8
LOGO
 62
     5
  0
POLYLINE
  5
2255
330
1F
100
AcDbEntity
  8
LOGO
 62
     5
100
AcDb2dPolyline
 66
     1
 10
0.0
 20
0.0
 30
0.0
 70
     1
  0
VERTEX
  5
2256
330
2255
100
AcDbEntity
  8
LOGO
 62
     5
100
AcDbVertex
100
AcDb2dVertex
 10
2070.292901073156
 20
1267.135372813921
 30
0.0
 42
1.000000057330635
  0
VERTEX
  5
2257
330
2255
100
AcDbEntity
  8
LOGO
 62
     5
100
AcDbVertex
100
AcDb2dVertex
 10
2071.683750406043
 20
1267.135372813921
 30
0.0
 42
1.000000057330635
  0
SEQEND
  5
2258
330
2255
100
AcDbEntity
  8
LOGO
 62
     5
  0
CIRCLE
  5
2259
330
1F
100
AcDbEntity
  8
LOGO
 62
     5
100
AcDbCircle
 10
2070.9883257396
 20
1267.135372813921
 30
0.0
 40
0.6954246664432942
  0
POLYLINE
  5
225A
330
1F
100
AcDbEntity
  8
LOGO
 62
     5
100
AcDb2dPolyline
 66
     1
 10
0.0
 20
0.0
 30
0.0
 70
     1
 40
0.4643594193665157
 41
0.4643594193665157
  0
VERTEX
  5
225B
330
225A
100
AcDbEntity
  8
LOGO
 62
     5
100
AcDbVertex
100
AcDb2dVertex
 10
2070.059606900867
 20
1267.135372813921
 30
0.0
 42
1.0
  0
VERTEX
  5
225C
330
225A
100
AcDbEntity
  8
LOGO
 62
     5
100
AcDbVertex
100
AcDb2dVertex
 10
2071.917044578333
 20
1267.135372813921
 30
0.0
 42
1.0
  0
SEQEND
  5
225D
330
225A
100
AcDbEntity
  8
LOGO
 62
     5
  0
LINE
  5
225E
330
1F
100
AcDbEntity
  8
LOGO
100
AcDbLine
 10
2074.542687571436
 20
1265.976331703183
 30
0.0
 11
2074.542687571436
 21
1267.367181036069
 31
0.0
  0
SOLID
  5
225F
330
1F
100
AcDbEntity
  8
LOGO
 62
     5
100
AcDbTrace
 10
2071.683704044401
 20
1268.29441392466
 30
0.0
 11
2072.147320488695
 21
1268.29441392466
 31
0.0
 12
2071.683704044401
 22
1265.976331703183
 32
0.0
 13
2072.147320488695
 23
1265.976331703183
 33
0.0
  0
SOLID
  5
2260
330
1F
100
AcDbEntity
  8
LOGO
 62
     5
100
AcDbTrace
 10
2072.688221794254
 20
1265.976331703183
 30
0.0
 11
2073.15183823855
 21
1265.976331703183
 31
0.0
 12
2072.688221794254
 22
1268.29441392466
 32
0.0
 13
2073.15183823855
 23
1268.29441392466
 33
0.0
  0
SOLID
  5
2261
330
1F
100
AcDbEntity
  8
LOGO
 62
     5
100
AcDbTrace
 10
2074.079071127141
 20
1267.367181036069
 30
0.0
 11
2074.542687571436
 21
1267.367181036069
 31
0.0
 12
2074.079071127141
 22
1265.976331703183
 32
0.0
 13
2074.542687571436
 23
1265.976331703183
 33
0.0
  0
SOLID
  5
2262
330
1F
100
AcDbEntity
  8
LOGO
 62
     5
100
AcDbTrace
 10
2072.641860149825
 20
1282.341992186815
 30
0.0
 11
2071.297372461367
 21
1277.412203995806
 31
0.0
 12
2072.641860149825
 22
1270.612496146138
 32
0.0
 13
2071.297372461367
 23
1270.612496146138
 33
0.0
  0
SOLID
  5
2263
330
1F
100
AcDbEntity
  8
LOGO
 62
     5
100
AcDbTrace
 10
2073.19819988298
 20
1270.612496146138
 30
0.0
 11
2074.542687571436
 21
1270.612496146138
 31
0.0
 12
2073.19819988298
 22
1283.361948364265
 32
0.0
 13
2074.542687571436
 23
1283.361948364265
 33
0.0
  0
SOLID
  5
2264
330
1F
100
AcDbEntity
  8
LOGO
 62
     2
100
AcDbTrace
 10
2072.641860149825
 20
1283.361948364265
 30
0.0
 11
2073.19819988298
 21
1283.361948364265
 31
0.0
 12
2072.641860149825
 22
1270.612496146138
 32
0.0
 13
2073.19819988298
 23
1270.612496146138
 33
0.0
  0
POLYLINE
  5
2265
330
1F
100
AcDbEntity
  8
LOGO
 62
     5
100
AcDb2dPolyline
 66
     1
 10
0.0
 20
0.0
 30
0.0
 40
0.4643594193665157
 41
0.4643594193665157
  0
VERTEX
  5
2266
330
2265
100
AcDbEntity
  8
LOGO
 62
     5
100
AcDbVertex
100
AcDb2dVertex
 10
2067.66679386923
 20
1267.367181036069
 30
0.0
 42
1.0
  0
VERTEX
  5
2267
330
2265
100
AcDbEntity
  8
LOGO
 62
     5
100
AcDbVertex
100
AcDb2dVertex
 10
2066.27371561113
 20
1267.367181036069
 30
0.0
 42
1.0
  0
SEQEND
  5
2268
330
2265
100
AcDbEntity
  8
LOGO
 62
     5
  0
POLYLINE
  5
2269
330
1F
100
AcDbEntity
  8
LOGO
 62
     5
100
AcDb2dPolyline
 66
     1
 10
0.0
 20
0.0
 30
0.0
 40
0.4643594193665157
 41
0.4643594193665157
  0
VERTEX
  5
226A
330
2269
100
AcDbEntity
  8
LOGO
 62
     5
100
AcDbVertex
100
AcDb2dVertex
 10
2069.057643202115
 20
1267.367181036069
 30
0.0
 42
1.0
  0
VERTEX
  5
226B
330
2269
100
AcDbEntity
  8
LOGO
 62
     5
100
AcDbVertex
100
AcDb2dVertex
 10
2067.664564944016
 20
1267.367181036069
 30
0.0
 42
1.0
  0
SEQEND
  5
226C
330
2269
100
AcDbEntity
  8
LOGO
 62
     5
  0
POLYLINE
  5
226D
330
1F
100
AcDbEntity
  8
LOGO
 62
     5
100
AcDb2dPolyline
 66
     1
 10
0.0
 20
0.0
 30
0.0
 40
0.4643594193665157
 41
0.4643594193665157
  0
VERTEX
  5
226E
330
226D
100
AcDbEntity
  8
LOGO
 62
     5
100
AcDbVertex
100
AcDb2dVertex
 10
2062.41244325945
 20
1267.367181036069
 30
0.0
 42
1.0
  0
VERTEX
  5
226F
330
226D
100
AcDbEntity
  8
LOGO
 62
     5
100
AcDbVertex
100
AcDb2dVertex
 10
2061.019365001351
 20
1267.367181036069
 30
0.0
 42
1.0
  0
SEQEND
  5
2270
330
226D
100
AcDbEntity
  8
LOGO
 62
     5
  0
SOLID
  5
2271
330
1F
100
AcDbEntity
  8
LOGO
 62
     5
100
AcDbTrace
 10
2060.788671241809
 20
1268.29441392466
 30
0.0
 11
2061.252287686104
 21
1268.29441392466
 31
0.0
 12
2060.788671241809
 22
1265.976331703183
 32
0.0
 13
2061.252287686104
 23
1265.976331703183
 33
0.0
  0
SOLID
  5
2272
330
1F
100
AcDbEntity
  8
LOGO
 62
     5
100
AcDbTrace
 10
2062.179520574696
 20
1267.367181036069
 30
0.0
 11
2062.643137018992
 21
1267.367181036069
 31
0.0
 12
2062.179520574696
 22
1265.976331703183
 32
0.0
 13
2062.643137018992
 23
1265.976331703183
 33
0.0
  0
POLYLINE
  5
2273
330
1F
100
AcDbEntity
  8
LOGO
 62
     5
100
AcDb2dPolyline
 66
     1
 10
0.0
 20
0.0
 30
0.0
 70
     1
 40
0.4643594193665157
 41
0.4643594193665157
  0
VERTEX
  5
2274
330
2273
100
AcDbEntity
  8
LOGO
 62
     5
100
AcDbVertex
100
AcDb2dVertex
 10
2063.414406958201
 20
1267.135372813921
 30
0.0
 42
1.0
  0
VERTEX
  5
2275
330
2273
100
AcDbEntity
  8
LOGO
 62
     5
100
AcDbVertex
100
AcDb2dVertex
 10
2065.271844635668
 20
1267.135372813921
 30
0.0
 42
1.0
  0
SEQEND
  5
2276
330
2273
100
AcDbEntity
  8
LOGO
 62
     5
  0
SOLID
  5
2277
330
1F
100
AcDbEntity
  8
LOGO
 62
     5
100
AcDbTrace
 10
2065.038504101734
 20
1268.989838591104
 30
0.0
 11
2065.502120546029
 21
1268.989838591104
 31
0.0
 12
2065.038504101734
 22
1265.976331703183
 32
0.0
 13
2065.502120546029
 23
1265.976331703183
 33
0.0
  0
SOLID
  5
2278
330
1F
100
AcDbEntity
  8
LOGO
 62
     5
100
AcDbTrace
 10
2066.04302185159
 20
1268.29441392466
 30
0.0
 11
2066.506638295884
 21
1268.29441392466
 31
0.0
 12
2066.04302185159
 22
1265.976331703183
 32
0.0
 13
2066.506638295884
 23
1265.976331703183
 33
0.0
  0
SOLID
  5
2279
330
1F
100
AcDbEntity
  8
LOGO
 62
     5
100
AcDbTrace
 10
2067.433871184475
 20
1267.367181036069
 30
0.0
 11
2067.897487628771
 21
1267.367181036069
 31
0.0
 12
2067.433871184475
 22
1265.976331703183
 32
0.0
 13
2067.897487628771
 23
1265.976331703183
 33
0.0
  0
SOLID
  5
227A
330
1F
100
AcDbEntity
  8
LOGO
 62
     5
100
AcDbTrace
 10
2068.824720517362
 20
1267.367181036069
 30
0.0
 11
2069.288336961657
 21
1267.367181036069
 31
0.0
 12
2068.824720517362
 22
1265.976331703182
 32
0.0
 13
2069.288336961657
 23
1265.976331703182
 33
0.0
  0
SOLID
  5
227B
330
1F
100
AcDbEntity
  8
LOGO
 62
     5
100
AcDbTrace
 10
2059.784153491955
 20
1268.618945435667
 30
0.0
 11
2060.247769936251
 21
1268.618945435667
 31
0.0
 12
2059.784153491955
 22
1268.989838591104
 32
0.0
 13
2060.247769936251
 23
1268.989838591104
 33
0.0
  0
SOLID
  5
227C
330
1F
100
AcDbEntity
  8
LOGO
 62
     5
100
AcDbTrace
 10
2059.784153491955
 20
1268.29441392466
 30
0.0
 11
2060.247769936251
 21
1268.29441392466
 31
0.0
 12
2059.784153491955
 22
1265.976331703182
 32
0.0
 13
2060.247769936251
 23
1265.976331703183
 33
0.0
  0
SOLID
  5
227D
330
1F
100
AcDbEntity
  8
LOGO
 62
     5
100
AcDbTrace
 10
2064.343125796934
 20
1270.612496146138
 30
0.0
 11
2065.687613485391
 21
1270.612496146138
 31
0.0
 12
2064.343125796934
 22
1277.412203995806
 32
0.0
 13
2065.687613485391
 23
1282.341992186815
 33
0.0
  0
SOLID
  5
227E
330
1F
100
AcDbEntity
  8
LOGO
 62
     5
100
AcDbTrace
 10
2066.243953218547
 20
1283.361948364265
 30
0.0
 11
2067.588440907003
 21
1283.361948364265
 31
0.0
 12
2066.243953218547
 22
1271.632452323588
 32
0.0
 13
2067.588440907003
 23
1276.562240514597
 33
0.0
  0
SOLID
  5
227F
330
1F
100
AcDbEntity
  8
LOGO
 62
     2
100
AcDbTrace
 10
2065.687613485391
 20
1283.361948364265
 30
0.0
 11
2066.243953218547
 21
1283.361948364265
 31
0.0
 12
2065.687613485391
 22
1270.612496146138
 32
0.0
 13
2066.243953218547
 23
1270.612496146138
 33
0.0
  0
SOLID
  5
2280
330
1F
100
AcDbEntity
  8
LOGO
 62
     5
100
AcDbTrace
 10
2066.243953218547
 20
1271.632452323588
 30
0.0
 11
2067.588440907003
 21
1276.562240514597
 31
0.0
 12
2072.641860149825
 22
1283.361948364265
 32
0.0
 13
2071.297372461367
 23
1283.361948364265
 33
0.0
  0
SOLID
  5
2281
330
1F
100
AcDbEntity
  8
LOGO
 62
     5
100
AcDbTrace
 10
2066.243953218547
 20
1270.612496146138
 30
0.0
 11
2067.588440907003
 21
1270.612496146138
 31
0.0
 12
2072.641860149825
 22
1282.341992186815
 32
0.0
 13
2071.297372461367
 23
1277.412203995806
 33
0.0
  0
SOLID
  5
2282
330
1F
100
AcDbEntity
  8
LOGO
 62
     2
100
AcDbTrace
 10
2065.687613485391
 20
1270.612496146138
 30
0.0
 11
2066.243953218547
 21
1270.612496146138
 31
0.0
 12
2072.641860149825
 22
1283.361948364265
 32
0.0
 13
2073.19819988298
 23
1283.361948364265
 33
0.0
  0
TEXT
  5
2285
330
1F
100
AcDbEntity
  8
LOGO
100
AcDbText
 10
2123.598860641027
 20
1254.659381832532
 30
0.0
 40
3.109999999999999
  1
20809032
 41
0.7
  7
CHINESET
 72
     1
 11
2131.58119397436
 21
1254.659381832532
 31
0.0
100
AcDbText
  0
LINE
  5
2286
330
1F
100
AcDbEntity
  8
LOGO
 62
     4
100
AcDbLine
 10
2141.232764463318
 20
1259.22421304075
 30
0.0
 11
2141.232764463319
 21
1253.005113674234
 31
0.0
  0
LINE
  5
2287
330
1F
100
AcDbEntity
  8
LOGO
 62
     4
100
AcDbLine
 10
2141.232764463318
 20
1259.22421304075
 30
0.0
 11
2122.572764463319
 21
1259.22421304075
 31
0.0
  0
LINE
  5
2288
330
1F
100
AcDbEntity
  8
LOGO
  6
AM_ISO08W050x2
 48
0.3
100
AcDbLine
 10
2105.111275321607
 20
1274.778612806567
 30
0.0
 11
2110.089031511348
 21
1274.778612806567
 31
0.0
1001
GENIUS_GENOREF_13
1005
228D
  0
LINE
  5
2289
330
1F
100
AcDbEntity
  8
LOGO
  6
AM_ISO08W050x2
 48
0.3
100
AcDbLine
 10
2107.600153416477
 20
1272.289734711697
 30
0.0
 11
2107.600153416477
 21
1277.267490901437
 31
0.0
1001
GENIUS_GENOREF_13
1005
228C
  0
LINE
  5
228A
330
1F
100
AcDbEntity
  8
LOGO
  6
CENTER
 48
0.5
100
AcDbLine
 10
2112.83326774301
 20
1274.778612806567
 30
0.0
 11
2119.515935644614
 21
1274.778612806567
 31
0.0
1001
GENIUS_GENOREF_13
1005
228B
  0
POINT
  5
228B
330
1F
100
AcDbEntity
  8
0
 60
     1
100
AcDbPoint
 10
10.27150177982912
 20
363.2552381304448
 30
0.0
1001
GENIUS_GENOBJ-N-CRS_13
1002
{
1000
OWNER
1000
GEN
1002
}
1001
GENIUS_GENOLIS_13
1002
{
1000
ENT
1005
0
1005
0
1005
0
1005
228A
1002
}
1001
GENIUS_GENOENT_13
1002
{
1000
MYREF
1005
228B
1002
}
1002
{
1000
GRP
1005
0
1002
}
1001
GENIUS_GENODEF_13
1002
{
1000
HIER
1070
    10
1002
}
1002
{
1000
MANEDIT
1070
     1
1002
}
1002
{
1000
NOSEL
1070
     0
1002
}
1002
{
1000
BEHIND
1070
     0
1002
}
1002
{
1000
OTHER
1070
     0
1002
}
1002
{
1000
REACTOR
1002
}
  0
POINT
  5
228C
330
1F
100
AcDbEntity
  8
0
 60
     1
100
AcDbPoint
 10
-1.05308344302557
 20
372.130824609081
 30
0.0
1001
GENIUS_GENOBJ-N-CRS_13
1002
{
1000
OWNER
1000
GEN
1002
}
1001
GENIUS_GENOLIS_13
1002
{
1000
ENT
1005
0
1005
0
1005
0
1005
2289
1002
}
1001
GENIUS_GENOENT_13
1002
{
1000
MYREF
1005
228C
1002
}
1002
{
1000
GRP
1005
0
1002
}
1001
GENIUS_GENODEF_13
1002
{
1000
HIER
1070
    10
1002
}
1002
{
1000
MANEDIT
1070
     1
1002
}
1002
{
1000
NOSEL
1070
     0
1002
}
1002
{
1000
BEHIND
1070
     0
1002
}
1002
{
1000
OTHER
1070
     0
1002
}
1002
{
1000
REACTOR
1002
}
  0
POINT
  5
228D
330
1F
100
AcDbEntity
  8
0
 60
     1
100
AcDbPoint
 10
5.305590254811249
 20
363.2552381304448
 30
0.0
1001
GENIUS_GENOBJ-N-CRS_13
1002
{
1000
OWNER
1000
GEN
1002
}
1001
GENIUS_GENOLIS_13
1002
{
1000
ENT
1005
0
1005
0
1005
0
1005
2288
1002
}
1001
GENIUS_GENOENT_13
1002
{
1000
MYREF
1005
228D
1002
}
1002
{
1000
GRP
1005
0
1002
}
1001
GENIUS_GENODEF_13
1002
{
1000
HIER
1070
    10
1002
}
1002
{
1000
MANEDIT
1070
     1
1002
}
1002
{
1000
NOSEL
1070
     0
1002
}
1002
{
1000
BEHIND
1070
     0
1002
}
1002
{
1000
OTHER
1070
     0
1002
}
1002
{
1000
REACTOR
1002
}
  0
DIMENSION
  5
235C
102
{ACAD_XDICTIONARY
360
2369
102
}
102
{ACAD_REACTORS
330
236A
102
}
330
1F
100
AcDbEntity
  8
AM_5
100
AcDbDimension
  2
*D11
 10
2191.275371165054
 20
1294.44967246908
 30
0.0
 11
2180.775371165054
 21
1296.94996774467
 31
0.0
 70
    32
 71
     5
 42
21.0
  3
AM_ISO$0
100
AcDbAlignedDimension
 13
2170.275371165054
 23
1307.212485671414
 33
0.0
 14
2191.275371165054
 24
1321.44967346908
 34
0.0
 50
0.0000000000001132
100
AcDbRotatedDimension
1001
ACAD
1000
DSTYLE
1002
{
1070
   174
1070
     1
1070
   272
1070
     8
1002
}
  0
DIMENSION
  5
2386
102
{ACAD_XDICTIONARY
360
2393
102
}
102
{ACAD_REACTORS
330
2394
102
}
330
1F
100
AcDbEntity
  8
AM_5
100
AcDbDimension
  2
*D12
 10
2212.275371165054
 20
1294.59967246908
 30
0.0
 11
2201.775371165054
 21
1297.099967744671
 31
0.0
 70
    32
 71
     5
 42
21.0
  3
AM_ISO$0
100
AcDbAlignedDimension
 13
2191.275371165054
 23
1321.44967346908
 33
0.0
 14
2212.275371165054
 24
1306.94967346908
 34
0.0
100
AcDbRotatedDimension
1001
ACAD
1000
DSTYLE
1002
{
1070
   174
1070
     1
1070
    40
1040
1.0
1070
   144
1040
1.0
1070
   272
1070
     8
1002
}
  0
DIMENSION
  5
23B1
102
{ACAD_XDICTIONARY
360
23BE
102
}
102
{ACAD_REACTORS
330
23BF
102
}
330
1F
100
AcDbEntity
  8
AM_5
100
AcDbDimension
  2
*D13
 10
2233.275371165054
 20
1321.44967346908
 30
0.0
 11
2230.775371165053
 21
1315.94967346908
 31
0.0
 70
    32
 71
     5
 42
11.0
  3
AM_ISO$0
100
AcDbAlignedDimension
 13
2215.775371165054
 23
1310.44967346908
 33
0.0
 14
2221.275371165054
 24
1321.44967346908
 34
0.0
 50
90.00000000000003
100
AcDbRotatedDimension
1001
ACAD
1000
DSTYLE
1002
{
1070
   174
1070
     1
1070
   272
1070
     8
1002
}
  0
DIMENSION
  5
23DB
102
{ACAD_XDICTIONARY
360
23E8
102
}
102
{ACAD_REACTORS
330
23E9
102
}
330
1F
100
AcDbEntity
  8
AM_5
100
AcDbDimension
  2
*D14
 10
2233.275371165054
 20
1332.44967346908
 30
0.0
 11
2230.775371165053
 21
1326.94967346908
 31
0.0
 70
    32
 71
     5
 42
11.0
  3
AM_ISO$0
100
AcDbAlignedDimension
 13
2221.275371165054
 23
1321.44967346908
 33
0.0
 14
2215.775371165054
 24
1332.44967346908
 34
0.0
 50
90.0
100
AcDbRotatedDimension
1001
ACAD
1000
DSTYLE
1002
{
1070
   174
1070
     1
1070
    40
1040
1.0
1070
   144
1040
1.0
1070
   272
1070
     8
1002
}
  0
DIMENSION
  5
2486
102
{ACAD_XDICTIONARY
360
2493
102
}
102
{ACAD_REACTORS
330
2494
102
}
330
1F
100
AcDbEntity
  8
AM_5
100
AcDbDimension
  2
*D17
 10
2191.275371165054
 20
1539.072507952017
 30
0.0
 11
2180.775371165054
 21
1541.572803227608
 31
0.0
 70
    32
 71
     5
 42
21.0
  3
AM_ISO$0
100
AcDbAlignedDimension
 13
2170.275371165054
 23
1551.072507952017
 33
0.0
 14
2191.275371165054
 24
1565.572507952017
 34
0.0
 50
0.0000000000001132
100
AcDbRotatedDimension
1001
ACAD
1000
DSTYLE
1002
{
1070
   174
1070
     1
1070
   272
1070
     8
1002
}
  0
DIMENSION
  5
24B0
102
{ACAD_XDICTIONARY
360
24BD
102
}
102
{ACAD_REACTORS
330
24BE
102
}
330
1F
100
AcDbEntity
  8
AM_5
100
AcDbDimension
  2
*D18
 10
2212.275371165054
 20
1539.072507952017
 30
0.0
 11
2201.775371165054
 21
1541.572803227608
 31
0.0
 70
    32
 71
     5
 42
21.0
  3
AM_ISO$0
100
AcDbAlignedDimension
 13
2191.275371165054
 23
1565.572507952017
 33
0.0
 14
2212.275371165054
 24
1551.072507952017
 34
0.0
100
AcDbRotatedDimension
1001
ACAD
1000
DSTYLE
1002
{
1070
   174
1070
     1
1070
    40
1040
1.0
1070
   144
1040
1.0
1070
   272
1070
     8
1002
}
  0
DIMENSION
  5
24DA
102
{ACAD_XDICTIONARY
360
24E7
102
}
102
{ACAD_REACTORS
330
24E8
102
}
330
1F
100
AcDbEntity
  8
AM_5
100
AcDbDimension
  2
*D19
 10
2230.132011459208
 20
1565.572507952017
 30
0.0
 11
2227.632011459207
 21
1560.072507952018
 31
0.0
 70
    32
 71
     5
 42
11.0
  3
AM_ISO$0
100
AcDbAlignedDimension
 13
2215.775371165054
 23
1554.572507952017
 33
0.0
 14
2221.275371165054
 24
1565.572507952017
 34
0.0
 50
90.00000000000003
100
AcDbRotatedDimension
1001
ACAD
1000
DSTYLE
1002
{
1070
   174
1070
     1
1070
   272
1070
     8
1002
}
  0
DIMENSION
  5
2504
102
{ACAD_XDICTIONARY
360
2511
102
}
102
{ACAD_REACTORS
330
2512
102
}
330
1F
100
AcDbEntity
  8
AM_5
100
AcDbDimension
  2
*D20
 10
2230.132011459208
 20
1576.572507952017
 30
0.0
 11
2227.632011459207
 21
1571.072507952018
 31
0.0
 70
    32
 71
     5
 42
11.0
  3
AM_ISO$0
100
AcDbAlignedDimension
 13
2221.275371165054
 23
1565.572507952017
 33
0.0
 14
2215.775371165054
 24
1576.572507952017
 34
0.0
 50
90.0
100
AcDbRotatedDimension
1001
ACAD
1000
DSTYLE
1002
{
1070
   174
1070
     1
1070
    40
1040
1.0
1070
   144
1040
1.0
1070
   272
1070
     8
1002
}
  0
ENDSEC
  0
SECTION
  2
OBJECTS
  0
DICTIONARY
  5
C
330
0
100
AcDbDictionary
281
     1
  3
ACAD_COLOR
350
BE
  3
ACAD_GROUP
350
D
  3
ACAD_LAYOUT
350
1A
  3
ACAD_MATERIAL
350
BD
  3
ACAD_MLINESTYLE
350
17
  3
ACAD_PLOTSETTINGS
350
19
  3
ACAD_PLOTSTYLENAME
350
E
  3
ACAD_TABLESTYLE
350
11A
  3
ACDBHEADERROUNDTRIPXREC
350
2550
  3
AcDbVariableDictionary
350
94
  3
AcmDictionary
350
5B
  3
AMG
350
41
  3
AMGSNAPSETTINGS
350
1B8
  3
DWGPROPS
350
254F
  0
DICTIONARY
  5
3F9
330
2
100
AcDbDictionary
280
     1
281
     1
  3
ACAD_LAYERFILTERS
360
5B7
  3
ACAD_LAYERSTATES
360
7CF
  3
ACLYDICTIONARY
360
5B6
  0
DICTIONARY
  5
8F
330
1F
100
AcDbDictionary
280
     1
281
     1
  0
DICTIONARY
  5
2369
330
235C
100
AcDbDictionary
280
     1
281
     1
  3
ACAD_DIMASSOC
360
236A
  0
DICTIONARY
  5
2393
330
2386
100
AcDbDictionary
280
     1
281
     1
  3
ACAD_DIMASSOC
360
2394
  0
DICTIONARY
  5
23BE
330
23B1
100
AcDbDictionary
280
     1
281
     1
  3
ACAD_DIMASSOC
360
23BF
  0
DICTIONARY
  5
23E8
330
23DB
100
AcDbDictionary
280
     1
281
     1
  3
ACAD_DIMASSOC
360
23E9
  0
DICTIONARY
  5
2493
330
2486
100
AcDbDictionary
280
     1
281
     1
  3
ACAD_DIMASSOC
360
2494
  0
DICTIONARY
  5
24BD
330
24B0
100
AcDbDictionary
280
     1
281
     1
  3
ACAD_DIMASSOC
360
24BE
  0
DICTIONARY
  5
24E7
330
24DA
100
AcDbDictionary
280
     1
281
     1
  3
ACAD_DIMASSOC
360
24E8
  0
DICTIONARY
  5
2511
330
2504
100
AcDbDictionary
280
     1
281
     1
  3
ACAD_DIMASSOC
360
2512
  0
DICTIONARY
  5
BE
102
{ACAD_REACTORS
330
C
102
}
330
C
100
AcDbDictionary
281
     1
  0
DICTIONARY
  5
D
102
{ACAD_REACTORS
330
C
102
}
330
C
100
AcDbDictionary
281
     1
  0
DICTIONARY
  5
1A
102
{ACAD_REACTORS
330
C
102
}
330
C
100
AcDbDictionary
281
     1
  3
Model
350
22
  3
配置1
350
1E
  3
配置2
350
26
  0
DICTIONARY
  5
BD
102
{ACAD_REACTORS
330
C
102
}
330
C
100
AcDbDictionary
281
     1
  0
DICTIONARY
  5
17
102
{ACAD_REACTORS
330
C
102
}
330
C
100
AcDbDictionary
281
     1
  3
Standard
350
18
  0
DICTIONARY
  5
19
102
{ACAD_REACTORS
330
C
102
}
330
C
100
AcDbDictionary
281
     1
  0
ACDBDICTIONARYWDFLT
  5
E
102
{ACAD_REACTORS
330
C
102
}
330
C
100
AcDbDictionary
281
     1
  3
Normal
350
F
100
AcDbDictionaryWithDefault
340
F
  0
DICTIONARY
  5
11A
102
{ACAD_REACTORS
330
C
102
}
330
C
100
AcDbDictionary
281
     1
  3
Standard
350
11B
  0
DICTIONARY
  5
2550
102
{ACAD_REACTORS
330
C
102
}
330
C
100
AcDbDictionary
281
     1
  0
DICTIONARY
  5
94
102
{ACAD_REACTORS
330
C
102
}
330
C
100
AcDbDictionary
281
     1
  3
CTABLESTYLE
350
138
  3
DIMASSOC
350
96
  3
INDEXCTL
350
95
  3
PROJECTNAME
350
22D2
  0
DICTIONARY
  5
5B
102
{ACAD_REACTORS
330
C
102
}
330
C
100
AcDbDictionary
281
     1
  3
AcmBOM
350
1B5
  3
AcmStdDictionary
350
61
  3
AMDTSECTSYM_ARROWCOLOR
350
123
  0
DICTIONARY
  5
41
102
{ACAD_REACTORS
330
C
102
}
330
C
100
AcDbDictionary
281
     1
  0
DICTIONARY
  5
1B8
102
{ACAD_REACTORS
330
C
102
}
330
C
100
AcDbDictionary
281
     1
  0
XRECORD
  5
254F
102
{ACAD_REACTORS
330
C
102
}
330
C
100
AcDbXrecord
280
     1
  1
DWGPROPS COOKIE
  2

  3

  4

  6

  7

  8

  9

300
AmdtFileType=84
301
=
302
=
303
=
304
=
305
=
306
=
307
=
308
=
309
=
 40
0.3799281944444444
 41
2453595.458965741
 42
2454713.340478276
  1

 90
        1
  0
DICTIONARY
  5
5B7
102
{ACAD_REACTORS
330
3F9
102
}
330
3F9
100
AcDbDictionary
281
     1
  0
DICTIONARY
  5
7CF
102
{ACAD_REACTORS
330
3F9
102
}
330
3F9
100
AcDbDictionary
281
     1
  0
DICTIONARY
  5
5B6
102
{ACAD_REACTORS
330
3F9
102
}
330
3F9
100
AcDbDictionary
281
     1
1001
ACAD
1000
<All
  0
DIMASSOC
  5
236A
102
{ACAD_REACTORS
330
2369
102
}
330
2369
100
AcDbDimAssoc
330
235C
 90
        2
 70
     0
 71
     0
  1
AcDbOsnapPointRef
 72
     3
331
1E83
 73
     0
 91
        0
 40
0.0
 10
0.0
 20
0.0
 30
0.0
 75
     0
  0
DIMASSOC
  5
2394
102
{ACAD_REACTORS
330
2393
102
}
330
2393
100
AcDbDimAssoc
330
2386
 90
        3
 70
     0
 71
     0
  1
AcDbOsnapPointRef
 72
     3
331
1E83
 73
     0
 91
        0
 40
0.0
 10
0.0
 20
0.0
 30
0.0
 75
     0
  1
AcDbOsnapPointRef
 72
    13
331
1E7E
 73
     0
 91
        0
 40
0.0
 10
0.0
 20
0.0
 30
2.000000000000000E+50
 75
     0
  0
DIMASSOC
  5
23BF
102
{ACAD_REACTORS
330
23BE
102
}
330
23BE
100
AcDbDimAssoc
330
23B1
 90
        3
 70
     0
 71
     0
  1
AcDbOsnapPointRef
 72
     1
331
1E7D
 73
     0
 91
        0
 40
0.0
 10
0.0
 20
0.0
 30
2.000000000000000E+50
 75
     0
  1
AcDbOsnapPointRef
 72
     1
331
1E88
 73
     0
 91
        0
 40
0.0
 10
0.0
 20
0.0
 30
2.000000000000000E+50
 75
     0
  0
DIMASSOC
  5
23E9
102
{ACAD_REACTORS
330
23E8
102
}
330
23E8
100
AcDbDimAssoc
330
23DB
 90
        3
 70
     0
 71
     0
  1
AcDbOsnapPointRef
 72
     1
331
1E88
 73
     0
 91
        0
 40
0.0
 10
0.0
 20
0.0
 30
2.000000000000000E+50
 75
     0
  1
AcDbOsnapPointRef
 72
     1
331
1E81
 73
     0
 91
        0
 40
0.0
 10
0.0
 20
0.0
 30
2.000000000000000E+50
 75
     0
  0
DIMASSOC
  5
2494
102
{ACAD_REACTORS
330
2493
102
}
330
2493
100
AcDbDimAssoc
330
2486
 90
        3
 70
     0
 71
     0
  1
AcDbOsnapPointRef
 72
    13
331
1B8B
 73
     0
 91
        0
 40
0.0
 10
0.0
 20
0.0
 30
2.000000000000000E+50
 75
     0
  1
AcDbOsnapPointRef
 72
     3
331
1BA9
 73
     0
 91
        0
 40
0.0
 10
0.0
 20
0.0
 30
0.0
 75
     0
  0
DIMASSOC
  5
24BE
102
{ACAD_REACTORS
330
24BD
102
}
330
24BD
100
AcDbDimAssoc
330
24B0
 90
        3
 70
     0
 71
     0
  1
AcDbOsnapPointRef
 72
     3
331
1BA9
 73
     0
 91
        0
 40
0.0
 10
0.0
 20
0.0
 30
0.0
 75
     0
  1
AcDbOsnapPointRef
 72
    13
331
1B8F
 73
     0
 91
        0
 40
0.0
 10
0.0
 20
0.0
 30
2.000000000000000E+50
 75
     0
  0
DIMASSOC
  5
24E8
102
{ACAD_REACTORS
330
24E7
102
}
330
24E7
100
AcDbDimAssoc
330
24DA
 90
        3
 70
     0
 71
     0
  1
AcDbOsnapPointRef
 72
     1
331
1B8E
 73
     0
 91
        0
 40
0.0
 10
0.0
 20
0.0
 30
2.000000000000000E+50
 75
     0
  1
AcDbOsnapPointRef
 72
     1
331
1BC9
 73
     0
 91
        0
 40
0.0
 10
0.0
 20
0.0
 30
2.000000000000000E+50
 75
     0
  0
DIMASSOC
  5
2512
102
{ACAD_REACTORS
330
2511
102
}
330
2511
100
AcDbDimAssoc
330
2504
 90
        3
 70
     0
 71
     0
  1
AcDbOsnapPointRef
 72
     1
331
1BC9
 73
     0
 91
        0
 40
0.0
 10
0.0
 20
0.0
 30
2.000000000000000E+50
 75
     0
  1
AcDbOsnapPointRef
 72
     1
331
1B92
 73
     0
 91
        0
 40
0.0
 10
0.0
 20
0.0
 30
2.000000000000000E+50
 75
     0
  0
LAYOUT
  5
22
102
{ACAD_XDICTIONARY
360
2553
102
}
102
{ACAD_REACTORS
330
1A
102
}
330
1A
100
AcDbPlotSettings
  1

  2
\\RD\EPSON Stylus C63 Series單色
  4
A4
  6

 40
3.757083177566528
 41
3.757076978683471
 42
3.757080078125
 43
3.757080078125
 44
209.9733276367187
 45
296.9683227539062
 46
0.0
 47
0.0
 48
0.0
 49
0.0
140
0.0
141
0.0
142
1.0
143
0.3405120737814363
 70
 11952
 72
     1
 73
     0
 74
     0
  7
單色出圖.ctb
 75
     0
147
2.936753428137963
148
-2047.07469463503
149
-1261.649717473083
100
AcDbLayout
  1
Model
 70
     1
 71
     0
 10
0.0
 20
0.0
 11
12.0
 21
9.0
 12
0.0
 22
0.0
 32
0.0
 14
0.0
 24
0.0
 34
0.0
 15
0.0
 25
0.0
 35
0.0
146
0.0
 13
0.0
 23
0.0
 33
0.0
 16
1.0
 26
0.0
 36
0.0
 17
0.0
 27
1.0
 37
0.0
 76
     0
330
1F
1001
ACAD_PSEXT
1000
\\RD\EPSON Stylus C63 Series單色
1000
EPSON Stylus C63 Series
1000
\\RD
1000

1070
     0
  0
LAYOUT
  5
1E
102
{ACAD_XDICTIONARY
360
2551
102
}
102
{ACAD_REACTORS
330
1A
102
}
330
1A
100
AcDbPlotSettings
  1

  2

  4

  6

 40
0.0
 41
0.0
 42
0.0
 43
0.0
 44
0.0
 45
0.0
 46
0.0
 47
0.0
 48
0.0
 49
0.0
140
0.0
141
0.0
142
1.0
143
1.0
 70
   688
 72
     0
 73
     0
 74
     5
  7
單色出圖.ctb
 75
    16
147
1.0
148
0.0
149
0.0
100
AcDbLayout
  1
配置1
 70
     1
 71
     1
 10
0.0
 20
0.0
 11
420.0
 21
297.0
 12
0.0
 22
0.0
 32
0.0
 14
1.000000000000000E+20
 24
1.000000000000000E+20
 34
1.000000000000000E+20
 15
-1.000000000000000E+20
 25
-1.000000000000000E+20
 35
-1.000000000000000E+20
146
0.0
 13
0.0
 23
0.0
 33
0.0
 16
1.0
 26
0.0
 36
0.0
 17
0.0
 27
1.0
 37
0.0
 76
     0
330
1B
  0
LAYOUT
  5
26
102
{ACAD_XDICTIONARY
360
2555
102
}
102
{ACAD_REACTORS
330
1A
102
}
330
1A
100
AcDbPlotSettings
  1

  2

  4

  6

 40
0.0
 41
0.0
 42
0.0
 43
0.0
 44
0.0
 45
0.0
 46
0.0
 47
0.0
 48
0.0
 49
0.0
140
0.0
141
0.0
142
1.0
143
1.0
 70
   688
 72
     0
 73
     0
 74
     5
  7
單色出圖.ctb
 75
    16
147
1.0
148
0.0
149
0.0
100
AcDbLayout
  1
配置2
 70
     1
 71
     2
 10
0.0
 20
0.0
 11
12.0
 21
9.0
 12
0.0
 22
0.0
 32
0.0
 14
0.0
 24
0.0
 34
0.0
 15
0.0
 25
0.0
 35
0.0
146
0.0
 13
0.0
 23
0.0
 33
0.0
 16
1.0
 26
0.0
 36
0.0
 17
0.0
 27
1.0
 37
0.0
 76
     0
330
23
  0
MLINESTYLE
  5
18
102
{ACAD_REACTORS
330
17
102
}
330
17
100
AcDbMlineStyle
  2
STANDARD
 70
     0
  3

 62
   256
 51
90.0
 52
90.0
 71
     2
 49
0.5
 62
   256
  6
BYLAYER
 49
-0.5
 62
   256
  6
BYLAYER
  0
ACDBPLACEHOLDER
  5
F
102
{ACAD_REACTORS
330
E
102
}
330
E
  0
TABLESTYLE
  5
11B
102
{ACAD_REACTORS
330
11A
102
}
330
11A
100
AcDbTableStyle
  3
Standard
 70
     0
 71
     0
 40
1.5
 41
1.5
280
     0
281
     0
  7
STANDARD
140
4.5
170
     2
 62
     0
 63
     7
283
     0
274
    -2
284
     1
 64
     0
275
    -2
285
     1
 65
     0
276
    -2
286
     1
 66
     0
277
    -2
287
     1
 67
     0
278
    -2
288
     1
 68
     0
279
    -2
289
     1
 69
     0
  7
STANDARD
140
6.0
170
     5
 62
     0
 63
     7
283
     0
274
    -2
284
     1
 64
     0
275
    -2
285
     1
 65
     0
276
    -2
286
     1
 66
     0
277
    -2
287
     1
 67
     0
278
    -2
288
     1
 68
     0
279
    -2
289
     1
 69
     0
  7
STANDARD
140
4.5
170
     5
 62
     0
 63
     7
283
     0
274
    -2
284
     1
 64
     0
275
    -2
285
     1
 65
     0
276
    -2
286
     1
 66
     0
277
    -2
287
     1
 67
     0
278
    -2
288
     1
 68
     0
279
    -2
289
     1
 69
     0
  0
DICTIONARYVAR
  5
138
102
{ACAD_REACTORS
330
94
102
}
330
94
100
DictionaryVariables
280
     0
  1
STANDARD
  0
DICTIONARYVAR
  5
96
102
{ACAD_REACTORS
330
94
102
}
330
94
100
DictionaryVariables
280
     0
  1
2
  0
DICTIONARYVAR
  5
95
102
{ACAD_REACTORS
330
94
102
}
330
94
100
DictionaryVariables
280
     0
  1
0
  0
DICTIONARYVAR
  5
22D2
102
{ACAD_REACTORS
330
94
102
}
330
94
100
DictionaryVariables
280
     0
  1

  0
DICTIONARY
  5
1B5
102
{ACAD_REACTORS
330
5B
102
}
330
5B
100
AcDbDictionary
281
     1
  0
DICTIONARY
  5
61
102
{ACAD_REACTORS
330
5B
102
}
330
5B
100
AcDbDictionary
281
     1
  0
XRECORD
  5
123
102
{ACAD_REACTORS
330
5B
102
}
330
5B
100
AcDbXrecord
280
     1
 90
-1023410169
  0
DICTIONARY
  5
2553
330
22
100
AcDbDictionary
280
     1
281
     1
  3
ACAD_XREC_ROUNDTRIP
360
2554
  0
DICTIONARY
  5
2551
330
1E
100
AcDbDictionary
280
     1
281
     1
  3
ACAD_XREC_ROUNDTRIP
360
2552
  0
DICTIONARY
  5
2555
330
26
100
AcDbDictionary
280
     1
281
     1
  3
ACAD_XREC_ROUNDTRIP
360
2556
  0
XRECORD
  5
2554
102
{ACAD_REACTORS
330
2553
102
}
330
2553
100
AcDbXrecord
280
     1
102
SHADEPLOT
 70
     0
102
SHADEPLOTRESLEVEL
 70
     2
102
SHADEPLOTCUSTOMDPI
 70
   300
  0
XRECORD
  5
2552
102
{ACAD_REACTORS
330
2551
102
}
330
2551
100
AcDbXrecord
280
     1
102
SHADEPLOT
 70
     0
102
SHADEPLOTRESLEVEL
 70
     2
102
SHADEPLOTCUSTOMDPI
 70
   300
  0
XRECORD
  5
2556
102
{ACAD_REACTORS
330
2555
102
}
330
2555
100
AcDbXrecord
280
     1
102
SHADEPLOT
 70
     0
102
SHADEPLOTRESLEVEL
 70
     2
102
SHADEPLOTCUSTOMDPI
 70
   300
  0
ENDSEC
  0
EOF
