  0
SECTION
  2
HEADER
  9
$ACADVER
  1
AC1015
  9
$ACADMAINTVER
 70
    20
  9
$DWGCODEPAGE
  3
ANSI_950
  9
$INSBASE
 10
0.0
 20
0.0
 30
0.0
  9
$EXTMIN
 10
154.0766142260311
 20
97.45176668889895
 30
-0.0075236502538587
  9
$EXTMAX
 10
429.0941694397722
 20
297.4802770852761
 30
131.0637260309027
  9
$LIMMIN
 10
0.0
 20
0.0
  9
$LIMMAX
 10
420.0
 20
297.0
  9
$ORTHOMODE
 70
     1
  9
$REGENMODE
 70
     1
  9
$FILLMODE
 70
     1
  9
$QTEXTMODE
 70
     0
  9
$MIRRTEXT
 70
     1
  9
$LTSCALE
 40
1.0
  9
$ATTMODE
 70
     1
  9
$TEXTSIZE
 40
3.0
  9
$TRACEWID
 40
1.0
  9
$TEXTSTYLE
  7
STANDARD
  9
$CLAYER
  8
0
  9
$CELTYPE
  6
ByLayer
  9
$CECOLOR
 62
   256
  9
$CELTSCALE
 40
1.0
  9
$DISPSILH
 70
     0
  9
$DIMSCALE
 40
1.0
  9
$DIMASZ
 40
3.0
  9
$DIMEXO
 40
1.5
  9
$DIMDLI
 40
8.0
  9
$DIMRND
 40
0.0
  9
$DIMDLE
 40
0.0
  9
$DIMEXE
 40
1.5
  9
$DIMTP
 40
0.1
  9
$DIMTM
 40
0.1
  9
$DIMTXT
 40
3.5
  9
$DIMCEN
 40
0.0
  9
$DIMTSZ
 40
0.0
  9
$DIMTOL
 70
     0
  9
$DIMLIM
 70
     0
  9
$DIMTIH
 70
     0
  9
$DIMTOH
 70
     0
  9
$DIMSE1
 70
     0
  9
$DIMSE2
 70
     0
  9
$DIMTAD
 70
     1
  9
$DIMZIN
 70
     8
  9
$DIMBLK
  1

  9
$DIMASO
 70
     1
  9
$DIMSHO
 70
     1
  9
$DIMPOST
  1

  9
$DIMAPOST
  1
"
  9
$DIMALT
 70
     0
  9
$DIMALTD
 70
     2
  9
$DIMALTF
 40
0.0393701
  9
$DIMLFAC
 40
1.0
  9
$DIMTOFL
 70
     1
  9
$DIMTVP
 40
0.0
  9
$DIMTIX
 70
     0
  9
$DIMSOXD
 70
     0
  9
$DIMSAH
 70
     0
  9
$DIMBLK1
  1

  9
$DIMBLK2
  1

  9
$DIMSTYLE
  2
AM_ISO
  9
$DIMCLRD
 70
   256
  9
$DIMCLRE
 70
   256
  9
$DIMCLRT
 70
   256
  9
$DIMTFAC
 40
0.6
  9
$DIMGAP
 40
1.0
  9
$DIMJUST
 70
     0
  9
$DIMSD1
 70
     0
  9
$DIMSD2
 70
     0
  9
$DIMTOLJ
 70
     0
  9
$DIMTZIN
 70
     8
  9
$DIMALTZ
 70
     0
  9
$DIMALTTZ
 70
     0
  9
$DIMUPT
 70
     0
  9
$DIMDEC
 70
     2
  9
$DIMTDEC
 70
     8
  9
$DIMALTU
 70
     2
  9
$DIMALTTD
 70
     2
  9
$DIMTXSTY
  7
STANDARD
  9
$DIMAUNIT
 70
     0
  9
$DIMADEC
 70
     0
  9
$DIMALTRND
 40
0.0
  9
$DIMAZIN
 70
     2
  9
$DIMDSEP
 70
    46
  9
$DIMATFIT
 70
     3
  9
$DIMFRAC
 70
     0
  9
$DIMLDRBLK
  1

  9
$DIMLUNIT
 70
     2
  9
$DIMLWD
 70
    -1
  9
$DIMLWE
 70
    -1
  9
$DIMTMOVE
 70
     0
  9
$LUNITS
 70
     2
  9
$LUPREC
 70
     2
  9
$SKETCHINC
 40
1.0
  9
$FILLETRAD
 40
2.5
  9
$AUNITS
 70
     0
  9
$AUPREC
 70
     0
  9
$MENU
  1
.
  9
$ELEVATION
 40
0.0
  9
$PELEVATION
 40
0.0
  9
$THICKNESS
 40
0.0
  9
$LIMCHECK
 70
     0
  9
$CHAMFERA
 40
2.5
  9
$CHAMFERB
 40
2.5
  9
$CHAMFERC
 40
20.0
  9
$CHAMFERD
 40
0.0
  9
$SKPOLY
 70
     0
  9
$TDCREATE
 40
2454392.394766887
  9
$TDUCREATE
 40
2454392.061433553
  9
$TDUPDATE
 40
2454456.708456841
  9
$TDUUPDATE
 40
2454456.375123507
  9
$TDINDWG
 40
0.0134008102
  9
$TDUSRTIMER
 40
0.0134006250
  9
$USRTIMER
 70
     1
  9
$ANGBASE
 50
0.0
  9
$ANGDIR
 70
     0
  9
$PDMODE
 70
     0
  9
$PDSIZE
 40
0.0
  9
$PLINEWID
 40
0.0
  9
$SPLFRAME
 70
     0
  9
$SPLINETYPE
 70
     6
  9
$SPLINESEGS
 70
     8
  9
$HANDSEED
  5
18C2
  9
$SURFTAB1
 70
     6
  9
$SURFTAB2
 70
     6
  9
$SURFTYPE
 70
     6
  9
$SURFU
 70
     6
  9
$SURFV
 70
     6
  9
$UCSBASE
  2

  9
$UCSNAME
  2

  9
$UCSORG
 10
0.0
 20
0.0
 30
0.0
  9
$UCSXDIR
 10
1.0
 20
0.0
 30
0.0
  9
$UCSYDIR
 10
0.0
 20
1.0
 30
0.0
  9
$UCSORTHOREF
  2

  9
$UCSORTHOVIEW
 70
     0
  9
$UCSORGTOP
 10
0.0
 20
0.0
 30
0.0
  9
$UCSORGBOTTOM
 10
0.0
 20
0.0
 30
0.0
  9
$UCSORGLEFT
 10
0.0
 20
0.0
 30
0.0
  9
$UCSORGRIGHT
 10
0.0
 20
0.0
 30
0.0
  9
$UCSORGFRONT
 10
0.0
 20
0.0
 30
0.0
  9
$UCSORGBACK
 10
0.0
 20
0.0
 30
0.0
  9
$PUCSBASE
  2

  9
$PUCSNAME
  2

  9
$PUCSORG
 10
0.0
 20
0.0
 30
0.0
  9
$PUCSXDIR
 10
1.0
 20
0.0
 30
0.0
  9
$PUCSYDIR
 10
0.0
 20
1.0
 30
0.0
  9
$PUCSORTHOREF
  2

  9
$PUCSORTHOVIEW
 70
     0
  9
$PUCSORGTOP
 10
0.0
 20
0.0
 30
0.0
  9
$PUCSORGBOTTOM
 10
0.0
 20
0.0
 30
0.0
  9
$PUCSORGLEFT
 10
0.0
 20
0.0
 30
0.0
  9
$PUCSORGRIGHT
 10
0.0
 20
0.0
 30
0.0
  9
$PUCSORGFRONT
 10
0.0
 20
0.0
 30
0.0
  9
$PUCSORGBACK
 10
0.0
 20
0.0
 30
0.0
  9
$USERI1
 70
     0
  9
$USERI2
 70
     0
  9
$USERI3
 70
     0
  9
$USERI4
 70
     0
  9
$USERI5
 70
     0
  9
$USERR1
 40
0.0
  9
$USERR2
 40
0.0
  9
$USERR3
 40
0.0
  9
$USERR4
 40
0.0
  9
$USERR5
 40
0.0
  9
$WORLDVIEW
 70
     1
  9
$SHADEDGE
 70
     3
  9
$SHADEDIF
 70
    70
  9
$TILEMODE
 70
     1
  9
$MAXACTVP
 70
    64
  9
$PINSBASE
 10
0.0
 20
0.0
 30
0.0
  9
$PLIMCHECK
 70
     0
  9
$PEXTMIN
 10
1.000000000000000E+20
 20
1.000000000000000E+20
 30
1.000000000000000E+20
  9
$PEXTMAX
 10
-1.000000000000000E+20
 20
-1.000000000000000E+20
 30
-1.000000000000000E+20
  9
$PLIMMIN
 10
0.0
 20
0.0
  9
$PLIMMAX
 10
420.0
 20
297.0
  9
$UNITMODE
 70
     0
  9
$VISRETAIN
 70
     1
  9
$PLINEGEN
 70
     0
  9
$PSLTSCALE
 70
     1
  9
$TREEDEPTH
 70
  3020
  9
$CMLSTYLE
  2
Standard
  9
$CMLJUST
 70
     0
  9
$CMLSCALE
 40
20.0
  9
$PROXYGRAPHICS
 70
     1
  9
$MEASUREMENT
 70
     1
  9
$CELWEIGHT
370
    -1
  9
$ENDCAPS
280
     0
  9
$JOINSTYLE
280
     0
  9
$LWDISPLAY
290
     0
  9
$INSUNITS
 70
     4
  9
$HYPERLINKBASE
  1

  9
$STYLESHEET
  1
彩色出圖.ctb
  9
$XEDIT
290
     1
  9
$CEPSNTYPE
380
     0
  9
$PSTYLEMODE
290
     1
  9
$FINGERPRINTGUID
  2
{623B3622-13A0-4DF3-A857-303BD9A03CA8}
  9
$VERSIONGUID
  2
{4F6741B1-B4E0-4225-BECB-9E94BE2508C3}
  9
$EXTNAMES
290
     1
  9
$PSVPSCALE
 40
0.0
  9
$OLESTARTUP
290
     0
  0
ENDSEC
  0
SECTION
  2
CLASSES
  0
CLASS
  1
ACDBDICTIONARYWDFLT
  2
AcDbDictionaryWithDefault
  3
ObjectDBX Classes
 90
        0
280
     0
281
     0
  0
CLASS
  1
ACDBPLACEHOLDER
  2
AcDbPlaceHolder
  3
ObjectDBX Classes
 90
        0
280
     0
281
     0
  0
CLASS
  1
LAYOUT
  2
AcDbLayout
  3
ObjectDBX Classes
 90
        0
280
     0
281
     0
  0
CLASS
  1
ACME_DOCUMENT
  2
AcMeDbDoc
  3
AcMeServices
 90
        0
280
     0
281
     0
  0
CLASS
  1
AMGSETTINGSOBJ
  2
AmgSettingsObj
  3
"AcadM|Product Description: AutoCAD Mechanical 2000|Company: Autodesk"
 90
        0
280
     0
281
     0
  0
CLASS
  1
ACMESCOPE
  2
AcMeScope
  3
AcMeServices
 90
        0
280
     0
281
     0
  0
CLASS
  1
ACMECOMMANDHISTORY
  2
AcMeCommandHistory
  3
AcMeServices
 90
        0
280
     0
281
     0
  0
CLASS
  1
ACIMSYSVARMAN
  2
AcImSysVarManager
  3
AcMeServices
 90
        0
280
     0
281
     0
  0
CLASS
  1
ACIMREALSYSVAR
  2
AcImRealSysVar
  3
AcMeServices
 90
        0
280
     0
281
     0
  0
CLASS
  1
ACIMINTSYSVAR
  2
AcImIntSysVar
  3
AcMeServices
 90
        0
280
     0
281
     0
  0
CLASS
  1
ACMEDRAWINGMAN
  2
AcMeDrawingMan
  3
AcMeServices
 90
        0
280
     0
281
     0
  0
CLASS
  1
ACMEVIEW
  2
AcMeView
  3
AcMeServices
 90
        0
280
     0
281
     0
  0
CLASS
  1
ACDBENTITYCACHE
  2
AcMeEntityCache
  3
AcMeServices
 90
        0
280
     0
281
     0
  0
CLASS
  1
GSMANAGER
  2
AcMeGSManager
  3
AcMeServices
 90
        0
280
     0
281
     0
  0
CLASS
  1
AMDTINTERNALREACTOR
  2
AmdtInternalReactor
  3
AcMeServices
 90
        0
280
     0
281
     0
  0
CLASS
  1
ACMESTATEMGR
  2
AcMeStateMgr
  3
AcMeServices
 90
        0
280
     0
281
     0
  0
CLASS
  1
ACGREFMASTER
  2
AcGrefMaster
  3
AcAttribServices
 90
        0
280
     0
281
     0
  0
CLASS
  1
ACME_DATABASE
  2
AcMeDbDatabase
  3
AcMeServices
 90
        0
280
     0
281
     0
  0
CLASS
  1
ACRFINSADJUSTERMGR
  2
AcRfInsAdjusterMgr
  3
AcMeServices
 90
        0
280
     0
281
     0
  0
CLASS
  1
ACGREFACADMASTER
  2
AcGrefacadMaster
  3
AcGrefServices
 90
        0
280
     0
281
     0
  0
CLASS
  1
AMIMASTER
  2
AmiMaster
  3
AmiServices
 90
        0
280
     0
281
     0
  0
CLASS
  1
ACMDATADICTIONARY
  2
AcmDataDictionary
  3
"AcmSymBB|Product Description: AutoCAD Mechanical 2004 DX|Company: Autodesk"
 90
        0
280
     0
281
     0
  0
CLASS
  1
ACMDATAENTRYBLOCK
  2
AcmDataEntryBlock
  3
"AcmSymBB|Product Description: AutoCAD Mechanical 2004 DX|Company: Autodesk"
 90
        0
280
     0
281
     0
  0
CLASS
  1
ACIMSTRSYSVAR
  2
AcImStrSysVar
  3
AcMeServices
 90
        0
280
     0
281
     0
  0
CLASS
  1
ACMSTANDARDISO
  2
AcmStandardISO
  3
"Amdt_StdImp|Product Description: AutoCAD Mechanical 2004 DX|Company: Autodesk"
 90
        0
280
     0
281
     0
  0
CLASS
  1
AMGOBJPROPCFG
  2
AmgObjPropCfg
  3
"AmgLay|Product Description: AutoCAD Mechanical 2000|Company: Autodesk"
 90
        1
280
     0
281
     0
  0
CLASS
  1
AMDTEDGESTANDARDISO
  2
AmdtEdgeStdISO
  3
"Amdt_StdImp|Product Description: AutoCAD Mechanical 2004 DX|Company: Autodesk"
 90
        0
280
     0
281
     0
  0
CLASS
  1
ACMSURFSTANDARDISO
  2
AcmSurfTextStdISO
  3
"Amdt_StdImp|Product Description: AutoCAD Mechanical 2004 DX|Company: Autodesk"
 90
        0
280
     0
281
     0
  0
CLASS
  1
ACMFCFSTANDARDISO
  2
AcmFCFStdISO
  3
"Amdt_StdImp|Product Description: AutoCAD Mechanical 2004 DX|Company: Autodesk"
 90
        0
280
     0
281
     0
  0
CLASS
  1
ACMWELDSTANDARDISO
  2
AcmWeldingStdISO
  3
"Amdt_StdImp|Product Description: AutoCAD Mechanical 2004 DX|Company: Autodesk"
 90
        0
280
     0
281
     0
  0
CLASS
  1
ACMIDSTANDARDISO
  2
AcmIdStdISO
  3
"Amdt_StdImp|Product Description: AutoCAD Mechanical 2004 DX|Company: Autodesk"
 90
        0
280
     0
281
     0
  0
CLASS
  1
ACMDATUMSTANDARDISO
  2
AcmDatumStdISO
  3
"Amdt_StdImp|Product Description: AutoCAD Mechanical 2004 DX|Company: Autodesk"
 90
        0
280
     0
281
     0
  0
CLASS
  1
ACMBOMSTANDARDISO
  2
AcmBOMStdISO
  3
"Amdt_StdImp|Product Description: AutoCAD Mechanical 2004 DX|Company: Autodesk"
 90
        0
280
     0
281
     0
  0
CLASS
  1
ACMDETAILSTANDARDISO
  2
AmdtDetailSymStdISO
  3
"Amdt_StdImp|Product Description: AutoCAD Mechanical 2004 DX|Company: Autodesk"
 90
        0
280
     0
281
     0
  0
CLASS
  1
ACMSECTIONSTANDARDISO
  2
AmdtSectionSymStdISO
  3
"Amdt_StdImp|Product Description: AutoCAD Mechanical 2004 DX|Company: Autodesk"
 90
        0
280
     0
281
     0
  0
CLASS
  1
ACMCENTERLINESTANDARDISO
  2
AmdtCenterLineStdISO
  3
"Amdt_StdImp|Product Description: AutoCAD Mechanical 2004 DX|Company: Autodesk"
 90
        0
280
     0
281
     0
  0
CLASS
  1
ACMNOTESTANDARDISO
  2
AmdtNoteStdISO
  3
"Amdt_StdImp|Product Description: AutoCAD Mechanical 2004 DX|Company: Autodesk"
 90
        0
280
     0
281
     0
  0
CLASS
  1
ACAMGLAYSTD
  2
AcAmgLayStd
  3
"AcAmgLayStd|Product Description: AutoCAD Mechanical 2000|Company: Autodesk"
 90
        0
280
     0
281
     0
  0
CLASS
  1
ACAMGDIMSTD
  2
AcAmgDimStd
  3
"AcAmgDimStd|Product Description: AutoCAD Mechanical 2000|Company: Autodesk"
 90
        0
280
     0
281
     0
  0
CLASS
  1
ACAMGHOLECHARTSTDISO
  2
AcAmgHoleChartStdISO
  3
ACMSYMBB_MODULE_NAME
 90
        0
280
     0
281
     0
  0
CLASS
  1
ACAMGTITLESTD
  2
AcAmgTitleStd
  3
"TITLEAPP"
 90
        0
280
     0
281
     0
  0
CLASS
  1
LAYER_INDEX
  2
AcDbLayerIndex
  3
ObjectDBX Classes
 90
    32768
280
     0
281
     0
  0
CLASS
  1
IDBUFFER
  2
AcDbIdBuffer
  3
ObjectDBX Classes
 90
    32768
280
     0
281
     0
  0
CLASS
  1
DICTIONARYVAR
  2
AcDbDictionaryVar
  3
ObjectDBX Classes
 90
        0
280
     0
281
     0
  0
CLASS
  1
AM_DRAWING_MGR
  2
AcDmDwgMgr
  3
AcMechDwgViewMgmt
 90
        0
280
     0
281
     0
  0
CLASS
  1
AM_DWG_DOCUMENT
  2
AcDmDwgDocument
  3
AcMechDwgViewMgmt
 90
        0
280
     0
281
     0
  0
CLASS
  1
AM_DWG_SHEET
  2
AcDmSheet
  3
AcMechDwgViewMgmt
 90
        0
280
     0
281
     0
  0
CLASS
  1
AM_VIEWDIMPARMAP
  2
AcDmViewDimParMap
  3
AcMechDwgViewMgmt
 90
        0
280
     0
281
     0
  0
CLASS
  1
AM_DWGMGR_NAME
  2
AcDmDwgMgrName
  3
AcMechDwgViewMgmt
 90
        0
280
     0
281
     0
  0
CLASS
  1
AMDTMENUSTATEMGR
  2
AmdtMenuStateMgr
  3
McadcomServices
 90
        0
280
     0
281
     0
  0
CLASS
  1
AMDTMCOMMENUSTATE
  2
AmdtMcomMenuState
  3
McadcomServices
 90
        0
280
     0
281
     0
  0
CLASS
  1
MAPIAMMOUDLE
  2
MApiAmModule
  3
MApiAmServices
 90
        0
280
     0
281
     0
  0
CLASS
  1
AMDTADMENUSTATE
  2
AmdtAdMenuState
  3
DesignerServices
 90
        0
280
     0
281
     0
  0
CLASS
  1
ADAPPL
  2
AcAdAppl
  3
DesignerServices
 90
        0
280
     0
281
     0
  0
CLASS
  1
DEPMGR
  2
AcAdDepMgr
  3
DesignerServices
 90
        0
280
     0
281
     0
  0
CLASS
  1
PARAMMGR
  2
AcAdParamMgr
  3
DesignerServices
 90
        0
280
     0
281
     0
  0
CLASS
  1
PARAMSCOPE
  2
AcAdParamScope
  3
DesignerServices
 90
        0
280
     0
281
     0
  0
CLASS
  1
NAMEDAPPL
  2
AcAdNamedAppl
  3
DesignerServices
 90
        0
280
     0
281
     0
  0
CLASS
  1
AMDTDMMENUSTATE
  2
AmdtDmMenuState
  3
AcMechDwgViewMgmt
 90
        0
280
     0
281
     0
  0
CLASS
  1
AMDTAMMENUSTATE
  2
AmdtAmMenuState
  3
DesignerAssemblies
 90
        0
280
     0
281
     0
  0
CLASS
  1
ACAMPROJECT
  2
AcAmProject
  3
DesignerAssemblies
 90
        0
280
     0
281
     0
  0
CLASS
  1
ACAMGRCOMPDEF
  2
AcAmGrCompDef
  3
DesignerAssemblies
 90
        0
280
     0
281
     0
  0
CLASS
  1
ACCMCONTEXT
  2
AcCmContext
  3
DesignerAssemblies
 90
        0
280
     0
281
     0
  0
CLASS
  1
ACAMCOMPDEF
  2
AcAmCompDef
  3
DesignerAssemblies
 90
        0
280
     0
281
     0
  0
CLASS
  1
ACAMCOMPDEFMGR
  2
AcAmCompDefMgr
  3
DesignerAssemblies
 90
        0
280
     0
281
     0
  0
CLASS
  1
AMCONTEXTMGR
  2
AcAmContextMgr
  3
DesignerAssemblies
 90
        0
280
     0
281
     0
  0
CLASS
  1
ACAMCONTEXTMODELER
  2
AcAmContextModeler
  3
DesignerAssemblies
 90
        0
280
     0
281
     0
  0
CLASS
  1
ACMTHREADLINESTANDARDISO
  2
AmdtThreadLineStdISO
  3
"Amdt_StdImp|Product Description: AutoCAD Mechanical 2004 DX|Company: Autodesk"
 90
        0
280
     0
281
     0
  0
CLASS
  1
CATALOGSTATE
  2
AcAmCatalogState
  3
DesignerAssemblies
 90
        0
280
     0
281
     0
  0
CLASS
  1
ACAMGRCOMPDEFSET
  2
AcAmGrCompDefSet
  3
DesignerAssemblies
 90
        0
280
     0
281
     0
  0
CLASS
  1
AMDTBROWSERDBTAB
  2
AmdtBrowserDbTab
  3
McadcomServices
 90
        0
280
     0
281
     0
  0
CLASS
  1
CBROWSERAPPOBJECT
  2
CBrowserAppObject
  3
McadcomServices
 90
        0
280
     0
281
     0
  0
CLASS
  1
DM_PLACEHOLDER
  2
AcDmSelsetPlaceholder
  3
AcMechDwgViewMgmt
 90
        0
280
     0
281
     0
  0
CLASS
  1
TABLESTYLE
  2
AcDbTableStyle
  3
ObjectDBX Classes
 90
     2047
280
     0
281
     0
  0
CLASS
  1
VAACXREFPANELOBJECT
  2
VaAcXREFPanelObject
  3
VAAC_ADDIN
 90
    32768
280
     0
281
     0
  0
CLASS
  1
VAACIMAGEINVENTORY
  2
VaAcImageInventory
  3
VAAC_ADDIN
 90
    32768
280
     0
281
     0
  0
CLASS
  1
AMDTNOTETEMPLATEDB
  2
AmdtNoteTemplateDB
  3
AMDT_STDIMP_MODULE_NAME
 90
        0
280
     0
281
     0
  0
CLASS
  1
ACMBOM
  2
AcmBom
  3
"AcmSymBB|Product Description: AutoCAD Mechanical 2004 DX|Company: Autodesk"
 90
    32768
280
     0
281
     0
  0
CLASS
  1
AMDTFORMULAUPDATEDISPATCHER
  2
AmdtFormulaUpdateDispatcher
  3
AcMeServices
 90
    32768
280
     0
281
     0
  0
CLASS
  1
ACMPARTLIST
  2
AcmPartList
  3
"AcmSymBB|Product Description: AutoCAD Mechanical 2004 DX|Company: Autodesk"
 90
    33791
280
     0
281
     1
  0
CLASS
  1
ACAMGFILTERDAT
  2
AcAmgFilterDat
  3
"AcadM|Product Description: AutoCAD Mechanical 2000|Company: Autodesk"
 90
        0
280
     0
281
     0
  0
CLASS
  1
DIMASSOC
  2
AcDbDimAssoc
  3
"AcDbDimAssoc|Product Desc:     AcDim ARX App For Dimension|Company:          Autodesk, Inc.|WEB Address:      www.autodesk.com"
 90
    32768
280
     0
281
     0
  0
CLASS
  1
ACMSTANDARDANSI
  2
AcmStandardANSI
  3
"Amdt_StdImp|Product Description: AutoCAD Mechanical 2004 DX|Company: Autodesk"
 90
        0
280
     0
281
     0
  0
CLASS
  1
ACMSURFSTANDARDANSI
  2
AcmSurfTextStdANSI
  3
"Amdt_StdImp|Product Description: AutoCAD Mechanical 2004 DX|Company: Autodesk"
 90
        0
280
     0
281
     0
  0
CLASS
  1
ACMFCFSTANDARDANSI
  2
AcmFCFStdANSI
  3
"Amdt_StdImp|Product Description: AutoCAD Mechanical 2004 DX|Company: Autodesk"
 90
        0
280
     0
281
     0
  0
CLASS
  1
ACMWELDSTANDARDANSI
  2
AcmWeldingStdANSI
  3
"Amdt_StdImp|Product Description: AutoCAD Mechanical 2004 DX|Company: Autodesk"
 90
        0
280
     0
281
     0
  0
CLASS
  1
ACMIDSTANDARDANSI
  2
AcmIdStdANSI
  3
"Amdt_StdImp|Product Description: AutoCAD Mechanical 2004 DX|Company: Autodesk"
 90
        0
280
     0
281
     0
  0
CLASS
  1
ACMDATUMSTANDARDANSI
  2
AcmDatumStdANSI
  3
"Amdt_StdImp|Product Description: AutoCAD Mechanical 2004 DX|Company: Autodesk"
 90
        0
280
     0
281
     0
  0
CLASS
  1
ACMBOMSTANDARDANSI
  2
AcmBOMStdANSI
  3
"Amdt_StdImp|Product Description: AutoCAD Mechanical 2004 DX|Company: Autodesk"
 90
        0
280
     0
281
     0
  0
CLASS
  1
ACMDETAILSTANDARDANSI
  2
AmdtDetailSymStdANSI
  3
"Amdt_StdImp|Product Description: AutoCAD Mechanical 2004 DX|Company: Autodesk"
 90
        0
280
     0
281
     0
  0
CLASS
  1
ACMSECTIONSTANDARDANSI
  2
AmdtSectionSymStdANSI
  3
"Amdt_StdImp|Product Description: AutoCAD Mechanical 2004 DX|Company: Autodesk"
 90
        0
280
     0
281
     0
  0
CLASS
  1
ACMCENTERLINESTANDARDANSI
  2
AmdtCenterLineStdANSI
  3
"Amdt_StdImp|Product Description: AutoCAD Mechanical 2004 DX|Company: Autodesk"
 90
        0
280
     0
281
     0
  0
CLASS
  1
ACMTHREADLINESTANDARDANSI
  2
AmdtThreadLineStdANSI
  3
"Amdt_StdImp|Product Description: AutoCAD Mechanical 2004 DX|Company: Autodesk"
 90
        0
280
     0
281
     0
  0
CLASS
  1
ACMNOTESTANDARDANSI
  2
AmdtNoteStdANSI
  3
"Amdt_StdImp|Product Description: AutoCAD Mechanical 2004 DX|Company: Autodesk"
 90
        0
280
     0
281
     0
  0
CLASS
  1
ACAMGHOLECHARTSTDANSI
  2
AcAmgHoleChartStdANSI
  3
ACMSYMBB_MODULE_NAME
 90
        0
280
     0
281
     0
  0
CLASS
  1
ACRFATTGENMGR
  2
AcRfAttGeneralMgr
  3
AcAttribServices
 90
        0
280
     0
281
     0
  0
ENDSEC
  0
SECTION
  2
TABLES
  0
TABLE
  2
VPORT
  5
8
330
0
100
AcDbSymbolTable
 70
     4
  0
VPORT
  5
18B9
330
8
100
AcDbSymbolTableRecord
100
AcDbViewportTableRecord
  2
*Active
 70
     0
 10
0.0
 20
0.0
 11
1.0
 21
1.0
 12
291.5853918329018
 22
197.4660218870875
 13
0.0
 23
0.0
 14
2.5
 24
2.5
 15
10.0
 25
10.0
 16
0.0
 26
0.0
 36
1.0
 17
0.0
 27
0.0
 37
0.0
 40
201.6748355848248
 41
1.679945054945055
 42
50.0
 43
0.0
 44
0.0
 50
0.0
 51
0.0
 71
     0
 72
   100
 73
     1
 74
     3
 75
     0
 76
     0
 77
     0
 78
     0
281
     0
 65
     1
110
0.0
120
0.0
130
0.0
111
1.0
121
0.0
131
0.0
112
0.0
122
1.0
132
0.0
 79
     0
146
0.0
  0
ENDTAB
  0
TABLE
  2
LTYPE
  5
5
330
0
100
AcDbSymbolTable
 70
    16
  0
LTYPE
  5
14
330
5
100
AcDbSymbolTableRecord
100
AcDbLinetypeTableRecord
  2
ByBlock
 70
     0
  3

 72
    65
 73
     0
 40
0.0
  0
LTYPE
  5
15
330
5
100
AcDbSymbolTableRecord
100
AcDbLinetypeTableRecord
  2
ByLayer
 70
     0
  3

 72
    65
 73
     0
 40
0.0
  0
LTYPE
  5
16
330
5
100
AcDbSymbolTableRecord
100
AcDbLinetypeTableRecord
  2
Continuous
 70
     0
  3
Solid line
 72
    65
 73
     0
 40
0.0
  0
LTYPE
  5
64
330
5
100
AcDbSymbolTableRecord
100
AcDbLinetypeTableRecord
  2
AM_ISO02W050
 70
     0
  3
__ __ __ __ __ __ __ __ __ __ __ __ __ __ __
 72
    65
 73
     2
 40
7.5
 49
6.0
 74
     0
 49
-1.5
 74
     0
  0
LTYPE
  5
65
330
5
100
AcDbSymbolTableRecord
100
AcDbLinetypeTableRecord
  2
AM_ISO08W050
 70
     0
  3
____ . ____ . ____ . ____ . ____ . ____ . ____
 72
    65
 73
     4
 40
18.0
 49
12.0
 74
     0
 49
-1.5
 74
     0
 49
3.0
 74
     0
 49
-1.5
 74
     0
  0
LTYPE
  5
66
330
5
100
AcDbSymbolTableRecord
100
AcDbLinetypeTableRecord
  2
AM_ISO09W050
 70
     0
  3
_____ . . _____ . . _____ . . ____ .. ____
 72
    65
 73
     6
 40
22.5
 49
12.0
 74
     0
 49
-1.5
 74
     0
 49
3.0
 74
     0
 49
-1.5
 74
     0
 49
3.0
 74
     0
 49
-1.5
 74
     0
  0
LTYPE
  5
67
330
5
100
AcDbSymbolTableRecord
100
AcDbLinetypeTableRecord
  2
Amconstr
 70
     0
  3
_______________________
 72
    65
 73
     2
 40
9999.0
 49
9999.0
 74
     0
 49
0.0
 74
     0
  0
LTYPE
  5
68
330
5
100
AcDbSymbolTableRecord
100
AcDbLinetypeTableRecord
  2
AM_ISO08W050x2
 70
     0
  3
__ . __ . __ . __ . __ . __
 72
    65
 73
     4
 40
9.0
 49
6.0
 74
     0
 49
-0.75
 74
     0
 49
1.5
 74
     0
 49
-0.75
 74
     0
  0
LTYPE
  5
69
330
5
100
AcDbSymbolTableRecord
100
AcDbLinetypeTableRecord
  2
AM_ISO02W050x2
 70
     0
  3
 _ _ _ _ _ _ _ _ _ _ _ _
 72
    65
 73
     2
 40
3.75
 49
3.0
 74
     0
 49
-0.75
 74
     0
  0
LTYPE
  5
6C
330
5
100
AcDbSymbolTableRecord
100
AcDbLinetypeTableRecord
  2
Amzigzag
 70
     0
  3
/\/-/\/-/\/-/\/-/\/-/\/
 72
    65
 73
     2
 40
11.0001
 49
0.0001
 74
     4
 75
   135
340
6B
 46
0.04
 50
0.0
 44
0.0
 45
0.0
 49
-11.0
 74
     0
  0
LTYPE
  5
7A
330
5
100
AcDbSymbolTableRecord
100
AcDbLinetypeTableRecord
  2
ACISOWELD
 70
     0
  3
_ _ _ _ _
 72
    65
 73
     2
 40
2.0
 49
2.0
 74
     0
 49
-1.0
 74
     0
  0
LTYPE
  5
7B
330
5
100
AcDbSymbolTableRecord
100
AcDbLinetypeTableRecord
  2
ACISOTGB
 70
     0
  3
__ . . __ . .
 72
    65
 73
     6
 40
9.0
 49
4.0
 74
     0
 49
-1.0
 74
     0
 49
1.0
 74
     0
 49
-1.0
 74
     0
 49
1.0
 74
     0
 49
-1.0
 74
     0
  0
LTYPE
  5
7C
330
5
100
AcDbSymbolTableRecord
100
AcDbLinetypeTableRecord
  2
ACISOTGL
 70
     0
  3
_ _ _ _ _
 72
    65
 73
     2
 40
3.0
 49
2.0
 74
     0
 49
-1.0
 74
     0
  0
LTYPE
  5
7E
330
5
100
AcDbSymbolTableRecord
100
AcDbLinetypeTableRecord
  2
CENTER
 70
     0
  3
__ . __
 72
    65
 73
     4
 40
7.0
 49
4.0
 74
     0
 49
-1.0
 74
     0
 49
1.0
 74
     0
 49
-1.0
 74
     0
  0
LTYPE
  5
D8
330
5
100
AcDbSymbolTableRecord
100
AcDbLinetypeTableRecord
  2
HIDDEN
 70
     0
  3
Hidden __ __ __ __ __ __ __ __ __ __ __ __ __ _
 72
    65
 73
     2
 40
9.524999999999998
 49
6.349999999999999
 74
     0
 49
-3.174999999999999
 74
     0
  0
LTYPE
  5
D9
330
5
100
AcDbSymbolTableRecord
100
AcDbLinetypeTableRecord
  2
PHANTOM2
 70
     0
  3
Phantom (.5x) ___ _ _ ___ _ _ ___ _ _ ___ _ _
 72
    65
 73
     6
 40
31.75
 49
15.875
 74
     0
 49
-3.174999999999999
 74
     0
 49
3.174999999999999
 74
     0
 49
-3.174999999999999
 74
     0
 49
3.174999999999999
 74
     0
 49
-3.174999999999999
 74
     0
  0
LTYPE
  5
15CE
330
5
100
AcDbSymbolTableRecord
100
AcDbLinetypeTableRecord
  2
ACANSTGB
 70
     0
  3
__ . . __ . .
 72
    65
 73
     6
 40
0.35433070866
 49
0.15748031496
 74
     0
 49
-0.03937007874
 74
     0
 49
0.03937007874
 74
     0
 49
-0.03937007874
 74
     0
 49
0.03937007874
 74
     0
 49
-0.03937007874
 74
     0
  0
LTYPE
  5
15CF
330
5
100
AcDbSymbolTableRecord
100
AcDbLinetypeTableRecord
  2
ACANSTGL
 70
     0
  3
_ _ _ _ _
 72
    65
 73
     2
 40
0.11811023622
 49
0.07874015748
 74
     0
 49
-0.03937007874
 74
     0
  0
ENDTAB
  0
TABLE
  2
LAYER
  5
2
102
{ACAD_XDICTIONARY
360
3F9
102
}
330
0
100
AcDbSymbolTable
 70
     7
  0
LAYER
  5
10
330
2
100
AcDbSymbolTableRecord
100
AcDbLayerTableRecord
  2
0
 70
     0
 62
     7
  6
Continuous
370
    -3
390
F
  0
LAYER
  5
C75
330
2
100
AcDbSymbolTableRecord
100
AcDbLayerTableRecord
  2
Defpoints
 70
     0
 62
    -7
  6
Continuous
290
     0
370
    -3
390
F
  0
LAYER
  5
C76
330
2
100
AcDbSymbolTableRecord
100
AcDbLayerTableRecord
  2
AM_VIS
 70
     0
 62
     7
  6
Continuous
370
    50
390
F
  0
LAYER
  5
C77
330
2
100
AcDbSymbolTableRecord
100
AcDbLayerTableRecord
  2
AM_7
 70
     0
 62
     1
  6
CENTER
370
    25
390
F
  0
LAYER
  5
C78
330
2
100
AcDbSymbolTableRecord
100
AcDbLayerTableRecord
  2
AM_4
 70
     0
 62
     3
  6
Continuous
370
    25
390
F
  0
LAYER
  5
C79
330
2
100
AcDbSymbolTableRecord
100
AcDbLayerTableRecord
  2
AM_REFDIM
 70
     0
 62
     5
  6
Continuous
370
    25
390
F
  0
LAYER
  5
1491
330
2
100
AcDbSymbolTableRecord
100
AcDbLayerTableRecord
  2
LOGO
 70
     0
 62
     7
  6
Continuous
370
    -3
390
F
  0
ENDTAB
  0
TABLE
  2
STYLE
  5
3
330
0
100
AcDbSymbolTable
 70
     8
  0
STYLE
  5
11
330
3
100
AcDbSymbolTableRecord
100
AcDbTextStyleTableRecord
  2
STANDARD
 70
     0
 40
0.0
 41
1.0
 50
0.0
 71
     0
 42
3.0
  3
ISOCP.SHX
  4
CHINESET.SHX
  0
STYLE
  5
6B
330
3
100
AcDbSymbolTableRecord
100
AcDbTextStyleTableRecord
  2

 70
     1
 40
0.0
 41
1.0
 50
0.0
 71
     0
 42
2.5
  3
ltypeshp.shx
  4

  0
STYLE
  5
6D
330
3
100
AcDbSymbolTableRecord
100
AcDbTextStyleTableRecord
  2
ACISOTS
 70
     0
 40
1.0
 41
1.0
 50
0.0
 71
     0
 42
1.0
  3
isocp.shx
  4
chineset.shx
  0
STYLE
  5
79
330
3
100
AcDbSymbolTableRecord
100
AcDbTextStyleTableRecord
  2
ACISOGDT
 70
     0
 40
0.0
 41
1.0
 50
0.0
 71
     0
 42
2.5
  3
amgdt.shx
  4
chineset.shx
  0
STYLE
  5
C7B
330
3
100
AcDbSymbolTableRecord
100
AcDbTextStyleTableRecord
  2
CHINESET
 70
     0
 40
0.0
 41
1.0
 50
0.0
 71
     0
 42
2.5
  3
simplex.shx
  4
CHINESET.shx
  0
STYLE
  5
15D1
330
3
100
AcDbSymbolTableRecord
100
AcDbTextStyleTableRecord
  2
ACANSTS
 70
     0
 40
1.0
 41
1.0
 50
0.0
 71
     0
 42
2.5
  3
romans.shx
  4
chineset.shx
  0
STYLE
  5
15D2
330
3
100
AcDbSymbolTableRecord
100
AcDbTextStyleTableRecord
  2
ACANSGDT
 70
     0
 40
0.0
 41
1.0
 50
0.0
 71
     0
 42
2.5
  3
amgdtans.shx
  4

  0
ENDTAB
  0
TABLE
  2
VIEW
  5
6
330
0
100
AcDbSymbolTable
 70
     0
  0
ENDTAB
  0
TABLE
  2
UCS
  5
7
330
0
100
AcDbSymbolTable
 70
     0
  0
ENDTAB
  0
TABLE
  2
APPID
  5
9
330
0
100
AcDbSymbolTable
 70
    18
  0
APPID
  5
12
330
9
100
AcDbSymbolTableRecord
100
AcDbRegAppTableRecord
  2
ACAD
 70
     0
  0
APPID
  5
46
330
9
100
AcDbSymbolTableRecord
100
AcDbRegAppTableRecord
  2
MCAD_NO_VIS
 70
     0
  0
APPID
  5
47
330
9
100
AcDbSymbolTableRecord
100
AcDbRegAppTableRecord
  2
ACAD_TEMP_GRAPHIC
 70
     0
  0
APPID
  5
58
330
9
100
AcDbSymbolTableRecord
100
AcDbRegAppTableRecord
  2
ACATTRIBSERVICES
 70
     0
  0
APPID
  5
EE
330
9
100
AcDbSymbolTableRecord
100
AcDbRegAppTableRecord
  2
AD_DRAW
 70
     0
  0
APPID
  5
10C
330
9
100
AcDbSymbolTableRecord
100
AcDbRegAppTableRecord
  2
DESIGNERASSEMBLIES
 70
     0
  0
APPID
  5
111
330
9
100
AcDbSymbolTableRecord
100
AcDbRegAppTableRecord
  2
ACADM_DIM_EDIT
 70
     0
  0
APPID
  5
112
330
9
100
AcDbSymbolTableRecord
100
AcDbRegAppTableRecord
  2
AMDT_DM_ADJ
 70
     0
  0
APPID
  5
22C
330
9
100
AcDbSymbolTableRecord
100
AcDbRegAppTableRecord
  2
ACAD_DSTYLE_DIMTEXT_FILL
 70
     0
  0
APPID
  5
452
330
9
100
AcDbSymbolTableRecord
100
AcDbRegAppTableRecord
  2
GENIUS_GENOENT_13
 70
     0
  0
APPID
  5
453
330
9
100
AcDbSymbolTableRecord
100
AcDbRegAppTableRecord
  2
GENIUS_GENOBJ-N-CRS_13
 70
     0
  0
APPID
  5
454
330
9
100
AcDbSymbolTableRecord
100
AcDbRegAppTableRecord
  2
GENIUS_GENOLIS_13
 70
     0
  0
APPID
  5
455
330
9
100
AcDbSymbolTableRecord
100
AcDbRegAppTableRecord
  2
GENIUS_GENODEF_13
 70
     0
  0
APPID
  5
456
330
9
100
AcDbSymbolTableRecord
100
AcDbRegAppTableRecord
  2
GENIUS_GENOREF_13
 70
     0
  0
APPID
  5
6F3
330
9
100
AcDbSymbolTableRecord
100
AcDbRegAppTableRecord
  2
ACAD_PSEXT
 70
     0
  0
APPID
  5
808
330
9
100
AcDbSymbolTableRecord
100
AcDbRegAppTableRecord
  2
GENIUS_GENDTOL_13
 70
     0
  0
APPID
  5
1492
330
9
100
AcDbSymbolTableRecord
100
AcDbRegAppTableRecord
  2
GENIUS_GENREC_14
 70
     0
  0
APPID
  5
1493
330
9
100
AcDbSymbolTableRecord
100
AcDbRegAppTableRecord
  2
GENIUS_GENOBJ-N-REC_13
 70
     0
  0
ENDTAB
  0
TABLE
  2
DIMSTYLE
  5
A
330
0
100
AcDbSymbolTable
 70
    18
100
AcDbDimStyleTable
 71
     3
340
81
340
8B
340
86
  0
DIMSTYLE
105
81
330
A
100
AcDbSymbolTableRecord
100
AcDbDimStyleTableRecord
  2
AM_ISO
 70
     0
  4
"
 41
3.0
 42
1.5
 43
8.0
 44
1.5
 47
0.1
 48
0.1
 73
     0
 74
     0
 77
     1
 78
     8
 79
     2
140
3.5
141
0.0
143
0.0393701
146
0.6
147
1.0
172
     1
176
   256
177
   256
178
   256
271
     2
272
     2
283
     0
284
     8
340
11
371
    -1
372
    -1
  0
DIMSTYLE
105
82
330
A
100
AcDbSymbolTableRecord
100
AcDbDimStyleTableRecord
  2
AM_ISO$3
 70
     0
  4
"
 41
3.0
 42
1.5
 43
8.0
 44
1.5
 47
0.1
 48
0.1
 73
     0
 77
     1
 78
     8
 79
     2
140
3.5
141
0.0
143
0.0393701
146
0.6
147
1.0
176
   256
177
   256
178
   256
271
     2
272
     2
283
     0
284
     8
288
     1
289
     0
340
11
371
    -1
372
    -1
  0
DIMSTYLE
105
83
330
A
100
AcDbSymbolTableRecord
100
AcDbDimStyleTableRecord
  2
AM_ISO$4
 70
     0
  4
"
 41
3.0
 42
1.5
 43
8.0
 44
1.5
 47
0.1
 48
0.1
 73
     0
 77
     1
 78
     8
 79
     2
140
3.5
141
0.0
143
0.0393701
146
0.6
147
1.0
176
   256
177
   256
178
   256
271
     2
272
     2
283
     0
284
     8
288
     1
289
     0
340
11
371
    -1
372
    -1
  0
DIMSTYLE
105
84
330
A
100
AcDbSymbolTableRecord
100
AcDbDimStyleTableRecord
  2
AM_ISO$6
 70
     0
  4
"
 41
3.0
 42
1.5
 43
8.0
 44
1.5
 47
0.1
 48
0.1
 73
     0
 74
     0
 78
     8
 79
     2
140
3.5
141
0.0
143
0.0393701
146
0.6
147
1.0
172
     1
176
   256
177
   256
178
   256
271
     2
272
     2
283
     0
284
     8
340
11
371
    -1
372
    -1
  0
DIMSTYLE
105
85
330
A
100
AcDbSymbolTableRecord
100
AcDbDimStyleTableRecord
  2
AM_ISO$7
 70
     0
  4
"
 41
3.0
 42
1.5
 43
8.0
 44
1.5
 47
0.1
 48
0.1
 73
     0
 74
     0
 77
     1
 78
     8
 79
     2
140
5.0
141
0.0
143
0.0393701
146
0.6
147
1.0
172
     1
176
   256
177
   256
178
   256
271
     2
272
     2
283
     0
284
     8
340
11
371
    -1
372
    -1
  0
DIMSTYLE
105
86
330
A
100
AcDbSymbolTableRecord
100
AcDbDimStyleTableRecord
  2
AM_ISO$SF
 70
     0
  4
"
 41
2.5
 42
1.0
 43
10.0
 44
1.0
 47
0.1
 48
0.1
 73
     0
 74
     0
 75
     1
 76
     1
 77
     1
 78
     8
 79
     2
140
3.5
141
0.0
143
0.0393701
146
0.71
147
1.5
172
     1
176
   256
177
   256
178
     2
271
     2
272
     3
274
     4
283
     0
284
     8
340
11
371
    -1
372
    -1
  0
DIMSTYLE
105
8B
330
A
100
AcDbSymbolTableRecord
100
AcDbDimStyleTableRecord
  2
AM_ISO$SH
 70
     0
  4
"
 41
2.5
 42
1.0
 43
10.0
 44
1.0
 47
0.1
 48
0.1
 73
     0
 74
     0
 75
     1
 76
     1
 77
     1
 78
     8
 79
     2
140
3.5
141
0.0
143
0.0393701
144
2.0
146
0.71
147
1.5
172
     1
173
     1
176
   256
177
   256
178
     2
271
     2
272
     3
274
     4
283
     0
284
     8
340
11
343
87
371
    -1
372
    -1
  0
DIMSTYLE
105
40B
330
A
100
AcDbSymbolTableRecord
100
AcDbDimStyleTableRecord
  2
AM_ISO$0
 70
     0
  4
"
 41
3.0
 42
1.5
 43
8.0
 44
1.5
 47
0.1
 48
0.1
 73
     0
 74
     0
 77
     1
 78
     8
 79
     2
140
3.5
141
0.0
143
0.0393701
146
0.6
147
1.0
172
     1
176
   256
177
   256
178
   256
271
     2
272
     2
283
     0
284
     8
340
11
371
    -1
372
    -1
  0
DIMSTYLE
105
C7F
330
A
100
AcDbSymbolTableRecord
100
AcDbDimStyleTableRecord
  2
ISO-25-1
 70
     0
 40
0.625
 41
3.0
 42
2.0
 43
2.0
 44
2.0
 73
     0
 74
     0
 77
     1
 78
     8
 79
     2
140
3.0
141
-3.0
144
0.5
146
0.7
147
1.0
172
     1
176
   256
177
   256
178
   256
271
     2
272
     2
284
     8
289
     0
340
C7B
371
    -1
372
    -1
  0
DIMSTYLE
105
C80
330
A
100
AcDbSymbolTableRecord
100
AcDbDimStyleTableRecord
  2
ISO-25-1$0
 70
     0
 40
0.625
 41
3.0
 42
2.0
 43
2.0
 44
2.0
 73
     0
 74
     0
 77
     1
 78
     8
 79
     2
140
3.0
141
-3.0
146
0.6
147
1.0
172
     1
176
   256
177
   256
178
   256
271
     2
272
     2
284
     8
289
     0
340
C7B
371
    -1
372
    -1
  0
DIMSTYLE
105
C81
102
{ACAD_REACTORS
330
F95
330
F96
330
F97
330
F98
330
F99
330
F9A
330
F9B
330
F9E
330
F9F
330
FA2
330
FA3
330
FA4
330
FA5
330
FA6
330
FA7
330
FA8
330
FAD
330
FAE
330
FAF
330
FB0
330
FB1
330
FB2
330
FB3
330
FB7
330
FB8
330
FC0
330
FC1
330
FC2
330
FC3
330
FC4
330
FC5
330
FC6
330
FC7
102
}
330
A
100
AcDbSymbolTableRecord
100
AcDbDimStyleTableRecord
  2
ISO-25-1$0$0
 70
     0
 40
0.625
 41
3.0
 42
3.0
 43
2.0
 44
2.0
 73
     0
 74
     0
 77
     1
 78
     8
 79
     2
140
3.0
141
-3.0
146
0.6
147
1.0
172
     1
176
   256
177
   256
178
   256
271
     2
272
     8
284
     8
289
     0
340
C7B
371
    -1
372
    -1
  0
DIMSTYLE
105
15D4
330
A
100
AcDbSymbolTableRecord
100
AcDbDimStyleTableRecord
  2
AM_ANSI
 70
     0
  4
mm
 41
0.1
 42
0.05
 43
0.5
 44
0.1
 47
0.1
 48
0.1
 78
     7
 79
     2
140
0.12
141
0.0
146
0.71
147
0.06
176
   256
177
   256
178
     2
274
     4
284
     7
340
11
371
    -1
372
    -1
  0
DIMSTYLE
105
15D5
330
A
100
AcDbSymbolTableRecord
100
AcDbDimStyleTableRecord
  2
AM_ANSI$3
 70
     0
  4
mm
 41
0.1
 42
0.05
 43
0.5
 44
0.1
 47
0.1
 48
0.1
 78
     7
 79
     2
140
0.12
141
0.0
146
0.71
147
0.06
176
   256
177
   256
178
     2
274
     4
284
     7
288
     1
289
     0
340
11
371
    -1
372
    -1
  0
DIMSTYLE
105
15D6
330
A
100
AcDbSymbolTableRecord
100
AcDbDimStyleTableRecord
  2
AM_ANSI$4
 70
     0
  4
mm
 41
0.1
 42
0.05
 43
0.5
 44
0.1
 47
0.1
 48
0.1
 78
     7
 79
     2
140
0.12
141
0.0
146
0.71
147
0.06
176
   256
177
   256
178
     2
274
     4
284
     7
288
     1
289
     0
340
11
371
    -1
372
    -1
  0
DIMSTYLE
105
15D7
330
A
100
AcDbSymbolTableRecord
100
AcDbDimStyleTableRecord
  2
AM_ANSI$7
 70
     0
  4
mm
 41
0.1
 42
0.05
 43
0.5
 44
0.1
 47
0.1
 48
0.1
 78
     7
 79
     2
140
0.24
141
0.0
146
0.71
147
0.06
176
   256
177
   256
178
     2
274
     4
284
     7
340
11
371
    -1
372
    -1
  0
DIMSTYLE
105
15D8
330
A
100
AcDbSymbolTableRecord
100
AcDbDimStyleTableRecord
  2
AM_ANSI$SF
 70
     0
  4
mm
 41
0.1
 42
0.05
 43
0.5
 44
0.1
 47
0.1
 48
0.1
 75
     1
 76
     1
 78
     7
 79
     2
140
0.12
141
0.0
146
0.71
147
0.06
176
   256
177
   256
178
     2
274
     4
284
     7
340
11
371
    -1
372
    -1
  0
DIMSTYLE
105
15D9
330
A
100
AcDbSymbolTableRecord
100
AcDbDimStyleTableRecord
  2
AM_ANSI$SH
 70
     0
  4
mm
 41
0.1
 42
0.05
 43
0.5
 44
0.1
 47
0.1
 48
0.1
 75
     1
 76
     1
 78
     7
 79
     2
140
0.12
141
0.0
146
0.71
147
0.06
173
     1
176
   256
177
   256
178
     2
274
     4
284
     7
340
11
343
87
371
    -1
372
    -1
  0
ENDTAB
  0
TABLE
  2
BLOCK_RECORD
  5
1
330
0
100
AcDbSymbolTable
 70
    39
  0
BLOCK_RECORD
  5
1F
102
{ACAD_XDICTIONARY
360
8F
102
}
330
1
100
AcDbSymbolTableRecord
100
AcDbBlockTableRecord
  2
*Model_Space
340
22
  0
BLOCK_RECORD
  5
1B
330
1
100
AcDbSymbolTableRecord
100
AcDbBlockTableRecord
  2
*Paper_Space
340
1E
  0
BLOCK_RECORD
  5
23
330
1
100
AcDbSymbolTableRecord
100
AcDbBlockTableRecord
  2
*Paper_Space0
340
26
  0
BLOCK_RECORD
  5
87
330
1
100
AcDbSymbolTableRecord
100
AcDbBlockTableRecord
  2
GENAXEH
340
0
  0
BLOCK_RECORD
  5
ACA
330
1
100
AcDbSymbolTableRecord
100
AcDbBlockTableRecord
  2
GENDOT
340
0
102
{BLKREFS
331
13B8
331
13C4
102
}
  0
BLOCK_RECORD
  5
116B
330
1
100
AcDbSymbolTableRecord
100
AcDbBlockTableRecord
  2
*D4
340
0
  0
BLOCK_RECORD
  5
1177
330
1
100
AcDbSymbolTableRecord
100
AcDbBlockTableRecord
  2
*D5
340
0
  0
BLOCK_RECORD
  5
1183
330
1
100
AcDbSymbolTableRecord
100
AcDbBlockTableRecord
  2
*D6
340
0
  0
BLOCK_RECORD
  5
118F
330
1
100
AcDbSymbolTableRecord
100
AcDbBlockTableRecord
  2
*D7
340
0
  0
BLOCK_RECORD
  5
119B
330
1
100
AcDbSymbolTableRecord
100
AcDbBlockTableRecord
  2
*D8
340
0
  0
BLOCK_RECORD
  5
11A9
330
1
100
AcDbSymbolTableRecord
100
AcDbBlockTableRecord
  2
*D9
340
0
  0
BLOCK_RECORD
  5
11B5
330
1
100
AcDbSymbolTableRecord
100
AcDbBlockTableRecord
  2
*D10
340
0
  0
BLOCK_RECORD
  5
11C1
330
1
100
AcDbSymbolTableRecord
100
AcDbBlockTableRecord
  2
*D11
340
0
  0
BLOCK_RECORD
  5
11CD
330
1
100
AcDbSymbolTableRecord
100
AcDbBlockTableRecord
  2
*D12
340
0
  0
BLOCK_RECORD
  5
11D9
330
1
100
AcDbSymbolTableRecord
100
AcDbBlockTableRecord
  2
*D13
340
0
  0
BLOCK_RECORD
  5
11E7
330
1
100
AcDbSymbolTableRecord
100
AcDbBlockTableRecord
  2
*D14
340
0
  0
BLOCK_RECORD
  5
11F3
330
1
100
AcDbSymbolTableRecord
100
AcDbBlockTableRecord
  2
*D15
340
0
  0
BLOCK_RECORD
  5
11FF
330
1
100
AcDbSymbolTableRecord
100
AcDbBlockTableRecord
  2
*D16
340
0
  0
BLOCK_RECORD
  5
120B
330
1
100
AcDbSymbolTableRecord
100
AcDbBlockTableRecord
  2
*D17
340
0
  0
BLOCK_RECORD
  5
1217
330
1
100
AcDbSymbolTableRecord
100
AcDbBlockTableRecord
  2
*D18
340
0
  0
BLOCK_RECORD
  5
1223
330
1
100
AcDbSymbolTableRecord
100
AcDbBlockTableRecord
  2
*D19
340
0
  0
BLOCK_RECORD
  5
122F
330
1
100
AcDbSymbolTableRecord
100
AcDbBlockTableRecord
  2
*D20
340
0
  0
BLOCK_RECORD
  5
123B
330
1
100
AcDbSymbolTableRecord
100
AcDbBlockTableRecord
  2
*D21
340
0
  0
BLOCK_RECORD
  5
1247
330
1
100
AcDbSymbolTableRecord
100
AcDbBlockTableRecord
  2
*D22
340
0
  0
BLOCK_RECORD
  5
1253
330
1
100
AcDbSymbolTableRecord
100
AcDbBlockTableRecord
  2
*D23
340
0
  0
BLOCK_RECORD
  5
125F
330
1
100
AcDbSymbolTableRecord
100
AcDbBlockTableRecord
  2
*D24
340
0
  0
BLOCK_RECORD
  5
126D
330
1
100
AcDbSymbolTableRecord
100
AcDbBlockTableRecord
  2
*D25
340
0
  0
BLOCK_RECORD
  5
1279
330
1
100
AcDbSymbolTableRecord
100
AcDbBlockTableRecord
  2
*D26
340
0
  0
BLOCK_RECORD
  5
1285
330
1
100
AcDbSymbolTableRecord
100
AcDbBlockTableRecord
  2
*D27
340
0
  0
BLOCK_RECORD
  5
1291
330
1
100
AcDbSymbolTableRecord
100
AcDbBlockTableRecord
  2
*D28
340
0
  0
BLOCK_RECORD
  5
129D
330
1
100
AcDbSymbolTableRecord
100
AcDbBlockTableRecord
  2
*D29
340
0
  0
BLOCK_RECORD
  5
12A9
330
1
100
AcDbSymbolTableRecord
100
AcDbBlockTableRecord
  2
*D30
340
0
  0
BLOCK_RECORD
  5
12B5
330
1
100
AcDbSymbolTableRecord
100
AcDbBlockTableRecord
  2
*D31
340
0
  0
BLOCK_RECORD
  5
12C1
330
1
100
AcDbSymbolTableRecord
100
AcDbBlockTableRecord
  2
*D32
340
0
  0
BLOCK_RECORD
  5
12CD
330
1
100
AcDbSymbolTableRecord
100
AcDbBlockTableRecord
  2
*D33
340
0
  0
BLOCK_RECORD
  5
12D9
330
1
100
AcDbSymbolTableRecord
100
AcDbBlockTableRecord
  2
*D34
340
0
  0
BLOCK_RECORD
  5
12E5
330
1
100
AcDbSymbolTableRecord
100
AcDbBlockTableRecord
  2
*D35
340
0
  0
BLOCK_RECORD
  5
12F3
330
1
100
AcDbSymbolTableRecord
100
AcDbBlockTableRecord
  2
*D36
340
0
  0
BLOCK_RECORD
  5
1301
330
1
100
AcDbSymbolTableRecord
100
AcDbBlockTableRecord
  2
*D37
340
0
  0
ENDTAB
  0
ENDSEC
  0
SECTION
  2
BLOCKS
  0
BLOCK
  5
20
330
1F
100
AcDbEntity
  8
0
100
AcDbBlockBegin
  2
*Model_Space
 70
     0
 10
0.0
 20
0.0
 30
0.0
  3
*Model_Space
  1

  0
ENDBLK
  5
21
330
1F
100
AcDbEntity
  8
0
100
AcDbBlockEnd
  0
BLOCK
  5
1C
330
1B
100
AcDbEntity
 67
     1
  8
0
100
AcDbBlockBegin
  2
*Paper_Space
 70
     0
 10
0.0
 20
0.0
 30
0.0
  3
*Paper_Space
  1

  0
ENDBLK
  5
1D
330
1B
100
AcDbEntity
 67
     1
  8
0
100
AcDbBlockEnd
  0
BLOCK
  5
24
330
23
100
AcDbEntity
  8
0
100
AcDbBlockBegin
  2
*Paper_Space0
 70
     0
 10
0.0
 20
0.0
 30
0.0
  3
*Paper_Space0
  1

  0
ENDBLK
  5
25
330
23
100
AcDbEntity
  8
0
100
AcDbBlockEnd
  0
BLOCK
  5
89
330
87
100
AcDbEntity
  8
0
100
AcDbBlockBegin
  2
GENAXEH
 70
     0
 10
0.0
 20
0.0
 30
0.0
  3
GENAXEH
  1

  0
LINE
  5
88
330
87
100
AcDbEntity
  8
0
100
AcDbLine
 10
-1.0
 20
0.0
 30
0.0
 11
1.0
 21
0.0
 31
0.0
  0
ENDBLK
  5
8A
330
87
100
AcDbEntity
  8
0
100
AcDbBlockEnd
  0
BLOCK
  5
ACB
330
ACA
100
AcDbEntity
  8
0
100
AcDbBlockBegin
  2
GENDOT
 70
     0
 10
0.0
 20
0.0
 30
0.0
  3
GENDOT
  1

  0
LINE
  5
ACC
330
ACA
100
AcDbEntity
  8
0
100
AcDbLine
 10
0.0
 20
0.0
 30
0.0
 11
-1.0
 21
0.0
 31
0.0
  0
LWPOLYLINE
  5
ACD
330
ACA
100
AcDbEntity
  8
0
100
AcDbPolyline
 90
        2
 70
     1
 43
0.25
 10
-0.125
 20
0.0
 42
1.0
 10
0.125
 20
0.0
 42
1.0
  0
ENDBLK
  5
ACE
330
ACA
100
AcDbEntity
  8
0
100
AcDbBlockEnd
  0
BLOCK
  5
1175
330
116B
100
AcDbEntity
  8
0
100
AcDbBlockBegin
  2
*D4
 70
     1
 10
0.0
 20
0.0
 30
0.0
  3
*D4
  1

  0
LINE
  5
130D
330
116B
100
AcDbEntity
  8
AM_REFDIM
100
AcDbLine
 10
205.11486793003
 20
223.2716639615862
 30
0.0
 11
205.11486793003
 21
216.3441216724284
 31
0.0
  0
LINE
  5
130E
330
116B
100
AcDbEntity
  8
AM_REFDIM
100
AcDbLine
 10
212.11486793003
 20
222.4721639615862
 30
0.0
 11
212.11486793003
 21
216.3441216724284
 31
0.0
  0
LINE
  5
130F
330
116B
100
AcDbEntity
  8
AM_REFDIM
100
AcDbLine
 10
206.98986793003
 20
217.5941216724283
 30
0.0
 11
210.23986793003
 21
217.5941216724283
 31
0.0
  0
SOLID
  5
1310
330
116B
100
AcDbEntity
  8
AM_REFDIM
100
AcDbTrace
 10
206.98986793003
 20
217.9066216724284
 30
0.0
 11
206.98986793003
 21
217.2816216724283
 31
0.0
 12
205.11486793003
 22
217.5941216724283
 32
0.0
 13
205.11486793003
 23
217.5941216724283
 33
0.0
  0
SOLID
  5
1311
330
116B
100
AcDbEntity
  8
AM_REFDIM
100
AcDbTrace
 10
210.23986793003
 20
217.9066216724284
 30
0.0
 11
210.23986793003
 21
217.2816216724283
 31
0.0
 12
212.11486793003
 22
217.5941216724283
 32
0.0
 13
212.11486793003
 23
217.5941216724283
 33
0.0
  0
MTEXT
  5
1312
330
116B
100
AcDbEntity
  8
AM_REFDIM
100
AcDbMText
 10
208.61486793003
 20
219.1566216724283
 30
0.0
 40
1.875
 41
0.0
 71
     5
 72
     1
  1
\A1;7
  7
CHINESET
 73
     1
 44
1.0
1001
ACAD
1000
MTEXTBEGIN
1070
    73
1070
     1
1070
    44
1040
1.0
1070
    74
1070
     0
1000
MTEXTEND
  0
POINT
  5
1313
330
116B
100
AcDbEntity
  8
Defpoints
 62
     0
100
AcDbPoint
 10
205.11486793003
 20
225.1466639615862
 30
0.0
  0
POINT
  5
1314
330
116B
100
AcDbEntity
  8
Defpoints
 62
     0
100
AcDbPoint
 10
212.11486793003
 20
224.3471639615862
 30
0.0
  0
POINT
  5
1315
330
116B
100
AcDbEntity
  8
Defpoints
 62
     0
100
AcDbPoint
 10
212.11486793003
 20
217.5941216724283
 30
0.0
  0
ENDBLK
  5
1176
330
116B
100
AcDbEntity
  8
0
100
AcDbBlockEnd
  0
BLOCK
  5
1181
330
1177
100
AcDbEntity
  8
0
100
AcDbBlockBegin
  2
*D5
 70
     1
 10
0.0
 20
0.0
 30
0.0
  3
*D5
  1

  0
LINE
  5
1316
330
1177
100
AcDbEntity
  8
AM_REFDIM
100
AcDbLine
 10
205.94036793003
 20
256.6466639615862
 30
0.0
 11
197.4429262838942
 21
256.6466639615862
 31
0.0
  0
LINE
  5
1317
330
1177
100
AcDbEntity
  8
AM_REFDIM
100
AcDbLine
 10
205.94036793003
 20
228.6466639615862
 30
0.0
 11
197.4429262838942
 21
228.6466639615862
 31
0.0
  0
LINE
  5
1318
330
1177
100
AcDbEntity
  8
AM_REFDIM
100
AcDbLine
 10
198.6929262838942
 20
254.7716639615862
 30
0.0
 11
198.6929262838942
 21
230.5216639615862
 31
0.0
  0
SOLID
  5
1319
330
1177
100
AcDbEntity
  8
AM_REFDIM
100
AcDbTrace
 10
198.3804262838942
 20
254.7716639615862
 30
0.0
 11
199.0054262838942
 21
254.7716639615862
 31
0.0
 12
198.6929262838942
 22
256.6466639615862
 32
0.0
 13
198.6929262838942
 23
256.6466639615862
 33
0.0
  0
SOLID
  5
131A
330
1177
100
AcDbEntity
  8
AM_REFDIM
100
AcDbTrace
 10
198.3804262838942
 20
230.5216639615862
 30
0.0
 11
199.0054262838942
 21
230.5216639615862
 31
0.0
 12
198.6929262838942
 22
228.6466639615862
 32
0.0
 13
198.6929262838942
 23
228.6466639615862
 33
0.0
  0
MTEXT
  5
131B
330
1177
100
AcDbEntity
  8
AM_REFDIM
100
AcDbMText
 10
197.1304262838942
 20
242.6466639615862
 30
0.0
 40
1.875
 41
0.0
 71
     5
 72
     1
  1
\A1;28{}{\H0.71x;\C3;%%p0.2}
  7
CHINESET
 11
0.0000000000000001
 21
1.0
 31
0.0
 73
     1
 44
1.0
1001
ACAD
1000
MTEXTBEGIN
1070
    73
1070
     1
1070
    44
1040
1.0
1070
    74
1070
     0
1000
MTEXTEND
  0
POINT
  5
131C
330
1177
100
AcDbEntity
  8
Defpoints
 62
     0
100
AcDbPoint
 10
207.81536793003
 20
256.6466639615862
 30
0.0
  0
POINT
  5
131D
330
1177
100
AcDbEntity
  8
Defpoints
 62
     0
100
AcDbPoint
 10
207.81536793003
 20
228.6466639615862
 30
0.0
  0
POINT
  5
131E
330
1177
100
AcDbEntity
  8
Defpoints
 62
     0
100
AcDbPoint
 10
198.6929262838942
 20
228.6466639615862
 30
0.0
  0
ENDBLK
  5
1182
330
1177
100
AcDbEntity
  8
0
100
AcDbBlockEnd
  0
BLOCK
  5
118D
330
1183
100
AcDbEntity
  8
0
100
AcDbBlockBegin
  2
*D6
 70
     1
 10
0.0
 20
0.0
 30
0.0
  3
*D6
  1

  0
LINE
  5
131F
330
1183
100
AcDbEntity
  8
AM_REFDIM
100
AcDbLine
 10
203.23986793003
 20
225.1466639615862
 30
0.0
 11
192.1774641550439
 21
225.1466639615862
 31
0.0
  0
LINE
  5
1320
330
1183
100
AcDbEntity
  8
AM_REFDIM
100
AcDbLine
 10
203.23986793003
 20
260.1466639615862
 30
0.0
 11
192.1774641550439
 21
260.1466639615862
 31
0.0
  0
LINE
  5
1321
330
1183
100
AcDbEntity
  8
AM_REFDIM
100
AcDbLine
 10
193.4274641550439
 20
227.0216639615862
 30
0.0
 11
193.4274641550439
 21
258.2716639615862
 31
0.0
  0
SOLID
  5
1322
330
1183
100
AcDbEntity
  8
AM_REFDIM
100
AcDbTrace
 10
193.1149641550439
 20
227.0216639615862
 30
0.0
 11
193.7399641550439
 21
227.0216639615862
 31
0.0
 12
193.4274641550439
 22
225.1466639615862
 32
0.0
 13
193.4274641550439
 23
225.1466639615862
 33
0.0
  0
SOLID
  5
1323
330
1183
100
AcDbEntity
  8
AM_REFDIM
100
AcDbTrace
 10
193.1149641550439
 20
258.2716639615862
 30
0.0
 11
193.7399641550439
 21
258.2716639615862
 31
0.0
 12
193.4274641550439
 22
260.1466639615862
 32
0.0
 13
193.4274641550439
 23
260.1466639615862
 33
0.0
  0
MTEXT
  5
1324
330
1183
100
AcDbEntity
  8
AM_REFDIM
100
AcDbMText
 10
191.8649641550438
 20
242.6466639615862
 30
0.0
 40
1.875
 41
0.0
 71
     5
 72
     1
  1
\A1;35
  7
CHINESET
 11
0.0000000000000001
 21
1.0
 31
0.0
 73
     1
 44
1.0
1001
ACAD
1000
MTEXTBEGIN
1070
    73
1070
     1
1070
    44
1040
1.0
1070
    74
1070
     0
1000
MTEXTEND
  0
POINT
  5
1325
330
1183
100
AcDbEntity
  8
Defpoints
 62
     0
100
AcDbPoint
 10
205.11486793003
 20
225.1466639615862
 30
0.0
  0
POINT
  5
1326
330
1183
100
AcDbEntity
  8
Defpoints
 62
     0
100
AcDbPoint
 10
205.11486793003
 20
260.1466639615862
 30
0.0
  0
POINT
  5
1327
330
1183
100
AcDbEntity
  8
Defpoints
 62
     0
100
AcDbPoint
 10
193.4274641550439
 20
260.1466639615862
 30
0.0
  0
ENDBLK
  5
118E
330
1183
100
AcDbEntity
  8
0
100
AcDbBlockEnd
  0
BLOCK
  5
1199
330
118F
100
AcDbEntity
  8
0
100
AcDbBlockBegin
  2
*D7
 70
     1
 10
0.0
 20
0.0
 30
0.0
  3
*D7
  1

  0
LINE
  5
1328
330
118F
100
AcDbEntity
  8
AM_REFDIM
100
AcDbLine
 10
202.93986793003
 20
261.1466639615862
 30
0.0
 11
186.7665956635633
 21
261.1466639615862
 31
0.0
  0
LINE
  5
1329
330
118F
100
AcDbEntity
  8
AM_REFDIM
100
AcDbLine
 10
202.93986793003
 20
224.1466639615862
 30
0.0
 11
186.7665956635633
 21
224.1466639615862
 31
0.0
  0
LINE
  5
132A
330
118F
100
AcDbEntity
  8
AM_REFDIM
100
AcDbLine
 10
188.0165956635633
 20
259.2716639615862
 30
0.0
 11
188.0165956635633
 21
226.0216639615862
 31
0.0
  0
SOLID
  5
132B
330
118F
100
AcDbEntity
  8
AM_REFDIM
100
AcDbTrace
 10
187.7040956635633
 20
259.2716639615862
 30
0.0
 11
188.3290956635633
 21
259.2716639615862
 31
0.0
 12
188.0165956635633
 22
261.1466639615862
 32
0.0
 13
188.0165956635633
 23
261.1466639615862
 33
0.0
  0
SOLID
  5
132C
330
118F
100
AcDbEntity
  8
AM_REFDIM
100
AcDbTrace
 10
187.7040956635633
 20
226.0216639615862
 30
0.0
 11
188.3290956635633
 21
226.0216639615862
 31
0.0
 12
188.0165956635633
 22
224.1466639615862
 32
0.0
 13
188.0165956635633
 23
224.1466639615862
 33
0.0
  0
MTEXT
  5
132D
330
118F
100
AcDbEntity
  8
AM_REFDIM
100
AcDbMText
 10
186.4540956635633
 20
242.6466639615863
 30
0.0
 40
1.875
 41
0.0
 71
     5
 72
     1
  1
\A1;37
  7
CHINESET
 11
0.0000000000000001
 21
1.0
 31
0.0
 73
     1
 44
1.0
1001
ACAD
1000
MTEXTBEGIN
1070
    73
1070
     1
1070
    44
1040
1.0
1070
    74
1070
     0
1000
MTEXTEND
  0
POINT
  5
132E
330
118F
100
AcDbEntity
  8
Defpoints
 62
     0
100
AcDbPoint
 10
204.81486793003
 20
261.1466639615862
 30
0.0
  0
POINT
  5
132F
330
118F
100
AcDbEntity
  8
Defpoints
 62
     0
100
AcDbPoint
 10
204.81486793003
 20
224.1466639615862
 30
0.0
  0
POINT
  5
1330
330
118F
100
AcDbEntity
  8
Defpoints
 62
     0
100
AcDbPoint
 10
188.0165956635633
 20
224.1466639615862
 30
0.0
  0
ENDBLK
  5
119A
330
118F
100
AcDbEntity
  8
0
100
AcDbBlockEnd
  0
BLOCK
  5
11A7
330
119B
100
AcDbEntity
  8
0
100
AcDbBlockBegin
  2
*D8
 70
     1
 10
0.0
 20
0.0
 30
0.0
  3
*D8
  1

  0
LINE
  5
1331
330
119B
100
AcDbEntity
  8
AM_REFDIM
100
AcDbLine
 10
203.23986793003
 20
260.1466639615862
 30
0.0
 11
192.1774641550439
 21
260.1466639615862
 31
0.0
  0
LINE
  5
1332
330
119B
100
AcDbEntity
  8
AM_REFDIM
100
AcDbLine
 10
202.93986793003
 20
261.1466639615862
 30
0.0
 11
192.1774641550439
 21
261.1466639615862
 31
0.0
  0
LINE
  5
1333
330
119B
100
AcDbEntity
  8
AM_REFDIM
100
AcDbLine
 10
193.4274641550439
 20
258.2716639615862
 30
0.0
 11
193.4274641550439
 21
256.3966639615862
 31
0.0
  0
LINE
  5
1334
330
119B
100
AcDbEntity
  8
AM_REFDIM
100
AcDbLine
 10
193.4274641550439
 20
263.0216639615862
 30
0.0
 11
193.4274641550439
 21
266.5930925330148
 31
0.0
  0
LINE
  5
1335
330
119B
100
AcDbEntity
  8
AM_REFDIM
100
AcDbLine
 10
193.4274641550439
 20
260.1466639615862
 30
0.0
 11
193.4274641550439
 21
261.1466639615862
 31
0.0
  0
SOLID
  5
1336
330
119B
100
AcDbEntity
  8
AM_REFDIM
100
AcDbTrace
 10
193.1149641550439
 20
258.2716639615862
 30
0.0
 11
193.7399641550439
 21
258.2716639615862
 31
0.0
 12
193.4274641550439
 22
260.1466639615862
 32
0.0
 13
193.4274641550439
 23
260.1466639615862
 33
0.0
  0
SOLID
  5
1337
330
119B
100
AcDbEntity
  8
AM_REFDIM
100
AcDbTrace
 10
193.1149641550439
 20
263.0216639615862
 30
0.0
 11
193.7399641550439
 21
263.0216639615862
 31
0.0
 12
193.4274641550439
 22
261.1466639615862
 32
0.0
 13
193.4274641550439
 23
261.1466639615862
 33
0.0
  0
MTEXT
  5
1338
330
119B
100
AcDbEntity
  8
AM_REFDIM
100
AcDbMText
 10
191.8649641550438
 20
265.7448782473005
 30
0.0
 40
1.875
 41
0.0
 71
     5
 72
     1
  1
\A1;1
  7
CHINESET
 11
0.0000000000000001
 21
1.0
 31
0.0
 73
     1
 44
1.0
1001
ACAD
1000
MTEXTBEGIN
1070
    73
1070
     1
1070
    44
1040
1.0
1070
    74
1070
     0
1000
MTEXTEND
  0
POINT
  5
1339
330
119B
100
AcDbEntity
  8
Defpoints
 62
     0
100
AcDbPoint
 10
205.11486793003
 20
260.1466639615862
 30
0.0
  0
POINT
  5
133A
330
119B
100
AcDbEntity
  8
Defpoints
 62
     0
100
AcDbPoint
 10
204.81486793003
 20
261.1466639615862
 30
0.0
  0
POINT
  5
133B
330
119B
100
AcDbEntity
  8
Defpoints
 62
     0
100
AcDbPoint
 10
193.4274641550439
 20
261.1466639615862
 30
0.0
  0
ENDBLK
  5
11A8
330
119B
100
AcDbEntity
  8
0
100
AcDbBlockEnd
  0
BLOCK
  5
11B3
330
11A9
100
AcDbEntity
  8
0
100
AcDbBlockBegin
  2
*D9
 70
     1
 10
0.0
 20
0.0
 30
0.0
  3
*D9
  1

  0
LINE
  5
133C
330
11A9
100
AcDbEntity
  8
AM_REFDIM
100
AcDbLine
 10
205.11486793003
 20
262.0216639615862
 30
0.0
 11
205.11486793003
 21
267.1229753859195
 31
0.0
  0
LINE
  5
133D
330
11A9
100
AcDbEntity
  8
AM_REFDIM
100
AcDbLine
 10
219.11486793003
 20
262.0216639615862
 30
0.0
 11
219.11486793003
 21
267.1229753859195
 31
0.0
  0
LINE
  5
133E
330
11A9
100
AcDbEntity
  8
AM_REFDIM
100
AcDbLine
 10
206.98986793003
 20
265.8729753859195
 30
0.0
 11
217.23986793003
 21
265.8729753859195
 31
0.0
  0
SOLID
  5
133F
330
11A9
100
AcDbEntity
  8
AM_REFDIM
100
AcDbTrace
 10
206.98986793003
 20
266.1854753859195
 30
0.0
 11
206.98986793003
 21
265.5604753859195
 31
0.0
 12
205.11486793003
 22
265.8729753859195
 32
0.0
 13
205.11486793003
 23
265.8729753859195
 33
0.0
  0
SOLID
  5
1340
330
11A9
100
AcDbEntity
  8
AM_REFDIM
100
AcDbTrace
 10
217.23986793003
 20
266.1854753859195
 30
0.0
 11
217.23986793003
 21
265.5604753859195
 31
0.0
 12
219.11486793003
 22
265.8729753859195
 32
0.0
 13
219.11486793003
 23
265.8729753859195
 33
0.0
  0
MTEXT
  5
1341
330
11A9
100
AcDbEntity
  8
AM_REFDIM
100
AcDbMText
 10
212.11486793003
 20
267.4354753859195
 30
0.0
 40
1.875
 41
0.0
 71
     5
 72
     1
  1
\A1;14
  7
CHINESET
 73
     1
 44
1.0
1001
ACAD
1000
MTEXTBEGIN
1070
    73
1070
     1
1070
    44
1040
1.0
1070
    74
1070
     0
1000
MTEXTEND
  0
POINT
  5
1342
330
11A9
100
AcDbEntity
  8
Defpoints
 62
     0
100
AcDbPoint
 10
205.11486793003
 20
260.1466639615862
 30
0.0
  0
POINT
  5
1343
330
11A9
100
AcDbEntity
  8
Defpoints
 62
     0
100
AcDbPoint
 10
219.11486793003
 20
260.1466639615862
 30
0.0
  0
POINT
  5
1344
330
11A9
100
AcDbEntity
  8
Defpoints
 62
     0
100
AcDbPoint
 10
219.11486793003
 20
265.8729753859195
 30
0.0
  0
ENDBLK
  5
11B4
330
11A9
100
AcDbEntity
  8
0
100
AcDbBlockEnd
  0
BLOCK
  5
11BF
330
11B5
100
AcDbEntity
  8
0
100
AcDbBlockBegin
  2
*D10
 70
     1
 10
0.0
 20
0.0
 30
0.0
  3
*D10
  1

  0
LINE
  5
1345
330
11B5
100
AcDbEntity
  8
AM_REFDIM
100
AcDbLine
 10
204.11486793003
 20
262.3216639615862
 30
0.0
 11
204.11486793003
 21
272.7232272615878
 31
0.0
  0
LINE
  5
1346
330
11B5
100
AcDbEntity
  8
AM_REFDIM
100
AcDbLine
 10
220.11486793003
 20
262.3216639615862
 30
0.0
 11
220.11486793003
 21
272.7232272615878
 31
0.0
  0
LINE
  5
1347
330
11B5
100
AcDbEntity
  8
AM_REFDIM
100
AcDbLine
 10
205.98986793003
 20
271.4732272615878
 30
0.0
 11
218.23986793003
 21
271.4732272615878
 31
0.0
  0
SOLID
  5
1348
330
11B5
100
AcDbEntity
  8
AM_REFDIM
100
AcDbTrace
 10
205.98986793003
 20
271.7857272615878
 30
0.0
 11
205.98986793003
 21
271.1607272615878
 31
0.0
 12
204.11486793003
 22
271.4732272615878
 32
0.0
 13
204.11486793003
 23
271.4732272615878
 33
0.0
  0
SOLID
  5
1349
330
11B5
100
AcDbEntity
  8
AM_REFDIM
100
AcDbTrace
 10
218.23986793003
 20
271.7857272615878
 30
0.0
 11
218.23986793003
 21
271.1607272615878
 31
0.0
 12
220.11486793003
 22
271.4732272615878
 32
0.0
 13
220.11486793003
 23
271.4732272615878
 33
0.0
  0
MTEXT
  5
134A
330
11B5
100
AcDbEntity
  8
AM_REFDIM
100
AcDbMText
 10
212.11486793003
 20
273.0357272615878
 30
0.0
 40
1.875
 41
0.0
 71
     5
 72
     1
  1
\A1;16
  7
CHINESET
 73
     1
 44
1.0
1001
ACAD
1000
MTEXTBEGIN
1070
    73
1070
     1
1070
    44
1040
1.0
1070
    74
1070
     0
1000
MTEXTEND
  0
POINT
  5
134B
330
11B5
100
AcDbEntity
  8
Defpoints
 62
     0
100
AcDbPoint
 10
204.11486793003
 20
260.4466639615862
 30
0.0
  0
POINT
  5
134C
330
11B5
100
AcDbEntity
  8
Defpoints
 62
     0
100
AcDbPoint
 10
220.11486793003
 20
260.4466639615862
 30
0.0
  0
POINT
  5
134D
330
11B5
100
AcDbEntity
  8
Defpoints
 62
     0
100
AcDbPoint
 10
220.11486793003
 20
271.4732272615878
 30
0.0
  0
ENDBLK
  5
11C0
330
11B5
100
AcDbEntity
  8
0
100
AcDbBlockEnd
  0
BLOCK
  5
11CB
330
11C1
100
AcDbEntity
  8
0
100
AcDbBlockBegin
  2
*D11
 70
     1
 10
0.0
 20
0.0
 30
0.0
  3
*D11
  1

  0
LINE
  5
134E
330
11C1
100
AcDbEntity
  8
AM_REFDIM
100
AcDbLine
 10
252.1886873975215
 20
234.6466639615862
 30
0.0
 11
245.5250392771802
 21
234.6466639615862
 31
0.0
  0
LINE
  5
134F
330
11C1
100
AcDbEntity
  8
AM_REFDIM
100
AcDbLine
 10
249.3391873975215
 20
250.6466639615862
 30
0.0
 11
245.5250392771802
 21
250.6466639615862
 31
0.0
  0
LINE
  5
1350
330
11C1
100
AcDbEntity
  8
AM_REFDIM
100
AcDbLine
 10
246.7750392771801
 20
236.5216639615862
 30
0.0
 11
246.7750392771801
 21
248.7716639615862
 31
0.0
  0
SOLID
  5
1351
330
11C1
100
AcDbEntity
  8
AM_REFDIM
100
AcDbTrace
 10
246.4625392771802
 20
236.5216639615862
 30
0.0
 11
247.0875392771802
 21
236.5216639615862
 31
0.0
 12
246.7750392771801
 22
234.6466639615862
 32
0.0
 13
246.7750392771801
 23
234.6466639615862
 33
0.0
  0
SOLID
  5
1352
330
11C1
100
AcDbEntity
  8
AM_REFDIM
100
AcDbTrace
 10
246.4625392771802
 20
248.7716639615862
 30
0.0
 11
247.0875392771802
 21
248.7716639615862
 31
0.0
 12
246.7750392771801
 22
250.6466639615862
 32
0.0
 13
246.7750392771801
 23
250.6466639615862
 33
0.0
  0
MTEXT
  5
1353
330
11C1
100
AcDbEntity
  8
AM_REFDIM
100
AcDbMText
 10
245.2125392771801
 20
242.6466639615862
 30
0.0
 40
1.875
 41
0.0
 71
     5
 72
     1
  1
\A1;16
  7
CHINESET
 11
0.0000000000000001
 21
1.0
 31
0.0
 73
     1
 44
1.0
1001
ACAD
1000
MTEXTBEGIN
1070
    73
1070
     1
1070
    44
1040
1.0
1070
    74
1070
     0
1000
MTEXTEND
  0
POINT
  5
1354
330
11C1
100
AcDbEntity
  8
Defpoints
 62
     0
100
AcDbPoint
 10
254.0636873975214
 20
234.6466639615862
 30
0.0
  0
POINT
  5
1355
330
11C1
100
AcDbEntity
  8
Defpoints
 62
     0
100
AcDbPoint
 10
251.2141873975215
 20
250.6466639615862
 30
0.0
  0
POINT
  5
1356
330
11C1
100
AcDbEntity
  8
Defpoints
 62
     0
100
AcDbPoint
 10
246.7750392771801
 20
250.6466639615862
 30
0.0
  0
ENDBLK
  5
11CC
330
11C1
100
AcDbEntity
  8
0
100
AcDbBlockEnd
  0
BLOCK
  5
11D7
330
11CD
100
AcDbEntity
  8
0
100
AcDbBlockBegin
  2
*D12
 70
     1
 10
0.0
 20
0.0
 30
0.0
  3
*D12
  1

  0
LINE
  5
1357
330
11CD
100
AcDbEntity
  8
AM_REFDIM
100
AcDbLine
 10
249.3391873975215
 20
256.6466639615862
 30
0.0
 11
239.3475645447218
 21
256.6466639615862
 31
0.0
  0
LINE
  5
1358
330
11CD
100
AcDbEntity
  8
AM_REFDIM
100
AcDbLine
 10
249.3391873975215
 20
228.6466639615862
 30
0.0
 11
239.3475645447218
 21
228.6466639615862
 31
0.0
  0
LINE
  5
1359
330
11CD
100
AcDbEntity
  8
AM_REFDIM
100
AcDbLine
 10
240.5975645447218
 20
254.7716639615862
 30
0.0
 11
240.5975645447218
 21
230.5216639615862
 31
0.0
  0
SOLID
  5
135A
330
11CD
100
AcDbEntity
  8
AM_REFDIM
100
AcDbTrace
 10
240.2850645447218
 20
254.7716639615862
 30
0.0
 11
240.9100645447218
 21
254.7716639615862
 31
0.0
 12
240.5975645447218
 22
256.6466639615862
 32
0.0
 13
240.5975645447218
 23
256.6466639615862
 33
0.0
  0
SOLID
  5
135B
330
11CD
100
AcDbEntity
  8
AM_REFDIM
100
AcDbTrace
 10
240.2850645447218
 20
230.5216639615862
 30
0.0
 11
240.9100645447218
 21
230.5216639615862
 31
0.0
 12
240.5975645447218
 22
228.6466639615862
 32
0.0
 13
240.5975645447218
 23
228.6466639615862
 33
0.0
  0
MTEXT
  5
135C
330
11CD
100
AcDbEntity
  8
AM_REFDIM
100
AcDbMText
 10
239.0350645447218
 20
242.6466639615862
 30
0.0
 40
1.875
 41
0.0
 71
     5
 72
     1
  1
\A1;28{}{\H0.71x;\C3;%%p0.2}
  7
CHINESET
 11
0.0000000000000001
 21
1.0
 31
0.0
 73
     1
 44
1.0
1001
ACAD
1000
MTEXTBEGIN
1070
    73
1070
     1
1070
    44
1040
1.0
1070
    74
1070
     0
1000
MTEXTEND
  0
POINT
  5
135D
330
11CD
100
AcDbEntity
  8
Defpoints
 62
     0
100
AcDbPoint
 10
251.2141873975215
 20
256.6466639615862
 30
0.0
  0
POINT
  5
135E
330
11CD
100
AcDbEntity
  8
Defpoints
 62
     0
100
AcDbPoint
 10
251.2141873975215
 20
228.6466639615862
 30
0.0
  0
POINT
  5
135F
330
11CD
100
AcDbEntity
  8
Defpoints
 62
     0
100
AcDbPoint
 10
240.5975645447218
 20
228.6466639615862
 30
0.0
  0
ENDBLK
  5
11D8
330
11CD
100
AcDbEntity
  8
0
100
AcDbBlockEnd
  0
BLOCK
  5
11E5
330
11D9
100
AcDbEntity
  8
0
100
AcDbBlockBegin
  2
*D13
 70
     1
 10
0.0
 20
0.0
 30
0.0
  3
*D13
  1

  0
LINE
  5
1360
330
11D9
100
AcDbEntity
  8
AM_REFDIM
100
AcDbLine
 10
252.7636873975215
 20
262.0216639615862
 30
0.0
 11
252.7636873975215
 21
267.1229753859195
 31
0.0
  0
LINE
  5
1361
330
11D9
100
AcDbEntity
  8
AM_REFDIM
100
AcDbLine
 10
255.5136873975215
 20
262.8211639615862
 30
0.0
 11
255.5136873975215
 21
267.1229753859195
 31
0.0
  0
LINE
  5
1362
330
11D9
100
AcDbEntity
  8
AM_REFDIM
100
AcDbLine
 10
257.3886873975215
 20
265.8729753859195
 30
0.0
 11
259.2636873975215
 21
265.8729753859195
 31
0.0
  0
LINE
  5
1363
330
11D9
100
AcDbEntity
  8
AM_REFDIM
100
AcDbLine
 10
250.8886873975215
 20
265.8729753859195
 30
0.0
 11
241.9717376481039
 21
265.8729753859195
 31
0.0
  0
LINE
  5
1364
330
11D9
100
AcDbEntity
  8
AM_REFDIM
100
AcDbLine
 10
255.5136873975215
 20
265.8729753859195
 30
0.0
 11
252.7636873975215
 21
265.8729753859195
 31
0.0
  0
SOLID
  5
1365
330
11D9
100
AcDbEntity
  8
AM_REFDIM
100
AcDbTrace
 10
257.3886873975215
 20
266.1854753859195
 30
0.0
 11
257.3886873975215
 21
265.5604753859195
 31
0.0
 12
255.5136873975215
 22
265.8729753859195
 32
0.0
 13
255.5136873975215
 23
265.8729753859195
 33
0.0
  0
SOLID
  5
1366
330
11D9
100
AcDbEntity
  8
AM_REFDIM
100
AcDbTrace
 10
250.8886873975215
 20
266.1854753859195
 30
0.0
 11
250.8886873975215
 21
265.5604753859195
 31
0.0
 12
252.7636873975215
 22
265.8729753859195
 32
0.0
 13
252.7636873975215
 23
265.8729753859195
 33
0.0
  0
MTEXT
  5
1367
330
11D9
100
AcDbEntity
  8
AM_REFDIM
100
AcDbMText
 10
245.4538805052467
 20
267.4354753859195
 30
0.0
 40
1.875
 41
0.0
 71
     5
 72
     1
  1
\A1;2.75
  7
CHINESET
 73
     1
 44
1.0
1001
ACAD
1000
MTEXTBEGIN
1070
    73
1070
     1
1070
    44
1040
1.0
1070
    74
1070
     0
1000
MTEXTEND
  0
POINT
  5
1368
330
11D9
100
AcDbEntity
  8
Defpoints
 62
     0
100
AcDbPoint
 10
252.7636873975215
 20
260.1466639615862
 30
0.0
  0
POINT
  5
1369
330
11D9
100
AcDbEntity
  8
Defpoints
 62
     0
100
AcDbPoint
 10
255.5136873975215
 20
260.9461639615862
 30
0.0
  0
POINT
  5
136A
330
11D9
100
AcDbEntity
  8
Defpoints
 62
     0
100
AcDbPoint
 10
255.5136873975215
 20
265.8729753859195
 30
0.0
  0
ENDBLK
  5
11E6
330
11D9
100
AcDbEntity
  8
0
100
AcDbBlockEnd
  0
BLOCK
  5
11F1
330
11E7
100
AcDbEntity
  8
0
100
AcDbBlockBegin
  2
*D14
 70
     1
 10
0.0
 20
0.0
 30
0.0
  3
*D14
  1

  0
LINE
  5
136B
330
11E7
100
AcDbEntity
  8
AM_REFDIM
100
AcDbLine
 10
252.7636873975215
 20
262.0216639615862
 30
0.0
 11
252.7636873975215
 21
272.7232272615878
 31
0.0
  0
LINE
  5
136C
330
11E7
100
AcDbEntity
  8
AM_REFDIM
100
AcDbLine
 10
258.2636873975215
 20
262.0216639615862
 30
0.0
 11
258.2636873975215
 21
272.7232272615878
 31
0.0
  0
LINE
  5
136D
330
11E7
100
AcDbEntity
  8
AM_REFDIM
100
AcDbLine
 10
254.6386873975215
 20
271.4732272615878
 30
0.0
 11
256.3886873975215
 21
271.4732272615878
 31
0.0
  0
SOLID
  5
136E
330
11E7
100
AcDbEntity
  8
AM_REFDIM
100
AcDbTrace
 10
254.6386873975215
 20
271.7857272615878
 30
0.0
 11
254.6386873975215
 21
271.1607272615878
 31
0.0
 12
252.7636873975215
 22
271.4732272615878
 32
0.0
 13
252.7636873975215
 23
271.4732272615878
 33
0.0
  0
SOLID
  5
136F
330
11E7
100
AcDbEntity
  8
AM_REFDIM
100
AcDbTrace
 10
256.3886873975215
 20
271.7857272615878
 30
0.0
 11
256.3886873975215
 21
271.1607272615878
 31
0.0
 12
258.2636873975215
 22
271.4732272615878
 32
0.0
 13
258.2636873975215
 23
271.4732272615878
 33
0.0
  0
MTEXT
  5
1370
330
11E7
100
AcDbEntity
  8
AM_REFDIM
100
AcDbMText
 10
255.5136873975215
 20
273.0357272615878
 30
0.0
 40
1.875
 41
0.0
 71
     5
 72
     1
  1
\A1;5.5
  7
CHINESET
 73
     1
 44
1.0
1001
ACAD
1000
MTEXTBEGIN
1070
    73
1070
     1
1070
    44
1040
1.0
1070
    74
1070
     0
1000
MTEXTEND
  0
POINT
  5
1371
330
11E7
100
AcDbEntity
  8
Defpoints
 62
     0
100
AcDbPoint
 10
252.7636873975215
 20
260.1466639615862
 30
0.0
  0
POINT
  5
1372
330
11E7
100
AcDbEntity
  8
Defpoints
 62
     0
100
AcDbPoint
 10
258.2636873975215
 20
260.1466639615862
 30
0.0
  0
POINT
  5
1373
330
11E7
100
AcDbEntity
  8
Defpoints
 62
     0
100
AcDbPoint
 10
258.2636873975215
 20
271.4732272615878
 30
0.0
  0
ENDBLK
  5
11F2
330
11E7
100
AcDbEntity
  8
0
100
AcDbBlockEnd
  0
BLOCK
  5
11FD
330
11F3
100
AcDbEntity
  8
0
100
AcDbBlockBegin
  2
*D15
 70
     1
 10
0.0
 20
0.0
 30
0.0
  3
*D15
  1

  0
LINE
  5
1374
330
11F3
100
AcDbEntity
  8
AM_REFDIM
100
AcDbLine
 10
258.2636873975215
 20
262.0216639615862
 30
0.0
 11
258.2636873975215
 21
272.7232272615878
 31
0.0
  0
LINE
  5
1375
330
11F3
100
AcDbEntity
  8
AM_REFDIM
100
AcDbLine
 10
266.2636873975215
 20
263.0216639615862
 30
0.0
 11
266.2636873975215
 21
272.7232272615878
 31
0.0
  0
LINE
  5
1376
330
11F3
100
AcDbEntity
  8
AM_REFDIM
100
AcDbLine
 10
260.1386873975215
 20
271.4732272615878
 30
0.0
 11
264.3886873975215
 21
271.4732272615878
 31
0.0
  0
SOLID
  5
1377
330
11F3
100
AcDbEntity
  8
AM_REFDIM
100
AcDbTrace
 10
260.1386873975215
 20
271.7857272615878
 30
0.0
 11
260.1386873975215
 21
271.1607272615878
 31
0.0
 12
258.2636873975215
 22
271.4732272615878
 32
0.0
 13
258.2636873975215
 23
271.4732272615878
 33
0.0
  0
SOLID
  5
1378
330
11F3
100
AcDbEntity
  8
AM_REFDIM
100
AcDbTrace
 10
264.3886873975215
 20
271.7857272615878
 30
0.0
 11
264.3886873975215
 21
271.1607272615878
 31
0.0
 12
266.2636873975215
 22
271.4732272615878
 32
0.0
 13
266.2636873975215
 23
271.4732272615878
 33
0.0
  0
MTEXT
  5
1379
330
11F3
100
AcDbEntity
  8
AM_REFDIM
100
AcDbMText
 10
262.2636873975215
 20
273.0357272615878
 30
0.0
 40
1.875
 41
0.0
 71
     5
 72
     1
  1
\A1;8
  7
CHINESET
 73
     1
 44
1.0
1001
ACAD
1000
MTEXTBEGIN
1070
    73
1070
     1
1070
    44
1040
1.0
1070
    74
1070
     0
1000
MTEXTEND
  0
POINT
  5
137A
330
11F3
100
AcDbEntity
  8
Defpoints
 62
     0
100
AcDbPoint
 10
258.2636873975215
 20
260.1466639615862
 30
0.0
  0
POINT
  5
137B
330
11F3
100
AcDbEntity
  8
Defpoints
 62
     0
100
AcDbPoint
 10
266.2636873975215
 20
261.1466639615862
 30
0.0
  0
POINT
  5
137C
330
11F3
100
AcDbEntity
  8
Defpoints
 62
     0
100
AcDbPoint
 10
266.2636873975215
 20
271.4732272615878
 30
0.0
  0
ENDBLK
  5
11FE
330
11F3
100
AcDbEntity
  8
0
100
AcDbBlockEnd
  0
BLOCK
  5
1209
330
11FF
100
AcDbEntity
  8
0
100
AcDbBlockBegin
  2
*D16
 70
     1
 10
0.0
 20
0.0
 30
0.0
  3
*D16
  1

  0
LINE
  5
137D
330
11FF
100
AcDbEntity
  8
AM_REFDIM
100
AcDbLine
 10
266.2636873975215
 20
263.0216639615862
 30
0.0
 11
266.2636873975215
 21
267.1229753859195
 31
0.0
  0
LINE
  5
137E
330
11FF
100
AcDbEntity
  8
AM_REFDIM
100
AcDbLine
 10
279.2636873975215
 20
250.7716639615862
 30
0.0
 11
279.2636873975215
 21
267.1229753859195
 31
0.0
  0
LINE
  5
137F
330
11FF
100
AcDbEntity
  8
AM_REFDIM
100
AcDbLine
 10
268.1386873975215
 20
265.8729753859195
 30
0.0
 11
277.3886873975215
 21
265.8729753859195
 31
0.0
  0
SOLID
  5
1380
330
11FF
100
AcDbEntity
  8
AM_REFDIM
100
AcDbTrace
 10
268.1386873975215
 20
266.1854753859195
 30
0.0
 11
268.1386873975215
 21
265.5604753859195
 31
0.0
 12
266.2636873975215
 22
265.8729753859195
 32
0.0
 13
266.2636873975215
 23
265.8729753859195
 33
0.0
  0
SOLID
  5
1381
330
11FF
100
AcDbEntity
  8
AM_REFDIM
100
AcDbTrace
 10
277.3886873975215
 20
266.1854753859195
 30
0.0
 11
277.3886873975215
 21
265.5604753859195
 31
0.0
 12
279.2636873975215
 22
265.8729753859195
 32
0.0
 13
279.2636873975215
 23
265.8729753859195
 33
0.0
  0
MTEXT
  5
1382
330
11FF
100
AcDbEntity
  8
AM_REFDIM
100
AcDbMText
 10
272.7636873975215
 20
267.4354753859195
 30
0.0
 40
1.875
 41
0.0
 71
     5
 72
     1
  1
\A1;13
  7
CHINESET
 73
     1
 44
1.0
1001
ACAD
1000
MTEXTBEGIN
1070
    73
1070
     1
1070
    44
1040
1.0
1070
    74
1070
     0
1000
MTEXTEND
  0
POINT
  5
1383
330
11FF
100
AcDbEntity
  8
Defpoints
 62
     0
100
AcDbPoint
 10
266.2636873975215
 20
261.1466639615862
 30
0.0
  0
POINT
  5
1384
330
11FF
100
AcDbEntity
  8
Defpoints
 62
     0
100
AcDbPoint
 10
279.2636873975215
 20
248.8966639615862
 30
0.0
  0
POINT
  5
1385
330
11FF
100
AcDbEntity
  8
Defpoints
 62
     0
100
AcDbPoint
 10
279.2636873975215
 20
265.8729753859195
 30
0.0
  0
ENDBLK
  5
120A
330
11FF
100
AcDbEntity
  8
0
100
AcDbBlockEnd
  0
BLOCK
  5
1215
330
120B
100
AcDbEntity
  8
0
100
AcDbBlockBegin
  2
*D17
 70
     1
 10
0.0
 20
0.0
 30
0.0
  3
*D17
  1

  0
LINE
  5
1680
330
120B
100
AcDbEntity
  8
AM_REFDIM
100
AcDbLine
 10
279.2636873975215
 20
250.7716639615862
 30
0.0
 11
279.2636873975215
 21
267.1229753859195
 31
0.0
  0
LINE
  5
1681
330
120B
100
AcDbEntity
  8
AM_REFDIM
100
AcDbLine
 10
294.2636873975215
 20
250.7716639615862
 30
0.0
 11
294.2636873975215
 21
267.1229753859195
 31
0.0
  0
LINE
  5
1682
330
120B
100
AcDbEntity
  8
AM_REFDIM
100
AcDbLine
 10
277.3886873975215
 20
265.8729753859195
 30
0.0
 11
275.5136873975215
 21
265.8729753859195
 31
0.0
  0
LINE
  5
1683
330
120B
100
AcDbEntity
  8
AM_REFDIM
100
AcDbLine
 10
296.1386873975215
 20
265.8729753859195
 30
0.0
 11
318.1922588260929
 21
265.8729753859195
 31
0.0
  0
LINE
  5
1684
330
120B
100
AcDbEntity
  8
AM_REFDIM
100
AcDbLine
 10
279.2636873975215
 20
265.8729753859195
 30
0.0
 11
294.2636873975215
 21
265.8729753859195
 31
0.0
  0
SOLID
  5
1685
330
120B
100
AcDbEntity
  8
AM_REFDIM
100
AcDbTrace
 10
277.3886873975215
 20
266.1854753859195
 30
0.0
 11
277.3886873975215
 21
265.5604753859195
 31
0.0
 12
279.2636873975215
 22
265.8729753859195
 32
0.0
 13
279.2636873975215
 23
265.8729753859195
 33
0.0
  0
SOLID
  5
1686
330
120B
100
AcDbEntity
  8
AM_REFDIM
100
AcDbTrace
 10
296.1386873975215
 20
266.1854753859195
 30
0.0
 11
296.1386873975215
 21
265.5604753859195
 31
0.0
 12
294.2636873975215
 22
265.8729753859195
 32
0.0
 13
294.2636873975215
 23
265.8729753859195
 33
0.0
  0
MTEXT
  5
1687
330
120B
100
AcDbEntity
  8
AM_REFDIM
100
AcDbMText
 10
308.1029731118072
 20
267.9265468144909
 30
0.0
 40
1.875
 41
0.0
 71
     5
 72
     1
  1
\A1;10+1/2stroke
  7
CHINESET
 73
     1
 44
1.0
1001
ACAD
1000
MTEXTBEGIN
1070
    73
1070
     1
1070
    44
1040
1.0
1070
    74
1070
     0
1000
MTEXTEND
  0
POINT
  5
1688
330
120B
100
AcDbEntity
  8
Defpoints
 62
     0
100
AcDbPoint
 10
279.2636873975215
 20
248.8966639615862
 30
0.0
  0
POINT
  5
1689
330
120B
100
AcDbEntity
  8
Defpoints
 62
     0
100
AcDbPoint
 10
294.2636873975215
 20
248.8966639615862
 30
0.0
  0
POINT
  5
168A
330
120B
100
AcDbEntity
  8
Defpoints
 62
     0
100
AcDbPoint
 10
294.2636873975215
 20
265.8729753859195
 30
0.0
  0
ENDBLK
  5
1216
330
120B
100
AcDbEntity
  8
0
100
AcDbBlockEnd
  0
BLOCK
  5
1221
330
1217
100
AcDbEntity
  8
0
100
AcDbBlockBegin
  2
*D18
 70
     1
 10
0.0
 20
0.0
 30
0.0
  3
*D18
  1

  0
LINE
  5
1676
330
1217
100
AcDbEntity
  8
AM_REFDIM
100
AcDbLine
 10
266.2636873975215
 20
263.0216639615862
 30
0.0
 11
266.2636873975215
 21
272.7232272615878
 31
0.0
  0
LINE
  5
1677
330
1217
100
AcDbEntity
  8
AM_REFDIM
100
AcDbLine
 10
321.2636873975215
 20
263.0216639615862
 30
0.0
 11
321.2636873975215
 21
272.7232272615878
 31
0.0
  0
LINE
  5
1678
330
1217
100
AcDbEntity
  8
AM_REFDIM
100
AcDbLine
 10
268.1386873975215
 20
271.4732272615878
 30
0.0
 11
319.3886873975215
 21
271.4732272615878
 31
0.0
  0
SOLID
  5
1679
330
1217
100
AcDbEntity
  8
AM_REFDIM
100
AcDbTrace
 10
268.1386873975215
 20
271.7857272615878
 30
0.0
 11
268.1386873975215
 21
271.1607272615878
 31
0.0
 12
266.2636873975215
 22
271.4732272615878
 32
0.0
 13
266.2636873975215
 23
271.4732272615878
 33
0.0
  0
SOLID
  5
167A
330
1217
100
AcDbEntity
  8
AM_REFDIM
100
AcDbTrace
 10
319.3886873975215
 20
271.7857272615878
 30
0.0
 11
319.3886873975215
 21
271.1607272615878
 31
0.0
 12
321.2636873975215
 22
271.4732272615878
 32
0.0
 13
321.2636873975215
 23
271.4732272615878
 33
0.0
  0
MTEXT
  5
167B
330
1217
100
AcDbEntity
  8
AM_REFDIM
100
AcDbMText
 10
293.7636873975215
 20
273.0357272615878
 30
0.0
 40
1.875
 41
0.0
 71
     5
 72
     1
  1
\A1;45+stroke
  7
CHINESET
 73
     1
 44
1.0
1001
ACAD
1000
MTEXTBEGIN
1070
    73
1070
     1
1070
    44
1040
1.0
1070
    74
1070
     0
1000
MTEXTEND
  0
POINT
  5
167C
330
1217
100
AcDbEntity
  8
Defpoints
 62
     0
100
AcDbPoint
 10
266.2636873975215
 20
261.1466639615862
 30
0.0
  0
POINT
  5
167D
330
1217
100
AcDbEntity
  8
Defpoints
 62
     0
100
AcDbPoint
 10
321.2636873975215
 20
261.1466639615862
 30
0.0
  0
POINT
  5
167E
330
1217
100
AcDbEntity
  8
Defpoints
 62
     0
100
AcDbPoint
 10
321.2636873975215
 20
271.4732272615878
 30
0.0
  0
ENDBLK
  5
1222
330
1217
100
AcDbEntity
  8
0
100
AcDbBlockEnd
  0
BLOCK
  5
122D
330
1223
100
AcDbEntity
  8
0
100
AcDbBlockBegin
  2
*D19
 70
     1
 10
0.0
 20
0.0
 30
0.0
  3
*D19
  1

  0
LINE
  5
166C
330
1223
100
AcDbEntity
  8
AM_REFDIM
100
AcDbLine
 10
252.7636873975215
 20
262.0216639615862
 30
0.0
 11
252.7636873975215
 21
277.6296322310589
 31
0.0
  0
LINE
  5
166D
330
1223
100
AcDbEntity
  8
AM_REFDIM
100
AcDbLine
 10
321.2636873975215
 20
263.0216639615862
 30
0.0
 11
321.2636873975215
 21
277.6296322310589
 31
0.0
  0
LINE
  5
166E
330
1223
100
AcDbEntity
  8
AM_REFDIM
100
AcDbLine
 10
254.6386873975215
 20
276.3796322310589
 30
0.0
 11
319.3886873975215
 21
276.3796322310589
 31
0.0
  0
SOLID
  5
166F
330
1223
100
AcDbEntity
  8
AM_REFDIM
100
AcDbTrace
 10
254.6386873975215
 20
276.6921322310588
 30
0.0
 11
254.6386873975215
 21
276.0671322310589
 31
0.0
 12
252.7636873975215
 22
276.3796322310589
 32
0.0
 13
252.7636873975215
 23
276.3796322310589
 33
0.0
  0
SOLID
  5
1670
330
1223
100
AcDbEntity
  8
AM_REFDIM
100
AcDbTrace
 10
319.3886873975215
 20
276.6921322310588
 30
0.0
 11
319.3886873975215
 21
276.0671322310589
 31
0.0
 12
321.2636873975215
 22
276.3796322310589
 32
0.0
 13
321.2636873975215
 23
276.3796322310589
 33
0.0
  0
MTEXT
  5
1671
330
1223
100
AcDbEntity
  8
AM_REFDIM
100
AcDbMText
 10
287.0136873975215
 20
277.9421322310589
 30
0.0
 40
1.875
 41
0.0
 71
     5
 72
     1
  1
\A1;58.5+stroke
  7
CHINESET
 73
     1
 44
1.0
1001
ACAD
1000
MTEXTBEGIN
1070
    73
1070
     1
1070
    44
1040
1.0
1070
    74
1070
     0
1000
MTEXTEND
  0
POINT
  5
1672
330
1223
100
AcDbEntity
  8
Defpoints
 62
     0
100
AcDbPoint
 10
252.7636873975215
 20
260.1466639615862
 30
0.0
  0
POINT
  5
1673
330
1223
100
AcDbEntity
  8
Defpoints
 62
     0
100
AcDbPoint
 10
321.2636873975215
 20
261.1466639615862
 30
0.0
  0
POINT
  5
1674
330
1223
100
AcDbEntity
  8
Defpoints
 62
     0
100
AcDbPoint
 10
321.2636873975215
 20
276.3796322310589
 30
0.0
  0
ENDBLK
  5
122E
330
1223
100
AcDbEntity
  8
0
100
AcDbBlockEnd
  0
BLOCK
  5
1239
330
122F
100
AcDbEntity
  8
0
100
AcDbBlockBegin
  2
*D20
 70
     1
 10
0.0
 20
0.0
 30
0.0
  3
*D20
  1

  0
LINE
  5
13A1
330
122F
100
AcDbEntity
  8
AM_REFDIM
100
AcDbLine
 10
354.8657607775079
 20
253.9966639615862
 30
0.0
 11
351.1923599652927
 21
253.9966639615862
 31
0.0
  0
LINE
  5
13A2
330
122F
100
AcDbEntity
  8
AM_REFDIM
100
AcDbLine
 10
355.2592417154775
 20
231.2966639615862
 30
0.0
 11
351.1923599652927
 21
231.2966639615862
 31
0.0
  0
LINE
  5
13A3
330
122F
100
AcDbEntity
  8
AM_REFDIM
100
AcDbLine
 10
352.4423599652927
 20
252.1216639615862
 30
0.0
 11
352.4423599652927
 21
233.1716639615862
 31
0.0
  0
SOLID
  5
13A4
330
122F
100
AcDbEntity
  8
AM_REFDIM
100
AcDbTrace
 10
352.1298599652927
 20
252.1216639615862
 30
0.0
 11
352.7548599652927
 21
252.1216639615862
 31
0.0
 12
352.4423599652927
 22
253.9966639615862
 32
0.0
 13
352.4423599652927
 23
253.9966639615862
 33
0.0
  0
SOLID
  5
13A5
330
122F
100
AcDbEntity
  8
AM_REFDIM
100
AcDbTrace
 10
352.1298599652927
 20
233.1716639615862
 30
0.0
 11
352.7548599652927
 21
233.1716639615862
 31
0.0
 12
352.4423599652927
 22
231.2966639615862
 32
0.0
 13
352.4423599652927
 23
231.2966639615862
 33
0.0
  0
MTEXT
  5
13A6
330
122F
100
AcDbEntity
  8
AM_REFDIM
100
AcDbMText
 10
350.8798599652926
 20
242.6466639615862
 30
0.0
 40
1.875
 41
0.0
 71
     5
 72
     1
  1
\A1;22.7
  7
CHINESET
 11
0.0000000000000001
 21
1.0
 31
0.0
 73
     1
 44
1.0
1001
ACAD
1000
MTEXTBEGIN
1070
    73
1070
     1
1070
    44
1040
1.0
1070
    74
1070
     0
1000
MTEXTEND
  0
POINT
  5
13A7
330
122F
100
AcDbEntity
  8
Defpoints
 62
     0
100
AcDbPoint
 10
356.7407607775079
 20
253.9966639615862
 30
0.0
  0
POINT
  5
13A8
330
122F
100
AcDbEntity
  8
Defpoints
 62
     0
100
AcDbPoint
 10
357.1342417154775
 20
231.2966639615862
 30
0.0
  0
POINT
  5
13A9
330
122F
100
AcDbEntity
  8
Defpoints
 62
     0
100
AcDbPoint
 10
352.4423599652927
 20
231.2966639615862
 30
0.0
  0
ENDBLK
  5
123A
330
122F
100
AcDbEntity
  8
0
100
AcDbBlockEnd
  0
BLOCK
  5
1245
330
123B
100
AcDbEntity
  8
0
100
AcDbBlockBegin
  2
*D21
 70
     1
 10
0.0
 20
0.0
 30
0.0
  3
*D21
  1

  0
LINE
  5
13AA
330
123B
100
AcDbEntity
  8
AM_REFDIM
100
AcDbLine
 10
368.3169077902754
 20
226.3466639615862
 30
0.0
 11
368.3169077902754
 21
216.9981658502558
 31
0.0
  0
LINE
  5
13AB
330
123B
100
AcDbEntity
  8
AM_REFDIM
100
AcDbLine
 10
374.3169077902753
 20
222.9716639615862
 30
0.0
 11
374.3169077902753
 21
216.9981658502558
 31
0.0
  0
LINE
  5
13AC
330
123B
100
AcDbEntity
  8
AM_REFDIM
100
AcDbLine
 10
370.1919077902754
 20
218.2481658502558
 30
0.0
 11
372.4419077902754
 21
218.2481658502558
 31
0.0
  0
SOLID
  5
13AD
330
123B
100
AcDbEntity
  8
AM_REFDIM
100
AcDbTrace
 10
370.1919077902754
 20
218.5606658502558
 30
0.0
 11
370.1919077902754
 21
217.9356658502558
 31
0.0
 12
368.3169077902754
 22
218.2481658502558
 32
0.0
 13
368.3169077902754
 23
218.2481658502558
 33
0.0
  0
SOLID
  5
13AE
330
123B
100
AcDbEntity
  8
AM_REFDIM
100
AcDbTrace
 10
372.4419077902754
 20
218.5606658502558
 30
0.0
 11
372.4419077902754
 21
217.9356658502558
 31
0.0
 12
374.3169077902753
 22
218.2481658502558
 32
0.0
 13
374.3169077902753
 23
218.2481658502558
 33
0.0
  0
MTEXT
  5
13AF
330
123B
100
AcDbEntity
  8
AM_REFDIM
100
AcDbMText
 10
371.3169077902754
 20
219.8106658502558
 30
0.0
 40
1.875
 41
0.0
 71
     5
 72
     1
  1
\A1;6
  7
CHINESET
 73
     1
 44
1.0
1001
ACAD
1000
MTEXTBEGIN
1070
    73
1070
     1
1070
    44
1040
1.0
1070
    74
1070
     0
1000
MTEXTEND
  0
POINT
  5
13B0
330
123B
100
AcDbEntity
  8
Defpoints
 62
     0
100
AcDbPoint
 10
368.3169077902754
 20
228.2216639615862
 30
0.0
  0
POINT
  5
13B1
330
123B
100
AcDbEntity
  8
Defpoints
 62
     0
100
AcDbPoint
 10
374.3169077902753
 20
224.8466639615862
 30
0.0
  0
POINT
  5
13B2
330
123B
100
AcDbEntity
  8
Defpoints
 62
     0
100
AcDbPoint
 10
374.3169077902753
 20
218.2481658502558
 30
0.0
  0
ENDBLK
  5
1246
330
123B
100
AcDbEntity
  8
0
100
AcDbBlockEnd
  0
BLOCK
  5
144D
330
1247
100
AcDbEntity
  8
0
100
AcDbBlockBegin
  2
*D22
 70
     1
 10
0.0
 20
0.0
 30
0.0
  3
*D22
  1

  0
LINE
  5
13B3
330
1247
100
AcDbEntity
  8
AM_REFDIM
100
AcDbLine
 10
371.3169077902754
 20
247.3216639615862
 30
0.0
 11
371.3169077902754
 21
267.1229753859195
 31
0.0
  0
LINE
  5
13B4
330
1247
100
AcDbEntity
  8
AM_REFDIM
100
AcDbLine
 10
374.3169077902753
 20
262.3216639615862
 30
0.0
 11
374.3169077902753
 21
267.1229753859195
 31
0.0
  0
LINE
  5
13B5
330
1247
100
AcDbEntity
  8
AM_REFDIM
100
AcDbLine
 10
369.4419077902754
 20
265.8729753859195
 30
0.0
 11
367.5669077902754
 21
265.8729753859195
 31
0.0
  0
LINE
  5
13B6
330
1247
100
AcDbEntity
  8
AM_REFDIM
100
AcDbLine
 10
376.1919077902754
 20
265.8729753859195
 30
0.0
 11
378.0669077902754
 21
265.8729753859195
 31
0.0
  0
LINE
  5
13B7
330
1247
100
AcDbEntity
  8
AM_REFDIM
100
AcDbLine
 10
371.3169077902754
 20
265.8729753859195
 30
0.0
 11
374.3169077902753
 21
265.8729753859195
 31
0.0
  0
INSERT
  5
13B8
330
1247
100
AcDbEntity
  8
AM_REFDIM
100
AcDbBlockReference
  2
GENDOT
 10
371.3169077902754
 20
265.8729753859195
 30
0.0
 41
1.875
 42
1.875
 43
1.875
  0
SOLID
  5
13B9
330
1247
100
AcDbEntity
  8
AM_REFDIM
100
AcDbTrace
 10
376.1919077902754
 20
266.1854753859195
 30
0.0
 11
376.1919077902754
 21
265.5604753859195
 31
0.0
 12
374.3169077902753
 22
265.8729753859195
 32
0.0
 13
374.3169077902753
 23
265.8729753859195
 33
0.0
  0
MTEXT
  5
13BA
330
1247
100
AcDbEntity
  8
AM_REFDIM
100
AcDbMText
 10
372.8169077902754
 20
267.4354753859195
 30
0.0
 40
1.875
 41
0.0
 71
     5
 72
     1
  1
\A1;3
  7
CHINESET
 73
     1
 44
1.0
1001
ACAD
1000
MTEXTBEGIN
1070
    73
1070
     1
1070
    44
1040
1.0
1070
    74
1070
     0
1000
MTEXTEND
  0
POINT
  5
13BB
330
1247
100
AcDbEntity
  8
Defpoints
 62
     0
100
AcDbPoint
 10
371.3169077902754
 20
245.4466639615862
 30
0.0
  0
POINT
  5
13BC
330
1247
100
AcDbEntity
  8
Defpoints
 62
     0
100
AcDbPoint
 10
374.3169077902753
 20
260.4466639615862
 30
0.0
  0
POINT
  5
13BD
330
1247
100
AcDbEntity
  8
Defpoints
 62
     0
100
AcDbPoint
 10
374.3169077902753
 20
265.8729753859195
 30
0.0
  0
ENDBLK
  5
144E
330
1247
100
AcDbEntity
  8
0
100
AcDbBlockEnd
  0
BLOCK
  5
144F
330
1253
100
AcDbEntity
  8
0
100
AcDbBlockBegin
  2
*D23
 70
     1
 10
0.0
 20
0.0
 30
0.0
  3
*D23
  1

  0
LINE
  5
13BE
330
1253
100
AcDbEntity
  8
AM_REFDIM
100
AcDbLine
 10
368.3169077902754
 20
258.9466639615862
 30
0.0
 11
368.3169077902754
 21
267.1229753859195
 31
0.0
  0
LINE
  5
13BF
330
1253
100
AcDbEntity
  8
AM_REFDIM
100
AcDbLine
 10
371.3169077902754
 20
247.3216639615862
 30
0.0
 11
371.3169077902754
 21
267.1229753859195
 31
0.0
  0
LINE
  5
13C0
330
1253
100
AcDbEntity
  8
AM_REFDIM
100
AcDbLine
 10
366.4419077902754
 20
265.8729753859195
 30
0.0
 11
364.5669077902754
 21
265.8729753859195
 31
0.0
  0
LINE
  5
13C1
330
1253
100
AcDbEntity
  8
AM_REFDIM
100
AcDbLine
 10
373.1919077902754
 20
265.8729753859195
 30
0.0
 11
375.0669077902754
 21
265.8729753859195
 31
0.0
  0
LINE
  5
13C2
330
1253
100
AcDbEntity
  8
AM_REFDIM
100
AcDbLine
 10
368.3169077902754
 20
265.8729753859195
 30
0.0
 11
371.3169077902754
 21
265.8729753859195
 31
0.0
  0
SOLID
  5
13C3
330
1253
100
AcDbEntity
  8
AM_REFDIM
100
AcDbTrace
 10
366.4419077902754
 20
266.1854753859195
 30
0.0
 11
366.4419077902754
 21
265.5604753859195
 31
0.0
 12
368.3169077902754
 22
265.8729753859195
 32
0.0
 13
368.3169077902754
 23
265.8729753859195
 33
0.0
  0
INSERT
  5
13C4
330
1253
100
AcDbEntity
  8
AM_REFDIM
100
AcDbBlockReference
  2
GENDOT
 10
371.3169077902754
 20
265.8729753859195
 30
0.0
 41
1.875
 42
1.875
 43
1.875
 50
180.0
  0
MTEXT
  5
13C5
330
1253
100
AcDbEntity
  8
AM_REFDIM
100
AcDbMText
 10
369.8169077902754
 20
267.4354753859195
 30
0.0
 40
1.875
 41
0.0
 71
     5
 72
     1
  1
\A1;3
  7
CHINESET
 73
     1
 44
1.0
1001
ACAD
1000
MTEXTBEGIN
1070
    73
1070
     1
1070
    44
1040
1.0
1070
    74
1070
     0
1000
MTEXTEND
  0
POINT
  5
13C6
330
1253
100
AcDbEntity
  8
Defpoints
 62
     0
100
AcDbPoint
 10
368.3169077902754
 20
257.0716639615862
 30
0.0
  0
POINT
  5
13C7
330
1253
100
AcDbEntity
  8
Defpoints
 62
     0
100
AcDbPoint
 10
371.3169077902754
 20
245.4466639615862
 30
0.0
  0
POINT
  5
13C8
330
1253
100
AcDbEntity
  8
Defpoints
 62
     0
100
AcDbPoint
 10
371.3169077902754
 20
265.8729753859195
 30
0.0
  0
ENDBLK
  5
1450
330
1253
100
AcDbEntity
  8
0
100
AcDbBlockEnd
  0
BLOCK
  5
126B
330
125F
100
AcDbEntity
  8
0
100
AcDbBlockBegin
  2
*D24
 70
     1
 10
0.0
 20
0.0
 30
0.0
  3
*D24
  1

  0
LINE
  5
13C9
330
125F
100
AcDbEntity
  8
AM_REFDIM
100
AcDbLine
 10
375.8919077902754
 20
241.0466639615862
 30
0.0
 11
383.4885134142017
 21
241.0466639615862
 31
0.0
  0
LINE
  5
13CA
330
125F
100
AcDbEntity
  8
AM_REFDIM
100
AcDbLine
 10
375.8919077902754
 20
244.2466639615862
 30
0.0
 11
383.4885134142017
 21
244.2466639615862
 31
0.0
  0
LINE
  5
13CB
330
125F
100
AcDbEntity
  8
AM_REFDIM
100
AcDbLine
 10
382.2385134142017
 20
239.1716639615862
 30
0.0
 11
382.2385134142017
 21
237.2966639615862
 31
0.0
  0
LINE
  5
13CC
330
125F
100
AcDbEntity
  8
AM_REFDIM
100
AcDbLine
 10
382.2385134142017
 20
246.1216639615862
 30
0.0
 11
382.2385134142017
 21
253.1752353901576
 31
0.0
  0
LINE
  5
13CD
330
125F
100
AcDbEntity
  8
AM_REFDIM
100
AcDbLine
 10
382.2385134142017
 20
241.0466639615862
 30
0.0
 11
382.2385134142017
 21
244.2466639615862
 31
0.0
  0
SOLID
  5
13CE
330
125F
100
AcDbEntity
  8
AM_REFDIM
100
AcDbTrace
 10
381.9260134142017
 20
239.1716639615862
 30
0.0
 11
382.5510134142017
 21
239.1716639615862
 31
0.0
 12
382.2385134142017
 22
241.0466639615862
 32
0.0
 13
382.2385134142017
 23
241.0466639615862
 33
0.0
  0
SOLID
  5
13CF
330
125F
100
AcDbEntity
  8
AM_REFDIM
100
AcDbTrace
 10
381.9260134142017
 20
246.1216639615862
 30
0.0
 11
382.5510134142017
 21
246.1216639615862
 31
0.0
 12
382.2385134142017
 22
244.2466639615862
 32
0.0
 13
382.2385134142017
 23
244.2466639615862
 33
0.0
  0
MTEXT
  5
13D0
330
125F
100
AcDbEntity
  8
AM_REFDIM
100
AcDbMText
 10
380.6760134142016
 20
250.585949675872
 30
0.0
 40
1.875
 41
0.0
 71
     5
 72
     1
  1
\A1;3.2
  7
CHINESET
 11
0.0000000000000001
 21
1.0
 31
0.0
 73
     1
 44
1.0
1001
ACAD
1000
MTEXTBEGIN
1070
    73
1070
     1
1070
    44
1040
1.0
1070
    74
1070
     0
1000
MTEXTEND
  0
POINT
  5
13D1
330
125F
100
AcDbEntity
  8
Defpoints
 62
     0
100
AcDbPoint
 10
374.0169077902753
 20
241.0466639615862
 30
0.0
  0
POINT
  5
13D2
330
125F
100
AcDbEntity
  8
Defpoints
 62
     0
100
AcDbPoint
 10
374.0169077902753
 20
244.2466639615862
 30
0.0
  0
POINT
  5
13D3
330
125F
100
AcDbEntity
  8
Defpoints
 62
     0
100
AcDbPoint
 10
382.2385134142017
 20
244.2466639615862
 30
0.0
  0
ENDBLK
  5
126C
330
125F
100
AcDbEntity
  8
0
100
AcDbBlockEnd
  0
BLOCK
  5
1277
330
126D
100
AcDbEntity
  8
0
100
AcDbBlockBegin
  2
*D25
 70
     1
 10
0.0
 20
0.0
 30
0.0
  3
*D25
  1

  0
LINE
  5
13D4
330
126D
100
AcDbEntity
  8
AM_REFDIM
100
AcDbLine
 10
373.1919077902754
 20
245.4466639615862
 30
0.0
 11
390.2090528860636
 21
245.4466639615862
 31
0.0
  0
LINE
  5
13D5
330
126D
100
AcDbEntity
  8
AM_REFDIM
100
AcDbLine
 10
373.1919077902754
 20
239.8466639615862
 30
0.0
 11
390.2090528860636
 21
239.8466639615862
 31
0.0
  0
LINE
  5
13D6
330
126D
100
AcDbEntity
  8
AM_REFDIM
100
AcDbLine
 10
388.9590528860636
 20
243.5716639615862
 30
0.0
 11
388.9590528860636
 21
241.7216639615862
 31
0.0
  0
SOLID
  5
13D7
330
126D
100
AcDbEntity
  8
AM_REFDIM
100
AcDbTrace
 10
388.6465528860636
 20
243.5716639615862
 30
0.0
 11
389.2715528860636
 21
243.5716639615862
 31
0.0
 12
388.9590528860636
 22
245.4466639615862
 32
0.0
 13
388.9590528860636
 23
245.4466639615862
 33
0.0
  0
SOLID
  5
13D8
330
126D
100
AcDbEntity
  8
AM_REFDIM
100
AcDbTrace
 10
388.6465528860636
 20
241.7216639615862
 30
0.0
 11
389.2715528860636
 21
241.7216639615862
 31
0.0
 12
388.9590528860636
 22
239.8466639615862
 32
0.0
 13
388.9590528860636
 23
239.8466639615862
 33
0.0
  0
MTEXT
  5
13D9
330
126D
100
AcDbEntity
  8
AM_REFDIM
100
AcDbMText
 10
387.3965528860635
 20
242.6466639615862
 30
0.0
 40
1.875
 41
0.0
 71
     5
 72
     1
  1
\A1;5.6
  7
CHINESET
 11
0.0000000000000001
 21
1.0
 31
0.0
 73
     1
 44
1.0
1001
ACAD
1000
MTEXTBEGIN
1070
    73
1070
     1
1070
    44
1040
1.0
1070
    74
1070
     0
1000
MTEXTEND
  0
POINT
  5
13DA
330
126D
100
AcDbEntity
  8
Defpoints
 62
     0
100
AcDbPoint
 10
371.3169077902754
 20
245.4466639615862
 30
0.0
  0
POINT
  5
13DB
330
126D
100
AcDbEntity
  8
Defpoints
 62
     0
100
AcDbPoint
 10
371.3169077902754
 20
239.8466639615862
 30
0.0
  0
POINT
  5
13DC
330
126D
100
AcDbEntity
  8
Defpoints
 62
     0
100
AcDbPoint
 10
388.9590528860636
 20
239.8466639615862
 30
0.0
  0
ENDBLK
  5
1278
330
126D
100
AcDbEntity
  8
0
100
AcDbBlockEnd
  0
BLOCK
  5
1283
330
1279
100
AcDbEntity
  8
0
100
AcDbBlockBegin
  2
*D26
 70
     1
 10
0.0
 20
0.0
 30
0.0
  3
*D26
  1

  0
LINE
  5
13DD
330
1279
100
AcDbEntity
  8
AM_REFDIM
100
AcDbLine
 10
376.6169077902754
 20
250.6466639615862
 30
0.0
 11
395.5981643733114
 21
250.6466639615862
 31
0.0
  0
LINE
  5
13DE
330
1279
100
AcDbEntity
  8
AM_REFDIM
100
AcDbLine
 10
376.6169077902754
 20
234.6466639615862
 30
0.0
 11
395.5981643733114
 21
234.6466639615862
 31
0.0
  0
LINE
  5
13DF
330
1279
100
AcDbEntity
  8
AM_REFDIM
100
AcDbLine
 10
394.3481643733114
 20
248.7716639615862
 30
0.0
 11
394.3481643733114
 21
236.5216639615862
 31
0.0
  0
SOLID
  5
13E0
330
1279
100
AcDbEntity
  8
AM_REFDIM
100
AcDbTrace
 10
394.0356643733114
 20
248.7716639615862
 30
0.0
 11
394.6606643733113
 21
248.7716639615862
 31
0.0
 12
394.3481643733114
 22
250.6466639615862
 32
0.0
 13
394.3481643733114
 23
250.6466639615862
 33
0.0
  0
SOLID
  5
13E1
330
1279
100
AcDbEntity
  8
AM_REFDIM
100
AcDbTrace
 10
394.0356643733114
 20
236.5216639615862
 30
0.0
 11
394.6606643733113
 21
236.5216639615862
 31
0.0
 12
394.3481643733114
 22
234.6466639615862
 32
0.0
 13
394.3481643733114
 23
234.6466639615862
 33
0.0
  0
MTEXT
  5
13E2
330
1279
100
AcDbEntity
  8
AM_REFDIM
100
AcDbMText
 10
392.7856643733113
 20
242.6466639615862
 30
0.0
 40
1.875
 41
0.0
 71
     5
 72
     1
  1
\A1;16
  7
CHINESET
 11
0.0000000000000001
 21
1.0
 31
0.0
 73
     1
 44
1.0
1001
ACAD
1000
MTEXTBEGIN
1070
    73
1070
     1
1070
    44
1040
1.0
1070
    74
1070
     0
1000
MTEXTEND
  0
POINT
  5
13E3
330
1279
100
AcDbEntity
  8
Defpoints
 62
     0
100
AcDbPoint
 10
374.7419077902754
 20
250.6466639615862
 30
0.0
  0
POINT
  5
13E4
330
1279
100
AcDbEntity
  8
Defpoints
 62
     0
100
AcDbPoint
 10
374.7419077902754
 20
234.6466639615862
 30
0.0
  0
POINT
  5
13E5
330
1279
100
AcDbEntity
  8
Defpoints
 62
     0
100
AcDbPoint
 10
394.3481643733114
 20
234.6466639615862
 30
0.0
  0
ENDBLK
  5
1284
330
1279
100
AcDbEntity
  8
0
100
AcDbBlockEnd
  0
BLOCK
  5
128F
330
1285
100
AcDbEntity
  8
0
100
AcDbBlockBegin
  2
*D27
 70
     1
 10
0.0
 20
0.0
 30
0.0
  3
*D27
  1

  0
LINE
  5
13E6
330
1285
100
AcDbEntity
  8
AM_REFDIM
100
AcDbLine
 10
377.4914077902754
 20
256.6466639615862
 30
0.0
 11
400.8676934600329
 21
256.6466639615862
 31
0.0
  0
LINE
  5
13E7
330
1285
100
AcDbEntity
  8
AM_REFDIM
100
AcDbLine
 10
377.4914077902754
 20
228.6466639615862
 30
0.0
 11
400.8676934600329
 21
228.6466639615862
 31
0.0
  0
LINE
  5
13E8
330
1285
100
AcDbEntity
  8
AM_REFDIM
100
AcDbLine
 10
399.6176934600328
 20
254.7716639615862
 30
0.0
 11
399.6176934600328
 21
230.5216639615862
 31
0.0
  0
SOLID
  5
13E9
330
1285
100
AcDbEntity
  8
AM_REFDIM
100
AcDbTrace
 10
399.3051934600329
 20
254.7716639615862
 30
0.0
 11
399.9301934600329
 21
254.7716639615862
 31
0.0
 12
399.6176934600328
 22
256.6466639615862
 32
0.0
 13
399.6176934600328
 23
256.6466639615862
 33
0.0
  0
SOLID
  5
13EA
330
1285
100
AcDbEntity
  8
AM_REFDIM
100
AcDbTrace
 10
399.3051934600329
 20
230.5216639615862
 30
0.0
 11
399.9301934600329
 21
230.5216639615862
 31
0.0
 12
399.6176934600328
 22
228.6466639615862
 32
0.0
 13
399.6176934600328
 23
228.6466639615862
 33
0.0
  0
MTEXT
  5
13EB
330
1285
100
AcDbEntity
  8
AM_REFDIM
100
AcDbMText
 10
398.0551934600328
 20
242.6466639615862
 30
0.0
 40
1.875
 41
0.0
 71
     5
 72
     1
  1
\A1;28
  7
CHINESET
 11
0.0000000000000001
 21
1.0
 31
0.0
 73
     1
 44
1.0
1001
ACAD
1000
MTEXTBEGIN
1070
    73
1070
     1
1070
    44
1040
1.0
1070
    74
1070
     0
1000
MTEXTEND
  0
POINT
  5
13EC
330
1285
100
AcDbEntity
  8
Defpoints
 62
     0
100
AcDbPoint
 10
375.6164077902754
 20
256.6466639615862
 30
0.0
  0
POINT
  5
13ED
330
1285
100
AcDbEntity
  8
Defpoints
 62
     0
100
AcDbPoint
 10
375.6164077902754
 20
228.6466639615862
 30
0.0
  0
POINT
  5
13EE
330
1285
100
AcDbEntity
  8
Defpoints
 62
     0
100
AcDbPoint
 10
399.6176934600328
 20
228.6466639615862
 30
0.0
  0
ENDBLK
  5
1290
330
1285
100
AcDbEntity
  8
0
100
AcDbBlockEnd
  0
BLOCK
  5
129B
330
1291
100
AcDbEntity
  8
0
100
AcDbBlockBegin
  2
*D28
 70
     1
 10
0.0
 20
0.0
 30
0.0
  3
*D28
  1

  0
LINE
  5
13EF
330
1291
100
AcDbEntity
  8
AM_REFDIM
100
AcDbLine
 10
266.2636873975215
 20
208.084615486265
 30
0.0
 11
266.2636873975215
 21
213.2193654519911
 31
0.0
  0
LINE
  5
13F0
330
1291
100
AcDbEntity
  8
AM_REFDIM
100
AcDbLine
 10
276.2636873975215
 20
204.384115486265
 30
0.0
 11
276.2636873975215
 21
213.2193654519911
 31
0.0
  0
LINE
  5
13F1
330
1291
100
AcDbEntity
  8
AM_REFDIM
100
AcDbLine
 10
268.1386873975215
 20
211.969365451991
 30
0.0
 11
274.3886873975215
 21
211.969365451991
 31
0.0
  0
SOLID
  5
13F2
330
1291
100
AcDbEntity
  8
AM_REFDIM
100
AcDbTrace
 10
268.1386873975215
 20
212.281865451991
 30
0.0
 11
268.1386873975215
 21
211.6568654519911
 31
0.0
 12
266.2636873975215
 22
211.969365451991
 32
0.0
 13
266.2636873975215
 23
211.969365451991
 33
0.0
  0
SOLID
  5
13F3
330
1291
100
AcDbEntity
  8
AM_REFDIM
100
AcDbTrace
 10
274.3886873975215
 20
212.281865451991
 30
0.0
 11
274.3886873975215
 21
211.6568654519911
 31
0.0
 12
276.2636873975215
 22
211.969365451991
 32
0.0
 13
276.2636873975215
 23
211.969365451991
 33
0.0
  0
MTEXT
  5
13F4
330
1291
100
AcDbEntity
  8
AM_REFDIM
100
AcDbMText
 10
271.2636873975215
 20
213.531865451991
 30
0.0
 40
1.875
 41
0.0
 71
     5
 72
     1
  1
\A1;10
  7
CHINESET
 73
     1
 44
1.0
1001
ACAD
1000
MTEXTBEGIN
1070
    73
1070
     1
1070
    44
1040
1.0
1070
    74
1070
     0
1000
MTEXTEND
  0
POINT
  5
13F5
330
1291
100
AcDbEntity
  8
Defpoints
 62
     0
100
AcDbPoint
 10
266.2636873975215
 20
206.209615486265
 30
0.0
  0
POINT
  5
13F6
330
1291
100
AcDbEntity
  8
Defpoints
 62
     0
100
AcDbPoint
 10
276.2636873975215
 20
202.509115486265
 30
0.0
  0
POINT
  5
13F7
330
1291
100
AcDbEntity
  8
Defpoints
 62
     0
100
AcDbPoint
 10
276.2636873975215
 20
211.969365451991
 30
0.0
  0
ENDBLK
  5
129C
330
1291
100
AcDbEntity
  8
0
100
AcDbBlockEnd
  0
BLOCK
  5
12A7
330
129D
100
AcDbEntity
  8
0
100
AcDbBlockBegin
  2
*D29
 70
     1
 10
0.0
 20
0.0
 30
0.0
  3
*D29
  1

  0
LINE
  5
13F8
330
129D
100
AcDbEntity
  8
AM_REFDIM
100
AcDbLine
 10
276.2636873975215
 20
204.384115486265
 30
0.0
 11
276.2636873975215
 21
213.2193654519911
 31
0.0
  0
LINE
  5
13F9
330
129D
100
AcDbEntity
  8
AM_REFDIM
100
AcDbLine
 10
299.2636873975215
 20
204.384115486265
 30
0.0
 11
299.2636873975215
 21
213.2193654519911
 31
0.0
  0
LINE
  5
13FA
330
129D
100
AcDbEntity
  8
AM_REFDIM
100
AcDbLine
 10
278.1386873975215
 20
211.969365451991
 30
0.0
 11
297.3886873975215
 21
211.969365451991
 31
0.0
  0
SOLID
  5
13FB
330
129D
100
AcDbEntity
  8
AM_REFDIM
100
AcDbTrace
 10
278.1386873975215
 20
212.281865451991
 30
0.0
 11
278.1386873975215
 21
211.6568654519911
 31
0.0
 12
276.2636873975215
 22
211.969365451991
 32
0.0
 13
276.2636873975215
 23
211.969365451991
 33
0.0
  0
SOLID
  5
13FC
330
129D
100
AcDbEntity
  8
AM_REFDIM
100
AcDbTrace
 10
297.3886873975215
 20
212.281865451991
 30
0.0
 11
297.3886873975215
 21
211.6568654519911
 31
0.0
 12
299.2636873975215
 22
211.969365451991
 32
0.0
 13
299.2636873975215
 23
211.969365451991
 33
0.0
  0
MTEXT
  5
13FD
330
129D
100
AcDbEntity
  8
AM_REFDIM
100
AcDbMText
 10
287.7636873975215
 20
213.531865451991
 30
0.0
 40
1.875
 41
0.0
 71
     5
 72
     1
  1
\A1;13+ST
  7
CHINESET
 73
     1
 44
1.0
1001
ACAD
1000
MTEXTBEGIN
1070
    73
1070
     1
1070
    44
1040
1.0
1070
    74
1070
     0
1000
MTEXTEND
  0
POINT
  5
13FE
330
129D
100
AcDbEntity
  8
Defpoints
 62
     0
100
AcDbPoint
 10
276.2636873975215
 20
202.509115486265
 30
0.0
  0
POINT
  5
13FF
330
129D
100
AcDbEntity
  8
Defpoints
 62
     0
100
AcDbPoint
 10
299.2636873975215
 20
202.509115486265
 30
0.0
  0
POINT
  5
1400
330
129D
100
AcDbEntity
  8
Defpoints
 62
     0
100
AcDbPoint
 10
299.2636873975215
 20
211.969365451991
 30
0.0
  0
ENDBLK
  5
12A8
330
129D
100
AcDbEntity
  8
0
100
AcDbBlockEnd
  0
BLOCK
  5
12B3
330
12A9
100
AcDbEntity
  8
0
100
AcDbBlockBegin
  2
*D30
 70
     1
 10
0.0
 20
0.0
 30
0.0
  3
*D30
  1

  0
LINE
  5
1401
330
12A9
100
AcDbEntity
  8
AM_REFDIM
100
AcDbLine
 10
266.2636873975215
 20
188.334615486265
 30
0.0
 11
266.2636873975215
 21
183.7853310071765
 31
0.0
  0
LINE
  5
1402
330
12A9
100
AcDbEntity
  8
AM_REFDIM
100
AcDbLine
 10
288.7636873975215
 20
191.1676154862649
 30
0.0
 11
288.7636873975215
 21
183.7853310071765
 31
0.0
  0
LINE
  5
1403
330
12A9
100
AcDbEntity
  8
AM_REFDIM
100
AcDbLine
 10
268.1386873975215
 20
185.0353310071765
 30
0.0
 11
286.8886873975215
 21
185.0353310071765
 31
0.0
  0
SOLID
  5
1404
330
12A9
100
AcDbEntity
  8
AM_REFDIM
100
AcDbTrace
 10
268.1386873975215
 20
185.3478310071765
 30
0.0
 11
268.1386873975215
 21
184.7228310071765
 31
0.0
 12
266.2636873975215
 22
185.0353310071765
 32
0.0
 13
266.2636873975215
 23
185.0353310071765
 33
0.0
  0
SOLID
  5
1405
330
12A9
100
AcDbEntity
  8
AM_REFDIM
100
AcDbTrace
 10
286.8886873975215
 20
185.3478310071765
 30
0.0
 11
286.8886873975215
 21
184.7228310071765
 31
0.0
 12
288.7636873975215
 22
185.0353310071765
 32
0.0
 13
288.7636873975215
 23
185.0353310071765
 33
0.0
  0
MTEXT
  5
1406
330
12A9
100
AcDbEntity
  8
AM_REFDIM
100
AcDbMText
 10
277.5136873975215
 20
186.5978310071765
 30
0.0
 40
1.875
 41
0.0
 71
     5
 72
     1
  1
\A1;22.5
  7
CHINESET
 73
     1
 44
1.0
1001
ACAD
1000
MTEXTBEGIN
1070
    73
1070
     1
1070
    44
1040
1.0
1070
    74
1070
     0
1000
MTEXTEND
  0
POINT
  5
1407
330
12A9
100
AcDbEntity
  8
Defpoints
 62
     0
100
AcDbPoint
 10
266.2636873975215
 20
190.2096154862649
 30
0.0
  0
POINT
  5
1408
330
12A9
100
AcDbEntity
  8
Defpoints
 62
     0
100
AcDbPoint
 10
288.7636873975215
 20
193.0426154862649
 30
0.0
  0
POINT
  5
1409
330
12A9
100
AcDbEntity
  8
Defpoints
 62
     0
100
AcDbPoint
 10
288.7636873975215
 20
185.0353310071765
 30
0.0
  0
ENDBLK
  5
12B4
330
12A9
100
AcDbEntity
  8
0
100
AcDbBlockEnd
  0
BLOCK
  5
12BF
330
12B5
100
AcDbEntity
  8
0
100
AcDbBlockBegin
  2
*D31
 70
     1
 10
0.0
 20
0.0
 30
0.0
  3
*D31
  1

  0
LINE
  5
140A
330
12B5
100
AcDbEntity
  8
AM_REFDIM
100
AcDbLine
 10
310.2636873975215
 20
191.1676154862649
 30
0.0
 11
310.2636873975215
 21
183.7853310071766
 31
0.0
  0
LINE
  5
140B
330
12B5
100
AcDbEntity
  8
AM_REFDIM
100
AcDbLine
 10
321.2636873975215
 20
188.334615486265
 30
0.0
 11
321.2636873975215
 21
183.7853310071766
 31
0.0
  0
LINE
  5
140C
330
12B5
100
AcDbEntity
  8
AM_REFDIM
100
AcDbLine
 10
312.1386873975215
 20
185.0353310071765
 30
0.0
 11
319.3886873975215
 21
185.0353310071765
 31
0.0
  0
SOLID
  5
140D
330
12B5
100
AcDbEntity
  8
AM_REFDIM
100
AcDbTrace
 10
312.1386873975215
 20
185.3478310071766
 30
0.0
 11
312.1386873975215
 21
184.7228310071766
 31
0.0
 12
310.2636873975215
 22
185.0353310071765
 32
0.0
 13
310.2636873975215
 23
185.0353310071765
 33
0.0
  0
SOLID
  5
140E
330
12B5
100
AcDbEntity
  8
AM_REFDIM
100
AcDbTrace
 10
319.3886873975215
 20
185.3478310071766
 30
0.0
 11
319.3886873975215
 21
184.7228310071766
 31
0.0
 12
321.2636873975215
 22
185.0353310071765
 32
0.0
 13
321.2636873975215
 23
185.0353310071765
 33
0.0
  0
MTEXT
  5
140F
330
12B5
100
AcDbEntity
  8
AM_REFDIM
100
AcDbMText
 10
315.7636873975215
 20
186.5978310071765
 30
0.0
 40
1.875
 41
0.0
 71
     5
 72
     1
  1
\A1;11
  7
CHINESET
 73
     1
 44
1.0
1001
ACAD
1000
MTEXTBEGIN
1070
    73
1070
     1
1070
    44
1040
1.0
1070
    74
1070
     0
1000
MTEXTEND
  0
POINT
  5
1410
330
12B5
100
AcDbEntity
  8
Defpoints
 62
     0
100
AcDbPoint
 10
310.2636873975215
 20
193.0426154862649
 30
0.0
  0
POINT
  5
1411
330
12B5
100
AcDbEntity
  8
Defpoints
 62
     0
100
AcDbPoint
 10
321.2636873975215
 20
190.2096154862649
 30
0.0
  0
POINT
  5
1412
330
12B5
100
AcDbEntity
  8
Defpoints
 62
     0
100
AcDbPoint
 10
321.2636873975215
 20
185.0353310071765
 30
0.0
  0
ENDBLK
  5
12C0
330
12B5
100
AcDbEntity
  8
0
100
AcDbBlockEnd
  0
BLOCK
  5
12CB
330
12C1
100
AcDbEntity
  8
0
100
AcDbBlockBegin
  2
*D32
 70
     1
 10
0.0
 20
0.0
 30
0.0
  3
*D32
  1

  0
LINE
  5
1413
330
12C1
100
AcDbEntity
  8
AM_REFDIM
100
AcDbLine
 10
266.2636873975215
 20
172.9336355144483
 30
0.0
 11
266.2636873975215
 21
177.9407943225702
 31
0.0
  0
LINE
  5
1414
330
12C1
100
AcDbEntity
  8
AM_REFDIM
100
AcDbLine
 10
279.2636873975215
 20
159.1336355144482
 30
0.0
 11
279.2636873975215
 21
177.9407943225702
 31
0.0
  0
LINE
  5
1415
330
12C1
100
AcDbEntity
  8
AM_REFDIM
100
AcDbLine
 10
268.1386873975215
 20
176.6907943225701
 30
0.0
 11
277.3886873975215
 21
176.6907943225701
 31
0.0
  0
SOLID
  5
1416
330
12C1
100
AcDbEntity
  8
AM_REFDIM
100
AcDbTrace
 10
268.1386873975215
 20
177.0032943225702
 30
0.0
 11
268.1386873975215
 21
176.3782943225702
 31
0.0
 12
266.2636873975215
 22
176.6907943225701
 32
0.0
 13
266.2636873975215
 23
176.6907943225701
 33
0.0
  0
SOLID
  5
1417
330
12C1
100
AcDbEntity
  8
AM_REFDIM
100
AcDbTrace
 10
277.3886873975215
 20
177.0032943225702
 30
0.0
 11
277.3886873975215
 21
176.3782943225702
 31
0.0
 12
279.2636873975215
 22
176.6907943225701
 32
0.0
 13
279.2636873975215
 23
176.6907943225701
 33
0.0
  0
MTEXT
  5
1418
330
12C1
100
AcDbEntity
  8
AM_REFDIM
100
AcDbMText
 10
272.7636873975215
 20
178.2532943225701
 30
0.0
 40
1.875
 41
0.0
 71
     5
 72
     1
  1
\A1;13
  7
CHINESET
 73
     1
 44
1.0
1001
ACAD
1000
MTEXTBEGIN
1070
    73
1070
     1
1070
    44
1040
1.0
1070
    74
1070
     0
1000
MTEXTEND
  0
POINT
  5
1419
330
12C1
100
AcDbEntity
  8
Defpoints
 62
     0
100
AcDbPoint
 10
266.2636873975215
 20
171.0586355144483
 30
0.0
  0
POINT
  5
141A
330
12C1
100
AcDbEntity
  8
Defpoints
 62
     0
100
AcDbPoint
 10
279.2636873975215
 20
157.2586355144482
 30
0.0
  0
POINT
  5
141B
330
12C1
100
AcDbEntity
  8
Defpoints
 62
     0
100
AcDbPoint
 10
279.2636873975215
 20
176.6907943225701
 30
0.0
  0
ENDBLK
  5
12CC
330
12C1
100
AcDbEntity
  8
0
100
AcDbBlockEnd
  0
BLOCK
  5
12D7
330
12CD
100
AcDbEntity
  8
0
100
AcDbBlockBegin
  2
*D33
 70
     1
 10
0.0
 20
0.0
 30
0.0
  3
*D33
  1

  0
LINE
  5
1696
330
12CD
100
AcDbEntity
  8
AM_REFDIM
100
AcDbLine
 10
279.2636873975215
 20
159.1336355144482
 30
0.0
 11
279.2636873975215
 21
177.9407943225702
 31
0.0
  0
LINE
  5
1697
330
12CD
100
AcDbEntity
  8
AM_REFDIM
100
AcDbLine
 10
294.2636873975215
 20
159.1336355144482
 30
0.0
 11
294.2636873975215
 21
177.9407943225702
 31
0.0
  0
LINE
  5
1698
330
12CD
100
AcDbEntity
  8
AM_REFDIM
100
AcDbLine
 10
277.3886873975215
 20
176.6907943225701
 30
0.0
 11
275.5136873975215
 21
176.6907943225701
 31
0.0
  0
LINE
  5
1699
330
12CD
100
AcDbEntity
  8
AM_REFDIM
100
AcDbLine
 10
296.1386873975215
 20
176.6907943225701
 30
0.0
 11
318.1922588260929
 21
176.6907943225701
 31
0.0
  0
LINE
  5
169A
330
12CD
100
AcDbEntity
  8
AM_REFDIM
100
AcDbLine
 10
279.2636873975215
 20
176.6907943225701
 30
0.0
 11
294.2636873975215
 21
176.6907943225701
 31
0.0
  0
SOLID
  5
169B
330
12CD
100
AcDbEntity
  8
AM_REFDIM
100
AcDbTrace
 10
277.3886873975215
 20
177.0032943225702
 30
0.0
 11
277.3886873975215
 21
176.3782943225702
 31
0.0
 12
279.2636873975215
 22
176.6907943225701
 32
0.0
 13
279.2636873975215
 23
176.6907943225701
 33
0.0
  0
SOLID
  5
169C
330
12CD
100
AcDbEntity
  8
AM_REFDIM
100
AcDbTrace
 10
296.1386873975215
 20
177.0032943225702
 30
0.0
 11
296.1386873975215
 21
176.3782943225702
 31
0.0
 12
294.2636873975215
 22
176.6907943225701
 32
0.0
 13
294.2636873975215
 23
176.6907943225701
 33
0.0
  0
MTEXT
  5
169D
330
12CD
100
AcDbEntity
  8
AM_REFDIM
100
AcDbMText
 10
308.1029731118072
 20
178.7443657511416
 30
0.0
 40
1.875
 41
0.0
 71
     5
 72
     1
  1
\A1;10+1/2stroke
  7
CHINESET
 73
     1
 44
1.0
1001
ACAD
1000
MTEXTBEGIN
1070
    73
1070
     1
1070
    44
1040
1.0
1070
    74
1070
     0
1000
MTEXTEND
  0
POINT
  5
169E
330
12CD
100
AcDbEntity
  8
Defpoints
 62
     0
100
AcDbPoint
 10
279.2636873975215
 20
157.2586355144482
 30
0.0
  0
POINT
  5
169F
330
12CD
100
AcDbEntity
  8
Defpoints
 62
     0
100
AcDbPoint
 10
294.2636873975215
 20
157.2586355144482
 30
0.0
  0
POINT
  5
16A0
330
12CD
100
AcDbEntity
  8
Defpoints
 62
     0
100
AcDbPoint
 10
294.2636873975215
 20
176.6907943225701
 30
0.0
  0
ENDBLK
  5
12D8
330
12CD
100
AcDbEntity
  8
0
100
AcDbBlockEnd
  0
BLOCK
  5
12E3
330
12D9
100
AcDbEntity
  8
0
100
AcDbBlockBegin
  2
*D34
 70
     1
 10
0.0
 20
0.0
 30
0.0
  3
*D34
  1

  0
LINE
  5
1425
330
12D9
100
AcDbEntity
  8
AM_REFDIM
100
AcDbLine
 10
248.5886873975216
 20
196.2096154862649
 30
0.0
 11
245.5250392771802
 21
196.2096154862649
 31
0.0
  0
LINE
  5
1426
330
12D9
100
AcDbEntity
  8
AM_REFDIM
100
AcDbLine
 10
264.3886873975215
 20
190.2096154862649
 30
0.0
 11
245.5250392771802
 21
190.2096154862649
 31
0.0
  0
LINE
  5
1427
330
12D9
100
AcDbEntity
  8
AM_REFDIM
100
AcDbLine
 10
246.7750392771802
 20
194.3346154862649
 30
0.0
 11
246.7750392771802
 21
192.0846154862649
 31
0.0
  0
SOLID
  5
1428
330
12D9
100
AcDbEntity
  8
AM_REFDIM
100
AcDbTrace
 10
246.4625392771802
 20
194.3346154862649
 30
0.0
 11
247.0875392771802
 21
194.3346154862649
 31
0.0
 12
246.7750392771802
 22
196.2096154862649
 32
0.0
 13
246.7750392771802
 23
196.2096154862649
 33
0.0
  0
SOLID
  5
1429
330
12D9
100
AcDbEntity
  8
AM_REFDIM
100
AcDbTrace
 10
246.4625392771802
 20
192.0846154862649
 30
0.0
 11
247.0875392771802
 21
192.0846154862649
 31
0.0
 12
246.7750392771801
 22
190.2096154862649
 32
0.0
 13
246.7750392771801
 23
190.2096154862649
 33
0.0
  0
MTEXT
  5
142A
330
12D9
100
AcDbEntity
  8
AM_REFDIM
100
AcDbMText
 10
245.2125392771801
 20
193.209615486265
 30
0.0
 40
1.875
 41
0.0
 71
     5
 72
     1
  1
\A1;6
  7
CHINESET
 11
0.0000000000000001
 21
1.0
 31
0.0
 73
     1
 44
1.0
1001
ACAD
1000
MTEXTBEGIN
1070
    73
1070
     1
1070
    44
1040
1.0
1070
    74
1070
     0
1000
MTEXTEND
  0
POINT
  5
142B
330
12D9
100
AcDbEntity
  8
Defpoints
 62
     0
100
AcDbPoint
 10
250.4636873975215
 20
196.2096154862649
 30
0.0
  0
POINT
  5
142C
330
12D9
100
AcDbEntity
  8
Defpoints
 62
     0
100
AcDbPoint
 10
266.2636873975215
 20
190.2096154862649
 30
0.0
  0
POINT
  5
142D
330
12D9
100
AcDbEntity
  8
Defpoints
 62
     0
100
AcDbPoint
 10
246.7750392771801
 20
190.2096154862649
 30
0.0
  0
ENDBLK
  5
12E4
330
12D9
100
AcDbEntity
  8
0
100
AcDbBlockEnd
  0
BLOCK
  5
12F1
330
12E5
100
AcDbEntity
  8
0
100
AcDbBlockBegin
  2
*D35
 70
     1
 10
0.0
 20
0.0
 30
0.0
  3
*D35
  1

  0
LINE
  5
142E
330
12E5
100
AcDbEntity
  8
AM_REFDIM
100
AcDbLine
 10
248.5886873975216
 20
196.2096154862649
 30
0.0
 11
245.5250392771802
 21
196.2096154862649
 31
0.0
  0
LINE
  5
142F
330
12E5
100
AcDbEntity
  8
AM_REFDIM
100
AcDbLine
 10
253.3886873975215
 20
199.2096154862649
 30
0.0
 11
245.5250392771802
 21
199.2096154862649
 31
0.0
  0
LINE
  5
1430
330
12E5
100
AcDbEntity
  8
AM_REFDIM
100
AcDbLine
 10
246.7750392771802
 20
194.3346154862649
 30
0.0
 11
246.7750392771802
 21
192.459615486265
 31
0.0
  0
LINE
  5
1431
330
12E5
100
AcDbEntity
  8
AM_REFDIM
100
AcDbLine
 10
246.7750392771802
 20
201.084615486265
 30
0.0
 11
246.7750392771802
 21
202.9596154862649
 31
0.0
  0
LINE
  5
1432
330
12E5
100
AcDbEntity
  8
AM_REFDIM
100
AcDbLine
 10
246.7750392771802
 20
196.2096154862649
 30
0.0
 11
246.7750392771802
 21
199.2096154862649
 31
0.0
  0
SOLID
  5
1433
330
12E5
100
AcDbEntity
  8
AM_REFDIM
100
AcDbTrace
 10
246.4625392771802
 20
194.3346154862649
 30
0.0
 11
247.0875392771802
 21
194.3346154862649
 31
0.0
 12
246.7750392771802
 22
196.2096154862649
 32
0.0
 13
246.7750392771802
 23
196.2096154862649
 33
0.0
  0
SOLID
  5
1434
330
12E5
100
AcDbEntity
  8
AM_REFDIM
100
AcDbTrace
 10
246.4625392771802
 20
201.084615486265
 30
0.0
 11
247.0875392771802
 21
201.084615486265
 31
0.0
 12
246.7750392771802
 22
199.2096154862649
 32
0.0
 13
246.7750392771802
 23
199.2096154862649
 33
0.0
  0
MTEXT
  5
1435
330
12E5
100
AcDbEntity
  8
AM_REFDIM
100
AcDbMText
 10
245.2125392771801
 20
197.709615486265
 30
0.0
 40
1.875
 41
0.0
 71
     5
 72
     1
  1
\A1;3
  7
CHINESET
 11
0.0000000000000001
 21
1.0
 31
0.0
 73
     1
 44
1.0
1001
ACAD
1000
MTEXTBEGIN
1070
    73
1070
     1
1070
    44
1040
1.0
1070
    74
1070
     0
1000
MTEXTEND
  0
POINT
  5
1436
330
12E5
100
AcDbEntity
  8
Defpoints
 62
     0
100
AcDbPoint
 10
250.4636873975215
 20
196.2096154862649
 30
0.0
  0
POINT
  5
1437
330
12E5
100
AcDbEntity
  8
Defpoints
 62
     0
100
AcDbPoint
 10
255.2636873975215
 20
199.2096154862649
 30
0.0
  0
POINT
  5
1438
330
12E5
100
AcDbEntity
  8
Defpoints
 62
     0
100
AcDbPoint
 10
246.7750392771802
 20
199.2096154862649
 30
0.0
  0
ENDBLK
  5
12F2
330
12E5
100
AcDbEntity
  8
0
100
AcDbBlockEnd
  0
BLOCK
  5
12FF
330
12F3
100
AcDbEntity
  8
0
100
AcDbBlockBegin
  2
*D36
 70
     1
 10
0.0
 20
0.0
 30
0.0
  3
*D36
  1

  0
LINE
  5
1439
330
12F3
100
AcDbEntity
  8
AM_REFDIM
100
AcDbLine
 10
204.11486793003
 20
262.3216639615862
 30
0.0
 11
204.11486793003
 21
267.1229753859195
 31
0.0
  0
LINE
  5
143A
330
12F3
100
AcDbEntity
  8
AM_REFDIM
100
AcDbLine
 10
205.11486793003
 20
262.0216639615862
 30
0.0
 11
205.11486793003
 21
267.1229753859195
 31
0.0
  0
LINE
  5
143B
330
12F3
100
AcDbEntity
  8
AM_REFDIM
100
AcDbLine
 10
206.98986793003
 20
265.8729753859195
 30
0.0
 11
208.86486793003
 21
265.8729753859195
 31
0.0
  0
LINE
  5
143C
330
12F3
100
AcDbEntity
  8
AM_REFDIM
100
AcDbLine
 10
202.23986793003
 20
265.8729753859195
 30
0.0
 11
198.6684393586014
 21
265.8729753859195
 31
0.0
  0
LINE
  5
143D
330
12F3
100
AcDbEntity
  8
AM_REFDIM
100
AcDbLine
 10
205.11486793003
 20
265.8729753859195
 30
0.0
 11
204.11486793003
 21
265.8729753859195
 31
0.0
  0
SOLID
  5
143E
330
12F3
100
AcDbEntity
  8
AM_REFDIM
100
AcDbTrace
 10
206.98986793003
 20
266.1854753859195
 30
0.0
 11
206.98986793003
 21
265.5604753859195
 31
0.0
 12
205.11486793003
 22
265.8729753859195
 32
0.0
 13
205.11486793003
 23
265.8729753859195
 33
0.0
  0
SOLID
  5
143F
330
12F3
100
AcDbEntity
  8
AM_REFDIM
100
AcDbTrace
 10
202.23986793003
 20
266.1854753859195
 30
0.0
 11
202.23986793003
 21
265.5604753859195
 31
0.0
 12
204.11486793003
 22
265.8729753859195
 32
0.0
 13
204.11486793003
 23
265.8729753859195
 33
0.0
  0
MTEXT
  5
1440
330
12F3
100
AcDbEntity
  8
AM_REFDIM
100
AcDbMText
 10
199.5166536443157
 20
267.4354753859195
 30
0.0
 40
1.875
 41
0.0
 71
     5
 72
     1
  1
\A1;1
  7
CHINESET
 73
     1
 44
1.0
1001
ACAD
1000
MTEXTBEGIN
1070
    73
1070
     1
1070
    44
1040
1.0
1070
    74
1070
     0
1000
MTEXTEND
  0
POINT
  5
1441
330
12F3
100
AcDbEntity
  8
Defpoints
 62
     0
100
AcDbPoint
 10
204.11486793003
 20
260.4466639615862
 30
0.0
  0
POINT
  5
1442
330
12F3
100
AcDbEntity
  8
Defpoints
 62
     0
100
AcDbPoint
 10
205.11486793003
 20
260.1466639615862
 30
0.0
  0
POINT
  5
1443
330
12F3
100
AcDbEntity
  8
Defpoints
 62
     0
100
AcDbPoint
 10
205.11486793003
 20
265.8729753859195
 30
0.0
  0
ENDBLK
  5
1300
330
12F3
100
AcDbEntity
  8
0
100
AcDbBlockEnd
  0
BLOCK
  5
130B
330
1301
100
AcDbEntity
  8
0
100
AcDbBlockBegin
  2
*D37
 70
     1
 10
0.0
 20
0.0
 30
0.0
  3
*D37
  1

  0
LINE
  5
1444
330
1301
100
AcDbEntity
  8
AM_REFDIM
100
AcDbLine
 10
317.3056873975215
 20
198.2096154862649
 30
0.0
 11
330.0136873975215
 21
198.2096154862649
 31
0.0
  0
LINE
  5
1445
330
1301
100
AcDbEntity
  8
AM_REFDIM
100
AcDbLine
 10
323.1386873975215
 20
190.2096154862649
 30
0.0
 11
330.0136873975215
 21
190.2096154862649
 31
0.0
  0
LINE
  5
1446
330
1301
100
AcDbEntity
  8
AM_REFDIM
100
AcDbLine
 10
328.7636873975215
 20
196.3346154862649
 30
0.0
 11
328.7636873975215
 21
192.0846154862649
 31
0.0
  0
SOLID
  5
1447
330
1301
100
AcDbEntity
  8
AM_REFDIM
100
AcDbTrace
 10
328.4511873975215
 20
196.3346154862649
 30
0.0
 11
329.0761873975215
 21
196.3346154862649
 31
0.0
 12
328.7636873975215
 22
198.2096154862649
 32
0.0
 13
328.7636873975215
 23
198.2096154862649
 33
0.0
  0
SOLID
  5
1448
330
1301
100
AcDbEntity
  8
AM_REFDIM
100
AcDbTrace
 10
328.4511873975215
 20
192.0846154862649
 30
0.0
 11
329.0761873975215
 21
192.0846154862649
 31
0.0
 12
328.7636873975215
 22
190.2096154862649
 32
0.0
 13
328.7636873975215
 23
190.2096154862649
 33
0.0
  0
MTEXT
  5
1449
330
1301
100
AcDbEntity
  8
AM_REFDIM
100
AcDbMText
 10
327.2011873975214
 20
194.209615486265
 30
0.0
 40
1.875
 41
0.0
 71
     5
 72
     1
  1
\A1;8
  7
CHINESET
 11
0.0000000000000001
 21
1.0
 31
0.0
 73
     1
 44
1.0
1001
ACAD
1000
MTEXTBEGIN
1070
    73
1070
     1
1070
    44
1040
1.0
1070
    74
1070
     0
1000
MTEXTEND
  0
POINT
  5
144A
330
1301
100
AcDbEntity
  8
Defpoints
 62
     0
100
AcDbPoint
 10
315.4306873975215
 20
198.2096154862649
 30
0.0
  0
POINT
  5
144B
330
1301
100
AcDbEntity
  8
Defpoints
 62
     0
100
AcDbPoint
 10
321.2636873975215
 20
190.2096154862649
 30
0.0
  0
POINT
  5
144C
330
1301
100
AcDbEntity
  8
Defpoints
 62
     0
100
AcDbPoint
 10
328.7636873975215
 20
190.2096154862649
 30
0.0
  0
ENDBLK
  5
130C
330
1301
100
AcDbEntity
  8
0
100
AcDbBlockEnd
  0
ENDSEC
  0
SECTION
  2
ENTITIES
  0
LINE
  5
EFA
330
1F
100
AcDbEntity
  8
AM_7
100
AcDbLine
 10
212.11486793003
 20
256.6466639615862
 30
0.0
 11
212.11486793003
 21
256.6466639615862
 31
0.0
  0
LINE
  5
EFB
330
1F
100
AcDbEntity
  8
AM_7
100
AcDbLine
 10
212.11486793003
 20
256.6466639615862
 30
0.0
 11
212.11486793003
 21
256.6466639615862
 31
0.0
  0
LINE
  5
EFC
330
1F
100
AcDbEntity
  8
AM_7
100
AcDbLine
 10
207.81536793003
 20
256.6466639615862
 30
0.0
 11
212.11486793003
 21
256.6466639615862
 31
0.0
  0
LINE
  5
EFD
330
1F
100
AcDbEntity
  8
AM_7
100
AcDbLine
 10
212.11486793003
 20
256.6466639615862
 30
0.0
 11
216.4143679300301
 21
256.6466639615862
 31
0.0
  0
LINE
  5
EFE
330
1F
100
AcDbEntity
  8
AM_7
100
AcDbLine
 10
212.11486793003
 20
252.3471639615862
 30
0.0
 11
212.11486793003
 21
256.6466639615862
 31
0.0
  0
LINE
  5
EFF
330
1F
100
AcDbEntity
  8
AM_7
100
AcDbLine
 10
212.11486793003
 20
256.6466639615862
 30
0.0
 11
212.11486793003
 21
260.9461639615862
 31
0.0
  0
LINE
  5
F00
330
1F
100
AcDbEntity
  8
AM_7
100
AcDbLine
 10
212.11486793003
 20
228.6466639615862
 30
0.0
 11
212.11486793003
 21
228.6466639615862
 31
0.0
  0
LINE
  5
F01
330
1F
100
AcDbEntity
  8
AM_7
100
AcDbLine
 10
212.11486793003
 20
228.6466639615862
 30
0.0
 11
212.11486793003
 21
228.6466639615862
 31
0.0
  0
LINE
  5
F02
330
1F
100
AcDbEntity
  8
AM_7
100
AcDbLine
 10
207.81536793003
 20
228.6466639615862
 30
0.0
 11
212.11486793003
 21
228.6466639615862
 31
0.0
  0
LINE
  5
F03
330
1F
100
AcDbEntity
  8
AM_7
100
AcDbLine
 10
212.11486793003
 20
228.6466639615862
 30
0.0
 11
216.4143679300301
 21
228.6466639615862
 31
0.0
  0
LINE
  5
F04
330
1F
100
AcDbEntity
  8
AM_7
100
AcDbLine
 10
212.11486793003
 20
224.3471639615862
 30
0.0
 11
212.11486793003
 21
228.6466639615862
 31
0.0
  0
LINE
  5
F05
330
1F
100
AcDbEntity
  8
AM_7
100
AcDbLine
 10
212.11486793003
 20
228.6466639615862
 30
0.0
 11
212.11486793003
 21
232.9461639615862
 31
0.0
  0
LINE
  5
F06
330
1F
100
AcDbEntity
  8
AM_7
100
AcDbLine
 10
210.11486793003
 20
234.6466639615861
 30
0.0
 11
210.11486793003
 21
234.6466639615861
 31
0.0
  0
LINE
  5
F07
330
1F
100
AcDbEntity
  8
AM_7
100
AcDbLine
 10
210.11486793003
 20
234.6466639615861
 30
0.0
 11
210.11486793003
 21
234.6466639615861
 31
0.0
  0
LINE
  5
F08
330
1F
100
AcDbEntity
  8
AM_7
100
AcDbLine
 10
204.61486793003
 20
234.6466639615861
 30
0.0
 11
210.11486793003
 21
234.6466639615861
 31
0.0
  0
LINE
  5
F09
330
1F
100
AcDbEntity
  8
AM_7
100
AcDbLine
 10
210.11486793003
 20
234.6466639615861
 30
0.0
 11
215.61486793003
 21
234.6466639615861
 31
0.0
  0
LINE
  5
F0A
330
1F
100
AcDbEntity
  8
AM_7
100
AcDbLine
 10
210.11486793003
 20
229.1466639615862
 30
0.0
 11
210.11486793003
 21
234.6466639615861
 31
0.0
  0
LINE
  5
F0B
330
1F
100
AcDbEntity
  8
AM_7
100
AcDbLine
 10
210.11486793003
 20
234.6466639615861
 30
0.0
 11
210.11486793003
 21
240.1466639615862
 31
0.0
  0
LINE
  5
F0C
330
1F
100
AcDbEntity
  8
AM_7
100
AcDbLine
 10
210.11486793003
 20
250.6466639615862
 30
0.0
 11
210.11486793003
 21
250.6466639615862
 31
0.0
  0
LINE
  5
F0D
330
1F
100
AcDbEntity
  8
AM_7
100
AcDbLine
 10
210.11486793003
 20
250.6466639615862
 30
0.0
 11
210.11486793003
 21
250.6466639615862
 31
0.0
  0
LINE
  5
F0E
330
1F
100
AcDbEntity
  8
AM_7
100
AcDbLine
 10
205.11486793003
 20
250.6466639615862
 30
0.0
 11
210.11486793003
 21
250.6466639615862
 31
0.0
  0
LINE
  5
F0F
330
1F
100
AcDbEntity
  8
AM_7
100
AcDbLine
 10
210.11486793003
 20
250.6466639615862
 30
0.0
 11
215.11486793003
 21
250.6466639615862
 31
0.0
  0
LINE
  5
F10
330
1F
100
AcDbEntity
  8
AM_7
100
AcDbLine
 10
210.11486793003
 20
245.6466639615862
 30
0.0
 11
210.11486793003
 21
250.6466639615862
 31
0.0
  0
LINE
  5
F11
330
1F
100
AcDbEntity
  8
AM_7
100
AcDbLine
 10
210.11486793003
 20
250.6466639615862
 30
0.0
 11
210.11486793003
 21
255.6466639615862
 31
0.0
  0
ARC
  5
F12
330
1F
100
AcDbEntity
  8
AM_4
100
AcDbCircle
 10
212.11486793003
 20
256.6466639615862
 30
0.0
 40
1.586
100
AcDbArc
 50
260.0000000000014
 51
190.0000000000002
  0
ARC
  5
F13
330
1F
100
AcDbEntity
  8
AM_4
100
AcDbCircle
 10
212.11486793003
 20
228.6466639615862
 30
0.0
 40
1.586
100
AcDbArc
 50
260.0000000000014
 51
190.0000000000002
  0
LINE
  5
F14
330
1F
100
AcDbEntity
  8
AM_7
100
AcDbLine
 10
279.2636873975215
 20
242.6466639615862
 30
0.0
 11
279.2636873975215
 21
242.6466639615862
 31
0.0
  0
LINE
  5
F15
330
1F
100
AcDbEntity
  8
AM_7
100
AcDbLine
 10
279.2636873975215
 20
242.6466639615862
 30
0.0
 11
279.2636873975215
 21
242.6466639615862
 31
0.0
  0
LINE
  5
F16
330
1F
100
AcDbEntity
  8
AM_7
100
AcDbLine
 10
273.0136873975215
 20
242.6466639615862
 30
0.0
 11
279.2636873975215
 21
242.6466639615862
 31
0.0
  0
LINE
  5
F17
330
1F
100
AcDbEntity
  8
AM_7
100
AcDbLine
 10
279.2636873975215
 20
242.6466639615862
 30
0.0
 11
285.5136873975215
 21
242.6466639615862
 31
0.0
  0
LINE
  5
F18
330
1F
100
AcDbEntity
  8
AM_7
100
AcDbLine
 10
279.2636873975215
 20
236.3966639615862
 30
0.0
 11
279.2636873975215
 21
242.6466639615862
 31
0.0
  0
LINE
  5
F19
330
1F
100
AcDbEntity
  8
AM_7
100
AcDbLine
 10
279.2636873975215
 20
242.6466639615862
 30
0.0
 11
279.2636873975215
 21
248.8966639615862
 31
0.0
  0
LINE
  5
F1A
330
1F
100
AcDbEntity
  8
AM_7
100
AcDbLine
 10
294.2636873975215
 20
242.6466639615862
 30
0.0
 11
294.2636873975215
 21
242.6466639615862
 31
0.0
  0
LINE
  5
F1B
330
1F
100
AcDbEntity
  8
AM_7
100
AcDbLine
 10
294.2636873975215
 20
242.6466639615862
 30
0.0
 11
294.2636873975215
 21
242.6466639615862
 31
0.0
  0
LINE
  5
F1C
330
1F
100
AcDbEntity
  8
AM_7
100
AcDbLine
 10
288.0136873975215
 20
242.6466639615862
 30
0.0
 11
294.2636873975215
 21
242.6466639615862
 31
0.0
  0
LINE
  5
F1D
330
1F
100
AcDbEntity
  8
AM_7
100
AcDbLine
 10
294.2636873975215
 20
242.6466639615862
 30
0.0
 11
300.5136873975215
 21
242.6466639615862
 31
0.0
  0
LINE
  5
F1E
330
1F
100
AcDbEntity
  8
AM_7
100
AcDbLine
 10
294.2636873975215
 20
236.3966639615862
 30
0.0
 11
294.2636873975215
 21
242.6466639615862
 31
0.0
  0
LINE
  5
F1F
330
1F
100
AcDbEntity
  8
AM_7
100
AcDbLine
 10
294.2636873975215
 20
242.6466639615862
 30
0.0
 11
294.2636873975215
 21
248.8966639615862
 31
0.0
  0
LINE
  5
F24
330
1F
100
AcDbEntity
  8
AM_7
100
AcDbLine
 10
255.5136873975215
 20
228.6466639615862
 30
0.0
 11
255.5136873975215
 21
228.6466639615862
 31
0.0
  0
LINE
  5
F25
330
1F
100
AcDbEntity
  8
AM_7
100
AcDbLine
 10
255.5136873975215
 20
228.6466639615862
 30
0.0
 11
255.5136873975215
 21
228.6466639615862
 31
0.0
  0
LINE
  5
F26
330
1F
100
AcDbEntity
  8
AM_7
100
AcDbLine
 10
251.2141873975215
 20
228.6466639615862
 30
0.0
 11
255.5136873975215
 21
228.6466639615862
 31
0.0
  0
LINE
  5
F27
330
1F
100
AcDbEntity
  8
AM_7
100
AcDbLine
 10
255.5136873975215
 20
228.6466639615862
 30
0.0
 11
259.8131873975215
 21
228.6466639615862
 31
0.0
  0
LINE
  5
F28
330
1F
100
AcDbEntity
  8
AM_7
100
AcDbLine
 10
255.5136873975215
 20
224.3471639615862
 30
0.0
 11
255.5136873975215
 21
228.6466639615862
 31
0.0
  0
LINE
  5
F29
330
1F
100
AcDbEntity
  8
AM_7
100
AcDbLine
 10
255.5136873975215
 20
228.6466639615862
 30
0.0
 11
255.5136873975215
 21
232.9461639615862
 31
0.0
  0
LINE
  5
F2A
330
1F
100
AcDbEntity
  8
AM_7
100
AcDbLine
 10
255.5136873975215
 20
256.6466639615862
 30
0.0
 11
255.5136873975215
 21
256.6466639615862
 31
0.0
  0
LINE
  5
F2B
330
1F
100
AcDbEntity
  8
AM_7
100
AcDbLine
 10
255.5136873975215
 20
256.6466639615862
 30
0.0
 11
255.5136873975215
 21
256.6466639615862
 31
0.0
  0
LINE
  5
F2C
330
1F
100
AcDbEntity
  8
AM_7
100
AcDbLine
 10
251.2141873975215
 20
256.6466639615862
 30
0.0
 11
255.5136873975215
 21
256.6466639615862
 31
0.0
  0
LINE
  5
F2D
330
1F
100
AcDbEntity
  8
AM_7
100
AcDbLine
 10
255.5136873975215
 20
256.6466639615862
 30
0.0
 11
259.8131873975215
 21
256.6466639615862
 31
0.0
  0
LINE
  5
F2E
330
1F
100
AcDbEntity
  8
AM_7
100
AcDbLine
 10
255.5136873975215
 20
252.3471639615862
 30
0.0
 11
255.5136873975215
 21
256.6466639615862
 31
0.0
  0
LINE
  5
F2F
330
1F
100
AcDbEntity
  8
AM_7
100
AcDbLine
 10
255.5136873975215
 20
256.6466639615862
 30
0.0
 11
255.5136873975215
 21
260.9461639615862
 31
0.0
  0
LINE
  5
F30
330
1F
100
AcDbEntity
  8
AM_7
100
AcDbLine
 10
255.5136873975215
 20
250.6466639615862
 30
0.0
 11
255.5136873975215
 21
250.6466639615862
 31
0.0
  0
LINE
  5
F31
330
1F
100
AcDbEntity
  8
AM_7
100
AcDbLine
 10
255.5136873975215
 20
250.6466639615862
 30
0.0
 11
255.5136873975215
 21
250.6466639615862
 31
0.0
  0
LINE
  5
F32
330
1F
100
AcDbEntity
  8
AM_7
100
AcDbLine
 10
251.2141873975215
 20
250.6466639615862
 30
0.0
 11
255.5136873975215
 21
250.6466639615862
 31
0.0
  0
LINE
  5
F33
330
1F
100
AcDbEntity
  8
AM_7
100
AcDbLine
 10
255.5136873975215
 20
250.6466639615862
 30
0.0
 11
259.8131873975215
 21
250.6466639615862
 31
0.0
  0
LINE
  5
F34
330
1F
100
AcDbEntity
  8
AM_7
100
AcDbLine
 10
255.5136873975215
 20
246.3471639615862
 30
0.0
 11
255.5136873975215
 21
250.6466639615862
 31
0.0
  0
LINE
  5
F35
330
1F
100
AcDbEntity
  8
AM_7
100
AcDbLine
 10
255.5136873975215
 20
250.6466639615862
 30
0.0
 11
255.5136873975215
 21
254.9461639615862
 31
0.0
  0
LINE
  5
F36
330
1F
100
AcDbEntity
  8
AM_7
100
AcDbLine
 10
268.2026559602976
 20
250.6466639615862
 30
0.0
 11
250.4636873975215
 21
250.6466639615862
 31
0.0
  0
LINE
  5
F37
330
1F
100
AcDbEntity
  8
AM_7
100
AcDbLine
 10
267.8031759165314
 20
234.6466639615862
 30
0.0
 11
254.0636873975214
 21
234.6466639615862
 31
0.0
  0
LINE
  5
F38
330
1F
100
AcDbEntity
  8
AM_7
100
AcDbLine
 10
323.7148915711795
 20
242.6466639615862
 30
0.0
 11
251.2522050328448
 21
242.6466639615862
 31
0.0
  0
ARC
  5
F39
330
1F
100
AcDbEntity
  8
AM_4
100
AcDbCircle
 10
255.5136873975215
 20
228.6466639615862
 30
0.0
 40
1.586
100
AcDbArc
 50
260.0000000000014
 51
190.0000000000002
  0
ARC
  5
F3A
330
1F
100
AcDbEntity
  8
AM_4
100
AcDbCircle
 10
255.5136873975215
 20
256.6466639615862
 30
0.0
 40
1.586
100
AcDbArc
 50
260.0000000000014
 51
190.0000000000002
  0
ARC
  5
F3B
330
1F
100
AcDbEntity
  8
AM_4
100
AcDbCircle
 10
255.5136873975215
 20
250.6466639615862
 30
0.0
 40
1.586
100
AcDbArc
 50
260.0000000000014
 51
190.0000000000002
  0
LINE
  5
F3E
330
1F
100
AcDbEntity
  8
AM_7
100
AcDbLine
 10
371.3169077902754
 20
228.6466639615862
 30
0.0
 11
371.3169077902754
 21
228.6466639615862
 31
0.0
  0
LINE
  5
F3F
330
1F
100
AcDbEntity
  8
AM_7
100
AcDbLine
 10
371.3169077902754
 20
228.6466639615862
 30
0.0
 11
371.3169077902754
 21
228.6466639615862
 31
0.0
  0
LINE
  5
F40
330
1F
100
AcDbEntity
  8
AM_7
100
AcDbLine
 10
367.0174077902753
 20
228.6466639615862
 30
0.0
 11
371.3169077902754
 21
228.6466639615862
 31
0.0
  0
LINE
  5
F41
330
1F
100
AcDbEntity
  8
AM_7
100
AcDbLine
 10
371.3169077902754
 20
228.6466639615862
 30
0.0
 11
375.6164077902754
 21
228.6466639615862
 31
0.0
  0
LINE
  5
F42
330
1F
100
AcDbEntity
  8
AM_7
100
AcDbLine
 10
371.3169077902754
 20
224.3471639615862
 30
0.0
 11
371.3169077902754
 21
228.6466639615862
 31
0.0
  0
LINE
  5
F43
330
1F
100
AcDbEntity
  8
AM_7
100
AcDbLine
 10
371.3169077902754
 20
228.6466639615862
 30
0.0
 11
371.3169077902754
 21
232.9461639615862
 31
0.0
  0
LINE
  5
F44
330
1F
100
AcDbEntity
  8
AM_7
100
AcDbLine
 10
371.3169077902754
 20
256.6466639615862
 30
0.0
 11
371.3169077902754
 21
256.6466639615862
 31
0.0
  0
LINE
  5
F45
330
1F
100
AcDbEntity
  8
AM_7
100
AcDbLine
 10
371.3169077902754
 20
256.6466639615862
 30
0.0
 11
371.3169077902754
 21
256.6466639615862
 31
0.0
  0
LINE
  5
F46
330
1F
100
AcDbEntity
  8
AM_7
100
AcDbLine
 10
367.0174077902753
 20
256.6466639615862
 30
0.0
 11
371.3169077902754
 21
256.6466639615862
 31
0.0
  0
LINE
  5
F47
330
1F
100
AcDbEntity
  8
AM_7
100
AcDbLine
 10
371.3169077902754
 20
256.6466639615862
 30
0.0
 11
375.6164077902754
 21
256.6466639615862
 31
0.0
  0
LINE
  5
F48
330
1F
100
AcDbEntity
  8
AM_7
100
AcDbLine
 10
371.3169077902754
 20
252.3471639615862
 30
0.0
 11
371.3169077902754
 21
256.6466639615862
 31
0.0
  0
LINE
  5
F49
330
1F
100
AcDbEntity
  8
AM_7
100
AcDbLine
 10
371.3169077902754
 20
256.6466639615862
 30
0.0
 11
371.3169077902754
 21
260.9461639615862
 31
0.0
  0
LINE
  5
F4A
330
1F
100
AcDbEntity
  8
AM_7
100
AcDbLine
 10
368.3169077902754
 20
234.6466639615862
 30
0.0
 11
368.3169077902754
 21
234.6466639615862
 31
0.0
  0
LINE
  5
F4B
330
1F
100
AcDbEntity
  8
AM_7
100
AcDbLine
 10
368.3169077902754
 20
234.6466639615862
 30
0.0
 11
368.3169077902754
 21
234.6466639615862
 31
0.0
  0
LINE
  5
F4C
330
1F
100
AcDbEntity
  8
AM_7
100
AcDbLine
 10
361.8919077902754
 20
234.6466639615862
 30
0.0
 11
368.3169077902754
 21
234.6466639615862
 31
0.0
  0
LINE
  5
F4D
330
1F
100
AcDbEntity
  8
AM_7
100
AcDbLine
 10
368.3169077902754
 20
234.6466639615862
 30
0.0
 11
374.7419077902754
 21
234.6466639615862
 31
0.0
  0
LINE
  5
F4E
330
1F
100
AcDbEntity
  8
AM_7
100
AcDbLine
 10
368.3169077902754
 20
228.2216639615862
 30
0.0
 11
368.3169077902754
 21
234.6466639615862
 31
0.0
  0
LINE
  5
F4F
330
1F
100
AcDbEntity
  8
AM_7
100
AcDbLine
 10
368.3169077902754
 20
234.6466639615862
 30
0.0
 11
368.3169077902754
 21
241.0716639615862
 31
0.0
  0
LINE
  5
F50
330
1F
100
AcDbEntity
  8
AM_7
100
AcDbLine
 10
368.3169077902754
 20
250.6466639615862
 30
0.0
 11
368.3169077902754
 21
250.6466639615862
 31
0.0
  0
LINE
  5
F51
330
1F
100
AcDbEntity
  8
AM_7
100
AcDbLine
 10
368.3169077902754
 20
250.6466639615862
 30
0.0
 11
368.3169077902754
 21
250.6466639615862
 31
0.0
  0
LINE
  5
F52
330
1F
100
AcDbEntity
  8
AM_7
100
AcDbLine
 10
361.8919077902754
 20
250.6466639615862
 30
0.0
 11
368.3169077902754
 21
250.6466639615862
 31
0.0
  0
LINE
  5
F53
330
1F
100
AcDbEntity
  8
AM_7
100
AcDbLine
 10
368.3169077902754
 20
250.6466639615862
 30
0.0
 11
374.7419077902754
 21
250.6466639615862
 31
0.0
  0
LINE
  5
F54
330
1F
100
AcDbEntity
  8
AM_7
100
AcDbLine
 10
368.3169077902754
 20
244.2216639615862
 30
0.0
 11
368.3169077902754
 21
250.6466639615862
 31
0.0
  0
LINE
  5
F55
330
1F
100
AcDbEntity
  8
AM_7
100
AcDbLine
 10
368.3169077902754
 20
250.6466639615862
 30
0.0
 11
368.3169077902754
 21
257.0716639615862
 31
0.0
  0
LINE
  5
F58
330
1F
100
AcDbEntity
  8
AM_7
100
AcDbLine
 10
250.4636873975215
 20
196.2096154862649
 30
0.0
 11
268.6731917774774
 21
196.2096154862649
 31
0.0
  0
LINE
  5
F5B
330
1F
100
AcDbEntity
  8
AM_7
100
AcDbLine
 10
283.5966873975215
 20
198.2096154862649
 30
0.0
 11
288.7636873975215
 21
198.2096154862649
 31
0.0
  0
LINE
  5
F5C
330
1F
100
AcDbEntity
  8
AM_7
100
AcDbLine
 10
288.7636873975215
 20
198.2096154862649
 30
0.0
 11
293.9306873975215
 21
198.2096154862649
 31
0.0
  0
LINE
  5
F5D
330
1F
100
AcDbEntity
  8
AM_7
100
AcDbLine
 10
288.7636873975215
 20
193.0426154862649
 30
0.0
 11
288.7636873975215
 21
198.2096154862649
 31
0.0
  0
LINE
  5
F5E
330
1F
100
AcDbEntity
  8
AM_7
100
AcDbLine
 10
288.7636873975215
 20
198.2096154862649
 30
0.0
 11
288.7636873975215
 21
203.376615486265
 31
0.0
  0
LINE
  5
F5F
330
1F
100
AcDbEntity
  8
AM_7
100
AcDbLine
 10
310.2636873975215
 20
198.2096154862649
 30
0.0
 11
310.2636873975215
 21
198.2096154862649
 31
0.0
  0
LINE
  5
F60
330
1F
100
AcDbEntity
  8
AM_7
100
AcDbLine
 10
310.2636873975215
 20
198.2096154862649
 30
0.0
 11
310.2636873975215
 21
198.2096154862649
 31
0.0
  0
LINE
  5
F61
330
1F
100
AcDbEntity
  8
AM_7
100
AcDbLine
 10
305.0966873975215
 20
198.2096154862649
 30
0.0
 11
310.2636873975215
 21
198.2096154862649
 31
0.0
  0
LINE
  5
F62
330
1F
100
AcDbEntity
  8
AM_7
100
AcDbLine
 10
310.2636873975215
 20
198.2096154862649
 30
0.0
 11
315.4306873975215
 21
198.2096154862649
 31
0.0
  0
LINE
  5
F63
330
1F
100
AcDbEntity
  8
AM_7
100
AcDbLine
 10
310.2636873975215
 20
193.0426154862649
 30
0.0
 11
310.2636873975215
 21
198.2096154862649
 31
0.0
  0
LINE
  5
F64
330
1F
100
AcDbEntity
  8
AM_7
100
AcDbLine
 10
310.2636873975215
 20
198.2096154862649
 30
0.0
 11
310.2636873975215
 21
203.376615486265
 31
0.0
  0
LINE
  5
F65
330
1F
100
AcDbEntity
  8
AM_7
100
AcDbLine
 10
276.2636873975215
 20
198.2096154862649
 30
0.0
 11
276.2636873975215
 21
198.2096154862649
 31
0.0
  0
LINE
  5
F66
330
1F
100
AcDbEntity
  8
AM_7
100
AcDbLine
 10
276.2636873975215
 20
198.2096154862649
 30
0.0
 11
276.2636873975215
 21
198.2096154862649
 31
0.0
  0
LINE
  5
F67
330
1F
100
AcDbEntity
  8
AM_7
100
AcDbLine
 10
271.9641873975215
 20
198.2096154862649
 30
0.0
 11
276.2636873975215
 21
198.2096154862649
 31
0.0
  0
LINE
  5
F68
330
1F
100
AcDbEntity
  8
AM_7
100
AcDbLine
 10
276.2636873975215
 20
198.2096154862649
 30
0.0
 11
280.5631873975215
 21
198.2096154862649
 31
0.0
  0
LINE
  5
F69
330
1F
100
AcDbEntity
  8
AM_7
100
AcDbLine
 10
276.2636873975215
 20
193.9101154862649
 30
0.0
 11
276.2636873975215
 21
198.2096154862649
 31
0.0
  0
LINE
  5
F6A
330
1F
100
AcDbEntity
  8
AM_7
100
AcDbLine
 10
276.2636873975215
 20
198.2096154862649
 30
0.0
 11
276.2636873975215
 21
202.509115486265
 31
0.0
  0
LINE
  5
F6B
330
1F
100
AcDbEntity
  8
AM_7
100
AcDbLine
 10
299.2636873975215
 20
198.2096154862649
 30
0.0
 11
299.2636873975215
 21
198.2096154862649
 31
0.0
  0
LINE
  5
F6C
330
1F
100
AcDbEntity
  8
AM_7
100
AcDbLine
 10
299.2636873975215
 20
198.2096154862649
 30
0.0
 11
299.2636873975215
 21
198.2096154862649
 31
0.0
  0
LINE
  5
F6D
330
1F
100
AcDbEntity
  8
AM_7
100
AcDbLine
 10
294.9641873975215
 20
198.2096154862649
 30
0.0
 11
299.2636873975215
 21
198.2096154862649
 31
0.0
  0
LINE
  5
F6E
330
1F
100
AcDbEntity
  8
AM_7
100
AcDbLine
 10
299.2636873975215
 20
198.2096154862649
 30
0.0
 11
303.5631873975215
 21
198.2096154862649
 31
0.0
  0
LINE
  5
F6F
330
1F
100
AcDbEntity
  8
AM_7
100
AcDbLine
 10
299.2636873975215
 20
193.9101154862649
 30
0.0
 11
299.2636873975215
 21
198.2096154862649
 31
0.0
  0
LINE
  5
F70
330
1F
100
AcDbEntity
  8
AM_7
100
AcDbLine
 10
299.2636873975215
 20
198.2096154862649
 30
0.0
 11
299.2636873975215
 21
202.509115486265
 31
0.0
  0
LINE
  5
F71
330
1F
100
AcDbEntity
  8
AM_7
100
AcDbLine
 10
268.1914372618806
 20
199.2096154862649
 30
0.0
 11
255.2636873975215
 21
199.2096154862649
 31
0.0
  0
ARC
  5
F72
330
1F
100
AcDbEntity
  8
AM_4
100
AcDbCircle
 10
288.7636873975215
 20
198.2096154862649
 30
0.0
 40
2.62
100
AcDbArc
 50
260.0000000000014
 51
190.0000000000002
  0
ARC
  5
F73
330
1F
100
AcDbEntity
  8
AM_4
100
AcDbCircle
 10
310.2636873975215
 20
198.2096154862649
 30
0.0
 40
2.62
100
AcDbArc
 50
260.0000000000014
 51
190.0000000000002
  0
ARC
  5
F74
330
1F
100
AcDbEntity
  8
AM_4
100
AcDbCircle
 10
276.2636873975215
 20
198.2096154862649
 30
0.0
 40
1.586
100
AcDbArc
 50
260.0000000000014
 51
190.0000000000002
  0
ARC
  5
F75
330
1F
100
AcDbEntity
  8
AM_4
100
AcDbCircle
 10
299.2636873975215
 20
198.2096154862649
 30
0.0
 40
1.586
100
AcDbArc
 50
260.0000000000014
 51
190.0000000000002
  0
LINE
  5
F76
330
1F
100
AcDbEntity
  8
AM_7
100
AcDbLine
 10
279.2636873975215
 20
152.5586355144483
 30
0.0
 11
279.2636873975215
 21
152.5586355144483
 31
0.0
  0
LINE
  5
F77
330
1F
100
AcDbEntity
  8
AM_7
100
AcDbLine
 10
279.2636873975215
 20
152.5586355144483
 30
0.0
 11
279.2636873975215
 21
152.5586355144483
 31
0.0
  0
LINE
  5
F78
330
1F
100
AcDbEntity
  8
AM_7
100
AcDbLine
 10
274.5636873975215
 20
152.5586355144483
 30
0.0
 11
279.2636873975215
 21
152.5586355144483
 31
0.0
  0
LINE
  5
F79
330
1F
100
AcDbEntity
  8
AM_7
100
AcDbLine
 10
279.2636873975215
 20
152.5586355144483
 30
0.0
 11
283.9636873975215
 21
152.5586355144483
 31
0.0
  0
LINE
  5
F7A
330
1F
100
AcDbEntity
  8
AM_7
100
AcDbLine
 10
279.2636873975215
 20
147.8586355144483
 30
0.0
 11
279.2636873975215
 21
152.5586355144483
 31
0.0
  0
LINE
  5
F7B
330
1F
100
AcDbEntity
  8
AM_7
100
AcDbLine
 10
279.2636873975215
 20
152.5586355144483
 30
0.0
 11
279.2636873975215
 21
157.2586355144482
 31
0.0
  0
LINE
  5
F7C
330
1F
100
AcDbEntity
  8
AM_7
100
AcDbLine
 10
294.2636873975215
 20
152.5586355144483
 30
0.0
 11
294.2636873975215
 21
152.5586355144483
 31
0.0
  0
LINE
  5
F7D
330
1F
100
AcDbEntity
  8
AM_7
100
AcDbLine
 10
294.2636873975215
 20
152.5586355144483
 30
0.0
 11
294.2636873975215
 21
152.5586355144483
 31
0.0
  0
LINE
  5
F7E
330
1F
100
AcDbEntity
  8
AM_7
100
AcDbLine
 10
289.5636873975215
 20
152.5586355144483
 30
0.0
 11
294.2636873975215
 21
152.5586355144483
 31
0.0
  0
LINE
  5
F7F
330
1F
100
AcDbEntity
  8
AM_7
100
AcDbLine
 10
294.2636873975215
 20
152.5586355144483
 30
0.0
 11
298.9636873975215
 21
152.5586355144483
 31
0.0
  0
LINE
  5
F80
330
1F
100
AcDbEntity
  8
AM_7
100
AcDbLine
 10
294.2636873975215
 20
147.8586355144483
 30
0.0
 11
294.2636873975215
 21
152.5586355144483
 31
0.0
  0
LINE
  5
F81
330
1F
100
AcDbEntity
  8
AM_7
100
AcDbLine
 10
294.2636873975215
 20
152.5586355144483
 30
0.0
 11
294.2636873975215
 21
157.2586355144482
 31
0.0
  0
LINE
  5
F82
330
1F
100
AcDbEntity
  8
AM_7
100
AcDbLine
 10
255.5136873975215
 20
166.5586355144483
 30
0.0
 11
255.5136873975215
 21
166.5586355144483
 31
0.0
  0
LINE
  5
F83
330
1F
100
AcDbEntity
  8
AM_7
100
AcDbLine
 10
255.5136873975215
 20
166.5586355144483
 30
0.0
 11
255.5136873975215
 21
166.5586355144483
 31
0.0
  0
LINE
  5
F84
330
1F
100
AcDbEntity
  8
AM_7
100
AcDbLine
 10
251.2141873975215
 20
166.5586355144483
 30
0.0
 11
255.5136873975215
 21
166.5586355144483
 31
0.0
  0
LINE
  5
F85
330
1F
100
AcDbEntity
  8
AM_7
100
AcDbLine
 10
255.5136873975215
 20
166.5586355144483
 30
0.0
 11
259.8131873975215
 21
166.5586355144483
 31
0.0
  0
LINE
  5
F86
330
1F
100
AcDbEntity
  8
AM_7
100
AcDbLine
 10
255.5136873975215
 20
162.2591355144483
 30
0.0
 11
255.5136873975215
 21
166.5586355144483
 31
0.0
  0
LINE
  5
F87
330
1F
100
AcDbEntity
  8
AM_7
100
AcDbLine
 10
255.5136873975215
 20
166.5586355144483
 30
0.0
 11
255.5136873975215
 21
170.8581355144483
 31
0.0
  0
LINE
  5
F88
330
1F
100
AcDbEntity
  8
AM_7
100
AcDbLine
 10
255.5136873975215
 20
138.5586355144483
 30
0.0
 11
255.5136873975215
 21
138.5586355144483
 31
0.0
  0
LINE
  5
F89
330
1F
100
AcDbEntity
  8
AM_7
100
AcDbLine
 10
255.5136873975215
 20
138.5586355144483
 30
0.0
 11
255.5136873975215
 21
138.5586355144483
 31
0.0
  0
LINE
  5
F8A
330
1F
100
AcDbEntity
  8
AM_7
100
AcDbLine
 10
251.2141873975215
 20
138.5586355144483
 30
0.0
 11
255.5136873975215
 21
138.5586355144483
 31
0.0
  0
LINE
  5
F8B
330
1F
100
AcDbEntity
  8
AM_7
100
AcDbLine
 10
255.5136873975215
 20
138.5586355144483
 30
0.0
 11
259.8131873975215
 21
138.5586355144483
 31
0.0
  0
LINE
  5
F8C
330
1F
100
AcDbEntity
  8
AM_7
100
AcDbLine
 10
255.5136873975215
 20
134.2591355144483
 30
0.0
 11
255.5136873975215
 21
138.5586355144483
 31
0.0
  0
LINE
  5
F8D
330
1F
100
AcDbEntity
  8
AM_7
100
AcDbLine
 10
255.5136873975215
 20
138.5586355144483
 30
0.0
 11
255.5136873975215
 21
142.8581355144483
 31
0.0
  0
LINE
  5
F8E
330
1F
100
AcDbEntity
  8
AM_7
100
AcDbLine
 10
267.6466976933758
 20
144.5586355144483
 30
0.0
 11
257.1151134912153
 21
144.5586355144483
 31
0.0
  0
LINE
  5
F8F
330
1F
100
AcDbEntity
  8
AM_7
100
AcDbLine
 10
268.7964064644021
 20
160.5586355144483
 30
0.0
 11
257.0489913501473
 21
160.5586355144483
 31
0.0
  0
LINE
  5
F90
330
1F
100
AcDbEntity
  8
AM_7
100
AcDbLine
 10
322.5726212271678
 20
152.5586355144483
 30
0.0
 11
250.5292956415886
 21
152.5586355144483
 31
0.0
  0
ARC
  5
F91
330
1F
100
AcDbEntity
  8
AM_4
100
AcDbCircle
 10
255.5136873975215
 20
166.5586355144483
 30
0.0
 40
1.586
100
AcDbArc
 50
260.0000000000014
 51
190.0000000000002
  0
ARC
  5
F92
330
1F
100
AcDbEntity
  8
AM_4
100
AcDbCircle
 10
255.5136873975215
 20
138.5586355144483
 30
0.0
 40
1.586
100
AcDbArc
 50
260.0000000000014
 51
190.0000000000002
  0
DIMENSION
  5
F95
330
1F
100
AcDbEntity
  8
AM_REFDIM
100
AcDbDimension
  2
*D4
 10
212.11486793003
 20
217.5941216724283
 30
0.0
 11
208.61486793003
 21
219.1566216724283
 31
0.0
 70
    32
 71
     5
 42
7.0
  3
ISO-25-1$0$0
100
AcDbAlignedDimension
 13
205.11486793003
 23
225.1466639615862
 33
0.0
 14
212.11486793003
 24
224.3471639615862
 34
0.0
100
AcDbRotatedDimension
  0
DIMENSION
  5
F96
330
1F
100
AcDbEntity
  8
AM_REFDIM
100
AcDbDimension
  2
*D5
 10
198.6929262838942
 20
228.6466639615862
 30
0.0
 11
197.1304262838942
 21
242.6466639615862
 31
0.0
 70
    32
  1
<>{}{\H0.71x;\C3;%%p0.2}
 71
     5
 42
28.0
  3
ISO-25-1$0$0
100
AcDbAlignedDimension
 13
207.81536793003
 23
256.6466639615862
 33
0.0
 14
207.81536793003
 24
228.6466639615862
 34
0.0
 50
90.0
100
AcDbRotatedDimension
1001
ACAD
1000
DSTYLE
1002
{
1070
   286
1070
     0
1070
   284
1070
     8
1070
   274
1070
     2
1070
    47
1040
0.2
1070
    48
1040
0.2
1070
   272
1070
     2
1002
}
1001
GENIUS_GENDTOL_13
1000
TolSmPm
1000

1000
{\H0.71x;$2%%p$P}
1040
28.0
  0
DIMENSION
  5
F97
330
1F
100
AcDbEntity
  8
AM_REFDIM
100
AcDbDimension
  2
*D6
 10
193.4274641550439
 20
260.1466639615862
 30
0.0
 11
191.8649641550438
 21
242.6466639615862
 31
0.0
 70
    32
  1
<>
 71
     5
 42
35.0
  3
ISO-25-1$0$0
100
AcDbAlignedDimension
 13
205.11486793003
 23
225.1466639615862
 33
0.0
 14
205.11486793003
 24
260.1466639615862
 34
0.0
 50
90.0
100
AcDbRotatedDimension
1001
ACAD
1000
DSTYLE
1002
{
1070
   286
1070
     0
1070
   284
1070
     8
1070
   274
1070
     2
1070
    47
1040
0.2
1070
    48
1040
0.2
1070
   272
1070
     2
1002
}
  0
DIMENSION
  5
F98
330
1F
100
AcDbEntity
  8
AM_REFDIM
100
AcDbDimension
  2
*D7
 10
188.0165956635633
 20
224.1466639615862
 30
0.0
 11
186.4540956635633
 21
242.6466639615863
 31
0.0
 70
    32
 71
     5
 42
37.00000000000003
  3
ISO-25-1$0$0
100
AcDbAlignedDimension
 13
204.81486793003
 23
261.1466639615862
 33
0.0
 14
204.81486793003
 24
224.1466639615862
 34
0.0
 50
90.0
100
AcDbRotatedDimension
1001
ACAD
1000
DSTYLE
1002
{
1070
    47
1040
0.2
1070
    48
1040
0.2
1002
}
  0
DIMENSION
  5
F99
330
1F
100
AcDbEntity
  8
AM_REFDIM
100
AcDbDimension
  2
*D8
 10
193.4274641550439
 20
261.1466639615862
 30
0.0
 11
191.8649641550438
 21
265.7448782473005
 31
0.0
 70
    32
 71
     5
 42
1.000000000000056
  3
ISO-25-1$0$0
100
AcDbAlignedDimension
 13
205.11486793003
 23
260.1466639615862
 33
0.0
 14
204.81486793003
 24
261.1466639615862
 34
0.0
 50
90.0
100
AcDbRotatedDimension
1001
ACAD
1000
DSTYLE
1002
{
1070
    47
1040
0.2
1070
    48
1040
0.2
1002
}
  0
DIMENSION
  5
F9A
330
1F
100
AcDbEntity
  8
AM_REFDIM
100
AcDbDimension
  2
*D9
 10
219.11486793003
 20
265.8729753859195
 30
0.0
 11
212.11486793003
 21
267.4354753859195
 31
0.0
 70
    32
 71
     5
 42
14.0
  3
ISO-25-1$0$0
100
AcDbAlignedDimension
 13
205.11486793003
 23
260.1466639615862
 33
0.0
 14
219.11486793003
 24
260.1466639615862
 34
0.0
100
AcDbRotatedDimension
1001
ACAD
1000
DSTYLE
1002
{
1070
    47
1040
0.2
1070
    48
1040
0.2
1002
}
  0
DIMENSION
  5
F9B
330
1F
100
AcDbEntity
  8
AM_REFDIM
100
AcDbDimension
  2
*D10
 10
220.11486793003
 20
271.4732272615878
 30
0.0
 11
212.11486793003
 21
273.0357272615878
 31
0.0
 70
    32
 71
     5
 42
16.0
  3
ISO-25-1$0$0
100
AcDbAlignedDimension
 13
204.11486793003
 23
260.4466639615862
 33
0.0
 14
220.11486793003
 24
260.4466639615862
 34
0.0
100
AcDbRotatedDimension
1001
ACAD
1000
DSTYLE
1002
{
1070
    47
1040
0.2
1070
    48
1040
0.2
1002
}
  0
LEADER
  5
F9C
330
1F
100
AcDbEntity
  8
AM_REFDIM
100
AcDbLeader
  3
ISO-25-1$0
 73
     0
 74
     0
 75
     1
 40
1.875
 41
19.01785714285713
 76
     3
 10
213.2008751292395
 20
227.5233089114828
 30
0.0
 10
217.9147010988311
 20
216.5600924664858
 30
0.0
 10
219.7897010988311
 20
216.5600924664858
 30
0.0
340
F9D
213
0.2716481282963059
223
-0.2027434647183668
233
0.0
1001
ACAD
1000
DSTYLE
1002
{
1070
   147
1040
1.0
1070
    77
1070
     3
1070
    47
1040
0.2
1070
    48
1040
0.2
1002
}
  0
MTEXT
  5
F9D
102
{ACAD_REACTORS
330
F9C
102
}
330
1F
100
AcDbEntity
  8
AM_REFDIM
100
AcDbMText
 10
220.1430529705348
 20
219.2628359312042
 30
0.0
 40
1.875
 41
0.0
 71
     1
 72
     1
  1
2-M3*0.5thru
  7
CHINESET
 73
     1
 44
1.0
1001
ACAD
1000
MTEXTBEGIN
1070
    73
1070
     1
1070
    44
1040
1.0
1070
    74
1070
     0
1000
MTEXTEND
  0
DIMENSION
  5
F9E
330
1F
100
AcDbEntity
  8
AM_REFDIM
100
AcDbDimension
  2
*D11
 10
246.7750392771801
 20
250.6466639615862
 30
0.0
 11
245.2125392771801
 21
242.6466639615862
 31
0.0
 70
    32
 71
     5
 42
15.99999999999997
  3
ISO-25-1$0$0
100
AcDbAlignedDimension
 13
254.0636873975214
 23
234.6466639615862
 33
0.0
 14
251.2141873975215
 24
250.6466639615862
 34
0.0
 50
90.0
100
AcDbRotatedDimension
1001
ACAD
1000
DSTYLE
1002
{
1070
    47
1040
0.2
1070
    48
1040
0.2
1002
}
  0
DIMENSION
  5
F9F
330
1F
100
AcDbEntity
  8
AM_REFDIM
100
AcDbDimension
  2
*D12
 10
240.5975645447218
 20
228.6466639615862
 30
0.0
 11
239.0350645447218
 21
242.6466639615862
 31
0.0
 70
    32
  1
<>{}{\H0.71x;\C3;%%p0.2}
 71
     5
 42
28.0
  3
ISO-25-1$0$0
100
AcDbAlignedDimension
 13
251.2141873975215
 23
256.6466639615862
 33
0.0
 14
251.2141873975215
 24
228.6466639615862
 34
0.0
 50
90.0
100
AcDbRotatedDimension
1001
ACAD
1000
DSTYLE
1002
{
1070
   286
1070
     0
1070
   284
1070
     8
1070
   274
1070
     2
1070
    47
1040
0.2
1070
    48
1040
0.2
1070
   272
1070
     2
1002
}
1001
GENIUS_GENDTOL_13
1000
TolSmPm
1000

1000
{\H0.71x;$2%%p$P}
1040
28.0
  0
LEADER
  5
FA0
330
1F
100
AcDbEntity
  8
AM_REFDIM
100
AcDbLeader
  3
ISO-25-1$0
 73
     0
 75
     1
 40
1.875
 41
19.01785714285713
 76
     3
 10
254.6046899050436
 20
227.6741613808604
 30
0.0
 10
249.9060462552148
 20
210.9095690870531
 30
0.0
 10
248.0310462552148
 20
210.9095690870531
 30
0.0
340
FA1
213
-0.095383386651406
223
-0.1292772681310907
233
0.0
1001
ACAD
1000
DSTYLE
1002
{
1070
   147
1040
1.0
1070
    77
1070
     3
1070
    47
1040
0.2
1070
    48
1040
0.2
1002
}
  0
MTEXT
  5
FA1
102
{ACAD_REACTORS
330
FA0
102
}
330
1F
100
AcDbEntity
  8
AM_REFDIM
100
AcDbMText
 10
247.5014296418662
 20
211.6638463551842
 30
0.0
 40
1.875
 41
0.0
 71
     9
 72
     1
  1
2-M3*0.5thru
  7
CHINESET
 73
     1
 44
1.0
1001
ACAD
1000
MTEXTBEGIN
1070
    73
1070
     1
1070
    44
1040
1.0
1070
    74
1070
     0
1000
MTEXTEND
  0
DIMENSION
  5
FA2
330
1F
100
AcDbEntity
  8
AM_REFDIM
100
AcDbDimension
  2
*D13
 10
255.5136873975215
 20
265.8729753859195
 30
0.0
 11
245.4538805052467
 21
265.8729753859195
 31
0.0
 70
   160
  1
<>
 71
     5
 42
2.75
  3
ISO-25-1$0$0
100
AcDbAlignedDimension
 13
252.7636873975215
 23
260.1466639615862
 33
0.0
 14
255.5136873975215
 24
260.9461639615862
 34
0.0
100
AcDbRotatedDimension
1001
ACAD
1000
DSTYLE
1002
{
1070
   286
1070
     0
1070
   284
1070
     8
1070
   274
1070
     2
1070
    47
1040
0.2
1070
    48
1040
0.2
1070
   272
1070
     2
1002
}
  0
DIMENSION
  5
FA3
330
1F
100
AcDbEntity
  8
AM_REFDIM
100
AcDbDimension
  2
*D14
 10
258.2636873975215
 20
271.4732272615878
 30
0.0
 11
255.5136873975215
 21
273.0357272615878
 31
0.0
 70
    32
 71
     5
 42
5.5
  3
ISO-25-1$0$0
100
AcDbAlignedDimension
 13
252.7636873975215
 23
260.1466639615862
 33
0.0
 14
258.2636873975215
 24
260.1466639615862
 34
0.0
100
AcDbRotatedDimension
1001
ACAD
1000
DSTYLE
1002
{
1070
    47
1040
0.2
1070
    48
1040
0.2
1002
}
  0
DIMENSION
  5
FA4
330
1F
100
AcDbEntity
  8
AM_REFDIM
100
AcDbDimension
  2
*D15
 10
266.2636873975215
 20
271.4732272615878
 30
0.0
 11
262.2636873975215
 21
273.0357272615878
 31
0.0
 70
    32
 71
     5
 42
8.0
  3
ISO-25-1$0$0
100
AcDbAlignedDimension
 13
258.2636873975215
 23
260.1466639615862
 33
0.0
 14
266.2636873975215
 24
261.1466639615862
 34
0.0
100
AcDbRotatedDimension
1001
ACAD
1000
DSTYLE
1002
{
1070
    47
1040
0.2
1070
    48
1040
0.2
1002
}
  0
DIMENSION
  5
FA5
330
1F
100
AcDbEntity
  8
AM_REFDIM
100
AcDbDimension
  2
*D16
 10
279.2636873975215
 20
265.8729753859195
 30
0.0
 11
272.7636873975215
 21
267.4354753859195
 31
0.0
 70
    32
 71
     5
 42
13.0
  3
ISO-25-1$0$0
100
AcDbAlignedDimension
 13
266.2636873975215
 23
261.1466639615862
 33
0.0
 14
279.2636873975215
 24
248.8966639615862
 34
0.0
100
AcDbRotatedDimension
1001
ACAD
1000
DSTYLE
1002
{
1070
    47
1040
0.2
1070
    48
1040
0.2
1002
}
  0
DIMENSION
  5
FA6
330
1F
100
AcDbEntity
  8
AM_REFDIM
100
AcDbDimension
  2
*D17
 10
294.2636873975215
 20
265.8729753859195
 30
0.0
 11
308.1029731118072
 21
267.9265468144909
 31
0.0
 70
    32
  1
10+1/2stroke
 71
     5
 42
15.0
  3
ISO-25-1$0$0
100
AcDbAlignedDimension
 13
279.2636873975215
 23
248.8966639615862
 33
0.0
 14
294.2636873975215
 24
248.8966639615862
 34
0.0
100
AcDbRotatedDimension
1001
ACAD
1000
DSTYLE
1002
{
1070
    47
1040
0.2
1070
    48
1040
0.2
1002
}
  0
DIMENSION
  5
FA7
330
1F
100
AcDbEntity
  8
AM_REFDIM
100
AcDbDimension
  2
*D18
 10
321.2636873975215
 20
271.4732272615878
 30
0.0
 11
293.7636873975215
 21
273.0357272615878
 31
0.0
 70
    32
  1
45+stroke
 71
     5
 42
55.0
  3
ISO-25-1$0$0
100
AcDbAlignedDimension
 13
266.2636873975215
 23
261.1466639615862
 33
0.0
 14
321.2636873975215
 24
261.1466639615862
 34
0.0
100
AcDbRotatedDimension
1001
ACAD
1000
DSTYLE
1002
{
1070
    47
1040
0.2
1070
    48
1040
0.2
1002
}
  0
DIMENSION
  5
FA8
330
1F
100
AcDbEntity
  8
AM_REFDIM
100
AcDbDimension
  2
*D19
 10
321.2636873975215
 20
276.3796322310589
 30
0.0
 11
287.0136873975215
 21
277.9421322310589
 31
0.0
 70
    32
  1
58.5+stroke
 71
     5
 42
68.5
  3
ISO-25-1$0$0
100
AcDbAlignedDimension
 13
252.7636873975215
 23
260.1466639615862
 33
0.0
 14
321.2636873975215
 24
261.1466639615862
 34
0.0
100
AcDbRotatedDimension
1001
ACAD
1000
DSTYLE
1002
{
1070
    47
1040
0.2
1070
    48
1040
0.2
1002
}
  0
LEADER
  5
FA9
330
1F
100
AcDbEntity
  8
AM_REFDIM
100
AcDbLeader
  3
ISO-25-1$0
 73
     0
 74
     0
 75
     1
 40
5.625
 41
23.39285714285714
 76
     3
 10
294.2636873975215
 20
242.6466639615862
 30
0.0
 10
321.9794848107244
 20
265.1955466831401
 30
0.0
 10
323.8544848107244
 20
265.1955466831401
 30
0.0
340
FAA
213
0.331341086996531
223
-0.2015523848944625
233
0.0
1001
ACAD
1000
DSTYLE
1002
{
1070
   147
1040
1.0
1070
    77
1070
     3
1070
    47
1040
0.2
1070
    48
1040
0.2
1002
}
  0
MTEXT
  5
FAA
102
{ACAD_REACTORS
330
FA9
102
}
330
1F
100
AcDbEntity
  8
AM_REFDIM
100
AcDbMText
 10
324.1481437237279
 20
271.6470990680345
 30
0.0
 40
1.875
 41
0.0
 71
     1
 72
     1
  1
2-%%C3.4thru\P2-%%C6.5*3.3depth
  7
CHINESET
 73
     1
 44
1.0
1001
ACAD
1000
MTEXTBEGIN
1070
    73
1070
     1
1070
    44
1040
1.0
1070
    74
1070
     0
1000
MTEXTEND
  0
LINE
  5
FAB
330
1F
100
AcDbEntity
  8
AM_7
 48
0.5
100
AcDbLine
 10
365.0583944923836
 20
253.9966639615862
 30
0.0
 11
356.7407607775079
 21
253.9966639615862
 31
0.0
  0
LINE
  5
FAC
330
1F
100
AcDbEntity
  8
AM_7
 48
0.5
100
AcDbLine
 10
364.6139096951292
 20
231.2966639615862
 30
0.0
 11
357.1342417154775
 21
231.2966639615862
 31
0.0
  0
DIMENSION
  5
FAD
330
1F
100
AcDbEntity
  8
AM_REFDIM
100
AcDbDimension
  2
*D20
 10
352.4423599652927
 20
231.2966639615862
 30
0.0
 11
350.8798599652926
 21
242.6466639615862
 31
0.0
 70
    32
 71
     5
 42
22.69999999999999
  3
ISO-25-1$0$0
100
AcDbAlignedDimension
 13
356.7407607775079
 23
253.9966639615862
 33
0.0
 14
357.1342417154775
 24
231.2966639615862
 34
0.0
 50
90.0
100
AcDbRotatedDimension
1001
ACAD
1000
DSTYLE
1002
{
1070
    47
1040
0.2
1070
    48
1040
0.2
1002
}
  0
DIMENSION
  5
FAE
330
1F
100
AcDbEntity
  8
AM_REFDIM
100
AcDbDimension
  2
*D21
 10
374.3169077902753
 20
218.2481658502558
 30
0.0
 11
371.3169077902754
 21
219.8106658502558
 31
0.0
 70
    32
 71
     5
 42
6.0
  3
ISO-25-1$0$0
100
AcDbAlignedDimension
 13
368.3169077902754
 23
228.2216639615862
 33
0.0
 14
374.3169077902753
 24
224.8466639615862
 34
0.0
100
AcDbRotatedDimension
1001
ACAD
1000
DSTYLE
1002
{
1070
    47
1040
0.2
1070
    48
1040
0.2
1002
}
  0
DIMENSION
  5
FAF
330
1F
100
AcDbEntity
  8
AM_REFDIM
100
AcDbDimension
  2
*D22
 10
374.3169077902753
 20
265.8729753859195
 30
0.0
 11
372.8169077902754
 21
265.8729753859195
 31
0.0
 70
   160
 71
     5
 42
3.0
  3
ISO-25-1$0$0
100
AcDbAlignedDimension
 13
371.3169077902754
 23
245.4466639615862
 33
0.0
 14
374.3169077902753
 24
260.4466639615862
 34
0.0
100
AcDbRotatedDimension
1001
ACAD
1000
DSTYLE
1002
{
1070
    47
1040
0.2
1070
    48
1040
0.2
1070
   173
1070
     1
1070
   343
1005
ACA
1002
}
  0
DIMENSION
  5
FB0
330
1F
100
AcDbEntity
  8
AM_REFDIM
100
AcDbDimension
  2
*D23
 10
371.3169077902754
 20
265.8729753859195
 30
0.0
 11
369.8169077902754
 21
265.8729753859195
 31
0.0
 70
   160
 71
     5
 42
3.0
  3
ISO-25-1$0$0
100
AcDbAlignedDimension
 13
368.3169077902754
 23
257.0716639615862
 33
0.0
 14
371.3169077902754
 24
245.4466639615862
 34
0.0
100
AcDbRotatedDimension
1001
ACAD
1000
DSTYLE
1002
{
1070
    47
1040
0.2
1070
    48
1040
0.2
1070
   173
1070
     1
1070
   344
1005
ACA
1002
}
  0
DIMENSION
  5
FB1
330
1F
100
AcDbEntity
  8
AM_REFDIM
100
AcDbDimension
  2
*D24
 10
382.2385134142017
 20
244.2466639615862
 30
0.0
 11
380.6760134142016
 21
250.585949675872
 31
0.0
 70
    32
 71
     5
 42
3.199999999999988
  3
ISO-25-1$0$0
100
AcDbAlignedDimension
 13
374.0169077902753
 23
241.0466639615862
 33
0.0
 14
374.0169077902753
 24
244.2466639615862
 34
0.0
 50
90.0
100
AcDbRotatedDimension
1001
ACAD
1000
DSTYLE
1002
{
1070
    47
1040
0.2
1070
    48
1040
0.2
1002
}
  0
DIMENSION
  5
FB2
330
1F
100
AcDbEntity
  8
AM_REFDIM
100
AcDbDimension
  2
*D25
 10
388.9590528860636
 20
239.8466639615862
 30
0.0
 11
387.3965528860635
 21
242.6466639615862
 31
0.0
 70
    32
 71
     5
 42
5.599999999999965
  3
ISO-25-1$0$0
100
AcDbAlignedDimension
 13
371.3169077902754
 23
245.4466639615862
 33
0.0
 14
371.3169077902754
 24
239.8466639615862
 34
0.0
 50
90.0
100
AcDbRotatedDimension
1001
ACAD
1000
DSTYLE
1002
{
1070
    47
1040
0.2
1070
    48
1040
0.2
1002
}
  0
DIMENSION
  5
FB3
330
1F
100
AcDbEntity
  8
AM_REFDIM
100
AcDbDimension
  2
*D26
 10
394.3481643733114
 20
234.6466639615862
 30
0.0
 11
392.7856643733113
 21
242.6466639615862
 31
0.0
 70
    32
 71
     5
 42
16.0
  3
ISO-25-1$0$0
100
AcDbAlignedDimension
 13
374.7419077902754
 23
250.6466639615862
 33
0.0
 14
374.7419077902754
 24
234.6466639615862
 34
0.0
 50
90.0
100
AcDbRotatedDimension
1001
ACAD
1000
DSTYLE
1002
{
1070
    47
1040
0.2
1070
    48
1040
0.2
1002
}
  0
DIMENSION
  5
FB7
330
1F
100
AcDbEntity
  8
AM_REFDIM
100
AcDbDimension
  2
*D28
 10
276.2636873975215
 20
211.969365451991
 30
0.0
 11
271.2636873975215
 21
213.531865451991
 31
0.0
 70
    32
 71
     5
 42
10.0
  3
ISO-25-1$0$0
100
AcDbAlignedDimension
 13
266.2636873975215
 23
206.209615486265
 33
0.0
 14
276.2636873975215
 24
202.509115486265
 34
0.0
100
AcDbRotatedDimension
1001
ACAD
1000
DSTYLE
1002
{
1070
    47
1040
0.2
1070
    48
1040
0.2
1002
}
  0
DIMENSION
  5
FB8
330
1F
100
AcDbEntity
  8
AM_REFDIM
100
AcDbDimension
  2
*D29
 10
299.2636873975215
 20
211.969365451991
 30
0.0
 11
287.7636873975215
 21
213.531865451991
 31
0.0
 70
    32
  1
13+ST
 71
     5
 42
23.0
  3
ISO-25-1$0$0
100
AcDbAlignedDimension
 13
276.2636873975215
 23
202.509115486265
 33
0.0
 14
299.2636873975215
 24
202.509115486265
 34
0.0
100
AcDbRotatedDimension
1001
ACAD
1000
DSTYLE
1002
{
1070
    47
1040
0.2
1070
    48
1040
0.2
1002
}
  0
LEADER
  5
FB9
330
1F
100
AcDbEntity
  8
AM_REFDIM
100
AcDbLeader
  3
ISO-25-1$0
 73
     0
 74
     0
 75
     1
 40
2.5
 41
30.35714285714286
 76
     3
 10
300.3851587524833
 20
199.3310868412268
 30
0.0
 10
305.0666312814466
 20
212.8673083966374
 30
0.0
 10
306.9416312814466
 20
212.8673083966374
 30
0.0
340
FBA
213
0.2869916963121568
223
-0.6126806480154983
233
0.0
1001
ACAD
1000
DSTYLE
1002
{
1070
   147
1040
1.0
1070
    77
1070
     3
1070
    47
1040
0.2
1070
    48
1040
0.2
1002
}
  0
MTEXT
  5
FBA
102
{ACAD_REACTORS
330
FB9
102
}
330
1F
100
AcDbEntity
  8
AM_REFDIM
100
AcDbMText
 10
307.2796395851345
 20
216.6049890446529
 30
0.0
 40
1.875
 41
0.0
 71
     1
 72
     1
  1
2x2-M3*0.5*4.5depth
  7
CHINESET
 73
     1
 44
1.0
1001
ACAD
1000
MTEXTBEGIN
1070
    73
1070
     1
1070
    44
1040
1.0
1070
    74
1070
     0
1000
MTEXTEND
  0
LEADER
  5
FBC
330
1F
100
AcDbEntity
  8
AM_REFDIM
100
AcDbLeader
  3
ISO-25-1$0
 73
     0
 74
     0
 75
     1
 40
2.5
 41
30.26785714285713
 76
     3
 10
312.5699410919581
 20
199.4528346531449
 30
0.0
 10
325.9682569603669
 20
206.0503891933069
 30
0.0
 10
327.8432569603669
 20
206.0503891933069
 30
0.0
340
FBD
213
0.1804079127718978
223
-0.3424112626207716
233
0.0
1001
ACAD
1000
DSTYLE
1002
{
1070
   147
1040
1.0
1070
    77
1070
     3
1070
    47
1040
0.2
1070
    48
1040
0.2
1002
}
  0
MTEXT
  5
FBD
102
{ACAD_REACTORS
330
FBC
102
}
330
1F
100
AcDbEntity
  8
AM_REFDIM
100
AcDbMText
 10
328.287849047595
 20
209.5178004559277
 30
0.0
 40
1.875
 41
0.0
 71
     1
 72
     1
  1
2*2-M5*0.8*4.5depth
  7
CHINESET
 73
     1
 44
1.0
1001
ACAD
1000
MTEXTBEGIN
1070
    73
1070
     1
1070
    44
1040
1.0
1070
    74
1070
     0
1000
MTEXTEND
  0
MTEXT
  5
FBE
330
1F
100
AcDbEntity
  8
AM_REFDIM
100
AcDbMText
 10
327.9299408309008
 20
205.423651828228
 30
0.0
 40
1.875
 41
0.0
 71
     1
 72
     1
  1
(air port)
  7
CHINESET
 73
     1
 44
1.0
1001
ACAD
1000
MTEXTBEGIN
1070
    73
1070
     1
1070
    44
1040
1.0
1070
    74
1070
     0
1000
MTEXTEND
  0
DIMENSION
  5
FC0
330
1F
100
AcDbEntity
  8
AM_REFDIM
100
AcDbDimension
  2
*D30
 10
288.7636873975215
 20
185.0353310071765
 30
0.0
 11
277.5136873975215
 21
186.5978310071765
 31
0.0
 70
    32
 71
     5
 42
22.5
  3
ISO-25-1$0$0
100
AcDbAlignedDimension
 13
266.2636873975215
 23
190.2096154862649
 33
0.0
 14
288.7636873975215
 24
193.0426154862649
 34
0.0
100
AcDbRotatedDimension
1001
ACAD
1000
DSTYLE
1002
{
1070
    47
1040
0.2
1070
    48
1040
0.2
1002
}
  0
DIMENSION
  5
FC1
330
1F
100
AcDbEntity
  8
AM_REFDIM
100
AcDbDimension
  2
*D31
 10
321.2636873975215
 20
185.0353310071765
 30
0.0
 11
315.7636873975215
 21
186.5978310071765
 31
0.0
 70
    32
 71
     5
 42
11.0
  3
ISO-25-1$0$0
100
AcDbAlignedDimension
 13
310.2636873975215
 23
193.0426154862649
 33
0.0
 14
321.2636873975215
 24
190.2096154862649
 34
0.0
100
AcDbRotatedDimension
1001
ACAD
1000
DSTYLE
1002
{
1070
    47
1040
0.2
1070
    48
1040
0.2
1002
}
  0
DIMENSION
  5
FC2
330
1F
100
AcDbEntity
  8
AM_REFDIM
100
AcDbDimension
  2
*D32
 10
279.2636873975215
 20
176.6907943225701
 30
0.0
 11
272.7636873975215
 21
178.2532943225701
 31
0.0
 70
    32
 71
     5
 42
13.0
  3
ISO-25-1$0$0
100
AcDbAlignedDimension
 13
266.2636873975215
 23
171.0586355144483
 33
0.0
 14
279.2636873975215
 24
157.2586355144482
 34
0.0
100
AcDbRotatedDimension
1001
ACAD
1000
DSTYLE
1002
{
1070
    47
1040
0.2
1070
    48
1040
0.2
1002
}
  0
DIMENSION
  5
FC3
330
1F
100
AcDbEntity
  8
AM_REFDIM
100
AcDbDimension
  2
*D33
 10
294.2636873975215
 20
176.6907943225701
 30
0.0
 11
308.1029731118072
 21
178.7443657511416
 31
0.0
 70
    32
  1
10+1/2stroke
 71
     5
 42
15.0
  3
ISO-25-1$0$0
100
AcDbAlignedDimension
 13
279.2636873975215
 23
157.2586355144482
 33
0.0
 14
294.2636873975215
 24
157.2586355144482
 34
0.0
100
AcDbRotatedDimension
1001
ACAD
1000
DSTYLE
1002
{
1070
    47
1040
0.2
1070
    48
1040
0.2
1002
}
  0
DIMENSION
  5
FC4
330
1F
100
AcDbEntity
  8
AM_REFDIM
100
AcDbDimension
  2
*D34
 10
246.7750392771801
 20
190.2096154862649
 30
0.0
 11
245.2125392771801
 21
193.209615486265
 31
0.0
 70
    32
 71
     5
 42
6.0
  3
ISO-25-1$0$0
100
AcDbAlignedDimension
 13
250.4636873975215
 23
196.2096154862649
 33
0.0
 14
266.2636873975215
 24
190.2096154862649
 34
0.0
 50
90.0
100
AcDbRotatedDimension
1001
ACAD
1000
DSTYLE
1002
{
1070
    47
1040
0.2
1070
    48
1040
0.2
1002
}
  0
DIMENSION
  5
FC5
330
1F
100
AcDbEntity
  8
AM_REFDIM
100
AcDbDimension
  2
*D35
 10
246.7750392771802
 20
199.2096154862649
 30
0.0
 11
246.7750392771801
 21
197.709615486265
 31
0.0
 70
   160
 71
     5
 42
3.0
  3
ISO-25-1$0$0
100
AcDbAlignedDimension
 13
250.4636873975215
 23
196.2096154862649
 33
0.0
 14
255.2636873975215
 24
199.2096154862649
 34
0.0
 50
90.0
100
AcDbRotatedDimension
1001
ACAD
1000
DSTYLE
1002
{
1070
    47
1040
0.2
1070
    48
1040
0.2
1002
}
  0
DIMENSION
  5
FC6
330
1F
100
AcDbEntity
  8
AM_REFDIM
100
AcDbDimension
  2
*D36
 10
205.11486793003
 20
265.8729753859195
 30
0.0
 11
199.5166536443157
 21
265.8729753859195
 31
0.0
 70
   160
 71
     5
  3
ISO-25-1$0$0
100
AcDbAlignedDimension
 13
204.11486793003
 23
260.4466639615862
 33
0.0
 14
205.11486793003
 24
260.1466639615862
 34
0.0
100
AcDbRotatedDimension
1001
ACAD
1000
DSTYLE
1002
{
1070
    47
1040
0.2
1070
    48
1040
0.2
1002
}
  0
DIMENSION
  5
FC7
330
1F
100
AcDbEntity
  8
AM_REFDIM
100
AcDbDimension
  2
*D37
 10
328.7636873975215
 20
190.2096154862649
 30
0.0
 11
327.2011873975214
 21
194.209615486265
 31
0.0
 70
    32
 71
     5
 42
7.999999999999971
  3
ISO-25-1$0$0
100
AcDbAlignedDimension
 13
315.4306873975215
 23
198.2096154862649
 33
0.0
 14
321.2636873975215
 24
190.2096154862649
 34
0.0
 50
90.0
100
AcDbRotatedDimension
1001
ACAD
1000
DSTYLE
1002
{
1070
    47
1040
0.2
1070
    48
1040
0.2
1002
}
  0
LINE
  5
FC8
330
1F
100
AcDbEntity
  8
AM_VIS
100
AcDbLine
 10
204.11486793003
 20
260.4466639615862
 30
0.0
 11
204.81486793003
 21
261.1466639615862
 31
0.0
  0
LINE
  5
FC9
330
1F
100
AcDbEntity
  8
AM_VIS
100
AcDbLine
 10
204.81486793003
 20
261.1466639615862
 30
0.0
 11
219.41486793003
 21
261.1466639615862
 31
0.0
  0
LINE
  5
FCA
330
1F
100
AcDbEntity
  8
AM_VIS
100
AcDbLine
 10
219.41486793003
 20
261.1466639615862
 30
0.0
 11
220.11486793003
 21
260.4466639615862
 31
0.0
  0
LINE
  5
FCB
330
1F
100
AcDbEntity
  8
AM_VIS
100
AcDbLine
 10
220.11486793003
 20
256.6966639615862
 30
0.0
 11
220.11486793003
 21
260.4466639615862
 31
0.0
  0
LINE
  5
FCC
330
1F
100
AcDbEntity
  8
AM_VIS
100
AcDbLine
 10
219.81486793003
 20
256.3966639615862
 30
0.0
 11
220.11486793003
 21
256.6966639615862
 31
0.0
  0
LINE
  5
FCD
330
1F
100
AcDbEntity
  8
AM_VIS
100
AcDbLine
 10
219.81486793003
 20
255.6966639615862
 30
0.0
 11
219.81486793003
 21
256.3966639615862
 31
0.0
  0
LINE
  5
FCE
330
1F
100
AcDbEntity
  8
AM_VIS
100
AcDbLine
 10
219.11486793003
 20
255.6966639615862
 30
0.0
 11
219.81486793003
 21
255.6966639615862
 31
0.0
  0
LINE
  5
FCF
330
1F
100
AcDbEntity
  8
AM_VIS
100
AcDbLine
 10
219.81486793003
 20
252.2966639615862
 30
0.0
 11
219.11486793003
 21
252.2966639615862
 31
0.0
  0
LINE
  5
FD0
330
1F
100
AcDbEntity
  8
AM_VIS
100
AcDbLine
 10
219.81486793003
 20
251.5966639615862
 30
0.0
 11
219.81486793003
 21
252.2966639615862
 31
0.0
  0
LINE
  5
FD1
330
1F
100
AcDbEntity
  8
AM_VIS
100
AcDbLine
 10
220.11486793003
 20
251.2966639615862
 30
0.0
 11
219.81486793003
 21
251.5966639615862
 31
0.0
  0
LINE
  5
FD2
330
1F
100
AcDbEntity
  8
AM_VIS
100
AcDbLine
 10
220.11486793003
 20
233.9966639615862
 30
0.0
 11
220.11486793003
 21
251.2966639615862
 31
0.0
  0
LINE
  5
FD3
330
1F
100
AcDbEntity
  8
AM_VIS
100
AcDbLine
 10
219.81486793003
 20
233.6966639615862
 30
0.0
 11
220.11486793003
 21
233.9966639615862
 31
0.0
  0
LINE
  5
FD4
330
1F
100
AcDbEntity
  8
AM_VIS
100
AcDbLine
 10
219.81486793003
 20
232.9966639615862
 30
0.0
 11
219.81486793003
 21
233.6966639615862
 31
0.0
  0
LINE
  5
FD5
330
1F
100
AcDbEntity
  8
AM_VIS
100
AcDbLine
 10
219.11486793003
 20
232.9966639615862
 30
0.0
 11
219.81486793003
 21
232.9966639615862
 31
0.0
  0
LINE
  5
FD6
330
1F
100
AcDbEntity
  8
AM_VIS
100
AcDbLine
 10
219.81486793003
 20
229.5966639615862
 30
0.0
 11
219.11486793003
 21
229.5966639615862
 31
0.0
  0
LINE
  5
FD7
330
1F
100
AcDbEntity
  8
AM_VIS
100
AcDbLine
 10
219.81486793003
 20
228.8966639615862
 30
0.0
 11
219.81486793003
 21
229.5966639615862
 31
0.0
  0
LINE
  5
FD8
330
1F
100
AcDbEntity
  8
AM_VIS
100
AcDbLine
 10
220.11486793003
 20
228.5966639615862
 30
0.0
 11
219.81486793003
 21
228.8966639615862
 31
0.0
  0
LINE
  5
FD9
330
1F
100
AcDbEntity
  8
AM_VIS
100
AcDbLine
 10
220.11486793003
 20
224.8466639615862
 30
0.0
 11
220.11486793003
 21
228.5966639615862
 31
0.0
  0
LINE
  5
FDA
330
1F
100
AcDbEntity
  8
AM_VIS
100
AcDbLine
 10
220.11486793003
 20
224.8466639615862
 30
0.0
 11
219.41486793003
 21
224.1466639615862
 31
0.0
  0
LINE
  5
FDB
330
1F
100
AcDbEntity
  8
AM_VIS
100
AcDbLine
 10
219.41486793003
 20
224.1466639615862
 30
0.0
 11
204.81486793003
 21
224.1466639615862
 31
0.0
  0
LINE
  5
FDC
330
1F
100
AcDbEntity
  8
AM_VIS
100
AcDbLine
 10
204.81486793003
 20
224.1466639615862
 30
0.0
 11
204.11486793003
 21
224.8466639615862
 31
0.0
  0
LINE
  5
FDD
330
1F
100
AcDbEntity
  8
AM_VIS
100
AcDbLine
 10
205.11486793003
 20
241.0466639615862
 30
0.0
 11
204.41486793003
 21
241.0466639615862
 31
0.0
  0
LINE
  5
FDE
330
1F
100
AcDbEntity
  8
AM_VIS
100
AcDbLine
 10
204.41486793003
 20
244.2466639615862
 30
0.0
 11
205.11486793003
 21
244.2466639615862
 31
0.0
  0
LINE
  5
FDF
330
1F
100
AcDbEntity
  8
AM_VIS
100
AcDbLine
 10
204.11486793003
 20
240.9662792038568
 30
0.0
 11
204.11486793003
 21
239.1466639615862
 31
0.0
  0
LINE
  5
FE0
330
1F
100
AcDbEntity
  8
AM_VIS
100
AcDbLine
 10
204.61486793003
 20
238.6466639615862
 30
0.0
 11
204.61486793003
 21
230.6466639615862
 31
0.0
  0
LINE
  5
FE1
330
1F
100
AcDbEntity
  8
AM_VIS
100
AcDbLine
 10
204.11486793003
 20
260.4466639615862
 30
0.0
 11
204.11486793003
 21
255.1466639615862
 31
0.0
  0
LINE
  5
FE2
330
1F
100
AcDbEntity
  8
AM_VIS
100
AcDbLine
 10
204.61486793003
 20
254.6466639615862
 30
0.0
 11
204.61486793003
 21
246.6466639615862
 31
0.0
  0
LINE
  5
FE3
330
1F
100
AcDbEntity
  8
AM_VIS
100
AcDbLine
 10
204.11486793003
 20
230.1466639615862
 30
0.0
 11
204.11486793003
 21
224.8466639615862
 31
0.0
  0
LINE
  5
FE4
330
1F
100
AcDbEntity
  8
AM_VIS
100
AcDbLine
 10
204.11486793003
 20
230.1466639615862
 30
0.0
 11
204.61486793003
 21
230.6466639615862
 31
0.0
  0
LINE
  5
FE5
330
1F
100
AcDbEntity
  8
AM_VIS
100
AcDbLine
 10
204.61486793003
 20
238.6466639615862
 30
0.0
 11
204.11486793003
 21
239.1466639615862
 31
0.0
  0
LINE
  5
FE6
330
1F
100
AcDbEntity
  8
AM_VIS
100
AcDbLine
 10
204.11486793003
 20
246.1466639615862
 30
0.0
 11
204.11486793003
 21
244.3270487193156
 31
0.0
  0
LINE
  5
FE7
330
1F
100
AcDbEntity
  8
AM_VIS
100
AcDbLine
 10
204.11486793003
 20
246.1466639615862
 30
0.0
 11
204.61486793003
 21
246.6466639615862
 31
0.0
  0
LINE
  5
FE8
330
1F
100
AcDbEntity
  8
AM_VIS
100
AcDbLine
 10
204.61486793003
 20
254.6466639615862
 30
0.0
 11
204.11486793003
 21
255.1466639615862
 31
0.0
  0
ARC
  5
FE9
330
1F
100
AcDbEntity
  8
AM_VIS
100
AcDbCircle
 10
204.41486793003
 20
240.4466639615862
 30
0.0
 40
0.6
100
AcDbArc
 50
90.0
 51
119.9999999999997
  0
ARC
  5
FEA
330
1F
100
AcDbEntity
  8
AM_VIS
100
AcDbCircle
 10
204.41486793003
 20
244.8466639615862
 30
0.0
 40
0.5999999999999999
100
AcDbArc
 50
239.9999999999995
 51
270.0
  0
LINE
  5
FEB
330
1F
100
AcDbEntity
  8
AM_VIS
100
AcDbLine
 10
205.11486793003
 20
260.1466639615862
 30
0.0
 11
219.11486793003
 21
260.1466639615862
 31
0.0
  0
LINE
  5
FEC
330
1F
100
AcDbEntity
  8
AM_VIS
100
AcDbLine
 10
219.11486793003
 20
260.1466639615862
 30
0.0
 11
219.11486793003
 21
225.1466639615862
 31
0.0
  0
LINE
  5
FED
330
1F
100
AcDbEntity
  8
AM_VIS
100
AcDbLine
 10
219.11486793003
 20
225.1466639615862
 30
0.0
 11
205.11486793003
 21
225.1466639615862
 31
0.0
  0
LINE
  5
FEE
330
1F
100
AcDbEntity
  8
AM_VIS
100
AcDbLine
 10
205.11486793003
 20
225.1466639615862
 30
0.0
 11
205.11486793003
 21
260.1466639615862
 31
0.0
  0
CIRCLE
  5
FEF
330
1F
100
AcDbEntity
  8
AM_VIS
100
AcDbCircle
 10
212.11486793003
 20
256.6466639615862
 30
0.0
 40
1.2995
  0
CIRCLE
  5
FF0
330
1F
100
AcDbEntity
  8
AM_VIS
100
AcDbCircle
 10
210.11486793003
 20
234.6466639615861
 30
0.0
 40
2.5
  0
CIRCLE
  5
FF1
330
1F
100
AcDbEntity
  8
AM_VIS
100
AcDbCircle
 10
210.11486793003
 20
250.6466639615862
 30
0.0
 40
2.0
  0
CIRCLE
  5
FF4
330
1F
100
AcDbEntity
  8
AM_VIS
100
AcDbCircle
 10
212.11486793003
 20
228.6466639615862
 30
0.0
 40
1.2995
  0
CIRCLE
  5
FF5
330
1F
100
AcDbEntity
  8
AM_VIS
100
AcDbCircle
 10
210.11486793003
 20
250.6466639615862
 30
0.0
 40
1.799999999999997
  0
LINE
  5
FF6
330
1F
100
AcDbEntity
  8
AM_VIS
100
AcDbLine
 10
210.6928168897141
 20
235.6466639615861
 30
0.0
 11
211.26986793003
 21
234.6466639615861
 31
0.0
  0
LINE
  5
FF7
330
1F
100
AcDbEntity
  8
AM_VIS
100
AcDbLine
 10
210.6928168897141
 20
233.6466639615861
 30
0.0
 11
209.5369189703458
 21
233.6466639615861
 31
0.0
  0
LINE
  5
FF8
330
1F
100
AcDbEntity
  8
AM_VIS
100
AcDbLine
 10
211.26986793003
 20
234.6466639615861
 30
0.0
 11
210.6928168897142
 21
233.6466639615861
 31
0.0
  0
LINE
  5
FF9
330
1F
100
AcDbEntity
  8
AM_VIS
100
AcDbLine
 10
209.5369189703459
 20
235.6466639615861
 30
0.0
 11
210.6928168897142
 21
235.6466639615861
 31
0.0
  0
LINE
  5
FFA
330
1F
100
AcDbEntity
  8
AM_VIS
100
AcDbLine
 10
208.95986793003
 20
234.6466639615861
 30
0.0
 11
209.5369189703459
 21
235.6466639615861
 31
0.0
  0
LINE
  5
FFB
330
1F
100
AcDbEntity
  8
AM_VIS
100
AcDbLine
 10
209.5369189703459
 20
233.6466639615861
 30
0.0
 11
208.95986793003
 21
234.6466639615861
 31
0.0
  0
CIRCLE
  5
FFC
330
1F
100
AcDbEntity
  8
AM_VIS
100
AcDbCircle
 10
210.11486793003
 20
234.6466639615861
 30
0.0
 40
2.250000000000056
  0
LINE
  5
FFD
330
1F
100
AcDbEntity
  8
AM_VIS
100
AcDbLine
 10
266.2636873975215
 20
228.8966639615862
 30
0.0
 11
321.2636873975215
 21
228.8966639615862
 31
0.0
  0
LINE
  5
FFE
330
1F
100
AcDbEntity
  8
AM_VIS
100
AcDbLine
 10
321.2636873975215
 20
229.5966639615862
 30
0.0
 11
266.2636873975215
 21
229.5966639615862
 31
0.0
  0
LINE
  5
FFF
330
1F
100
AcDbEntity
  8
AM_VIS
100
AcDbLine
 10
266.2636873975215
 20
232.9966639615862
 30
0.0
 11
321.2636873975215
 21
232.9966639615862
 31
0.0
  0
LINE
  5
1000
330
1F
100
AcDbEntity
  8
AM_VIS
100
AcDbLine
 10
266.2636873975215
 20
251.5966639615862
 30
0.0
 11
321.2636873975215
 21
251.5966639615862
 31
0.0
  0
LINE
  5
1001
330
1F
100
AcDbEntity
  8
AM_VIS
100
AcDbLine
 10
321.2636873975215
 20
252.2966639615862
 30
0.0
 11
266.2636873975215
 21
252.2966639615862
 31
0.0
  0
LINE
  5
1002
330
1F
100
AcDbEntity
  8
AM_VIS
100
AcDbLine
 10
266.2636873975215
 20
255.6966639615862
 30
0.0
 11
321.2636873975215
 21
255.6966639615862
 31
0.0
  0
LINE
  5
1003
330
1F
100
AcDbEntity
  8
AM_VIS
100
AcDbLine
 10
266.2636873975215
 20
256.3966639615862
 30
0.0
 11
321.2636873975215
 21
256.3966639615862
 31
0.0
  0
LINE
  5
1004
330
1F
100
AcDbEntity
  8
AM_VIS
100
AcDbLine
 10
266.2636873975215
 20
233.6966639615862
 30
0.0
 11
321.2636873975215
 21
233.6966639615862
 31
0.0
  0
LINE
  5
1005
330
1F
100
AcDbEntity
  8
AM_VIS
100
AcDbLine
 10
321.2636873975215
 20
224.8466639615862
 30
0.0
 11
266.2636873975215
 21
224.8466639615862
 31
0.0
  0
LINE
  5
1006
330
1F
100
AcDbEntity
  8
AM_VIS
100
AcDbLine
 10
266.2636873975215
 20
228.5966639615862
 30
0.0
 11
321.2636873975215
 21
228.5966639615862
 31
0.0
  0
LINE
  5
1007
330
1F
100
AcDbEntity
  8
AM_VIS
100
AcDbLine
 10
321.2636873975215
 20
233.9966639615862
 30
0.0
 11
266.2636873975215
 21
233.9966639615862
 31
0.0
  0
LINE
  5
1008
330
1F
100
AcDbEntity
  8
AM_VIS
100
AcDbLine
 10
266.2636873975215
 20
251.2966639615862
 30
0.0
 11
321.2636873975215
 21
251.2966639615862
 31
0.0
  0
LINE
  5
1009
330
1F
100
AcDbEntity
  8
AM_VIS
100
AcDbLine
 10
321.2636873975215
 20
256.6966639615862
 30
0.0
 11
266.2636873975215
 21
256.6966639615862
 31
0.0
  0
LINE
  5
100A
330
1F
100
AcDbEntity
  8
AM_VIS
100
AcDbLine
 10
266.2636873975215
 20
260.4466639615862
 30
0.0
 11
321.2636873975215
 21
260.4466639615862
 31
0.0
  0
LINE
  5
100B
330
1F
100
AcDbEntity
  8
AM_VIS
100
AcDbLine
 10
321.2636873975215
 20
261.1466639615862
 30
0.0
 11
266.2636873975215
 21
261.1466639615862
 31
0.0
  0
LINE
  5
100C
330
1F
100
AcDbEntity
  8
AM_VIS
100
AcDbLine
 10
266.2636873975215
 20
224.1466639615862
 30
0.0
 11
321.2636873975215
 21
224.1466639615862
 31
0.0
  0
LINE
  5
100D
330
1F
100
AcDbEntity
  8
AM_VIS
100
AcDbLine
 10
266.2636873975215
 20
261.1466639615862
 30
0.0
 11
266.2636873975215
 21
260.4466639615862
 31
0.0
  0
LINE
  5
100E
330
1F
100
AcDbEntity
  8
AM_VIS
100
AcDbLine
 10
266.2636873975215
 20
256.6966639615862
 30
0.0
 11
266.2636873975215
 21
260.4466639615862
 31
0.0
  0
LINE
  5
100F
330
1F
100
AcDbEntity
  8
AM_VIS
100
AcDbLine
 10
266.2636873975215
 20
256.3966639615862
 30
0.0
 11
266.2636873975215
 21
256.6966639615862
 31
0.0
  0
LINE
  5
1010
330
1F
100
AcDbEntity
  8
AM_VIS
100
AcDbLine
 10
266.2636873975215
 20
255.6966639615862
 30
0.0
 11
266.2636873975215
 21
256.3966639615862
 31
0.0
  0
LINE
  5
1011
330
1F
100
AcDbEntity
  8
AM_VIS
100
AcDbLine
 10
266.2636873975215
 20
253.5466639615862
 30
0.0
 11
266.2636873975215
 21
254.4466639615862
 31
0.0
  0
LINE
  5
1012
330
1F
100
AcDbEntity
  8
AM_VIS
100
AcDbLine
 10
266.2636873975215
 20
251.5966639615862
 30
0.0
 11
266.2636873975215
 21
252.2966639615862
 31
0.0
  0
LINE
  5
1013
330
1F
100
AcDbEntity
  8
AM_VIS
100
AcDbLine
 10
266.2636873975215
 20
251.2966639615862
 30
0.0
 11
266.2636873975215
 21
251.5966639615862
 31
0.0
  0
LINE
  5
1014
330
1F
100
AcDbEntity
  8
AM_VIS
100
AcDbLine
 10
266.2636873975215
 20
233.9966639615862
 30
0.0
 11
266.2636873975215
 21
251.2966639615862
 31
0.0
  0
LINE
  5
1015
330
1F
100
AcDbEntity
  8
AM_VIS
100
AcDbLine
 10
266.2636873975215
 20
233.6966639615862
 30
0.0
 11
266.2636873975215
 21
233.9966639615862
 31
0.0
  0
LINE
  5
1016
330
1F
100
AcDbEntity
  8
AM_VIS
100
AcDbLine
 10
266.2636873975215
 20
232.9966639615862
 30
0.0
 11
266.2636873975215
 21
233.6966639615862
 31
0.0
  0
LINE
  5
1017
330
1F
100
AcDbEntity
  8
AM_VIS
100
AcDbLine
 10
266.2636873975215
 20
230.8466639615862
 30
0.0
 11
266.2636873975215
 21
231.7466639615862
 31
0.0
  0
LINE
  5
1018
330
1F
100
AcDbEntity
  8
AM_VIS
100
AcDbLine
 10
266.2636873975215
 20
228.8966639615862
 30
0.0
 11
266.2636873975215
 21
229.5966639615862
 31
0.0
  0
LINE
  5
1019
330
1F
100
AcDbEntity
  8
AM_VIS
100
AcDbLine
 10
266.2636873975215
 20
228.5966639615862
 30
0.0
 11
266.2636873975215
 21
228.8966639615862
 31
0.0
  0
LINE
  5
101A
330
1F
100
AcDbEntity
  8
AM_VIS
100
AcDbLine
 10
266.2636873975215
 20
224.8466639615862
 30
0.0
 11
266.2636873975215
 21
228.5966639615862
 31
0.0
  0
LINE
  5
101B
330
1F
100
AcDbEntity
  8
AM_VIS
100
AcDbLine
 10
266.2636873975215
 20
224.8466639615862
 30
0.0
 11
266.2636873975215
 21
224.1466639615862
 31
0.0
  0
LINE
  5
101C
330
1F
100
AcDbEntity
  8
AM_VIS
100
AcDbLine
 10
321.2636873975215
 20
224.1466639615862
 30
0.0
 11
321.2636873975215
 21
224.8466639615862
 31
0.0
  0
LINE
  5
101D
330
1F
100
AcDbEntity
  8
AM_VIS
100
AcDbLine
 10
321.2636873975215
 20
228.5966639615862
 30
0.0
 11
321.2636873975215
 21
224.8466639615862
 31
0.0
  0
LINE
  5
101E
330
1F
100
AcDbEntity
  8
AM_VIS
100
AcDbLine
 10
321.2636873975215
 20
228.8966639615862
 30
0.0
 11
321.2636873975215
 21
228.5966639615862
 31
0.0
  0
LINE
  5
101F
330
1F
100
AcDbEntity
  8
AM_VIS
100
AcDbLine
 10
321.2636873975215
 20
229.5966639615862
 30
0.0
 11
321.2636873975215
 21
228.8966639615862
 31
0.0
  0
LINE
  5
1020
330
1F
100
AcDbEntity
  8
AM_VIS
100
AcDbLine
 10
321.2636873975215
 20
231.7466639615862
 30
0.0
 11
321.2636873975215
 21
230.8466639615862
 31
0.0
  0
LINE
  5
1021
330
1F
100
AcDbEntity
  8
AM_VIS
100
AcDbLine
 10
321.2636873975215
 20
233.6966639615862
 30
0.0
 11
321.2636873975215
 21
232.9966639615862
 31
0.0
  0
LINE
  5
1022
330
1F
100
AcDbEntity
  8
AM_VIS
100
AcDbLine
 10
321.2636873975215
 20
233.9966639615862
 30
0.0
 11
321.2636873975215
 21
233.6966639615862
 31
0.0
  0
LINE
  5
1023
330
1F
100
AcDbEntity
  8
AM_VIS
100
AcDbLine
 10
321.2636873975215
 20
251.2966639615862
 30
0.0
 11
321.2636873975215
 21
233.9966639615862
 31
0.0
  0
LINE
  5
1024
330
1F
100
AcDbEntity
  8
AM_VIS
100
AcDbLine
 10
321.2636873975215
 20
251.5966639615862
 30
0.0
 11
321.2636873975215
 21
251.2966639615862
 31
0.0
  0
LINE
  5
1025
330
1F
100
AcDbEntity
  8
AM_VIS
100
AcDbLine
 10
321.2636873975215
 20
252.2966639615862
 30
0.0
 11
321.2636873975215
 21
251.5966639615862
 31
0.0
  0
LINE
  5
1026
330
1F
100
AcDbEntity
  8
AM_VIS
100
AcDbLine
 10
321.2636873975215
 20
254.4466639615862
 30
0.0
 11
321.2636873975215
 21
253.5466639615862
 31
0.0
  0
LINE
  5
1027
330
1F
100
AcDbEntity
  8
AM_VIS
100
AcDbLine
 10
321.2636873975215
 20
256.3966639615862
 30
0.0
 11
321.2636873975215
 21
255.6966639615862
 31
0.0
  0
LINE
  5
1028
330
1F
100
AcDbEntity
  8
AM_VIS
100
AcDbLine
 10
321.2636873975215
 20
256.6966639615862
 30
0.0
 11
321.2636873975215
 21
256.3966639615862
 31
0.0
  0
LINE
  5
1029
330
1F
100
AcDbEntity
  8
AM_VIS
100
AcDbLine
 10
321.2636873975215
 20
260.4466639615862
 30
0.0
 11
321.2636873975215
 21
256.6966639615862
 31
0.0
  0
LINE
  5
102A
330
1F
100
AcDbEntity
  8
AM_VIS
100
AcDbLine
 10
321.2636873975215
 20
260.4466639615862
 30
0.0
 11
321.2636873975215
 21
261.1466639615862
 31
0.0
  0
CIRCLE
  5
102B
330
1F
100
AcDbEntity
  8
AM_VIS
100
AcDbCircle
 10
279.2636873975215
 20
242.6466639615862
 30
0.0
 40
3.25
  0
CIRCLE
  5
102C
330
1F
100
AcDbEntity
  8
AM_VIS
100
AcDbCircle
 10
279.2636873975215
 20
242.6466639615862
 30
0.0
 40
1.7
  0
CIRCLE
  5
102D
330
1F
100
AcDbEntity
  8
AM_VIS
100
AcDbCircle
 10
294.2636873975215
 20
242.6466639615862
 30
0.0
 40
3.25
  0
CIRCLE
  5
102E
330
1F
100
AcDbEntity
  8
AM_VIS
100
AcDbCircle
 10
294.2636873975215
 20
242.6466639615862
 30
0.0
 40
1.7
  0
LINE
  5
102F
330
1F
100
AcDbEntity
  8
AM_VIS
100
AcDbLine
 10
266.2636873975215
 20
254.4466639615862
 30
0.0
 11
266.2636873975215
 21
255.6966639615862
 31
0.0
  0
LINE
  5
1030
330
1F
100
AcDbEntity
  8
AM_VIS
100
AcDbLine
 10
266.2636873975215
 20
252.2966639615862
 30
0.0
 11
266.2636873975215
 21
253.5466639615862
 31
0.0
  0
LINE
  5
1031
330
1F
100
AcDbEntity
  8
AM_VIS
100
AcDbLine
 10
266.2636873975215
 20
231.7466639615862
 30
0.0
 11
266.2636873975215
 21
232.9966639615862
 31
0.0
  0
LINE
  5
1032
330
1F
100
AcDbEntity
  8
AM_VIS
100
AcDbLine
 10
266.2636873975215
 20
229.5966639615862
 30
0.0
 11
266.2636873975215
 21
230.8466639615862
 31
0.0
  0
LINE
  5
1033
330
1F
100
AcDbEntity
  8
AM_VIS
100
AcDbLine
 10
321.2636873975215
 20
230.8466639615862
 30
0.0
 11
321.2636873975215
 21
229.5966639615862
 31
0.0
  0
LINE
  5
1034
330
1F
100
AcDbEntity
  8
AM_VIS
100
AcDbLine
 10
321.2636873975215
 20
232.9966639615862
 30
0.0
 11
321.2636873975215
 21
231.7466639615862
 31
0.0
  0
LINE
  5
1035
330
1F
100
AcDbEntity
  8
AM_VIS
100
AcDbLine
 10
321.2636873975215
 20
253.5466639615862
 30
0.0
 11
321.2636873975215
 21
252.2966639615862
 31
0.0
  0
LINE
  5
1036
330
1F
100
AcDbEntity
  8
AM_VIS
100
AcDbLine
 10
321.2636873975215
 20
255.6966639615862
 30
0.0
 11
321.2636873975215
 21
254.4466639615862
 31
0.0
  0
LINE
  5
1037
330
1F
100
AcDbEntity
  8
AM_VIS
100
AcDbLine
 10
258.2636873975215
 20
260.1466639615862
 30
0.0
 11
252.7636873975215
 21
260.1466639615862
 31
0.0
  0
LINE
  5
1038
330
1F
100
AcDbEntity
  8
AM_VIS
100
AcDbLine
 10
258.2636873975215
 20
225.1466639615862
 30
0.0
 11
252.7636873975215
 21
225.1466639615862
 31
0.0
  0
LINE
  5
1039
330
1F
100
AcDbEntity
  8
AM_VIS
100
AcDbLine
 10
252.7636873975215
 20
260.1466639615862
 30
0.0
 11
252.7636873975215
 21
225.1466639615862
 31
0.0
  0
LINE
  5
103A
330
1F
100
AcDbEntity
  8
AM_VIS
100
AcDbLine
 10
258.2636873975215
 20
225.1466639615862
 30
0.0
 11
258.2636873975215
 21
260.1466639615862
 31
0.0
  0
CIRCLE
  5
103B
330
1F
100
AcDbEntity
  8
AM_VIS
100
AcDbCircle
 10
255.5136873975215
 20
228.6466639615862
 30
0.0
 40
1.2995
  0
CIRCLE
  5
103C
330
1F
100
AcDbEntity
  8
AM_VIS
100
AcDbCircle
 10
255.5136873975215
 20
250.6466639615862
 30
0.0
 40
1.2995
  0
CIRCLE
  5
1040
330
1F
100
AcDbEntity
  8
AM_VIS
100
AcDbCircle
 10
255.5136873975215
 20
256.6466639615862
 30
0.0
 40
1.2995
  0
LINE
  5
1041
330
1F
100
AcDbEntity
  8
AM_VIS
100
AcDbLine
 10
266.2636873975215
 20
252.6466639615862
 30
0.0
 11
258.2636873975215
 21
252.6466639615862
 31
0.0
  0
LINE
  5
1042
330
1F
100
AcDbEntity
  8
AM_VIS
100
AcDbLine
 10
266.2636873975215
 20
248.6466639615862
 30
0.0
 11
258.2636873975215
 21
248.6466639615862
 31
0.0
  0
LINE
  5
1043
330
1F
100
AcDbEntity
  8
AM_VIS
100
AcDbLine
 10
261.7636873975215
 20
233.6784181250343
 30
0.0
 11
258.2636873975215
 21
233.6784181250343
 31
0.0
  0
LINE
  5
1044
330
1F
100
AcDbEntity
  8
AM_VIS
100
AcDbLine
 10
258.2636873975215
 20
235.6149097981381
 30
0.0
 11
261.7636873975215
 21
235.6149097981381
 31
0.0
  0
LINE
  5
1045
330
1F
100
AcDbEntity
  8
AM_VIS
100
AcDbLine
 10
261.7636873975215
 20
235.6149097981381
 30
0.0
 11
261.7636873975215
 21
233.6784181250343
 31
0.0
  0
ARC
  5
1046
330
1F
100
AcDbEntity
  8
AM_VIS
100
AcDbCircle
 10
260.0136873975215
 20
234.6466639615862
 30
0.0
 40
2.0
100
AcDbArc
 50
331.0449756281407
 51
28.95502437185924
  0
LINE
  5
1047
330
1F
100
AcDbEntity
  8
AM_VIS
100
AcDbLine
 10
266.2636873975215
 20
236.6466639615862
 30
0.0
 11
258.2636873975215
 21
236.6466639615862
 31
0.0
  0
LINE
  5
1048
330
1F
100
AcDbEntity
  8
AM_VIS
100
AcDbLine
 10
266.2636873975215
 20
232.6466639615862
 30
0.0
 11
258.2636873975215
 21
232.6466639615862
 31
0.0
  0
LINE
  5
1049
330
1F
100
AcDbEntity
  8
AM_VIS
100
AcDbLine
 10
259.2636873975215
 20
244.4494395993182
 30
0.0
 11
262.2636873975215
 21
244.4494395993182
 31
0.0
  0
SPLINE
  5
104A
330
1F
100
AcDbEntity
  8
AM_VIS
100
AcDbSpline
210
0.0
220
0.0
230
1.0
 70
    12
 71
     2
 72
     6
 73
     3
 74
     0
 42
0.0000000001
 43
0.0000000001
 40
0.0
 40
0.0
 40
0.0
 40
1.884600674528734
 40
1.884600674528734
 40
1.884600674528734
 10
262.2636873975215
 20
244.4494395993182
 30
0.0
 41
1.0
 10
262.7636873975215
 20
243.478714255924
 30
0.0
 41
1.040832999733107
 10
262.7636873975215
 20
242.6466639615862
 30
0.0
 41
1.0
  0
SPLINE
  5
104B
330
1F
100
AcDbEntity
  8
AM_VIS
100
AcDbSpline
210
0.0
220
0.0
230
1.0
 70
    12
 71
     2
 72
     6
 73
     3
 74
     0
 42
0.0000000001
 43
0.0000000001
 40
1.884600674528734
 40
1.884600674528734
 40
1.884600674528734
 40
3.769201349057469
 40
3.769201349057469
 40
3.769201349057469
 10
262.7636873975215
 20
242.6466639615862
 30
0.0
 41
1.0
 10
262.7636873975215
 20
241.8146136672483
 30
0.0
 41
1.040832999733107
 10
262.2636873975215
 20
240.8438883238542
 30
0.0
 41
1.0
  0
LINE
  5
104C
330
1F
100
AcDbEntity
  8
AM_VIS
100
AcDbLine
 10
262.2636873975215
 20
240.8438883238542
 30
0.0
 11
259.2636873975215
 21
240.8438883238542
 31
0.0
  0
SPLINE
  5
104D
330
1F
100
AcDbEntity
  8
AM_VIS
100
AcDbSpline
210
0.0
220
0.0
230
1.0
 70
    12
 71
     2
 72
     6
 73
     3
 74
     0
 42
0.0000000001
 43
0.0000000001
 40
1.884600674528734
 40
1.884600674528734
 40
1.884600674528734
 40
3.769201349057469
 40
3.769201349057469
 40
3.769201349057469
 10
258.7636873975215
 20
242.6466639615862
 30
0.0
 41
1.0
 10
258.7636873975214
 20
243.478714255924
 30
0.0
 41
1.040832999733107
 10
259.2636873975215
 20
244.4494395993182
 30
0.0
 41
1.0
  0
SPLINE
  5
104E
330
1F
100
AcDbEntity
  8
AM_VIS
100
AcDbSpline
210
0.0
220
0.0
230
1.0
 70
    12
 71
     2
 72
     6
 73
     3
 74
     0
 42
0.0000000001
 43
0.0000000001
 40
0.0
 40
0.0
 40
0.0
 40
1.884600674528734
 40
1.884600674528734
 40
1.884600674528734
 10
259.2636873975215
 20
240.8438883238542
 30
0.0
 41
1.0
 10
258.7636873975214
 20
241.8146136672483
 30
0.0
 41
1.040832999733107
 10
258.7636873975215
 20
242.6466639615862
 30
0.0
 41
1.0
  0
LINE
  5
104F
330
1F
100
AcDbEntity
  8
AM_VIS
100
AcDbLine
 10
262.2636873975215
 20
246.1466639615862
 30
0.0
 11
259.2636873975215
 21
246.1466639615862
 31
0.0
  0
LINE
  5
1050
330
1F
100
AcDbEntity
  8
AM_VIS
100
AcDbLine
 10
262.7636873975215
 20
245.6466639615862
 30
0.0
 11
262.2636873975215
 21
246.1466639615862
 31
0.0
  0
LINE
  5
1051
330
1F
100
AcDbEntity
  8
AM_VIS
100
AcDbLine
 10
262.7636873975215
 20
239.6466639615862
 30
0.0
 11
262.2636873975215
 21
239.1466639615862
 31
0.0
  0
LINE
  5
1052
330
1F
100
AcDbEntity
  8
AM_VIS
100
AcDbLine
 10
262.2636873975215
 20
239.1466639615862
 30
0.0
 11
259.2636873975215
 21
239.1466639615862
 31
0.0
  0
LINE
  5
1053
330
1F
100
AcDbEntity
  8
AM_VIS
100
AcDbLine
 10
258.7636873975215
 20
245.6466639615862
 30
0.0
 11
259.2636873975215
 21
246.1466639615862
 31
0.0
  0
LINE
  5
1054
330
1F
100
AcDbEntity
  8
AM_VIS
100
AcDbLine
 10
258.7636873975215
 20
239.6466639615862
 30
0.0
 11
259.2636873975215
 21
239.1466639615862
 31
0.0
  0
LINE
  5
1055
330
1F
100
AcDbEntity
  8
AM_VIS
100
AcDbLine
 10
263.8636873975215
 20
244.1466639615862
 30
0.0
 11
262.7636873975215
 21
244.1466639615862
 31
0.0
  0
LINE
  5
1056
330
1F
100
AcDbEntity
  8
AM_VIS
100
AcDbLine
 10
263.8636873975215
 20
241.1466639615862
 30
0.0
 11
262.7636873975215
 21
241.1466639615862
 31
0.0
  0
LINE
  5
1057
330
1F
100
AcDbEntity
  8
AM_VIS
100
AcDbLine
 10
262.7636873975215
 20
245.6466639615862
 30
0.0
 11
262.7636873975215
 21
242.6466639615862
 31
0.0
  0
LINE
  5
1058
330
1F
100
AcDbEntity
  8
AM_VIS
100
AcDbLine
 10
262.2636873975215
 20
244.4494395993182
 30
0.0
 11
262.2636873975215
 21
246.1466639615862
 31
0.0
  0
LINE
  5
1059
330
1F
100
AcDbEntity
  8
AM_VIS
100
AcDbLine
 10
262.7636873975215
 20
242.6466639615862
 30
0.0
 11
262.7636873975215
 21
239.6466639615862
 31
0.0
  0
LINE
  5
105A
330
1F
100
AcDbEntity
  8
AM_VIS
100
AcDbLine
 10
262.2636873975215
 20
239.1466639615862
 30
0.0
 11
262.2636873975215
 21
240.8438883238542
 31
0.0
  0
LINE
  5
105B
330
1F
100
AcDbEntity
  8
AM_VIS
100
AcDbLine
 10
259.2636873975215
 20
246.1466639615862
 30
0.0
 11
259.2636873975215
 21
244.4494395993182
 31
0.0
  0
LINE
  5
105C
330
1F
100
AcDbEntity
  8
AM_VIS
100
AcDbLine
 10
258.7636873975215
 20
242.6466639615862
 30
0.0
 11
258.7636873975215
 21
245.6466639615862
 31
0.0
  0
LINE
  5
105D
330
1F
100
AcDbEntity
  8
AM_VIS
100
AcDbLine
 10
258.7636873975215
 20
239.6466639615862
 30
0.0
 11
258.7636873975215
 21
242.6466639615862
 31
0.0
  0
LINE
  5
105E
330
1F
100
AcDbEntity
  8
AM_VIS
100
AcDbLine
 10
259.2636873975215
 20
240.8438883238542
 30
0.0
 11
259.2636873975215
 21
239.1466639615862
 31
0.0
  0
LINE
  5
105F
330
1F
100
AcDbEntity
  8
AM_VIS
100
AcDbLine
 10
258.7636873975215
 20
244.3966639615862
 30
0.0
 11
258.2636873975215
 21
244.3966639615862
 31
0.0
  0
LINE
  5
1060
330
1F
100
AcDbEntity
  8
AM_VIS
100
AcDbLine
 10
258.7636873975215
 20
240.8966639615862
 30
0.0
 11
258.2636873975215
 21
240.8966639615862
 31
0.0
  0
LINE
  5
1061
330
1F
100
AcDbEntity
  8
AM_VIS
100
AcDbLine
 10
255.9468123975215
 20
249.8964694555579
 30
0.0
 11
256.3799373975215
 21
250.6466639615862
 31
0.0
  0
LINE
  5
1062
330
1F
100
AcDbEntity
  8
AM_VIS
100
AcDbLine
 10
256.3799373975215
 20
250.6466639615862
 30
0.0
 11
255.9468123975215
 21
251.3968584676145
 31
0.0
  0
LINE
  5
1063
330
1F
100
AcDbEntity
  8
AM_VIS
100
AcDbLine
 10
255.9468123975215
 20
251.3968584676145
 30
0.0
 11
255.0805623975215
 21
251.3968584676145
 31
0.0
  0
LINE
  5
1064
330
1F
100
AcDbEntity
  8
AM_VIS
100
AcDbLine
 10
255.0805623975215
 20
251.3968584676145
 30
0.0
 11
254.6474373975215
 21
250.6466639615862
 31
0.0
  0
LINE
  5
1065
330
1F
100
AcDbEntity
  8
AM_VIS
100
AcDbLine
 10
254.6474373975215
 20
250.6466639615862
 30
0.0
 11
255.0805623975215
 21
249.8964694555579
 31
0.0
  0
LINE
  5
1066
330
1F
100
AcDbEntity
  8
AM_VIS
100
AcDbLine
 10
255.0805623975215
 20
249.8964694555579
 30
0.0
 11
255.9468123975215
 21
249.8964694555579
 31
0.0
  0
CIRCLE
  5
1067
330
1F
100
AcDbEntity
  8
AM_VIS
100
AcDbCircle
 10
255.5136873975215
 20
250.6466639615862
 30
0.0
 40
1.193500000000028
  0
SPLINE
  5
1068
330
1F
100
AcDbEntity
  8
AM_VIS
100
AcDbSpline
210
0.0
220
0.0
230
1.0
 70
    12
 71
     2
 72
     6
 73
     3
 74
     0
 42
0.0000000001
 43
0.0000000001
 40
0.0
 40
0.0
 40
0.0
 40
3.2140326952469
 40
3.2140326952469
 40
3.2140326952469
 10
264.3695905708989
 20
241.0585389615861
 30
0.0
 41
1.0
 10
263.9111383727705
 20
242.6466639615862
 30
0.0
 41
1.154700538379372
 10
264.3695905708989
 20
244.2347889615863
 30
0.0
 41
1.0
  0
SPLINE
  5
1069
330
1F
100
AcDbEntity
  8
AM_VIS
100
AcDbSpline
210
0.0
220
0.0
230
1.0
 70
    12
 71
     2
 72
     6
 73
     3
 74
     0
 42
0.0000000001
 43
0.0000000001
 40
0.0
 40
0.0
 40
0.0
 40
3.214032695246897
 40
3.214032695246897
 40
3.214032695246897
 10
265.7577842241441
 20
244.2347889615863
 30
0.0
 41
1.0
 10
266.2162364222724
 20
242.6466639615862
 30
0.0
 41
1.154700538379372
 10
265.7577842241441
 20
241.0585389615861
 30
0.0
 41
1.0
  0
LINE
  5
106A
330
1F
100
AcDbEntity
  8
AM_VIS
100
AcDbLine
 10
265.7577842241441
 20
244.2347889615862
 30
0.0
 11
264.3695905708989
 21
244.2347889615862
 31
0.0
  0
SPLINE
  5
106B
330
1F
100
AcDbEntity
  8
AM_VIS
100
AcDbSpline
210
0.0
220
0.0
230
1.0
 70
    12
 71
     2
 72
     6
 73
     3
 74
     0
 42
0.0000000001
 43
0.0000000001
 40
0.0
 40
0.0
 40
0.0
 40
3.214032695246828
 40
3.214032695246828
 40
3.214032695246828
 10
264.3695905708989
 20
244.2347889615862
 30
0.0
 41
1.0
 10
263.9111383727705
 20
245.0288514615862
 30
0.0
 41
1.154700538379239
 10
264.3695905708989
 20
245.8229139615862
 30
0.0
 41
1.0
  0
SPLINE
  5
106C
330
1F
100
AcDbEntity
  8
AM_VIS
100
AcDbSpline
210
0.0
220
0.0
230
1.0
 70
    12
 71
     2
 72
     6
 73
     3
 74
     0
 42
0.0000000001
 43
0.0000000001
 40
0.0
 40
0.0
 40
0.0
 40
3.214032695246765
 40
3.214032695246765
 40
3.214032695246765
 10
265.7577842241441
 20
245.8229139615862
 30
0.0
 41
1.0
 10
266.2162364222725
 20
245.0288514615862
 30
0.0
 41
1.154700538379239
 10
265.7577842241441
 20
244.2347889615862
 30
0.0
 41
1.0
  0
LINE
  5
106D
330
1F
100
AcDbEntity
  8
AM_VIS
100
AcDbLine
 10
265.7577842241441
 20
245.8229139615862
 30
0.0
 11
264.3695905708989
 21
245.8229139615862
 31
0.0
  0
LINE
  5
106E
330
1F
100
AcDbEntity
  8
AM_VIS
100
AcDbLine
 10
265.7577842241441
 20
239.4704139615862
 30
0.0
 11
264.3695905708989
 21
239.4704139615862
 31
0.0
  0
SPLINE
  5
106F
330
1F
100
AcDbEntity
  8
AM_VIS
100
AcDbSpline
210
0.0
220
0.0
230
1.0
 70
    12
 71
     2
 72
     6
 73
     3
 74
     0
 42
0.0000000001
 43
0.0000000001
 40
0.0
 40
0.0
 40
0.0
 40
3.214032695246831
 40
3.214032695246831
 40
3.214032695246831
 10
264.3695905708989
 20
239.4704139615862
 30
0.0
 41
1.0
 10
263.9111383727705
 20
240.2644764615862
 30
0.0
 41
1.154700538379239
 10
264.3695905708989
 20
241.0585389615862
 30
0.0
 41
1.0
  0
LINE
  5
1070
330
1F
100
AcDbEntity
  8
AM_VIS
100
AcDbLine
 10
265.7577842241441
 20
241.0585389615861
 30
0.0
 11
264.3695905708989
 21
241.0585389615861
 31
0.0
  0
SPLINE
  5
1071
330
1F
100
AcDbEntity
  8
AM_VIS
100
AcDbSpline
210
0.0
220
0.0
230
1.0
 70
    12
 71
     2
 72
     6
 73
     3
 74
     0
 42
0.0000000001
 43
0.0000000001
 40
0.0
 40
0.0
 40
0.0
 40
3.214032695246768
 40
3.214032695246768
 40
3.214032695246768
 10
265.7577842241441
 20
241.0585389615862
 30
0.0
 41
1.0
 10
266.2162364222725
 20
240.2644764615862
 30
0.0
 41
1.154700538379239
 10
265.7577842241441
 20
239.4704139615862
 30
0.0
 41
1.0
  0
LINE
  5
1072
330
1F
100
AcDbEntity
  8
AM_VIS
100
AcDbLine
 10
266.2636873975215
 20
244.9466639615862
 30
0.0
 11
265.7577842241441
 21
245.8229139615862
 31
0.0
  0
LINE
  5
1073
330
1F
100
AcDbEntity
  8
AM_VIS
100
AcDbLine
 10
266.2636873975215
 20
240.3466639615862
 30
0.0
 11
265.7577842241441
 21
239.4704139615862
 31
0.0
  0
LINE
  5
1074
330
1F
100
AcDbEntity
  8
AM_VIS
100
AcDbLine
 10
263.8636873975215
 20
240.3466639615862
 30
0.0
 11
264.3695905708988
 21
239.4704139615862
 31
0.0
  0
LINE
  5
1075
330
1F
100
AcDbEntity
  8
AM_VIS
100
AcDbLine
 10
263.8636873975215
 20
244.9466639615863
 30
0.0
 11
264.3695905708989
 21
245.8229139615862
 31
0.0
  0
LINE
  5
1076
330
1F
100
AcDbEntity
  8
AM_VIS
100
AcDbLine
 10
263.8636873975215
 20
240.3466639615862
 30
0.0
 11
263.8636873975215
 21
244.9466639615862
 31
0.0
  0
LINE
  5
1077
330
1F
100
AcDbEntity
  8
AM_VIS
100
AcDbLine
 10
373.8169077902754
 20
246.6466639615862
 30
0.0
 11
373.8169077902754
 21
254.6466639615862
 31
0.0
  0
LINE
  5
1078
330
1F
100
AcDbEntity
  8
AM_VIS
100
AcDbLine
 10
373.8169077902754
 20
246.6466639615862
 30
0.0
 11
374.3169077902753
 21
246.1466639615862
 31
0.0
  0
LINE
  5
1079
330
1F
100
AcDbEntity
  8
AM_VIS
100
AcDbLine
 10
374.3169077902753
 20
244.3270487193156
 30
0.0
 11
374.3169077902753
 21
246.1466639615862
 31
0.0
  0
LINE
  5
107A
330
1F
100
AcDbEntity
  8
AM_VIS
100
AcDbLine
 10
371.3169077902754
 20
244.2466639615862
 30
0.0
 11
374.0169077902753
 21
244.2466639615862
 31
0.0
  0
LINE
  5
107B
330
1F
100
AcDbEntity
  8
AM_VIS
100
AcDbLine
 10
371.3169077902754
 20
245.4466639615862
 30
0.0
 11
371.3169077902754
 21
244.2466639615862
 31
0.0
  0
LINE
  5
107C
330
1F
100
AcDbEntity
  8
AM_VIS
100
AcDbLine
 10
368.3169077902754
 20
245.4466639615862
 30
0.0
 11
371.3169077902754
 21
245.4466639615862
 31
0.0
  0
LINE
  5
107D
330
1F
100
AcDbEntity
  8
AM_VIS
100
AcDbLine
 10
368.3169077902754
 20
239.8466639615862
 30
0.0
 11
368.3169077902754
 21
245.4466639615862
 31
0.0
  0
LINE
  5
107E
330
1F
100
AcDbEntity
  8
AM_VIS
100
AcDbLine
 10
371.3169077902754
 20
239.8466639615862
 30
0.0
 11
368.3169077902754
 21
239.8466639615862
 31
0.0
  0
LINE
  5
107F
330
1F
100
AcDbEntity
  8
AM_VIS
100
AcDbLine
 10
371.3169077902754
 20
241.0466639615862
 30
0.0
 11
371.3169077902754
 21
239.8466639615862
 31
0.0
  0
LINE
  5
1080
330
1F
100
AcDbEntity
  8
AM_VIS
100
AcDbLine
 10
374.0169077902753
 20
241.0466639615862
 30
0.0
 11
371.3169077902754
 21
241.0466639615862
 31
0.0
  0
LINE
  5
1081
330
1F
100
AcDbEntity
  8
AM_VIS
100
AcDbLine
 10
374.3169077902753
 20
239.1466639615862
 30
0.0
 11
374.3169077902753
 21
240.9662792038568
 31
0.0
  0
LINE
  5
1082
330
1F
100
AcDbEntity
  8
AM_VIS
100
AcDbLine
 10
374.3169077902753
 20
239.1466639615862
 30
0.0
 11
373.8169077902754
 21
238.6466639615862
 31
0.0
  0
LINE
  5
1083
330
1F
100
AcDbEntity
  8
AM_VIS
100
AcDbLine
 10
373.8169077902754
 20
230.6466639615862
 30
0.0
 11
373.8169077902754
 21
238.6466639615862
 31
0.0
  0
LINE
  5
1084
330
1F
100
AcDbEntity
  8
AM_VIS
100
AcDbLine
 10
373.8169077902754
 20
230.6466639615862
 30
0.0
 11
374.3169077902753
 21
230.1466639615862
 31
0.0
  0
LINE
  5
1085
330
1F
100
AcDbEntity
  8
AM_VIS
100
AcDbLine
 10
374.3169077902753
 20
224.8466639615862
 30
0.0
 11
374.3169077902753
 21
230.1466639615862
 31
0.0
  0
LINE
  5
1086
330
1F
100
AcDbEntity
  8
AM_VIS
100
AcDbLine
 10
374.3169077902753
 20
224.8466639615862
 30
0.0
 11
373.6169077902754
 21
224.1466639615862
 31
0.0
  0
LINE
  5
1087
330
1F
100
AcDbEntity
  8
AM_VIS
100
AcDbLine
 10
373.6169077902754
 20
224.1466639615862
 30
0.0
 11
359.0169077902753
 21
224.1466639615862
 31
0.0
  0
LINE
  5
1088
330
1F
100
AcDbEntity
  8
AM_VIS
100
AcDbLine
 10
359.0169077902753
 20
224.1466639615862
 30
0.0
 11
358.3169077902754
 21
224.8466639615862
 31
0.0
  0
LINE
  5
1089
330
1F
100
AcDbEntity
  8
AM_VIS
100
AcDbLine
 10
358.3169077902754
 20
228.5966639615862
 30
0.0
 11
358.3169077902754
 21
224.8466639615862
 31
0.0
  0
LINE
  5
108A
330
1F
100
AcDbEntity
  8
AM_VIS
100
AcDbLine
 10
358.6169077902754
 20
228.8966639615862
 30
0.0
 11
358.3169077902754
 21
228.5966639615862
 31
0.0
  0
LINE
  5
108B
330
1F
100
AcDbEntity
  8
AM_VIS
100
AcDbLine
 10
358.6169077902754
 20
229.5966639615862
 30
0.0
 11
358.6169077902754
 21
228.8966639615862
 31
0.0
  0
LINE
  5
108C
330
1F
100
AcDbEntity
  8
AM_VIS
100
AcDbLine
 10
359.3169077902754
 20
229.5966639615862
 30
0.0
 11
358.6169077902754
 21
229.5966639615862
 31
0.0
  0
LINE
  5
108D
330
1F
100
AcDbEntity
  8
AM_VIS
100
AcDbLine
 10
359.8169077902753
 20
229.1466639615862
 30
0.0
 11
359.3169077902754
 21
229.5966639615862
 31
0.0
  0
LINE
  5
108E
330
1F
100
AcDbEntity
  8
AM_VIS
100
AcDbLine
 10
361.9169077902753
 20
229.1466639615862
 30
0.0
 11
359.8169077902753
 21
229.1466639615862
 31
0.0
  0
LINE
  5
108F
330
1F
100
AcDbEntity
  8
AM_VIS
100
AcDbLine
 10
363.6169077902754
 20
231.7466639615862
 30
0.0
 11
363.6169077902754
 21
230.8466639615862
 31
0.0
  0
LINE
  5
1090
330
1F
100
AcDbEntity
  8
AM_VIS
100
AcDbLine
 10
359.8169077902753
 20
233.4466639615862
 30
0.0
 11
361.9169077902753
 21
233.4466639615862
 31
0.0
  0
LINE
  5
1091
330
1F
100
AcDbEntity
  8
AM_VIS
100
AcDbLine
 10
359.3169077902754
 20
232.9966639615862
 30
0.0
 11
359.8169077902753
 21
233.4466639615862
 31
0.0
  0
LINE
  5
1092
330
1F
100
AcDbEntity
  8
AM_VIS
100
AcDbLine
 10
358.6169077902754
 20
232.9966639615862
 30
0.0
 11
359.3169077902754
 21
232.9966639615862
 31
0.0
  0
LINE
  5
1093
330
1F
100
AcDbEntity
  8
AM_VIS
100
AcDbLine
 10
358.6169077902754
 20
233.6966639615862
 30
0.0
 11
358.6169077902754
 21
232.9966639615862
 31
0.0
  0
LINE
  5
1094
330
1F
100
AcDbEntity
  8
AM_VIS
100
AcDbLine
 10
358.3169077902754
 20
233.9966639615862
 30
0.0
 11
358.6169077902754
 21
233.6966639615862
 31
0.0
  0
LINE
  5
1095
330
1F
100
AcDbEntity
  8
AM_VIS
100
AcDbLine
 10
358.3169077902754
 20
251.2966639615862
 30
0.0
 11
358.3169077902754
 21
233.9966639615862
 31
0.0
  0
LINE
  5
1096
330
1F
100
AcDbEntity
  8
AM_VIS
100
AcDbLine
 10
358.6169077902754
 20
251.5966639615862
 30
0.0
 11
358.3169077902754
 21
251.2966639615862
 31
0.0
  0
LINE
  5
1097
330
1F
100
AcDbEntity
  8
AM_VIS
100
AcDbLine
 10
358.6169077902754
 20
252.2966639615862
 30
0.0
 11
358.6169077902754
 21
251.5966639615862
 31
0.0
  0
LINE
  5
1098
330
1F
100
AcDbEntity
  8
AM_VIS
100
AcDbLine
 10
359.3169077902754
 20
252.2966639615862
 30
0.0
 11
358.6169077902754
 21
252.2966639615862
 31
0.0
  0
LINE
  5
1099
330
1F
100
AcDbEntity
  8
AM_VIS
100
AcDbLine
 10
359.8169077902753
 20
251.8466639615862
 30
0.0
 11
359.3169077902754
 21
252.2966639615862
 31
0.0
  0
LINE
  5
109A
330
1F
100
AcDbEntity
  8
AM_VIS
100
AcDbLine
 10
361.9169077902753
 20
251.8466639615862
 30
0.0
 11
359.8169077902753
 21
251.8466639615862
 31
0.0
  0
LINE
  5
109B
330
1F
100
AcDbEntity
  8
AM_VIS
100
AcDbLine
 10
363.6169077902754
 20
254.4466639615862
 30
0.0
 11
363.6169077902754
 21
253.5466639615862
 31
0.0
  0
LINE
  5
109C
330
1F
100
AcDbEntity
  8
AM_VIS
100
AcDbLine
 10
359.8169077902753
 20
256.1466639615862
 30
0.0
 11
361.9169077902753
 21
256.1466639615862
 31
0.0
  0
LINE
  5
109D
330
1F
100
AcDbEntity
  8
AM_VIS
100
AcDbLine
 10
359.3169077902754
 20
255.6966639615862
 30
0.0
 11
359.8169077902753
 21
256.1466639615862
 31
0.0
  0
LINE
  5
109E
330
1F
100
AcDbEntity
  8
AM_VIS
100
AcDbLine
 10
358.6169077902754
 20
255.6966639615862
 30
0.0
 11
359.3169077902754
 21
255.6966639615862
 31
0.0
  0
LINE
  5
109F
330
1F
100
AcDbEntity
  8
AM_VIS
100
AcDbLine
 10
358.6169077902754
 20
256.3966639615862
 30
0.0
 11
358.6169077902754
 21
255.6966639615862
 31
0.0
  0
LINE
  5
10A0
330
1F
100
AcDbEntity
  8
AM_VIS
100
AcDbLine
 10
358.3169077902754
 20
256.6966639615862
 30
0.0
 11
358.6169077902754
 21
256.3966639615862
 31
0.0
  0
LINE
  5
10A1
330
1F
100
AcDbEntity
  8
AM_VIS
100
AcDbLine
 10
358.3169077902754
 20
260.4466639615862
 30
0.0
 11
358.3169077902754
 21
256.6966639615862
 31
0.0
  0
LINE
  5
10A2
330
1F
100
AcDbEntity
  8
AM_VIS
100
AcDbLine
 10
358.3169077902754
 20
260.4466639615862
 30
0.0
 11
359.0169077902753
 21
261.1466639615862
 31
0.0
  0
LINE
  5
10A3
330
1F
100
AcDbEntity
  8
AM_VIS
100
AcDbLine
 10
359.0169077902753
 20
261.1466639615862
 30
0.0
 11
373.6169077902754
 21
261.1466639615862
 31
0.0
  0
LINE
  5
10A4
330
1F
100
AcDbEntity
  8
AM_VIS
100
AcDbLine
 10
373.6169077902754
 20
261.1466639615862
 30
0.0
 11
374.3169077902753
 21
260.4466639615862
 31
0.0
  0
LINE
  5
10A5
330
1F
100
AcDbEntity
  8
AM_VIS
100
AcDbLine
 10
374.3169077902753
 20
255.1466639615862
 30
0.0
 11
374.3169077902753
 21
260.4466639615862
 31
0.0
  0
LINE
  5
10A6
330
1F
100
AcDbEntity
  8
AM_VIS
100
AcDbLine
 10
374.3169077902753
 20
255.1466639615862
 30
0.0
 11
373.8169077902754
 21
254.6466639615862
 31
0.0
  0
ARC
  5
10AA
330
1F
100
AcDbEntity
  8
AM_VIS
100
AcDbCircle
 10
374.0169077902753
 20
244.8466639615862
 30
0.0
 40
0.5999999999999999
100
AcDbArc
 50
270.0
 51
299.9999999999997
  0
ARC
  5
10AB
330
1F
100
AcDbEntity
  8
AM_VIS
100
AcDbCircle
 10
374.0169077902753
 20
240.4466639615862
 30
0.0
 40
0.6
100
AcDbArc
 50
60.00000000000028
 51
90.0
  0
ARC
  5
10AC
330
1F
100
AcDbEntity
  8
AM_VIS
100
AcDbCircle
 10
361.9169077902753
 20
230.8466639615862
 30
0.0
 40
1.7
100
AcDbArc
 50
270.0
 51
0.0
  0
ARC
  5
10AD
330
1F
100
AcDbEntity
  8
AM_VIS
100
AcDbCircle
 10
361.9169077902753
 20
231.7466639615862
 30
0.0
 40
1.7
100
AcDbArc
 50
0.0
 51
90.0
  0
ARC
  5
10AE
330
1F
100
AcDbEntity
  8
AM_VIS
100
AcDbCircle
 10
361.9169077902753
 20
253.5466639615862
 30
0.0
 40
1.7
100
AcDbArc
 50
270.0
 51
0.0
  0
ARC
  5
10AF
330
1F
100
AcDbEntity
  8
AM_VIS
100
AcDbCircle
 10
361.9169077902753
 20
254.4466639615862
 30
0.0
 40
1.7
100
AcDbArc
 50
0.0
 51
90.0
  0
LINE
  5
10B3
330
1F
100
AcDbEntity
  8
AM_VIS
100
AcDbLine
 10
359.3169077902754
 20
229.5966639615862
 30
0.0
 11
359.3169077902754
 21
232.9966639615862
 31
0.0
  0
LINE
  5
10B4
330
1F
100
AcDbEntity
  8
AM_VIS
100
AcDbLine
 10
359.3169077902754
 20
252.2966639615862
 30
0.0
 11
359.3169077902754
 21
255.6966639615862
 31
0.0
  0
LINE
  5
10B5
330
1F
100
AcDbEntity
  8
AM_VIS
100
AcDbLine
 10
373.3169077902754
 20
244.2466639615862
 30
0.0
 11
373.3169077902754
 21
241.0466639615862
 31
0.0
  0
CIRCLE
  5
10B6
330
1F
100
AcDbEntity
  8
AM_VIS
100
AcDbCircle
 10
368.3169077902754
 20
250.6466639615862
 30
0.0
 40
3.4
  0
CIRCLE
  5
10B7
330
1F
100
AcDbEntity
  8
AM_VIS
100
AcDbCircle
 10
368.3169077902753
 20
234.6466639615862
 30
0.0
 40
3.399999999999999
  0
LINE
  5
10B8
330
1F
100
AcDbEntity
  8
AM_VIS
100
AcDbLine
 10
321.2636873975215
 20
206.209615486265
 30
0.0
 11
266.2636873975215
 21
206.209615486265
 31
0.0
  0
LINE
  5
10BB
330
1F
100
AcDbEntity
  8
AM_VIS
100
AcDbLine
 10
321.2636873975215
 20
190.9096154862649
 30
0.0
 11
266.2636873975215
 21
190.9096154862649
 31
0.0
  0
LINE
  5
10BC
330
1F
100
AcDbEntity
  8
AM_VIS
100
AcDbLine
 10
266.2636873975215
 20
205.509615486265
 30
0.0
 11
321.2636873975215
 21
205.509615486265
 31
0.0
  0
LINE
  5
10BD
330
1F
100
AcDbEntity
  8
AM_VIS
100
AcDbLine
 10
266.2636873975215
 20
206.209615486265
 30
0.0
 11
266.2636873975215
 21
205.509615486265
 31
0.0
  0
LINE
  5
10BE
330
1F
100
AcDbEntity
  8
AM_VIS
100
AcDbLine
 10
266.2636873975215
 20
205.509615486265
 30
0.0
 11
266.2636873975215
 21
190.909615486265
 31
0.0
  0
LINE
  5
10BF
330
1F
100
AcDbEntity
  8
AM_VIS
100
AcDbLine
 10
266.2636873975215
 20
190.9096154862649
 30
0.0
 11
266.2636873975215
 21
190.2096154862649
 31
0.0
  0
LINE
  5
10C0
330
1F
100
AcDbEntity
  8
AM_VIS
100
AcDbLine
 10
266.2636873975215
 20
190.2096154862649
 30
0.0
 11
321.2636873975215
 21
190.2096154862649
 31
0.0
  0
LINE
  5
10C1
330
1F
100
AcDbEntity
  8
AM_VIS
100
AcDbLine
 10
321.2636873975215
 20
190.2096154862649
 30
0.0
 11
321.2636873975215
 21
190.9096154862649
 31
0.0
  0
LINE
  5
10C2
330
1F
100
AcDbEntity
  8
AM_VIS
100
AcDbLine
 10
321.2636873975215
 20
190.9096154862649
 30
0.0
 11
321.2636873975215
 21
205.509615486265
 31
0.0
  0
LINE
  5
10C3
330
1F
100
AcDbEntity
  8
AM_VIS
100
AcDbLine
 10
321.2636873975215
 20
205.509615486265
 30
0.0
 11
321.2636873975215
 21
206.209615486265
 31
0.0
  0
CIRCLE
  5
10C6
330
1F
100
AcDbEntity
  8
AM_VIS
100
AcDbCircle
 10
288.7636873975215
 20
198.2096154862649
 30
0.0
 40
2.166999999999999
  0
CIRCLE
  5
10C7
330
1F
100
AcDbEntity
  8
AM_VIS
100
AcDbCircle
 10
310.2636873975215
 20
198.2096154862649
 30
0.0
 40
2.166999999999999
  0
CIRCLE
  5
10C8
330
1F
100
AcDbEntity
  8
AM_VIS
100
AcDbCircle
 10
276.2636873975215
 20
198.2096154862649
 30
0.0
 40
1.2995
  0
CIRCLE
  5
10CD
330
1F
100
AcDbEntity
  8
AM_VIS
100
AcDbCircle
 10
299.2636873975215
 20
198.2096154862649
 30
0.0
 40
1.2995
  0
LINE
  5
10CE
330
1F
100
AcDbEntity
  8
AM_VIS
100
AcDbLine
 10
258.2636873975215
 20
205.2096154862649
 30
0.0
 11
252.7636873975215
 21
205.2096154862649
 31
0.0
  0
LINE
  5
10CF
330
1F
100
AcDbEntity
  8
AM_VIS
100
AcDbLine
 10
252.7636873975215
 20
205.2096154862649
 30
0.0
 11
252.7636873975215
 21
191.2096154862649
 31
0.0
  0
LINE
  5
10D0
330
1F
100
AcDbEntity
  8
AM_VIS
100
AcDbLine
 10
258.2636873975215
 20
191.2096154862649
 30
0.0
 11
252.7636873975215
 21
191.2096154862649
 31
0.0
  0
LINE
  5
10D1
330
1F
100
AcDbEntity
  8
AM_VIS
100
AcDbLine
 10
258.2636873975215
 20
191.2096154862649
 30
0.0
 11
258.2636873975215
 21
205.2096154862649
 31
0.0
  0
LINE
  5
10D2
330
1F
100
AcDbEntity
  8
AM_VIS
100
AcDbLine
 10
262.0136873975215
 20
194.2096154862649
 30
0.0
 11
258.2636873975215
 21
194.2096154862649
 31
0.0
  0
LINE
  5
10D3
330
1F
100
AcDbEntity
  8
AM_VIS
100
AcDbLine
 10
261.7636873975215
 20
197.9596154862649
 30
0.0
 11
258.2636873975215
 21
197.9596154862649
 31
0.0
  0
LINE
  5
10D4
330
1F
100
AcDbEntity
  8
AM_VIS
100
AcDbLine
 10
261.7636873975215
 20
197.9596154862649
 30
0.0
 11
262.0136873975215
 21
198.2096154862649
 31
0.0
  0
LINE
  5
10D5
330
1F
100
AcDbEntity
  8
AM_VIS
100
AcDbLine
 10
262.0136873975215
 20
194.2096154862649
 30
0.0
 11
261.7636873975215
 21
194.4596154862649
 31
0.0
  0
LINE
  5
10D6
330
1F
100
AcDbEntity
  8
AM_VIS
100
AcDbLine
 10
258.2636873975215
 20
194.4596154862649
 30
0.0
 11
261.7636873975215
 21
194.4596154862649
 31
0.0
  0
LINE
  5
10D8
330
1F
100
AcDbEntity
  8
AM_VIS
100
AcDbLine
 10
266.2636873975215
 20
198.2096154862649
 30
0.0
 11
262.0136873975215
 21
198.2096154862649
 31
0.0
  0
LINE
  5
10D9
330
1F
100
AcDbEntity
  8
AM_VIS
100
AcDbLine
 10
266.2636873975215
 20
194.2096154862649
 30
0.0
 11
262.0136873975215
 21
194.2096154862649
 31
0.0
  0
LINE
  5
10DA
330
1F
100
AcDbEntity
  8
AM_VIS
100
AcDbLine
 10
262.2636873975215
 20
202.209615486265
 30
0.0
 11
262.7636873975215
 21
202.209615486265
 31
0.0
  0
LINE
  5
10DB
330
1F
100
AcDbEntity
  8
AM_VIS
100
AcDbLine
 10
262.2636873975215
 20
202.209615486265
 30
0.0
 11
259.2636873975215
 21
202.209615486265
 31
0.0
  0
LINE
  5
10DC
330
1F
100
AcDbEntity
  8
AM_VIS
100
AcDbLine
 10
258.7636873975215
 20
202.209615486265
 30
0.0
 11
259.2636873975215
 21
202.209615486265
 31
0.0
  0
LINE
  5
10DD
330
1F
100
AcDbEntity
  8
AM_VIS
100
AcDbLine
 10
263.8636873975215
 20
200.709615486265
 30
0.0
 11
262.7636873975215
 21
200.709615486265
 31
0.0
  0
LINE
  5
10DE
330
1F
100
AcDbEntity
  8
AM_VIS
100
AcDbLine
 10
262.7636873975215
 20
202.209615486265
 30
0.0
 11
262.7636873975215
 21
198.2096154862649
 31
0.0
  0
LINE
  5
10DF
330
1F
100
AcDbEntity
  8
AM_VIS
100
AcDbLine
 10
262.2636873975215
 20
198.2096154862649
 30
0.0
 11
262.2636873975215
 21
202.209615486265
 31
0.0
  0
LINE
  5
10E0
330
1F
100
AcDbEntity
  8
AM_VIS
100
AcDbLine
 10
258.7636873975215
 20
197.9596154862649
 30
0.0
 11
258.7636873975215
 21
202.209615486265
 31
0.0
  0
LINE
  5
10E1
330
1F
100
AcDbEntity
  8
AM_VIS
100
AcDbLine
 10
259.2636873975215
 20
202.209615486265
 30
0.0
 11
259.2636873975215
 21
197.9596154862649
 31
0.0
  0
LINE
  5
10E2
330
1F
100
AcDbEntity
  8
AM_VIS
100
AcDbLine
 10
258.7636873975215
 20
200.9596154862649
 30
0.0
 11
258.2636873975215
 21
200.9596154862649
 31
0.0
  0
LINE
  5
10E3
330
1F
100
AcDbEntity
  8
AM_VIS
100
AcDbLine
 10
264.1239067783853
 20
201.9603286750353
 30
0.0
 11
264.3695905708989
 21
201.9603286750353
 31
0.0
  0
LINE
  5
10E4
330
1F
100
AcDbEntity
  8
AM_VIS
100
AcDbLine
 10
265.7577842241441
 20
201.9603286750353
 30
0.0
 11
266.0034680166577
 21
201.9603286750353
 31
0.0
  0
SPLINE
  5
10E5
330
1F
100
AcDbEntity
  8
AM_VIS
100
AcDbSpline
210
-0.0000000000001827
220
0.0000000000000452
230
1.0
 70
    12
 71
     2
 72
     6
 73
     3
 74
     0
 42
0.0000000001
 43
0.0000000001
 40
2.076623908227867
 40
2.076623908227867
 40
2.076623908227867
 40
3.214032695246831
 40
3.214032695246831
 40
3.214032695246831
 10
264.1435006396715
 20
198.2096154862649
 30
0.0000000000000036
 41
1.070744986626578
 10
264.1919747970348
 20
198.6767681646725
 30
0.0
 41
1.054746721142361
 10
264.3695905708989
 20
199.209615486265
 30
0.0
 41
1.0
  0
SPLINE
  5
10E6
330
1F
100
AcDbEntity
  8
AM_VIS
100
AcDbSpline
210
0.0000000000001827
220
0.0000000000000452
230
1.0
 70
    12
 71
     2
 72
     6
 73
     3
 74
     0
 42
0.0000000001
 43
0.0000000001
 40
0.0
 40
0.0
 40
0.0
 40
1.137408787018942
 40
1.137408787018942
 40
1.137408787018942
 10
265.7577842241441
 20
199.2096154862649
 30
0.0
 41
1.0
 10
265.9353999980082
 20
198.6767681646725
 30
0.0
 41
1.054746721142361
 10
265.9838741553715
 20
198.2096154862649
 30
0.0000000000000036
 41
1.070744986626578
  0
LINE
  5
10E7
330
1F
100
AcDbEntity
  8
AM_VIS
100
AcDbLine
 10
265.7577842241441
 20
199.2096154862649
 30
0.0
 11
264.3695905708989
 21
199.2096154862649
 31
0.0
  0
SPLINE
  5
10E8
330
1F
100
AcDbEntity
  8
AM_VIS
100
AcDbSpline
210
0.0
220
0.0
230
1.0
 70
    12
 71
     2
 72
     6
 73
     3
 74
     0
 42
0.0000000001
 43
0.0000000001
 40
0.0
 40
0.0
 40
0.0
 40
3.214032695246831
 40
3.214032695246831
 40
3.214032695246831
 10
264.3695905708989
 20
199.2096154862649
 30
0.0
 41
1.0
 10
263.9111383727705
 20
200.5849720806501
 30
0.0
 41
1.154700538379239
 10
264.3695905708989
 20
201.9603286750353
 30
0.0
 41
1.0
  0
LINE
  5
10E9
330
1F
100
AcDbEntity
  8
AM_VIS
100
AcDbLine
 10
265.7577842241441
 20
201.9603286750353
 30
0.0
 11
264.3695905708989
 21
201.9603286750353
 31
0.0
  0
SPLINE
  5
10EA
330
1F
100
AcDbEntity
  8
AM_VIS
100
AcDbSpline
210
0.0
220
0.0
230
1.0
 70
    12
 71
     2
 72
     6
 73
     3
 74
     0
 42
0.0000000001
 43
0.0000000001
 40
0.0
 40
0.0
 40
0.0
 40
3.214032695246768
 40
3.214032695246768
 40
3.214032695246768
 10
265.7577842241441
 20
201.9603286750353
 30
0.0
 41
1.0
 10
266.2162364222725
 20
200.5849720806501
 30
0.0
 41
1.154700538379239
 10
265.7577842241441
 20
199.2096154862649
 30
0.0
 41
1.0
  0
LINE
  5
10EB
330
1F
100
AcDbEntity
  8
AM_VIS
100
AcDbLine
 10
266.2636873975215
 20
201.509615486265
 30
0.0
 11
266.0034680166576
 21
201.9603286750353
 31
0.0
  0
LINE
  5
10EC
330
1F
100
AcDbEntity
  8
AM_VIS
100
AcDbLine
 10
263.8636873975215
 20
201.509615486265
 30
0.0
 11
264.1239067783853
 21
201.9603286750353
 31
0.0
  0
LINE
  5
10ED
330
1F
100
AcDbEntity
  8
AM_VIS
100
AcDbLine
 10
263.8636873975215
 20
198.2096154862649
 30
0.0
 11
263.8636873975215
 21
201.509615486265
 31
0.0
  0
LINE
  5
10EE
330
1F
100
AcDbEntity
  8
AM_VIS
100
AcDbLine
 10
278.6892311328677
 20
150.9586355144483
 30
0.0
 11
266.2636873975215
 21
150.9586355144483
 31
0.0
  0
LINE
  5
10EF
330
1F
100
AcDbEntity
  8
AM_VIS
100
AcDbLine
 10
294.8381436621753
 20
154.1586355144483
 30
0.0
 11
321.2636873975215
 21
154.1586355144483
 31
0.0
  0
LINE
  5
10F0
330
1F
100
AcDbEntity
  8
AM_VIS
100
AcDbLine
 10
266.2636873975215
 20
154.1586355144483
 30
0.0
 11
278.6892311328677
 21
154.1586355144483
 31
0.0
  0
LINE
  5
10F1
330
1F
100
AcDbEntity
  8
AM_VIS
100
AcDbLine
 10
321.2636873975215
 20
150.9586355144483
 30
0.0
 11
294.8381436621753
 21
150.9586355144483
 31
0.0
  0
ARC
  5
10F2
330
1F
100
AcDbEntity
  8
AM_VIS
100
AcDbCircle
 10
279.2637228160034
 20
152.5587751684565
 30
0.0
 40
1.700143407575371
100
AcDbArc
 50
250.2505441661866
 51
261.2873200961735
  0
ARC
  5
10F3
330
1F
100
AcDbEntity
  8
AM_VIS
100
AcDbCircle
 10
279.263722816003
 20
152.5584958604415
 30
0.0
 40
1.700143407573798
100
AcDbArc
 50
98.71267990381983
 51
109.749455833817
  0
ARC
  5
10F4
330
1F
100
AcDbEntity
  8
AM_VIS
100
AcDbCircle
 10
279.26365197904
 20
152.5584958604418
 30
0.0
 40
1.700143407573467
100
AcDbArc
 50
70.25054416618299
 51
81.28732009618017
  0
LINE
  5
10F5
330
1F
100
AcDbEntity
  8
AM_VIS
100
AcDbLine
 10
279.8381436621753
 20
154.1586355144483
 30
0.0
 11
293.6892311328677
 21
154.1586355144483
 31
0.0
  0
ARC
  5
10F6
330
1F
100
AcDbEntity
  8
AM_VIS
100
AcDbCircle
 10
279.2636519790398
 20
152.5587751684559
 30
0.0
 40
1.700143407574667
100
AcDbArc
 50
278.7126799038231
 51
289.749455833814
  0
LINE
  5
10F7
330
1F
100
AcDbEntity
  8
AM_VIS
100
AcDbLine
 10
293.6892311328677
 20
150.9586355144483
 30
0.0
 11
279.8381436621753
 21
150.9586355144483
 31
0.0
  0
ARC
  5
10F8
330
1F
100
AcDbEntity
  8
AM_VIS
100
AcDbCircle
 10
294.2636519790401
 20
152.5587751684544
 30
0.0
 40
1.700143407573103
100
AcDbArc
 50
278.7126799038166
 51
289.7494558338206
  0
ARC
  5
10F9
330
1F
100
AcDbEntity
  8
AM_VIS
100
AcDbCircle
 10
294.2637228160034
 20
152.5587751684565
 30
0.0
 40
1.700143407575314
100
AcDbArc
 50
250.2505441661866
 51
261.2873200961735
  0
ARC
  5
10FA
330
1F
100
AcDbEntity
  8
AM_VIS
100
AcDbCircle
 10
294.2636519790401
 20
152.5584958604422
 30
0.0
 40
1.700143407573009
100
AcDbArc
 50
70.25054416617937
 51
81.28732009618339
  0
ARC
  5
10FB
330
1F
100
AcDbEntity
  8
AM_VIS
100
AcDbCircle
 10
294.2637228160029
 20
152.5584958604422
 30
0.0
 40
1.700143407573009
100
AcDbArc
 50
98.7126799038166
 51
109.7494558338206
  0
LINE
  5
10FC
330
1F
100
AcDbEntity
  8
AM_VIS
100
AcDbLine
 10
266.2636873975215
 20
134.0586355144482
 30
0.0
 11
321.2636873975215
 21
134.0586355144482
 31
0.0
  0
LINE
  5
10FD
330
1F
100
AcDbEntity
  8
AM_VIS
100
AcDbLine
 10
321.2636873975215
 20
171.0586355144482
 30
0.0
 11
266.2636873975215
 21
171.0586355144482
 31
0.0
  0
LINE
  5
10FE
330
1F
100
AcDbEntity
  8
AM_VIS
100
AcDbLine
 10
266.2636873975215
 20
134.7586355144483
 30
0.0
 11
266.2636873975215
 21
134.0586355144482
 31
0.0
  0
LINE
  5
10FF
330
1F
100
AcDbEntity
  8
AM_VIS
100
AcDbLine
 10
266.2636873975215
 20
171.0586355144482
 30
0.0
 11
266.2636873975215
 21
170.3586355144483
 31
0.0
  0
LINE
  5
1100
330
1F
100
AcDbEntity
  8
AM_VIS
100
AcDbLine
 10
266.2636873975215
 20
150.9586355144483
 30
0.0
 11
266.2636873975215
 21
154.1586355144482
 31
0.0
  0
LINE
  5
1101
330
1F
100
AcDbEntity
  8
AM_VIS
100
AcDbLine
 10
321.2636873975215
 20
154.2390202721776
 30
0.0
 11
294.5211889819649
 21
154.2390202721776
 31
0.0
  0
LINE
  5
1102
330
1F
100
AcDbEntity
  8
AM_VIS
100
AcDbLine
 10
294.0061858130781
 20
154.2390202721776
 30
0.0
 11
279.521188981965
 21
154.2390202721776
 31
0.0
  0
LINE
  5
1103
330
1F
100
AcDbEntity
  8
AM_VIS
100
AcDbLine
 10
279.006185813078
 20
154.2390202721776
 30
0.0
 11
266.2636873975215
 21
154.2390202721776
 31
0.0
  0
LINE
  5
1104
330
1F
100
AcDbEntity
  8
AM_VIS
100
AcDbLine
 10
266.2636873975215
 20
154.2390202721776
 30
0.0
 11
266.2636873975215
 21
156.0586355144482
 31
0.0
  0
LINE
  5
1105
330
1F
100
AcDbEntity
  8
AM_VIS
100
AcDbLine
 10
266.2636873975215
 20
156.5586355144482
 30
0.0
 11
266.2636873975215
 21
164.5586355144482
 31
0.0
  0
LINE
  5
1106
330
1F
100
AcDbEntity
  8
AM_VIS
100
AcDbLine
 10
321.2636873975215
 20
134.7586355144483
 30
0.0
 11
266.2636873975215
 21
134.7586355144483
 31
0.0
  0
LINE
  5
1107
330
1F
100
AcDbEntity
  8
AM_VIS
100
AcDbLine
 10
266.2636873975215
 20
134.7586355144483
 30
0.0
 11
266.2636873975215
 21
140.0586355144483
 31
0.0
  0
LINE
  5
1108
330
1F
100
AcDbEntity
  8
AM_VIS
100
AcDbLine
 10
266.2636873975215
 20
140.5586355144482
 30
0.0
 11
266.2636873975215
 21
148.5586355144483
 31
0.0
  0
LINE
  5
1109
330
1F
100
AcDbEntity
  8
AM_VIS
100
AcDbLine
 10
266.2636873975215
 20
165.0586355144483
 30
0.0
 11
266.2636873975215
 21
170.3586355144483
 31
0.0
  0
LINE
  5
110A
330
1F
100
AcDbEntity
  8
AM_VIS
100
AcDbLine
 10
266.2636873975215
 20
170.3586355144483
 30
0.0
 11
321.2636873975215
 21
170.3586355144483
 31
0.0
  0
LINE
  5
110B
330
1F
100
AcDbEntity
  8
AM_VIS
100
AcDbLine
 10
266.2636873975215
 20
164.5586355144482
 30
0.0
 11
321.2636873975215
 21
164.5586355144482
 31
0.0
  0
LINE
  5
110C
330
1F
100
AcDbEntity
  8
AM_VIS
100
AcDbLine
 10
266.2636873975215
 20
165.0586355144483
 30
0.0
 11
266.2636873975215
 21
164.5586355144482
 31
0.0
  0
LINE
  5
110D
330
1F
100
AcDbEntity
  8
AM_VIS
100
AcDbLine
 10
321.2636873975215
 20
165.0586355144483
 30
0.0
 11
266.2636873975215
 21
165.0586355144483
 31
0.0
  0
LINE
  5
110E
330
1F
100
AcDbEntity
  8
AM_VIS
100
AcDbLine
 10
266.2636873975215
 20
156.5586355144482
 30
0.0
 11
321.2636873975215
 21
156.5586355144482
 31
0.0
  0
LINE
  5
110F
330
1F
100
AcDbEntity
  8
AM_VIS
100
AcDbLine
 10
266.2636873975215
 20
156.0586355144482
 30
0.0
 11
321.2636873975215
 21
156.0586355144482
 31
0.0
  0
LINE
  5
1110
330
1F
100
AcDbEntity
  8
AM_VIS
100
AcDbLine
 10
266.2636873975215
 20
156.5586355144482
 30
0.0
 11
266.2636873975215
 21
156.0586355144482
 31
0.0
  0
LINE
  5
1111
330
1F
100
AcDbEntity
  8
AM_VIS
100
AcDbLine
 10
266.2636873975215
 20
149.0586355144482
 30
0.0
 11
266.2636873975215
 21
150.8782507567189
 31
0.0
  0
LINE
  5
1112
330
1F
100
AcDbEntity
  8
AM_VIS
100
AcDbLine
 10
266.2636873975215
 20
150.8782507567189
 30
0.0
 11
279.006185813078
 21
150.8782507567189
 31
0.0
  0
LINE
  5
1113
330
1F
100
AcDbEntity
  8
AM_VIS
100
AcDbLine
 10
279.521188981965
 20
150.8782507567189
 30
0.0
 11
294.0061858130781
 21
150.8782507567189
 31
0.0
  0
LINE
  5
1114
330
1F
100
AcDbEntity
  8
AM_VIS
100
AcDbLine
 10
294.5211889819649
 20
150.8782507567189
 30
0.0
 11
321.2636873975215
 21
150.8782507567189
 31
0.0
  0
LINE
  5
1115
330
1F
100
AcDbEntity
  8
AM_VIS
100
AcDbLine
 10
266.2636873975215
 20
148.5586355144483
 30
0.0
 11
321.2636873975215
 21
148.5586355144483
 31
0.0
  0
LINE
  5
1116
330
1F
100
AcDbEntity
  8
AM_VIS
100
AcDbLine
 10
266.2636873975215
 20
149.0586355144482
 30
0.0
 11
266.2636873975215
 21
148.5586355144483
 31
0.0
  0
LINE
  5
1117
330
1F
100
AcDbEntity
  8
AM_VIS
100
AcDbLine
 10
321.2636873975215
 20
149.0586355144482
 30
0.0
 11
266.2636873975215
 21
149.0586355144482
 31
0.0
  0
LINE
  5
1118
330
1F
100
AcDbEntity
  8
AM_VIS
100
AcDbLine
 10
321.2636873975215
 20
148.5586355144483
 30
0.0
 11
321.2636873975215
 21
140.5586355144482
 31
0.0
  0
LINE
  5
1119
330
1F
100
AcDbEntity
  8
AM_VIS
100
AcDbLine
 10
321.2636873975215
 20
148.5586355144483
 30
0.0
 11
321.2636873975215
 21
149.0586355144482
 31
0.0
  0
LINE
  5
111A
330
1F
100
AcDbEntity
  8
AM_VIS
100
AcDbLine
 10
321.2636873975215
 20
150.8782507567189
 30
0.0
 11
321.2636873975215
 21
149.0586355144482
 31
0.0
  0
LINE
  5
111B
330
1F
100
AcDbEntity
  8
AM_VIS
100
AcDbLine
 10
321.2636873975215
 20
154.1586355144482
 30
0.0
 11
321.2636873975215
 21
150.9586355144483
 31
0.0
  0
LINE
  5
111C
330
1F
100
AcDbEntity
  8
AM_VIS
100
AcDbLine
 10
321.2636873975215
 20
156.0586355144482
 30
0.0
 11
321.2636873975215
 21
154.2390202721776
 31
0.0
  0
LINE
  5
111D
330
1F
100
AcDbEntity
  8
AM_VIS
100
AcDbLine
 10
321.2636873975215
 20
156.0586355144482
 30
0.0
 11
321.2636873975215
 21
156.5586355144482
 31
0.0
  0
LINE
  5
111E
330
1F
100
AcDbEntity
  8
AM_VIS
100
AcDbLine
 10
321.2636873975215
 20
164.5586355144482
 30
0.0
 11
321.2636873975215
 21
156.5586355144482
 31
0.0
  0
LINE
  5
111F
330
1F
100
AcDbEntity
  8
AM_VIS
100
AcDbLine
 10
321.2636873975215
 20
164.5586355144482
 30
0.0
 11
321.2636873975215
 21
165.0586355144483
 31
0.0
  0
LINE
  5
1120
330
1F
100
AcDbEntity
  8
AM_VIS
100
AcDbLine
 10
321.2636873975215
 20
170.3586355144483
 30
0.0
 11
321.2636873975215
 21
165.0586355144483
 31
0.0
  0
LINE
  5
1121
330
1F
100
AcDbEntity
  8
AM_VIS
100
AcDbLine
 10
321.2636873975215
 20
170.3586355144483
 30
0.0
 11
321.2636873975215
 21
171.0586355144482
 31
0.0
  0
LINE
  5
1122
330
1F
100
AcDbEntity
  8
AM_VIS
100
AcDbLine
 10
321.2636873975215
 20
134.0586355144482
 30
0.0
 11
321.2636873975215
 21
134.7586355144483
 31
0.0
  0
LINE
  5
1123
330
1F
100
AcDbEntity
  8
AM_VIS
100
AcDbLine
 10
321.2636873975215
 20
140.0586355144483
 30
0.0
 11
321.2636873975215
 21
134.7586355144483
 31
0.0
  0
LINE
  5
1124
330
1F
100
AcDbEntity
  8
AM_VIS
100
AcDbLine
 10
266.2636873975215
 20
140.5586355144482
 30
0.0
 11
321.2636873975215
 21
140.5586355144482
 31
0.0
  0
LINE
  5
1125
330
1F
100
AcDbEntity
  8
AM_VIS
100
AcDbLine
 10
321.2636873975215
 20
140.0586355144483
 30
0.0
 11
321.2636873975215
 21
140.5586355144482
 31
0.0
  0
LINE
  5
1126
330
1F
100
AcDbEntity
  8
AM_VIS
100
AcDbLine
 10
266.2636873975215
 20
140.0586355144483
 30
0.0
 11
321.2636873975215
 21
140.0586355144483
 31
0.0
  0
LINE
  5
1127
330
1F
100
AcDbEntity
  8
AM_VIS
100
AcDbLine
 10
266.2636873975215
 20
140.5586355144482
 30
0.0
 11
266.2636873975215
 21
140.0586355144483
 31
0.0
  0
ARC
  5
1128
330
1F
100
AcDbEntity
  8
AM_VIS
100
AcDbCircle
 10
279.2636873975215
 20
152.5586355144483
 30
0.0
 40
1.7
100
AcDbArc
 50
109.7499227956427
 51
250.2500772043573
  0
ARC
  5
1129
330
1F
100
AcDbEntity
  8
AM_VIS
100
AcDbCircle
 10
279.2636873975215
 20
152.5586355144483
 30
0.0
 40
1.7
100
AcDbArc
 50
289.7499227956426
 51
70.25007720435732
  0
ARC
  5
112A
330
1F
100
AcDbEntity
  8
AM_VIS
100
AcDbCircle
 10
294.2636873975215
 20
152.5586355144483
 30
0.0
 40
1.7
100
AcDbArc
 50
109.7499227956427
 51
250.2500772043573
  0
ARC
  5
112B
330
1F
100
AcDbEntity
  8
AM_VIS
100
AcDbCircle
 10
294.2636873975215
 20
152.5586355144483
 30
0.0
 40
1.7
100
AcDbArc
 50
289.7499227956426
 51
70.25007720435732
  0
LINE
  5
112C
330
1F
100
AcDbEntity
  8
AM_VIS
100
AcDbLine
 10
266.2636873975215
 20
154.1586355144483
 30
0.0
 11
266.2636873975215
 21
154.2390202721776
 31
0.0
  0
LINE
  5
112D
330
1F
100
AcDbEntity
  8
AM_VIS
100
AcDbLine
 10
266.2636873975215
 20
150.8782507567189
 30
0.0
 11
266.2636873975215
 21
150.9586355144483
 31
0.0
  0
ARC
  5
112E
330
1F
100
AcDbEntity
  8
AM_VIS
100
AcDbCircle
 10
294.2636873975215
 20
152.5586355144483
 30
0.0
 40
1.7
100
AcDbArc
 50
81.28778705800352
 51
98.71221294199649
  0
ARC
  5
112F
330
1F
100
AcDbEntity
  8
AM_VIS
100
AcDbCircle
 10
279.2636873975215
 20
152.5586355144483
 30
0.0
 40
1.7
100
AcDbArc
 50
81.28778705800352
 51
98.71221294199649
  0
ARC
  5
1130
330
1F
100
AcDbEntity
  8
AM_VIS
100
AcDbCircle
 10
279.2636873975215
 20
152.5586355144483
 30
0.0
 40
1.7
100
AcDbArc
 50
261.2877870580035
 51
278.7122129419965
  0
ARC
  5
1131
330
1F
100
AcDbEntity
  8
AM_VIS
100
AcDbCircle
 10
294.2636873975215
 20
152.5586355144483
 30
0.0
 40
1.7
100
AcDbArc
 50
261.2877870580035
 51
278.7122129419965
  0
LINE
  5
1132
330
1F
100
AcDbEntity
  8
AM_VIS
100
AcDbLine
 10
321.2636873975215
 20
150.9586355144483
 30
0.0
 11
321.2636873975215
 21
150.8782507567189
 31
0.0
  0
LINE
  5
1133
330
1F
100
AcDbEntity
  8
AM_VIS
100
AcDbLine
 10
321.2636873975215
 20
154.2390202721776
 30
0.0
 11
321.2636873975215
 21
154.1586355144482
 31
0.0
  0
LINE
  5
1134
330
1F
100
AcDbEntity
  8
AM_VIS
100
AcDbLine
 10
258.2636873975215
 20
170.0586355144483
 30
0.0
 11
252.7636873975215
 21
170.0586355144483
 31
0.0
  0
LINE
  5
1135
330
1F
100
AcDbEntity
  8
AM_VIS
100
AcDbLine
 10
258.2636873975215
 20
135.0586355144483
 30
0.0
 11
252.7636873975215
 21
135.0586355144483
 31
0.0
  0
LINE
  5
1136
330
1F
100
AcDbEntity
  8
AM_VIS
100
AcDbLine
 10
252.7636873975215
 20
170.0586355144483
 30
0.0
 11
252.7636873975215
 21
135.0586355144483
 31
0.0
  0
LINE
  5
1137
330
1F
100
AcDbEntity
  8
AM_VIS
100
AcDbLine
 10
258.2636873975215
 20
135.0586355144483
 30
0.0
 11
258.2636873975215
 21
170.0586355144483
 31
0.0
  0
CIRCLE
  5
1138
330
1F
100
AcDbEntity
  8
AM_VIS
100
AcDbCircle
 10
255.5136873975215
 20
166.5586355144483
 30
0.0
 40
1.2995
  0
CIRCLE
  5
113B
330
1F
100
AcDbEntity
  8
AM_VIS
100
AcDbCircle
 10
255.5136873975215
 20
138.5586355144483
 30
0.0
 40
1.2995
  0
LINE
  5
113C
330
1F
100
AcDbEntity
  8
AM_VIS
100
AcDbLine
 10
266.2636873975215
 20
146.5586355144482
 30
0.0
 11
258.2636873975215
 21
146.5586355144482
 31
0.0
  0
LINE
  5
113D
330
1F
100
AcDbEntity
  8
AM_VIS
100
AcDbLine
 10
266.2636873975215
 20
142.5586355144482
 30
0.0
 11
258.2636873975215
 21
142.5586355144482
 31
0.0
  0
ARC
  5
113E
330
1F
100
AcDbEntity
  8
AM_VIS
100
AcDbCircle
 10
260.0136873975215
 20
160.5586355144482
 30
0.0
 40
2.0
100
AcDbArc
 50
331.0449756281393
 51
28.95502437186067
  0
LINE
  5
113F
330
1F
100
AcDbEntity
  8
AM_VIS
100
AcDbLine
 10
258.2636873975215
 20
161.5268813510001
 30
0.0
 11
261.7636873975215
 21
161.5268813510001
 31
0.0
  0
LINE
  5
1140
330
1F
100
AcDbEntity
  8
AM_VIS
100
AcDbLine
 10
261.7636873975215
 20
161.5268813510001
 30
0.0
 11
261.7636873975215
 21
159.5903896778964
 31
0.0
  0
LINE
  5
1141
330
1F
100
AcDbEntity
  8
AM_VIS
100
AcDbLine
 10
261.7636873975215
 20
159.5903896778964
 30
0.0
 11
258.2636873975215
 21
159.5903896778964
 31
0.0
  0
LINE
  5
1142
330
1F
100
AcDbEntity
  8
AM_VIS
100
AcDbLine
 10
266.2636873975215
 20
162.5586355144482
 30
0.0
 11
258.2636873975215
 21
162.5586355144482
 31
0.0
  0
LINE
  5
1143
330
1F
100
AcDbEntity
  8
AM_VIS
100
AcDbLine
 10
266.2636873975215
 20
158.5586355144482
 30
0.0
 11
258.2636873975215
 21
158.5586355144482
 31
0.0
  0
LINE
  5
1144
330
1F
100
AcDbEntity
  8
AM_VIS
100
AcDbLine
 10
262.2636873975215
 20
150.7558598767163
 30
0.0
 11
259.2636873975215
 21
150.7558598767163
 31
0.0
  0
SPLINE
  5
1145
330
1F
100
AcDbEntity
  8
AM_VIS
100
AcDbSpline
210
0.0
220
0.0
230
1.0
 70
    12
 71
     2
 72
     6
 73
     3
 74
     0
 42
0.0000000001
 43
0.0000000001
 40
0.0
 40
0.0
 40
0.0
 40
1.884600674528719
 40
1.884600674528719
 40
1.884600674528719
 10
259.2636873975215
 20
150.7558598767163
 30
0.0
 41
1.0
 10
258.7636873975215
 20
151.7265852201104
 30
0.0
 41
1.040832999732997
 10
258.7636873975215
 20
152.5586355144483
 30
0.0
 41
1.0
  0
SPLINE
  5
1146
330
1F
100
AcDbEntity
  8
AM_VIS
100
AcDbSpline
210
0.0
220
0.0
230
1.0
 70
    12
 71
     2
 72
     6
 73
     3
 74
     0
 42
0.0000000001
 43
0.0000000001
 40
1.884600674528719
 40
1.884600674528719
 40
1.884600674528719
 40
3.769201349057438
 40
3.769201349057438
 40
3.769201349057438
 10
258.7636873975215
 20
152.5586355144483
 30
0.0
 41
1.0
 10
258.7636873975215
 20
153.3906858087861
 30
0.0
 41
1.040832999732997
 10
259.2636873975215
 20
154.3614111521802
 30
0.0
 41
1.0
  0
LINE
  5
1147
330
1F
100
AcDbEntity
  8
AM_VIS
100
AcDbLine
 10
259.2636873975215
 20
154.3614111521802
 30
0.0
 11
262.2636873975215
 21
154.3614111521802
 31
0.0
  0
SPLINE
  5
1148
330
1F
100
AcDbEntity
  8
AM_VIS
100
AcDbSpline
210
0.0
220
0.0
230
1.0
 70
    12
 71
     2
 72
     6
 73
     3
 74
     0
 42
0.0000000001
 43
0.0000000001
 40
0.0
 40
0.0
 40
0.0
 40
1.884600674528719
 40
1.884600674528719
 40
1.884600674528719
 10
262.2636873975215
 20
154.3614111521802
 30
0.0
 41
1.0
 10
262.7636873975215
 20
153.3906858087861
 30
0.0
 41
1.040832999732997
 10
262.7636873975215
 20
152.5586355144483
 30
0.0
 41
1.0
  0
SPLINE
  5
1149
330
1F
100
AcDbEntity
  8
AM_VIS
100
AcDbSpline
210
0.0
220
0.0
230
1.0
 70
    12
 71
     2
 72
     6
 73
     3
 74
     0
 42
0.0000000001
 43
0.0000000001
 40
1.884600674528719
 40
1.884600674528719
 40
1.884600674528719
 40
3.769201349057438
 40
3.769201349057438
 40
3.769201349057438
 10
262.7636873975215
 20
152.5586355144483
 30
0.0
 41
1.0
 10
262.7636873975215
 20
151.7265852201104
 30
0.0
 41
1.040832999732997
 10
262.2636873975215
 20
150.7558598767163
 30
0.0
 41
1.0
  0
LINE
  5
114A
330
1F
100
AcDbEntity
  8
AM_VIS
100
AcDbLine
 10
262.2636873975215
 20
149.0586355144482
 30
0.0
 11
259.2636873975215
 21
149.0586355144482
 31
0.0
  0
LINE
  5
114B
330
1F
100
AcDbEntity
  8
AM_VIS
100
AcDbLine
 10
262.7636873975215
 20
149.5586355144483
 30
0.0
 11
262.2636873975215
 21
149.0586355144482
 31
0.0
  0
LINE
  5
114C
330
1F
100
AcDbEntity
  8
AM_VIS
100
AcDbLine
 10
262.7636873975215
 20
155.5586355144482
 30
0.0
 11
262.2636873975215
 21
156.0586355144482
 31
0.0
  0
LINE
  5
114D
330
1F
100
AcDbEntity
  8
AM_VIS
100
AcDbLine
 10
262.2636873975215
 20
156.0586355144482
 30
0.0
 11
259.2636873975215
 21
156.0586355144482
 31
0.0
  0
LINE
  5
114E
330
1F
100
AcDbEntity
  8
AM_VIS
100
AcDbLine
 10
258.7636873975215
 20
149.5586355144483
 30
0.0
 11
259.2636873975215
 21
149.0586355144482
 31
0.0
  0
LINE
  5
114F
330
1F
100
AcDbEntity
  8
AM_VIS
100
AcDbLine
 10
258.7636873975215
 20
155.5586355144482
 30
0.0
 11
259.2636873975215
 21
156.0586355144482
 31
0.0
  0
LINE
  5
1150
330
1F
100
AcDbEntity
  8
AM_VIS
100
AcDbLine
 10
263.8636873975215
 20
154.0586355144482
 30
0.0
 11
262.7636873975215
 21
154.0586355144482
 31
0.0
  0
LINE
  5
1151
330
1F
100
AcDbEntity
  8
AM_VIS
100
AcDbLine
 10
263.8636873975215
 20
151.0586355144482
 30
0.0
 11
262.7636873975215
 21
151.0586355144482
 31
0.0
  0
LINE
  5
1152
330
1F
100
AcDbEntity
  8
AM_VIS
100
AcDbLine
 10
262.7636873975215
 20
152.5586355144483
 30
0.0
 11
262.7636873975215
 21
149.5586355144483
 31
0.0
  0
LINE
  5
1153
330
1F
100
AcDbEntity
  8
AM_VIS
100
AcDbLine
 10
262.2636873975215
 20
149.0586355144482
 30
0.0
 11
262.2636873975215
 21
150.7558598767162
 31
0.0
  0
LINE
  5
1154
330
1F
100
AcDbEntity
  8
AM_VIS
100
AcDbLine
 10
262.7636873975215
 20
155.5586355144482
 30
0.0
 11
262.7636873975215
 21
152.5586355144483
 31
0.0
  0
LINE
  5
1155
330
1F
100
AcDbEntity
  8
AM_VIS
100
AcDbLine
 10
262.2636873975215
 20
154.3614111521802
 30
0.0
 11
262.2636873975215
 21
156.0586355144482
 31
0.0
  0
LINE
  5
1156
330
1F
100
AcDbEntity
  8
AM_VIS
100
AcDbLine
 10
259.2636873975215
 20
150.7558598767163
 30
0.0
 11
259.2636873975215
 21
149.0586355144482
 31
0.0
  0
LINE
  5
1157
330
1F
100
AcDbEntity
  8
AM_VIS
100
AcDbLine
 10
258.7636873975215
 20
149.5586355144483
 30
0.0
 11
258.7636873975215
 21
152.5586355144483
 31
0.0
  0
LINE
  5
1158
330
1F
100
AcDbEntity
  8
AM_VIS
100
AcDbLine
 10
258.7636873975215
 20
152.5586355144483
 30
0.0
 11
258.7636873975215
 21
155.5586355144482
 31
0.0
  0
LINE
  5
1159
330
1F
100
AcDbEntity
  8
AM_VIS
100
AcDbLine
 10
259.2636873975215
 20
156.0586355144482
 30
0.0
 11
259.2636873975215
 21
154.3614111521802
 31
0.0
  0
LINE
  5
115A
330
1F
100
AcDbEntity
  8
AM_VIS
100
AcDbLine
 10
258.7636873975215
 20
154.3086355144482
 30
0.0
 11
258.2636873975215
 21
154.3086355144482
 31
0.0
  0
LINE
  5
115B
330
1F
100
AcDbEntity
  8
AM_VIS
100
AcDbLine
 10
258.7636873975215
 20
150.8086355144483
 30
0.0
 11
258.2636873975215
 21
150.8086355144483
 31
0.0
  0
LINE
  5
115C
330
1F
100
AcDbEntity
  8
AM_VIS
100
AcDbLine
 10
265.7577842241441
 20
149.3823855144482
 30
0.0
 11
264.3695905708989
 21
149.3823855144482
 31
0.0
  0
SPLINE
  5
115D
330
1F
100
AcDbEntity
  8
AM_VIS
100
AcDbSpline
210
0.0
220
0.0
230
1.0
 70
    12
 71
     2
 72
     6
 73
     3
 74
     0
 42
0.0000000001
 43
0.0000000001
 40
0.0
 40
0.0
 40
0.0
 40
3.214032695246831
 40
3.214032695246831
 40
3.214032695246831
 10
264.3695905708989
 20
149.3823855144482
 30
0.0
 41
1.0
 10
263.9111383727705
 20
150.1764480144482
 30
0.0
 41
1.154700538379239
 10
264.3695905708989
 20
150.9705105144482
 30
0.0
 41
1.0
  0
SPLINE
  5
115E
330
1F
100
AcDbEntity
  8
AM_VIS
100
AcDbSpline
210
0.0
220
0.0
230
1.0
 70
    12
 71
     2
 72
     6
 73
     3
 74
     0
 42
0.0000000001
 43
0.0000000001
 40
0.0
 40
0.0
 40
0.0
 40
3.214032695246768
 40
3.214032695246768
 40
3.214032695246768
 10
265.7577842241441
 20
150.9705105144482
 30
0.0
 41
1.0
 10
266.2162364222725
 20
150.1764480144483
 30
0.0
 41
1.154700538379239
 10
265.7577842241441
 20
149.3823855144483
 30
0.0
 41
1.0
  0
LINE
  5
115F
330
1F
100
AcDbEntity
  8
AM_VIS
100
AcDbLine
 10
265.7577842241441
 20
150.9705105144482
 30
0.0
 11
264.3695905708989
 21
150.9705105144482
 31
0.0
  0
SPLINE
  5
1160
330
1F
100
AcDbEntity
  8
AM_VIS
100
AcDbSpline
210
0.0
220
0.0
230
1.0
 70
    12
 71
     2
 72
     6
 73
     3
 74
     0
 42
0.0000000001
 43
0.0000000001
 40
0.0
 40
0.0
 40
0.0
 40
3.2140326952469
 40
3.2140326952469
 40
3.2140326952469
 10
264.3695905708989
 20
150.9705105144482
 30
0.0
 41
1.0
 10
263.9111383727705
 20
152.5586355144483
 30
0.0
 41
1.154700538379372
 10
264.3695905708989
 20
154.1467605144483
 30
0.0
 41
1.0
  0
SPLINE
  5
1161
330
1F
100
AcDbEntity
  8
AM_VIS
100
AcDbSpline
210
0.0
220
0.0
230
1.0
 70
    12
 71
     2
 72
     6
 73
     3
 74
     0
 42
0.0000000001
 43
0.0000000001
 40
0.0
 40
0.0
 40
0.0
 40
3.214032695246897
 40
3.214032695246897
 40
3.214032695246897
 10
265.7577842241441
 20
154.1467605144483
 30
0.0
 41
1.0
 10
266.2162364222724
 20
152.5586355144483
 30
0.0
 41
1.154700538379372
 10
265.7577842241441
 20
150.9705105144482
 30
0.0
 41
1.0
  0
LINE
  5
1162
330
1F
100
AcDbEntity
  8
AM_VIS
100
AcDbLine
 10
264.3695905708989
 20
154.1467605144483
 30
0.0
 11
265.7577842241441
 21
154.1467605144483
 31
0.0
  0
SPLINE
  5
1163
330
1F
100
AcDbEntity
  8
AM_VIS
100
AcDbSpline
210
0.0
220
0.0
230
1.0
 70
    12
 71
     2
 72
     6
 73
     3
 74
     0
 42
0.0000000001
 43
0.0000000001
 40
0.0
 40
0.0
 40
0.0
 40
3.214032695246831
 40
3.214032695246831
 40
3.214032695246831
 10
264.3695905708989
 20
154.1467605144483
 30
0.0
 41
1.0
 10
263.9111383727705
 20
154.9408230144483
 30
0.0
 41
1.154700538379239
 10
264.3695905708989
 20
155.7348855144483
 30
0.0
 41
1.0
  0
SPLINE
  5
1164
330
1F
100
AcDbEntity
  8
AM_VIS
100
AcDbSpline
210
0.0
220
0.0
230
1.0
 70
    12
 71
     2
 72
     6
 73
     3
 74
     0
 42
0.0000000001
 43
0.0000000001
 40
0.0
 40
0.0
 40
0.0
 40
3.214032695246768
 40
3.214032695246768
 40
3.214032695246768
 10
265.7577842241441
 20
155.7348855144482
 30
0.0
 41
1.0
 10
266.2162364222725
 20
154.9408230144483
 30
0.0
 41
1.154700538379239
 10
265.7577842241441
 20
154.1467605144483
 30
0.0
 41
1.0
  0
LINE
  5
1165
330
1F
100
AcDbEntity
  8
AM_VIS
100
AcDbLine
 10
265.7577842241441
 20
155.7348855144483
 30
0.0
 11
264.3695905708989
 21
155.7348855144483
 31
0.0
  0
LINE
  5
1166
330
1F
100
AcDbEntity
  8
AM_VIS
100
AcDbLine
 10
266.2636873975215
 20
154.8586355144482
 30
0.0
 11
265.7577842241441
 21
155.7348855144482
 31
0.0
  0
LINE
  5
1167
330
1F
100
AcDbEntity
  8
AM_VIS
100
AcDbLine
 10
266.2636873975215
 20
150.2586355144483
 30
0.0
 11
265.7577842241441
 21
149.3823855144483
 31
0.0
  0
LINE
  5
1168
330
1F
100
AcDbEntity
  8
AM_VIS
100
AcDbLine
 10
263.8636873975215
 20
150.2586355144482
 30
0.0
 11
264.3695905708989
 21
149.3823855144482
 31
0.0
  0
LINE
  5
1169
330
1F
100
AcDbEntity
  8
AM_VIS
100
AcDbLine
 10
263.8636873975215
 20
154.8586355144483
 30
0.0
 11
264.3695905708988
 21
155.7348855144482
 31
0.0
  0
LINE
  5
116A
330
1F
100
AcDbEntity
  8
AM_VIS
100
AcDbLine
 10
263.8636873975215
 20
150.2586355144482
 30
0.0
 11
263.8636873975215
 21
154.8586355144483
 31
0.0
  0
TEXT
  5
1531
330
1F
100
AcDbEntity
  8
LOGO
 62
     7
100
AcDbText
 10
199.2315011467624
 20
108.7110875219947
 30
0.0
 40
2.666280542986425
  1
Order example:
 41
0.8
  7
CHINESET
100
AcDbText
  0
TEXT
  5
1532
330
1F
100
AcDbEntity
  8
LOGO
 62
     7
100
AcDbText
 10
199.7098539254173
 20
112.464658466089
 30
0.0
 40
3.999420814479637
  1
訂購代號：
  7
CHINESET
100
AcDbText
  0
LINE
  5
1533
330
1F
100
AcDbEntity
  8
LOGO
 62
     4
100
AcDbLine
 10
198.0729932073311
 20
97.47437446391145
 30
0.0
 11
198.0729932073311
 21
117.4714785363097
 31
0.0
  0
TEXT
  5
1534
330
1F
100
AcDbEntity
  8
LOGO
  6
Continuous
100
AcDbText
 10
161.2624139195825
 20
101.4027753806728
 30
0.0
 40
2.999565610859728
  1
金器工業股份有限公司
  7
CHINESET
100
AcDbText
  0
TEXT
  5
1535
330
1F
100
AcDbEntity
  8
LOGO
  6
Continuous
100
AcDbText
 10
155.7528053272242
 20
98.40262209012841
 30
0.0
 40
1.999710407239818
  1
MINDMAN INDUSTRIAL CO., LTD.
 41
0.85
  7
CHINESET
100
AcDbText
  0
LINE
  5
1536
330
1F
100
AcDbEntity
  8
LOGO
 62
     4
100
AcDbLine
 10
198.0729932073311
 20
113.4720577218301
 30
0.0
 11
168.7439072344802
 21
113.4720577218301
 31
0.0
  0
LINE
  5
1537
330
1F
100
AcDbEntity
  8
LOGO
 62
     4
100
AcDbLine
 10
198.0729932073311
 20
109.4726369073504
 30
0.0
 11
168.7439072344802
 21
109.4726369073504
 31
0.0
  0
LINE
  5
1538
330
1F
100
AcDbEntity
  8
LOGO
 62
     4
100
AcDbLine
 10
198.0729932073311
 20
105.473216092871
 30
0.0
 11
154.0793642480551
 21
105.473216092871
 31
0.0
  0
LINE
  5
1539
330
1F
100
AcDbEntity
  8
LOGO
 62
     4
100
AcDbLine
 10
168.7439072344802
 20
105.473216092871
 30
0.0
 11
168.7439072344802
 21
117.4714785363097
 31
0.0
  0
TEXT
  5
153A
330
1F
100
AcDbEntity
  8
LOGO
100
AcDbText
 10
188.7889531851516
 20
106.4730712964906
 30
0.0
 40
1.999710407239818
  1
mm
  7
CHINESET
 72
     1
 11
191.2647851179247
 21
107.4729265001105
 31
0.0
100
AcDbText
 73
     2
  0
TEXT
  5
153B
330
1F
100
AcDbEntity
  8
LOGO
100
AcDbText
 10
187.7414858289783
 20
114.4719129254499
 30
0.0
 40
1.999710407239818
  1
1 : 1
  7
CHINESET
 72
     1
 11
191.2647851179247
 21
115.4717681290698
 31
0.0
100
AcDbText
 73
     2
  0
LINE
  5
153C
330
1F
100
AcDbEntity
  8
LOGO
 62
     4
100
AcDbLine
 10
184.7415904923989
 20
105.473216092871
 30
0.0
 11
184.7415904923989
 21
117.4714785363097
 31
0.0
  0
TEXT
  5
153D
330
1F
100
AcDbEntity
  8
LOGO
100
AcDbText
 10
170.3927755925928
 20
114.4728970349023
 30
131.0577257600498
 40
1.999710407239818
  1
比例 Scale:
 41
0.9
  7
CHINESET
 72
     4
 11
176.7427488634396
 21
115.4717681290698
 31
131.0577257600498
100
AcDbText
  0
TEXT
  5
153E
330
1F
100
AcDbEntity
  8
LOGO
100
AcDbText
 10
170.2776136986044
 20
110.5006212394842
 30
131.0577257600498
 40
1.999710407239818
  1
投影  View:
 41
0.9
  7
CHINESET
 72
     4
 11
176.7427488634396
 21
111.4723473145901
 31
131.0577257600498
100
AcDbText
  0
TEXT
  5
153F
330
1F
100
AcDbEntity
  8
LOGO
100
AcDbText
 10
170.4731211000265
 20
106.4730712964906
 30
131.0577257600498
 40
1.999710407239818
  1
單位  Unit:
 41
0.9
  7
CHINESET
 72
     4
 11
176.7427488634396
 21
107.4729265001105
 31
131.0577257600498
100
AcDbText
  0
LWPOLYLINE
  5
1540
330
1F
100
AcDbEntity
  8
LOGO
 62
     4
100
AcDbPolyline
 90
        4
 70
     1
 43
0.0
 10
154.0793642480551
 20
117.4714785363097
 10
429.079364248055
 20
117.4714785363097
 10
429.079364248055
 20
297.4743744639111
 10
154.0793642480551
 20
297.4743744639111
1001
GENIUS_GENREC_14
1002
{
1000
PYDIR
1011
154.0793642480551
1021
297.4743744639111
1031
0.0
1002
}
1002
{
1000
PXDIR
1011
429.079364248055
1021
117.4714785363097
1031
0.0
1002
}
1002
{
1000
PORI
1011
154.0793642480551
1021
117.4714785363097
1031
0.0
1002
}
1002
{
1000
PINS
1011
154.0793642480551
1021
117.4714785363097
1031
0.0
1002
}
1002
{
1000
PINS2
1011
429.079364248055
1021
297.4743744639111
1031
0.0
1002
}
1002
{
1000
C
1070
     1
1002
}
1001
GENIUS_GENODEF_13
1002
{
1000
HIER
1070
     0
1002
}
1002
{
1000
MANEDIT
1070
     0
1002
}
1002
{
1000
NOSEL
1070
     0
1002
}
1002
{
1000
BEHIND
1070
     0
1002
}
1002
{
1000
OTHER
1070
     0
1002
}
1002
{
1000
REACTOR
1002
}
1001
GENIUS_GENOBJ-N-REC_13
1002
{
1000
OWNER
1000
GEN
1002
}
  0
SOLID
  5
1541
330
1F
100
AcDbEntity
  8
LOGO
 62
     5
100
AcDbTrace
 10
156.1540958884773
 20
108.7974500085444
 30
0.0
 11
157.0187181961667
 21
108.7974500085442
 31
0.0
 12
160.6262802385947
 22
116.9964546504269
 32
0.0
 13
161.4909025462846
 23
116.9964546504265
 33
0.0
  0
SOLID
  5
1542
330
1F
100
AcDbEntity
  8
LOGO
 62
     5
100
AcDbTrace
 10
157.376492944177
 20
108.7974500085444
 30
0.0
 11
158.2411152518664
 21
108.7974500085444
 31
0.0
 12
161.4909025462846
 22
116.340534279076
 32
0.0
 13
160.6262802385947
 23
113.1702524842148
 33
0.0
  0
SOLID
  5
1543
330
1F
100
AcDbEntity
  8
LOGO
 62
     2
100
AcDbTrace
 10
157.0187181961667
 20
108.7974500085442
 30
0.0
 11
157.376492944177
 21
108.7974500085444
 31
0.0
 12
161.4909025462846
 22
116.9964546504265
 32
0.0
 13
161.8486772942945
 23
116.9964546504265
 33
0.0
  0
SOLID
  5
1544
330
1F
100
AcDbEntity
  8
LOGO
 62
     5
100
AcDbTrace
 10
154.7678942978889
 20
105.8159937751328
 30
0.0
 11
155.0660399212304
 21
105.8159937751328
 31
0.0
 12
155.9056412023599
 22
107.3067218918385
 32
0.0
 13
156.2037868257005
 23
107.3067218918385
 33
0.0
  0
SOLID
  5
1545
330
1F
100
AcDbEntity
  8
LOGO
 62
     5
100
AcDbTrace
 10
155.9056412023599
 20
107.3067218918385
 30
0.0
 11
156.2037868257005
 21
107.3067218918385
 31
0.0
 12
155.9056412023599
 22
105.8159937751328
 32
0.0
 13
156.2037868257005
 23
105.8159937751328
 33
0.0
  0
SOLID
  5
1546
330
1F
100
AcDbEntity
  8
LOGO
 62
     5
100
AcDbTrace
 10
155.9056412023599
 20
105.8159937751328
 30
0.0
 11
156.2037868257005
 21
105.8159937751328
 31
0.0
 12
157.0433881068313
 22
107.3067218918385
 32
0.0
 13
157.3415337301724
 23
107.3067218918385
 33
0.0
  0
SOLID
  5
1547
330
1F
100
AcDbEntity
  8
LOGO
 62
     5
100
AcDbTrace
 10
157.0433881068313
 20
107.3067218918385
 30
0.0
 11
157.3415337301724
 21
107.3067218918385
 31
0.0
 12
157.0433881068313
 22
105.8159937751328
 32
0.0
 13
157.3415337301724
 23
105.8159937751328
 33
0.0
  0
POLYLINE
  5
1548
330
1F
100
AcDbEntity
  8
LOGO
 62
     5
100
AcDb2dPolyline
 66
     1
 10
0.0
 20
0.0
 30
0.0
 40
0.2986234208144796
 41
0.2986234208144796
  0
VERTEX
  5
1549
330
1548
100
AcDbEntity
  8
LOGO
 62
     5
100
AcDbVertex
100
AcDb2dVertex
 10
167.0371278366408
 20
106.7104306451562
 30
0.0
 42
1.0
  0
VERTEX
  5
154A
330
1548
100
AcDbEntity
  8
LOGO
 62
     5
100
AcDbVertex
100
AcDb2dVertex
 10
166.1412575741972
 20
106.7104306451562
 30
0.0
 42
1.0
  0
SEQEND
  5
154B
330
1548
100
AcDbEntity
  8
LOGO
 62
     5
  0
POLYLINE
  5
154C
330
1F
100
AcDbEntity
  8
LOGO
 62
     5
100
AcDb2dPolyline
 66
     1
 10
0.0
 20
0.0
 30
0.0
 70
     1
  0
VERTEX
  5
154D
330
154C
100
AcDbEntity
  8
LOGO
 62
     5
100
AcDbVertex
100
AcDb2dVertex
 10
164.4525022811815
 20
106.5613578334854
 30
0.0
 42
1.000000057330635
  0
VERTEX
  5
154E
330
154C
100
AcDbEntity
  8
LOGO
 62
     5
100
AcDbVertex
100
AcDb2dVertex
 10
165.3469391512051
 20
106.5613578334854
 30
0.0
 42
1.000000057330635
  0
SEQEND
  5
154F
330
154C
100
AcDbEntity
  8
LOGO
 62
     5
  0
CIRCLE
  5
1550
330
1F
100
AcDbEntity
  8
LOGO
 62
     5
100
AcDbCircle
 10
164.899720716194
 20
106.5613578334854
 30
0.0
 40
0.4472184350117648
  0
POLYLINE
  5
1551
330
1F
100
AcDbEntity
  8
LOGO
 62
     5
100
AcDb2dPolyline
 66
     1
 10
0.0
 20
0.0
 30
0.0
 70
     1
 40
0.2986234208144796
 41
0.2986234208144796
  0
VERTEX
  5
1552
330
1551
100
AcDbEntity
  8
LOGO
 62
     5
100
AcDbVertex
100
AcDb2dVertex
 10
164.3024738745646
 20
106.5613578334854
 30
0.0
 42
1.0
  0
VERTEX
  5
1553
330
1551
100
AcDbEntity
  8
LOGO
 62
     5
100
AcDbVertex
100
AcDb2dVertex
 10
165.4969675578225
 20
106.5613578334854
 30
0.0
 42
1.0
  0
SEQEND
  5
1554
330
1551
100
AcDbEntity
  8
LOGO
 62
     5
  0
LINE
  5
1555
330
1F
100
AcDbEntity
  8
LOGO
100
AcDbLine
 10
167.1854839521008
 20
105.8159937751328
 30
0.0
 11
167.1854839521008
 21
106.7104306451562
 31
0.0
  0
SOLID
  5
1556
330
1F
100
AcDbEntity
  8
LOGO
 62
     5
100
AcDbTrace
 10
165.3469093366441
 20
107.3067218918385
 30
0.0
 11
165.6450549599847
 21
107.3067218918385
 31
0.0
 12
165.3469093366441
 22
105.8159937751328
 32
0.0
 13
165.6450549599847
 23
105.8159937751328
 33
0.0
  0
SOLID
  5
1557
330
1F
100
AcDbEntity
  8
LOGO
 62
     5
100
AcDbTrace
 10
165.9929014587362
 20
105.8159937751328
 30
0.0
 11
166.2910470820777
 21
105.8159937751328
 31
0.0
 12
165.9929014587362
 22
107.3067218918385
 32
0.0
 13
166.2910470820777
 23
107.3067218918385
 33
0.0
  0
SOLID
  5
1558
330
1F
100
AcDbEntity
  8
LOGO
 62
     5
100
AcDbTrace
 10
166.8873383287603
 20
106.7104306451562
 30
0.0
 11
167.1854839521008
 21
106.7104306451562
 31
0.0
 12
166.8873383287603
 22
105.8159937751328
 32
0.0
 13
167.1854839521008
 23
105.8159937751328
 33
0.0
  0
SOLID
  5
1559
330
1F
100
AcDbEntity
  8
LOGO
 62
     5
100
AcDbTrace
 10
165.963086896402
 20
116.340534279076
 30
0.0
 11
165.0984645887131
 21
113.1702524842148
 31
0.0
 12
165.963086896402
 22
108.7974500085442
 32
0.0
 13
165.0984645887131
 23
108.7974500085442
 33
0.0
  0
SOLID
  5
155A
330
1F
100
AcDbEntity
  8
LOGO
 62
     5
100
AcDbTrace
 10
166.3208616444119
 20
108.7974500085442
 30
0.0
 11
167.1854839521008
 21
108.7974500085442
 31
0.0
 12
166.3208616444119
 22
116.9964546504265
 32
0.0
 13
167.1854839521008
 23
116.9964546504269
 33
0.0
  0
SOLID
  5
155B
330
1F
100
AcDbEntity
  8
LOGO
 62
     2
100
AcDbTrace
 10
165.963086896402
 20
116.9964546504269
 30
0.0
 11
166.3208616444119
 21
116.9964546504265
 31
0.0
 12
165.963086896402
 22
108.7974500085442
 32
0.0
 13
166.3208616444119
 23
108.7974500085442
 33
0.0
  0
POLYLINE
  5
155C
330
1F
100
AcDbEntity
  8
LOGO
 62
     5
100
AcDb2dPolyline
 66
     1
 10
0.0
 20
0.0
 30
0.0
 40
0.2986234208144796
 41
0.2986234208144796
  0
VERTEX
  5
155D
330
155C
100
AcDbEntity
  8
LOGO
 62
     5
100
AcDbVertex
100
AcDb2dVertex
 10
162.7636873590424
 20
106.7104306451562
 30
0.0
 42
1.0
  0
VERTEX
  5
155E
330
155C
100
AcDbEntity
  8
LOGO
 62
     5
100
AcDbVertex
100
AcDb2dVertex
 10
161.8678170965988
 20
106.7104306451562
 30
0.0
 42
1.0
  0
SEQEND
  5
155F
330
155C
100
AcDbEntity
  8
LOGO
 62
     5
  0
POLYLINE
  5
1560
330
1F
100
AcDbEntity
  8
LOGO
 62
     5
100
AcDb2dPolyline
 66
     1
 10
0.0
 20
0.0
 30
0.0
 40
0.2986234208144796
 41
0.2986234208144796
  0
VERTEX
  5
1561
330
1560
100
AcDbEntity
  8
LOGO
 62
     5
100
AcDbVertex
100
AcDb2dVertex
 10
163.6581242290651
 20
106.7104306451562
 30
0.0
 42
1.0
  0
VERTEX
  5
1562
330
1560
100
AcDbEntity
  8
LOGO
 62
     5
100
AcDbVertex
100
AcDb2dVertex
 10
162.762253966622
 20
106.7104306451562
 30
0.0
 42
1.0
  0
SEQEND
  5
1563
330
1560
100
AcDbEntity
  8
LOGO
 62
     5
  0
POLYLINE
  5
1564
330
1F
100
AcDbEntity
  8
LOGO
 62
     5
100
AcDb2dPolyline
 66
     1
 10
0.0
 20
0.0
 30
0.0
 40
0.2986234208144796
 41
0.2986234208144796
  0
VERTEX
  5
1565
330
1564
100
AcDbEntity
  8
LOGO
 62
     5
100
AcDbVertex
100
AcDb2dVertex
 10
159.3846837514668
 20
106.7104306451562
 30
0.0
 42
1.0
  0
VERTEX
  5
1566
330
1564
100
AcDbEntity
  8
LOGO
 62
     5
100
AcDbVertex
100
AcDb2dVertex
 10
158.4888134890236
 20
106.7104306451562
 30
0.0
 42
1.0
  0
SEQEND
  5
1567
330
1564
100
AcDbEntity
  8
LOGO
 62
     5
  0
SOLID
  5
1568
330
1F
100
AcDbEntity
  8
LOGO
 62
     5
100
AcDbTrace
 10
158.3404573735631
 20
107.3067218918385
 30
0.0
 11
158.6386029969037
 21
107.3067218918385
 31
0.0
 12
158.3404573735631
 22
105.8159937751328
 32
0.0
 13
158.6386029969037
 23
105.8159937751328
 33
0.0
  0
SOLID
  5
1569
330
1F
100
AcDbEntity
  8
LOGO
 62
     5
100
AcDbTrace
 10
159.2348942435867
 20
106.7104306451562
 30
0.0
 11
159.5330398669282
 21
106.7104306451562
 31
0.0
 12
159.2348942435867
 22
105.8159937751328
 32
0.0
 13
159.5330398669282
 23
105.8159937751328
 33
0.0
  0
POLYLINE
  5
156A
330
1F
100
AcDbEntity
  8
LOGO
 62
     5
100
AcDb2dPolyline
 66
     1
 10
0.0
 20
0.0
 30
0.0
 70
     1
 40
0.2986234208144796
 41
0.2986234208144796
  0
VERTEX
  5
156B
330
156A
100
AcDbEntity
  8
LOGO
 62
     5
100
AcDbVertex
100
AcDb2dVertex
 10
160.0290333969658
 20
106.5613578334854
 30
0.0
 42
1.0
  0
VERTEX
  5
156C
330
156A
100
AcDbEntity
  8
LOGO
 62
     5
100
AcDbVertex
100
AcDb2dVertex
 10
161.2235270802241
 20
106.5613578334854
 30
0.0
 42
1.0
  0
SEQEND
  5
156D
330
156A
100
AcDbEntity
  8
LOGO
 62
     5
  0
SOLID
  5
156E
330
1F
100
AcDbEntity
  8
LOGO
 62
     5
100
AcDbTrace
 10
161.0734688590448
 20
107.7539403268505
 30
0.0
 11
161.3716144823859
 21
107.7539403268505
 31
0.0
 12
161.0734688590448
 22
105.8159937751328
 32
0.0
 13
161.3716144823859
 23
105.8159937751328
 33
0.0
  0
SOLID
  5
156F
330
1F
100
AcDbEntity
  8
LOGO
 62
     5
100
AcDbTrace
 10
161.7194609811388
 20
107.3067218918385
 30
0.0
 11
162.0176066044794
 21
107.3067218918385
 31
0.0
 12
161.7194609811388
 22
105.8159937751328
 32
0.0
 13
162.0176066044794
 23
105.8159937751328
 33
0.0
  0
SOLID
  5
1570
330
1F
100
AcDbEntity
  8
LOGO
 62
     5
100
AcDbTrace
 10
162.6138978511615
 20
106.7104306451562
 30
0.0
 11
162.912043474503
 21
106.7104306451562
 31
0.0
 12
162.6138978511615
 22
105.8159937751328
 32
0.0
 13
162.912043474503
 23
105.8159937751328
 33
0.0
  0
SOLID
  5
1571
330
1F
100
AcDbEntity
  8
LOGO
 62
     5
100
AcDbTrace
 10
163.508334721185
 20
106.7104306451562
 30
0.0
 11
163.8064803445261
 21
106.7104306451562
 31
0.0
 12
163.508334721185
 22
105.8159937751324
 32
0.0
 13
163.8064803445261
 23
105.8159937751324
 33
0.0
  0
SOLID
  5
1572
330
1F
100
AcDbEntity
  8
LOGO
 62
     5
100
AcDbTrace
 10
157.6944652514696
 20
107.5154238281774
 30
0.0
 11
157.9926108748116
 21
107.5154238281774
 31
0.0
 12
157.6944652514696
 22
107.7539403268505
 32
0.0
 13
157.9926108748116
 23
107.7539403268505
 33
0.0
  0
SOLID
  5
1573
330
1F
100
AcDbEntity
  8
LOGO
 62
     5
100
AcDbTrace
 10
157.6944652514696
 20
107.3067218918385
 30
0.0
 11
157.9926108748116
 21
107.3067218918385
 31
0.0
 12
157.6944652514696
 22
105.8159937751324
 32
0.0
 13
157.9926108748116
 23
105.8159937751328
 33
0.0
  0
SOLID
  5
1574
330
1F
100
AcDbEntity
  8
LOGO
 62
     5
100
AcDbTrace
 10
160.6262802385947
 20
108.7974500085444
 30
0.0
 11
161.4909025462846
 21
108.7974500085444
 31
0.0
 12
160.6262802385947
 22
113.1702524842148
 32
0.0
 13
161.4909025462846
 23
116.340534279076
 33
0.0
  0
SOLID
  5
1575
330
1F
100
AcDbEntity
  8
LOGO
 62
     5
100
AcDbTrace
 10
161.8486772942945
 20
116.9964546504265
 30
0.0
 11
162.7132996019834
 21
116.9964546504269
 31
0.0
 12
161.8486772942945
 22
109.4533703798949
 32
0.0
 13
162.7132996019834
 23
112.6236521747561
 33
0.0
  0
SOLID
  5
1576
330
1F
100
AcDbEntity
  8
LOGO
 62
     2
100
AcDbTrace
 10
161.4909025462846
 20
116.9964546504265
 30
0.0
 11
161.8486772942945
 21
116.9964546504265
 31
0.0
 12
161.4909025462846
 22
108.7974500085444
 32
0.0
 13
161.8486772942945
 23
108.7974500085444
 33
0.0
  0
SOLID
  5
1577
330
1F
100
AcDbEntity
  8
LOGO
 62
     5
100
AcDbTrace
 10
161.8486772942945
 20
109.4533703798949
 30
0.0
 11
162.7132996019834
 21
112.6236521747561
 31
0.0
 12
165.963086896402
 22
116.9964546504269
 32
0.0
 13
165.0984645887131
 23
116.9964546504269
 33
0.0
  0
SOLID
  5
1578
330
1F
100
AcDbEntity
  8
LOGO
 62
     5
100
AcDbTrace
 10
161.8486772942945
 20
108.7974500085444
 30
0.0
 11
162.7132996019834
 21
108.7974500085444
 31
0.0
 12
165.963086896402
 22
116.340534279076
 32
0.0
 13
165.0984645887131
 23
113.1702524842148
 33
0.0
  0
SOLID
  5
1579
330
1F
100
AcDbEntity
  8
LOGO
 62
     2
100
AcDbTrace
 10
161.4909025462846
 20
108.7974500085444
 30
0.0
 11
161.8486772942945
 21
108.7974500085444
 31
0.0
 12
165.963086896402
 22
116.9964546504269
 32
0.0
 13
166.3208616444119
 23
116.9964546504265
 33
0.0
  0
LWPOLYLINE
  5
157A
330
1F
100
AcDbEntity
  8
LOGO
 62
     4
100
AcDbPolyline
 90
        4
 70
     1
 43
0.0
 10
154.0793642480551
 20
117.4714785363097
 10
429.079364248055
 20
117.4714785363097
 10
429.079364248055
 20
97.47437446391124
 10
154.0793642480551
 20
97.47437446391124
1001
GENIUS_GENREC_14
1002
{
1000
PYDIR
1011
154.0793642480551
1021
97.47437446391124
1031
0.0
1002
}
1002
{
1000
PXDIR
1011
429.079364248055
1021
117.4714785363097
1031
0.0
1002
}
1002
{
1000
PORI
1011
154.0793642480551
1021
117.4714785363097
1031
0.0
1002
}
1002
{
1000
PINS
1011
154.0793642480551
1021
117.4714785363097
1031
0.0
1002
}
1002
{
1000
PINS2
1011
429.079364248055
1021
97.47437446391124
1031
0.0
1002
}
1002
{
1000
C
1070
     1
1002
}
1001
GENIUS_GENOBJ-N-REC_13
1002
{
1000
OWNER
1000
GEN
1002
}
1001
GENIUS_GENODEF_13
1002
{
1000
HIER
1070
     0
1002
}
1002
{
1000
MANEDIT
1070
     0
1002
}
1002
{
1000
NOSEL
1070
     0
1002
}
1002
{
1000
BEHIND
1070
     0
1002
}
1002
{
1000
OTHER
1070
     0
1002
}
1002
{
1000
REACTOR
1002
}
  0
LINE
  5
157B
330
1F
100
AcDbEntity
  8
LOGO
 62
     4
100
AcDbLine
 10
238.9095250573134
 20
106.473071296491
 30
0.0
 11
238.9095250573134
 21
99.14079980327793
 31
0.0
  0
LINE
  5
157C
330
1F
100
AcDbEntity
  8
LOGO
 62
     4
100
AcDbLine
 10
225.5781223423812
 20
106.473071296491
 30
0.0
 11
225.5781223423812
 21
99.14079980327793
 31
0.0
  0
LINE
  5
157D
330
1F
100
AcDbEntity
  8
LOGO
 62
     4
100
AcDbLine
 10
238.9095250573134
 20
99.14079980327793
 30
0.0
 11
225.5781223423812
 21
99.14079980327793
 31
0.0
  0
LINE
  5
157E
330
1F
100
AcDbEntity
  8
LOGO
 62
     4
100
AcDbLine
 10
241.3006538137863
 20
115.4717681290698
 30
0.0
 11
225.5781223423812
 21
115.4717681290698
 31
0.0
  0
LINE
  5
157F
330
1F
100
AcDbEntity
  8
LOGO
 62
     4
100
AcDbLine
 10
241.3006538137863
 20
109.4726369073504
 30
0.0
 11
225.5781223423812
 21
109.4726369073504
 31
0.0
  0
LINE
  5
1580
330
1F
100
AcDbEntity
  8
LOGO
 62
     4
100
AcDbLine
 10
225.5781223423812
 20
115.4717681290698
 30
0.0
 11
225.5781223423812
 21
109.4726369073504
 31
0.0
  0
LINE
  5
1581
330
1F
100
AcDbEntity
  8
LOGO
 62
     4
100
AcDbLine
 10
241.3006538137863
 20
115.4717681290698
 30
0.0
 11
241.3006538137863
 21
109.4726369073504
 31
0.0
  0
LINE
  5
1582
330
1F
100
AcDbEntity
  8
LOGO
 62
     4
100
AcDbLine
 10
232.9393880780838
 20
109.4726369073504
 30
0.0
 11
232.9393880780838
 21
106.473071296491
 31
0.0
  0
TEXT
  5
1583
330
1F
100
AcDbEntity
  8
LOGO
  6
Continuous
100
AcDbText
 10
226.6440740056612
 20
110.7249467791554
 30
0.0
 40
3.5
  1
MCDA
  7
CHINESET
100
AcDbText
  0
LINE
  5
1584
330
1F
100
AcDbEntity
  8
LOGO
 62
     4
100
AcDbLine
 10
238.9095250573134
 20
106.473071296491
 30
0.0
 11
225.5781223423812
 21
106.473071296491
 31
0.0
  0
TEXT
  5
1585
330
1F
100
AcDbEntity
  8
LOGO
  6
Continuous
100
AcDbText
 10
229.8561272670243
 20
100.175734376102
 30
131.0577257600498
 40
1.5
  1
Model
 41
0.8
  7
CHINESET
100
AcDbText
  0
TEXT
  5
1586
330
1F
100
AcDbEntity
  8
LOGO
100
AcDbText
 10
229.4568760290251
 20
102.9564111030294
 30
131.0577257600498
 40
2.5
  1
型號
  7
CHINESET
100
AcDbText
  0
LINE
  5
1587
330
1F
100
AcDbEntity
  8
LOGO
  6
Continuous
100
AcDbLine
 10
241.938411044792
 20
112.4509526473361
 30
0.0
 11
244.5874084937316
 21
112.4509526473361
 31
0.0
  0
LINE
  5
1588
330
1F
100
AcDbEntity
  8
LOGO
 62
     4
100
AcDbLine
 10
258.9446093846684
 20
106.473071296491
 30
0.0
 11
258.9446093846684
 21
99.14079980327793
 31
0.0
  0
LINE
  5
1589
330
1F
100
AcDbEntity
  8
LOGO
 62
     4
100
AcDbLine
 10
241.7324671864628
 20
106.473071296491
 30
0.0
 11
241.7324671864628
 21
99.14079980327793
 31
0.0
  0
LINE
  5
158A
330
1F
100
AcDbEntity
  8
LOGO
 62
     4
100
AcDbLine
 10
258.9446093846684
 20
99.14079980327793
 30
0.0
 11
241.7324671864628
 21
99.14079980327793
 31
0.0
  0
LINE
  5
158B
330
1F
100
AcDbEntity
  8
LOGO
 62
     4
100
AcDbLine
 10
263.5783886419804
 20
115.4717681290698
 30
0.0
 11
245.4230275518832
 21
115.4717681290698
 31
0.0
  0
LINE
  5
158C
330
1F
100
AcDbEntity
  8
LOGO
 62
     4
100
AcDbLine
 10
263.5783886419804
 20
109.4726369073504
 30
0.0
 11
245.4230275518832
 21
109.4726369073504
 31
0.0
  0
LINE
  5
158D
330
1F
100
AcDbEntity
  8
LOGO
 62
     4
100
AcDbLine
 10
245.4230275518832
 20
115.4717681290698
 30
0.0
 11
245.4230275518832
 21
109.4726369073504
 31
0.0
  0
LINE
  5
158E
330
1F
100
AcDbEntity
  8
LOGO
 62
     4
100
AcDbLine
 10
263.5783886419804
 20
115.4717681290698
 30
0.0
 11
263.5783886419804
 21
109.4726369073504
 31
0.0
  0
LINE
  5
158F
330
1F
100
AcDbEntity
  8
LOGO
 62
     4
100
AcDbLine
 10
253.3496185272031
 20
109.4726369073504
 30
0.0
 11
253.3496185272031
 21
106.473071296491
 31
0.0
  0
TEXT
  5
1590
330
1F
100
AcDbEntity
  8
LOGO
  6
Continuous
100
AcDbText
 10
246.398227251166
 20
110.7249467791554
 30
0.0
 40
3.5
  1
03/23
  7
CHINESET
100
AcDbText
  0
LINE
  5
1591
330
1F
100
AcDbEntity
  8
LOGO
 62
     4
100
AcDbLine
 10
258.9446093846684
 20
106.473071296491
 30
0.0
 11
241.7324671864628
 21
106.473071296491
 31
0.0
  0
LINE
  5
1592
330
1F
100
AcDbEntity
  8
LOGO
  6
Continuous
100
AcDbLine
 10
264.7954739571337
 20
112.4509526473361
 30
0.0
 11
267.4444714060733
 21
112.4509526473361
 31
0.0
  0
LINE
  5
1593
330
1F
100
AcDbEntity
  8
LOGO
 62
     4
100
AcDbLine
 10
276.7034855599045
 20
106.473071296491
 30
0.0
 11
276.7034855599045
 21
99.14079980327793
 31
0.0
  0
LINE
  5
1594
330
1F
100
AcDbEntity
  8
LOGO
 62
     4
100
AcDbLine
 10
263.3720828449723
 20
106.473071296491
 30
0.0
 11
263.3720828449723
 21
99.14079980327793
 31
0.0
  0
LINE
  5
1595
330
1F
100
AcDbEntity
  8
LOGO
 62
     4
100
AcDbLine
 10
276.7034855599045
 20
99.14079980327793
 30
0.0
 11
263.3720828449723
 21
99.14079980327793
 31
0.0
  0
LINE
  5
1596
330
1F
100
AcDbEntity
  8
LOGO
 62
     4
100
AcDbLine
 10
275.6595680069586
 20
115.4717681290698
 30
0.0
 11
268.2800904642249
 21
115.4717681290698
 31
0.0
  0
LINE
  5
1597
330
1F
100
AcDbEntity
  8
LOGO
 62
     4
100
AcDbLine
 10
275.6595680069586
 20
109.4726369073504
 30
0.0
 11
268.2800904642249
 21
109.4726369073504
 31
0.0
  0
LINE
  5
1598
330
1F
100
AcDbEntity
  8
LOGO
 62
     4
100
AcDbLine
 10
268.2800904642249
 20
115.4717681290698
 30
0.0
 11
268.2800904642249
 21
109.4726369073504
 31
0.0
  0
LINE
  5
1599
330
1F
100
AcDbEntity
  8
LOGO
 62
     4
100
AcDbLine
 10
275.6595680069586
 20
115.4717681290698
 30
0.0
 11
275.6595680069586
 21
109.4726369073504
 31
0.0
  0
LINE
  5
159A
330
1F
100
AcDbEntity
  8
LOGO
 62
     4
100
AcDbLine
 10
272.8893340256559
 20
109.4726369073504
 30
0.0
 11
272.8893340256559
 21
106.473071296491
 31
0.0
  0
TEXT
  5
159B
330
1F
100
AcDbEntity
  8
LOGO
  6
Continuous
100
AcDbText
 10
270.6975763631916
 20
110.7249467791554
 30
0.0
 40
3.5
  1
6
  7
CHINESET
100
AcDbText
  0
LINE
  5
159C
330
1F
100
AcDbEntity
  8
LOGO
 62
     4
100
AcDbLine
 10
276.7034855599045
 20
106.473071296491
 30
0.0
 11
263.3720828449723
 21
106.473071296491
 31
0.0
  0
LINE
  5
159D
330
1F
100
AcDbEntity
  8
LOGO
  6
Continuous
100
AcDbLine
 10
276.8129178480092
 20
112.4509526473361
 30
0.0
 11
279.4619152969492
 21
112.4509526473361
 31
0.0
  0
LINE
  5
159E
330
1F
100
AcDbEntity
  8
LOGO
 62
     4
100
AcDbLine
 10
288.8215873904355
 20
106.473071296491
 30
0.0
 11
288.8215873904355
 21
99.14079980327793
 31
0.0
  0
LINE
  5
159F
330
1F
100
AcDbEntity
  8
LOGO
 62
     4
100
AcDbLine
 10
277.9610345720143
 20
106.473071296491
 30
0.0
 11
277.9610345720143
 21
99.14079980327793
 31
0.0
  0
LINE
  5
15A0
330
1F
100
AcDbEntity
  8
LOGO
 62
     4
100
AcDbLine
 10
288.8215873904355
 20
99.14079980327793
 30
0.0
 11
277.9610345720143
 21
99.14079980327793
 31
0.0
  0
LINE
  5
15A1
330
1F
100
AcDbEntity
  8
LOGO
 62
     4
100
AcDbLine
 10
287.7560127590548
 20
115.4717681290698
 30
0.0
 11
280.2975343551004
 21
115.4717681290698
 31
0.0
  0
LINE
  5
15A2
330
1F
100
AcDbEntity
  8
LOGO
 62
     4
100
AcDbLine
 10
287.7560127590548
 20
109.4726369073504
 30
0.0
 11
280.2975343551004
 21
109.4726369073504
 31
0.0
  0
LINE
  5
15A3
330
1F
100
AcDbEntity
  8
LOGO
 62
     4
100
AcDbLine
 10
280.2975343551004
 20
115.4717681290698
 30
0.0
 11
280.2975343551004
 21
109.4726369073504
 31
0.0
  0
LINE
  5
15A4
330
1F
100
AcDbEntity
  8
LOGO
 62
     4
100
AcDbLine
 10
287.7560127590548
 20
115.4717681290698
 30
0.0
 11
287.7560127590548
 21
109.4726369073504
 31
0.0
  0
LINE
  5
15A5
330
1F
100
AcDbEntity
  8
LOGO
 62
     4
100
AcDbLine
 10
284.0267735570776
 20
109.4726369073504
 30
0.0
 11
284.0267735570776
 21
106.473071296491
 31
0.0
  0
TEXT
  5
15A6
330
1F
100
AcDbEntity
  8
LOGO
  6
Continuous
100
AcDbText
 10
281.5450467717097
 20
110.7249467791554
 30
0.0
 40
3.5
  1
10
  7
CHINESET
100
AcDbText
  0
LINE
  5
15A7
330
1F
100
AcDbEntity
  8
LOGO
 62
     4
100
AcDbLine
 10
288.8215873904355
 20
106.473071296491
 30
0.0
 11
277.9610345720143
 21
106.473071296491
 31
0.0
  0
TEXT
  5
15A8
330
1F
100
AcDbEntity
  8
LOGO
  6
Continuous
100
AcDbText
 10
244.2869144184865
 20
100.175734376102
 30
131.0577257600498
 40
1.5
  1
Bearing type
 41
0.8
  7
CHINESET
100
AcDbText
  0
TEXT
  5
15A9
330
1F
100
AcDbEntity
  8
LOGO
100
AcDbText
 10
244.272783898964
 20
102.9564111030294
 30
131.0577257600498
 40
2.5
  1
軸承型式
  7
CHINESET
100
AcDbText
  0
TEXT
  5
15AA
330
1F
100
AcDbEntity
  8
LOGO
  6
Continuous
100
AcDbText
 10
266.1644668448312
 20
100.175734376102
 30
131.0577257600498
 40
1.5
  1
Tube I.D.
 41
0.8
  7
CHINESET
100
AcDbText
  0
TEXT
  5
15AB
330
1F
100
AcDbEntity
  8
LOGO
100
AcDbText
 10
267.1512119840345
 20
102.9564111030294
 30
131.0577257600498
 40
2.5
  1
內徑
  7
CHINESET
100
AcDbText
  0
TEXT
  5
15AC
330
1F
100
AcDbEntity
  8
LOGO
  6
Continuous
100
AcDbText
 10
280.8233417736305
 20
100.175734376102
 30
131.0577257600498
 40
1.5
  1
Stroke
 41
0.8
  7
CHINESET
100
AcDbText
  0
TEXT
  5
15AD
330
1F
100
AcDbEntity
  8
LOGO
100
AcDbText
 10
280.7193367045443
 20
102.9564111030294
 30
131.0577257600498
 40
2.5
  1
行程
  7
CHINESET
100
AcDbText
  0
TEXT
  5
15BA
330
1F
100
AcDbEntity
  8
LOGO
100
AcDbText
 10
199.1328621319021
 20
98.53821250783282
 30
0.0
 40
2.0
  1
10701018
 41
0.7
  7
CHINESET
 72
     1
 11
203.8661954652355
 21
98.53821250783282
 31
0.0
100
AcDbText
  0
LINE
  5
15BB
330
1F
100
AcDbEntity
  8
LOGO
 62
     4
100
AcDbLine
 10
210.0729932073302
 20
101.4737952783915
 30
0.0
 11
210.0729932073311
 21
97.47437446391169
 31
0.0
  0
LINE
  5
15BC
330
1F
100
AcDbEntity
  8
LOGO
 62
     4
100
AcDbLine
 10
210.0729932073302
 20
101.4737952783915
 30
0.0
 11
198.0729932073311
 21
101.4737952783915
 31
0.0
  0
CIRCLE
  5
15BD
330
1F
100
AcDbEntity
  8
LOGO
  6
Continuous
100
AcDbCircle
 10
188.4443044312272
 20
111.4766247097849
 30
0.0
 40
1.161078930320631
  0
CIRCLE
  5
15BE
330
1F
100
AcDbEntity
  8
LOGO
  6
Continuous
100
AcDbCircle
 10
188.4443044312272
 20
111.4766247097849
 30
0.0
 40
0.6802894686655972
  0
LINE
  5
15BF
330
1F
100
AcDbEntity
  8
LOGO
100
AcDbLine
 10
195.7406591552637
 20
110.3155457794641
 30
0.0
 11
195.7406591552637
 21
112.6377036401058
 31
0.0
  0
LINE
  5
15C0
330
1F
100
AcDbEntity
  8
LOGO
100
AcDbLine
 10
192.1007433578195
 20
110.7963352411194
 30
0.0
 11
192.1007433578195
 21
112.1569141784506
 31
0.0
  0
LINE
  5
15C1
330
1F
100
AcDbEntity
  8
LOGO
  6
Continuous
100
AcDbLine
 10
192.1007433578195
 20
112.1569141784506
 30
0.0
 11
195.7406591552637
 21
112.6377036401058
 31
0.0
  0
LINE
  5
15C2
330
1F
100
AcDbEntity
  8
LOGO
  6
Continuous
100
AcDbLine
 10
192.1007433578195
 20
110.7963352411194
 30
0.0
 11
195.7406591552637
 21
110.3155457794641
 31
0.0
  0
LINE
  5
15C3
330
1F
100
AcDbEntity
  8
LOGO
  6
AM_ISO08W050x2
 48
0.3
100
AcDbLine
 10
186.8437397399923
 20
111.4766247097849
 30
0.0
 11
190.0448691224621
 21
111.4766247097849
 31
0.0
1001
GENIUS_GENOREF_13
1005
15C8
  0
LINE
  5
15C4
330
1F
100
AcDbEntity
  8
LOGO
  6
AM_ISO08W050x2
 48
0.3
100
AcDbLine
 10
188.4443044312272
 20
109.87606001855
 30
0.0
 11
188.4443044312272
 21
113.0771894010198
 31
0.0
1001
GENIUS_GENOREF_13
1005
15C7
  0
LINE
  5
15C5
330
1F
100
AcDbEntity
  8
LOGO
  6
CENTER
 48
0.5
100
AcDbLine
 10
191.8096512650102
 20
111.4766247097849
 30
0.0
 11
196.1071868930514
 21
111.4766247097849
 31
0.0
1001
GENIUS_GENOREF_13
1005
15C6
  0
POINT
  5
15C6
330
1F
100
AcDbEntity
  8
0
 60
     1
100
AcDbPoint
 10
-1648.428895040157
 20
-819.6231432339265
 30
0.0
1001
GENIUS_GENOBJ-N-CRS_13
1002
{
1000
OWNER
1000
GEN
1002
}
1001
GENIUS_GENOLIS_13
1002
{
1000
ENT
1005
0
1005
0
1005
0
1005
15C5
1002
}
1001
GENIUS_GENOENT_13
1002
{
1000
MYREF
1005
15C6
1002
}
1002
{
1000
GRP
1005
0
1002
}
1001
GENIUS_GENODEF_13
1002
{
1000
HIER
1070
    10
1002
}
1002
{
1000
MANEDIT
1070
     1
1002
}
1002
{
1000
NOSEL
1070
     0
1002
}
1002
{
1000
BEHIND
1070
     0
1002
}
1002
{
1000
OTHER
1070
     0
1002
}
1002
{
1000
REACTOR
1002
}
  0
POINT
  5
15C7
330
1F
100
AcDbEntity
  8
0
 60
     1
100
AcDbPoint
 10
-1659.753480263011
 20
-810.7475567552903
 30
0.0
1001
GENIUS_GENOBJ-N-CRS_13
1002
{
1000
OWNER
1000
GEN
1002
}
1001
GENIUS_GENOLIS_13
1002
{
1000
ENT
1005
0
1005
0
1005
0
1005
15C4
1002
}
1001
GENIUS_GENOENT_13
1002
{
1000
MYREF
1005
15C7
1002
}
1002
{
1000
GRP
1005
0
1002
}
1001
GENIUS_GENODEF_13
1002
{
1000
HIER
1070
    10
1002
}
1002
{
1000
MANEDIT
1070
     1
1002
}
1002
{
1000
NOSEL
1070
     0
1002
}
1002
{
1000
BEHIND
1070
     0
1002
}
1002
{
1000
OTHER
1070
     0
1002
}
1002
{
1000
REACTOR
1002
}
  0
POINT
  5
15C8
330
1F
100
AcDbEntity
  8
0
 60
     1
100
AcDbPoint
 10
-1653.394806565175
 20
-819.6231432339265
 30
0.0
1001
GENIUS_GENOBJ-N-CRS_13
1002
{
1000
OWNER
1000
GEN
1002
}
1001
GENIUS_GENOLIS_13
1002
{
1000
ENT
1005
0
1005
0
1005
0
1005
15C3
1002
}
1001
GENIUS_GENOENT_13
1002
{
1000
MYREF
1005
15C8
1002
}
1002
{
1000
GRP
1005
0
1002
}
1001
GENIUS_GENODEF_13
1002
{
1000
HIER
1070
    10
1002
}
1002
{
1000
MANEDIT
1070
     1
1002
}
1002
{
1000
NOSEL
1070
     0
1002
}
1002
{
1000
BEHIND
1070
     0
1002
}
1002
{
1000
OTHER
1070
     0
1002
}
1002
{
1000
REACTOR
1002
}
  0
CIRCLE
  5
1883
330
1F
100
AcDbEntity
  8
AM_VIS
100
AcDbCircle
 10
371.3169077902754
 20
256.6466639615862
 30
0.0
 40
1.3
  0
CIRCLE
  5
1884
330
1F
100
AcDbEntity
  8
AM_VIS
100
AcDbCircle
 10
371.3169077902754
 20
228.6466639615862
 30
0.0
 40
1.3
  0
ENDSEC
  0
SECTION
  2
OBJECTS
  0
DICTIONARY
  5
C
330
0
100
AcDbDictionary
281
     1
  3
ACAD_COLOR
350
BE
  3
ACAD_GROUP
350
D
  3
ACAD_LAYOUT
350
1A
  3
ACAD_MATERIAL
350
BD
  3
ACAD_MLINESTYLE
350
17
  3
ACAD_PLOTSETTINGS
350
19
  3
ACAD_PLOTSTYLENAME
350
E
  3
ACAD_TABLESTYLE
350
11A
  3
ACDBHEADERROUNDTRIPXREC
350
18BB
  3
AcDbVariableDictionary
350
94
  3
AcmDictionary
350
5B
  3
AMG
350
41
  3
AMGSNAPSETTINGS
350
1B8
  3
DWGPROPS
350
18BA
  0
DICTIONARY
  5
3F9
330
2
100
AcDbDictionary
280
     1
281
     1
  3
ACAD_LAYERFILTERS
360
148C
  3
ACAD_LAYERSTATES
360
C82
  3
ACLYDICTIONARY
360
148B
  0
DICTIONARY
  5
8F
330
1F
100
AcDbDictionary
280
     1
281
     1
  0
DICTIONARY
  5
BE
102
{ACAD_REACTORS
330
C
102
}
330
C
100
AcDbDictionary
281
     1
  0
DICTIONARY
  5
D
102
{ACAD_REACTORS
330
C
102
}
330
C
100
AcDbDictionary
281
     1
  0
DICTIONARY
  5
1A
102
{ACAD_REACTORS
330
C
102
}
330
C
100
AcDbDictionary
281
     1
  3
Model
350
22
  3
配置1
350
1E
  3
配置2
350
26
  0
DICTIONARY
  5
BD
102
{ACAD_REACTORS
330
C
102
}
330
C
100
AcDbDictionary
281
     1
  0
DICTIONARY
  5
17
102
{ACAD_REACTORS
330
C
102
}
330
C
100
AcDbDictionary
281
     1
  3
Standard
350
18
  0
DICTIONARY
  5
19
102
{ACAD_REACTORS
330
C
102
}
330
C
100
AcDbDictionary
281
     1
  0
ACDBDICTIONARYWDFLT
  5
E
102
{ACAD_REACTORS
330
C
102
}
330
C
100
AcDbDictionary
281
     1
  3
Normal
350
F
100
AcDbDictionaryWithDefault
340
F
  0
DICTIONARY
  5
11A
102
{ACAD_REACTORS
330
C
102
}
330
C
100
AcDbDictionary
281
     1
  3
Standard
350
11B
  0
DICTIONARY
  5
18BB
102
{ACAD_REACTORS
330
C
102
}
330
C
100
AcDbDictionary
281
     1
  0
DICTIONARY
  5
94
102
{ACAD_REACTORS
330
C
102
}
330
C
100
AcDbDictionary
281
     1
  3
CTABLESTYLE
350
138
  3
DIMASSOC
350
96
  3
INDEXCTL
350
95
  3
PROJECTNAME
350
18B8
  0
DICTIONARY
  5
5B
102
{ACAD_REACTORS
330
C
102
}
330
C
100
AcDbDictionary
281
     1
  3
AcmBOM
350
1B5
  3
AcmStdDictionary
350
61
  3
AMDTSECTSYM_ARROWCOLOR
350
123
  0
DICTIONARY
  5
41
102
{ACAD_REACTORS
330
C
102
}
330
C
100
AcDbDictionary
281
     1
  0
DICTIONARY
  5
1B8
102
{ACAD_REACTORS
330
C
102
}
330
C
100
AcDbDictionary
281
     1
  0
XRECORD
  5
18BA
102
{ACAD_REACTORS
330
C
102
}
330
C
100
AcDbXrecord
280
     1
  1
DWGPROPS COOKIE
  2

  3

  4

  6

  7

  8

  9

300
AmdtFileType=84
301
=
302
=
303
=
304
=
305
=
306
=
307
=
308
=
309
=
 40
0.0134004513888889
 41
2454392.394766887
 42
2454456.708456841
  1

 90
        1
  0
DICTIONARY
  5
148C
102
{ACAD_REACTORS
330
3F9
102
}
330
3F9
100
AcDbDictionary
281
     1
  0
DICTIONARY
  5
C82
102
{ACAD_REACTORS
330
3F9
102
}
330
3F9
100
AcDbDictionary
281
     1
  0
DICTIONARY
  5
148B
102
{ACAD_REACTORS
330
3F9
102
}
330
3F9
100
AcDbDictionary
281
     1
1001
ACAD
1000
<All
  0
LAYOUT
  5
22
102
{ACAD_XDICTIONARY
360
18BE
102
}
102
{ACAD_REACTORS
330
1A
102
}
330
1A
100
AcDbPlotSettings
  1

  2
\\RD\EPSON Stylus C63 Series單色
  4
A4
  6

 40
3.757083177566528
 41
3.757076978683471
 42
3.757080078125
 43
3.757080078125
 44
209.9733276367187
 45
296.9683227539062
 46
0.0
 47
0.0
 48
0.0
 49
0.0
140
0.0
141
0.0
142
1.0
143
0.3405120737814363
 70
 11952
 72
     1
 73
     0
 74
     0
  7
單色出圖.ctb
 75
     0
147
2.936753428137963
148
-2047.07469463503
149
-1261.649717473083
100
AcDbLayout
  1
Model
 70
     1
 71
     0
 10
0.0
 20
0.0
 11
12.0
 21
9.0
 12
0.0
 22
0.0
 32
0.0
 14
0.0
 24
0.0
 34
0.0
 15
0.0
 25
0.0
 35
0.0
146
0.0
 13
0.0
 23
0.0
 33
0.0
 16
1.0
 26
0.0
 36
0.0
 17
0.0
 27
1.0
 37
0.0
 76
     0
330
1F
1001
ACAD_PSEXT
1000
\\RD\EPSON Stylus C63 Series單色
1000
EPSON Stylus C63 Series
1000
\\RD
1000

1070
     0
  0
LAYOUT
  5
1E
102
{ACAD_XDICTIONARY
360
18BC
102
}
102
{ACAD_REACTORS
330
1A
102
}
330
1A
100
AcDbPlotSettings
  1

  2

  4

  6

 40
0.0
 41
0.0
 42
0.0
 43
0.0
 44
0.0
 45
0.0
 46
0.0
 47
0.0
 48
0.0
 49
0.0
140
0.0
141
0.0
142
1.0
143
1.0
 70
   688
 72
     0
 73
     0
 74
     5
  7
單色出圖.ctb
 75
    16
147
1.0
148
0.0
149
0.0
100
AcDbLayout
  1
配置1
 70
     1
 71
     1
 10
0.0
 20
0.0
 11
420.0
 21
297.0
 12
0.0
 22
0.0
 32
0.0
 14
1.000000000000000E+20
 24
1.000000000000000E+20
 34
1.000000000000000E+20
 15
-1.000000000000000E+20
 25
-1.000000000000000E+20
 35
-1.000000000000000E+20
146
0.0
 13
0.0
 23
0.0
 33
0.0
 16
1.0
 26
0.0
 36
0.0
 17
0.0
 27
1.0
 37
0.0
 76
     0
330
1B
  0
LAYOUT
  5
26
102
{ACAD_XDICTIONARY
360
18C0
102
}
102
{ACAD_REACTORS
330
1A
102
}
330
1A
100
AcDbPlotSettings
  1

  2

  4

  6

 40
0.0
 41
0.0
 42
0.0
 43
0.0
 44
0.0
 45
0.0
 46
0.0
 47
0.0
 48
0.0
 49
0.0
140
0.0
141
0.0
142
1.0
143
1.0
 70
   688
 72
     0
 73
     0
 74
     5
  7
單色出圖.ctb
 75
    16
147
1.0
148
0.0
149
0.0
100
AcDbLayout
  1
配置2
 70
     1
 71
     2
 10
0.0
 20
0.0
 11
12.0
 21
9.0
 12
0.0
 22
0.0
 32
0.0
 14
0.0
 24
0.0
 34
0.0
 15
0.0
 25
0.0
 35
0.0
146
0.0
 13
0.0
 23
0.0
 33
0.0
 16
1.0
 26
0.0
 36
0.0
 17
0.0
 27
1.0
 37
0.0
 76
     0
330
23
  0
MLINESTYLE
  5
18
102
{ACAD_REACTORS
330
17
102
}
330
17
100
AcDbMlineStyle
  2
STANDARD
 70
     0
  3

 62
   256
 51
90.0
 52
90.0
 71
     2
 49
0.5
 62
   256
  6
BYLAYER
 49
-0.5
 62
   256
  6
BYLAYER
  0
ACDBPLACEHOLDER
  5
F
102
{ACAD_REACTORS
330
E
102
}
330
E
  0
TABLESTYLE
  5
11B
102
{ACAD_REACTORS
330
11A
102
}
330
11A
100
AcDbTableStyle
  3
Standard
 70
     0
 71
     0
 40
1.5
 41
1.5
280
     0
281
     0
  7
STANDARD
140
4.5
170
     2
 62
     0
 63
     7
283
     0
274
    -2
284
     1
 64
     0
275
    -2
285
     1
 65
     0
276
    -2
286
     1
 66
     0
277
    -2
287
     1
 67
     0
278
    -2
288
     1
 68
     0
279
    -2
289
     1
 69
     0
  7
STANDARD
140
6.0
170
     5
 62
     0
 63
     7
283
     0
274
    -2
284
     1
 64
     0
275
    -2
285
     1
 65
     0
276
    -2
286
     1
 66
     0
277
    -2
287
     1
 67
     0
278
    -2
288
     1
 68
     0
279
    -2
289
     1
 69
     0
  7
STANDARD
140
4.5
170
     5
 62
     0
 63
     7
283
     0
274
    -2
284
     1
 64
     0
275
    -2
285
     1
 65
     0
276
    -2
286
     1
 66
     0
277
    -2
287
     1
 67
     0
278
    -2
288
     1
 68
     0
279
    -2
289
     1
 69
     0
  0
DICTIONARYVAR
  5
138
102
{ACAD_REACTORS
330
94
102
}
330
94
100
DictionaryVariables
280
     0
  1
STANDARD
  0
DICTIONARYVAR
  5
96
102
{ACAD_REACTORS
330
94
102
}
330
94
100
DictionaryVariables
280
     0
  1
2
  0
DICTIONARYVAR
  5
95
102
{ACAD_REACTORS
330
94
102
}
330
94
100
DictionaryVariables
280
     0
  1
0
  0
DICTIONARYVAR
  5
18B8
102
{ACAD_REACTORS
330
94
102
}
330
94
100
DictionaryVariables
280
     0
  1

  0
DICTIONARY
  5
1B5
102
{ACAD_REACTORS
330
5B
102
}
330
5B
100
AcDbDictionary
281
     1
  0
DICTIONARY
  5
61
102
{ACAD_REACTORS
330
5B
102
}
330
5B
100
AcDbDictionary
281
     1
  0
XRECORD
  5
123
102
{ACAD_REACTORS
330
5B
102
}
330
5B
100
AcDbXrecord
280
     1
 90
-1023410169
  0
DICTIONARY
  5
18BE
330
22
100
AcDbDictionary
280
     1
281
     1
  3
ACAD_XREC_ROUNDTRIP
360
18BF
  0
DICTIONARY
  5
18BC
330
1E
100
AcDbDictionary
280
     1
281
     1
  3
ACAD_XREC_ROUNDTRIP
360
18BD
  0
DICTIONARY
  5
18C0
330
26
100
AcDbDictionary
280
     1
281
     1
  3
ACAD_XREC_ROUNDTRIP
360
18C1
  0
XRECORD
  5
18BF
102
{ACAD_REACTORS
330
18BE
102
}
330
18BE
100
AcDbXrecord
280
     1
102
SHADEPLOT
 70
     0
102
SHADEPLOTRESLEVEL
 70
     2
102
SHADEPLOTCUSTOMDPI
 70
   300
  0
XRECORD
  5
18BD
102
{ACAD_REACTORS
330
18BC
102
}
330
18BC
100
AcDbXrecord
280
     1
102
SHADEPLOT
 70
     0
102
SHADEPLOTRESLEVEL
 70
     2
102
SHADEPLOTCUSTOMDPI
 70
   300
  0
XRECORD
  5
18C1
102
{ACAD_REACTORS
330
18C0
102
}
330
18C0
100
AcDbXrecord
280
     1
102
SHADEPLOT
 70
     0
102
SHADEPLOTRESLEVEL
 70
     2
102
SHADEPLOTCUSTOMDPI
 70
   300
  0
ENDSEC
  0
EOF
