  0
SECTION
  2
HEADER
  9
$ACADVER
  1
AC1015
  9
$ACADMAINTVER
 70
    20
  9
$DWGCODEPAGE
  3
ANSI_950
  9
$INSBASE
 10
0.0
 20
0.0
 30
0.0
  9
$EXTMIN
 10
490.3886624598544
 20
-103.1272468187717
 30
-0.0077302272472934
  9
$EXTMAX
 10
844.3646532965233
 20
351.9709269763706
 30
231.9506616380556
  9
$LIMMIN
 10
0.0
 20
0.0
  9
$LIMMAX
 10
420.0
 20
297.0
  9
$ORTHOMODE
 70
     1
  9
$REGENMODE
 70
     1
  9
$FILLMODE
 70
     1
  9
$QTEXTMODE
 70
     0
  9
$MIRRTEXT
 70
     1
  9
$LTSCALE
 40
6.0
  9
$ATTMODE
 70
     1
  9
$TEXTSIZE
 40
5.0
  9
$TRACEWID
 40
1.0
  9
$TEXTSTYLE
  7
DAYUS
  9
$CLAYER
  8
0
  9
$CELTYPE
  6
ByLayer
  9
$CECOLOR
 62
   256
  9
$CELTSCALE
 40
1.0
  9
$DISPSILH
 70
     0
  9
$DIMSCALE
 40
1.0
  9
$DIMASZ
 40
3.0
  9
$DIMEXO
 40
2.0
  9
$DIMDLI
 40
2.0
  9
$DIMRND
 40
0.0
  9
$DIMDLE
 40
0.0
  9
$DIMEXE
 40
2.0
  9
$DIMTP
 40
0.0
  9
$DIMTM
 40
0.0
  9
$DIMTXT
 40
3.0
  9
$DIMCEN
 40
3.0
  9
$DIMTSZ
 40
0.0
  9
$DIMTOL
 70
     0
  9
$DIMLIM
 70
     0
  9
$DIMTIH
 70
     0
  9
$DIMTOH
 70
     0
  9
$DIMSE1
 70
     0
  9
$DIMSE2
 70
     0
  9
$DIMTAD
 70
     1
  9
$DIMZIN
 70
     8
  9
$DIMBLK
  1

  9
$DIMASO
 70
     1
  9
$DIMSHO
 70
     1
  9
$DIMPOST
  1

  9
$DIMAPOST
  1

  9
$DIMALT
 70
     0
  9
$DIMALTD
 70
     4
  9
$DIMALTF
 40
0.0394
  9
$DIMLFAC
 40
1.0
  9
$DIMTOFL
 70
     0
  9
$DIMTVP
 40
0.0
  9
$DIMTIX
 70
     0
  9
$DIMSOXD
 70
     0
  9
$DIMSAH
 70
     0
  9
$DIMBLK1
  1

  9
$DIMBLK2
  1

  9
$DIMSTYLE
  2
STANDARD
  9
$DIMCLRD
 70
     0
  9
$DIMCLRE
 70
     0
  9
$DIMCLRT
 70
     0
  9
$DIMTFAC
 40
1.0
  9
$DIMGAP
 40
1.0
  9
$DIMJUST
 70
     0
  9
$DIMSD1
 70
     0
  9
$DIMSD2
 70
     0
  9
$DIMTOLJ
 70
     1
  9
$DIMTZIN
 70
     8
  9
$DIMALTZ
 70
     8
  9
$DIMALTTZ
 70
     8
  9
$DIMUPT
 70
     0
  9
$DIMDEC
 70
     4
  9
$DIMTDEC
 70
     8
  9
$DIMALTU
 70
     2
  9
$DIMALTTD
 70
     4
  9
$DIMTXSTY
  7
chineset
  9
$DIMAUNIT
 70
     0
  9
$DIMADEC
 70
     0
  9
$DIMALTRND
 40
0.0
  9
$DIMAZIN
 70
     0
  9
$DIMDSEP
 70
    46
  9
$DIMATFIT
 70
     3
  9
$DIMFRAC
 70
     0
  9
$DIMLDRBLK
  1

  9
$DIMLUNIT
 70
     2
  9
$DIMLWD
 70
    -2
  9
$DIMLWE
 70
    -2
  9
$DIMTMOVE
 70
     2
  9
$LUNITS
 70
     2
  9
$LUPREC
 70
     4
  9
$SKETCHINC
 40
1.0
  9
$FILLETRAD
 40
0.0
  9
$AUNITS
 70
     0
  9
$AUPREC
 70
     0
  9
$MENU
  1
.
  9
$ELEVATION
 40
0.0
  9
$PELEVATION
 40
0.0
  9
$THICKNESS
 40
0.0
  9
$LIMCHECK
 70
     0
  9
$CHAMFERA
 40
10.0
  9
$CHAMFERB
 40
10.0
  9
$CHAMFERC
 40
0.0
  9
$CHAMFERD
 40
0.0
  9
$SKPOLY
 70
     0
  9
$TDCREATE
 40
2451079.484109074
  9
$TDUCREATE
 40
2451079.150775741
  9
$TDUPDATE
 40
2455057.483407084
  9
$TDUUPDATE
 40
2455057.150073750
  9
$TDINDWG
 40
0.3197075463
  9
$TDUSRTIMER
 40
0.3197075463
  9
$USRTIMER
 70
     1
  9
$ANGBASE
 50
0.0
  9
$ANGDIR
 70
     0
  9
$PDMODE
 70
     0
  9
$PDSIZE
 40
0.0
  9
$PLINEWID
 40
0.0
  9
$SPLFRAME
 70
     0
  9
$SPLINETYPE
 70
     6
  9
$SPLINESEGS
 70
     8
  9
$HANDSEED
  5
D01
  9
$SURFTAB1
 70
     6
  9
$SURFTAB2
 70
     6
  9
$SURFTYPE
 70
     6
  9
$SURFU
 70
     6
  9
$SURFV
 70
     6
  9
$UCSBASE
  2

  9
$UCSNAME
  2

  9
$UCSORG
 10
0.0
 20
0.0
 30
0.0
  9
$UCSXDIR
 10
1.0
 20
0.0
 30
0.0
  9
$UCSYDIR
 10
0.0
 20
1.0
 30
0.0
  9
$UCSORTHOREF
  2

  9
$UCSORTHOVIEW
 70
     0
  9
$UCSORGTOP
 10
0.0
 20
0.0
 30
0.0
  9
$UCSORGBOTTOM
 10
0.0
 20
0.0
 30
0.0
  9
$UCSORGLEFT
 10
0.0
 20
0.0
 30
0.0
  9
$UCSORGRIGHT
 10
0.0
 20
0.0
 30
0.0
  9
$UCSORGFRONT
 10
0.0
 20
0.0
 30
0.0
  9
$UCSORGBACK
 10
0.0
 20
0.0
 30
0.0
  9
$PUCSBASE
  2

  9
$PUCSNAME
  2

  9
$PUCSORG
 10
0.0
 20
0.0
 30
0.0
  9
$PUCSXDIR
 10
1.0
 20
0.0
 30
0.0
  9
$PUCSYDIR
 10
0.0
 20
1.0
 30
0.0
  9
$PUCSORTHOREF
  2

  9
$PUCSORTHOVIEW
 70
     0
  9
$PUCSORGTOP
 10
0.0
 20
0.0
 30
0.0
  9
$PUCSORGBOTTOM
 10
0.0
 20
0.0
 30
0.0
  9
$PUCSORGLEFT
 10
0.0
 20
0.0
 30
0.0
  9
$PUCSORGRIGHT
 10
0.0
 20
0.0
 30
0.0
  9
$PUCSORGFRONT
 10
0.0
 20
0.0
 30
0.0
  9
$PUCSORGBACK
 10
0.0
 20
0.0
 30
0.0
  9
$USERI1
 70
     0
  9
$USERI2
 70
     0
  9
$USERI3
 70
     0
  9
$USERI4
 70
     0
  9
$USERI5
 70
     0
  9
$USERR1
 40
0.0
  9
$USERR2
 40
0.0
  9
$USERR3
 40
0.0
  9
$USERR4
 40
0.0
  9
$USERR5
 40
0.0
  9
$WORLDVIEW
 70
     1
  9
$SHADEDGE
 70
     3
  9
$SHADEDIF
 70
    70
  9
$TILEMODE
 70
     1
  9
$MAXACTVP
 70
    48
  9
$PINSBASE
 10
0.0
 20
0.0
 30
0.0
  9
$PLIMCHECK
 70
     0
  9
$PEXTMIN
 10
20.24048710217187
 20
-80.66671062027911
 30
-0.0015258207003583
  9
$PEXTMAX
 10
533.0159905469545
 20
291.8393914977141
 30
0.0000000349246037
  9
$PLIMMIN
 10
0.0
 20
0.0
  9
$PLIMMAX
 10
420.0
 20
297.0
  9
$UNITMODE
 70
     0
  9
$VISRETAIN
 70
     1
  9
$PLINEGEN
 70
     0
  9
$PSLTSCALE
 70
     1
  9
$TREEDEPTH
 70
  3020
  9
$CMLSTYLE
  2
Standard
  9
$CMLJUST
 70
     0
  9
$CMLSCALE
 40
1.0
  9
$PROXYGRAPHICS
 70
     1
  9
$MEASUREMENT
 70
     0
  9
$CELWEIGHT
370
    -1
  9
$ENDCAPS
280
     0
  9
$JOINSTYLE
280
     0
  9
$LWDISPLAY
290
     0
  9
$INSUNITS
 70
     0
  9
$HYPERLINKBASE
  1

  9
$STYLESHEET
  1
彩色出圖.ctb
  9
$XEDIT
290
     1
  9
$CEPSNTYPE
380
     0
  9
$PSTYLEMODE
290
     1
  9
$FINGERPRINTGUID
  2
{13F75959-D2FD-11D4-9D5D-0050BAE3FAE1}
  9
$VERSIONGUID
  2
{E8FF6A58-AEF3-4382-AC3E-EA760D593214}
  9
$EXTNAMES
290
     1
  9
$PSVPSCALE
 40
0.0
  9
$OLESTARTUP
290
     0
  0
ENDSEC
  0
SECTION
  2
CLASSES
  0
CLASS
  1
ACDBDICTIONARYWDFLT
  2
AcDbDictionaryWithDefault
  3
ObjectDBX Classes
 90
        0
280
     0
281
     0
  0
CLASS
  1
ACDBPLACEHOLDER
  2
AcDbPlaceHolder
  3
ObjectDBX Classes
 90
        0
280
     0
281
     0
  0
CLASS
  1
LAYOUT
  2
AcDbLayout
  3
ObjectDBX Classes
 90
        0
280
     0
281
     0
  0
CLASS
  1
DICTIONARYVAR
  2
AcDbDictionaryVar
  3
ObjectDBX Classes
 90
        0
280
     0
281
     0
  0
CLASS
  1
ACME_DOCUMENT
  2
AcMeDbDoc
  3
AcMeServices
 90
        0
280
     0
281
     0
  0
CLASS
  1
AMGSETTINGSOBJ
  2
AmgSettingsObj
  3
"AcadM|Product Description: AutoCAD Mechanical 2000|Company: Autodesk"
 90
        0
280
     0
281
     0
  0
CLASS
  1
ACMESCOPE
  2
AcMeScope
  3
AcMeServices
 90
        0
280
     0
281
     0
  0
CLASS
  1
ACMECOMMANDHISTORY
  2
AcMeCommandHistory
  3
AcMeServices
 90
        0
280
     0
281
     0
  0
CLASS
  1
ACIMSYSVARMAN
  2
AcImSysVarManager
  3
AcMeServices
 90
        0
280
     0
281
     0
  0
CLASS
  1
ACIMREALSYSVAR
  2
AcImRealSysVar
  3
AcMeServices
 90
        0
280
     0
281
     0
  0
CLASS
  1
ACIMINTSYSVAR
  2
AcImIntSysVar
  3
AcMeServices
 90
        0
280
     0
281
     0
  0
CLASS
  1
ACMEDRAWINGMAN
  2
AcMeDrawingMan
  3
AcMeServices
 90
        0
280
     0
281
     0
  0
CLASS
  1
ACMEVIEW
  2
AcMeView
  3
AcMeServices
 90
        0
280
     0
281
     0
  0
CLASS
  1
ACDBENTITYCACHE
  2
AcMeEntityCache
  3
AcMeServices
 90
        0
280
     0
281
     0
  0
CLASS
  1
GSMANAGER
  2
AcMeGSManager
  3
AcMeServices
 90
        0
280
     0
281
     0
  0
CLASS
  1
AMDTINTERNALREACTOR
  2
AmdtInternalReactor
  3
AcMeServices
 90
        0
280
     0
281
     0
  0
CLASS
  1
ACMESTATEMGR
  2
AcMeStateMgr
  3
AcMeServices
 90
        0
280
     0
281
     0
  0
CLASS
  1
ACGREFMASTER
  2
AcGrefMaster
  3
AcAttribServices
 90
        0
280
     0
281
     0
  0
CLASS
  1
ACME_DATABASE
  2
AcMeDbDatabase
  3
AcMeServices
 90
        0
280
     0
281
     0
  0
CLASS
  1
ACRFINSADJUSTERMGR
  2
AcRfInsAdjusterMgr
  3
AcMeServices
 90
        0
280
     0
281
     0
  0
CLASS
  1
ACGREFACADMASTER
  2
AcGrefacadMaster
  3
AcGrefServices
 90
        0
280
     0
281
     0
  0
CLASS
  1
AMIMASTER
  2
AmiMaster
  3
AmiServices
 90
        0
280
     0
281
     0
  0
CLASS
  1
ACMDATADICTIONARY
  2
AcmDataDictionary
  3
"AcmSymBB|Product Description: AutoCAD Mechanical 2004 DX|Company: Autodesk"
 90
        0
280
     0
281
     0
  0
CLASS
  1
ACMDATAENTRYBLOCK
  2
AcmDataEntryBlock
  3
"AcmSymBB|Product Description: AutoCAD Mechanical 2004 DX|Company: Autodesk"
 90
    32768
280
     0
281
     0
  0
CLASS
  1
ACIMSTRSYSVAR
  2
AcImStrSysVar
  3
AcMeServices
 90
        0
280
     0
281
     0
  0
CLASS
  1
ACMSTANDARDANSI
  2
AcmStandardANSI
  3
"Amdt_StdImp|Product Description: AutoCAD Mechanical 2004 DX|Company: Autodesk"
 90
        0
280
     0
281
     0
  0
CLASS
  1
AMGOBJPROPCFG
  2
AmgObjPropCfg
  3
"AmgLay|Product Description: AutoCAD Mechanical 2000|Company: Autodesk"
 90
        1
280
     0
281
     0
  0
CLASS
  1
ACMSURFSTANDARDANSI
  2
AcmSurfTextStdANSI
  3
"Amdt_StdImp|Product Description: AutoCAD Mechanical 2004 DX|Company: Autodesk"
 90
        0
280
     0
281
     0
  0
CLASS
  1
ACMFCFSTANDARDANSI
  2
AcmFCFStdANSI
  3
"Amdt_StdImp|Product Description: AutoCAD Mechanical 2004 DX|Company: Autodesk"
 90
        0
280
     0
281
     0
  0
CLASS
  1
ACMWELDSTANDARDANSI
  2
AcmWeldingStdANSI
  3
"Amdt_StdImp|Product Description: AutoCAD Mechanical 2004 DX|Company: Autodesk"
 90
        0
280
     0
281
     0
  0
CLASS
  1
ACMIDSTANDARDANSI
  2
AcmIdStdANSI
  3
"Amdt_StdImp|Product Description: AutoCAD Mechanical 2004 DX|Company: Autodesk"
 90
        0
280
     0
281
     0
  0
CLASS
  1
ACMDATUMSTANDARDANSI
  2
AcmDatumStdANSI
  3
"Amdt_StdImp|Product Description: AutoCAD Mechanical 2004 DX|Company: Autodesk"
 90
        0
280
     0
281
     0
  0
CLASS
  1
ACMBOMSTANDARDANSI
  2
AcmBOMStdANSI
  3
"Amdt_StdImp|Product Description: AutoCAD Mechanical 2004 DX|Company: Autodesk"
 90
        0
280
     0
281
     0
  0
CLASS
  1
ACMDETAILSTANDARDANSI
  2
AmdtDetailSymStdANSI
  3
"Amdt_StdImp|Product Description: AutoCAD Mechanical 2004 DX|Company: Autodesk"
 90
        0
280
     0
281
     0
  0
CLASS
  1
ACMSECTIONSTANDARDANSI
  2
AmdtSectionSymStdANSI
  3
"Amdt_StdImp|Product Description: AutoCAD Mechanical 2004 DX|Company: Autodesk"
 90
        0
280
     0
281
     0
  0
CLASS
  1
ACMCENTERLINESTANDARDANSI
  2
AmdtCenterLineStdANSI
  3
"Amdt_StdImp|Product Description: AutoCAD Mechanical 2004 DX|Company: Autodesk"
 90
        0
280
     0
281
     0
  0
CLASS
  1
ACMNOTESTANDARDANSI
  2
AmdtNoteStdANSI
  3
"Amdt_StdImp|Product Description: AutoCAD Mechanical 2004 DX|Company: Autodesk"
 90
        0
280
     0
281
     0
  0
CLASS
  1
ACAMGLAYSTD
  2
AcAmgLayStd
  3
"AcAmgLayStd|Product Description: AutoCAD Mechanical 2000|Company: Autodesk"
 90
        0
280
     0
281
     0
  0
CLASS
  1
ACAMGDIMSTD
  2
AcAmgDimStd
  3
"AcAmgDimStd|Product Description: AutoCAD Mechanical 2000|Company: Autodesk"
 90
        0
280
     0
281
     0
  0
CLASS
  1
ACAMGHOLECHARTSTDANSI
  2
AcAmgHoleChartStdANSI
  3
ACMSYMBB_MODULE_NAME
 90
        0
280
     0
281
     0
  0
CLASS
  1
ACAMGTITLESTD
  2
AcAmgTitleStd
  3
"TITLEAPP"
 90
        0
280
     0
281
     0
  0
CLASS
  1
ACAMGFILTERDAT
  2
AcAmgFilterDat
  3
"AcadM|Product Description: AutoCAD Mechanical 2000|Company: Autodesk"
 90
    32768
280
     0
281
     0
  0
CLASS
  1
STDPART2D
  2
AmgStdPart
  3
"AmgStdPart|Product Description: AutoCAD Mechanical 2000|Company: Autodesk"
 90
    33791
280
     0
281
     1
  0
CLASS
  1
LAYER_INDEX
  2
AcDbLayerIndex
  3
ObjectDBX Classes
 90
        0
280
     0
281
     0
  0
CLASS
  1
IDBUFFER
  2
AcDbIdBuffer
  3
ObjectDBX Classes
 90
        0
280
     0
281
     0
  0
CLASS
  1
TABLESTYLE
  2
AcDbTableStyle
  3
ObjectDBX Classes
 90
     2047
280
     0
281
     0
  0
CLASS
  1
AM_DRAWING_MGR
  2
AcDmDwgMgr
  3
AcMechDwgViewMgmt
 90
        0
280
     0
281
     0
  0
CLASS
  1
AM_DWG_DOCUMENT
  2
AcDmDwgDocument
  3
AcMechDwgViewMgmt
 90
        0
280
     0
281
     0
  0
CLASS
  1
AM_DWG_SHEET
  2
AcDmSheet
  3
AcMechDwgViewMgmt
 90
        0
280
     0
281
     0
  0
CLASS
  1
AM_VIEWDIMPARMAP
  2
AcDmViewDimParMap
  3
AcMechDwgViewMgmt
 90
        0
280
     0
281
     0
  0
CLASS
  1
AM_DWGMGR_NAME
  2
AcDmDwgMgrName
  3
AcMechDwgViewMgmt
 90
        0
280
     0
281
     0
  0
CLASS
  1
AMDTMENUSTATEMGR
  2
AmdtMenuStateMgr
  3
McadcomServices
 90
        0
280
     0
281
     0
  0
CLASS
  1
AMDTMCOMMENUSTATE
  2
AmdtMcomMenuState
  3
McadcomServices
 90
        0
280
     0
281
     0
  0
CLASS
  1
MAPIAMMOUDLE
  2
MApiAmModule
  3
MApiAmServices
 90
        0
280
     0
281
     0
  0
CLASS
  1
AMDTADMENUSTATE
  2
AmdtAdMenuState
  3
DesignerServices
 90
        0
280
     0
281
     0
  0
CLASS
  1
ADAPPL
  2
AcAdAppl
  3
DesignerServices
 90
        0
280
     0
281
     0
  0
CLASS
  1
DEPMGR
  2
AcAdDepMgr
  3
DesignerServices
 90
        0
280
     0
281
     0
  0
CLASS
  1
PARAMMGR
  2
AcAdParamMgr
  3
DesignerServices
 90
        0
280
     0
281
     0
  0
CLASS
  1
PARAMSCOPE
  2
AcAdParamScope
  3
DesignerServices
 90
        0
280
     0
281
     0
  0
CLASS
  1
NAMEDAPPL
  2
AcAdNamedAppl
  3
DesignerServices
 90
        0
280
     0
281
     0
  0
CLASS
  1
AMDTDMMENUSTATE
  2
AmdtDmMenuState
  3
AcMechDwgViewMgmt
 90
        0
280
     0
281
     0
  0
CLASS
  1
AMDTAMMENUSTATE
  2
AmdtAmMenuState
  3
DesignerAssemblies
 90
        0
280
     0
281
     0
  0
CLASS
  1
ACAMPROJECT
  2
AcAmProject
  3
DesignerAssemblies
 90
        0
280
     0
281
     0
  0
CLASS
  1
ACAMGRCOMPDEF
  2
AcAmGrCompDef
  3
DesignerAssemblies
 90
        0
280
     0
281
     0
  0
CLASS
  1
ACCMCONTEXT
  2
AcCmContext
  3
DesignerAssemblies
 90
        0
280
     0
281
     0
  0
CLASS
  1
ACAMCOMPDEF
  2
AcAmCompDef
  3
DesignerAssemblies
 90
        0
280
     0
281
     0
  0
CLASS
  1
ACAMCOMPDEFMGR
  2
AcAmCompDefMgr
  3
DesignerAssemblies
 90
        0
280
     0
281
     0
  0
CLASS
  1
AMCONTEXTMGR
  2
AcAmContextMgr
  3
DesignerAssemblies
 90
        0
280
     0
281
     0
  0
CLASS
  1
ACAMCONTEXTMODELER
  2
AcAmContextModeler
  3
DesignerAssemblies
 90
        0
280
     0
281
     0
  0
CLASS
  1
CATALOGSTATE
  2
AcAmCatalogState
  3
DesignerAssemblies
 90
        0
280
     0
281
     0
  0
CLASS
  1
ACAMGRCOMPDEFSET
  2
AcAmGrCompDefSet
  3
DesignerAssemblies
 90
        0
280
     0
281
     0
  0
CLASS
  1
AMDTBROWSERDBTAB
  2
AmdtBrowserDbTab
  3
McadcomServices
 90
        0
280
     0
281
     0
  0
CLASS
  1
CBROWSERAPPOBJECT
  2
CBrowserAppObject
  3
McadcomServices
 90
        0
280
     0
281
     0
  0
CLASS
  1
DM_PLACEHOLDER
  2
AcDmSelsetPlaceholder
  3
AcMechDwgViewMgmt
 90
        0
280
     0
281
     0
  0
CLASS
  1
ACMTHREADLINESTANDARDANSI
  2
AmdtThreadLineStdANSI
  3
"Amdt_StdImp|Product Description: AutoCAD Mechanical 2004 DX|Company: Autodesk"
 90
        0
280
     0
281
     0
  0
CLASS
  1
AMDTNOTETEMPLATEDB
  2
AmdtNoteTemplateDB
  3
AMDT_STDIMP_MODULE_NAME
 90
        0
280
     0
281
     0
  0
CLASS
  1
SORTENTSTABLE
  2
AcDbSortentsTable
  3
ObjectDBX Classes
 90
        0
280
     0
281
     0
  0
CLASS
  1
ACMSTANDARDISO
  2
AcmStandardISO
  3
"Amdt_StdImp|Product Description: AutoCAD Mechanical 2004 DX|Company: Autodesk"
 90
        0
280
     0
281
     0
  0
CLASS
  1
AMDTEDGESTANDARDISO13715
  2
AmdtEdgeStdISO13715
  3
"Amdt_StdImp|Product Description: AutoCAD Mechanical 2004 DX|Company: Autodesk"
 90
        0
280
     0
281
     0
  0
CLASS
  1
ACMSURFSTANDARDISO
  2
AcmSurfTextStdISO
  3
"Amdt_StdImp|Product Description: AutoCAD Mechanical 2004 DX|Company: Autodesk"
 90
        0
280
     0
281
     0
  0
CLASS
  1
ACMFCFSTANDARDISO
  2
AcmFCFStdISO
  3
"Amdt_StdImp|Product Description: AutoCAD Mechanical 2004 DX|Company: Autodesk"
 90
        0
280
     0
281
     0
  0
CLASS
  1
ACMWELDSTANDARDISO
  2
AcmWeldingStdISO
  3
"Amdt_StdImp|Product Description: AutoCAD Mechanical 2004 DX|Company: Autodesk"
 90
        0
280
     0
281
     0
  0
CLASS
  1
ACMIDSTANDARDISO
  2
AcmIdStdISO
  3
"Amdt_StdImp|Product Description: AutoCAD Mechanical 2004 DX|Company: Autodesk"
 90
        0
280
     0
281
     0
  0
CLASS
  1
ACMDATUMSTANDARDISO
  2
AcmDatumStdISO
  3
"Amdt_StdImp|Product Description: AutoCAD Mechanical 2004 DX|Company: Autodesk"
 90
        0
280
     0
281
     0
  0
CLASS
  1
ACMBOMSTANDARDISO
  2
AcmBOMStdISO
  3
"Amdt_StdImp|Product Description: AutoCAD Mechanical 2004 DX|Company: Autodesk"
 90
        0
280
     0
281
     0
  0
CLASS
  1
ACMDETAILSTANDARDISO
  2
AmdtDetailSymStdISO
  3
"Amdt_StdImp|Product Description: AutoCAD Mechanical 2004 DX|Company: Autodesk"
 90
        0
280
     0
281
     0
  0
CLASS
  1
ACMSECTIONSTANDARDISO
  2
AmdtSectionSymStdISO
  3
"Amdt_StdImp|Product Description: AutoCAD Mechanical 2004 DX|Company: Autodesk"
 90
        0
280
     0
281
     0
  0
CLASS
  1
ACMCENTERLINESTANDARDISO
  2
AmdtCenterLineStdISO
  3
"Amdt_StdImp|Product Description: AutoCAD Mechanical 2004 DX|Company: Autodesk"
 90
        0
280
     0
281
     0
  0
CLASS
  1
ACMTHREADLINESTANDARDISO
  2
AmdtThreadLineStdISO
  3
"Amdt_StdImp|Product Description: AutoCAD Mechanical 2004 DX|Company: Autodesk"
 90
        0
280
     0
281
     0
  0
CLASS
  1
ACMNOTESTANDARDISO
  2
AmdtNoteStdISO
  3
"Amdt_StdImp|Product Description: AutoCAD Mechanical 2004 DX|Company: Autodesk"
 90
        0
280
     0
281
     0
  0
CLASS
  1
ACAMGHOLECHARTSTDISO
  2
AcAmgHoleChartStdISO
  3
ACMSYMBB_MODULE_NAME
 90
        0
280
     0
281
     0
  0
CLASS
  1
ACRFATTGENMGR
  2
AcRfAttGeneralMgr
  3
AcAttribServices
 90
        0
280
     0
281
     0
  0
ENDSEC
  0
SECTION
  2
TABLES
  0
TABLE
  2
VPORT
  5
32C
330
0
100
AcDbSymbolTable
 70
    97
  0
VPORT
  5
CFA
330
32C
100
AcDbSymbolTableRecord
100
AcDbViewportTableRecord
  2
*Active
 70
     0
 10
0.0
 20
0.0
 11
1.0
 21
1.0
 12
480.6805733253781
 22
-72.19321770991434
 13
0.0
 23
0.0
 14
10.0
 24
10.0
 15
10.0
 25
10.0
 16
0.0
 26
0.0
 36
1.0
 17
186.6960845528107
 27
196.6150577887138
 37
12.68991729378122
 40
458.6816239825055
 41
1.244415243101182
 42
50.0
 43
0.0
 44
0.0
 50
0.0
 51
0.0
 71
     0
 72
   100
 73
     1
 74
     1
 75
     0
 76
     0
 77
     0
 78
     0
281
     0
 65
     1
110
0.0
120
0.0
130
0.0
111
1.0
121
0.0
131
0.0
112
0.0
122
1.0
132
0.0
 79
     0
146
0.0
  0
ENDTAB
  0
TABLE
  2
LTYPE
  5
329
330
0
100
AcDbSymbolTable
 70
    19
  0
LTYPE
  5
337
330
329
100
AcDbSymbolTableRecord
100
AcDbLinetypeTableRecord
  2
ByBlock
 70
     0
  3

 72
    65
 73
     0
 40
0.0
  0
LTYPE
  5
338
330
329
100
AcDbSymbolTableRecord
100
AcDbLinetypeTableRecord
  2
ByLayer
 70
     0
  3

 72
    65
 73
     0
 40
0.0
  0
LTYPE
  5
339
330
329
100
AcDbSymbolTableRecord
100
AcDbLinetypeTableRecord
  2
CONTINUOUS
 70
     0
  3
Solid line
 72
    65
 73
     0
 40
0.0
  0
LTYPE
  5
359
330
329
100
AcDbSymbolTableRecord
100
AcDbLinetypeTableRecord
  2
CENTER
 70
     0
  3
____ _ ____ _ ____ _ ____ _ ____ _ ____ _ ____ 
 72
    65
 73
     4
 40
2.0
 49
1.25
 74
     0
 49
-0.25
 74
     0
 49
0.25
 74
     0
 49
-0.25
 74
     0
  0
LTYPE
  5
75D
330
329
100
AcDbSymbolTableRecord
100
AcDbLinetypeTableRecord
  2
Amconstr
 70
     0
  3
_______________________
 72
    65
 73
     2
 40
9999.0
 49
9999.0
 74
     0
 49
0.0
 74
     0
  0
LTYPE
  5
763
330
329
100
AcDbSymbolTableRecord
100
AcDbLinetypeTableRecord
  2
HIDDEN
 70
     0
  3
Hidden __ __ __ __ __ __ __ __ __ __ __ __ __ _
 72
    65
 73
     2
 40
0.375
 49
0.25
 74
     0
 49
-0.125
 74
     0
  0
LTYPE
  5
764
330
329
100
AcDbSymbolTableRecord
100
AcDbLinetypeTableRecord
  2
PHANTOM2
 70
     0
  3
Phantom (.5x) ___ _ _ ___ _ _ ___ _ _ ___ _ _
 72
    65
 73
     6
 40
1.25
 49
0.625
 74
     0
 49
-0.125
 74
     0
 49
0.125
 74
     0
 49
-0.125
 74
     0
 49
0.125
 74
     0
 49
-0.125
 74
     0
  0
LTYPE
  5
765
330
329
100
AcDbSymbolTableRecord
100
AcDbLinetypeTableRecord
  2
CENTER2
 70
     0
  3
Center (.5x) ___ _ ___ _ ___ _ ___ _ ___ _ ___
 72
    65
 73
     4
 40
1.125
 49
0.75
 74
     0
 49
-0.125
 74
     0
 49
0.125
 74
     0
 49
-0.125
 74
     0
  0
LTYPE
  5
766
330
329
100
AcDbSymbolTableRecord
100
AcDbLinetypeTableRecord
  2
HIDDEN2
 70
     0
  3
Hidden (.5x) _ _ _ _ _ _ _ _ _ _ _ _ _ _ _ _ _
 72
    65
 73
     2
 40
0.1875
 49
0.125
 74
     0
 49
-0.0625
 74
     0
  0
LTYPE
  5
767
330
329
100
AcDbSymbolTableRecord
100
AcDbLinetypeTableRecord
  2
Amzigzag2
 70
     0
  3
/\/-/\/-/\/-/\/-/\/-/\/
 72
    65
 73
     2
 40
0.4401
 49
0.0001
 74
     4
 75
   135
340
761
 46
0.0016
 50
0.0
 44
0.0
 45
0.0
 49
-0.4400000000000001
 74
     0
  0
LTYPE
  5
774
330
329
100
AcDbSymbolTableRecord
100
AcDbLinetypeTableRecord
  2
ACANSTGB
 70
     0
  3
__ . . __ . .
 72
    65
 73
     6
 40
0.35433070866
 49
0.15748031496
 74
     0
 49
-0.03937007874
 74
     0
 49
0.03937007874
 74
     0
 49
-0.03937007874
 74
     0
 49
0.03937007874
 74
     0
 49
-0.03937007874
 74
     0
  0
LTYPE
  5
775
330
329
100
AcDbSymbolTableRecord
100
AcDbLinetypeTableRecord
  2
ACANSTGL
 70
     0
  3
_ _ _ _ _
 72
    65
 73
     2
 40
0.11811023622
 49
0.07874015748
 74
     0
 49
-0.03937007874
 74
     0
  0
LTYPE
  5
8F4
330
329
100
AcDbSymbolTableRecord
100
AcDbLinetypeTableRecord
  2
AM_ISO08W050x2
 70
     0
  3
__ . __ . __ . __ . __ . __
 72
    65
 73
     4
 40
9.0
 49
6.0
 74
     0
 49
-0.75
 74
     0
 49
1.5
 74
     0
 49
-0.75
 74
     0
  0
LTYPE
  5
A4F
330
329
100
AcDbSymbolTableRecord
100
AcDbLinetypeTableRecord
  2
ACISOWELD
 70
     0
  3
_ _ _ _ _
 72
    65
 73
     2
 40
2.0
 49
2.0
 74
     0
 49
-1.0
 74
     0
  0
LTYPE
  5
A50
330
329
100
AcDbSymbolTableRecord
100
AcDbLinetypeTableRecord
  2
ACISOTGB
 70
     0
  3
__ . . __ . .
 72
    65
 73
     6
 40
9.0
 49
4.0
 74
     0
 49
-1.0
 74
     0
 49
1.0
 74
     0
 49
-1.0
 74
     0
 49
1.0
 74
     0
 49
-1.0
 74
     0
  0
LTYPE
  5
A51
330
329
100
AcDbSymbolTableRecord
100
AcDbLinetypeTableRecord
  2
ACISOTGL
 70
     0
  3
_ _ _ _ _
 72
    65
 73
     2
 40
3.0
 49
2.0
 74
     0
 49
-1.0
 74
     0
  0
ENDTAB
  0
TABLE
  2
LAYER
  5
326
102
{ACAD_XDICTIONARY
360
A5F
102
}
330
0
100
AcDbSymbolTable
 70
     5
  0
LAYER
  5
334
330
326
100
AcDbSymbolTableRecord
100
AcDbLayerTableRecord
  2
0
 70
     0
 62
     7
  6
CONTINUOUS
370
    -3
390
333
  0
LAYER
  5
35D
330
326
100
AcDbSymbolTableRecord
100
AcDbLayerTableRecord
  2
DIM
 70
     0
 62
     5
  6
CONTINUOUS
370
    -3
390
333
  0
LAYER
  5
35F
330
326
100
AcDbSymbolTableRecord
100
AcDbLayerTableRecord
  2
DEFPOINTS
 70
     0
 62
     7
  6
CONTINUOUS
290
     0
370
    -3
390
333
  0
LAYER
  5
385
330
326
100
AcDbSymbolTableRecord
100
AcDbLayerTableRecord
  2
LOGO
 70
     0
 62
     7
  6
CONTINUOUS
370
    -3
390
333
  0
ENDTAB
  0
TABLE
  2
STYLE
  5
327
330
0
100
AcDbSymbolTable
 70
     9
  0
STYLE
  5
335
330
327
100
AcDbSymbolTableRecord
100
AcDbTextStyleTableRecord
  2
STANDARD
 70
     0
 40
0.0
 41
1.0
 50
0.0
 71
     0
 42
2.5
  3
txt
  4

  0
STYLE
  5
358
330
327
100
AcDbSymbolTableRecord
100
AcDbTextStyleTableRecord
  2
DAYUS
 70
     0
 40
0.0
 41
1.0
 50
0.0
 71
     0
 42
5.0
  3
txt.shx
  4
dayus.shx
  0
STYLE
  5
386
330
327
100
AcDbSymbolTableRecord
100
AcDbTextStyleTableRecord
  2
chineset
 70
     0
 40
0.0
 41
1.0
 50
0.0
 71
     0
 42
5.0
  3
simplex.shx
  4
chineset.shx
  0
STYLE
  5
761
330
327
100
AcDbSymbolTableRecord
100
AcDbTextStyleTableRecord
  2

 70
     1
 40
0.0
 41
1.0
 50
0.0
 71
     0
 42
5.0
  3
ltypeshp.shx
  4

  0
STYLE
  5
768
330
327
100
AcDbSymbolTableRecord
100
AcDbTextStyleTableRecord
  2
ACANSTS
 70
     0
 40
1.0
 41
1.0
 50
0.0
 71
     0
 42
5.0
  3
romans.shx
  4
chineset.shx
  0
STYLE
  5
773
330
327
100
AcDbSymbolTableRecord
100
AcDbTextStyleTableRecord
  2
ACANSGDT
 70
     0
 40
0.0
 41
1.0
 50
0.0
 71
     0
 42
5.0
  3
amgdtans.shx
  4

  0
STYLE
  5
A52
330
327
100
AcDbSymbolTableRecord
100
AcDbTextStyleTableRecord
  2
ACISOTS
 70
     0
 40
1.0
 41
1.0
 50
0.0
 71
     0
 42
1.0
  3
isocp.shx
  4
chineset.shx
  0
STYLE
  5
A53
330
327
100
AcDbSymbolTableRecord
100
AcDbTextStyleTableRecord
  2
ACISOGDT
 70
     0
 40
0.0
 41
1.0
 50
0.0
 71
     0
 42
2.5
  3
amgdt.shx
  4
chineset.shx
  0
ENDTAB
  0
TABLE
  2
VIEW
  5
32A
330
0
100
AcDbSymbolTable
 70
     0
  0
ENDTAB
  0
TABLE
  2
UCS
  5
32B
330
0
100
AcDbSymbolTable
 70
     0
  0
ENDTAB
  0
TABLE
  2
APPID
  5
32D
330
0
100
AcDbSymbolTable
 70
    22
  0
APPID
  5
336
330
32D
100
AcDbSymbolTableRecord
100
AcDbRegAppTableRecord
  2
ACAD
 70
     0
  0
APPID
  5
73C
330
32D
100
AcDbSymbolTableRecord
100
AcDbRegAppTableRecord
  2
MCAD_NO_VIS
 70
     0
  0
APPID
  5
73D
330
32D
100
AcDbSymbolTableRecord
100
AcDbRegAppTableRecord
  2
ACAD_TEMP_GRAPHIC
 70
     0
  0
APPID
  5
74E
330
32D
100
AcDbSymbolTableRecord
100
AcDbRegAppTableRecord
  2
ACATTRIBSERVICES
 70
     0
  0
APPID
  5
7A0
330
32D
100
AcDbSymbolTableRecord
100
AcDbRegAppTableRecord
  2
GENIUS_GENOLIS_13
 70
     0
  0
APPID
  5
7A1
330
32D
100
AcDbSymbolTableRecord
100
AcDbRegAppTableRecord
  2
GENIUS_GENOENT_13
 70
     0
  0
APPID
  5
7A2
330
32D
100
AcDbSymbolTableRecord
100
AcDbRegAppTableRecord
  2
GENIUS_GENODEF_13
 70
     0
  0
APPID
  5
7A3
330
32D
100
AcDbSymbolTableRecord
100
AcDbRegAppTableRecord
  2
GENIUS_GENOBJ-N-CRS_13
 70
     0
  0
APPID
  5
7A4
330
32D
100
AcDbSymbolTableRecord
100
AcDbRegAppTableRecord
  2
GENIUS_GENOREF_13
 70
     0
  0
APPID
  5
7C4
330
32D
100
AcDbSymbolTableRecord
100
AcDbRegAppTableRecord
  2
GEVID1099544801
 70
     0
  0
APPID
  5
7C5
330
32D
100
AcDbSymbolTableRecord
100
AcDbRegAppTableRecord
  2
GEVDC
 70
     0
  0
APPID
  5
7C6
330
32D
100
AcDbSymbolTableRecord
100
AcDbRegAppTableRecord
  2
GEVRADREF
 70
     0
  0
APPID
  5
7CA
330
32D
100
AcDbSymbolTableRecord
100
AcDbRegAppTableRecord
  2
GENIUS_GENBH_13
 70
     0
  0
APPID
  5
7D4
330
32D
100
AcDbSymbolTableRecord
100
AcDbRegAppTableRecord
  2
GENIUS_GENOBJ-NBEHI-BHF_13
 70
     0
  0
APPID
  5
7D6
330
32D
100
AcDbSymbolTableRecord
100
AcDbRegAppTableRecord
  2
GENIUS_GENOBJ-NBEHI-BHB_13
 70
     0
  0
APPID
  5
8C4
330
32D
100
AcDbSymbolTableRecord
100
AcDbRegAppTableRecord
  2
AD_DRAW
 70
     0
  0
APPID
  5
8E2
330
32D
100
AcDbSymbolTableRecord
100
AcDbRegAppTableRecord
  2
DESIGNERASSEMBLIES
 70
     0
  0
APPID
  5
8E7
330
32D
100
AcDbSymbolTableRecord
100
AcDbRegAppTableRecord
  2
ACADM_DIM_EDIT
 70
     0
  0
APPID
  5
8E8
330
32D
100
AcDbSymbolTableRecord
100
AcDbRegAppTableRecord
  2
AMDT_DM_ADJ
 70
     0
  0
APPID
  5
A5C
330
32D
100
AcDbSymbolTableRecord
100
AcDbRegAppTableRecord
  2
ACAD_PSEXT
 70
     0
  0
APPID
  5
A5D
330
32D
100
AcDbSymbolTableRecord
100
AcDbRegAppTableRecord
  2
GENIUS_GENREC_14
 70
     0
  0
APPID
  5
A5E
330
32D
100
AcDbSymbolTableRecord
100
AcDbRegAppTableRecord
  2
GENIUS_GENOBJ-N-REC_13
 70
     0
  0
ENDTAB
  0
TABLE
  2
DIMSTYLE
  5
32E
330
0
100
AcDbSymbolTable
 70
    16
100
AcDbDimStyleTable
 71
     1
340
35B
  0
DIMSTYLE
105
35B
102
{ACAD_REACTORS
330
1F
330
2E
330
3B
330
4A
330
57
330
65
330
73
330
80
330
9E
330
C6
330
FA
330
115
330
12A
102
}
330
32E
100
AcDbSymbolTableRecord
100
AcDbDimStyleTableRecord
  2
STANDARD
 70
     0
 41
3.0
 42
2.0
 43
2.0
 44
2.0
 73
     0
 74
     0
 77
     1
 78
     8
140
3.0
141
3.0
143
0.0394
147
1.0
171
     4
274
     4
279
     2
284
     8
285
     8
286
     8
340
386
  0
DIMSTYLE
105
779
330
32E
100
AcDbSymbolTableRecord
100
AcDbDimStyleTableRecord
  2
AM_ANSI
 70
     0
  4
mm
 41
0.1
 42
0.05
 43
0.5
 44
0.1
 47
0.1
 48
0.1
 78
     7
 79
     2
140
0.12
141
0.0
146
0.71
147
0.06
176
   256
177
   256
178
     2
274
     4
284
     7
340
335
371
    -1
372
    -1
  0
DIMSTYLE
105
77A
330
32E
100
AcDbSymbolTableRecord
100
AcDbDimStyleTableRecord
  2
AM_ANSI$3
 70
     0
  4
mm
 41
0.1
 42
0.05
 43
0.5
 44
0.1
 47
0.1
 48
0.1
 78
     7
 79
     2
140
0.12
141
0.0
146
0.71
147
0.06
176
   256
177
   256
178
     2
274
     4
284
     7
288
     1
289
     0
340
335
371
    -1
372
    -1
  0
DIMSTYLE
105
77B
330
32E
100
AcDbSymbolTableRecord
100
AcDbDimStyleTableRecord
  2
AM_ANSI$4
 70
     0
  4
mm
 41
0.1
 42
0.05
 43
0.5
 44
0.1
 47
0.1
 48
0.1
 78
     7
 79
     2
140
0.12
141
0.0
146
0.71
147
0.06
176
   256
177
   256
178
     2
274
     4
284
     7
288
     1
289
     0
340
335
371
    -1
372
    -1
  0
DIMSTYLE
105
77C
330
32E
100
AcDbSymbolTableRecord
100
AcDbDimStyleTableRecord
  2
AM_ANSI$7
 70
     0
  4
mm
 41
0.1
 42
0.05
 43
0.5
 44
0.1
 47
0.1
 48
0.1
 78
     7
 79
     2
140
0.24
141
0.0
146
0.71
147
0.06
176
   256
177
   256
178
     2
274
     4
284
     7
340
335
371
    -1
372
    -1
  0
DIMSTYLE
105
77D
330
32E
100
AcDbSymbolTableRecord
100
AcDbDimStyleTableRecord
  2
AM_ANSI$SF
 70
     0
  4
mm
 41
0.1
 42
0.05
 43
0.5
 44
0.1
 47
0.1
 48
0.1
 75
     1
 76
     1
 78
     7
 79
     2
140
0.12
141
0.0
146
0.71
147
0.06
176
   256
177
   256
178
     2
274
     4
284
     7
340
335
371
    -1
372
    -1
  0
DIMSTYLE
105
782
330
32E
100
AcDbSymbolTableRecord
100
AcDbDimStyleTableRecord
  2
AM_ANSI$SH
 70
     0
  4
mm
 41
0.1
 42
0.05
 43
0.5
 44
0.1
 47
0.1
 48
0.1
 75
     1
 76
     1
 78
     7
 79
     2
140
0.12
141
0.0
146
0.71
147
0.06
173
     1
176
   256
177
   256
178
     2
274
     4
284
     7
340
335
341
77E
343
77E
371
    -1
372
    -1
  0
DIMSTYLE
105
91A
102
{ACAD_REACTORS
330
1F
330
2E
330
3B
330
4A
330
57
330
65
330
73
330
80
330
8F
330
9E
330
AC
330
B9
330
C6
330
EA
330
FA
330
108
330
115
330
12A
102
}
330
32E
100
AcDbSymbolTableRecord
100
AcDbDimStyleTableRecord
  2
STANDARD$0
 70
     0
 41
3.0
 42
2.0
 43
2.0
 44
2.0
 73
     0
 74
     0
 77
     1
 78
     8
140
3.0
141
3.0
143
0.0394
147
1.0
171
     4
274
     4
279
     2
284
     8
285
     8
286
     8
340
386
  0
DIMSTYLE
105
A54
330
32E
100
AcDbSymbolTableRecord
100
AcDbDimStyleTableRecord
  2
AM_ISO
 70
     0
  4
"
 41
3.0
 42
1.0
 43
5.0
 44
1.5
 47
0.1
 48
0.1
 73
     0
 74
     0
 77
     1
 78
     8
 79
     2
140
3.0
141
0.0
143
0.0393701
146
0.6
147
1.0
172
     1
176
   256
177
   256
178
   256
271
     2
272
     2
283
     0
284
     8
340
335
371
    -1
372
    -1
  0
DIMSTYLE
105
A55
330
32E
100
AcDbSymbolTableRecord
100
AcDbDimStyleTableRecord
  2
AM_ISO$3
 70
     0
  4
"
 41
3.0
 42
1.0
 43
5.0
 44
1.5
 47
0.1
 48
0.1
 73
     0
 77
     1
 78
     8
 79
     2
140
3.0
141
0.0
143
0.0393701
146
0.6
147
1.0
176
   256
177
   256
178
   256
271
     2
272
     2
283
     0
284
     8
288
     1
289
     0
340
335
371
    -1
372
    -1
  0
DIMSTYLE
105
A56
330
32E
100
AcDbSymbolTableRecord
100
AcDbDimStyleTableRecord
  2
AM_ISO$4
 70
     0
  4
"
 41
3.0
 42
1.0
 43
5.0
 44
1.5
 47
0.1
 48
0.1
 73
     0
 77
     1
 78
     8
 79
     2
140
3.0
141
0.0
143
0.0393701
146
0.6
147
1.0
176
   256
177
   256
178
   256
271
     2
272
     2
283
     0
284
     8
288
     1
289
     0
340
335
371
    -1
372
    -1
  0
DIMSTYLE
105
A57
330
32E
100
AcDbSymbolTableRecord
100
AcDbDimStyleTableRecord
  2
AM_ISO$6
 70
     0
  4
"
 41
3.0
 42
1.0
 43
5.0
 44
1.5
 47
0.1
 48
0.1
 73
     0
 74
     0
 78
     8
 79
     2
140
3.0
141
0.0
143
0.0393701
146
0.6
147
1.0
172
     1
176
   256
177
   256
178
   256
271
     2
272
     2
283
     0
284
     8
340
335
371
    -1
372
    -1
  0
DIMSTYLE
105
A58
330
32E
100
AcDbSymbolTableRecord
100
AcDbDimStyleTableRecord
  2
AM_ISO$7
 70
     0
  4
"
 41
3.0
 42
1.0
 43
5.0
 44
1.5
 47
0.1
 48
0.1
 73
     0
 74
     0
 77
     1
 78
     8
 79
     2
140
5.0
141
0.0
143
0.0393701
146
0.6
147
1.0
172
     1
176
   256
177
   256
178
   256
271
     2
272
     2
283
     0
284
     8
340
335
371
    -1
372
    -1
  0
DIMSTYLE
105
A59
330
32E
100
AcDbSymbolTableRecord
100
AcDbDimStyleTableRecord
  2
AM_ISO$SF
 70
     0
  4
"
 41
2.5
 42
1.0
 43
10.0
 44
1.0
 47
0.1
 48
0.1
 73
     0
 74
     0
 75
     1
 76
     1
 77
     1
 78
     8
 79
     2
140
3.5
141
0.0
143
0.0393701
146
0.71
147
1.5
172
     1
176
   256
177
   256
178
     2
271
     2
272
     3
274
     4
283
     0
284
     8
340
335
371
    -1
372
    -1
  0
DIMSTYLE
105
A5A
330
32E
100
AcDbSymbolTableRecord
100
AcDbDimStyleTableRecord
  2
AM_ISO$SH
 70
     0
  4
"
 41
2.5
 42
1.0
 43
10.0
 44
1.0
 47
0.1
 48
0.1
 73
     0
 74
     0
 75
     1
 76
     1
 77
     1
 78
     8
 79
     2
140
3.5
141
0.0
143
0.0393701
144
2.0
146
0.71
147
1.5
172
     1
173
     1
176
   256
177
   256
178
     2
271
     2
272
     3
274
     4
283
     0
284
     8
340
335
343
77E
371
    -1
372
    -1
  0
DIMSTYLE
105
A5B
330
32E
100
AcDbSymbolTableRecord
100
AcDbDimStyleTableRecord
  2
AM_ISO$0
 70
     0
  4
"
 41
3.0
 42
1.0
 43
5.0
 44
1.5
 47
0.1
 48
0.1
 73
     0
 74
     0
 77
     1
 78
     8
 79
     2
140
3.0
141
0.0
143
0.0393701
146
0.6
147
1.0
172
     1
176
   256
177
   256
178
   256
271
     2
272
     2
283
     0
284
     8
340
335
371
    -1
372
    -1
  0
ENDTAB
  0
TABLE
  2
BLOCK_RECORD
  5
325
330
0
100
AcDbSymbolTable
 70
    25
  0
BLOCK_RECORD
  5
342
102
{ACAD_XDICTIONARY
360
469
102
}
330
325
100
AcDbSymbolTableRecord
100
AcDbBlockTableRecord
  2
*Model_Space
340
345
  0
BLOCK_RECORD
  5
33E
102
{ACAD_XDICTIONARY
360
46B
102
}
330
325
100
AcDbSymbolTableRecord
100
AcDbBlockTableRecord
  2
*Paper_Space
340
341
  0
BLOCK_RECORD
  5
367
330
325
100
AcDbSymbolTableRecord
100
AcDbBlockTableRecord
  2
*D0
340
0
  0
BLOCK_RECORD
  5
620
330
325
100
AcDbSymbolTableRecord
100
AcDbBlockTableRecord
  2
*D1
340
0
  0
BLOCK_RECORD
  5
62C
330
325
100
AcDbSymbolTableRecord
100
AcDbBlockTableRecord
  2
*D2
340
0
  0
BLOCK_RECORD
  5
638
330
325
100
AcDbSymbolTableRecord
100
AcDbBlockTableRecord
  2
*D3
340
0
  0
BLOCK_RECORD
  5
644
330
325
100
AcDbSymbolTableRecord
100
AcDbBlockTableRecord
  2
*D4
340
0
  0
BLOCK_RECORD
  5
650
330
325
100
AcDbSymbolTableRecord
100
AcDbBlockTableRecord
  2
*D5
340
0
  0
BLOCK_RECORD
  5
65C
330
325
100
AcDbSymbolTableRecord
100
AcDbBlockTableRecord
  2
*D6
340
0
  0
BLOCK_RECORD
  5
668
330
325
100
AcDbSymbolTableRecord
100
AcDbBlockTableRecord
  2
*D7
340
0
  0
BLOCK_RECORD
  5
674
330
325
100
AcDbSymbolTableRecord
100
AcDbBlockTableRecord
  2
*D8
340
0
  0
BLOCK_RECORD
  5
681
330
325
100
AcDbSymbolTableRecord
100
AcDbBlockTableRecord
  2
*D9
340
0
  0
BLOCK_RECORD
  5
68E
330
325
100
AcDbSymbolTableRecord
100
AcDbBlockTableRecord
  2
*D10
340
0
  0
BLOCK_RECORD
  5
69A
330
325
100
AcDbSymbolTableRecord
100
AcDbBlockTableRecord
  2
*D11
340
0
  0
BLOCK_RECORD
  5
6A6
330
325
100
AcDbSymbolTableRecord
100
AcDbBlockTableRecord
  2
*D12
340
0
  0
BLOCK_RECORD
  5
6BB
330
325
100
AcDbSymbolTableRecord
100
AcDbBlockTableRecord
  2
*D13
340
0
  0
BLOCK_RECORD
  5
6C7
330
325
100
AcDbSymbolTableRecord
100
AcDbBlockTableRecord
  2
*D14
340
0
  0
BLOCK_RECORD
  5
6D3
330
325
100
AcDbSymbolTableRecord
100
AcDbBlockTableRecord
  2
*D15
340
0
  0
BLOCK_RECORD
  5
6DF
330
325
100
AcDbSymbolTableRecord
100
AcDbBlockTableRecord
  2
*D16
340
0
  0
BLOCK_RECORD
  5
6EC
330
325
100
AcDbSymbolTableRecord
100
AcDbBlockTableRecord
  2
*D17
340
0
  0
BLOCK_RECORD
  5
77E
330
325
100
AcDbSymbolTableRecord
100
AcDbBlockTableRecord
  2
GENAXEH
340
0
  0
ENDTAB
  0
ENDSEC
  0
SECTION
  2
BLOCKS
  0
BLOCK
  5
362
330
342
100
AcDbEntity
  8
0
100
AcDbBlockBegin
  2
*Model_Space
 70
     0
 10
0.0
 20
0.0
 30
0.0
  3
*Model_Space
  1

  0
ENDBLK
  5
363
330
342
100
AcDbEntity
  8
0
100
AcDbBlockEnd
  0
BLOCK
  5
360
330
33E
100
AcDbEntity
 67
     1
  8
0
100
AcDbBlockBegin
  2
*Paper_Space
 70
     0
 10
0.0
 20
0.0
 30
0.0
  3
*Paper_Space
  1

  0
ENDBLK
  5
361
330
33E
100
AcDbEntity
 67
     1
  8
0
100
AcDbBlockEnd
  0
BLOCK
  5
371
330
367
100
AcDbEntity
  8
0
100
AcDbBlockBegin
  2
*D0
 70
     1
 10
0.0
 20
0.0
 30
0.0
  3
*D0
  1

  0
LINE
  5
C06
330
367
100
AcDbEntity
  8
DIM
 62
     0
370
    -2
100
AcDbLine
 10
637.6812388740122
 20
249.7713609546908
 30
0.0
 11
615.4123044387065
 21
249.7713609546908
 31
0.0
  0
LINE
  5
C07
330
367
100
AcDbEntity
  8
DIM
 62
     0
370
    -2
100
AcDbLine
 10
637.8135283812378
 20
199.7713609546907
 30
0.0
 11
615.4123044387065
 21
199.7713609546907
 31
0.0
  0
LINE
  5
C08
330
367
100
AcDbEntity
  8
DIM
 62
     0
370
    -2
100
AcDbLine
 10
617.4123044387065
 20
246.7713609546907
 30
0.0
 11
617.4123044387065
 21
202.7713609546907
 31
0.0
  0
SOLID
  5
C09
330
367
100
AcDbEntity
  8
DIM
 62
     0
100
AcDbTrace
 10
616.9123044387065
 20
246.7713609546907
 30
0.0
 11
617.9123044387065
 21
246.7713609546907
 31
0.0
 12
617.4123044387065
 22
249.7713609546908
 32
0.0
 13
617.4123044387065
 23
249.7713609546908
 33
0.0
  0
SOLID
  5
C0A
330
367
100
AcDbEntity
  8
DIM
 62
     0
100
AcDbTrace
 10
616.9123044387065
 20
202.7713609546907
 30
0.0
 11
617.9123044387065
 21
202.7713609546907
 31
0.0
 12
617.4123044387065
 22
199.7713609546907
 32
0.0
 13
617.4123044387065
 23
199.7713609546907
 33
0.0
  0
MTEXT
  5
C0B
330
367
100
AcDbEntity
  8
DIM
 62
     0
100
AcDbMText
 10
614.9123044387065
 20
224.7713609546909
 30
0.0
 40
3.0
 41
0.0
 71
     5
 72
     1
  1
\A1;50±0.2
  7
chineset
 11
0.0000000000000001
 21
1.0
 31
0.0
 73
     1
 44
1.0
1001
ACAD
1000
MTEXTBEGIN
1070
    73
1070
     1
1070
    44
1040
1.0
1070
    74
1070
     0
1000
MTEXTEND
  0
POINT
  5
C0C
330
367
100
AcDbEntity
  8
DEFPOINTS
 62
     0
100
AcDbPoint
 10
639.6812388740122
 20
249.7713609546908
 30
0.0
  0
POINT
  5
C0D
330
367
100
AcDbEntity
  8
DEFPOINTS
 62
     0
100
AcDbPoint
 10
639.8135283812377
 20
199.7713609546907
 30
0.0
  0
POINT
  5
C0E
330
367
100
AcDbEntity
  8
DEFPOINTS
 62
     0
100
AcDbPoint
 10
617.4123044387065
 20
199.7713609546907
 30
0.0
  0
ENDBLK
  5
372
330
367
100
AcDbEntity
  8
0
100
AcDbBlockEnd
  0
BLOCK
  5
62A
330
620
100
AcDbEntity
  8
0
100
AcDbBlockBegin
  2
*D1
 70
     1
 10
0.0
 20
0.0
 30
0.0
  3
*D1
  1

  0
LINE
  5
B99
330
620
100
AcDbEntity
  8
DIM
 62
     0
370
    -2
100
AcDbLine
 10
660.647301962045
 20
258.3713609546908
 30
0.0
 11
660.647301962045
 21
283.8496920496251
 31
0.0
  0
LINE
  5
B9A
330
620
100
AcDbEntity
  8
DIM
 62
     0
370
    -2
100
AcDbLine
 10
740.647301962045
 20
258.3713609546908
 30
0.0
 11
740.647301962045
 21
283.8496920496251
 31
0.0
  0
LINE
  5
B9B
330
620
100
AcDbEntity
  8
DIM
 62
     0
370
    -2
100
AcDbLine
 10
663.647301962045
 20
281.8496920496251
 30
0.0
 11
737.647301962045
 21
281.8496920496251
 31
0.0
  0
SOLID
  5
B9C
330
620
100
AcDbEntity
  8
DIM
 62
     0
100
AcDbTrace
 10
663.647301962045
 20
282.3496920496251
 30
0.0
 11
663.647301962045
 21
281.3496920496251
 31
0.0
 12
660.647301962045
 22
281.8496920496251
 32
0.0
 13
660.647301962045
 23
281.8496920496251
 33
0.0
  0
SOLID
  5
B9D
330
620
100
AcDbEntity
  8
DIM
 62
     0
100
AcDbTrace
 10
737.647301962045
 20
282.3496920496251
 30
0.0
 11
737.647301962045
 21
281.3496920496251
 31
0.0
 12
740.647301962045
 22
281.8496920496251
 32
0.0
 13
740.647301962045
 23
281.8496920496251
 33
0.0
  0
MTEXT
  5
B9E
330
620
100
AcDbEntity
  8
DIM
 62
     0
100
AcDbMText
 10
700.647301962045
 20
284.3496920496251
 30
0.0
 40
3.0
 41
0.0
 71
     5
 72
     1
  1
\A1;70+ST=80
  7
chineset
 73
     1
 44
1.0
1001
ACAD
1000
MTEXTBEGIN
1070
    73
1070
     1
1070
    44
1040
1.0
1070
    74
1070
     0
1000
MTEXTEND
  0
POINT
  5
B9F
330
620
100
AcDbEntity
  8
DEFPOINTS
 62
     0
100
AcDbPoint
 10
660.647301962045
 20
256.3713609546908
 30
0.0
  0
POINT
  5
BA0
330
620
100
AcDbEntity
  8
DEFPOINTS
 62
     0
100
AcDbPoint
 10
740.647301962045
 20
256.3713609546908
 30
0.0
  0
POINT
  5
BA1
330
620
100
AcDbEntity
  8
DEFPOINTS
 62
     0
100
AcDbPoint
 10
740.647301962045
 20
281.8496920496251
 30
0.0
  0
ENDBLK
  5
62B
330
620
100
AcDbEntity
  8
0
100
AcDbBlockEnd
  0
BLOCK
  5
636
330
62C
100
AcDbEntity
  8
0
100
AcDbBlockBegin
  2
*D2
 70
     1
 10
0.0
 20
0.0
 30
0.0
  3
*D2
  1

  0
LINE
  5
BA2
330
62C
100
AcDbEntity
  8
DIM
 62
     0
370
    -2
100
AcDbLine
 10
660.647301962045
 20
258.3713609546908
 30
0.0
 11
660.647301962045
 21
272.0849758557606
 31
0.0
  0
LINE
  5
BA3
330
62C
100
AcDbEntity
  8
DIM
 62
     0
370
    -2
100
AcDbLine
 10
690.647301962045
 20
226.7713609546908
 30
0.0
 11
690.647301962045
 21
272.0849758557606
 31
0.0
  0
LINE
  5
BA4
330
62C
100
AcDbEntity
  8
DIM
 62
     0
370
    -2
100
AcDbLine
 10
663.647301962045
 20
270.0849758557606
 30
0.0
 11
687.647301962045
 21
270.0849758557606
 31
0.0
  0
SOLID
  5
BA5
330
62C
100
AcDbEntity
  8
DIM
 62
     0
100
AcDbTrace
 10
663.647301962045
 20
270.5849758557606
 30
0.0
 11
663.647301962045
 21
269.5849758557606
 31
0.0
 12
660.647301962045
 22
270.0849758557606
 32
0.0
 13
660.647301962045
 23
270.0849758557606
 33
0.0
  0
SOLID
  5
BA6
330
62C
100
AcDbEntity
  8
DIM
 62
     0
100
AcDbTrace
 10
687.647301962045
 20
270.5849758557606
 30
0.0
 11
687.647301962045
 21
269.5849758557606
 31
0.0
 12
690.647301962045
 22
270.0849758557606
 32
0.0
 13
690.647301962045
 23
270.0849758557606
 33
0.0
  0
MTEXT
  5
BA7
330
62C
100
AcDbEntity
  8
DIM
 62
     0
100
AcDbMText
 10
675.647301962045
 20
272.5849758557606
 30
0.0
 40
3.0
 41
0.0
 71
     5
 72
     1
  1
\A1;30
  7
chineset
 73
     1
 44
1.0
1001
ACAD
1000
MTEXTBEGIN
1070
    73
1070
     1
1070
    44
1040
1.0
1070
    74
1070
     0
1000
MTEXTEND
  0
POINT
  5
BA8
330
62C
100
AcDbEntity
  8
DEFPOINTS
 62
     0
100
AcDbPoint
 10
660.647301962045
 20
256.3713609546908
 30
0.0
  0
POINT
  5
BA9
330
62C
100
AcDbEntity
  8
DEFPOINTS
 62
     0
100
AcDbPoint
 10
690.647301962045
 20
224.7713609546908
 30
0.0
  0
POINT
  5
BAA
330
62C
100
AcDbEntity
  8
DEFPOINTS
 62
     0
100
AcDbPoint
 10
690.647301962045
 20
270.0849758557606
 30
0.0
  0
ENDBLK
  5
637
330
62C
100
AcDbEntity
  8
0
100
AcDbBlockEnd
  0
BLOCK
  5
642
330
638
100
AcDbEntity
  8
0
100
AcDbBlockBegin
  2
*D3
 70
     1
 10
0.0
 20
0.0
 30
0.0
  3
*D3
  1

  0
LINE
  5
BAB
330
638
100
AcDbEntity
  8
DIM
 62
     0
370
    -2
100
AcDbLine
 10
690.647301962045
 20
226.7713609546908
 30
0.0
 11
690.647301962045
 21
272.0849758557606
 31
0.0
  0
LINE
  5
BAC
330
638
100
AcDbEntity
  8
DIM
 62
     0
370
    -2
100
AcDbLine
 10
720.647301962045
 20
226.7713609546908
 30
0.0
 11
720.647301962045
 21
272.0849758557606
 31
0.0
  0
LINE
  5
BAD
330
638
100
AcDbEntity
  8
DIM
 62
     0
370
    -2
100
AcDbLine
 10
693.647301962045
 20
270.0849758557606
 30
0.0
 11
717.647301962045
 21
270.0849758557606
 31
0.0
  0
SOLID
  5
BAE
330
638
100
AcDbEntity
  8
DIM
 62
     0
100
AcDbTrace
 10
693.647301962045
 20
270.5849758557606
 30
0.0
 11
693.647301962045
 21
269.5849758557606
 31
0.0
 12
690.647301962045
 22
270.0849758557606
 32
0.0
 13
690.647301962045
 23
270.0849758557606
 33
0.0
  0
SOLID
  5
BAF
330
638
100
AcDbEntity
  8
DIM
 62
     0
100
AcDbTrace
 10
717.647301962045
 20
270.5849758557606
 30
0.0
 11
717.647301962045
 21
269.5849758557606
 31
0.0
 12
720.647301962045
 22
270.0849758557606
 32
0.0
 13
720.647301962045
 23
270.0849758557606
 33
0.0
  0
MTEXT
  5
BB0
330
638
100
AcDbEntity
  8
DIM
 62
     0
100
AcDbMText
 10
705.647301962045
 20
272.5849758557606
 30
0.0
 40
3.0
 41
0.0
 71
     5
 72
     1
  1
\A1;Z
  7
chineset
 73
     1
 44
1.0
1001
ACAD
1000
MTEXTBEGIN
1070
    73
1070
     1
1070
    44
1040
1.0
1070
    74
1070
     0
1000
MTEXTEND
  0
POINT
  5
BB1
330
638
100
AcDbEntity
  8
DEFPOINTS
 62
     0
100
AcDbPoint
 10
690.647301962045
 20
224.7713609546908
 30
0.0
  0
POINT
  5
BB2
330
638
100
AcDbEntity
  8
DEFPOINTS
 62
     0
100
AcDbPoint
 10
720.647301962045
 20
224.7713609546908
 30
0.0
  0
POINT
  5
BB3
330
638
100
AcDbEntity
  8
DEFPOINTS
 62
     0
100
AcDbPoint
 10
720.647301962045
 20
270.0849758557606
 30
0.0
  0
ENDBLK
  5
643
330
638
100
AcDbEntity
  8
0
100
AcDbBlockEnd
  0
BLOCK
  5
64E
330
644
100
AcDbEntity
  8
0
100
AcDbBlockBegin
  2
*D4
 70
     1
 10
0.0
 20
0.0
 30
0.0
  3
*D4
  1

  0
LINE
  5
BB4
330
644
100
AcDbEntity
  8
DIM
 62
     0
370
    -2
100
AcDbLine
 10
660.6473019620452
 20
111.0827413306895
 30
0.0
 11
660.6473019620452
 21
125.6172798621235
 31
0.0
  0
LINE
  5
BB5
330
644
100
AcDbEntity
  8
DIM
 62
     0
370
    -2
100
AcDbLine
 10
690.647301962045
 20
105.9324998506636
 30
0.0
 11
690.647301962045
 21
125.6172798621235
 31
0.0
  0
LINE
  5
BB6
330
644
100
AcDbEntity
  8
DIM
 62
     0
370
    -2
100
AcDbLine
 10
663.6473019620451
 20
123.6172798621235
 30
0.0
 11
687.647301962045
 21
123.6172798621235
 31
0.0
  0
SOLID
  5
BB7
330
644
100
AcDbEntity
  8
DIM
 62
     0
100
AcDbTrace
 10
663.6473019620451
 20
124.1172798621235
 30
0.0
 11
663.6473019620451
 21
123.1172798621235
 31
0.0
 12
660.6473019620452
 22
123.6172798621235
 32
0.0
 13
660.6473019620452
 23
123.6172798621235
 33
0.0
  0
SOLID
  5
BB8
330
644
100
AcDbEntity
  8
DIM
 62
     0
100
AcDbTrace
 10
687.647301962045
 20
124.1172798621235
 30
0.0
 11
687.647301962045
 21
123.1172798621235
 31
0.0
 12
690.647301962045
 22
123.6172798621235
 32
0.0
 13
690.647301962045
 23
123.6172798621235
 33
0.0
  0
MTEXT
  5
BB9
330
644
100
AcDbEntity
  8
DIM
 62
     0
100
AcDbMText
 10
675.647301962045
 20
126.1172798621235
 30
0.0
 40
3.0
 41
0.0
 71
     5
 72
     1
  1
\A1;30
  7
chineset
 73
     1
 44
1.0
1001
ACAD
1000
MTEXTBEGIN
1070
    73
1070
     1
1070
    44
1040
1.0
1070
    74
1070
     0
1000
MTEXTEND
  0
POINT
  5
BBA
330
644
100
AcDbEntity
  8
DEFPOINTS
 62
     0
100
AcDbPoint
 10
660.6473019620452
 20
109.0827413306895
 30
0.0
  0
POINT
  5
BBB
330
644
100
AcDbEntity
  8
DEFPOINTS
 62
     0
100
AcDbPoint
 10
690.647301962045
 20
103.9324998506636
 30
0.0
  0
POINT
  5
BBC
330
644
100
AcDbEntity
  8
DEFPOINTS
 62
     0
100
AcDbPoint
 10
690.647301962045
 20
123.6172798621235
 30
0.0
  0
ENDBLK
  5
64F
330
644
100
AcDbEntity
  8
0
100
AcDbBlockEnd
  0
BLOCK
  5
65A
330
650
100
AcDbEntity
  8
0
100
AcDbBlockBegin
  2
*D5
 70
     1
 10
0.0
 20
0.0
 30
0.0
  3
*D5
  1

  0
LINE
  5
BBD
330
650
100
AcDbEntity
  8
DIM
 62
     0
370
    -2
100
AcDbLine
 10
690.647301962045
 20
106.4974260494925
 30
0.0
 11
690.647301962045
 21
125.6172798621235
 31
0.0
  0
LINE
  5
BBE
330
650
100
AcDbEntity
  8
DIM
 62
     0
370
    -2
100
AcDbLine
 10
720.647301962045
 20
103.3327413306895
 30
0.0
 11
720.647301962045
 21
125.6172798621235
 31
0.0
  0
LINE
  5
BBF
330
650
100
AcDbEntity
  8
DIM
 62
     0
370
    -2
100
AcDbLine
 10
693.647301962045
 20
123.6172798621235
 30
0.0
 11
717.647301962045
 21
123.6172798621235
 31
0.0
  0
SOLID
  5
BC0
330
650
100
AcDbEntity
  8
DIM
 62
     0
100
AcDbTrace
 10
693.647301962045
 20
124.1172798621235
 30
0.0
 11
693.647301962045
 21
123.1172798621235
 31
0.0
 12
690.647301962045
 22
123.6172798621235
 32
0.0
 13
690.647301962045
 23
123.6172798621235
 33
0.0
  0
SOLID
  5
BC1
330
650
100
AcDbEntity
  8
DIM
 62
     0
100
AcDbTrace
 10
717.647301962045
 20
124.1172798621235
 30
0.0
 11
717.647301962045
 21
123.1172798621235
 31
0.0
 12
720.647301962045
 22
123.6172798621235
 32
0.0
 13
720.647301962045
 23
123.6172798621235
 33
0.0
  0
MTEXT
  5
BC2
330
650
100
AcDbEntity
  8
DIM
 62
     0
100
AcDbMText
 10
705.647301962045
 20
126.1172798621235
 30
0.0
 40
3.0
 41
0.0
 71
     5
 72
     1
  1
\A1;30
  7
chineset
 73
     1
 44
1.0
1001
ACAD
1000
MTEXTBEGIN
1070
    73
1070
     1
1070
    44
1040
1.0
1070
    74
1070
     0
1000
MTEXTEND
  0
POINT
  5
BC3
330
650
100
AcDbEntity
  8
DEFPOINTS
 62
     0
100
AcDbPoint
 10
690.647301962045
 20
104.4974260494925
 30
0.0
  0
POINT
  5
BC4
330
650
100
AcDbEntity
  8
DEFPOINTS
 62
     0
100
AcDbPoint
 10
720.647301962045
 20
101.3327413306895
 30
0.0
  0
POINT
  5
BC5
330
650
100
AcDbEntity
  8
DEFPOINTS
 62
     0
100
AcDbPoint
 10
720.647301962045
 20
123.6172798621235
 30
0.0
  0
ENDBLK
  5
65B
330
650
100
AcDbEntity
  8
0
100
AcDbBlockEnd
  0
BLOCK
  5
666
330
65C
100
AcDbEntity
  8
0
100
AcDbBlockBegin
  2
*D6
 70
     1
 10
0.0
 20
0.0
 30
0.0
  3
*D6
  1

  0
LINE
  5
BC6
330
65C
100
AcDbEntity
  8
DIM
 62
     0
370
    -2
100
AcDbLine
 10
660.6473019620452
 20
82.48274133068946
 30
0.0
 11
660.6473019620452
 21
67.63865505224362
 31
0.0
  0
LINE
  5
BC7
330
65C
100
AcDbEntity
  8
DIM
 62
     0
370
    -2
100
AcDbLine
 10
705.647301962045
 20
94.58274133068949
 30
0.0
 11
705.647301962045
 21
67.63865505224362
 31
0.0
  0
LINE
  5
BC8
330
65C
100
AcDbEntity
  8
DIM
 62
     0
370
    -2
100
AcDbLine
 10
663.6473019620451
 20
69.63865505224362
 30
0.0
 11
702.647301962045
 21
69.63865505224362
 31
0.0
  0
SOLID
  5
BC9
330
65C
100
AcDbEntity
  8
DIM
 62
     0
100
AcDbTrace
 10
663.6473019620451
 20
70.13865505224362
 30
0.0
 11
663.6473019620451
 21
69.13865505224362
 31
0.0
 12
660.6473019620452
 22
69.63865505224362
 32
0.0
 13
660.6473019620452
 23
69.63865505224362
 33
0.0
  0
SOLID
  5
BCA
330
65C
100
AcDbEntity
  8
DIM
 62
     0
100
AcDbTrace
 10
702.647301962045
 20
70.13865505224362
 30
0.0
 11
702.647301962045
 21
69.13865505224362
 31
0.0
 12
705.647301962045
 22
69.63865505224362
 32
0.0
 13
705.647301962045
 23
69.63865505224362
 33
0.0
  0
MTEXT
  5
BCB
330
65C
100
AcDbEntity
  8
DIM
 62
     0
100
AcDbMText
 10
683.147301962045
 20
72.13865505224362
 30
0.0
 40
3.0
 41
0.0
 71
     5
 72
     1
  1
\A1;45
  7
chineset
 73
     1
 44
1.0
1001
ACAD
1000
MTEXTBEGIN
1070
    73
1070
     1
1070
    44
1040
1.0
1070
    74
1070
     0
1000
MTEXTEND
  0
POINT
  5
BCC
330
65C
100
AcDbEntity
  8
DEFPOINTS
 62
     0
100
AcDbPoint
 10
660.6473019620452
 20
84.48274133068947
 30
0.0
  0
POINT
  5
BCD
330
65C
100
AcDbEntity
  8
DEFPOINTS
 62
     0
100
AcDbPoint
 10
705.647301962045
 20
96.5827413306895
 30
0.0
  0
POINT
  5
BCE
330
65C
100
AcDbEntity
  8
DEFPOINTS
 62
     0
100
AcDbPoint
 10
705.647301962045
 20
69.63865505224362
 30
0.0
  0
ENDBLK
  5
667
330
65C
100
AcDbEntity
  8
0
100
AcDbBlockEnd
  0
BLOCK
  5
672
330
668
100
AcDbEntity
  8
0
100
AcDbBlockBegin
  2
*D7
 70
     1
 10
0.0
 20
0.0
 30
0.0
  3
*D7
  1

  0
LINE
  5
BCF
330
668
100
AcDbEntity
  8
DIM
 62
     0
370
    -2
100
AcDbLine
 10
722.647301962045
 20
101.3327413306895
 30
0.0
 11
760.7588437899585
 21
101.3327413306895
 31
0.0
  0
LINE
  5
BD0
330
668
100
AcDbEntity
  8
DIM
 62
     0
370
    -2
100
AcDbLine
 10
722.647301962045
 20
91.83274133068948
 30
0.0
 11
760.7588437899585
 21
91.83274133068946
 31
0.0
  0
LINE
  5
BD1
330
668
100
AcDbEntity
  8
DIM
 62
     0
370
    -2
100
AcDbLine
 10
758.7588437899585
 20
98.33274133068947
 30
0.0
 11
758.7588437899585
 21
94.83274133068947
 31
0.0
  0
SOLID
  5
BD2
330
668
100
AcDbEntity
  8
DIM
 62
     0
100
AcDbTrace
 10
758.2588437899585
 20
98.33274133068947
 30
0.0
 11
759.2588437899585
 21
98.33274133068947
 31
0.0
 12
758.7588437899585
 22
101.3327413306895
 32
0.0
 13
758.7588437899585
 23
101.3327413306895
 33
0.0
  0
SOLID
  5
BD3
330
668
100
AcDbEntity
  8
DIM
 62
     0
100
AcDbTrace
 10
758.2588437899585
 20
94.83274133068947
 30
0.0
 11
759.2588437899585
 21
94.83274133068947
 31
0.0
 12
758.7588437899585
 22
91.83274133068946
 32
0.0
 13
758.7588437899585
 23
91.83274133068946
 33
0.0
  0
MTEXT
  5
BD4
330
668
100
AcDbEntity
  8
DIM
 62
     0
100
AcDbMText
 10
756.2588437899584
 20
96.5827413306896
 30
0.0
 40
3.0
 41
0.0
 71
     5
 72
     1
  1
\A1;9.5
  7
chineset
 11
0.0000000000000001
 21
1.0
 31
0.0
 73
     1
 44
1.0
1001
ACAD
1000
MTEXTBEGIN
1070
    73
1070
     1
1070
    44
1040
1.0
1070
    74
1070
     0
1000
MTEXTEND
  0
POINT
  5
BD5
330
668
100
AcDbEntity
  8
DEFPOINTS
 62
     0
100
AcDbPoint
 10
720.647301962045
 20
101.3327413306895
 30
0.0
  0
POINT
  5
BD6
330
668
100
AcDbEntity
  8
DEFPOINTS
 62
     0
100
AcDbPoint
 10
720.647301962045
 20
91.83274133068948
 30
0.0
  0
POINT
  5
BD7
330
668
100
AcDbEntity
  8
DEFPOINTS
 62
     0
100
AcDbPoint
 10
758.7588437899585
 20
91.83274133068946
 30
0.0
  0
ENDBLK
  5
673
330
668
100
AcDbEntity
  8
0
100
AcDbBlockEnd
  0
BLOCK
  5
67F
330
674
100
AcDbEntity
  8
0
100
AcDbBlockBegin
  2
*D8
 70
     1
 10
0.0
 20
0.0
 30
0.0
  3
*D8
  1

  0
LINE
  5
BD8
330
674
100
AcDbEntity
  8
DIM
 62
     0
370
    -2
100
AcDbLine
 10
742.647301962045
 20
109.0827413306895
 30
0.0
 11
760.7588437899585
 21
109.0827413306895
 31
0.0
  0
LINE
  5
BD9
330
674
100
AcDbEntity
  8
DIM
 62
     0
370
    -2
100
AcDbLine
 10
722.647301962045
 20
101.3327413306895
 30
0.0
 11
760.7588437899585
 21
101.3327413306895
 31
0.0
  0
LINE
  5
BDA
330
674
100
AcDbEntity
  8
DIM
 62
     0
370
    -2
100
AcDbLine
 10
758.7588437899585
 20
112.0827413306895
 30
0.0
 11
758.7588437899585
 21
115.0827413306895
 31
0.0
  0
LINE
  5
BDB
330
674
100
AcDbEntity
  8
DIM
 62
     0
370
    -2
100
AcDbLine
 10
758.7588437899585
 20
98.33274133068947
 30
0.0
 11
758.7588437899585
 21
95.33274133068948
 31
0.0
  0
MTEXT
  5
BDC
330
674
100
AcDbEntity
  8
DIM
 62
     0
100
AcDbMText
 10
766.7588437899585
 20
105.2077413306896
 30
0.0
 40
3.0
 41
0.0
 71
     5
 72
     1
  1
\A1;7.75
  7
chineset
 11
0.0000000000000001
 21
1.0
 31
0.0
 73
     1
 44
1.0
1001
ACAD
1000
MTEXTBEGIN
1070
    73
1070
     1
1070
    44
1040
1.0
1070
    74
1070
     0
1000
MTEXTEND
  0
SOLID
  5
BDD
330
674
100
AcDbEntity
  8
DIM
 62
     0
100
AcDbTrace
 10
758.2588437899585
 20
112.0827413306895
 30
0.0
 11
759.2588437899585
 21
112.0827413306895
 31
0.0
 12
758.7588437899585
 22
109.0827413306895
 32
0.0
 13
758.7588437899585
 23
109.0827413306895
 33
0.0
  0
SOLID
  5
BDE
330
674
100
AcDbEntity
  8
DIM
 62
     0
100
AcDbTrace
 10
758.2588437899585
 20
98.33274133068947
 30
0.0
 11
759.2588437899585
 21
98.33274133068947
 31
0.0
 12
758.7588437899585
 22
101.3327413306895
 32
0.0
 13
758.7588437899585
 23
101.3327413306895
 33
0.0
  0
POINT
  5
BDF
330
674
100
AcDbEntity
  8
DEFPOINTS
 62
     0
100
AcDbPoint
 10
740.647301962045
 20
109.0827413306895
 30
0.0
  0
POINT
  5
BE0
330
674
100
AcDbEntity
  8
DEFPOINTS
 62
     0
100
AcDbPoint
 10
720.647301962045
 20
101.3327413306895
 30
0.0
  0
POINT
  5
BE1
330
674
100
AcDbEntity
  8
DEFPOINTS
 62
     0
100
AcDbPoint
 10
758.7588437899585
 20
101.3327413306895
 30
0.0
  0
ENDBLK
  5
680
330
674
100
AcDbEntity
  8
0
100
AcDbBlockEnd
  0
BLOCK
  5
68C
330
681
100
AcDbEntity
  8
0
100
AcDbBlockBegin
  2
*D9
 70
     1
 10
0.0
 20
0.0
 30
0.0
  3
*D9
  1

  0
LINE
  5
BE2
330
681
100
AcDbEntity
  8
DIM
 62
     0
370
    -2
100
AcDbLine
 10
740.647301962045
 20
82.48274133068946
 30
0.0
 11
740.647301962045
 21
67.63865505224362
 31
0.0
  0
LINE
  5
BE3
330
681
100
AcDbEntity
  8
DIM
 62
     0
370
    -2
100
AcDbLine
 10
732.6473019620451
 20
94.58274133068949
 30
0.0
 11
732.6473019620451
 21
67.63865505224362
 31
0.0
  0
LINE
  5
BE4
330
681
100
AcDbEntity
  8
DIM
 62
     0
370
    -2
100
AcDbLine
 10
737.647301962045
 20
69.63865505224362
 30
0.0
 11
735.647301962045
 21
69.63865505224362
 31
0.0
  0
MTEXT
  5
BE5
330
681
100
AcDbEntity
  8
DIM
 62
     0
100
AcDbMText
 10
736.527975607126
 20
72.13865505224362
 30
0.0
 40
3.0
 41
0.0
 71
     5
 72
     1
  1
\A1;8
  7
chineset
 73
     1
 44
1.0
1001
ACAD
1000
MTEXTBEGIN
1070
    73
1070
     1
1070
    44
1040
1.0
1070
    74
1070
     0
1000
MTEXTEND
  0
SOLID
  5
BE6
330
681
100
AcDbEntity
  8
DIM
 62
     0
100
AcDbTrace
 10
737.647301962045
 20
70.13865505224362
 30
0.0
 11
737.647301962045
 21
69.13865505224362
 31
0.0
 12
740.647301962045
 22
69.63865505224362
 32
0.0
 13
740.647301962045
 23
69.63865505224362
 33
0.0
  0
SOLID
  5
BE7
330
681
100
AcDbEntity
  8
DIM
 62
     0
100
AcDbTrace
 10
735.647301962045
 20
70.13865505224362
 30
0.0
 11
735.647301962045
 21
69.13865505224362
 31
0.0
 12
732.6473019620451
 22
69.63865505224362
 32
0.0
 13
732.6473019620451
 23
69.63865505224362
 33
0.0
  0
POINT
  5
BE8
330
681
100
AcDbEntity
  8
DEFPOINTS
 62
     0
100
AcDbPoint
 10
740.647301962045
 20
84.48274133068947
 30
0.0
  0
POINT
  5
BE9
330
681
100
AcDbEntity
  8
DEFPOINTS
 62
     0
100
AcDbPoint
 10
732.6473019620451
 20
96.5827413306895
 30
0.0
  0
POINT
  5
BEA
330
681
100
AcDbEntity
  8
DEFPOINTS
 62
     0
100
AcDbPoint
 10
732.6473019620451
 20
69.63865505224362
 30
0.0
  0
ENDBLK
  5
68D
330
681
100
AcDbEntity
  8
0
100
AcDbBlockEnd
  0
BLOCK
  5
698
330
68E
100
AcDbEntity
  8
0
100
AcDbBlockBegin
  2
*D10
 70
     1
 10
0.0
 20
0.0
 30
0.0
  3
*D10
  1

  0
LINE
  5
BEB
330
68E
100
AcDbEntity
  8
DIM
 62
     0
370
    -2
100
AcDbLine
 10
648.6473019620452
 20
257.7713609546908
 30
0.0
 11
648.6473019620452
 21
283.8496920496251
 31
0.0
  0
LINE
  5
BEC
330
68E
100
AcDbEntity
  8
DIM
 62
     0
370
    -2
100
AcDbLine
 10
636.6473019620451
 20
257.7713609546908
 30
0.0
 11
636.6473019620451
 21
283.8496920496251
 31
0.0
  0
LINE
  5
BED
330
68E
100
AcDbEntity
  8
DIM
 62
     0
370
    -2
100
AcDbLine
 10
645.6473019620451
 20
281.8496920496251
 30
0.0
 11
639.6473019620451
 21
281.8496920496251
 31
0.0
  0
SOLID
  5
BEE
330
68E
100
AcDbEntity
  8
DIM
 62
     0
100
AcDbTrace
 10
645.6473019620451
 20
282.3496920496251
 30
0.0
 11
645.6473019620451
 21
281.3496920496251
 31
0.0
 12
648.6473019620452
 22
281.8496920496251
 32
0.0
 13
648.6473019620452
 23
281.8496920496251
 33
0.0
  0
SOLID
  5
BEF
330
68E
100
AcDbEntity
  8
DIM
 62
     0
100
AcDbTrace
 10
639.6473019620451
 20
282.3496920496251
 30
0.0
 11
639.6473019620451
 21
281.3496920496251
 31
0.0
 12
636.6473019620451
 22
281.8496920496251
 32
0.0
 13
636.6473019620451
 23
281.8496920496251
 33
0.0
  0
MTEXT
  5
BF0
330
68E
100
AcDbEntity
  8
DIM
 62
     0
100
AcDbMText
 10
642.6473019620451
 20
284.3496920496251
 30
0.0
 40
3.0
 41
0.0
 71
     5
 72
     1
  1
\A1;12
  7
chineset
 73
     1
 44
1.0
1001
ACAD
1000
MTEXTBEGIN
1070
    73
1070
     1
1070
    44
1040
1.0
1070
    74
1070
     0
1000
MTEXTEND
  0
POINT
  5
BF1
330
68E
100
AcDbEntity
  8
DEFPOINTS
 62
     0
100
AcDbPoint
 10
648.6473019620452
 20
255.7713609546908
 30
0.0
  0
POINT
  5
BF2
330
68E
100
AcDbEntity
  8
DEFPOINTS
 62
     0
100
AcDbPoint
 10
636.6473019620451
 20
255.7713609546908
 30
0.0
  0
POINT
  5
BF3
330
68E
100
AcDbEntity
  8
DEFPOINTS
 62
     0
100
AcDbPoint
 10
636.6473019620451
 20
281.8496920496251
 30
0.0
  0
ENDBLK
  5
699
330
68E
100
AcDbEntity
  8
0
100
AcDbBlockEnd
  0
BLOCK
  5
6A4
330
69A
100
AcDbEntity
  8
0
100
AcDbBlockBegin
  2
*D11
 70
     1
 10
0.0
 20
0.0
 30
0.0
  3
*D11
  1

  0
LINE
  5
C9E
330
69A
100
AcDbEntity
  8
DIM
 62
     0
370
    -2
100
AcDbLine
 10
529.344503302143
 20
257.7713609546908
 30
0.0
 11
529.344503302143
 21
266.7179100065223
 31
0.0
  0
LINE
  5
C9F
330
69A
100
AcDbEntity
  8
DIM
 62
     0
370
    -2
100
AcDbLine
 10
552.344503302143
 20
257.7713609546908
 30
0.0
 11
552.344503302143
 21
266.7179100065223
 31
0.0
  0
LINE
  5
CA0
330
69A
100
AcDbEntity
  8
DIM
 62
     0
370
    -2
100
AcDbLine
 10
532.344503302143
 20
264.7179100065223
 30
0.0
 11
549.344503302143
 21
264.7179100065223
 31
0.0
  0
SOLID
  5
CA1
330
69A
100
AcDbEntity
  8
DIM
 62
     0
100
AcDbTrace
 10
532.344503302143
 20
265.2179100065223
 30
0.0
 11
532.344503302143
 21
264.2179100065223
 31
0.0
 12
529.344503302143
 22
264.7179100065223
 32
0.0
 13
529.344503302143
 23
264.7179100065223
 33
0.0
  0
SOLID
  5
CA2
330
69A
100
AcDbEntity
  8
DIM
 62
     0
100
AcDbTrace
 10
549.344503302143
 20
265.2179100065223
 30
0.0
 11
549.344503302143
 21
264.2179100065223
 31
0.0
 12
552.344503302143
 22
264.7179100065223
 32
0.0
 13
552.344503302143
 23
264.7179100065223
 33
0.0
  0
MTEXT
  5
CA3
330
69A
100
AcDbEntity
  8
DIM
 62
     0
100
AcDbMText
 10
540.9172167296658
 20
267.2179100065223
 30
0.0
 40
3.0
 41
0.0
 71
     5
 72
     1
  1
\A1;23
  7
chineset
 73
     1
 44
1.0
1001
ACAD
1000
MTEXTBEGIN
1070
    73
1070
     1
1070
    44
1040
1.0
1070
    74
1070
     0
1000
MTEXTEND
  0
POINT
  5
CA4
330
69A
100
AcDbEntity
  8
DEFPOINTS
 62
     0
100
AcDbPoint
 10
529.344503302143
 20
255.7713609546907
 30
0.0
  0
POINT
  5
CA5
330
69A
100
AcDbEntity
  8
DEFPOINTS
 62
     0
100
AcDbPoint
 10
552.344503302143
 20
255.7713609546908
 30
0.0
  0
POINT
  5
CA6
330
69A
100
AcDbEntity
  8
DEFPOINTS
 62
     0
100
AcDbPoint
 10
552.344503302143
 20
264.7179100065223
 30
0.0
  0
ENDBLK
  5
6A5
330
69A
100
AcDbEntity
  8
0
100
AcDbBlockEnd
  0
BLOCK
  5
6B0
330
6A6
100
AcDbEntity
  8
0
100
AcDbBlockBegin
  2
*D12
 70
     1
 10
0.0
 20
0.0
 30
0.0
  3
*D12
  1

  0
LINE
  5
CA7
330
6A6
100
AcDbEntity
  8
DIM
 62
     0
370
    -2
100
AcDbLine
 10
528.344503302143
 20
258.3713609546907
 30
0.0
 11
528.344503302143
 21
276.0012558308663
 31
0.0
  0
LINE
  5
CA8
330
6A6
100
AcDbEntity
  8
DIM
 62
     0
370
    -2
100
AcDbLine
 10
553.344503302143
 20
258.3713609546908
 30
0.0
 11
553.344503302143
 21
276.0012558308663
 31
0.0
  0
LINE
  5
CA9
330
6A6
100
AcDbEntity
  8
DIM
 62
     0
370
    -2
100
AcDbLine
 10
531.344503302143
 20
274.0012558308663
 30
0.0
 11
550.344503302143
 21
274.0012558308663
 31
0.0
  0
SOLID
  5
CAA
330
6A6
100
AcDbEntity
  8
DIM
 62
     0
100
AcDbTrace
 10
531.344503302143
 20
274.5012558308663
 30
0.0
 11
531.344503302143
 21
273.5012558308663
 31
0.0
 12
528.344503302143
 22
274.0012558308663
 32
0.0
 13
528.344503302143
 23
274.0012558308663
 33
0.0
  0
SOLID
  5
CAB
330
6A6
100
AcDbEntity
  8
DIM
 62
     0
100
AcDbTrace
 10
550.344503302143
 20
274.5012558308663
 30
0.0
 11
550.344503302143
 21
273.5012558308663
 31
0.0
 12
553.344503302143
 22
274.0012558308663
 32
0.0
 13
553.344503302143
 23
274.0012558308663
 33
0.0
  0
MTEXT
  5
CAC
330
6A6
100
AcDbEntity
  8
DIM
 62
     0
100
AcDbMText
 10
540.9172167296658
 20
276.5012558308663
 30
0.0
 40
3.0
 41
0.0
 71
     5
 72
     1
  1
\A1;25
  7
chineset
 73
     1
 44
1.0
1001
ACAD
1000
MTEXTBEGIN
1070
    73
1070
     1
1070
    44
1040
1.0
1070
    74
1070
     0
1000
MTEXTEND
  0
POINT
  5
CAD
330
6A6
100
AcDbEntity
  8
DEFPOINTS
 62
     0
100
AcDbPoint
 10
528.344503302143
 20
256.3713609546907
 30
0.0
  0
POINT
  5
CAE
330
6A6
100
AcDbEntity
  8
DEFPOINTS
 62
     0
100
AcDbPoint
 10
553.344503302143
 20
256.3713609546908
 30
0.0
  0
POINT
  5
CAF
330
6A6
100
AcDbEntity
  8
DEFPOINTS
 62
     0
100
AcDbPoint
 10
553.344503302143
 20
274.0012558308663
 30
0.0
  0
ENDBLK
  5
6B1
330
6A6
100
AcDbEntity
  8
0
100
AcDbBlockEnd
  0
BLOCK
  5
6C5
330
6BB
100
AcDbEntity
  8
0
100
AcDbBlockBegin
  2
*D13
 70
     1
 10
0.0
 20
0.0
 30
0.0
  3
*D13
  1

  0
LINE
  5
C83
330
6BB
100
AcDbEntity
  8
DIM
 62
     0
370
    -2
100
AcDbLine
 10
542.844503302143
 20
249.7713609546908
 30
0.0
 11
566.5171610819782
 21
249.7713609546908
 31
0.0
  0
LINE
  5
C84
330
6BB
100
AcDbEntity
  8
DIM
 62
     0
370
    -2
100
AcDbLine
 10
542.844503302143
 20
199.7713609546907
 30
0.0
 11
566.5171610819782
 21
199.7713609546907
 31
0.0
  0
LINE
  5
C85
330
6BB
100
AcDbEntity
  8
DIM
 62
     0
370
    -2
100
AcDbLine
 10
564.5171610819781
 20
246.7713609546907
 30
0.0
 11
564.5171610819781
 21
202.7713609546907
 31
0.0
  0
SOLID
  5
C86
330
6BB
100
AcDbEntity
  8
DIM
 62
     0
100
AcDbTrace
 10
564.0171610819781
 20
246.7713609546907
 30
0.0
 11
565.0171610819781
 21
246.7713609546907
 31
0.0
 12
564.5171610819781
 22
249.7713609546908
 32
0.0
 13
564.5171610819781
 23
249.7713609546908
 33
0.0
  0
SOLID
  5
C87
330
6BB
100
AcDbEntity
  8
DIM
 62
     0
100
AcDbTrace
 10
564.0171610819781
 20
202.7713609546907
 30
0.0
 11
565.0171610819781
 21
202.7713609546907
 31
0.0
 12
564.5171610819781
 22
199.7713609546907
 32
0.0
 13
564.5171610819781
 23
199.7713609546907
 33
0.0
  0
MTEXT
  5
C88
330
6BB
100
AcDbEntity
  8
DIM
 62
     0
100
AcDbMText
 10
562.0171610819782
 20
224.3083807492296
 30
0.0
 40
3.0
 41
0.0
 71
     5
 72
     1
  1
\A1;50
  7
chineset
 11
0.0000000000000001
 21
1.0
 31
0.0
 73
     1
 44
1.0
1001
ACAD
1000
MTEXTBEGIN
1070
    73
1070
     1
1070
    44
1040
1.0
1070
    74
1070
     0
1000
MTEXTEND
  0
POINT
  5
C89
330
6BB
100
AcDbEntity
  8
DEFPOINTS
 62
     0
100
AcDbPoint
 10
540.844503302143
 20
249.7713609546908
 30
0.0
  0
POINT
  5
C8A
330
6BB
100
AcDbEntity
  8
DEFPOINTS
 62
     0
100
AcDbPoint
 10
540.844503302143
 20
199.7713609546907
 30
0.0
  0
POINT
  5
C8B
330
6BB
100
AcDbEntity
  8
DEFPOINTS
 62
     0
100
AcDbPoint
 10
564.5171610819781
 20
199.7713609546907
 30
0.0
  0
ENDBLK
  5
6C6
330
6BB
100
AcDbEntity
  8
0
100
AcDbBlockEnd
  0
BLOCK
  5
6D1
330
6C7
100
AcDbEntity
  8
0
100
AcDbBlockBegin
  2
*D14
 70
     1
 10
0.0
 20
0.0
 30
0.0
  3
*D14
  1

  0
LINE
  5
C18
330
6C7
100
AcDbEntity
  8
DIM
 62
     0
370
    -2
100
AcDbLine
 10
552.344503302143
 20
191.7713609546907
 30
0.0
 11
552.344503302143
 21
175.0696527978313
 31
0.0
  0
LINE
  5
C19
330
6C7
100
AcDbEntity
  8
DIM
 62
     0
370
    -2
100
AcDbLine
 10
540.844503302143
 20
197.7713609546907
 30
0.0
 11
540.844503302143
 21
175.0696527978313
 31
0.0
  0
LINE
  5
C1A
330
6C7
100
AcDbEntity
  8
DIM
 62
     0
370
    -2
100
AcDbLine
 10
549.344503302143
 20
177.0696527978313
 30
0.0
 11
543.844503302143
 21
177.0696527978313
 31
0.0
  0
SOLID
  5
C1B
330
6C7
100
AcDbEntity
  8
DIM
 62
     0
100
AcDbTrace
 10
549.344503302143
 20
177.5696527978313
 30
0.0
 11
549.344503302143
 21
176.5696527978312
 31
0.0
 12
552.344503302143
 22
177.0696527978313
 32
0.0
 13
552.344503302143
 23
177.0696527978313
 33
0.0
  0
SOLID
  5
C1C
330
6C7
100
AcDbEntity
  8
DIM
 62
     0
100
AcDbTrace
 10
543.844503302143
 20
177.5696527978313
 30
0.0
 11
543.844503302143
 21
176.5696527978312
 31
0.0
 12
540.844503302143
 22
177.0696527978313
 32
0.0
 13
540.844503302143
 23
177.0696527978313
 33
0.0
  0
MTEXT
  5
C1D
330
6C7
100
AcDbEntity
  8
DIM
 62
     0
100
AcDbMText
 10
546.594503302143
 20
179.5696527978313
 30
0.0
 40
3.0
 41
0.0
 71
     5
 72
     1
  1
\A1;11.5
  7
chineset
 73
     1
 44
1.0
1001
ACAD
1000
MTEXTBEGIN
1070
    73
1070
     1
1070
    44
1040
1.0
1070
    74
1070
     0
1000
MTEXTEND
  0
POINT
  5
C1E
330
6C7
100
AcDbEntity
  8
DEFPOINTS
 62
     0
100
AcDbPoint
 10
552.344503302143
 20
193.7713609546907
 30
0.0
  0
POINT
  5
C1F
330
6C7
100
AcDbEntity
  8
DEFPOINTS
 62
     0
100
AcDbPoint
 10
540.844503302143
 20
199.7713609546907
 30
0.0
  0
POINT
  5
C20
330
6C7
100
AcDbEntity
  8
DEFPOINTS
 62
     0
100
AcDbPoint
 10
540.844503302143
 20
177.0696527978313
 30
0.0
  0
ENDBLK
  5
6D2
330
6C7
100
AcDbEntity
  8
0
100
AcDbBlockEnd
  0
BLOCK
  5
6DD
330
6D3
100
AcDbEntity
  8
0
100
AcDbBlockBegin
  2
*D15
 70
     1
 10
0.0
 20
0.0
 30
0.0
  3
*D15
  1

  0
LINE
  5
C7A
330
6D3
100
AcDbEntity
  8
DIM
 62
     0
370
    -2
100
AcDbLine
 10
526.744503302143
 20
256.7713609546907
 30
0.0
 11
512.9932203824199
 21
256.7713609546907
 31
0.0
  0
LINE
  5
C7B
330
6D3
100
AcDbEntity
  8
DIM
 62
     0
370
    -2
100
AcDbLine
 10
526.7445033021429
 20
192.7713609546907
 30
0.0
 11
512.9932203824198
 21
192.7713609546907
 31
0.0
  0
LINE
  5
C7C
330
6D3
100
AcDbEntity
  8
DIM
 62
     0
370
    -2
100
AcDbLine
 10
514.9932203824199
 20
253.7713609546908
 30
0.0
 11
514.9932203824199
 21
195.7713609546907
 31
0.0
  0
SOLID
  5
C7D
330
6D3
100
AcDbEntity
  8
DIM
 62
     0
100
AcDbTrace
 10
514.4932203824198
 20
253.7713609546908
 30
0.0
 11
515.4932203824198
 21
253.7713609546908
 31
0.0
 12
514.9932203824199
 22
256.7713609546907
 32
0.0
 13
514.9932203824199
 23
256.7713609546907
 33
0.0
  0
SOLID
  5
C7E
330
6D3
100
AcDbEntity
  8
DIM
 62
     0
100
AcDbTrace
 10
514.4932203824198
 20
195.7713609546907
 30
0.0
 11
515.4932203824198
 21
195.7713609546907
 31
0.0
 12
514.9932203824199
 22
192.7713609546907
 32
0.0
 13
514.9932203824199
 23
192.7713609546907
 33
0.0
  0
MTEXT
  5
C7F
330
6D3
100
AcDbEntity
  8
DIM
 62
     0
100
AcDbMText
 10
512.4932203824198
 20
224.7969784043453
 30
0.0
 40
3.0
 41
0.0
 71
     5
 72
     1
  1
\A1;64
  7
chineset
 11
0.0000000000000001
 21
1.0
 31
0.0
 73
     1
 44
1.0
1001
ACAD
1000
MTEXTBEGIN
1070
    73
1070
     1
1070
    44
1040
1.0
1070
    74
1070
     0
1000
MTEXTEND
  0
POINT
  5
C80
330
6D3
100
AcDbEntity
  8
DEFPOINTS
 62
     0
100
AcDbPoint
 10
528.7445033021429
 20
256.7713609546907
 30
0.0
  0
POINT
  5
C81
330
6D3
100
AcDbEntity
  8
DEFPOINTS
 62
     0
100
AcDbPoint
 10
528.7445033021429
 20
192.7713609546907
 30
0.0
  0
POINT
  5
C82
330
6D3
100
AcDbEntity
  8
DEFPOINTS
 62
     0
100
AcDbPoint
 10
514.9932203824199
 20
192.7713609546907
 30
0.0
  0
ENDBLK
  5
6DE
330
6D3
100
AcDbEntity
  8
0
100
AcDbBlockEnd
  0
BLOCK
  5
6EA
330
6DF
100
AcDbEntity
  8
0
100
AcDbBlockBegin
  2
*D16
 70
     1
 10
0.0
 20
0.0
 30
0.0
  3
*D16
  1

  0
LINE
  5
C5D
330
6DF
100
AcDbEntity
  8
DIM
 62
     0
370
    -2
100
AcDbLine
 10
527.344503302143
 20
255.7713609546907
 30
0.0
 11
519.0724734650632
 21
255.7713609546907
 31
0.0
  0
LINE
  5
C5E
330
6DF
100
AcDbEntity
  8
DIM
 62
     0
370
    -2
100
AcDbLine
 10
526.744503302143
 20
256.7713609546907
 30
0.0
 11
519.0724734650633
 21
256.7713609546907
 31
0.0
  0
LINE
  5
C5F
330
6DF
100
AcDbEntity
  8
DIM
 62
     0
370
    -2
100
AcDbLine
 10
521.0724734650632
 20
252.7713609546907
 30
0.0
 11
521.0724734650632
 21
249.7713609546907
 31
0.0
  0
LINE
  5
C60
330
6DF
100
AcDbEntity
  8
DIM
 62
     0
370
    -2
100
AcDbLine
 10
521.0724734650633
 20
259.7713609546907
 30
0.0
 11
521.0724734650633
 21
265.4856466689765
 31
0.0
  0
LINE
  5
C61
330
6DF
100
AcDbEntity
  8
DIM
 62
     0
370
    -2
100
AcDbLine
 10
521.0724734650632
 20
255.7713609546907
 30
0.0
 11
521.0724734650633
 21
256.7713609546907
 31
0.0
  0
SOLID
  5
C62
330
6DF
100
AcDbEntity
  8
DIM
 62
     0
100
AcDbTrace
 10
520.5724734650632
 20
252.7713609546907
 30
0.0
 11
521.5724734650632
 21
252.7713609546907
 31
0.0
 12
521.0724734650632
 22
255.7713609546907
 32
0.0
 13
521.0724734650632
 23
255.7713609546907
 33
0.0
  0
SOLID
  5
C63
330
6DF
100
AcDbEntity
  8
DIM
 62
     0
100
AcDbTrace
 10
520.5724734650633
 20
259.7713609546907
 30
0.0
 11
521.5724734650633
 21
259.7713609546907
 31
0.0
 12
521.0724734650633
 22
256.7713609546907
 32
0.0
 13
521.0724734650633
 23
256.7713609546907
 33
0.0
  0
MTEXT
  5
C64
330
6DF
100
AcDbEntity
  8
DIM
 62
     0
100
AcDbMText
 10
518.5724734650632
 20
264.1285038118336
 30
0.0
 40
3.0
 41
0.0
 71
     5
 72
     1
  1
\A1;1
  7
chineset
 11
0.0000000000000001
 21
1.0
 31
0.0
 73
     1
 44
1.0
1001
ACAD
1000
MTEXTBEGIN
1070
    73
1070
     1
1070
    44
1040
1.0
1070
    74
1070
     0
1000
MTEXTEND
  0
POINT
  5
C65
330
6DF
100
AcDbEntity
  8
DEFPOINTS
 62
     0
100
AcDbPoint
 10
529.344503302143
 20
255.7713609546907
 30
0.0
  0
POINT
  5
C66
330
6DF
100
AcDbEntity
  8
DEFPOINTS
 62
     0
100
AcDbPoint
 10
528.7445033021429
 20
256.7713609546907
 30
0.0
  0
POINT
  5
C67
330
6DF
100
AcDbEntity
  8
DEFPOINTS
 62
     0
100
AcDbPoint
 10
521.0724734650633
 20
256.7713609546907
 30
0.0
  0
ENDBLK
  5
6EB
330
6DF
100
AcDbEntity
  8
0
100
AcDbBlockEnd
  0
BLOCK
  5
6F6
330
6EC
100
AcDbEntity
  8
0
100
AcDbBlockBegin
  2
*D17
 70
     1
 10
0.0
 20
0.0
 30
0.0
  3
*D17
  1

  0
LINE
  5
C34
330
6EC
100
AcDbEntity
  8
DIM
 62
     0
370
    -2
100
AcDbLine
 10
648.6473019620452
 20
257.7713609546908
 30
0.0
 11
648.6473019620452
 21
283.8496920496251
 31
0.0
  0
LINE
  5
C35
330
6EC
100
AcDbEntity
  8
DIM
 62
     0
370
    -2
100
AcDbLine
 10
660.647301962045
 20
258.3713609546908
 30
0.0
 11
660.647301962045
 21
283.8496920496251
 31
0.0
  0
LINE
  5
C36
330
6EC
100
AcDbEntity
  8
DIM
 62
     0
370
    -2
100
AcDbLine
 10
651.6473019620451
 20
281.8496920496251
 30
0.0
 11
657.6473019620451
 21
281.8496920496251
 31
0.0
  0
SOLID
  5
C37
330
6EC
100
AcDbEntity
  8
DIM
 62
     0
100
AcDbTrace
 10
651.6473019620451
 20
282.3496920496251
 30
0.0
 11
651.6473019620451
 21
281.3496920496251
 31
0.0
 12
648.6473019620452
 22
281.8496920496251
 32
0.0
 13
648.6473019620452
 23
281.8496920496251
 33
0.0
  0
SOLID
  5
C38
330
6EC
100
AcDbEntity
  8
DIM
 62
     0
100
AcDbTrace
 10
657.6473019620451
 20
282.3496920496251
 30
0.0
 11
657.6473019620451
 21
281.3496920496251
 31
0.0
 12
660.647301962045
 22
281.8496920496251
 32
0.0
 13
660.647301962045
 23
281.8496920496251
 33
0.0
  0
MTEXT
  5
C39
330
6EC
100
AcDbEntity
  8
DIM
 62
     0
100
AcDbMText
 10
654.647301962045
 20
284.3496920496251
 30
0.0
 40
3.0
 41
0.0
 71
     5
 72
     1
  1
\A1;12
  7
chineset
 73
     1
 44
1.0
1001
ACAD
1000
MTEXTBEGIN
1070
    73
1070
     1
1070
    44
1040
1.0
1070
    74
1070
     0
1000
MTEXTEND
  0
POINT
  5
C3A
330
6EC
100
AcDbEntity
  8
DEFPOINTS
 62
     0
100
AcDbPoint
 10
648.6473019620452
 20
255.7713609546908
 30
0.0
  0
POINT
  5
C3B
330
6EC
100
AcDbEntity
  8
DEFPOINTS
 62
     0
100
AcDbPoint
 10
660.647301962045
 20
256.3713609546908
 30
0.0
  0
POINT
  5
C3C
330
6EC
100
AcDbEntity
  8
DEFPOINTS
 62
     0
100
AcDbPoint
 10
660.647301962045
 20
281.8496920496251
 30
0.0
  0
ENDBLK
  5
6F7
330
6EC
100
AcDbEntity
  8
0
100
AcDbBlockEnd
  0
BLOCK
  5
780
330
77E
100
AcDbEntity
  8
0
100
AcDbBlockBegin
  2
GENAXEH
 70
     0
 10
0.0
 20
0.0
 30
0.0
  3
GENAXEH
  1

  0
LINE
  5
77F
330
77E
100
AcDbEntity
  8
0
100
AcDbLine
 10
-1.0
 20
0.0
 30
0.0
 11
1.0
 21
0.0
 31
0.0
  0
ENDBLK
  5
781
330
77E
100
AcDbEntity
  8
0
100
AcDbBlockEnd
  0
ENDSEC
  0
SECTION
  2
ENTITIES
  0
DIMENSION
  5
1F
330
342
100
AcDbEntity
  8
DIM
100
AcDbDimension
  2
*D1
 10
740.647301962045
 20
281.8496920496251
 30
0.0
 11
700.647301962045
 21
284.3496920496251
 31
0.0
 70
    32
  1
70+ST=<>
 71
     5
 42
80.0
  3
STANDARD
100
AcDbAlignedDimension
 13
660.647301962045
 23
256.3713609546908
 33
0.0
 14
740.647301962045
 24
256.3713609546908
 34
0.0
100
AcDbRotatedDimension
1001
ACAD
1000
DSTYLE
1002
{
1002
}
  0
DIMENSION
  5
2E
330
342
100
AcDbEntity
  8
DIM
100
AcDbDimension
  2
*D2
 10
690.647301962045
 20
270.0849758557606
 30
0.0
 11
675.647301962045
 21
272.5849758557606
 31
0.0
 70
    32
  1
<>
 71
     5
 42
30.0
  3
STANDARD
100
AcDbAlignedDimension
 13
660.647301962045
 23
256.3713609546908
 33
0.0
 14
690.647301962045
 24
224.7713609546908
 34
0.0
100
AcDbRotatedDimension
1001
ACAD
1000
DSTYLE
1002
{
1002
}
  0
DIMENSION
  5
3B
330
342
100
AcDbEntity
  8
DIM
100
AcDbDimension
  2
*D3
 10
720.647301962045
 20
270.0849758557606
 30
0.0
 11
705.647301962045
 21
272.5849758557606
 31
0.0
 70
    32
  1
Z
 71
     5
 42
30.0
  3
STANDARD
100
AcDbAlignedDimension
 13
690.647301962045
 23
224.7713609546908
 33
0.0
 14
720.647301962045
 24
224.7713609546908
 34
0.0
100
AcDbRotatedDimension
1001
ACAD
1000
DSTYLE
1002
{
1002
}
  0
TEXT
  5
48
330
342
100
AcDbEntity
  8
DIM
 62
     5
100
AcDbText
 10
745.9007249624132
 20
120.8563952234234
 30
0.0
 40
3.0
  1
2*2-M5*0.8
  7
chineset
100
AcDbText
  0
SOLID
  5
49
330
342
100
AcDbEntity
  8
DIM
  6
Continuous
 62
     5
100
AcDbTrace
 10
-735.6102568630716
 20
100.7971078730271
 30
0.0
 11
-734.1285674037941
 21
98.14105886251054
 31
0.0
 12
-734.6687442402404
 22
101.134085588981
 32
0.0
 13
-734.6687442402404
 23
101.134085588981
 33
0.0
210
0.0
220
0.0
230
-1.0
  0
LWPOLYLINE
  5
2CD
330
342
100
AcDbEntity
  8
DIM
 62
     5
100
AcDbPolyline
 90
        3
 70
   128
 43
0.0
 10
735.139500551656
 20
100.965596731004
 10
741.9007249624132
 20
119.8563952234234
 10
772.4007249624133
 20
119.8563952234234
1001
ACAD
1000
R13OBJECT
1002
{
1005
49
1002
}
  0
DIMENSION
  5
4A
330
342
100
AcDbEntity
  8
DIM
100
AcDbDimension
  2
*D4
 10
690.647301962045
 20
123.6172798621235
 30
0.0
 11
675.647301962045
 21
126.1172798621235
 31
0.0
 70
    32
  1
<>
 71
     5
 42
29.99999999999989
  3
STANDARD
100
AcDbAlignedDimension
 13
660.6473019620452
 23
109.0827413306895
 33
0.0
 14
690.647301962045
 24
103.9324998506636
 34
0.0
100
AcDbRotatedDimension
1001
ACAD
1000
DSTYLE
1002
{
1002
}
  0
DIMENSION
  5
57
330
342
100
AcDbEntity
  8
DIM
100
AcDbDimension
  2
*D5
 10
720.647301962045
 20
123.6172798621235
 30
0.0
 11
705.647301962045
 21
126.1172798621235
 31
0.0
 70
    32
  1
<>
 71
     5
 42
30.0
  3
STANDARD
100
AcDbAlignedDimension
 13
690.647301962045
 23
104.4974260494925
 33
0.0
 14
720.647301962045
 24
101.3327413306895
 34
0.0
100
AcDbRotatedDimension
1001
ACAD
1000
DSTYLE
1002
{
1002
}
  0
TEXT
  5
64
330
342
100
AcDbEntity
  8
DIM
 62
     5
100
AcDbText
 10
680.0686478030236
 20
59.52989459942
 30
0.0
 40
3.0
  1
2*4-M4*0.7
  7
chineset
100
AcDbText
  0
DIMENSION
  5
65
330
342
100
AcDbEntity
  8
DIM
100
AcDbDimension
  2
*D6
 10
705.647301962045
 20
69.63865505224362
 30
0.0
 11
683.147301962045
 21
72.13865505224362
 31
0.0
 70
    32
  1
<>
 71
     5
 42
44.99999999999988
  3
STANDARD
100
AcDbAlignedDimension
 13
660.6473019620452
 23
84.48274133068947
 33
0.0
 14
705.647301962045
 24
96.5827413306895
 34
0.0
100
AcDbRotatedDimension
1001
ACAD
1000
DSTYLE
1002
{
1002
}
  0
SOLID
  5
72
330
342
100
AcDbEntity
  8
DIM
  6
Continuous
 62
     5
100
AcDbTrace
 10
-718.231681551768
 20
87.87326929986592
 30
0.0
 11
-719.5190893391991
 21
90.62873317893636
 31
0.0
 12
-719.194935122679
 22
87.60467563254072
 32
0.0
 13
-719.194935122679
 23
87.60467563254072
 33
0.0
210
0.0
220
0.0
230
-1.0
  0
LWPOLYLINE
  5
2D2
330
342
100
AcDbEntity
  8
DIM
 62
     5
100
AcDbPolyline
 90
        3
 70
   128
 43
0.0
 10
718.7133083372234
 20
87.73897246620334
 10
710.5686478030236
 20
58.52989459942
 10
680.0686478030236
 20
58.52989459942
1001
ACAD
1000
R13OBJECT
1002
{
1005
72
1002
}
  0
DIMENSION
  5
73
330
342
100
AcDbEntity
  8
DIM
100
AcDbDimension
  2
*D7
 10
758.7588437899585
 20
91.83274133068946
 30
0.0
 11
756.2588437899584
 21
96.5827413306896
 31
0.0
 70
    32
  1
<>
 71
     5
 42
9.5
  3
STANDARD
100
AcDbAlignedDimension
 13
720.647301962045
 23
101.3327413306895
 33
0.0
 14
720.647301962045
 24
91.83274133068948
 34
0.0
 50
90.0
100
AcDbRotatedDimension
1001
ACAD
1000
DSTYLE
1002
{
1002
}
  0
DIMENSION
  5
80
330
342
100
AcDbEntity
  8
DIM
100
AcDbDimension
  2
*D8
 10
758.7588437899585
 20
101.3327413306895
 30
0.0
 11
766.7588437899585
 21
105.2077413306896
 31
0.0
 70
    32
  1
<>
 71
     5
 42
7.750000000000014
  3
STANDARD
100
AcDbAlignedDimension
 13
740.647301962045
 23
109.0827413306895
 33
0.0
 14
720.647301962045
 24
101.3327413306895
 34
0.0
 50
90.0
100
AcDbRotatedDimension
1001
ACAD
1000
DSTYLE
1002
{
1002
}
  0
DIMENSION
  5
8F
330
342
100
AcDbEntity
  8
DIM
100
AcDbDimension
  2
*D9
 10
732.6473019620451
 20
69.63865505224362
 30
0.0
 11
736.527975607126
 21
72.13865505224362
 31
0.0
 70
   160
  1
<>
 71
     5
 42
8.0
  3
STANDARD$0
100
AcDbAlignedDimension
 13
740.647301962045
 23
84.48274133068947
 33
0.0
 14
732.6473019620451
 24
96.5827413306895
 34
0.0
100
AcDbRotatedDimension
1001
ACAD
1000
DSTYLE
1002
{
1070
    77
1070
     1
1002
}
  0
DIMENSION
  5
9E
330
342
100
AcDbEntity
  8
DIM
100
AcDbDimension
  2
*D10
 10
636.6473019620451
 20
281.8496920496251
 30
0.0
 11
642.6473019620451
 21
284.3496920496251
 31
0.0
 70
    32
  1
<>
 71
     5
 42
12.0
  3
STANDARD
100
AcDbAlignedDimension
 13
648.6473019620452
 23
255.7713609546908
 33
0.0
 14
636.6473019620451
 24
255.7713609546908
 34
0.0
100
AcDbRotatedDimension
1001
ACAD
1000
DSTYLE
1002
{
1002
}
  0
TEXT
  5
AB
330
342
100
AcDbEntity
  8
DIM
 62
     5
100
AcDbText
 10
583.2192507304949
 20
273.2961471929178
 30
0.0
 40
3.0
  1
2x2-M4x0.7x6 depth
 41
0.8
  7
chineset
100
AcDbText
  0
DIMENSION
  5
AC
330
342
100
AcDbEntity
  8
DIM
100
AcDbDimension
  2
*D11
 10
552.344503302143
 20
264.7179100065223
 30
0.0
 11
540.9172167296658
 21
264.7179100065223
 31
0.0
 70
   160
  1
<>
 71
     5
 42
23.0
  3
STANDARD$0
100
AcDbAlignedDimension
 13
529.344503302143
 23
255.7713609546907
 33
0.0
 14
552.344503302143
 24
255.7713609546908
 34
0.0
100
AcDbRotatedDimension
1001
ACAD
1000
DSTYLE
1002
{
1070
   172
1070
     1
1070
   279
1070
     0
1002
}
  0
DIMENSION
  5
B9
330
342
100
AcDbEntity
  8
DIM
100
AcDbDimension
  2
*D12
 10
553.344503302143
 20
274.0012558308663
 30
0.0
 11
540.9172167296658
 21
274.0012558308663
 31
0.0
 70
   160
  1
<>
 71
     5
 42
25.0
  3
STANDARD$0
100
AcDbAlignedDimension
 13
528.344503302143
 23
256.3713609546907
 33
0.0
 14
553.344503302143
 24
256.3713609546908
 34
0.0
100
AcDbRotatedDimension
1001
ACAD
1000
DSTYLE
1002
{
1070
   172
1070
     1
1070
   279
1070
     0
1002
}
  0
DIMENSION
  5
C6
330
342
100
AcDbEntity
  8
DIM
100
AcDbDimension
  2
*D0
 10
617.4123044387065
 20
199.7713609546907
 30
0.0
 11
614.9123044387065
 21
224.7713609546909
 31
0.0
 70
    32
  1
<>
 71
     5
 42
50.0
  3
STANDARD
100
AcDbAlignedDimension
 13
639.6812388740122
 23
249.7713609546908
 33
0.0
 14
639.8135283812377
 24
199.7713609546907
 34
0.0
 50
90.0
100
AcDbRotatedDimension
1001
ACAD
1000
DSTYLE
1002
{
1070
    47
1040
0.2
1070
   147
1040
1.0
1070
    48
1040
0.2
1070
    72
1070
     0
1070
    71
1070
     1
1002
}
  0
LINE
  5
D3
330
342
100
AcDbEntity
  8
0
  6
CENTER
 62
     1
100
AcDbLine
 10
540.844503302143
 20
240.5713609546908
 30
0.0
 11
540.844503302143
 21
244.7713609546907
 31
0.0
  0
LINE
  5
D5
330
342
100
AcDbEntity
  8
0
  6
CENTER
 62
     1
100
AcDbLine
 10
540.844503302143
 20
251.5713609546907
 30
0.0
 11
540.844503302143
 21
253.4213609546907
 31
0.0
  0
LINE
  5
D6
330
342
100
AcDbEntity
  8
0
  6
CENTER
 62
     1
100
AcDbLine
 10
542.644503302143
 20
249.7713609546908
 30
0.0
 11
544.494503302143
 21
249.7713609546908
 31
0.0
  0
LINE
  5
D7
330
342
100
AcDbEntity
  8
0
  6
CENTER
 62
     1
100
AcDbLine
 10
539.844503302143
 20
249.7713609546908
 30
0.0
 11
541.844503302143
 21
249.7713609546908
 31
0.0
  0
LINE
  5
D8
330
342
100
AcDbEntity
  8
0
  6
CENTER
 62
     1
100
AcDbLine
 10
540.844503302143
 20
248.7713609546907
 30
0.0
 11
540.844503302143
 21
250.7713609546907
 31
0.0
  0
LINE
  5
D9
330
342
100
AcDbEntity
  8
0
  6
CENTER
 62
     1
100
AcDbLine
 10
540.844503302143
 20
246.1213609546907
 30
0.0
 11
540.844503302143
 21
247.9713609546907
 31
0.0
  0
LINE
  5
DA
330
342
100
AcDbEntity
  8
0
  6
CENTER
 62
     1
100
AcDbLine
 10
537.1945033021429
 20
249.7713609546908
 30
0.0
 11
539.0445033021429
 21
249.7713609546908
 31
0.0
  0
LINE
  5
DB
330
342
100
AcDbEntity
  8
0
  6
CENTER
 62
     1
100
AcDbLine
 10
542.644503302143
 20
238.7713609546907
 30
0.0
 11
546.844503302143
 21
238.7713609546907
 31
0.0
  0
LINE
  5
DC
330
342
100
AcDbEntity
  8
0
  6
CENTER
 62
     1
100
AcDbLine
 10
539.844503302143
 20
238.7713609546907
 30
0.0
 11
541.844503302143
 21
238.7713609546907
 31
0.0
  0
LINE
  5
DD
330
342
100
AcDbEntity
  8
0
  6
CENTER
 62
     1
100
AcDbLine
 10
540.844503302143
 20
232.7713609546908
 30
0.0
 11
540.844503302143
 21
236.9713609546908
 31
0.0
  0
LINE
  5
DE
330
342
100
AcDbEntity
  8
0
  6
CENTER
 62
     1
100
AcDbLine
 10
534.844503302143
 20
238.7713609546907
 30
0.0
 11
539.0445033021429
 21
238.7713609546907
 31
0.0
  0
LINE
  5
DF
330
342
100
AcDbEntity
  8
0
  6
CENTER
 62
     1
100
AcDbLine
 10
540.844503302143
 20
237.7713609546908
 30
0.0
 11
540.844503302143
 21
239.7713609546908
 31
0.0
  0
LINE
  5
E0
330
342
100
AcDbEntity
  8
0
  6
CENTER
 62
     1
100
AcDbLine
 10
540.844503302143
 20
212.5713609546908
 30
0.0
 11
540.844503302143
 21
217.7713609546907
 31
0.0
  0
LINE
  5
E1
330
342
100
AcDbEntity
  8
0
  6
CENTER
 62
     1
100
AcDbLine
 10
540.844503302143
 20
203.7713609546908
 30
0.0
 11
540.844503302143
 21
208.9713609546907
 31
0.0
  0
LINE
  5
E2
330
342
100
AcDbEntity
  8
0
  6
CENTER
 62
     1
100
AcDbLine
 10
542.644503302143
 20
199.7713609546907
 30
0.0
 11
544.494503302143
 21
199.7713609546907
 31
0.0
  0
LINE
  5
E3
330
342
100
AcDbEntity
  8
0
  6
CENTER
 62
     1
100
AcDbLine
 10
539.844503302143
 20
199.7713609546907
 30
0.0
 11
541.844503302143
 21
199.7713609546907
 31
0.0
  0
LINE
  5
E4
330
342
100
AcDbEntity
  8
0
  6
CENTER
 62
     1
100
AcDbLine
 10
540.844503302143
 20
198.7713609546907
 30
0.0
 11
540.844503302143
 21
200.7713609546907
 31
0.0
  0
LINE
  5
E5
330
342
100
AcDbEntity
  8
0
  6
CENTER
 62
     1
100
AcDbLine
 10
540.844503302143
 20
201.5713609546907
 30
0.0
 11
540.844503302143
 21
203.4213609546907
 31
0.0
  0
LINE
  5
E6
330
342
100
AcDbEntity
  8
0
  6
CENTER
 62
     1
100
AcDbLine
 10
539.844503302143
 20
210.7713609546908
 30
0.0
 11
541.844503302143
 21
210.7713609546908
 31
0.0
  0
LINE
  5
E7
330
342
100
AcDbEntity
  8
0
  6
CENTER
 62
     1
100
AcDbLine
 10
540.844503302143
 20
209.7713609546907
 30
0.0
 11
540.844503302143
 21
211.7713609546907
 31
0.0
  0
LINE
  5
E8
330
342
100
AcDbEntity
  8
0
  6
CENTER
 62
     1
100
AcDbLine
 10
533.844503302143
 20
210.7713609546908
 30
0.0
 11
539.0445033021429
 21
210.7713609546908
 31
0.0
  0
LINE
  5
E9
330
342
100
AcDbEntity
  8
0
  6
CENTER
 62
     1
100
AcDbLine
 10
537.1945033021429
 20
199.7713609546907
 30
0.0
 11
539.0445033021429
 21
199.7713609546907
 31
0.0
  0
DIMENSION
  5
EA
330
342
100
AcDbEntity
  8
DIM
100
AcDbDimension
  2
*D13
 10
564.5171610819781
 20
199.7713609546907
 30
0.0
 11
564.5171610819781
 21
224.3083807492296
 31
0.0
 70
   160
  1
<>
 71
     5
 42
50.0
  3
STANDARD$0
100
AcDbAlignedDimension
 13
540.844503302143
 23
249.7713609546908
 33
0.0
 14
540.844503302143
 24
199.7713609546907
 34
0.0
 50
90.0
100
AcDbRotatedDimension
1001
ACAD
1000
DSTYLE
1002
{
1070
   172
1070
     1
1070
   279
1070
     0
1002
}
  0
LINE
  5
F7
330
342
100
AcDbEntity
  8
0
  6
CENTER
 62
     1
100
AcDbLine
 10
542.644503302143
 20
210.7713609546908
 30
0.0
 11
547.844503302143
 21
210.7713609546908
 31
0.0
  0
LINE
  5
F8
330
342
100
AcDbEntity
  8
0
  6
CENTER
 62
     1
100
AcDbLine
 10
525.0059665922712
 20
224.7713609546908
 30
0.0
 11
558.3608254850235
 21
224.7713609546908
 31
0.0
  0
LINE
  5
F9
330
342
100
AcDbEntity
  8
0
  6
CENTER
 62
     1
100
AcDbLine
 10
540.844503302143
 20
196.1213609546907
 30
0.0
 11
540.844503302143
 21
197.9713609546907
 31
0.0
  0
DIMENSION
  5
FA
330
342
100
AcDbEntity
  8
DIM
100
AcDbDimension
  2
*D14
 10
540.844503302143
 20
177.0696527978313
 30
0.0
 11
546.594503302143
 21
179.5696527978313
 31
0.0
 70
    32
  1
<>
 71
     5
 42
11.5
  3
STANDARD
100
AcDbAlignedDimension
 13
552.344503302143
 23
193.7713609546907
 33
0.0
 14
540.844503302143
 24
199.7713609546907
 34
0.0
100
AcDbRotatedDimension
1001
ACAD
1000
DSTYLE
1002
{
1002
}
  0
SOLID
  5
107
330
342
100
AcDbEntity
  8
DIM
  6
Continuous
 62
     5
100
AcDbTrace
 10
-639.5290868478164
 20
253.1477830803641
 30
0.0
 11
-641.2405400129273
 21
250.6336374871989
 31
0.0
 12
-638.806199258958
 22
252.456817427184
 32
0.0
 13
-638.806199258958
 23
252.456817427184
 33
0.0
210
0.0
220
0.0
230
-1.0
  0
LWPOLYLINE
  5
2D7
330
342
100
AcDbEntity
  8
DIM
 62
     5
100
AcDbPolyline
 90
        3
 70
   128
 43
0.0
 10
639.1676430533872
 20
252.8023002537741
 10
620.5346233544753
 20
272.2961471929178
 10
581.8272722117535
 20
272.2961471929178
1001
ACAD
1000
R13OBJECT
1002
{
1005
107
1002
}
  0
DIMENSION
  5
108
330
342
100
AcDbEntity
  8
DIM
100
AcDbDimension
  2
*D15
 10
514.9932203824199
 20
192.7713609546907
 30
0.0
 11
514.9932203824199
 21
224.7969784043453
 31
0.0
 70
   160
  1
<>
 71
     5
 42
64.0
  3
STANDARD$0
100
AcDbAlignedDimension
 13
528.7445033021429
 23
256.7713609546907
 33
0.0
 14
528.7445033021429
 24
192.7713609546907
 34
0.0
 50
90.0
100
AcDbRotatedDimension
1001
ACAD
1000
DSTYLE
1002
{
1070
   172
1070
     1
1070
   279
1070
     0
1002
}
  0
DIMENSION
  5
115
330
342
100
AcDbEntity
  8
DIM
100
AcDbDimension
  2
*D16
 10
521.0724734650633
 20
256.7713609546907
 30
0.0
 11
521.0724734650632
 21
264.1285038118336
 31
0.0
 70
   160
  1
<>
 71
     5
 42
1.000000000000028
  3
STANDARD
100
AcDbAlignedDimension
 13
529.344503302143
 23
255.7713609546907
 33
0.0
 14
528.7445033021429
 24
256.7713609546907
 34
0.0
 50
90.0
100
AcDbRotatedDimension
1001
ACAD
1000
DSTYLE
1002
{
1070
   172
1070
     1
1070
   279
1070
     0
1002
}
  0
TEXT
  5
124
330
342
100
AcDbEntity
  8
DIM
 62
     5
100
AcDbText
 10
503.5059663920522
 20
178.9861000498508
 30
0.0
 40
3.0
  1
2-M5*0.8
  7
chineset
100
AcDbText
  0
SOLID
  5
125
330
342
100
AcDbEntity
  8
DIM
  6
Continuous
 62
     5
100
AcDbTrace
 10
-537.3483207503802
 20
195.9604194230789
 30
0.0
 11
-539.2349847870762
 21
198.3458960657309
 31
0.0
 12
-538.2239706905212
 22
195.4774730675371
 32
0.0
 13
-538.2239706905212
 23
195.4774730675371
 33
0.0
210
0.0
220
0.0
230
-1.0
  0
LWPOLYLINE
  5
2DC
330
342
100
AcDbEntity
  8
DIM
 62
     5
100
AcDbPolyline
 90
        3
 70
   128
 43
0.0
 10
537.7861457204508
 20
195.718946245308
 10
528.0059663920521
 20
177.9861000498508
 10
503.5059663920522
 20
177.9861000498508
1001
ACAD
1000
R13OBJECT
1002
{
1005
125
1002
}
  0
DIMENSION
  5
12A
330
342
100
AcDbEntity
  8
DIM
100
AcDbDimension
  2
*D17
 10
660.647301962045
 20
281.8496920496251
 30
0.0
 11
654.647301962045
 21
284.3496920496251
 31
0.0
 70
    32
  1
<>
 71
     5
 42
11.99999999999988
  3
STANDARD
100
AcDbAlignedDimension
 13
648.6473019620452
 23
255.7713609546908
 33
0.0
 14
660.647301962045
 24
256.3713609546908
 34
0.0
100
AcDbRotatedDimension
1001
ACAD
1000
DSTYLE
1002
{
1070
   271
1070
     2
1002
}
  0
LINE
  5
137
330
342
100
AcDbEntity
  8
0
  6
CENTER
 62
     1
100
AcDbLine
 10
743.6337469390592
 20
224.7713609546908
 30
0.0
 11
633.1433070857804
 21
224.7713609546908
 31
0.0
  0
LINE
  5
138
330
342
100
AcDbEntity
  8
0
  6
CENTER
 62
     1
100
AcDbLine
 10
745.4663622055127
 20
96.5827413306895
 30
0.0
 11
633.8357700943126
 21
96.5827413306895
 31
0.0
  0
LINE
  5
139
330
342
100
AcDbEntity
  8
0
  6
CENTER
 62
     1
100
AcDbLine
 10
745.1783050614863
 20
0.5919046921875549
 30
0.0
 11
632.6992570856369
 21
0.5919046921875549
 31
0.0
  0
LINE
  5
13E
330
342
100
AcDbEntity
  8
0
100
AcDbLine
 10
656.1516189763493
 20
-2.294846653760544
 30
0.0
 11
660.142984947741
 21
-2.294846653760544
 31
0.0
  0
LINE
  5
140
330
342
100
AcDbEntity
  8
0
100
AcDbLine
 10
656.1516189763493
 20
-5.181597999708685
 30
0.0
 11
660.1429849477409
 21
-5.181597999708685
 31
0.0
  0
LWPOLYLINE
  5
141
330
342
100
AcDbEntity
  8
0
100
AcDbPolyline
 90
        3
 70
     0
 43
0.0
 10
656.1516189763493
 20
3.478656038135682
 10
655.7050369889641
 20
0.5919046921875691
 10
656.1516189763493
 20
-2.294846653760515
  0
LWPOLYLINE
  5
142
330
342
100
AcDbEntity
  8
0
100
AcDbPolyline
 90
        3
 70
     0
 43
0.0
 10
656.1516189763493
 20
-2.294846653760544
 10
655.7050369889641
 20
-3.738222326734643
 10
656.1516189763493
 20
-5.181597999708685
  0
LINE
  5
143
330
342
100
AcDbEntity
  8
0
100
AcDbLine
 10
656.1516189763493
 20
3.478656038135682
 30
0.0
 11
660.142984947741
 21
3.478656038135682
 31
0.0
  0
LWPOLYLINE
  5
144
330
342
100
AcDbEntity
  8
0
100
AcDbPolyline
 90
        3
 70
     0
 43
0.0
 10
656.1516189763493
 20
6.365407384083823
 10
655.7050369889641
 20
4.922031711109752
 10
656.1516189763493
 20
3.478656038135682
  0
LINE
  5
145
330
342
100
AcDbEntity
  8
0
100
AcDbLine
 10
656.1516189763493
 20
6.365407384083823
 30
0.0
 11
660.1429849477409
 21
6.365407384083823
 31
0.0
  0
LWPOLYLINE
  5
146
330
342
100
AcDbEntity
  8
0
100
AcDbPolyline
 90
        3
 70
     0
 43
0.0
 10
660.1429849477409
 20
-5.181597999708685
 10
660.5895669351261
 20
-3.738222326734643
 10
660.142984947741
 20
-2.294846653760544
  0
LWPOLYLINE
  5
147
330
342
100
AcDbEntity
  8
0
100
AcDbPolyline
 90
        3
 70
     0
 43
0.0
 10
660.142984947741
 20
-2.294846653760515
 10
660.5895669351261
 20
0.5919046921875975
 10
660.142984947741
 20
3.478656038135682
  0
LWPOLYLINE
  5
148
330
342
100
AcDbEntity
  8
0
100
AcDbPolyline
 90
        3
 70
     0
 43
0.0
 10
660.142984947741
 20
3.478656038135682
 10
660.5895669351261
 20
4.922031711109752
 10
660.1429849477409
 20
6.365407384083823
  0
LINE
  5
149
330
342
100
AcDbEntity
  8
0
100
AcDbLine
 10
650.447301962045
 20
3.478656038135682
 30
0.0
 11
650.447301962045
 21
-2.294846653760544
 31
0.0
  0
LINE
  5
14A
330
342
100
AcDbEntity
  8
0
100
AcDbLine
 10
655.9473019620451
 20
-2.294846653760544
 30
0.0
 11
655.9473019620451
 21
3.478656038135682
 31
0.0
  0
LINE
  5
14B
330
342
100
AcDbEntity
  8
0
100
AcDbLine
 10
650.447301962045
 20
-2.294846653760572
 30
0.0
 11
650.447301962045
 21
-5.181597999708685
 31
0.0
  0
LINE
  5
14C
330
342
100
AcDbEntity
  8
0
100
AcDbLine
 10
650.447301962045
 20
-2.294846653760544
 30
0.0
 11
655.9473019620451
 21
-2.294846653760544
 31
0.0
  0
LINE
  5
14D
330
342
100
AcDbEntity
  8
0
100
AcDbLine
 10
655.9473019620451
 20
-5.181597999708685
 30
0.0
 11
655.9473019620451
 21
-2.294846653760572
 31
0.0
  0
LINE
  5
14E
330
342
100
AcDbEntity
  8
0
100
AcDbLine
 10
650.447301962045
 20
-5.181597999708685
 30
0.0
 11
655.9473019620451
 21
-5.181597999708685
 31
0.0
  0
LINE
  5
14F
330
342
100
AcDbEntity
  8
0
100
AcDbLine
 10
650.447301962045
 20
3.478656038135682
 30
0.0
 11
655.9473019620451
 21
3.478656038135682
 31
0.0
  0
LINE
  5
150
330
342
100
AcDbEntity
  8
0
100
AcDbLine
 10
650.447301962045
 20
6.365407384083823
 30
0.0
 11
650.447301962045
 21
3.478656038135682
 31
0.0
  0
LINE
  5
151
330
342
100
AcDbEntity
  8
0
100
AcDbLine
 10
650.447301962045
 20
6.365407384083823
 30
0.0
 11
655.9473019620451
 21
6.365407384083823
 31
0.0
  0
LINE
  5
152
330
342
100
AcDbEntity
  8
0
100
AcDbLine
 10
655.9473019620451
 20
3.478656038135682
 30
0.0
 11
655.9473019620451
 21
3.876537883503345
 31
0.0
  0
LINE
  5
153
330
342
100
AcDbEntity
  8
0
100
AcDbLine
 10
655.9473019620451
 20
5.967525538689756
 30
0.0
 11
655.9473019620451
 21
6.365407384083823
 31
0.0
  0
LINE
  5
154
330
342
100
AcDbEntity
  8
0
100
AcDbLine
 10
648.6473019620452
 20
31.59190469218754
 30
0.0
 11
636.6473019620451
 21
31.59190469218754
 31
0.0
  0
LINE
  5
155
330
342
100
AcDbEntity
  8
0
100
AcDbLine
 10
648.6473019620452
 20
-30.40809530781243
 30
0.0
 11
648.6473019620452
 21
31.59190469218754
 31
0.0
  0
LINE
  5
156
330
342
100
AcDbEntity
  8
0
100
AcDbLine
 10
648.6473019620452
 20
-30.40809530781243
 30
0.0
 11
636.6473019620451
 21
-30.40809530781243
 31
0.0
  0
LINE
  5
157
330
342
100
AcDbEntity
  8
0
100
AcDbLine
 10
636.6473019620451
 20
31.59190469218754
 30
0.0
 11
636.6473019620451
 21
-30.40809530781243
 31
0.0
  0
CIRCLE
  5
158
330
342
100
AcDbEntity
  8
0
100
AcDbCircle
 10
-642.6473019620451
 20
-24.40809530781249
 30
0.0
 40
1.649999999999999
210
0.0
220
0.0
230
-1.0
  0
CIRCLE
  5
159
330
342
100
AcDbEntity
  8
0
100
AcDbCircle
 10
-642.6473019620451
 20
25.59190469218751
 30
0.0
 40
1.649999999999999
210
0.0
220
0.0
230
-1.0
  0
LINE
  5
15A
330
342
100
AcDbEntity
  8
0
100
AcDbLine
 10
740.6473019620452
 20
32.59190469218754
 30
0.0
 11
660.6473019620452
 21
32.59190469218756
 31
0.0
  0
LINE
  5
15B
330
342
100
AcDbEntity
  8
0
100
AcDbLine
 10
660.6473019620452
 20
-31.40809530781246
 30
0.0
 11
740.6473019620452
 21
-31.40809530781246
 31
0.0
  0
LINE
  5
15C
330
342
100
AcDbEntity
  8
0
100
AcDbLine
 10
660.6473019620452
 20
-31.00809530781243
 30
0.0
 11
660.6473019620452
 21
-31.40809530781246
 31
0.0
  0
LINE
  5
15D
330
342
100
AcDbEntity
  8
0
100
AcDbLine
 10
660.6473019620452
 20
32.59190469218754
 30
0.0
 11
660.6473019620452
 21
32.19190469218754
 31
0.0
  0
LINE
  5
15E
330
342
100
AcDbEntity
  8
0
100
AcDbLine
 10
660.6473019620452
 20
32.19190469218754
 30
0.0
 11
660.6473019620452
 21
29.09190469218754
 31
0.0
  0
LINE
  5
15F
330
342
100
AcDbEntity
  8
0
100
AcDbLine
 10
660.6473019620452
 20
32.19190469218754
 30
0.0
 11
740.6473019620452
 21
32.19190469218752
 31
0.0
  0
LINE
  5
160
330
342
100
AcDbEntity
  8
0
100
AcDbLine
 10
660.6473019620452
 20
21.09190469218754
 30
0.0
 11
660.6473019620452
 21
-19.90809530781246
 31
0.0
  0
LINE
  5
161
330
342
100
AcDbEntity
  8
0
100
AcDbLine
 10
660.6473019620452
 20
26.79190469218756
 30
0.0
 11
660.6473019620452
 21
28.49190469218758
 31
0.0
  0
LINE
  5
162
330
342
100
AcDbEntity
  8
0
100
AcDbLine
 10
660.6473019620452
 20
28.49190469218758
 30
0.0
 11
740.6473019620452
 21
28.49190469218756
 31
0.0
  0
LINE
  5
163
330
342
100
AcDbEntity
  8
0
100
AcDbLine
 10
660.6473019620452
 20
28.49190469218758
 30
0.0
 11
660.6473019620452
 21
29.09190469218754
 31
0.0
  0
LINE
  5
164
330
342
100
AcDbEntity
  8
0
100
AcDbLine
 10
660.6473019620452
 20
29.09190469218757
 30
0.0
 11
740.6473019620452
 21
29.09190469218756
 31
0.0
  0
LINE
  5
165
330
342
100
AcDbEntity
  8
0
100
AcDbLine
 10
740.6473019620452
 20
21.09190469218757
 30
0.0
 11
660.6473019620452
 21
21.09190469218758
 31
0.0
  0
LINE
  5
166
330
342
100
AcDbEntity
  8
0
100
AcDbLine
 10
660.6473019620452
 20
21.09190469218754
 30
0.0
 11
660.6473019620452
 21
21.69190469218756
 31
0.0
  0
LINE
  5
167
330
342
100
AcDbEntity
  8
0
100
AcDbLine
 10
660.6473019620452
 20
21.69190469218756
 30
0.0
 11
740.6473019620452
 21
21.69190469218755
 31
0.0
  0
LINE
  5
168
330
342
100
AcDbEntity
  8
0
100
AcDbLine
 10
660.6473019620452
 20
21.69190469218756
 30
0.0
 11
660.6473019620452
 21
23.39190469218755
 31
0.0
  0
LINE
  5
169
330
342
100
AcDbEntity
  8
0
100
AcDbLine
 10
660.6473019620452
 20
23.39190469218755
 30
0.0
 11
740.6473019620452
 21
23.39190469218754
 31
0.0
  0
LINE
  5
16A
330
342
100
AcDbEntity
  8
0
100
AcDbLine
 10
660.6473019620452
 20
24.64190469218755
 30
0.0
 11
660.6473019620452
 21
25.54190469218753
 31
0.0
  0
LINE
  5
16B
330
342
100
AcDbEntity
  8
0
100
AcDbLine
 10
660.6473019620452
 20
25.54190469218753
 30
0.0
 11
660.6473019620452
 21
26.79190469218756
 31
0.0
  0
LINE
  5
16C
330
342
100
AcDbEntity
  8
0
100
AcDbLine
 10
660.6473019620452
 20
23.39190469218755
 30
0.0
 11
660.6473019620452
 21
24.64190469218755
 31
0.0
  0
LINE
  5
16D
330
342
100
AcDbEntity
  8
0
100
AcDbLine
 10
660.6473019620452
 20
26.79190469218756
 30
0.0
 11
740.6473019620452
 21
26.79190469218755
 31
0.0
  0
LINE
  5
16E
330
342
100
AcDbEntity
  8
0
100
AcDbLine
 10
740.6473019620452
 20
-31.00809530781243
 30
0.0
 11
660.6473019620452
 21
-31.00809530781243
 31
0.0
  0
LINE
  5
16F
330
342
100
AcDbEntity
  8
0
100
AcDbLine
 10
660.6473019620452
 20
-27.90809530781246
 30
0.0
 11
660.6473019620452
 21
-31.00809530781243
 31
0.0
  0
LINE
  5
170
330
342
100
AcDbEntity
  8
0
100
AcDbLine
 10
660.6473019620452
 20
-22.20809530781244
 30
0.0
 11
660.6473019620452
 21
-20.50809530781243
 31
0.0
  0
LINE
  5
171
330
342
100
AcDbEntity
  8
0
100
AcDbLine
 10
660.6473019620452
 20
-20.50809530781243
 30
0.0
 11
740.6473019620452
 21
-20.50809530781243
 31
0.0
  0
LINE
  5
172
330
342
100
AcDbEntity
  8
0
100
AcDbLine
 10
660.6473019620452
 20
-20.50809530781243
 30
0.0
 11
660.6473019620452
 21
-19.90809530781246
 31
0.0
  0
LINE
  5
173
330
342
100
AcDbEntity
  8
0
100
AcDbLine
 10
660.6473019620452
 20
-19.90809530781246
 30
0.0
 11
740.6473019620452
 21
-19.90809530781246
 31
0.0
  0
LINE
  5
174
330
342
100
AcDbEntity
  8
0
100
AcDbLine
 10
740.6473019620452
 20
-27.90809530781252
 30
0.0
 11
660.6473019620452
 21
-27.90809530781252
 31
0.0
  0
LINE
  5
175
330
342
100
AcDbEntity
  8
0
100
AcDbLine
 10
660.6473019620452
 20
-27.90809530781246
 30
0.0
 11
660.6473019620452
 21
-27.30809530781244
 31
0.0
  0
LINE
  5
176
330
342
100
AcDbEntity
  8
0
100
AcDbLine
 10
660.6473019620452
 20
-27.30809530781244
 30
0.0
 11
740.6473019620452
 21
-27.30809530781244
 31
0.0
  0
LINE
  5
177
330
342
100
AcDbEntity
  8
0
100
AcDbLine
 10
660.6473019620452
 20
-27.30809530781244
 30
0.0
 11
660.6473019620452
 21
-25.60809530781245
 31
0.0
  0
LINE
  5
178
330
342
100
AcDbEntity
  8
0
100
AcDbLine
 10
660.6473019620452
 20
-25.60809530781245
 30
0.0
 11
740.6473019620452
 21
-25.60809530781245
 31
0.0
  0
LINE
  5
179
330
342
100
AcDbEntity
  8
0
100
AcDbLine
 10
660.6473019620452
 20
-24.35809530781245
 30
0.0
 11
660.6473019620452
 21
-23.45809530781247
 31
0.0
  0
LINE
  5
17A
330
342
100
AcDbEntity
  8
0
100
AcDbLine
 10
660.6473019620452
 20
-23.45809530781247
 30
0.0
 11
660.6473019620452
 21
-22.20809530781244
 31
0.0
  0
LINE
  5
17B
330
342
100
AcDbEntity
  8
0
100
AcDbLine
 10
660.6473019620452
 20
-25.60809530781245
 30
0.0
 11
660.6473019620452
 21
-24.35809530781245
 31
0.0
  0
LINE
  5
17C
330
342
100
AcDbEntity
  8
0
100
AcDbLine
 10
740.6473019620452
 20
-20.50809530781243
 30
0.0
 11
740.6473019620452
 21
-22.20809530781244
 31
0.0
  0
LINE
  5
17D
330
342
100
AcDbEntity
  8
0
100
AcDbLine
 10
740.6473019620452
 20
-19.90809530781246
 30
0.0
 11
740.6473019620452
 21
-20.50809530781243
 31
0.0
  0
LINE
  5
17E
330
342
100
AcDbEntity
  8
0
100
AcDbLine
 10
740.6473019620452
 20
21.09190469218754
 30
0.0
 11
740.6473019620452
 21
-19.90809530781246
 31
0.0
  0
LINE
  5
17F
330
342
100
AcDbEntity
  8
0
100
AcDbLine
 10
740.6473019620452
 20
21.69190469218756
 30
0.0
 11
740.6473019620452
 21
21.09190469218754
 31
0.0
  0
LINE
  5
180
330
342
100
AcDbEntity
  8
0
100
AcDbLine
 10
740.6473019620452
 20
23.39190469218755
 30
0.0
 11
740.6473019620452
 21
21.69190469218756
 31
0.0
  0
LINE
  5
181
330
342
100
AcDbEntity
  8
0
100
AcDbLine
 10
740.6473019620452
 20
24.64190469218755
 30
0.0
 11
740.6473019620452
 21
23.39190469218755
 31
0.0
  0
LINE
  5
182
330
342
100
AcDbEntity
  8
0
100
AcDbLine
 10
740.6473019620452
 20
25.54190469218753
 30
0.0
 11
740.6473019620452
 21
24.64190469218755
 31
0.0
  0
LINE
  5
183
330
342
100
AcDbEntity
  8
0
100
AcDbLine
 10
740.6473019620452
 20
26.79190469218756
 30
0.0
 11
740.6473019620452
 21
25.54190469218753
 31
0.0
  0
LINE
  5
184
330
342
100
AcDbEntity
  8
0
100
AcDbLine
 10
740.6473019620452
 20
28.49190469218758
 30
0.0
 11
740.6473019620452
 21
26.79190469218756
 31
0.0
  0
LINE
  5
185
330
342
100
AcDbEntity
  8
0
100
AcDbLine
 10
740.6473019620452
 20
29.09190469218754
 30
0.0
 11
740.6473019620452
 21
28.49190469218758
 31
0.0
  0
LINE
  5
186
330
342
100
AcDbEntity
  8
0
100
AcDbLine
 10
740.6473019620452
 20
32.19190469218754
 30
0.0
 11
740.6473019620452
 21
29.09190469218754
 31
0.0
  0
LINE
  5
187
330
342
100
AcDbEntity
  8
0
100
AcDbLine
 10
740.6473019620452
 20
32.19190469218754
 30
0.0
 11
740.6473019620452
 21
32.59190469218754
 31
0.0
  0
LINE
  5
188
330
342
100
AcDbEntity
  8
0
100
AcDbLine
 10
740.6473019620452
 20
-31.40809530781246
 30
0.0
 11
740.6473019620452
 21
-31.00809530781243
 31
0.0
  0
LINE
  5
189
330
342
100
AcDbEntity
  8
0
100
AcDbLine
 10
740.6473019620452
 20
-27.90809530781246
 30
0.0
 11
740.6473019620452
 21
-31.00809530781243
 31
0.0
  0
LINE
  5
18A
330
342
100
AcDbEntity
  8
0
100
AcDbLine
 10
740.6473019620452
 20
-27.30809530781244
 30
0.0
 11
740.6473019620452
 21
-27.90809530781246
 31
0.0
  0
LINE
  5
18B
330
342
100
AcDbEntity
  8
0
100
AcDbLine
 10
740.6473019620452
 20
-25.60809530781245
 30
0.0
 11
740.6473019620452
 21
-27.30809530781244
 31
0.0
  0
LINE
  5
18C
330
342
100
AcDbEntity
  8
0
100
AcDbLine
 10
740.6473019620452
 20
-24.35809530781245
 30
0.0
 11
740.6473019620452
 21
-25.60809530781245
 31
0.0
  0
LINE
  5
18D
330
342
100
AcDbEntity
  8
0
100
AcDbLine
 10
740.6473019620452
 20
-23.45809530781247
 30
0.0
 11
740.6473019620452
 21
-24.35809530781245
 31
0.0
  0
LINE
  5
18E
330
342
100
AcDbEntity
  8
0
100
AcDbLine
 10
740.6473019620452
 20
-22.20809530781244
 30
0.0
 11
740.6473019620452
 21
-23.45809530781247
 31
0.0
  0
LINE
  5
18F
330
342
100
AcDbEntity
  8
0
100
AcDbLine
 10
660.6473019620452
 20
-22.20809530781244
 30
0.0
 11
740.6473019620452
 21
-22.20809530781244
 31
0.0
  0
CIRCLE
  5
190
330
342
100
AcDbEntity
  8
0
100
AcDbCircle
 10
690.6473019620452
 20
0.5919046921875406
 30
0.0
 40
2.649999999999999
  0
CIRCLE
  5
191
330
342
100
AcDbEntity
  8
0
100
AcDbCircle
 10
-690.6473019620452
 20
0.5919046921875406
 30
0.0
 40
4.75
210
0.0
220
0.0
230
-1.0
  0
CIRCLE
  5
192
330
342
100
AcDbEntity
  8
0
100
AcDbCircle
 10
720.6473019620451
 20
0.5919046921875406
 30
0.0
 40
2.649999999999999
  0
CIRCLE
  5
193
330
342
100
AcDbEntity
  8
0
100
AcDbCircle
 10
-720.6473019620451
 20
0.5919046921875406
 30
0.0
 40
4.75
210
0.0
220
0.0
230
-1.0
  0
LINE
  5
194
330
342
100
AcDbEntity
  8
0
100
AcDbLine
 10
648.6473019620452
 20
-18.40809530781246
 30
0.0
 11
660.6473019620452
 21
-18.40809530781246
 31
0.0
  0
LINE
  5
195
330
342
100
AcDbEntity
  8
0
100
AcDbLine
 10
660.6473019620452
 20
-8.408095307812459
 30
0.0
 11
648.6473019620452
 21
-8.408095307812459
 31
0.0
  0
LINE
  5
196
330
342
100
AcDbEntity
  8
0
100
AcDbLine
 10
648.6473019620452
 20
9.59190469218754
 30
0.0
 11
660.6473019620452
 21
9.59190469218754
 31
0.0
  0
LINE
  5
197
330
342
100
AcDbEntity
  8
0
100
AcDbLine
 10
660.6473019620452
 20
19.59190469218754
 30
0.0
 11
648.6473019620452
 21
19.59190469218754
 31
0.0
  0
LINE
  5
198
330
342
100
AcDbEntity
  8
0
100
AcDbLine
 10
660.1429849477409
 20
-5.181597999708685
 30
0.0
 11
660.6473019620452
 21
-4.308095307812436
 31
0.0
  0
LINE
  5
199
330
342
100
AcDbEntity
  8
0
100
AcDbLine
 10
660.6473019620452
 20
5.491904692187574
 30
0.0
 11
660.142984947741
 21
6.365407384083823
 31
0.0
  0
LINE
  5
19A
330
342
100
AcDbEntity
  8
0
100
AcDbLine
 10
655.9473019620452
 20
-4.827710550083082
 30
0.0
 11
656.1516189763493
 21
-5.181597999708685
 31
0.0
  0
LINE
  5
19B
330
342
100
AcDbEntity
  8
0
100
AcDbLine
 10
656.1516189763493
 20
6.365407384083823
 30
0.0
 11
655.9473019620451
 21
6.01151993445822
 31
0.0
  0
LWPOLYLINE
  5
19D
330
342
100
AcDbEntity
  8
0
100
AcDbPolyline
 90
        2
 70
     0
 43
0.0
 10
656.1516189763493
 20
85.08274133068949
 10
655.9473019620451
 20
85.08274133068951
  0
LWPOLYLINE
  5
19E
330
342
100
AcDbEntity
  8
0
100
AcDbPolyline
 90
        2
 70
     0
 43
0.0
 10
655.7810171154545
 20
91.58274133068955
 10
656.1516189763493
 20
90.08274133068951
  0
LINE
  5
19F
330
342
100
AcDbEntity
  8
0
100
AcDbLine
 10
656.1516189763493
 20
85.08274133068949
 30
0.0
 11
660.142984947741
 21
85.08274133068949
 31
0.0
  0
LWPOLYLINE
  5
1A0
330
342
100
AcDbEntity
  8
0
100
AcDbPolyline
 90
        3
 70
     0
 43
0.0
 10
656.1516189763493
 20
90.08274133068951
 10
655.7050369889641
 20
87.58274133068951
 10
656.1516189763493
 20
85.08274133068946
  0
LINE
  5
1A1
330
342
100
AcDbEntity
  8
0
100
AcDbLine
 10
656.1516189763493
 20
90.08274133068949
 30
0.0
 11
660.1429849477409
 21
90.08274133068949
 31
0.0
  0
LWPOLYLINE
  5
1A2
330
342
100
AcDbEntity
  8
0
100
AcDbPolyline
 90
        2
 70
     0
 43
0.0
 10
660.5895669351261
 20
85.08274133068949
 10
660.142984947741
 20
85.08274133068949
  0
LWPOLYLINE
  5
1A3
330
342
100
AcDbEntity
  8
0
100
AcDbPolyline
 90
        3
 70
     0
 43
0.0
 10
660.142984947741
 20
85.08274133068949
 10
660.5895669351261
 20
87.58274133068951
 10
660.1429849477409
 20
90.08274133068949
  0
LWPOLYLINE
  5
1A4
330
342
100
AcDbEntity
  8
0
100
AcDbPolyline
 90
        2
 70
     0
 43
0.0
 10
660.1429849477409
 20
90.08274133068951
 10
660.5135868074073
 20
91.58274132250117
  0
LINE
  5
1A5
330
342
100
AcDbEntity
  8
0
100
AcDbLine
 10
650.447301962045
 20
91.58274133068948
 30
0.0
 11
650.447301962045
 21
90.08274133068949
 31
0.0
  0
LINE
  5
1A6
330
342
100
AcDbEntity
  8
0
100
AcDbLine
 10
655.9473019620451
 20
90.08274133068949
 30
0.0
 11
655.9473019620451
 21
90.77189290227556
 31
0.0
  0
LINE
  5
1A7
330
342
100
AcDbEntity
  8
0
100
AcDbLine
 10
650.447301962045
 20
85.08274133068949
 30
0.0
 11
655.9473019620451
 21
85.08274133068949
 31
0.0
  0
LINE
  5
1A8
330
342
100
AcDbEntity
  8
0
100
AcDbLine
 10
650.447301962045
 20
90.08274133068949
 30
0.0
 11
650.447301962045
 21
85.08274133068949
 31
0.0
  0
LINE
  5
1A9
330
342
100
AcDbEntity
  8
0
100
AcDbLine
 10
650.447301962045
 20
90.08274133068949
 30
0.0
 11
655.9473019620451
 21
90.08274133068949
 31
0.0
  0
LINE
  5
1AA
330
342
100
AcDbEntity
  8
0
100
AcDbLine
 10
655.9473019620451
 20
85.08274133068949
 30
0.0
 11
655.9473019620451
 21
90.08274133068949
 31
0.0
  0
LINE
  5
1AB
330
342
100
AcDbEntity
  8
0
100
AcDbLine
 10
648.6473019620452
 20
85.08274133068949
 30
0.0
 11
648.6473019620452
 21
108.0827413306895
 31
0.0
  0
LINE
  5
1AC
330
342
100
AcDbEntity
  8
0
100
AcDbLine
 10
636.6473019620451
 20
108.0827413306895
 30
0.0
 11
636.6473019620451
 21
85.08274133068949
 31
0.0
  0
LINE
  5
1AD
330
342
100
AcDbEntity
  8
0
100
AcDbLine
 10
648.6473019620452
 20
108.0827413306895
 30
0.0
 11
636.6473019620451
 21
108.0827413306895
 31
0.0
  0
LINE
  5
1AE
330
342
100
AcDbEntity
  8
0
100
AcDbLine
 10
648.6473019620452
 20
85.08274133068949
 30
0.0
 11
636.6473019620451
 21
85.08274133068949
 31
0.0
  0
LINE
  5
1AF
330
342
100
AcDbEntity
  8
0
100
AcDbLine
 10
732.6473019620451
 20
97.58274133068994
 30
0.0
 11
732.6473019620451
 21
96.58274133068943
 31
0.0
  0
LINE
  5
1B0
330
342
100
AcDbEntity
  8
0
100
AcDbLine
 10
732.6473019620451
 20
96.58274133068957
 30
0.0
 11
732.6473019620451
 21
95.58274133068895
 31
0.0
  0
LINE
  5
1B1
330
342
100
AcDbEntity
  8
0
100
AcDbLine
 10
740.6473019620452
 20
84.48274133068947
 30
0.0
 11
660.6473019620452
 21
84.48274133068947
 31
0.0
  0
LINE
  5
1B2
330
342
100
AcDbEntity
  8
0
100
AcDbLine
 10
740.6473019620452
 20
109.0827413306895
 30
0.0
 11
660.6473019620452
 21
109.0827413306895
 31
0.0
  0
LINE
  5
1B3
330
342
100
AcDbEntity
  8
0
100
AcDbLine
 10
660.6473019620452
 20
108.6827413306895
 30
0.0
 11
740.6473019620452
 21
108.6827413306894
 31
0.0
  0
LINE
  5
1B4
330
342
100
AcDbEntity
  8
0
100
AcDbLine
 10
660.6473019620452
 20
109.0827413306895
 30
0.0
 11
660.6473019620452
 21
108.6827413306895
 31
0.0
  0
LINE
  5
1B5
330
342
100
AcDbEntity
  8
0
100
AcDbLine
 10
660.6473019620452
 20
108.6827413306895
 30
0.0
 11
660.6473019620452
 21
84.48274133068947
 31
0.0
  0
LINE
  5
1B6
330
342
100
AcDbEntity
  8
0
100
AcDbLine
 10
660.6473019620452
 20
84.48274133068947
 30
0.0
 11
660.6473019620452
 21
84.08274133068948
 31
0.0
  0
LINE
  5
1B7
330
342
100
AcDbEntity
  8
0
100
AcDbLine
 10
660.6473019620452
 20
84.08274133068948
 30
0.0
 11
740.6473019620452
 21
84.08274133068948
 31
0.0
  0
LINE
  5
1B8
330
342
100
AcDbEntity
  8
0
100
AcDbLine
 10
740.6473019620452
 20
84.08274133068948
 30
0.0
 11
740.6473019620452
 21
84.48274133068947
 31
0.0
  0
LINE
  5
1B9
330
342
100
AcDbEntity
  8
0
100
AcDbLine
 10
740.6473019620452
 20
108.6827413306895
 30
0.0
 11
740.6473019620452
 21
84.48274133068947
 31
0.0
  0
LINE
  5
1BA
330
342
100
AcDbEntity
  8
0
100
AcDbLine
 10
740.6473019620452
 20
108.6827413306895
 30
0.0
 11
740.6473019620452
 21
109.0827413306895
 31
0.0
  0
CIRCLE
  5
1BB
330
342
100
AcDbEntity
  8
0
100
AcDbCircle
 10
-705.6473019620451
 20
96.5827413306895
 30
0.0
 40
2.149999999999999
210
0.0
220
0.0
230
-1.0
  0
CIRCLE
  5
1BC
330
342
100
AcDbEntity
  8
0
100
AcDbCircle
 10
705.6473019620451
 20
96.5827413306895
 30
0.0
 40
1.0
  0
CIRCLE
  5
1BD
330
342
100
AcDbEntity
  8
0
100
AcDbCircle
 10
-732.6473019620451
 20
96.5827413306895
 30
0.0
 40
2.149999999999999
210
0.0
220
0.0
230
-1.0
  0
CIRCLE
  5
1BE
330
342
100
AcDbEntity
  8
0
100
AcDbCircle
 10
-690.6473019620452
 20
91.83274133068948
 30
0.0
 40
1.649999999999999
210
0.0
220
0.0
230
-1.0
  0
CIRCLE
  5
1BF
330
342
100
AcDbEntity
  8
0
100
AcDbCircle
 10
-720.6473019620451
 20
91.83274133068948
 30
0.0
 40
1.649999999999999
210
0.0
220
0.0
230
-1.0
  0
CIRCLE
  5
1C0
330
342
100
AcDbEntity
  8
0
100
AcDbCircle
 10
-690.6473019620452
 20
101.3327413306895
 30
0.0
 40
1.649999999999999
210
0.0
220
0.0
230
-1.0
  0
CIRCLE
  5
1C1
330
342
100
AcDbEntity
  8
0
100
AcDbCircle
 10
-720.6473019620451
 20
101.3327413306895
 30
0.0
 40
1.649999999999999
210
0.0
220
0.0
230
-1.0
  0
CIRCLE
  5
1C2
330
342
100
AcDbEntity
  8
0
100
AcDbCircle
 10
732.6473019620451
 20
96.5827413306895
 30
0.0
 40
1.0
  0
LINE
  5
1C3
330
342
100
AcDbEntity
  8
0
100
AcDbLine
 10
648.6473019620452
 20
91.58274133068948
 30
0.0
 11
660.6473019620452
 21
91.58274133068948
 31
0.0
  0
LINE
  5
1C4
330
342
100
AcDbEntity
  8
0
100
AcDbLine
 10
660.6473019620452
 20
101.5827413306895
 30
0.0
 11
648.6473019620452
 21
101.5827413306895
 31
0.0
  0
LINE
  5
1C5
330
342
100
AcDbEntity
  8
0
100
AcDbLine
 10
660.5895669351261
 20
85.08274133068949
 30
0.0
 11
660.6473019620452
 21
85.18274133068945
 31
0.0
  0
LINE
  5
1C7
330
342
100
AcDbEntity
  8
0
100
AcDbLine
 10
656.1516189763493
 20
230.544863646587
 30
0.0
 11
660.1429849477409
 21
230.544863646587
 31
0.0
  0
LWPOLYLINE
  5
1C8
330
342
100
AcDbEntity
  8
0
100
AcDbPolyline
 90
        3
 70
     0
 43
0.0
 10
656.1516189763493
 20
230.544863646587
 10
655.7050369889641
 20
229.1014879736129
 10
656.1516189763493
 20
227.6581123006388
  0
LWPOLYLINE
  5
1C9
330
342
100
AcDbEntity
  8
0
100
AcDbPolyline
 90
        3
 70
     0
 43
0.0
 10
656.1516189763493
 20
227.6581123006388
 10
655.7050369889641
 20
224.7713609546908
 10
656.1516189763493
 20
221.8846096087426
  0
LINE
  5
1CA
330
342
100
AcDbEntity
  8
0
100
AcDbLine
 10
656.1516189763493
 20
227.6581123006388
 30
0.0
 11
660.1429849477409
 21
227.6581123006388
 31
0.0
  0
LWPOLYLINE
  5
1CB
330
342
100
AcDbEntity
  8
0
100
AcDbPolyline
 90
        3
 70
     0
 43
0.0
 10
656.1516189763493
 20
221.8846096087426
 10
655.7050369889641
 20
220.4412339357685
 10
656.1516189763493
 20
218.9978582627944
  0
LINE
  5
1CC
330
342
100
AcDbEntity
  8
0
100
AcDbLine
 10
656.1516189763493
 20
221.8846096087426
 30
0.0
 11
660.1429849477409
 21
221.8846096087426
 31
0.0
  0
LINE
  5
1CD
330
342
100
AcDbEntity
  8
0
100
AcDbLine
 10
656.1516189763493
 20
218.9978582627944
 30
0.0
 11
660.1429849477409
 21
218.9978582627944
 31
0.0
  0
LWPOLYLINE
  5
1CE
330
342
100
AcDbEntity
  8
0
100
AcDbPolyline
 90
        3
 70
     0
 43
0.0
 10
660.1429849477409
 20
218.9978582627944
 10
660.5895669351261
 20
220.4412339357685
 10
660.1429849477409
 20
221.8846096087426
  0
LWPOLYLINE
  5
1CF
330
342
100
AcDbEntity
  8
0
100
AcDbPolyline
 90
        3
 70
     0
 43
0.0
 10
660.1429849477409
 20
221.8846096087426
 10
660.5895669351261
 20
224.7713609546908
 10
660.1429849477409
 20
227.6581123006388
  0
LWPOLYLINE
  5
1D0
330
342
100
AcDbEntity
  8
0
100
AcDbPolyline
 90
        3
 70
     0
 43
0.0
 10
660.1429849477409
 20
227.6581123006388
 10
660.5895669351261
 20
229.1014879736129
 10
660.1429849477409
 20
230.544863646587
  0
LINE
  5
1D1
330
342
100
AcDbEntity
  8
0
100
AcDbLine
 10
650.447301962045
 20
230.544863646587
 30
0.0
 11
650.447301962045
 21
227.6581123006389
 31
0.0
  0
LINE
  5
1D2
330
342
100
AcDbEntity
  8
0
100
AcDbLine
 10
650.447301962045
 20
230.544863646587
 30
0.0
 11
655.9473019620451
 21
230.544863646587
 31
0.0
  0
LINE
  5
1D3
330
342
100
AcDbEntity
  8
0
100
AcDbLine
 10
655.9473019620451
 20
227.6581123006389
 30
0.0
 11
655.9473019620451
 21
228.0559941460066
 31
0.0
  0
LINE
  5
1D4
330
342
100
AcDbEntity
  8
0
100
AcDbLine
 10
655.9473019620451
 20
230.1469818011929
 30
0.0
 11
655.9473019620451
 21
230.544863646587
 31
0.0
  0
LINE
  5
1D5
330
342
100
AcDbEntity
  8
0
100
AcDbLine
 10
650.447301962045
 20
227.6581123006388
 30
0.0
 11
650.447301962045
 21
221.8846096087426
 31
0.0
  0
LINE
  5
1D6
330
342
100
AcDbEntity
  8
0
100
AcDbLine
 10
650.447301962045
 20
227.6581123006388
 30
0.0
 11
655.9473019620451
 21
227.6581123006388
 31
0.0
  0
LINE
  5
1D7
330
342
100
AcDbEntity
  8
0
100
AcDbLine
 10
655.9473019620451
 20
221.8846096087426
 30
0.0
 11
655.9473019620451
 21
227.6581123006388
 31
0.0
  0
LINE
  5
1D8
330
342
100
AcDbEntity
  8
0
100
AcDbLine
 10
650.447301962045
 20
221.8846096087426
 30
0.0
 11
650.447301962045
 21
218.9978582627944
 31
0.0
  0
LINE
  5
1D9
330
342
100
AcDbEntity
  8
0
100
AcDbLine
 10
650.447301962045
 20
221.8846096087426
 30
0.0
 11
655.9473019620451
 21
221.8846096087426
 31
0.0
  0
LINE
  5
1DA
330
342
100
AcDbEntity
  8
0
100
AcDbLine
 10
655.9473019620451
 20
218.9978582627944
 30
0.0
 11
655.9473019620451
 21
221.8846096087426
 31
0.0
  0
LINE
  5
1DB
330
342
100
AcDbEntity
  8
0
100
AcDbLine
 10
650.447301962045
 20
218.9978582627944
 30
0.0
 11
655.9473019620451
 21
218.9978582627944
 31
0.0
  0
CIRCLE
  5
1DC
330
342
100
AcDbEntity
  8
0
100
AcDbCircle
 10
-642.6473019620451
 20
238.7713609546907
 30
0.0
 40
3.5
210
0.0
220
0.0
230
-1.0
  0
LINE
  5
1DD
330
342
100
AcDbEntity
  8
0
100
AcDbLine
 10
640.6121422631517
 20
237.5963609546907
 30
0.0
 11
640.6121422631517
 21
239.9463609546907
 31
0.0
  0
LINE
  5
1DE
330
342
100
AcDbEntity
  8
0
100
AcDbLine
 10
640.6121422631517
 20
239.9463609546907
 30
0.0
 11
642.6473019620451
 21
241.1213609546908
 31
0.0
  0
LINE
  5
1DF
330
342
100
AcDbEntity
  8
0
100
AcDbLine
 10
642.6473019620451
 20
241.1213609546908
 30
0.0
 11
644.6824616609385
 21
239.9463609546907
 31
0.0
  0
LINE
  5
1E0
330
342
100
AcDbEntity
  8
0
100
AcDbLine
 10
644.6824616609386
 20
239.9463609546907
 30
0.0
 11
644.6824616609386
 21
237.5963609546907
 31
0.0
  0
LINE
  5
1E1
330
342
100
AcDbEntity
  8
0
100
AcDbLine
 10
644.6824616609386
 20
237.5963609546907
 30
0.0
 11
642.6473019620451
 21
236.4213609546907
 31
0.0
  0
LINE
  5
1E2
330
342
100
AcDbEntity
  8
0
100
AcDbLine
 10
642.6473019620451
 20
236.4213609546907
 30
0.0
 11
640.6121422631517
 21
237.5963609546907
 31
0.0
  0
LINE
  5
1E3
330
342
100
AcDbEntity
  8
0
100
AcDbLine
 10
648.6473019620452
 20
193.7713609546907
 30
0.0
 11
648.6473019620452
 21
255.7713609546908
 31
0.0
  0
LINE
  5
1E4
330
342
100
AcDbEntity
  8
0
100
AcDbLine
 10
648.6473019620452
 20
193.7713609546907
 30
0.0
 11
636.6473019620451
 21
193.7713609546907
 31
0.0
  0
LINE
  5
1E5
330
342
100
AcDbEntity
  8
0
100
AcDbLine
 10
636.6473019620451
 20
255.7713609546908
 30
0.0
 11
636.6473019620451
 21
193.7713609546907
 31
0.0
  0
LINE
  5
1E6
330
342
100
AcDbEntity
  8
0
100
AcDbLine
 10
648.6473019620452
 20
255.7713609546908
 30
0.0
 11
636.6473019620451
 21
255.7713609546908
 31
0.0
  0
CIRCLE
  5
1E7
330
342
100
AcDbEntity
  8
0
100
AcDbCircle
 10
-642.6473019620451
 20
238.7713609546907
 30
0.0
 40
3.399999999999999
210
0.0
220
0.0
230
-1.0
  0
LINE
  5
1EA
330
342
100
AcDbEntity
  8
0
100
AcDbLine
 10
740.6473019620452
 20
196.9713609546907
 30
0.0
 11
660.6473019620452
 21
196.9713609546907
 31
0.0
  0
LINE
  5
1EB
330
342
100
AcDbEntity
  8
0
100
AcDbLine
 10
660.6473019620452
 20
204.2713609546908
 30
0.0
 11
740.6473019620452
 21
204.2713609546908
 31
0.0
  0
LINE
  5
1EC
330
342
100
AcDbEntity
  8
0
100
AcDbLine
 10
660.6473019620452
 20
252.5713609546908
 30
0.0
 11
740.6473019620452
 21
252.5713609546908
 31
0.0
  0
LINE
  5
1ED
330
342
100
AcDbEntity
  8
0
100
AcDbLine
 10
740.6473019620452
 20
245.2713609546908
 30
0.0
 11
660.6473019620452
 21
245.2713609546908
 31
0.0
  0
LINE
  5
1EE
330
342
100
AcDbEntity
  8
0
100
AcDbLine
 10
740.6473019620452
 20
193.1713609546907
 30
0.0
 11
660.6473019620452
 21
193.1713609546907
 31
0.0
  0
LINE
  5
1EF
330
342
100
AcDbEntity
  8
0
100
AcDbLine
 10
660.6473019620452
 20
192.7713609546907
 30
0.0
 11
740.6473019620452
 21
192.7713609546907
 31
0.0
  0
LINE
  5
1F0
330
342
100
AcDbEntity
  8
0
100
AcDbLine
 10
660.6473019620452
 20
256.3713609546908
 30
0.0
 11
660.6473019620452
 21
252.5713609546908
 31
0.0
  0
LINE
  5
1F1
330
342
100
AcDbEntity
  8
0
100
AcDbLine
 10
660.6473019620452
 20
245.2713609546908
 30
0.0
 11
660.6473019620452
 21
252.5713609546908
 31
0.0
  0
LINE
  5
1F2
330
342
100
AcDbEntity
  8
0
100
AcDbLine
 10
660.6473019620452
 20
245.2713609546908
 30
0.0
 11
660.6473019620452
 21
204.2713609546908
 31
0.0
  0
LINE
  5
1F3
330
342
100
AcDbEntity
  8
0
100
AcDbLine
 10
660.6473019620452
 20
196.9713609546907
 30
0.0
 11
660.6473019620452
 21
204.2713609546908
 31
0.0
  0
LINE
  5
1F4
330
342
100
AcDbEntity
  8
0
100
AcDbLine
 10
660.6473019620452
 20
196.9713609546907
 30
0.0
 11
660.6473019620452
 21
193.1713609546907
 31
0.0
  0
LINE
  5
1F5
330
342
100
AcDbEntity
  8
0
100
AcDbLine
 10
660.6473019620452
 20
193.1713609546907
 30
0.0
 11
660.6473019620452
 21
192.7713609546907
 31
0.0
  0
LINE
  5
1F6
330
342
100
AcDbEntity
  8
0
100
AcDbLine
 10
660.6473019620452
 20
256.7713609546907
 30
0.0
 11
660.6473019620452
 21
256.3713609546908
 31
0.0
  0
LINE
  5
1F7
330
342
100
AcDbEntity
  8
0
100
AcDbLine
 10
740.6473019620452
 20
256.7713609546907
 30
0.0
 11
660.6473019620452
 21
256.7713609546907
 31
0.0
  0
LINE
  5
1F8
330
342
100
AcDbEntity
  8
0
100
AcDbLine
 10
660.6473019620452
 20
256.3713609546908
 30
0.0
 11
740.6473019620452
 21
256.3713609546908
 31
0.0
  0
LINE
  5
1F9
330
342
100
AcDbEntity
  8
0
100
AcDbLine
 10
740.6473019620452
 20
192.7713609546907
 30
0.0
 11
740.6473019620452
 21
193.1713609546907
 31
0.0
  0
LINE
  5
1FA
330
342
100
AcDbEntity
  8
0
100
AcDbLine
 10
740.6473019620452
 20
196.9713609546907
 30
0.0
 11
740.6473019620452
 21
193.1713609546907
 31
0.0
  0
LINE
  5
1FB
330
342
100
AcDbEntity
  8
0
100
AcDbLine
 10
740.6473019620452
 20
204.2713609546908
 30
0.0
 11
740.6473019620452
 21
196.9713609546907
 31
0.0
  0
LINE
  5
1FC
330
342
100
AcDbEntity
  8
0
100
AcDbLine
 10
740.6473019620452
 20
245.2713609546908
 30
0.0
 11
740.6473019620452
 21
204.2713609546908
 31
0.0
  0
LINE
  5
1FD
330
342
100
AcDbEntity
  8
0
100
AcDbLine
 10
740.6473019620452
 20
252.5713609546908
 30
0.0
 11
740.6473019620452
 21
245.2713609546908
 31
0.0
  0
LINE
  5
1FE
330
342
100
AcDbEntity
  8
0
100
AcDbLine
 10
740.6473019620452
 20
256.3713609546908
 30
0.0
 11
740.6473019620452
 21
252.5713609546908
 31
0.0
  0
LINE
  5
1FF
330
342
100
AcDbEntity
  8
0
100
AcDbLine
 10
740.6473019620452
 20
256.3713609546908
 30
0.0
 11
740.6473019620452
 21
256.7713609546907
 31
0.0
  0
CIRCLE
  5
200
330
342
100
AcDbEntity
  8
0
100
AcDbCircle
 10
720.6473019620451
 20
224.7713609546908
 30
0.0
 40
2.649999999999999
  0
CIRCLE
  5
201
330
342
100
AcDbEntity
  8
0
100
AcDbCircle
 10
-720.6473019620451
 20
224.7713609546908
 30
0.0
 40
4.75
210
0.0
220
0.0
230
-1.0
  0
CIRCLE
  5
202
330
342
100
AcDbEntity
  8
0
100
AcDbCircle
 10
690.6473019620452
 20
224.7713609546908
 30
0.0
 40
2.649999999999999
  0
CIRCLE
  5
203
330
342
100
AcDbEntity
  8
0
100
AcDbCircle
 10
-690.6473019620452
 20
224.7713609546908
 30
0.0
 40
4.75
210
0.0
220
0.0
230
-1.0
  0
LINE
  5
204
330
342
100
AcDbEntity
  8
0
100
AcDbLine
 10
648.6473019620452
 20
233.7713609546907
 30
0.0
 11
660.6473019620452
 21
233.7713609546907
 31
0.0
  0
LINE
  5
205
330
342
100
AcDbEntity
  8
0
100
AcDbLine
 10
660.6473019620452
 20
243.7713609546908
 30
0.0
 11
648.6473019620452
 21
243.7713609546908
 31
0.0
  0
LINE
  5
206
330
342
100
AcDbEntity
  8
0
100
AcDbLine
 10
648.6473019620452
 20
205.7713609546908
 30
0.0
 11
660.6473019620452
 21
205.7713609546908
 31
0.0
  0
LINE
  5
207
330
342
100
AcDbEntity
  8
0
100
AcDbLine
 10
660.6473019620452
 20
215.7713609546907
 30
0.0
 11
648.6473019620452
 21
215.7713609546907
 31
0.0
  0
LINE
  5
208
330
342
100
AcDbEntity
  8
0
100
AcDbLine
 10
660.1429849477409
 20
218.9978582627944
 30
0.0
 11
660.6473019620452
 21
219.8713609546907
 31
0.0
  0
LINE
  5
209
330
342
100
AcDbEntity
  8
0
100
AcDbLine
 10
660.6473019620452
 20
229.6713609546907
 30
0.0
 11
660.1429849477409
 21
230.544863646587
 31
0.0
  0
LINE
  5
20A
330
342
100
AcDbEntity
  8
0
100
AcDbLine
 10
655.9473019620452
 20
219.3517457124201
 30
0.0
 11
656.1516189763493
 21
218.9978582627944
 31
0.0
  0
LINE
  5
20B
330
342
100
AcDbEntity
  8
0
100
AcDbLine
 10
656.1516189763493
 20
230.544863646587
 30
0.0
 11
655.9473019620451
 21
230.1909761969614
 31
0.0
  0
LINE
  5
20D
330
342
100
AcDbEntity
  8
0
100
AcDbLine
 10
543.399278243307
 20
209.2963609546907
 30
-0.0000000000000053
 11
540.8445033021429
 21
207.8213609546907
 31
-0.0000000000000053
  0
LINE
  5
20E
330
342
100
AcDbEntity
  8
0
100
AcDbLine
 10
543.399278243307
 20
212.2463609546907
 30
-0.0000000000000053
 11
543.399278243307
 21
209.2963609546907
 31
-0.0000000000000053
  0
LINE
  5
20F
330
342
100
AcDbEntity
  8
0
100
AcDbLine
 10
540.8445033021429
 20
213.7213609546908
 30
-0.0000000000000036
 11
543.399278243307
 21
212.2463609546907
 31
-0.0000000000000036
  0
LINE
  5
210
330
342
100
AcDbEntity
  8
0
100
AcDbLine
 10
538.2897283609788
 20
212.2463609546907
 30
-0.0000000000000036
 11
540.844503302143
 21
213.7213609546907
 31
-0.0000000000000036
  0
LINE
  5
211
330
342
100
AcDbEntity
  8
0
100
AcDbLine
 10
538.2897283609788
 20
209.2963609546907
 30
-0.0000000000000036
 11
538.2897283609788
 21
212.2463609546907
 31
-0.0000000000000036
  0
LINE
  5
212
330
342
100
AcDbEntity
  8
0
100
AcDbLine
 10
540.8445033021429
 20
207.8213609546907
 30
-0.0000000000000036
 11
538.2897283609788
 21
209.2963609546908
 31
-0.0000000000000036
  0
CIRCLE
  5
213
330
342
100
AcDbEntity
  8
0
100
AcDbCircle
 10
540.8445033021429
 20
210.7713609546908
 30
-0.0000000000000036
 40
5.0
  0
CIRCLE
  5
214
330
342
100
AcDbEntity
  8
0
100
AcDbCircle
 10
-540.8445033021429
 20
210.7713609546908
 30
0.0000000000000036
 40
4.0
210
0.0
220
0.0
230
-1.0
  0
ARC
  5
215
330
342
100
AcDbEntity
  8
0
100
AcDbCircle
 10
540.844503302143
 20
238.7713609546907
 30
0.0000000000000036
 40
9.0
100
AcDbArc
 50
85.45547432274505
 51
94.54452567725496
  0
ARC
  5
216
330
342
100
AcDbEntity
  8
0
100
AcDbCircle
 10
540.844503302143
 20
210.7713609546908
 30
0.0
 40
9.0
100
AcDbArc
 50
265.4554743227452
 51
274.5445256772548
  0
LINE
  5
217
330
342
100
AcDbEntity
  8
0
100
AcDbLine
 10
552.344503302143
 20
193.7713609546907
 30
0.0000000000000053
 11
529.344503302143
 21
193.7713609546907
 31
0.0000000000000053
  0
LINE
  5
218
330
342
100
AcDbEntity
  8
0
100
AcDbLine
 10
552.344503302143
 20
255.7713609546908
 30
-0.0000000000000018
 11
552.344503302143
 21
193.7713609546907
 31
-0.0000000000000018
  0
LINE
  5
219
330
342
100
AcDbEntity
  8
0
100
AcDbLine
 10
529.344503302143
 20
255.7713609546907
 30
0.0000000000000036
 11
552.344503302143
 21
255.7713609546907
 31
0.0000000000000036
  0
LINE
  5
21A
330
342
100
AcDbEntity
  8
0
100
AcDbLine
 10
529.344503302143
 20
193.7713609546907
 30
-0.0000000000000036
 11
529.344503302143
 21
255.7713609546907
 31
-0.0000000000000036
  0
CIRCLE
  5
21B
330
342
100
AcDbEntity
  8
0
100
AcDbCircle
 10
-540.844503302143
 20
238.7713609546908
 30
0.0
 40
5.0
210
0.0
220
0.0
230
-1.0
  0
CIRCLE
  5
21C
330
342
100
AcDbEntity
  8
0
100
AcDbCircle
 10
-540.844503302143
 20
199.7713609546907
 30
-0.0000000000000018
 40
2.149999999999999
210
0.0
220
0.0
230
-1.0
  0
CIRCLE
  5
21D
330
342
100
AcDbEntity
  8
0
100
AcDbCircle
 10
-540.844503302143
 20
249.7713609546908
 30
-0.0000000000000018
 40
2.149999999999999
210
0.0
220
0.0
230
-1.0
  0
CIRCLE
  5
21E
330
342
100
AcDbEntity
  8
0
100
AcDbCircle
 10
-540.844503302143
 20
210.7713609546908
 30
-0.0000000000000036
 40
5.5
210
0.0
220
0.0
230
-1.0
  0
CIRCLE
  5
21F
330
342
100
AcDbEntity
  8
0
100
AcDbCircle
 10
-540.844503302143
 20
238.7713609546907
 30
-0.0000000000000071
 40
4.5
210
0.0
220
0.0
230
-1.0
  0
LINE
  5
220
330
342
100
AcDbEntity
  8
0
100
AcDbLine
 10
528.344503302143
 20
256.3713609546907
 30
0.0
 11
528.7445033021429
 21
256.7713609546907
 31
0.0
  0
LINE
  5
221
330
342
100
AcDbEntity
  8
0
100
AcDbLine
 10
528.7445033021429
 20
256.7713609546907
 30
0.0
 11
552.9445033021429
 21
256.7713609546907
 31
0.0
  0
LINE
  5
222
330
342
100
AcDbEntity
  8
0
100
AcDbLine
 10
553.344503302143
 20
256.3713609546908
 30
0.0000000000000018
 11
553.344503302143
 21
252.5713609546908
 31
0.0000000000000018
  0
LINE
  5
223
330
342
100
AcDbEntity
  8
0
100
AcDbLine
 10
552.344503302143
 20
252.5713609546908
 30
0.0000000000000018
 11
553.344503302143
 21
252.5713609546908
 31
0.0000000000000018
  0
LINE
  5
224
330
342
100
AcDbEntity
  8
0
100
AcDbLine
 10
553.344503302143
 20
245.2713609546908
 30
0.0
 11
552.344503302143
 21
245.2713609546908
 31
0.0
  0
LINE
  5
225
330
342
100
AcDbEntity
  8
0
100
AcDbLine
 10
553.344503302143
 20
245.2713609546908
 30
0.0
 11
553.344503302143
 21
204.2713609546908
 31
0.0
  0
LINE
  5
226
330
342
100
AcDbEntity
  8
0
100
AcDbLine
 10
552.344503302143
 20
204.2713609546908
 30
-0.0000000000000018
 11
553.344503302143
 21
204.2713609546908
 31
-0.0000000000000018
  0
LINE
  5
227
330
342
100
AcDbEntity
  8
0
100
AcDbLine
 10
553.344503302143
 20
196.9713609546907
 30
0.0000000000000018
 11
552.344503302143
 21
196.9713609546907
 31
0.0000000000000018
  0
LINE
  5
228
330
342
100
AcDbEntity
  8
0
100
AcDbLine
 10
553.344503302143
 20
196.9713609546907
 30
0.0000000000000018
 11
553.344503302143
 21
193.1713609546907
 31
0.0000000000000018
  0
LINE
  5
229
330
342
100
AcDbEntity
  8
0
100
AcDbLine
 10
553.344503302143
 20
193.1713609546907
 30
0.0000000000000018
 11
552.9445033021429
 21
192.7713609546907
 31
0.0000000000000018
  0
LINE
  5
22A
330
342
100
AcDbEntity
  8
0
100
AcDbLine
 10
552.9445033021429
 20
192.7713609546907
 30
0.0000000000000018
 11
528.7445033021429
 21
192.7713609546907
 31
0.0000000000000018
  0
LINE
  5
22B
330
342
100
AcDbEntity
  8
0
100
AcDbLine
 10
528.7445033021429
 20
192.7713609546907
 30
0.0
 11
528.344503302143
 21
193.1713609546907
 31
0.0
  0
LINE
  5
22C
330
342
100
AcDbEntity
  8
0
100
AcDbLine
 10
552.9445033021429
 20
256.7713609546907
 30
0.0000000000000018
 11
553.344503302143
 21
256.3713609546908
 31
0.0000000000000018
  0
LINE
  5
22D
330
342
100
AcDbEntity
  8
0
100
AcDbLine
 10
528.344503302143
 20
193.1713609546907
 30
0.0
 11
528.344503302143
 21
196.2713609546907
 31
0.0
  0
LINE
  5
22E
330
342
100
AcDbEntity
  8
0
100
AcDbLine
 10
528.344503302143
 20
204.2713609546908
 30
0.0
 11
528.344503302143
 21
245.2713609546908
 31
0.0
  0
LINE
  5
22F
330
342
100
AcDbEntity
  8
0
100
AcDbLine
 10
528.6445033021429
 20
198.5713609546907
 30
0.0
 11
528.6445033021429
 21
196.8713609546907
 31
0.0
  0
LINE
  5
230
330
342
100
AcDbEntity
  8
0
100
AcDbLine
 10
528.6445033021429
 20
196.8713609546907
 30
0.0
 11
528.344503302143
 21
196.2713609546907
 31
0.0
  0
LINE
  5
231
330
342
100
AcDbEntity
  8
0
100
AcDbLine
 10
528.3445033021429
 20
204.2713609546908
 30
0.0
 11
528.6445033021429
 21
203.6713609546907
 31
0.0
  0
LINE
  5
232
330
342
100
AcDbEntity
  8
0
100
AcDbLine
 10
528.6445033021429
 20
203.6713609546907
 30
0.0
 11
528.6445033021429
 21
201.9713609546907
 31
0.0
  0
LINE
  5
233
330
342
100
AcDbEntity
  8
0
100
AcDbLine
 10
528.6445033021429
 20
201.9713609546907
 30
0.0
 11
529.144503302143
 21
201.9713609546907
 31
0.0
  0
LINE
  5
234
330
342
100
AcDbEntity
  8
0
100
AcDbLine
 10
529.144503302143
 20
201.9713609546907
 30
0.0
 11
529.344503302143
 21
202.1513609546907
 31
0.0
  0
LINE
  5
235
330
342
100
AcDbEntity
  8
0
100
AcDbLine
 10
529.144503302143
 20
198.5713609546907
 30
0.0
 11
528.6445033021429
 21
198.5713609546907
 31
0.0
  0
LINE
  5
236
330
342
100
AcDbEntity
  8
0
100
AcDbLine
 10
529.344503302143
 20
198.3913609546907
 30
0.0
 11
529.144503302143
 21
198.5713609546907
 31
0.0
  0
LINE
  5
237
330
342
100
AcDbEntity
  8
0
100
AcDbLine
 10
528.344503302143
 20
253.2713609546907
 30
0.0
 11
528.344503302143
 21
256.3713609546907
 31
0.0
  0
LINE
  5
238
330
342
100
AcDbEntity
  8
0
100
AcDbLine
 10
528.6445033021429
 20
247.5713609546907
 30
-0.0000000000000018
 11
528.6445033021429
 21
245.8713609546907
 31
-0.0000000000000018
  0
LINE
  5
239
330
342
100
AcDbEntity
  8
0
100
AcDbLine
 10
528.6445033021429
 20
245.8713609546907
 30
0.0000000000000018
 11
528.344503302143
 21
245.2713609546908
 31
0.0000000000000018
  0
LINE
  5
23A
330
342
100
AcDbEntity
  8
0
100
AcDbLine
 10
528.344503302143
 20
253.2713609546907
 30
0.0
 11
528.6445033021429
 21
252.6713609546907
 31
0.0
  0
LINE
  5
23B
330
342
100
AcDbEntity
  8
0
100
AcDbLine
 10
528.6445033021429
 20
252.6713609546907
 30
0.0
 11
528.6445033021429
 21
250.9713609546907
 31
0.0
  0
LINE
  5
23C
330
342
100
AcDbEntity
  8
0
100
AcDbLine
 10
528.6445033021429
 20
250.9713609546907
 30
0.0
 11
529.144503302143
 21
250.9713609546907
 31
0.0
  0
LINE
  5
23D
330
342
100
AcDbEntity
  8
0
100
AcDbLine
 10
529.144503302143
 20
250.9713609546907
 30
0.0
 11
529.344503302143
 21
251.1513609546907
 31
0.0
  0
LINE
  5
23E
330
342
100
AcDbEntity
  8
0
100
AcDbLine
 10
529.144503302143
 20
247.5713609546907
 30
-0.0000000000000018
 11
528.6445033021429
 21
247.5713609546907
 31
-0.0000000000000018
  0
LINE
  5
23F
330
342
100
AcDbEntity
  8
0
100
AcDbLine
 10
529.344503302143
 20
247.3913609546907
 30
0.0000000000000018
 11
529.144503302143
 21
247.5713609546907
 31
0.0000000000000018
  0
ARC
  5
240
330
342
100
AcDbEntity
  8
0
100
AcDbCircle
 10
-540.844503302143
 20
210.7713609546908
 30
0.0
 40
10.5
210
0.0
220
0.0
230
-1.0
100
AcDbArc
 50
270.0
 51
281.1656494012051
  0
ARC
  5
241
330
342
100
AcDbEntity
  8
0
100
AcDbCircle
 10
-540.844503302143
 20
210.7713609546908
 30
0.0
 40
10.5
210
0.0
220
0.0
230
-1.0
100
AcDbArc
 50
258.8343505064959
 51
270.0000000000007
  0
ARC
  5
242
330
342
100
AcDbEntity
  8
0
100
AcDbCircle
 10
-540.844503302143
 20
238.7713609546907
 30
-0.0000000000000036
 40
10.5
210
0.0
220
0.0
230
-1.0
100
AcDbArc
 50
78.83435052288056
 51
101.1656494771194
  0
ARC
  5
244
330
342
100
AcDbEntity
  8
0
100
AcDbCircle
 10
-800.5283776493733
 20
235.2215337731005
 30
0.0
 40
1.5
210
0.0
220
0.0
230
-1.0
100
AcDbArc
 50
29.53670257695675
 51
75.21529019524482
  0
LINE
  5
245
330
342
100
AcDbEntity
  8
0
100
AcDbLine
 10
802.5509291563405
 20
237.3067008218411
 30
0.0
 11
800.145596042007
 21
236.6718710583766
 31
0.0
  0
ARC
  5
246
330
342
100
AcDbEntity
  8
0
100
AcDbCircle
 10
802.9337107637068
 20
235.8563635365649
 30
0.0
 40
1.5
100
AcDbArc
 50
314.7981914460573
 51
104.7847098047548
  0
LINE
  5
247
330
342
100
AcDbEntity
  8
0
100
AcDbLine
 10
803.3665253483791
 20
234.1722519850854
 30
0.0
 11
803.9906284814898
 21
234.7919740693885
 31
0.0
  0
ARC
  5
248
330
342
100
AcDbEntity
  8
0
100
AcDbCircle
 10
-804.4234430661623
 20
233.1078625179091
 30
0.0
 40
1.5
210
0.0
220
0.0
230
-1.0
100
AcDbArc
 50
310.9629967102827
 51
45.20180855394275
  0
ARC
  5
249
330
342
100
AcDbEntity
  8
0
100
AcDbCircle
 10
-809.3402291563407
 20
238.7713609546907
 30
0.0
 40
9.0
210
0.0
220
0.0
230
-1.0
100
AcDbArc
 50
48.95796844000471
 51
310.9629967102834
  0
ARC
  5
24A
330
342
100
AcDbEntity
  8
0
100
AcDbCircle
 10
-804.4156354127808
 20
244.4280717004237
 30
0.0
 40
1.5
210
0.0
220
0.0
230
-1.0
100
AcDbArc
 50
315.2018085539435
 51
48.95796844000496
  0
LINE
  5
24B
330
342
100
AcDbEntity
  8
0
100
AcDbLine
 10
804.0089886700744
 20
242.7087614271383
 30
0.0
 11
803.3512459456044
 21
243.3711539826405
 31
0.0
  0
ARC
  5
24C
330
342
100
AcDbEntity
  8
0
100
AcDbCircle
 10
802.9445992028982
 20
241.6518437093552
 30
0.0
 40
1.5
100
AcDbArc
 50
254.7847098047556
 51
44.79819144605808
  0
LINE
  5
24D
330
342
100
AcDbEntity
  8
0
100
AcDbLine
 10
800.1302929312757
 20
240.8627899953596
 30
0.0
 11
802.5509291563405
 21
240.2044239725673
 31
0.0
  0
CIRCLE
  5
24E
330
342
100
AcDbEntity
  8
0
100
AcDbCircle
 10
-802.9337107637068
 20
235.8563635365649
 30
0.0
 40
0.5
210
0.0
220
0.0
230
-1.0
  0
CIRCLE
  5
24F
330
342
100
AcDbEntity
  8
0
100
AcDbCircle
 10
-802.9445992028982
 20
241.6518437093552
 30
0.0
 40
0.5
210
0.0
220
0.0
230
-1.0
  0
ARC
  5
250
330
342
100
AcDbEntity
  8
0
100
AcDbCircle
 10
-800.5239629778332
 20
242.3102097321475
 30
0.0
 40
1.5
210
0.0
220
0.0
230
-1.0
100
AcDbArc
 50
285.2152901952447
 51
330.3919323286477
  0
ARC
  5
251
330
342
100
AcDbEntity
  8
0
100
AcDbCircle
 10
-800.5283776493733
 20
207.2215337731004
 30
0.0
 40
1.5
210
0.0
220
0.0
230
-1.0
100
AcDbArc
 50
29.53670257695675
 51
75.21529019524482
  0
LINE
  5
252
330
342
100
AcDbEntity
  8
0
100
AcDbLine
 10
802.5509291563405
 20
209.3067008218411
 30
0.0
 11
800.145596042007
 21
208.6718710583766
 31
0.0
  0
ARC
  5
253
330
342
100
AcDbEntity
  8
0
100
AcDbCircle
 10
802.9337107637068
 20
207.8563635365649
 30
0.0
 40
1.5
100
AcDbArc
 50
314.7981914460573
 51
104.7847098047548
  0
LINE
  5
254
330
342
100
AcDbEntity
  8
0
100
AcDbLine
 10
803.3665253483791
 20
206.1722519850854
 30
0.0
 11
803.9906284814898
 21
206.7919740693886
 31
0.0
  0
ARC
  5
255
330
342
100
AcDbEntity
  8
0
100
AcDbCircle
 10
-804.4234430661623
 20
205.1078625179091
 30
0.0
 40
1.5
210
0.0
220
0.0
230
-1.0
100
AcDbArc
 50
310.9629967102827
 51
45.20180855394275
  0
ARC
  5
256
330
342
100
AcDbEntity
  8
0
100
AcDbCircle
 10
-809.3402291563407
 20
210.7713609546908
 30
0.0
 40
9.0
210
0.0
220
0.0
230
-1.0
100
AcDbArc
 50
48.95796844000471
 51
310.9629967102834
  0
ARC
  5
257
330
342
100
AcDbEntity
  8
0
100
AcDbCircle
 10
-804.4156354127808
 20
216.4280717004237
 30
0.0
 40
1.5
210
0.0
220
0.0
230
-1.0
100
AcDbArc
 50
315.2018085539435
 51
48.95796844000496
  0
LINE
  5
258
330
342
100
AcDbEntity
  8
0
100
AcDbLine
 10
804.0089886700744
 20
214.7087614271383
 30
0.0
 11
803.3512459456044
 21
215.3711539826406
 31
0.0
  0
ARC
  5
259
330
342
100
AcDbEntity
  8
0
100
AcDbCircle
 10
802.9445992028982
 20
213.6518437093553
 30
0.0
 40
1.5
100
AcDbArc
 50
254.7847098047556
 51
44.79819144605808
  0
LINE
  5
25A
330
342
100
AcDbEntity
  8
0
100
AcDbLine
 10
800.1302929312757
 20
212.8627899953595
 30
0.0
 11
802.5509291563405
 21
212.2044239725673
 31
0.0
  0
CIRCLE
  5
25B
330
342
100
AcDbEntity
  8
0
100
AcDbCircle
 10
-802.9337107637068
 20
207.8563635365649
 30
0.0
 40
0.5
210
0.0
220
0.0
230
-1.0
  0
CIRCLE
  5
25C
330
342
100
AcDbEntity
  8
0
100
AcDbCircle
 10
-802.9445992028982
 20
213.6518437093553
 30
0.0
 40
0.5
210
0.0
220
0.0
230
-1.0
  0
ARC
  5
25D
330
342
100
AcDbEntity
  8
0
100
AcDbCircle
 10
-800.5239629778332
 20
214.3102097321475
 30
0.0
 40
1.5
210
0.0
220
0.0
230
-1.0
100
AcDbArc
 50
285.2152901952447
 51
330.3919323286477
  0
LINE
  5
25E
330
342
100
AcDbEntity
  8
0
100
AcDbLine
 10
797.8402291563407
 20
196.9713609546907
 30
0.0
 11
797.8402291563407
 21
204.2713609546908
 31
0.0
  0
LINE
  5
25F
330
342
100
AcDbEntity
  8
0
100
AcDbLine
 10
797.8402291563407
 20
245.2713609546908
 30
0.0
 11
797.8402291563407
 21
252.5713609546908
 31
0.0
  0
LINE
  5
260
330
342
100
AcDbEntity
  8
0
100
AcDbLine
 10
820.8402291563407
 20
251.1513609546907
 30
0.0
 11
820.8402291563407
 21
247.3913609546908
 31
0.0
  0
LINE
  5
261
330
342
100
AcDbEntity
  8
0
100
AcDbLine
 10
820.8402291563407
 20
202.1513609546907
 30
0.0
 11
820.8402291563407
 21
198.3913609546907
 31
0.0
  0
ARC
  5
262
330
342
100
AcDbEntity
  8
0
100
AcDbCircle
 10
-809.3402291563407
 20
238.7713609546907
 30
0.0
 40
10.3
210
0.0
220
0.0
230
-1.0
100
AcDbArc
 50
345.4126146351485
 51
14.51602027045584
  0
ARC
  5
263
330
342
100
AcDbEntity
  8
0
100
AcDbCircle
 10
-809.3402291563407
 20
210.7713609546908
 30
0.0
 40
10.3
210
0.0
220
0.0
230
-1.0
100
AcDbArc
 50
345.4126146351485
 51
14.51602027045584
  0
LINE
  5
264
330
342
100
AcDbEntity
  8
0
100
AcDbLine
 10
821.5402291563405
 20
245.8713609546907
 30
0.0
 11
821.5402291563405
 21
247.5713609546907
 31
0.0
  0
LINE
  5
265
330
342
100
AcDbEntity
  8
0
100
AcDbLine
 10
821.8402291563407
 20
245.2713609546908
 30
0.0
 11
821.5402291563405
 21
245.8713609546907
 31
0.0
  0
LINE
  5
266
330
342
100
AcDbEntity
  8
0
100
AcDbLine
 10
821.8402291563407
 20
204.2713609546908
 30
0.0
 11
821.8402291563407
 21
245.2713609546908
 31
0.0
  0
LINE
  5
267
330
342
100
AcDbEntity
  8
0
100
AcDbLine
 10
821.5402291563405
 20
203.6713609546907
 30
0.0
 11
821.8402291563407
 21
204.2713609546908
 31
0.0
  0
LINE
  5
268
330
342
100
AcDbEntity
  8
0
100
AcDbLine
 10
821.5402291563405
 20
201.9713609546907
 30
0.0
 11
821.5402291563405
 21
203.6713609546907
 31
0.0
  0
LINE
  5
269
330
342
100
AcDbEntity
  8
0
100
AcDbLine
 10
821.0402291563406
 20
201.9713609546907
 30
0.0
 11
821.5402291563405
 21
201.9713609546907
 31
0.0
  0
LINE
  5
26A
330
342
100
AcDbEntity
  8
0
100
AcDbLine
 10
820.5402291563405
 20
202.4213609546907
 30
0.0
 11
821.0402291563406
 21
201.9713609546907
 31
0.0
  0
LINE
  5
26B
330
342
100
AcDbEntity
  8
0
100
AcDbLine
 10
818.1402291563406
 20
202.4213609546907
 30
0.0
 11
820.5402291563405
 21
202.4213609546907
 31
0.0
  0
ARC
  5
26C
330
342
100
AcDbEntity
  8
0
100
AcDbCircle
 10
-818.1402291563406
 20
200.7213609546907
 30
0.0
 40
1.699999999999999
210
0.0
220
0.0
230
-1.0
100
AcDbArc
 50
0.0
 51
90.0
  0
LINE
  5
26D
330
342
100
AcDbEntity
  8
0
100
AcDbLine
 10
816.4402291563405
 20
199.8213609546907
 30
0.0
 11
816.4402291563405
 21
200.7213609546907
 31
0.0
  0
ARC
  5
26E
330
342
100
AcDbEntity
  8
0
100
AcDbCircle
 10
-818.1402291563406
 20
199.8213609546907
 30
0.0
 40
1.699999999999999
210
0.0
220
0.0
230
-1.0
100
AcDbArc
 50
270.0
 51
0.0
  0
LINE
  5
26F
330
342
100
AcDbEntity
  8
0
100
AcDbLine
 10
820.5402291563405
 20
198.1213609546907
 30
0.0
 11
818.1402291563406
 21
198.1213609546907
 31
0.0
  0
LINE
  5
270
330
342
100
AcDbEntity
  8
0
100
AcDbLine
 10
821.0402291563406
 20
198.5713609546907
 30
0.0
 11
820.5402291563405
 21
198.1213609546907
 31
0.0
  0
LINE
  5
271
330
342
100
AcDbEntity
  8
0
100
AcDbLine
 10
821.5402291563405
 20
198.5713609546907
 30
0.0
 11
821.0402291563406
 21
198.5713609546907
 31
0.0
  0
LINE
  5
272
330
342
100
AcDbEntity
  8
0
100
AcDbLine
 10
821.5402291563405
 20
196.8713609546907
 30
0.0
 11
821.5402291563405
 21
198.5713609546907
 31
0.0
  0
LINE
  5
273
330
342
100
AcDbEntity
  8
0
100
AcDbLine
 10
821.8402291563407
 20
196.2713609546907
 30
0.0
 11
821.5402291563407
 21
196.8713609546907
 31
0.0
  0
LINE
  5
274
330
342
100
AcDbEntity
  8
0
100
AcDbLine
 10
821.8402291563407
 20
193.1713609546907
 30
0.0
 11
821.8402291563407
 21
196.2713609546907
 31
0.0
  0
LINE
  5
275
330
342
100
AcDbEntity
  8
0
100
AcDbLine
 10
821.8402291563407
 20
193.1713609546907
 30
0.0
 11
821.4402291563406
 21
192.7713609546907
 31
0.0
  0
LINE
  5
276
330
342
100
AcDbEntity
  8
0
100
AcDbLine
 10
797.2402291563406
 20
192.7713609546907
 30
0.0
 11
821.4402291563406
 21
192.7713609546907
 31
0.0
  0
LINE
  5
277
330
342
100
AcDbEntity
  8
0
100
AcDbLine
 10
797.2402291563406
 20
192.7713609546907
 30
0.0
 11
796.8402291563407
 21
193.1713609546907
 31
0.0
  0
LINE
  5
278
330
342
100
AcDbEntity
  8
0
100
AcDbLine
 10
796.8402291563407
 20
196.9713609546907
 30
0.0
 11
796.8402291563407
 21
193.1713609546907
 31
0.0
  0
LINE
  5
279
330
342
100
AcDbEntity
  8
0
100
AcDbLine
 10
798.6402291563406
 20
196.9713609546907
 30
0.0
 11
796.8402291563407
 21
196.9713609546907
 31
0.0
  0
LINE
  5
27A
330
342
100
AcDbEntity
  8
0
100
AcDbLine
 10
798.6402291563406
 20
195.2713609546907
 30
0.0
 11
798.6402291563406
 21
196.9713609546907
 31
0.0
  0
LINE
  5
27B
330
342
100
AcDbEntity
  8
0
100
AcDbLine
 10
799.8402291563406
 20
195.2713609546907
 30
0.0
 11
798.6402291563406
 21
195.2713609546907
 31
0.0
  0
LINE
  5
27C
330
342
100
AcDbEntity
  8
0
100
AcDbLine
 10
799.8402291563406
 20
204.2713609546908
 30
0.0
 11
799.8402291563406
 21
195.2713609546907
 31
0.0
  0
LINE
  5
27D
330
342
100
AcDbEntity
  8
0
100
AcDbLine
 10
796.8402291563407
 20
204.2713609546908
 30
0.0
 11
799.8402291563406
 21
204.2713609546908
 31
0.0
  0
LINE
  5
27E
330
342
100
AcDbEntity
  8
0
100
AcDbLine
 10
796.8402291563407
 20
245.2713609546908
 30
0.0
 11
796.8402291563407
 21
204.2713609546908
 31
0.0
  0
LINE
  5
27F
330
342
100
AcDbEntity
  8
0
100
AcDbLine
 10
799.8402291563406
 20
245.2713609546908
 30
0.0
 11
796.8402291563407
 21
245.2713609546908
 31
0.0
  0
LINE
  5
280
330
342
100
AcDbEntity
  8
0
100
AcDbLine
 10
799.8402291563406
 20
254.2713609546908
 30
0.0
 11
799.8402291563406
 21
245.2713609546908
 31
0.0
  0
LINE
  5
281
330
342
100
AcDbEntity
  8
0
100
AcDbLine
 10
798.6402291563406
 20
254.2713609546908
 30
0.0
 11
799.8402291563406
 21
254.2713609546908
 31
0.0
  0
LINE
  5
282
330
342
100
AcDbEntity
  8
0
100
AcDbLine
 10
798.6402291563406
 20
252.5713609546908
 30
0.0
 11
798.6402291563406
 21
254.2713609546908
 31
0.0
  0
LINE
  5
283
330
342
100
AcDbEntity
  8
0
100
AcDbLine
 10
796.8402291563407
 20
252.5713609546908
 30
0.0
 11
798.6402291563406
 21
252.5713609546908
 31
0.0
  0
LINE
  5
284
330
342
100
AcDbEntity
  8
0
100
AcDbLine
 10
796.8402291563407
 20
256.3713609546908
 30
0.0
 11
796.8402291563407
 21
252.5713609546908
 31
0.0
  0
LINE
  5
285
330
342
100
AcDbEntity
  8
0
100
AcDbLine
 10
796.8402291563407
 20
256.3713609546908
 30
0.0
 11
797.2402291563406
 21
256.7713609546907
 31
0.0
  0
LINE
  5
286
330
342
100
AcDbEntity
  8
0
100
AcDbLine
 10
821.4402291563406
 20
256.7713609546907
 30
0.0
 11
797.2402291563406
 21
256.7713609546907
 31
0.0
  0
LINE
  5
287
330
342
100
AcDbEntity
  8
0
100
AcDbLine
 10
821.4402291563406
 20
256.7713609546907
 30
0.0
 11
821.8402291563407
 21
256.3713609546907
 31
0.0
  0
LINE
  5
288
330
342
100
AcDbEntity
  8
0
100
AcDbLine
 10
821.8402291563407
 20
253.2713609546907
 30
0.0
 11
821.8402291563407
 21
256.3713609546907
 31
0.0
  0
LINE
  5
289
330
342
100
AcDbEntity
  8
0
100
AcDbLine
 10
821.5402291563405
 20
252.6713609546907
 30
0.0
 11
821.8402291563407
 21
253.2713609546907
 31
0.0
  0
LINE
  5
28A
330
342
100
AcDbEntity
  8
0
100
AcDbLine
 10
821.5402291563405
 20
250.9713609546907
 30
0.0
 11
821.5402291563405
 21
252.6713609546907
 31
0.0
  0
LINE
  5
28B
330
342
100
AcDbEntity
  8
0
100
AcDbLine
 10
821.0402291563406
 20
250.9713609546907
 30
0.0
 11
821.5402291563405
 21
250.9713609546907
 31
0.0
  0
LINE
  5
28C
330
342
100
AcDbEntity
  8
0
100
AcDbLine
 10
820.5402291563405
 20
251.4213609546907
 30
0.0
 11
821.0402291563406
 21
250.9713609546907
 31
0.0
  0
LINE
  5
28D
330
342
100
AcDbEntity
  8
0
100
AcDbLine
 10
818.1402291563406
 20
251.4213609546907
 30
0.0
 11
820.5402291563405
 21
251.4213609546907
 31
0.0
  0
ARC
  5
28E
330
342
100
AcDbEntity
  8
0
100
AcDbCircle
 10
-818.1402291563406
 20
249.7213609546907
 30
0.0
 40
1.699999999999999
210
0.0
220
0.0
230
-1.0
100
AcDbArc
 50
0.0
 51
90.0
  0
LINE
  5
28F
330
342
100
AcDbEntity
  8
0
100
AcDbLine
 10
816.4402291563405
 20
248.8213609546908
 30
0.0
 11
816.4402291563405
 21
249.7213609546907
 31
0.0
  0
ARC
  5
290
330
342
100
AcDbEntity
  8
0
100
AcDbCircle
 10
-818.1402291563406
 20
248.8213609546908
 30
0.0
 40
1.699999999999999
210
0.0
220
0.0
230
-1.0
100
AcDbArc
 50
270.0
 51
0.0
  0
LINE
  5
291
330
342
100
AcDbEntity
  8
0
100
AcDbLine
 10
820.5402291563405
 20
247.1213609546907
 30
0.0
 11
818.1402291563406
 21
247.1213609546907
 31
0.0
  0
LINE
  5
292
330
342
100
AcDbEntity
  8
0
100
AcDbLine
 10
821.5402291563405
 20
247.5713609546907
 30
0.0
 11
821.0402291563406
 21
247.5713609546907
 31
0.0
  0
LINE
  5
293
330
342
100
AcDbEntity
  8
0
100
AcDbLine
 10
821.0402291563406
 20
247.5713609546907
 30
0.0
 11
820.5402291563405
 21
247.1213609546907
 31
0.0
  0
CIRCLE
  5
294
330
342
100
AcDbEntity
  8
0
100
AcDbCircle
 10
-809.3402291563407
 20
210.7713609546908
 30
0.0
 40
10.5
210
0.0
220
0.0
230
-1.0
  0
CIRCLE
  5
295
330
342
100
AcDbEntity
  8
0
100
AcDbCircle
 10
-809.3402291563407
 20
238.7713609546907
 30
0.0
 40
10.5
210
0.0
220
0.0
230
-1.0
  0
LINE
  5
7B0
330
342
100
AcDbEntity
  8
0
  6
CENTER
 62
     1
100
AcDbLine
 10
642.6111764056884
 20
252.3943508590708
 30
0.0
 11
642.6111764056884
 21
247.1409368628408
 31
0.0
  0
LINE
  5
7CE
330
342
100
AcDbEntity
  8
0
  6
CENTER
 62
     1
100
AcDbLine
 10
639.8135283812377
 20
249.7713609546908
 30
0.0
 11
645.5411139373645
 21
249.7713609546908
 31
0.0
  0
ARC
  5
7D7
330
342
100
AcDbEntity
  8
0
 62
     3
100
AcDbCircle
 10
642.6111764056884
 20
249.7713609546907
 30
0.0
 40
2.0
100
AcDbArc
 50
280.0
 51
190.0
  0
CIRCLE
  5
7D8
330
342
100
AcDbEntity
  8
0
100
AcDbCircle
 10
642.6111764056884
 20
249.7713609546908
 30
0.0
 40
1.649999999999999
  0
LINE
  5
7DA
330
342
100
AcDbEntity
  8
0
  6
CENTER
 62
     1
100
AcDbLine
 10
639.8135283812377
 20
199.7713609546907
 30
0.0
 11
645.5411139373645
 21
199.7713609546907
 31
0.0
  0
LINE
  5
7DB
330
342
100
AcDbEntity
  8
0
  6
CENTER
 62
     1
100
AcDbLine
 10
642.6111764056884
 20
197.1483710503107
 30
0.0
 11
642.6111764056884
 21
202.4017850465407
 31
0.0
  0
ARC
  5
7DC
330
342
100
AcDbEntity
  8
0
 62
     3
100
AcDbCircle
 10
642.6111764056884
 20
199.7713609546908
 30
0.0
 40
2.0
100
AcDbArc
 50
170.0
 51
80.00000000000003
  0
CIRCLE
  5
7DD
330
342
100
AcDbEntity
  8
0
100
AcDbCircle
 10
642.6111764056884
 20
199.7713609546907
 30
0.0
 40
1.649999999999999
  0
ARC
  5
7E7
330
342
100
AcDbEntity
  8
0
 62
     3
100
AcDbCircle
 10
540.844503302143
 20
199.7713609546907
 30
0.0
 40
2.5
100
AcDbArc
 50
280.0
 51
190.0
  0
ARC
  5
7E8
330
342
100
AcDbEntity
  8
0
 62
     3
100
AcDbCircle
 10
540.844503302143
 20
249.7713609546908
 30
0.0
 40
2.5
100
AcDbArc
 50
170.0
 51
80.00000000000003
  0
ARC
  5
7E9
330
342
100
AcDbEntity
  8
0
 62
     3
100
AcDbCircle
 10
732.6473019620451
 20
96.58274133068955
 30
0.0
 40
2.5
100
AcDbArc
 50
280.0
 51
190.0
  0
ARC
  5
7EA
330
342
100
AcDbEntity
  8
0
 62
     3
100
AcDbCircle
 10
705.6473019620451
 20
96.58274133068946
 30
0.0
 40
2.5
100
AcDbArc
 50
280.0
 51
190.0
  0
ARC
  5
7EC
330
342
100
AcDbEntity
  8
0
 62
     3
100
AcDbCircle
 10
720.6473019620451
 20
101.3290242369545
 30
0.0
 40
2.0
100
AcDbArc
 50
170.0
 51
80.00000000000003
  0
ARC
  5
7ED
330
342
100
AcDbEntity
  8
0
 62
     3
100
AcDbCircle
 10
720.6473019620451
 20
91.82902423695455
 30
0.0
 40
2.0
100
AcDbArc
 50
170.0
 51
80.00000000000003
  0
ARC
  5
7EE
330
342
100
AcDbEntity
  8
0
 62
     3
100
AcDbCircle
 10
690.6473019620452
 20
91.82902423695455
 30
0.0
 40
2.0
100
AcDbArc
 50
170.0
 51
80.00000000000003
  0
ARC
  5
7EF
330
342
100
AcDbEntity
  8
0
 62
     3
100
AcDbCircle
 10
690.6473019620452
 20
101.3290242369545
 30
0.0
 40
2.0
100
AcDbArc
 50
170.0
 51
80.00000000000003
  0
LINE
  5
7F0
330
342
100
AcDbEntity
  8
0
  6
CENTER
 62
     1
100
AcDbLine
 10
687.5787549099641
 20
101.3290242369545
 30
0.0
 11
693.5846112516981
 21
101.3290242369545
 31
0.0
  0
LINE
  5
7F2
330
342
100
AcDbEntity
  8
0
  6
CENTER
 62
     1
100
AcDbLine
 10
690.6473019620452
 20
103.7093712401658
 30
0.0
 11
690.6473019620452
 21
98.68088573692217
 31
0.0
  0
LINE
  5
805
330
342
100
AcDbEntity
  8
0
  6
CENTER
 62
     1
100
AcDbLine
 10
687.5787549099641
 20
91.82530714321961
 30
0.0
 11
693.5846112516981
 21
91.82530714321961
 31
0.0
  0
LINE
  5
806
330
342
100
AcDbEntity
  8
0
  6
CENTER
 62
     1
100
AcDbLine
 10
690.6473019620452
 20
94.20565414643093
 30
0.0
 11
690.6473019620452
 21
89.17716864318723
 31
0.0
  0
LINE
  5
807
330
342
100
AcDbEntity
  8
0
  6
CENTER
 62
     1
100
AcDbLine
 10
717.5787549099641
 20
101.3253071432196
 30
0.0
 11
723.5846112516981
 21
101.3253071432196
 31
0.0
  0
LINE
  5
808
330
342
100
AcDbEntity
  8
0
  6
CENTER
 62
     1
100
AcDbLine
 10
720.6473019620451
 20
103.7056541464309
 30
0.0
 11
720.6473019620451
 21
98.67716864318722
 31
0.0
  0
LINE
  5
809
330
342
100
AcDbEntity
  8
0
  6
CENTER
 62
     1
100
AcDbLine
 10
717.5787549099641
 20
91.82902423695455
 30
0.0
 11
723.5846112516981
 21
91.82902423695455
 31
0.0
  0
LINE
  5
80A
330
342
100
AcDbEntity
  8
0
  6
CENTER
 62
     1
100
AcDbLine
 10
720.6473019620451
 20
94.20937124016587
 30
0.0
 11
720.6473019620451
 21
89.18088573692216
 31
0.0
  0
LINE
  5
80B
330
342
100
AcDbEntity
  8
0
  6
CENTER
 62
     1
100
AcDbLine
 10
639.8496539375945
 20
25.59190469218754
 30
0.0
 11
645.5772394937213
 21
25.59190469218754
 31
0.0
  0
LINE
  5
80C
330
342
100
AcDbEntity
  8
0
  6
CENTER
 62
     1
100
AcDbLine
 10
642.6473019620451
 20
28.21489459656755
 30
0.0
 11
642.6473019620451
 21
22.96148060033761
 31
0.0
  0
ARC
  5
80D
330
342
100
AcDbEntity
  8
0
 62
     3
100
AcDbCircle
 10
642.6473019620451
 20
25.59190469218751
 30
0.0
 40
2.0
100
AcDbArc
 50
280.0
 51
190.0
  0
CIRCLE
  5
80E
330
342
100
AcDbEntity
  8
0
100
AcDbCircle
 10
642.6473019620451
 20
25.59190469218754
 30
0.0
 40
1.649999999999999
  0
LINE
  5
80F
330
342
100
AcDbEntity
  8
0
  6
CENTER
 62
     1
100
AcDbLine
 10
639.8496539375945
 20
-24.40809530781246
 30
0.0
 11
645.5772394937213
 21
-24.40809530781246
 31
0.0
  0
LINE
  5
810
330
342
100
AcDbEntity
  8
0
  6
CENTER
 62
     1
100
AcDbLine
 10
642.6473019620451
 20
-21.78510540343245
 30
0.0
 11
642.6473019620451
 21
-27.03851939966239
 31
0.0
  0
ARC
  5
811
330
342
100
AcDbEntity
  8
0
 62
     3
100
AcDbCircle
 10
642.6473019620451
 20
-24.40809530781249
 30
0.0
 40
2.0
100
AcDbArc
 50
280.0
 51
190.0
  0
LINE
  5
B0C
330
342
100
AcDbEntity
  8
LOGO
 62
     4
100
AcDbLine
 10
844.3437145062599
 20
-67.73274925983731
 30
0.0
 11
490.4032576362608
 21
-67.73274925983731
 31
0.0
  0
LWPOLYLINE
  5
B0D
330
342
100
AcDbEntity
  8
LOGO
 62
     4
100
AcDbPolyline
 90
        4
 70
     1
 43
0.0
 10
490.4032576362608
 20
-67.73274925983788
 10
844.3437145062599
 20
-67.73274925983788
 10
844.3437145062599
 20
351.9446316728552
 10
490.4032576362608
 20
351.9446316728552
1001
GENIUS_GENREC_14
1002
{
1000
PYDIR
1011
490.4032576362608
1021
351.9446316728552
1031
0.0
1002
}
1002
{
1000
PXDIR
1011
844.3437145062599
1021
-67.73274925983788
1031
0.0
1002
}
1002
{
1000
PORI
1011
490.4032576362608
1021
-67.73274925983788
1031
0.0
1002
}
1002
{
1000
PINS
1011
490.4032576362608
1021
-67.73274925983788
1031
0.0
1002
}
1002
{
1000
PINS2
1011
844.3437145062599
1021
351.9446316728552
1031
0.0
1002
}
1002
{
1000
C
1070
     1
1002
}
1001
GENIUS_GENODEF_13
1002
{
1000
HIER
1070
     0
1002
}
1002
{
1000
MANEDIT
1070
     0
1002
}
1002
{
1000
NOSEL
1070
     0
1002
}
1002
{
1000
BEHIND
1070
     0
1002
}
1002
{
1000
OTHER
1070
     0
1002
}
1002
{
1000
REACTOR
1002
}
1001
GENIUS_GENOBJ-N-REC_13
1002
{
1000
OWNER
1000
GEN
1002
}
  0
LWPOLYLINE
  5
B0E
330
342
100
AcDbEntity
  8
LOGO
 62
     4
100
AcDbPolyline
 90
        4
 70
     1
 43
0.0
 10
490.4032576362608
 20
-67.73274925983788
 10
844.3437145062599
 20
-67.73274925983788
 10
844.3437145062599
 20
-103.1216700171442
 10
490.4032576362608
 20
-103.1216700171442
1001
GENIUS_GENREC_14
1002
{
1000
PYDIR
1011
490.4032576362608
1021
-103.1216700171442
1031
0.0
1002
}
1002
{
1000
PXDIR
1011
844.3437145062599
1021
-67.73274925983788
1031
0.0
1002
}
1002
{
1000
PORI
1011
490.4032576362608
1021
-67.73274925983788
1031
0.0
1002
}
1002
{
1000
PINS
1011
490.4032576362608
1021
-67.73274925983788
1031
0.0
1002
}
1002
{
1000
PINS2
1011
844.3437145062599
1021
-103.1216700171442
1031
0.0
1002
}
1002
{
1000
C
1070
     1
1002
}
1001
GENIUS_GENOBJ-N-REC_13
1002
{
1000
OWNER
1000
GEN
1002
}
1001
GENIUS_GENODEF_13
1002
{
1000
HIER
1070
     0
1002
}
1002
{
1000
MANEDIT
1070
     0
1002
}
1002
{
1000
NOSEL
1070
     0
1002
}
1002
{
1000
BEHIND
1070
     0
1002
}
1002
{
1000
OTHER
1070
     0
1002
}
1002
{
1000
REACTOR
1002
}
  0
TEXT
  5
B0F
330
342
100
AcDbEntity
  8
LOGO
 62
     7
100
AcDbText
 10
570.3090974491869
 20
-83.23603324966967
 30
0.0
 40
4.718522767641035
  1
Order example:
 41
0.8
  7
chineset
100
AcDbText
  0
TEXT
  5
B10
330
342
100
AcDbEntity
  8
LOGO
 62
     7
100
AcDbText
 10
571.1556394542976
 20
-76.5933301754358
 30
0.0
 40
7.077784151461552
  1
訂購代號：
  7
chineset
100
AcDbText
  0
LINE
  5
B11
330
342
100
AcDbEntity
  8
LOGO
 62
     4
100
AcDbLine
 10
568.2588833023381
 20
-103.1216700171448
 30
0.0
 11
568.2588833023381
 21
-67.73274925983731
 31
0.0
  0
TEXT
  5
B12
330
342
100
AcDbEntity
  8
LOGO
  6
Continuous
100
AcDbText
 10
503.115117048562
 20
-96.16956994090953
 30
0.0
 40
5.308338113596166
  1
金器工業股份有限公司
  7
chineset
100
AcDbText
  0
TEXT
  5
B13
330
342
100
AcDbEntity
  8
LOGO
  6
Continuous
100
AcDbText
 10
493.3647501367902
 20
-101.4789480725864
 30
0.0
 40
3.538892075730776
  1
MINDMAN INDUSTRIAL CO., LTD.
 41
0.85
  7
chineset
100
AcDbText
  0
LINE
  5
B14
330
342
100
AcDbEntity
  8
LOGO
 62
     4
100
AcDbLine
 10
568.2588833023381
 20
-74.81053341129871
 30
0.0
 11
516.3551328582842
 21
-74.81053341129871
 31
0.0
  0
LINE
  5
B15
330
342
100
AcDbEntity
  8
LOGO
 62
     4
100
AcDbLine
 10
568.2588833023381
 20
-81.88831756276011
 30
0.0
 11
516.3551328582842
 21
-81.88831756276011
 31
0.0
  0
LINE
  5
B16
330
342
100
AcDbEntity
  8
LOGO
 62
     4
100
AcDbLine
 10
568.2588833023381
 20
-88.96610171422151
 30
0.0
 11
490.4032576362608
 21
-88.96610171422151
 31
0.0
  0
LINE
  5
B17
330
342
100
AcDbEntity
  8
LOGO
 62
     4
100
AcDbLine
 10
516.3551328582842
 20
-88.96610171422151
 30
0.0
 11
516.3551328582842
 21
-67.73274925983731
 31
0.0
  0
TEXT
  5
B18
330
342
100
AcDbEntity
  8
LOGO
100
AcDbText
 10
551.8288964670893
 20
-87.19665567635649
 30
0.0
 40
3.538892075730776
  1
mm
  7
chineset
 72
     1
 11
556.2103818941846
 21
-85.42720963849109
 31
0.0
100
AcDbText
 73
     2
  0
TEXT
  5
B19
330
342
100
AcDbEntity
  8
LOGO
100
AcDbText
 10
549.9751910940875
 20
-73.04108737343309
 30
0.0
 40
3.538892075730776
  1
1 : 1
  7
chineset
 72
     1
 11
556.2103818941846
 21
-71.27164133556769
 31
0.0
100
AcDbText
 73
     2
  0
LINE
  5
B1A
330
342
100
AcDbEntity
  8
LOGO
 62
     4
100
AcDbLine
 10
544.6662694641332
 20
-88.96610171422151
 30
0.0
 11
544.6662694641332
 21
-67.73274925983731
 31
0.0
  0
CIRCLE
  5
B1B
330
342
100
AcDbEntity
  8
LOGO
  6
Continuous
100
AcDbCircle
 10
551.2189707799709
 20
-78.34185577098222
 30
0.0
 40
2.054764035299076
  0
CIRCLE
  5
B1C
330
342
100
AcDbEntity
  8
LOGO
  6
Continuous
100
AcDbCircle
 10
551.2189707799709
 20
-78.34185577098222
 30
0.0
 40
1.203909826716755
  0
LINE
  5
B1D
330
342
100
AcDbEntity
  8
LOGO
100
AcDbLine
 10
564.1313464025272
 20
-80.39661980628176
 30
0.0
 11
564.1313464025272
 21
-76.28709173568324
 31
0.0
  0
LINE
  5
B1E
330
342
100
AcDbEntity
  8
LOGO
100
AcDbLine
 10
557.6897791009469
 20
-79.54576559769939
 30
0.0
 11
557.6897791009469
 21
-77.13794594426561
 31
0.0
  0
LINE
  5
B1F
330
342
100
AcDbEntity
  8
LOGO
  6
Continuous
100
AcDbLine
 10
557.6897791009469
 20
-77.13794594426561
 30
0.0
 11
564.1313464025272
 21
-76.28709173568324
 31
0.0
  0
LINE
  5
B20
330
342
100
AcDbEntity
  8
LOGO
  6
Continuous
100
AcDbLine
 10
557.6897791009469
 20
-79.54576559769939
 30
0.0
 11
564.1313464025272
 21
-80.39661980628176
 31
0.0
  0
TEXT
  5
B21
330
342
100
AcDbEntity
  8
LOGO
100
AcDbText
 10
519.2731389582292
 20
-73.03934579268716
 30
231.933156659276
 40
3.538892075730776
  1
比例 Scale:
 41
0.9
  7
chineset
 72
     4
 11
530.5107011612083
 21
-71.27164133556769
 31
231.933156659276
100
AcDbText
  0
TEXT
  5
B22
330
342
100
AcDbEntity
  8
LOGO
100
AcDbText
 10
519.069336691368
 20
-80.06909134190722
 30
231.933156659276
 40
3.538892075730776
  1
投影  View:
 41
0.9
  7
chineset
 72
     4
 11
530.5107011612083
 21
-78.34942548702968
 31
231.933156659276
100
AcDbText
  0
TEXT
  5
B23
330
342
100
AcDbEntity
  8
LOGO
100
AcDbText
 10
519.415326586272
 20
-87.19665567635649
 30
231.933156659276
 40
3.538892075730776
  1
單位  Unit:
 41
0.9
  7
chineset
 72
     4
 11
530.5107011612083
 21
-85.42720963849109
 31
231.933156659276
100
AcDbText
  0
SOLID
  5
B24
330
342
100
AcDbEntity
  8
LOGO
 62
     5
100
AcDbTrace
 10
494.0749149597274
 20
-83.08319735994022
 30
0.0
 11
495.6050390327464
 21
-83.0831973599408
 31
0.0
 12
501.989349820166
 22
-68.57340011580456
 32
0.0
 13
503.5194738931851
 23
-68.57340011580572
 33
0.0
  0
SOLID
  5
B25
330
342
100
AcDbEntity
  8
LOGO
 62
     5
100
AcDbTrace
 10
496.2381938215829
 20
-83.08319735994022
 30
0.0
 11
497.7683178946007
 21
-83.08319735994022
 31
0.0
 12
503.5194738931851
 22
-69.73418389533659
 32
0.0
 13
501.989349820166
 23
-75.34463882973551
 33
0.0
  0
SOLID
  5
B26
330
342
100
AcDbEntity
  8
LOGO
 62
     2
100
AcDbTrace
 10
495.6050390327464
 20
-83.0831973599408
 30
0.0
 11
496.2381938215829
 21
-83.08319735994022
 31
0.0
 12
503.5194738931851
 22
-68.57340011580572
 32
0.0
 13
504.1526286820205
 23
-68.57340011580572
 33
0.0
  0
SOLID
  5
B27
330
342
100
AcDbEntity
  8
LOGO
 62
     5
100
AcDbTrace
 10
491.6217508382943
 20
-88.35948726689839
 30
0.0
 11
492.1493798289922
 21
-88.35948726689839
 31
0.0
 12
493.6352241341479
 22
-85.7213423134196
 32
0.0
 13
494.1628531248435
 23
-85.7213423134196
 33
0.0
  0
SOLID
  5
B28
330
342
100
AcDbEntity
  8
LOGO
 62
     5
100
AcDbTrace
 10
493.6352241341479
 20
-85.7213423134196
 30
0.0
 11
494.1628531248435
 21
-85.7213423134196
 31
0.0
 12
493.6352241341479
 22
-88.35948726689839
 32
0.0
 13
494.1628531248435
 23
-88.35948726689839
 33
0.0
  0
SOLID
  5
B29
330
342
100
AcDbEntity
  8
LOGO
 62
     5
100
AcDbTrace
 10
493.6352241341479
 20
-88.35948726689839
 30
0.0
 11
494.1628531248435
 21
-88.35948726689839
 31
0.0
 12
495.6486974300041
 22
-85.7213423134196
 32
0.0
 13
496.1763264206995
 23
-85.7213423134196
 33
0.0
  0
SOLID
  5
B2A
330
342
100
AcDbEntity
  8
LOGO
 62
     5
100
AcDbTrace
 10
495.6486974300041
 20
-85.7213423134196
 30
0.0
 11
496.1763264206995
 21
-85.7213423134196
 31
0.0
 12
495.6486974300041
 22
-88.35948726689839
 32
0.0
 13
496.1763264206995
 23
-88.35948726689839
 33
0.0
  0
POLYLINE
  5
B2B
330
342
100
AcDbEntity
  8
LOGO
 62
     5
100
AcDb2dPolyline
 66
     1
 10
0.0
 20
0.0
 30
0.0
 40
0.5284745499757959
 41
0.5284745499757959
  0
VERTEX
  5
B2C
330
B2B
100
AcDbEntity
  8
LOGO
 62
     5
100
AcDbVertex
100
AcDb2dVertex
 10
513.3346414590471
 20
-86.77660029481121
 30
0.0
 42
1.0
  0
VERTEX
  5
B2D
330
B2B
100
AcDbEntity
  8
LOGO
 62
     5
100
AcDbVertex
100
AcDb2dVertex
 10
511.7492178091189
 20
-86.77660029481121
 30
0.0
 42
1.0
  0
SEQEND
  5
B2E
330
B2B
100
AcDbEntity
  8
LOGO
 62
     5
  0
POLYLINE
  5
B2F
330
342
100
AcDbEntity
  8
LOGO
 62
     5
100
AcDb2dPolyline
 66
     1
 10
0.0
 20
0.0
 30
0.0
 70
     1
  0
VERTEX
  5
B30
330
B2F
100
AcDbEntity
  8
LOGO
 62
     5
100
AcDbVertex
100
AcDb2dVertex
 10
508.7606237093614
 20
-87.04041479015957
 30
0.0
 42
1.000000057330635
  0
VERTEX
  5
B31
330
B2F
100
AcDbEntity
  8
LOGO
 62
     5
100
AcDbVertex
100
AcDb2dVertex
 10
510.343510681448
 20
-87.04041479015957
 30
0.0
 42
1.000000057330635
  0
SEQEND
  5
B32
330
B2F
100
AcDbEntity
  8
LOGO
 62
     5
  0
CIRCLE
  5
B33
330
342
100
AcDbEntity
  8
LOGO
 62
     5
100
AcDbCircle
 10
509.5520671954052
 20
-87.04041479015957
 30
0.0
 40
0.7914434860437522
  0
POLYLINE
  5
B34
330
342
100
AcDbEntity
  8
LOGO
 62
     5
100
AcDb2dPolyline
 66
     1
 10
0.0
 20
0.0
 30
0.0
 70
     1
 40
0.5284745499757959
 41
0.5284745499757959
  0
VERTEX
  5
B35
330
B34
100
AcDbEntity
  8
LOGO
 62
     5
100
AcDbVertex
100
AcDb2dVertex
 10
508.4951180954555
 20
-87.04041479015957
 30
0.0
 42
1.0
  0
VERTEX
  5
B36
330
B34
100
AcDbEntity
  8
LOGO
 62
     5
100
AcDbVertex
100
AcDb2dVertex
 10
510.6090162953574
 20
-87.04041479015957
 30
0.0
 42
1.0
  0
SEQEND
  5
B37
330
B34
100
AcDbEntity
  8
LOGO
 62
     5
  0
LINE
  5
B38
330
342
100
AcDbEntity
  8
LOGO
100
AcDbLine
 10
513.5971876154747
 20
-88.35948726689839
 30
0.0
 11
513.5971876154747
 21
-86.77660029481121
 31
0.0
  0
SOLID
  5
B39
330
342
100
AcDbEntity
  8
LOGO
 62
     5
100
AcDbTrace
 10
510.3434579185517
 20
-85.7213423134196
 30
0.0
 11
510.8710869092472
 21
-85.7213423134196
 31
0.0
 12
510.3434579185517
 22
-88.35948726689839
 32
0.0
 13
510.8710869092472
 23
-88.35948726689839
 33
0.0
  0
SOLID
  5
B3A
330
342
100
AcDbEntity
  8
LOGO
 62
     5
100
AcDbTrace
 10
511.4866716526913
 20
-88.35948726689839
 30
0.0
 11
512.0143006433868
 21
-88.35948726689839
 31
0.0
 12
511.4866716526913
 22
-85.7213423134196
 32
0.0
 13
512.0143006433868
 23
-85.7213423134196
 33
0.0
  0
SOLID
  5
B3B
330
342
100
AcDbEntity
  8
LOGO
 62
     5
100
AcDbTrace
 10
513.0695586247803
 20
-86.77660029481121
 30
0.0
 11
513.5971876154747
 21
-86.77660029481121
 31
0.0
 12
513.0695586247803
 22
-88.35948726689839
 32
0.0
 13
513.5971876154747
 23
-88.35948726689839
 33
0.0
  0
SOLID
  5
B3C
330
342
100
AcDbEntity
  8
LOGO
 62
     5
100
AcDbTrace
 10
511.4339087536214
 20
-69.73418389533659
 30
0.0
 11
509.9037846806047
 21
-75.34463882973551
 31
0.0
 12
511.4339087536214
 22
-83.0831973599408
 32
0.0
 13
509.9037846806047
 23
-83.0831973599408
 33
0.0
  0
SOLID
  5
B3D
330
342
100
AcDbEntity
  8
LOGO
 62
     5
100
AcDbTrace
 10
512.0670635424568
 20
-83.0831973599408
 30
0.0
 11
513.5971876154747
 21
-83.0831973599408
 31
0.0
 12
512.0670635424568
 22
-68.57340011580572
 32
0.0
 13
513.5971876154747
 23
-68.57340011580456
 33
0.0
  0
SOLID
  5
B3E
330
342
100
AcDbEntity
  8
LOGO
 62
     2
100
AcDbTrace
 10
511.4339087536214
 20
-68.57340011580456
 30
0.0
 11
512.0670635424568
 21
-68.57340011580572
 31
0.0
 12
511.4339087536214
 22
-83.0831973599408
 32
0.0
 13
512.0670635424568
 23
-83.0831973599408
 33
0.0
  0
POLYLINE
  5
B3F
330
342
100
AcDbEntity
  8
LOGO
 62
     5
100
AcDb2dPolyline
 66
     1
 10
0.0
 20
0.0
 30
0.0
 40
0.5284745499757959
 41
0.5284745499757959
  0
VERTEX
  5
B40
330
B3F
100
AcDbEntity
  8
LOGO
 62
     5
100
AcDbVertex
100
AcDb2dVertex
 10
505.771924083809
 20
-86.77660029481121
 30
0.0
 42
1.0
  0
VERTEX
  5
B41
330
B3F
100
AcDbEntity
  8
LOGO
 62
     5
100
AcDbVertex
100
AcDb2dVertex
 10
504.1865004338797
 20
-86.77660029481121
 30
0.0
 42
1.0
  0
SEQEND
  5
B42
330
B3F
100
AcDbEntity
  8
LOGO
 62
     5
  0
POLYLINE
  5
B43
330
342
100
AcDbEntity
  8
LOGO
 62
     5
100
AcDb2dPolyline
 66
     1
 10
0.0
 20
0.0
 30
0.0
 40
0.5284745499757959
 41
0.5284745499757959
  0
VERTEX
  5
B44
330
B43
100
AcDbEntity
  8
LOGO
 62
     5
100
AcDbVertex
100
AcDb2dVertex
 10
507.3548110558956
 20
-86.77660029481121
 30
0.0
 42
1.0
  0
VERTEX
  5
B45
330
B43
100
AcDbEntity
  8
LOGO
 62
     5
100
AcDbVertex
100
AcDb2dVertex
 10
505.7693874059664
 20
-86.77660029481121
 30
0.0
 42
1.0
  0
SEQEND
  5
B46
330
B43
100
AcDbEntity
  8
LOGO
 62
     5
  0
POLYLINE
  5
B47
330
342
100
AcDbEntity
  8
LOGO
 62
     5
100
AcDb2dPolyline
 66
     1
 10
0.0
 20
0.0
 30
0.0
 40
0.5284745499757959
 41
0.5284745499757959
  0
VERTEX
  5
B48
330
B47
100
AcDbEntity
  8
LOGO
 62
     5
100
AcDbVertex
100
AcDb2dVertex
 10
499.7920936806529
 20
-86.77660029481121
 30
0.0
 42
1.0
  0
VERTEX
  5
B49
330
B47
100
AcDbEntity
  8
LOGO
 62
     5
100
AcDbVertex
100
AcDb2dVertex
 10
498.2066700307283
 20
-86.77660029481121
 30
0.0
 42
1.0
  0
SEQEND
  5
B4A
330
B47
100
AcDbEntity
  8
LOGO
 62
     5
  0
SOLID
  5
B4B
330
342
100
AcDbEntity
  8
LOGO
 62
     5
100
AcDbTrace
 10
497.9441238742996
 20
-85.7213423134196
 30
0.0
 11
498.4717528649951
 21
-85.7213423134196
 31
0.0
 12
497.9441238742996
 22
-88.35948726689839
 32
0.0
 13
498.4717528649951
 23
-88.35948726689839
 33
0.0
  0
SOLID
  5
B4C
330
342
100
AcDbEntity
  8
LOGO
 62
     5
100
AcDbTrace
 10
499.5270108463873
 20
-86.77660029481121
 30
0.0
 11
500.054639837084
 21
-86.77660029481121
 31
0.0
 12
499.5270108463873
 22
-88.35948726689839
 32
0.0
 13
500.054639837084
 23
-88.35948726689839
 33
0.0
  0
POLYLINE
  5
B4D
330
342
100
AcDbEntity
  8
LOGO
 62
     5
100
AcDb2dPolyline
 66
     1
 10
0.0
 20
0.0
 30
0.0
 70
     1
 40
0.5284745499757959
 41
0.5284745499757959
  0
VERTEX
  5
B4E
330
B4D
100
AcDbEntity
  8
LOGO
 62
     5
100
AcDbVertex
100
AcDb2dVertex
 10
500.932400720214
 20
-87.04041479015957
 30
0.0
 42
1.0
  0
VERTEX
  5
B4F
330
B4D
100
AcDbEntity
  8
LOGO
 62
     5
100
AcDbVertex
100
AcDb2dVertex
 10
503.0462989201193
 20
-87.04041479015957
 30
0.0
 42
1.0
  0
SEQEND
  5
B50
330
B4D
100
AcDbEntity
  8
LOGO
 62
     5
  0
SOLID
  5
B51
330
342
100
AcDbEntity
  8
LOGO
 62
     5
100
AcDbTrace
 10
502.7807405433114
 20
-84.92989882737573
 30
0.0
 11
503.3083695340069
 21
-84.92989882737573
 31
0.0
 12
502.7807405433114
 22
-88.35948726689839
 32
0.0
 13
503.3083695340069
 23
-88.35948726689839
 33
0.0
  0
SOLID
  5
B52
330
342
100
AcDbEntity
  8
LOGO
 62
     5
100
AcDbTrace
 10
503.9239542774534
 20
-85.7213423134196
 30
0.0
 11
504.4515832681488
 21
-85.7213423134196
 31
0.0
 12
503.9239542774534
 22
-88.35948726689839
 32
0.0
 13
504.4515832681488
 23
-88.35948726689839
 33
0.0
  0
SOLID
  5
B53
330
342
100
AcDbEntity
  8
LOGO
 62
     5
100
AcDbTrace
 10
505.5068412495399
 20
-86.77660029481121
 30
0.0
 11
506.0344702402343
 21
-86.77660029481121
 31
0.0
 12
505.5068412495399
 22
-88.35948726689839
 32
0.0
 13
506.0344702402343
 23
-88.35948726689839
 33
0.0
  0
SOLID
  5
B54
330
342
100
AcDbEntity
  8
LOGO
 62
     5
100
AcDbTrace
 10
507.0897282216253
 20
-86.77660029481121
 30
0.0
 11
507.617357212322
 21
-86.77660029481121
 31
0.0
 12
507.0897282216253
 22
-88.35948726689952
 32
0.0
 13
507.617357212322
 23
-88.35948726689952
 33
0.0
  0
SOLID
  5
B55
330
342
100
AcDbEntity
  8
LOGO
 62
     5
100
AcDbTrace
 10
496.8009101401587
 20
-85.3520020199326
 30
0.0
 11
497.3285391308555
 21
-85.3520020199326
 31
0.0
 12
496.8009101401587
 22
-84.92989882737573
 32
0.0
 13
497.3285391308555
 23
-84.92989882737573
 33
0.0
  0
SOLID
  5
B56
330
342
100
AcDbEntity
  8
LOGO
 62
     5
100
AcDbTrace
 10
496.8009101401587
 20
-85.7213423134196
 30
0.0
 11
497.3285391308555
 21
-85.7213423134196
 31
0.0
 12
496.8009101401587
 22
-88.35948726689952
 32
0.0
 13
497.3285391308555
 23
-88.35948726689839
 33
0.0
  0
SOLID
  5
B57
330
342
100
AcDbEntity
  8
LOGO
 62
     5
100
AcDbTrace
 10
501.989349820166
 20
-83.08319735994022
 30
0.0
 11
503.5194738931851
 21
-83.08319735994022
 31
0.0
 12
501.989349820166
 22
-75.34463882973551
 32
0.0
 13
503.5194738931851
 23
-69.73418389533659
 33
0.0
  0
SOLID
  5
B58
330
342
100
AcDbEntity
  8
LOGO
 62
     5
100
AcDbTrace
 10
504.1526286820205
 20
-68.57340011580572
 30
0.0
 11
505.682752755037
 21
-68.57340011580456
 31
0.0
 12
504.1526286820205
 22
-81.92241358040936
 32
0.0
 13
505.682752755037
 23
-76.31195864601043
 33
0.0
  0
SOLID
  5
B59
330
342
100
AcDbEntity
  8
LOGO
 62
     2
100
AcDbTrace
 10
503.5194738931851
 20
-68.57340011580572
 30
0.0
 11
504.1526286820205
 21
-68.57340011580572
 31
0.0
 12
503.5194738931851
 22
-83.08319735994022
 32
0.0
 13
504.1526286820205
 23
-83.08319735994022
 33
0.0
  0
SOLID
  5
B5A
330
342
100
AcDbEntity
  8
LOGO
 62
     5
100
AcDbTrace
 10
504.1526286820205
 20
-81.92241358040936
 30
0.0
 11
505.682752755037
 21
-76.31195864601043
 31
0.0
 12
511.4339087536214
 22
-68.57340011580456
 32
0.0
 13
509.9037846806047
 23
-68.57340011580456
 33
0.0
  0
SOLID
  5
B5B
330
342
100
AcDbEntity
  8
LOGO
 62
     5
100
AcDbTrace
 10
504.1526286820205
 20
-83.08319735994022
 30
0.0
 11
505.682752755037
 21
-83.08319735994022
 31
0.0
 12
511.4339087536214
 22
-69.73418389533659
 32
0.0
 13
509.9037846806047
 23
-75.34463882973551
 33
0.0
  0
SOLID
  5
B5C
330
342
100
AcDbEntity
  8
LOGO
 62
     2
100
AcDbTrace
 10
503.5194738931851
 20
-83.08319735994022
 30
0.0
 11
504.1526286820205
 21
-83.08319735994022
 31
0.0
 12
511.4339087536214
 22
-68.57340011580456
 32
0.0
 13
512.0670635424568
 23
-68.57340011580572
 33
0.0
  0
LINE
  5
B5D
330
342
100
AcDbEntity
  8
LOGO
 62
     4
100
AcDbLine
 10
640.5273870021817
 20
-87.19665567635658
 30
0.0
 11
640.5273870021817
 21
-100.1725932873694
 31
0.0
  0
LINE
  5
B5E
330
342
100
AcDbEntity
  8
LOGO
 62
     4
100
AcDbLine
 10
616.9347731639771
 20
-87.19665567635658
 30
0.0
 11
616.9347731639771
 21
-100.1725932873694
 31
0.0
  0
LINE
  5
B5F
330
342
100
AcDbEntity
  8
LOGO
 62
     4
100
AcDbLine
 10
640.5273870021817
 20
-100.1725932873694
 30
0.0
 11
616.9347731639771
 21
-100.1725932873694
 31
0.0
  0
LINE
  5
B60
330
342
100
AcDbEntity
  8
LOGO
 62
     4
100
AcDbLine
 10
644.0614842561187
 20
-71.27164133556769
 30
0.0
 11
616.9347731639771
 21
-71.27164133556769
 31
0.0
  0
LINE
  5
B61
330
342
100
AcDbEntity
  8
LOGO
 62
     4
100
AcDbLine
 10
644.0614842561187
 20
-81.88831756276011
 30
0.0
 11
616.9347731639771
 21
-81.88831756276011
 31
0.0
  0
LINE
  5
B62
330
342
100
AcDbEntity
  8
LOGO
 62
     4
100
AcDbLine
 10
616.9347731639771
 20
-71.27164133556769
 30
0.0
 11
616.9347731639771
 21
-81.88831756276011
 31
0.0
  0
LINE
  5
B63
330
342
100
AcDbEntity
  8
LOGO
 62
     4
100
AcDbLine
 10
644.0614842561187
 20
-71.27164133556769
 30
0.0
 11
644.0614842561187
 21
-81.88831756276011
 31
0.0
  0
LINE
  5
B64
330
342
100
AcDbEntity
  8
LOGO
 62
     4
100
AcDbLine
 10
629.9620219521581
 20
-81.88831756276011
 30
0.0
 11
629.9620219521581
 21
-87.19665567635658
 31
0.0
  0
TEXT
  5
B65
330
342
100
AcDbEntity
  8
LOGO
  6
Continuous
 62
     7
100
AcDbText
 10
618.8211902574916
 20
-79.67210192191318
 30
0.0
 40
6.193957995225
  1
MCDA
  7
chineset
100
AcDbText
  0
LINE
  5
B66
330
342
100
AcDbEntity
  8
LOGO
 62
     4
100
AcDbLine
 10
640.5273870021817
 20
-87.19665567635658
 30
0.0
 11
616.9347731639771
 21
-87.19665567635658
 31
0.0
  0
TEXT
  5
B67
330
342
100
AcDbEntity
  8
LOGO
  6
Continuous
100
AcDbText
 10
624.5055682515783
 20
-98.34106720968925
 30
231.933156659276
 40
2.654553426525
  1
Model
 41
0.8
  7
chineset
100
AcDbText
  0
TEXT
  5
B68
330
342
100
AcDbEntity
  8
LOGO
100
AcDbText
 10
623.7990124236617
 20
-93.4200972540078
 30
231.933156659276
 40
4.424255710875001
  1
型號
  7
chineset
100
AcDbText
  0
LINE
  5
B69
330
342
100
AcDbEntity
  8
LOGO
  6
Continuous
 62
     7
100
AcDbLine
 10
645.1901246846907
 20
-76.61758539419176
 30
0.0
 11
649.8780615213149
 21
-76.61758539419176
 31
0.0
  0
LINE
  5
B6A
330
342
100
AcDbEntity
  8
LOGO
 62
     4
100
AcDbLine
 10
679.8007598307845
 20
-87.19665567635658
 30
0.0
 11
679.8007598307845
 21
-100.1725932873694
 31
0.0
  0
LINE
  5
B6B
330
342
100
AcDbEntity
  8
LOGO
 62
     4
100
AcDbLine
 10
655.3661629861874
 20
-87.19665567635658
 30
0.0
 11
655.3661629861874
 21
-100.1725932873694
 31
0.0
  0
LINE
  5
B6C
330
342
100
AcDbEntity
  8
LOGO
 62
     4
100
AcDbLine
 10
679.8007598307845
 20
-100.1725932873694
 30
0.0
 11
655.3661629861874
 21
-100.1725932873694
 31
0.0
  0
LINE
  5
B6D
330
342
100
AcDbEntity
  8
LOGO
 62
     4
100
AcDbLine
 10
683.7417340901201
 20
-71.27164133556769
 30
0.0
 11
651.3568584773731
 21
-71.27164133556769
 31
0.0
  0
LINE
  5
B6E
330
342
100
AcDbEntity
  8
LOGO
 62
     4
100
AcDbLine
 10
683.7417340901201
 20
-81.88831756276011
 30
0.0
 11
651.3568584773731
 21
-81.88831756276011
 31
0.0
  0
LINE
  5
B6F
330
342
100
AcDbEntity
  8
LOGO
 62
     4
100
AcDbLine
 10
651.3568584773731
 20
-71.27164133556769
 30
0.0
 11
651.3568584773731
 21
-81.88831756276011
 31
0.0
  0
LINE
  5
B70
330
342
100
AcDbEntity
  8
LOGO
 62
     4
100
AcDbLine
 10
683.7417340901201
 20
-71.27164133556769
 30
0.0
 11
683.7417340901201
 21
-81.88831756276011
 31
0.0
  0
LINE
  5
B71
330
342
100
AcDbEntity
  8
LOGO
 62
     4
100
AcDbLine
 10
667.5834614084859
 20
-81.88831756276011
 30
0.0
 11
667.5834614084859
 21
-87.19665567635658
 31
0.0
  0
TEXT
  5
B72
330
342
100
AcDbEntity
  8
LOGO
  6
Continuous
 62
     7
100
AcDbText
 10
653.0826716128911
 20
-79.67210192191318
 30
0.0
 40
6.193957995225
  1
03/23
  7
chineset
100
AcDbText
  0
LINE
  5
B73
330
342
100
AcDbEntity
  8
LOGO
 62
     4
100
AcDbLine
 10
679.8007598307845
 20
-87.19665567635658
 30
0.0
 11
655.3661629861874
 21
-87.19665567635658
 31
0.0
  0
LINE
  5
B74
330
342
100
AcDbEntity
  8
LOGO
  6
Continuous
 62
     7
100
AcDbLine
 10
685.0916085776634
 20
-76.61758539419176
 30
0.0
 11
689.7795454142901
 21
-76.61758539419176
 31
0.0
  0
LINE
  5
B75
330
342
100
AcDbEntity
  8
LOGO
 62
     4
100
AcDbLine
 10
711.4853267410476
 20
-87.19665567635658
 30
0.0
 11
711.4853267410476
 21
-100.1725932873694
 31
0.0
  0
LINE
  5
B76
330
342
100
AcDbEntity
  8
LOGO
 62
     4
100
AcDbLine
 10
687.8927129028418
 20
-87.19665567635658
 30
0.0
 11
687.8927129028418
 21
-100.1725932873694
 31
0.0
  0
LINE
  5
B77
330
342
100
AcDbEntity
  8
LOGO
 62
     4
100
AcDbLine
 10
711.4853267410476
 20
-100.1725932873694
 30
0.0
 11
687.8927129028418
 21
-100.1725932873694
 31
0.0
  0
LINE
  5
B78
330
342
100
AcDbEntity
  8
LOGO
 62
     4
100
AcDbLine
 10
709.3995509012367
 20
-71.27164133556769
 30
0.0
 11
691.2583423703472
 21
-71.27164133556769
 31
0.0
  0
LINE
  5
B79
330
342
100
AcDbEntity
  8
LOGO
 62
     4
100
AcDbLine
 10
709.3995509012367
 20
-81.88831756276011
 30
0.0
 11
691.2583423703472
 21
-81.88831756276011
 31
0.0
  0
LINE
  5
B7A
330
342
100
AcDbEntity
  8
LOGO
 62
     4
100
AcDbLine
 10
691.2583423703472
 20
-71.27164133556769
 30
0.0
 11
691.2583423703472
 21
-81.88831756276011
 31
0.0
  0
LINE
  5
B7B
330
342
100
AcDbEntity
  8
LOGO
 62
     4
100
AcDbLine
 10
709.3995509012367
 20
-71.27164133556769
 30
0.0
 11
709.3995509012367
 21
-81.88831756276011
 31
0.0
  0
LINE
  5
B7C
330
342
100
AcDbEntity
  8
LOGO
 62
     4
100
AcDbLine
 10
700.3289466357912
 20
-81.88831756276011
 30
0.0
 11
700.3289466357912
 21
-87.19665567635658
 31
0.0
  0
TEXT
  5
B7D
330
342
100
AcDbEntity
  8
LOGO
  6
Continuous
 62
     7
100
AcDbText
 10
695.1266921769192
 20
-79.67210192191318
 30
0.0
 40
6.193957995225
  1
20
  7
chineset
100
AcDbText
  0
LINE
  5
B7E
330
342
100
AcDbEntity
  8
LOGO
 62
     4
100
AcDbLine
 10
711.4853267410476
 20
-87.19665567635658
 30
0.0
 11
687.8927129028418
 21
-87.19665567635658
 31
0.0
  0
LINE
  5
B7F
330
342
100
AcDbEntity
  8
LOGO
  6
Continuous
 62
     7
100
AcDbLine
 10
710.9097097752817
 20
-76.61758539419176
 30
0.0
 11
715.5976466119081
 21
-76.61758539419176
 31
0.0
  0
LINE
  5
B80
330
342
100
AcDbEntity
  8
LOGO
 62
     4
100
AcDbLine
 10
735.8694070004918
 20
-87.19665567635658
 30
0.0
 11
735.8694070004918
 21
-100.1725932873694
 31
0.0
  0
LINE
  5
B81
330
342
100
AcDbEntity
  8
LOGO
 62
     4
100
AcDbLine
 10
716.6494618684269
 20
-87.19665567635658
 30
0.0
 11
716.6494618684269
 21
-100.1725932873694
 31
0.0
  0
LINE
  5
B82
330
342
100
AcDbEntity
  8
LOGO
 62
     4
100
AcDbLine
 10
735.8694070004918
 20
-100.1725932873694
 30
0.0
 11
716.6494618684269
 21
-100.1725932873694
 31
0.0
  0
LINE
  5
B83
330
342
100
AcDbEntity
  8
LOGO
 62
     4
100
AcDbLine
 10
732.9845595320119
 20
-71.27164133556769
 30
0.0
 11
717.0764435679652
 21
-71.27164133556769
 31
0.0
  0
LINE
  5
B84
330
342
100
AcDbEntity
  8
LOGO
 62
     4
100
AcDbLine
 10
732.9845595320119
 20
-81.88831756276011
 30
0.0
 11
717.0764435679652
 21
-81.88831756276011
 31
0.0
  0
LINE
  5
B85
330
342
100
AcDbEntity
  8
LOGO
 62
     4
100
AcDbLine
 10
717.0764435679652
 20
-71.27164133556769
 30
0.0
 11
717.0764435679652
 21
-81.88831756276011
 31
0.0
  0
LINE
  5
B86
330
342
100
AcDbEntity
  8
LOGO
 62
     4
100
AcDbLine
 10
732.9845595320119
 20
-71.27164133556769
 30
0.0
 11
732.9845595320119
 21
-81.88831756276011
 31
0.0
  0
LINE
  5
B87
330
342
100
AcDbEntity
  8
LOGO
 62
     4
100
AcDbLine
 10
725.0305015499885
 20
-81.88831756276011
 30
0.0
 11
725.0305015499885
 21
-87.19665567635658
 31
0.0
  0
TEXT
  5
B88
330
342
100
AcDbEntity
  8
LOGO
  6
Continuous
 62
     7
100
AcDbText
 10
720.8836837049671
 20
-79.67210192191318
 30
0.0
 40
6.193957995225
  1
10
  7
chineset
100
AcDbText
  0
LINE
  5
B89
330
342
100
AcDbEntity
  8
LOGO
 62
     4
100
AcDbLine
 10
735.8694070004918
 20
-87.19665567635658
 30
0.0
 11
716.6494618684269
 21
-87.19665567635658
 31
0.0
  0
TEXT
  5
B8A
330
342
100
AcDbEntity
  8
LOGO
  6
Continuous
100
AcDbText
 10
657.5199703145426
 20
-98.34106720968925
 30
231.933156659276
 40
2.654553426525
  1
Bearing type
 41
0.8
  7
chineset
100
AcDbText
  0
TEXT
  5
B8B
330
342
100
AcDbEntity
  8
LOGO
100
AcDbText
 10
657.4949635018639
 20
-93.4200972540078
 30
231.933156659276
 40
4.424255710875001
  1
軸承型式
  7
chineset
100
AcDbText
  0
TEXT
  5
B8C
330
342
100
AcDbEntity
  8
LOGO
  6
Continuous
100
AcDbText
 10
692.8344012461739
 20
-98.34106720968925
 30
231.933156659276
 40
2.654553426525
  1
Tube I.D.
 41
0.8
  7
chineset
100
AcDbText
  0
TEXT
  5
B8D
330
342
100
AcDbEntity
  8
LOGO
100
AcDbText
 10
693.9047457878644
 20
-93.4200972540078
 30
231.933156659276
 40
4.424255710875001
  1
內徑
  7
chineset
100
AcDbText
  0
TEXT
  5
B8E
330
342
100
AcDbEntity
  8
LOGO
  6
Continuous
100
AcDbText
 10
721.7148934616402
 20
-98.34106720968925
 30
231.933156659276
 40
2.654553426525
  1
Stroke
 41
0.8
  7
chineset
100
AcDbText
  0
TEXT
  5
B8F
330
342
100
AcDbEntity
  8
LOGO
100
AcDbText
 10
721.5308354532935
 20
-93.4200972540078
 30
231.933156659276
 40
4.424255710875001
  1
行程
  7
chineset
100
AcDbText
  0
TEXT
  5
B90
330
342
100
AcDbEntity
  8
LOGO
100
AcDbText
 10
569.898575454683
 20
-101.2389934006386
 30
0.0
 40
3.539404568700001
  1
10908132
 41
0.7
  7
chineset
 72
     1
 11
578.5111265718531
 21
-101.2389934006386
 31
0.0
100
AcDbText
  0
LINE
  5
B91
330
342
100
AcDbEntity
  8
LOGO
 62
     4
100
AcDbLine
 10
589.4953107145356
 20
-96.04388586568346
 30
0.0
 11
589.4953107145368
 21
-103.1216700171437
 31
0.0
  0
LINE
  5
B92
330
342
100
AcDbEntity
  8
LOGO
 62
     4
100
AcDbLine
 10
589.4953107145356
 20
-96.04388586568346
 30
0.0
 11
568.2588833023381
 21
-96.04388586568346
 31
0.0
  0
LINE
  5
B93
330
342
100
AcDbEntity
  8
LOGO
  6
AM_ISO08W050x2
 48
0.3
100
AcDbLine
 10
548.386447789642
 20
-78.34185577098222
 30
0.0
 11
554.0514937702996
 21
-78.34185577098222
 31
0.0
1001
GENIUS_GENOREF_13
1005
B98
  0
LINE
  5
B94
330
342
100
AcDbEntity
  8
LOGO
  6
AM_ISO08W050x2
 48
0.3
100
AcDbLine
 10
551.2189707799709
 20
-81.17437876131043
 30
0.0
 11
551.2189707799709
 21
-75.50933278065397
 31
0.0
1001
GENIUS_GENOREF_13
1005
B97
  0
LINE
  5
B95
330
342
100
AcDbEntity
  8
LOGO
  6
CENTER
 48
0.5
100
AcDbLine
 10
557.1746327593468
 20
-78.34185577098222
 30
0.0
 11
564.7799913773678
 21
-78.34185577098222
 31
0.0
1001
GENIUS_GENOREF_13
1005
B96
  0
POINT
  5
B96
330
342
100
AcDbEntity
  8
0
 60
     1
100
AcDbPoint
 10
-1847.332149553815
 20
-1184.953663384232
 30
0.0
1001
GENIUS_GENOBJ-N-CRS_13
1002
{
1000
OWNER
1000
GEN
1002
}
1001
GENIUS_GENOLIS_13
1002
{
1000
ENT
1005
0
1005
0
1005
0
1005
B95
1002
}
1001
GENIUS_GENOENT_13
1002
{
1000
MYREF
1005
B96
1002
}
1002
{
1000
GRP
1005
0
1002
}
1001
GENIUS_GENODEF_13
1002
{
1000
HIER
1070
    10
1002
}
1002
{
1000
MANEDIT
1070
     1
1002
}
1002
{
1000
NOSEL
1070
     0
1002
}
1002
{
1000
BEHIND
1070
     0
1002
}
1002
{
1000
OTHER
1070
     0
1002
}
1002
{
1000
REACTOR
1002
}
  0
POINT
  5
B97
330
342
100
AcDbEntity
  8
0
 60
     1
100
AcDbPoint
 10
-1858.65673477667
 20
-1176.078076905595
 30
0.0
1001
GENIUS_GENOBJ-N-CRS_13
1002
{
1000
OWNER
1000
GEN
1002
}
1001
GENIUS_GENOLIS_13
1002
{
1000
ENT
1005
0
1005
0
1005
0
1005
B94
1002
}
1001
GENIUS_GENOENT_13
1002
{
1000
MYREF
1005
B97
1002
}
1002
{
1000
GRP
1005
0
1002
}
1001
GENIUS_GENODEF_13
1002
{
1000
HIER
1070
    10
1002
}
1002
{
1000
MANEDIT
1070
     1
1002
}
1002
{
1000
NOSEL
1070
     0
1002
}
1002
{
1000
BEHIND
1070
     0
1002
}
1002
{
1000
OTHER
1070
     0
1002
}
1002
{
1000
REACTOR
1002
}
  0
POINT
  5
B98
330
342
100
AcDbEntity
  8
0
 60
     1
100
AcDbPoint
 10
-1852.298061078833
 20
-1184.953663384232
 30
0.0
1001
GENIUS_GENOBJ-N-CRS_13
1002
{
1000
OWNER
1000
GEN
1002
}
1001
GENIUS_GENOLIS_13
1002
{
1000
ENT
1005
0
1005
0
1005
0
1005
B93
1002
}
1001
GENIUS_GENOENT_13
1002
{
1000
MYREF
1005
B98
1002
}
1002
{
1000
GRP
1005
0
1002
}
1001
GENIUS_GENODEF_13
1002
{
1000
HIER
1070
    10
1002
}
1002
{
1000
MANEDIT
1070
     1
1002
}
1002
{
1000
NOSEL
1070
     0
1002
}
1002
{
1000
BEHIND
1070
     0
1002
}
1002
{
1000
OTHER
1070
     0
1002
}
1002
{
1000
REACTOR
1002
}
  0
ENDSEC
  0
SECTION
  2
OBJECTS
  0
DICTIONARY
  5
330
330
0
100
AcDbDictionary
281
     1
  3
ACAD_COLOR
350
88A
  3
ACAD_GROUP
350
331
  3
ACAD_LAYOUT
350
33D
  3
ACAD_MATERIAL
350
889
  3
ACAD_MLINESTYLE
350
33A
  3
ACAD_PLOTSETTINGS
350
33C
  3
ACAD_PLOTSTYLENAME
350
332
  3
ACAD_TABLESTYLE
350
88B
  3
ACDBHEADERROUNDTRIPXREC
350
CFC
  3
AcDbVariableDictionary
350
72E
  3
AcmDictionary
350
751
  3
AMG
350
737
  3
AMGSNAPSETTINGS
350
789
  3
DWGPROPS
350
CFB
  0
DICTIONARY
  5
A5F
330
326
100
AcDbDictionary
280
     1
281
     1
  3
ACAD_LAYERSTATES
360
A60
  0
DICTIONARY
  5
469
330
342
100
AcDbDictionary
280
     1
281
     1
  3
ACAD_INDEX
360
817
  3
ACAD_LAYOUTSELFREF
360
86F
  0
DICTIONARY
  5
46B
330
33E
100
AcDbDictionary
280
     1
281
     1
  3
ACAD_LAYOUTSELFREF
360
86E
  0
DICTIONARY
  5
88A
102
{ACAD_REACTORS
330
330
102
}
330
330
100
AcDbDictionary
281
     1
  0
DICTIONARY
  5
331
102
{ACAD_REACTORS
330
330
102
}
330
330
100
AcDbDictionary
281
     1
  0
DICTIONARY
  5
33D
102
{ACAD_REACTORS
330
330
102
}
330
330
100
AcDbDictionary
281
     1
  3
Model
350
345
  3
配置1
350
341
  0
DICTIONARY
  5
889
102
{ACAD_REACTORS
330
330
102
}
330
330
100
AcDbDictionary
281
     1
  0
DICTIONARY
  5
33A
102
{ACAD_REACTORS
330
330
102
}
330
330
100
AcDbDictionary
281
     1
  3
Standard
350
33B
  0
DICTIONARY
  5
33C
102
{ACAD_REACTORS
330
330
102
}
330
330
100
AcDbDictionary
281
     1
  0
ACDBDICTIONARYWDFLT
  5
332
102
{ACAD_REACTORS
330
330
102
}
330
330
100
AcDbDictionary
281
     1
  3
Normal
350
333
100
AcDbDictionaryWithDefault
340
333
1001
ACAD
1000
TREAT_AS_HARD
1070
     0
1000
TREAT_AS_HARD
1070
     0
  0
DICTIONARY
  5
88B
102
{ACAD_REACTORS
330
330
102
}
330
330
100
AcDbDictionary
281
     1
  3
Standard
350
88C
  0
DICTIONARY
  5
CFC
102
{ACAD_REACTORS
330
330
102
}
330
330
100
AcDbDictionary
281
     1
  0
DICTIONARY
  5
72E
102
{ACAD_REACTORS
330
330
102
}
330
330
100
AcDbDictionary
281
     1
  3
CTABLESTYLE
350
CF8
  3
DIMASSOC
350
72F
  3
INDEXCTL
350
823
  3
PROJECTNAME
350
CF9
  0
DICTIONARY
  5
751
102
{ACAD_REACTORS
330
330
102
}
330
330
100
AcDbDictionary
281
     1
  3
AcmStdDictionary
350
757
  3
AMDTSECTSYM_ARROWCOLOR
350
902
  0
DICTIONARY
  5
737
102
{ACAD_REACTORS
330
330
102
}
330
330
100
AcDbDictionary
281
     1
  0
DICTIONARY
  5
789
102
{ACAD_REACTORS
330
330
102
}
330
330
100
AcDbDictionary
281
     1
  0
XRECORD
  5
CFB
102
{ACAD_REACTORS
330
330
102
}
330
330
100
AcDbXrecord
280
     1
  1
DWGPROPS COOKIE
  2

  3

  4

  6

  7

  8

  9

300
AmdtFileType=84
301
=
302
=
303
=
304
=
305
=
306
=
307
=
308
=
309
=
 40
0.3197071759259259
 41
2451079.484109074
 42
2455057.483407084
  1

 90
        1
  0
DICTIONARY
  5
A60
102
{ACAD_REACTORS
330
A5F
102
}
330
A5F
100
AcDbDictionary
281
     1
  0
DICTIONARY
  5
817
102
{ACAD_REACTORS
330
469
102
}
330
469
100
AcDbDictionary
281
     1
  3
*A1
350
818
  0
XRECORD
  5
86F
102
{ACAD_REACTORS
330
469
102
}
330
469
100
AcDbXrecord
280
     1
340
342
  0
XRECORD
  5
86E
102
{ACAD_REACTORS
330
46B
102
}
330
46B
100
AcDbXrecord
280
     1
340
33E
  0
LAYOUT
  5
345
102
{ACAD_XDICTIONARY
360
CFF
102
}
102
{ACAD_REACTORS
330
33D
102
}
330
33D
100
AcDbPlotSettings
  1

  2
DWF Classic.pc3
  4
ISO_A2_(420.00_x_594.00_MM)
  6

 40
5.793749809265136
 41
17.79375076293945
 42
5.79376220703125
 43
17.79376220703125
 44
420.0
 45
594.0
 46
0.0
 47
53.13
 48
0.0
 49
0.0
140
0.0
141
0.0
142
1.0
143
0.9148162673870384
 70
 11956
 72
     1
 73
     0
 74
     1
  7
彩色出圖.ctb
 75
     0
147
1.093115673222853
148
-58.08537160020569
149
121.8002399454639
100
AcDbLayout
  1
Model
 70
     1
 71
     0
 10
0.0
 20
0.0
 11
12.0
 21
9.0
 12
0.0
 22
0.0
 32
0.0
 14
0.0
 24
0.0
 34
0.0
 15
0.0
 25
0.0
 35
0.0
146
0.0
 13
0.0
 23
0.0
 33
0.0
 16
1.0
 26
0.0
 36
0.0
 17
0.0
 27
1.0
 37
0.0
 76
     0
330
342
  0
LAYOUT
  5
341
102
{ACAD_XDICTIONARY
360
CFD
102
}
102
{ACAD_REACTORS
330
33D
102
}
330
33D
100
AcDbPlotSettings
  1

  2
\\WINNT\EPSON Stylus Photo 750 單色
  4

  6

 40
0.0
 41
0.0
 42
0.0
 43
0.0
 44
0.0
 45
0.0
 46
0.0
 47
0.0
 48
0.0
 49
0.0
140
0.0
141
0.0
142
1.0
143
1.0
 70
   688
 72
     0
 73
     0
 74
     5
  7

 75
    16
147
1.0
148
0.0
149
0.0
100
AcDbLayout
  1
配置1
 70
     1
 71
     1
 10
0.0
 20
0.0
 11
420.0
 21
297.0
 12
0.0
 22
0.0
 32
0.0
 14
20.24048710217187
 24
-80.66671062027911
 34
-0.0015258207003583
 15
533.0159905469545
 25
291.8393914977141
 35
0.0000000349246037
146
0.0
 13
0.0
 23
0.0
 33
0.0
 16
1.0
 26
0.0
 36
0.0
 17
0.0
 27
1.0
 37
0.0
 76
     0
330
33E
  0
MLINESTYLE
  5
33B
102
{ACAD_REACTORS
330
33A
102
}
330
33A
100
AcDbMlineStyle
  2
STANDARD
 70
     0
  3

 62
   256
 51
90.0
 52
90.0
 71
     2
 49
0.5
 62
   256
  6
BYLAYER
 49
-0.5
 62
   256
  6
BYLAYER
  0
ACDBPLACEHOLDER
  5
333
102
{ACAD_REACTORS
330
332
102
}
330
332
  0
TABLESTYLE
  5
88C
102
{ACAD_REACTORS
330
88B
102
}
330
88B
100
AcDbTableStyle
  3
Standard
 70
     0
 71
     0
 40
0.06
 41
0.06
280
     0
281
     0
  7
STANDARD
140
0.18
170
     2
 62
     0
 63
     7
283
     0
274
    -2
284
     1
 64
     0
275
    -2
285
     1
 65
     0
276
    -2
286
     1
 66
     0
277
    -2
287
     1
 67
     0
278
    -2
288
     1
 68
     0
279
    -2
289
     1
 69
     0
  7
STANDARD
140
0.25
170
     5
 62
     0
 63
     7
283
     0
274
    -2
284
     1
 64
     0
275
    -2
285
     1
 65
     0
276
    -2
286
     1
 66
     0
277
    -2
287
     1
 67
     0
278
    -2
288
     1
 68
     0
279
    -2
289
     1
 69
     0
  7
STANDARD
140
0.18
170
     5
 62
     0
 63
     7
283
     0
274
    -2
284
     1
 64
     0
275
    -2
285
     1
 65
     0
276
    -2
286
     1
 66
     0
277
    -2
287
     1
 67
     0
278
    -2
288
     1
 68
     0
279
    -2
289
     1
 69
     0
  0
DICTIONARYVAR
  5
CF8
102
{ACAD_REACTORS
330
72E
102
}
330
72E
100
DictionaryVariables
280
     0
  1
STANDARD
  0
DICTIONARYVAR
  5
72F
102
{ACAD_REACTORS
330
72E
102
}
330
72E
100
DictionaryVariables
280
     0
  1
1
  0
DICTIONARYVAR
  5
823
102
{ACAD_REACTORS
330
72E
102
}
330
72E
100
DictionaryVariables
280
     0
  1
1
  0
DICTIONARYVAR
  5
CF9
102
{ACAD_REACTORS
330
72E
102
}
330
72E
100
DictionaryVariables
280
     0
  1

  0
DICTIONARY
  5
757
102
{ACAD_REACTORS
330
751
102
}
330
751
100
AcDbDictionary
281
     1
  0
XRECORD
  5
902
102
{ACAD_REACTORS
330
751
102
}
330
751
100
AcDbXrecord
280
     1
 90
-1023410169
  0
LAYER_INDEX
  5
818
102
{ACAD_REACTORS
330
817
102
}
330
817
100
AcDbIndex
 40
2455057.483407084
100
AcDbLayerIndex
  8
0
360
CF4
 90
      399
  8
DIM
360
CF5
 90
       30
  8
DEFPOINTS
360
CF6
 90
        0
  8
LOGO
360
CF7
 90
      117
  0
DICTIONARY
  5
CFF
330
345
100
AcDbDictionary
280
     1
281
     1
  3
ACAD_XREC_ROUNDTRIP
360
D00
  0
DICTIONARY
  5
CFD
330
341
100
AcDbDictionary
280
     1
281
     1
  3
ACAD_XREC_ROUNDTRIP
360
CFE
  0
IDBUFFER
  5
CF4
330
0
100
AcDbIdBuffer
330
218
330
219
330
21A
330
21B
330
21C
330
21D
330
21E
330
21F
330
220
330
221
330
222
330
223
330
224
330
225
330
226
330
227
330
228
330
229
330
22A
330
22B
330
22C
330
22D
330
22E
330
22F
330
230
330
231
330
232
330
233
330
234
330
235
330
236
330
237
330
238
330
239
330
23A
330
23B
330
23C
330
23D
330
23E
330
23F
330
240
330
241
330
242
330
244
330
245
330
246
330
247
330
248
330
249
330
24A
330
24B
330
24C
330
24D
330
24E
330
24F
330
250
330
251
330
252
330
253
330
254
330
255
330
256
330
257
330
258
330
259
330
25A
330
25B
330
25C
330
25D
330
25E
330
25F
330
260
330
261
330
262
330
263
330
264
330
265
330
266
330
267
330
268
330
269
330
26A
330
26B
330
26C
330
26D
330
26E
330
26F
330
270
330
271
330
272
330
273
330
274
330
275
330
276
330
277
330
278
330
279
330
27A
330
27B
330
27C
330
27D
330
27E
330
27F
330
280
330
281
330
282
330
283
330
284
330
285
330
286
330
287
330
288
330
289
330
28A
330
28B
330
28C
330
28D
330
28E
330
28F
330
290
330
291
330
292
330
293
330
294
330
295
330
7B0
330
7CE
330
7D7
330
7D8
330
7DA
330
7DB
330
7DC
330
7DD
330
7E7
330
7E8
330
7E9
330
7EA
330
7EC
330
7ED
330
7EE
330
7EF
330
7F0
330
7F2
330
805
330
806
330
807
330
808
330
809
330
80A
330
80B
330
80C
330
80D
330
80E
330
80F
330
810
330
811
330
B96
330
B97
330
B98
330
D3
330
D5
330
D6
330
D7
330
D8
330
D9
330
DA
330
DB
330
DC
330
DD
330
DE
330
DF
330
E0
330
E1
330
E2
330
E3
330
E4
330
E5
330
E6
330
E7
330
E8
330
E9
330
F7
330
F8
330
F9
330
137
330
138
330
139
330
13E
330
140
330
141
330
142
330
143
330
144
330
145
330
146
330
147
330
148
330
149
330
14A
330
14B
330
14C
330
14D
330
14E
330
14F
330
150
330
151
330
152
330
153
330
154
330
155
330
156
330
157
330
158
330
159
330
15A
330
15B
330
15C
330
15D
330
15E
330
15F
330
160
330
161
330
162
330
163
330
164
330
165
330
166
330
167
330
168
330
169
330
16A
330
16B
330
16C
330
16D
330
16E
330
16F
330
170
330
171
330
172
330
173
330
174
330
175
330
176
330
177
330
178
330
179
330
17A
330
17B
330
17C
330
17D
330
17E
330
17F
330
180
330
181
330
182
330
183
330
184
330
185
330
186
330
187
330
188
330
189
330
18A
330
18B
330
18C
330
18D
330
18E
330
18F
330
190
330
191
330
192
330
193
330
194
330
195
330
196
330
197
330
198
330
199
330
19A
330
19B
330
19D
330
19E
330
19F
330
1A0
330
1A1
330
1A2
330
1A3
330
1A4
330
1A5
330
1A6
330
1A7
330
1A8
330
1A9
330
1AA
330
1AB
330
1AC
330
1AD
330
1AE
330
1AF
330
1B0
330
1B1
330
1B2
330
1B3
330
1B4
330
1B5
330
1B6
330
1B7
330
1B8
330
1B9
330
1BA
330
1BB
330
1BC
330
1BD
330
1BE
330
1BF
330
1C0
330
1C1
330
1C2
330
1C3
330
1C4
330
1C5
330
1C7
330
1C8
330
1C9
330
1CA
330
1CB
330
1CC
330
1CD
330
1CE
330
1CF
330
1D0
330
1D1
330
1D2
330
1D3
330
1D4
330
1D5
330
1D6
330
1D7
330
1D8
330
1D9
330
1DA
330
1DB
330
1DC
330
1DD
330
1DE
330
1DF
330
1E0
330
1E1
330
1E2
330
1E3
330
1E4
330
1E5
330
1E6
330
1E7
330
1EA
330
1EB
330
1EC
330
1ED
330
1EE
330
1EF
330
1F0
330
1F1
330
1F2
330
1F3
330
1F4
330
1F5
330
1F6
330
1F7
330
1F8
330
1F9
330
1FA
330
1FB
330
1FC
330
1FD
330
1FE
330
1FF
330
200
330
201
330
202
330
203
330
204
330
205
330
206
330
207
330
208
330
209
330
20A
330
20B
330
20D
330
20E
330
20F
330
210
330
211
330
212
330
213
330
214
330
215
330
216
330
217
  0
IDBUFFER
  5
CF5
330
0
100
AcDbIdBuffer
330
AB
330
AC
330
B9
330
C6
330
EA
330
FA
330
107
330
2D7
330
108
330
115
330
124
330
125
330
2DC
330
12A
330
1F
330
2E
330
3B
330
48
330
49
330
2CD
330
4A
330
57
330
64
330
65
330
72
330
2D2
330
73
330
80
330
8F
330
9E
  0
IDBUFFER
  5
CF6
330
0
100
AcDbIdBuffer
  0
IDBUFFER
  5
CF7
330
0
100
AcDbIdBuffer
330
B91
330
B92
330
B93
330
B94
330
B95
330
B0C
330
B0D
330
B0E
330
B0F
330
B10
330
B11
330
B12
330
B13
330
B14
330
B15
330
B16
330
B17
330
B18
330
B19
330
B1A
330
B1B
330
B1C
330
B1D
330
B1E
330
B1F
330
B20
330
B21
330
B22
330
B23
330
B24
330
B25
330
B26
330
B27
330
B28
330
B29
330
B2A
330
B2B
330
B2F
330
B33
330
B34
330
B38
330
B39
330
B3A
330
B3B
330
B3C
330
B3D
330
B3E
330
B3F
330
B43
330
B47
330
B4B
330
B4C
330
B4D
330
B51
330
B52
330
B53
330
B54
330
B55
330
B56
330
B57
330
B58
330
B59
330
B5A
330
B5B
330
B5C
330
B5D
330
B5E
330
B5F
330
B60
330
B61
330
B62
330
B63
330
B64
330
B65
330
B66
330
B67
330
B68
330
B69
330
B6A
330
B6B
330
B6C
330
B6D
330
B6E
330
B6F
330
B70
330
B71
330
B72
330
B73
330
B74
330
B75
330
B76
330
B77
330
B78
330
B79
330
B7A
330
B7B
330
B7C
330
B7D
330
B7E
330
B7F
330
B80
330
B81
330
B82
330
B83
330
B84
330
B85
330
B86
330
B87
330
B88
330
B89
330
B8A
330
B8B
330
B8C
330
B8D
330
B8E
330
B8F
330
B90
  0
XRECORD
  5
D00
102
{ACAD_REACTORS
330
CFF
102
}
330
CFF
100
AcDbXrecord
280
     1
102
SHADEPLOT
 70
     0
102
SHADEPLOTRESLEVEL
 70
     2
102
SHADEPLOTCUSTOMDPI
 70
   300
  0
XRECORD
  5
CFE
102
{ACAD_REACTORS
330
CFD
102
}
330
CFD
100
AcDbXrecord
280
     1
102
SHADEPLOT
 70
     0
102
SHADEPLOTRESLEVEL
 70
     2
102
SHADEPLOTCUSTOMDPI
 70
   300
  0
ENDSEC
  0
EOF
