  0
SECTION
  2
HEADER
  9
$ACADVER
  1
AC1015
  9
$ACADMAINTVER
 70
    20
  9
$DWGCODEPAGE
  3
ANSI_950
  9
$INSBASE
 10
0.0
 20
0.0
 30
0.0
  9
$EXTMIN
 10
1.000000000000000E+20
 20
1.000000000000000E+20
 30
1.000000000000000E+20
  9
$EXTMAX
 10
-1.000000000000000E+20
 20
-1.000000000000000E+20
 30
-1.000000000000000E+20
  9
$LIMMIN
 10
0.0
 20
0.0
  9
$LIMMAX
 10
420.0
 20
297.0
  9
$ORTHOMODE
 70
     1
  9
$REGENMODE
 70
     1
  9
$FILLMODE
 70
     1
  9
$QTEXTMODE
 70
     0
  9
$MIRRTEXT
 70
     1
  9
$LTSCALE
 40
1.0
  9
$ATTMODE
 70
     1
  9
$TEXTSIZE
 40
1.0
  9
$TRACEWID
 40
1.0
  9
$TEXTSTYLE
  7
STANDARD
  9
$CLAYER
  8
0
  9
$CELTYPE
  6
BYLAYER
  9
$CECOLOR
 62
   256
  9
$CELTSCALE
 40
1.0
  9
$DISPSILH
 70
     0
  9
$DIMSCALE
 40
1.0
  9
$DIMASZ
 40
3.0
  9
$DIMEXO
 40
1.0
  9
$DIMDLI
 40
15.0
  9
$DIMRND
 40
0.0
  9
$DIMDLE
 40
0.0
  9
$DIMEXE
 40
1.0
  9
$DIMTP
 40
0.1
  9
$DIMTM
 40
0.1
  9
$DIMTXT
 40
3.5
  9
$DIMCEN
 40
0.0
  9
$DIMTSZ
 40
0.0
  9
$DIMTOL
 70
     0
  9
$DIMLIM
 70
     0
  9
$DIMTIH
 70
     0
  9
$DIMTOH
 70
     0
  9
$DIMSE1
 70
     0
  9
$DIMSE2
 70
     0
  9
$DIMTAD
 70
     1
  9
$DIMZIN
 70
     8
  9
$DIMBLK
  1

  9
$DIMASO
 70
     1
  9
$DIMSHO
 70
     1
  9
$DIMPOST
  1

  9
$DIMAPOST
  1
"
  9
$DIMALT
 70
     0
  9
$DIMALTD
 70
     2
  9
$DIMALTF
 40
0.0393701
  9
$DIMLFAC
 40
1.0
  9
$DIMTOFL
 70
     1
  9
$DIMTVP
 40
0.0
  9
$DIMTIX
 70
     0
  9
$DIMSOXD
 70
     0
  9
$DIMSAH
 70
     0
  9
$DIMBLK1
  1

  9
$DIMBLK2
  1

  9
$DIMSTYLE
  2
AM_ISO
  9
$DIMCLRD
 70
   256
  9
$DIMCLRE
 70
   256
  9
$DIMCLRT
 70
   256
  9
$DIMTFAC
 40
0.71
  9
$DIMGAP
 40
1.0
  9
$DIMJUST
 70
     0
  9
$DIMSD1
 70
     0
  9
$DIMSD2
 70
     0
  9
$DIMTOLJ
 70
     0
  9
$DIMTZIN
 70
     8
  9
$DIMALTZ
 70
     8
  9
$DIMALTTZ
 70
     0
  9
$DIMUPT
 70
     0
  9
$DIMDEC
 70
     2
  9
$DIMTDEC
 70
     8
  9
$DIMALTU
 70
     2
  9
$DIMALTTD
 70
     2
  9
$DIMTXSTY
  7
STANDARD
  9
$DIMAUNIT
 70
     0
  9
$DIMADEC
 70
     0
  9
$DIMALTRND
 40
0.0
  9
$DIMAZIN
 70
     2
  9
$DIMDSEP
 70
    46
  9
$DIMATFIT
 70
     3
  9
$DIMFRAC
 70
     0
  9
$DIMLDRBLK
  1

  9
$DIMLUNIT
 70
     2
  9
$DIMLWD
 70
    -1
  9
$DIMLWE
 70
    -1
  9
$DIMTMOVE
 70
     0
  9
$LUNITS
 70
     2
  9
$LUPREC
 70
     2
  9
$SKETCHINC
 40
1.0
  9
$FILLETRAD
 40
2.5
  9
$AUNITS
 70
     0
  9
$AUPREC
 70
     0
  9
$MENU
  1
.
  9
$ELEVATION
 40
0.0
  9
$PELEVATION
 40
0.0
  9
$THICKNESS
 40
0.0
  9
$LIMCHECK
 70
     0
  9
$CHAMFERA
 40
2.5
  9
$CHAMFERB
 40
2.5
  9
$CHAMFERC
 40
20.0
  9
$CHAMFERD
 40
0.0
  9
$SKPOLY
 70
     0
  9
$TDCREATE
 40
2454816.659313322
  9
$TDUCREATE
 40
2454816.325979989
  9
$TDUPDATE
 40
2455117.710637940
  9
$TDUUPDATE
 40
2455117.377304607
  9
$TDINDWG
 40
0.3954656597
  9
$TDUSRTIMER
 40
0.3954656597
  9
$USRTIMER
 70
     1
  9
$ANGBASE
 50
0.0
  9
$ANGDIR
 70
     0
  9
$PDMODE
 70
     0
  9
$PDSIZE
 40
0.0
  9
$PLINEWID
 40
0.0
  9
$SPLFRAME
 70
     0
  9
$SPLINETYPE
 70
     6
  9
$SPLINESEGS
 70
     8
  9
$HANDSEED
  5
450E
  9
$SURFTAB1
 70
     6
  9
$SURFTAB2
 70
     6
  9
$SURFTYPE
 70
     6
  9
$SURFU
 70
     6
  9
$SURFV
 70
     6
  9
$UCSBASE
  2

  9
$UCSNAME
  2

  9
$UCSORG
 10
0.0
 20
0.0
 30
0.0
  9
$UCSXDIR
 10
1.0
 20
0.0
 30
0.0
  9
$UCSYDIR
 10
0.0
 20
1.0
 30
0.0
  9
$UCSORTHOREF
  2

  9
$UCSORTHOVIEW
 70
     0
  9
$UCSORGTOP
 10
0.0
 20
0.0
 30
0.0
  9
$UCSORGBOTTOM
 10
0.0
 20
0.0
 30
0.0
  9
$UCSORGLEFT
 10
0.0
 20
0.0
 30
0.0
  9
$UCSORGRIGHT
 10
0.0
 20
0.0
 30
0.0
  9
$UCSORGFRONT
 10
0.0
 20
0.0
 30
0.0
  9
$UCSORGBACK
 10
0.0
 20
0.0
 30
0.0
  9
$PUCSBASE
  2

  9
$PUCSNAME
  2

  9
$PUCSORG
 10
0.0
 20
0.0
 30
0.0
  9
$PUCSXDIR
 10
1.0
 20
0.0
 30
0.0
  9
$PUCSYDIR
 10
0.0
 20
1.0
 30
0.0
  9
$PUCSORTHOREF
  2

  9
$PUCSORTHOVIEW
 70
     0
  9
$PUCSORGTOP
 10
0.0
 20
0.0
 30
0.0
  9
$PUCSORGBOTTOM
 10
0.0
 20
0.0
 30
0.0
  9
$PUCSORGLEFT
 10
0.0
 20
0.0
 30
0.0
  9
$PUCSORGRIGHT
 10
0.0
 20
0.0
 30
0.0
  9
$PUCSORGFRONT
 10
0.0
 20
0.0
 30
0.0
  9
$PUCSORGBACK
 10
0.0
 20
0.0
 30
0.0
  9
$USERI1
 70
     0
  9
$USERI2
 70
     0
  9
$USERI3
 70
     0
  9
$USERI4
 70
     0
  9
$USERI5
 70
     0
  9
$USERR1
 40
0.0
  9
$USERR2
 40
0.0
  9
$USERR3
 40
0.0
  9
$USERR4
 40
0.0
  9
$USERR5
 40
0.0
  9
$WORLDVIEW
 70
     1
  9
$SHADEDGE
 70
     3
  9
$SHADEDIF
 70
    70
  9
$TILEMODE
 70
     0
  9
$MAXACTVP
 70
    48
  9
$PINSBASE
 10
0.0
 20
0.0
 30
0.0
  9
$PLIMCHECK
 70
     0
  9
$PEXTMIN
 10
24.90636132852967
 20
6.583688530589483
 30
-0.0133624591374542
  9
$PEXTMAX
 10
426.5393028359048
 20
303.0203644072224
 30
175.1711569523934
  9
$PLIMMIN
 10
-5.529776000976562
 20
-7.485591602325439
  9
$PLIMMAX
 10
456.4115447998047
 20
319.1330027580262
  9
$UNITMODE
 70
     0
  9
$VISRETAIN
 70
     1
  9
$PLINEGEN
 70
     0
  9
$PSLTSCALE
 70
     1
  9
$TREEDEPTH
 70
  3020
  9
$CMLSTYLE
  2
STANDARD
  9
$CMLJUST
 70
     0
  9
$CMLSCALE
 40
1.0
  9
$PROXYGRAPHICS
 70
     1
  9
$MEASUREMENT
 70
     1
  9
$CELWEIGHT
370
    -1
  9
$ENDCAPS
280
     0
  9
$JOINSTYLE
280
     0
  9
$LWDISPLAY
290
     0
  9
$INSUNITS
 70
     4
  9
$HYPERLINKBASE
  1

  9
$STYLESHEET
  1

  9
$XEDIT
290
     1
  9
$CEPSNTYPE
380
     0
  9
$PSTYLEMODE
290
     1
  9
$FINGERPRINTGUID
  2
{CAC0B594-D082-4A08-878C-C7C0726FFACF}
  9
$VERSIONGUID
  2
{C096F874-1E88-45F8-93BB-799FE316D643}
  9
$EXTNAMES
290
     1
  9
$PSVPSCALE
 40
0.0
  9
$OLESTARTUP
290
     0
  0
ENDSEC
  0
SECTION
  2
CLASSES
  0
CLASS
  1
DICTIONARYVAR
  2
AcDbDictionaryVar
  3
ObjectDBX Classes
 90
        0
280
     0
281
     0
  0
CLASS
  1
ACMESTATEMGR
  2
AcMeStateMgr
  3
AcMeServices
 90
        0
280
     0
281
     0
  0
CLASS
  1
ACMESCOPE
  2
AcMeScope
  3
AcMeServices
 90
        0
280
     0
281
     0
  0
CLASS
  1
ACMECOMMANDHISTORY
  2
AcMeCommandHistory
  3
AcMeServices
 90
        0
280
     0
281
     0
  0
CLASS
  1
ACRFINSADJUSTERMGR
  2
AcRfInsAdjusterMgr
  3
AcMeServices
 90
        0
280
     0
281
     0
  0
CLASS
  1
ACMEDRAWINGMAN
  2
AcMeDrawingMan
  3
AcMeServices
 90
        0
280
     0
281
     0
  0
CLASS
  1
AMATTR
  2
AcMeAttribute
  3
AcMeServices
 90
    32768
280
     0
281
     0
  0
CLASS
  1
ACMEBOMCOLUMN
  2
AcMeBOMColumn
  3
AcMeServices
 90
    32768
280
     0
281
     0
  0
CLASS
  1
ACMEBOMCONF
  2
AcMeBOMConf
  3
AcMeServices
 90
    32768
280
     0
281
     0
  0
CLASS
  1
ACMEBOMTABLE
  2
AcMeBOMTable
  3
AcMeServices
 90
    32768
280
     0
281
     0
  0
CLASS
  1
ACMEBOMENTRY
  2
AcMeBOMEntry
  3
AcMeServices
 90
    32768
280
     0
281
     0
  0
CLASS
  1
ACMEVIEW
  2
AcMeView
  3
AcMeServices
 90
        0
280
     0
281
     0
  0
CLASS
  1
ACGREFMASTER
  2
AcGrefMaster
  3
AcAttribServices
 90
        0
280
     0
281
     0
  0
CLASS
  1
AMIMASTER
  2
AmiMaster
  3
AmiServices
 90
        0
280
     0
281
     0
  0
CLASS
  1
ACASGREFMASTER
  2
AcAsGrefMaster
  3
AutoSurfResolverServices
 90
        0
280
     0
281
     0
  0
CLASS
  1
ADAPPL
  2
AcAdAppl
  3
DesignerServices
 90
        0
280
     0
281
     0
  0
CLASS
  1
DEPMGR
  2
AcAdDepMgr
  3
DesignerServices
 90
        0
280
     0
281
     0
  0
CLASS
  1
PARAMMGR
  2
AcAdParamMgr
  3
DesignerServices
 90
        0
280
     0
281
     0
  0
CLASS
  1
PARAMSCOPE
  2
AcAdParamScope
  3
DesignerServices
 90
        0
280
     0
281
     0
  0
CLASS
  1
ACIMSYSVARMAN
  2
AcImSysVarManager
  3
AcMeServices
 90
        0
280
     0
281
     0
  0
CLASS
  1
ACIMINTSYSVAR
  2
AcImIntSysVar
  3
AcMeServices
 90
        0
280
     0
281
     0
  0
CLASS
  1
ACIMREALSYSVAR
  2
AcImRealSysVar
  3
AcMeServices
 90
        0
280
     0
281
     0
  0
CLASS
  1
ACIMSTRSYSVAR
  2
AcImStrSysVar
  3
AcMeServices
 90
        0
280
     0
281
     0
  0
CLASS
  1
NAMEDAPPL
  2
AcAdNamedAppl
  3
DesignerServices
 90
        0
280
     0
281
     0
  0
CLASS
  1
ADHNTMPLT
  2
AdHoleNoteTemplateMgr
  3
DesignerServices
 90
    32768
280
     0
281
     0
  0
CLASS
  1
AM_HNTEMPLATE_MGR_NAME
  2
AdHoleNoteTemplateMgrName
  3
DesignerServices
 90
    32768
280
     0
281
     0
  0
CLASS
  1
ACADGREFMODULE
  2
AcAdGrefModule
  3
AdGrefServices
 90
        0
280
     0
281
     0
  0
CLASS
  1
AM_DRAWING_MGR
  2
AcDmDwgMgr
  3
AcMechDwgViewMgmt
 90
        0
280
     0
281
     0
  0
CLASS
  1
AM_DWG_DOCUMENT
  2
AcDmDwgDocument
  3
AcMechDwgViewMgmt
 90
        0
280
     0
281
     0
  0
CLASS
  1
AM_DWG_SHEET
  2
AcDmSheet
  3
AcMechDwgViewMgmt
 90
        0
280
     0
281
     0
  0
CLASS
  1
AM_VIEWDIMPARMAP
  2
AcDmViewDimParMap
  3
AcMechDwgViewMgmt
 90
        0
280
     0
281
     0
  0
CLASS
  1
AM_DWGMGR_NAME
  2
AcDmDwgMgrName
  3
AcMechDwgViewMgmt
 90
        0
280
     0
281
     0
  0
CLASS
  1
ACAMPROJECT
  2
AcAmProject
  3
DesignerAssemblies
 90
        0
280
     0
281
     0
  0
CLASS
  1
ACAMGRCOMPSET
  2
AcAmGrCompSet
  3
DesignerAssemblies
 90
    32768
280
     1
281
     0
  0
CLASS
  1
ACAMGRCOMPDEFSET
  2
AcAmGrCompDefSet
  3
DesignerAssemblies
 90
        0
280
     0
281
     0
  0
CLASS
  1
ACAMGRCOMPDEF
  2
AcAmGrCompDef
  3
DesignerAssemblies
 90
        0
280
     0
281
     0
  0
CLASS
  1
ACCMCONTEXT
  2
AcCmContext
  3
DesignerAssemblies
 90
        0
280
     0
281
     0
  0
CLASS
  1
ACAMCOMPDEF
  2
AcAmCompDef
  3
DesignerAssemblies
 90
        0
280
     0
281
     0
  0
CLASS
  1
ACAMCOMPDEFMGR
  2
AcAmCompDefMgr
  3
DesignerAssemblies
 90
        0
280
     0
281
     0
  0
CLASS
  1
AMCONTEXTMGR
  2
AcAmContextMgr
  3
DesignerAssemblies
 90
        0
280
     0
281
     0
  0
CLASS
  1
ACAMCONTEXTMODELER
  2
AcAmContextModeler
  3
DesignerAssemblies
 90
        0
280
     0
281
     0
  0
CLASS
  1
ACDMVIEWGEOM
  2
AcDmViewGeometry
  3
AcMechDwgViewMgmt
 90
    32768
280
     0
281
     1
  0
CLASS
  1
CBROWSERAPPOBJECT
  2
CBrowserAppObject
  3
McadcomServices
 90
        0
280
     0
281
     0
  0
CLASS
  1
IM_STATIC_MAN
  2
AcImStaticVarManager
  3
AcMeServices
 90
        0
280
     0
281
     0
  0
CLASS
  1
ASAPP
  2
AcAsAppObject
  3
AutoSurfServices
 90
        0
280
     0
281
     0
  0
CLASS
  1
ACIMDBLSTATICVAR
  2
AcImDblStaticVar
  3
AcMeServices
 90
        0
280
     0
281
     0
  0
CLASS
  1
ACIMSTRSTATICVAR
  2
AcImStrStaticVar
  3
AcMeServices
 90
        0
280
     0
281
     0
  0
CLASS
  1
ACIMINTSTATICVAR
  2
AcImIntStaticVar
  3
AcMeServices
 90
        0
280
     0
281
     0
  0
CLASS
  1
CATALOGSTATE
  2
AcAmCatalogState
  3
DesignerAssemblies
 90
        0
280
     0
281
     0
  0
CLASS
  1
DM_PLACEHOLDER
  2
AcDmSelsetPlaceholder
  3
AcMechDwgViewMgmt
 90
        0
280
     0
281
     0
  0
CLASS
  1
LAYER_INDEX
  2
AcDbLayerIndex
  3
ObjectDBX Classes
 90
        0
280
     0
281
     0
  0
CLASS
  1
IDBUFFER
  2
AcDbIdBuffer
  3
ObjectDBX Classes
 90
        0
280
     0
281
     0
  0
CLASS
  1
ACMSTANDARDJIS
  2
AcmStandardJIS
  3
"Amdt_StdImp|Product Description: AutoCAD Mechanical 2004 DX|Company: Autodesk"
 90
    32768
280
     0
281
     0
  0
CLASS
  1
ACMSTANDARDANSI
  2
AcmStandardANSI
  3
"Amdt_StdImp|Product Description: AutoCAD Mechanical 2004 DX|Company: Autodesk"
 90
    32768
280
     0
281
     0
  0
CLASS
  1
ACMSTANDARDBSI
  2
AcmStandardBSI
  3
"Amdt_StdImp|Product Description: AutoCAD Mechanical 2004 DX|Company: Autodesk"
 90
    32768
280
     0
281
     0
  0
CLASS
  1
ACMSTANDARDDIN
  2
AcmStandardDIN
  3
"Amdt_StdImp|Product Description: AutoCAD Mechanical 2004 DX|Company: Autodesk"
 90
    32768
280
     0
281
     0
  0
CLASS
  1
ACMSTANDARDISO
  2
AcmStandardISO
  3
"Amdt_StdImp|Product Description: AutoCAD Mechanical 2004 DX|Company: Autodesk"
 90
        0
280
     0
281
     0
  0
CLASS
  1
ACDBDICTIONARYWDFLT
  2
AcDbDictionaryWithDefault
  3
ObjectDBX Classes
 90
        0
280
     0
281
     0
  0
CLASS
  1
ACDBPLACEHOLDER
  2
AcDbPlaceHolder
  3
ObjectDBX Classes
 90
        0
280
     0
281
     0
  0
CLASS
  1
LAYOUT
  2
AcDbLayout
  3
ObjectDBX Classes
 90
        0
280
     0
281
     0
  0
CLASS
  1
ACME_DOCUMENT
  2
AcMeDbDoc
  3
AcMeServices
 90
        0
280
     0
281
     0
  0
CLASS
  1
AMGSETTINGSOBJ
  2
AmgSettingsObj
  3
"AcadM|Product Description: AutoCAD Mechanical 2000|Company: Autodesk"
 90
        0
280
     0
281
     0
  0
CLASS
  1
AMGOBJPROPCFG
  2
AmgObjPropCfg
  3
"AmgLay|Product Description: AutoCAD Mechanical 2000|Company: Autodesk"
 90
        1
280
     0
281
     0
  0
CLASS
  1
ACDBENTITYCACHE
  2
AcMeEntityCache
  3
AcMeServices
 90
        0
280
     0
281
     0
  0
CLASS
  1
GSMANAGER
  2
AcMeGSManager
  3
AcMeServices
 90
        0
280
     0
281
     0
  0
CLASS
  1
AMDTINTERNALREACTOR
  2
AmdtInternalReactor
  3
AcMeServices
 90
        0
280
     0
281
     0
  0
CLASS
  1
ACME_DATABASE
  2
AcMeDbDatabase
  3
AcMeServices
 90
        0
280
     0
281
     0
  0
CLASS
  1
ACGREFACADMASTER
  2
AcGrefacadMaster
  3
AcGrefServices
 90
        0
280
     0
281
     0
  0
CLASS
  1
AMDTMENUSTATEMGR
  2
AmdtMenuStateMgr
  3
McadcomServices
 90
        0
280
     0
281
     0
  0
CLASS
  1
AMDTMCOMMENUSTATE
  2
AmdtMcomMenuState
  3
McadcomServices
 90
        0
280
     0
281
     0
  0
CLASS
  1
MAPIADMODULE
  2
MApiAdModule
  3
MApiAdServices
 90
        0
280
     0
281
     0
  0
CLASS
  1
AMDTDMMENUSTATE
  2
AmdtDmMenuState
  3
AcMechDwgViewMgmt
 90
        0
280
     0
281
     0
  0
CLASS
  1
AMDTADMENUSTATE
  2
AmdtAdMenuState
  3
DesignerServices
 90
        0
280
     0
281
     0
  0
CLASS
  1
AMDTAMMENUSTATE
  2
AmdtAmMenuState
  3
DesignerAssemblies
 90
        0
280
     0
281
     0
  0
CLASS
  1
ACMDATADICTIONARY
  2
AcmDataDictionary
  3
"AcmSymBB|Product Description: AutoCAD Mechanical 2004 DX|Company: Autodesk"
 90
        0
280
     0
281
     0
  0
CLASS
  1
ACMDATAENTRYBLOCK
  2
AcmDataEntryBlock
  3
"AcmSymBB|Product Description: AutoCAD Mechanical 2004 DX|Company: Autodesk"
 90
        0
280
     0
281
     0
  0
CLASS
  1
ACMSURFSTANDARDJIS
  2
AcmSurfTextStdJIS
  3
"Amdt_StdImp|Product Description: AutoCAD Mechanical 2004 DX|Company: Autodesk"
 90
    32768
280
     0
281
     0
  0
CLASS
  1
ACMFCFSTANDARDJIS
  2
AcmFCFStdJIS
  3
"Amdt_StdImp|Product Description: AutoCAD Mechanical 2004 DX|Company: Autodesk"
 90
    32768
280
     0
281
     0
  0
CLASS
  1
ACMWELDSTANDARDJIS
  2
AcmWeldingStdJIS
  3
"Amdt_StdImp|Product Description: AutoCAD Mechanical 2004 DX|Company: Autodesk"
 90
    32768
280
     0
281
     0
  0
CLASS
  1
ACMIDSTANDARDJIS
  2
AcmIdStdJIS
  3
"Amdt_StdImp|Product Description: AutoCAD Mechanical 2004 DX|Company: Autodesk"
 90
    32768
280
     0
281
     0
  0
CLASS
  1
ACMDATUMSTANDARDJIS
  2
AcmDatumStdJIS
  3
"Amdt_StdImp|Product Description: AutoCAD Mechanical 2004 DX|Company: Autodesk"
 90
    32768
280
     0
281
     0
  0
CLASS
  1
ACMBOMSTANDARDJIS
  2
AcmBOMStdJIS
  3
"Amdt_StdImp|Product Description: AutoCAD Mechanical 2004 DX|Company: Autodesk"
 90
    32768
280
     0
281
     0
  0
CLASS
  1
ACMSURFSTANDARDANSI
  2
AcmSurfTextStdANSI
  3
"Amdt_StdImp|Product Description: AutoCAD Mechanical 2004 DX|Company: Autodesk"
 90
    32768
280
     0
281
     0
  0
CLASS
  1
ACMFCFSTANDARDANSI
  2
AcmFCFStdANSI
  3
"Amdt_StdImp|Product Description: AutoCAD Mechanical 2004 DX|Company: Autodesk"
 90
    32768
280
     0
281
     0
  0
CLASS
  1
ACMWELDSTANDARDANSI
  2
AcmWeldingStdANSI
  3
"Amdt_StdImp|Product Description: AutoCAD Mechanical 2004 DX|Company: Autodesk"
 90
    32768
280
     0
281
     0
  0
CLASS
  1
ACMIDSTANDARDANSI
  2
AcmIdStdANSI
  3
"Amdt_StdImp|Product Description: AutoCAD Mechanical 2004 DX|Company: Autodesk"
 90
    32768
280
     0
281
     0
  0
CLASS
  1
ACMDATUMSTANDARDANSI
  2
AcmDatumStdANSI
  3
"Amdt_StdImp|Product Description: AutoCAD Mechanical 2004 DX|Company: Autodesk"
 90
    32768
280
     0
281
     0
  0
CLASS
  1
ACMBOMSTANDARDANSI
  2
AcmBOMStdANSI
  3
"Amdt_StdImp|Product Description: AutoCAD Mechanical 2004 DX|Company: Autodesk"
 90
    32768
280
     0
281
     0
  0
CLASS
  1
ACMSURFSTANDARDBSI
  2
AcmSurfTextStdBSI
  3
"Amdt_StdImp|Product Description: AutoCAD Mechanical 2004 DX|Company: Autodesk"
 90
    32768
280
     0
281
     0
  0
CLASS
  1
ACMFCFSTANDARDBSI
  2
AcmFCFStdBSI
  3
"Amdt_StdImp|Product Description: AutoCAD Mechanical 2004 DX|Company: Autodesk"
 90
    32768
280
     0
281
     0
  0
CLASS
  1
ACMWELDSTANDARDBSI
  2
AcmWeldingStdBSI
  3
"Amdt_StdImp|Product Description: AutoCAD Mechanical 2004 DX|Company: Autodesk"
 90
    32768
280
     0
281
     0
  0
CLASS
  1
ACMIDSTANDARDBSI
  2
AcmIdStdBSI
  3
"Amdt_StdImp|Product Description: AutoCAD Mechanical 2004 DX|Company: Autodesk"
 90
    32768
280
     0
281
     0
  0
CLASS
  1
ACMDATUMSTANDARDBSI
  2
AcmDatumStdBSI
  3
"Amdt_StdImp|Product Description: AutoCAD Mechanical 2004 DX|Company: Autodesk"
 90
    32768
280
     0
281
     0
  0
CLASS
  1
ACMBOMSTANDARDBSI
  2
AcmBOMStdBSI
  3
"Amdt_StdImp|Product Description: AutoCAD Mechanical 2004 DX|Company: Autodesk"
 90
    32768
280
     0
281
     0
  0
CLASS
  1
AMDTEDGESTANDARDDIN
  2
AmdtEdgeStdDIN
  3
"Amdt_StdImp|Product Description: AutoCAD Mechanical 2004 DX|Company: Autodesk"
 90
    32768
280
     0
281
     0
  0
CLASS
  1
ACMSURFSTANDARDDIN
  2
AcmSurfTextStdDIN
  3
"Amdt_StdImp|Product Description: AutoCAD Mechanical 2004 DX|Company: Autodesk"
 90
    32768
280
     0
281
     0
  0
CLASS
  1
ACMFCFSTANDARDDIN
  2
AcmFCFStdDIN
  3
"Amdt_StdImp|Product Description: AutoCAD Mechanical 2004 DX|Company: Autodesk"
 90
    32768
280
     0
281
     0
  0
CLASS
  1
ACMWELDSTANDARDDIN
  2
AcmWeldingStdDIN
  3
"Amdt_StdImp|Product Description: AutoCAD Mechanical 2004 DX|Company: Autodesk"
 90
    32768
280
     0
281
     0
  0
CLASS
  1
ACMIDSTANDARDDIN
  2
AcmIdStdDIN
  3
"Amdt_StdImp|Product Description: AutoCAD Mechanical 2004 DX|Company: Autodesk"
 90
    32768
280
     0
281
     0
  0
CLASS
  1
ACMDATUMSTANDARDDIN
  2
AcmDatumStdDIN
  3
"Amdt_StdImp|Product Description: AutoCAD Mechanical 2004 DX|Company: Autodesk"
 90
    32768
280
     0
281
     0
  0
CLASS
  1
ACMBOMSTANDARDDIN
  2
AcmBOMStdDIN
  3
"Amdt_StdImp|Product Description: AutoCAD Mechanical 2004 DX|Company: Autodesk"
 90
    32768
280
     0
281
     0
  0
CLASS
  1
ACMSURFSTANDARDISO
  2
AcmSurfTextStdISO
  3
"Amdt_StdImp|Product Description: AutoCAD Mechanical 2004 DX|Company: Autodesk"
 90
        0
280
     0
281
     0
  0
CLASS
  1
ACMFCFSTANDARDISO
  2
AcmFCFStdISO
  3
"Amdt_StdImp|Product Description: AutoCAD Mechanical 2004 DX|Company: Autodesk"
 90
        0
280
     0
281
     0
  0
CLASS
  1
ACMWELDSTANDARDISO
  2
AcmWeldingStdISO
  3
"Amdt_StdImp|Product Description: AutoCAD Mechanical 2004 DX|Company: Autodesk"
 90
        0
280
     0
281
     0
  0
CLASS
  1
ACMIDSTANDARDISO
  2
AcmIdStdISO
  3
"Amdt_StdImp|Product Description: AutoCAD Mechanical 2004 DX|Company: Autodesk"
 90
        0
280
     0
281
     0
  0
CLASS
  1
ACMDATUMSTANDARDISO
  2
AcmDatumStdISO
  3
"Amdt_StdImp|Product Description: AutoCAD Mechanical 2004 DX|Company: Autodesk"
 90
        0
280
     0
281
     0
  0
CLASS
  1
ACMBOMSTANDARDISO
  2
AcmBOMStdISO
  3
"Amdt_StdImp|Product Description: AutoCAD Mechanical 2004 DX|Company: Autodesk"
 90
        0
280
     0
281
     0
  0
CLASS
  1
AMDTBROWSERDBTAB
  2
AmdtBrowserDbTab
  3
McadcomServices
 90
        0
280
     0
281
     0
  0
CLASS
  1
ACAMGFILTERDAT
  2
AcAmgFilterDat
  3
"AcadM|Product Description: AutoCAD Mechanical 2000|Company: Autodesk"
 90
    32768
280
     0
281
     0
  0
CLASS
  1
MAPIAMMOUDLE
  2
MApiAmModule
  3
MApiAmServices
 90
        0
280
     0
281
     0
  0
CLASS
  1
AMDTMAPISURFMOUDULE
  2
AmdtMApiSurfModule
  3
MApiSurfServices
 90
        0
280
     0
281
     0
  0
CLASS
  1
ACAMGLAYSTD
  2
AcAmgLayStd
  3
"AcAmgLayStd|Product Description: AutoCAD Mechanical 2000|Company: Autodesk"
 90
        0
280
     0
281
     0
  0
CLASS
  1
ACAMGDIMSTD
  2
AcAmgDimStd
  3
"AcAmgDimStd|Product Description: AutoCAD Mechanical 2000|Company: Autodesk"
 90
        0
280
     0
281
     0
  0
CLASS
  1
ACAMGTITLESTD
  2
AcAmgTitleStd
  3
"TITLEAPP"
 90
        0
280
     0
281
     0
  0
CLASS
  1
ACMDETAILSTANDARDJIS
  2
AmdtDetailSymStdJIS
  3
"Amdt_StdImp|Product Description: AutoCAD Mechanical 2004 DX|Company: Autodesk"
 90
    32768
280
     0
281
     0
  0
CLASS
  1
ACMSECTIONSTANDARDJIS
  2
AmdtSectionSymStdJIS
  3
"Amdt_StdImp|Product Description: AutoCAD Mechanical 2004 DX|Company: Autodesk"
 90
    32768
280
     0
281
     0
  0
CLASS
  1
ACMCENTERLINESTANDARDJIS
  2
AmdtCenterLineStdJIS
  3
"Amdt_StdImp|Product Description: AutoCAD Mechanical 2004 DX|Company: Autodesk"
 90
    32768
280
     0
281
     0
  0
CLASS
  1
ACMTHREADLINESTANDARDJIS
  2
AmdtThreadLineStdJIS
  3
"Amdt_StdImp|Product Description: AutoCAD Mechanical 2004 DX|Company: Autodesk"
 90
    32768
280
     0
281
     0
  0
CLASS
  1
ACMDETAILSTANDARDANSI
  2
AmdtDetailSymStdANSI
  3
"Amdt_StdImp|Product Description: AutoCAD Mechanical 2004 DX|Company: Autodesk"
 90
    32768
280
     0
281
     0
  0
CLASS
  1
ACMSECTIONSTANDARDANSI
  2
AmdtSectionSymStdANSI
  3
"Amdt_StdImp|Product Description: AutoCAD Mechanical 2004 DX|Company: Autodesk"
 90
    32768
280
     0
281
     0
  0
CLASS
  1
ACMCENTERLINESTANDARDANSI
  2
AmdtCenterLineStdANSI
  3
"Amdt_StdImp|Product Description: AutoCAD Mechanical 2004 DX|Company: Autodesk"
 90
    32768
280
     0
281
     0
  0
CLASS
  1
ACMTHREADLINESTANDARDANSI
  2
AmdtThreadLineStdANSI
  3
"Amdt_StdImp|Product Description: AutoCAD Mechanical 2004 DX|Company: Autodesk"
 90
    32768
280
     0
281
     0
  0
CLASS
  1
ACMDETAILSTANDARDBSI
  2
AmdtDetailSymStdBSI
  3
"Amdt_StdImp|Product Description: AutoCAD Mechanical 2004 DX|Company: Autodesk"
 90
    32768
280
     0
281
     0
  0
CLASS
  1
ACMSECTIONSTANDARDBSI
  2
AmdtSectionSymStdBSI
  3
"Amdt_StdImp|Product Description: AutoCAD Mechanical 2004 DX|Company: Autodesk"
 90
    32768
280
     0
281
     0
  0
CLASS
  1
ACMCENTERLINESTANDARDBSI
  2
AmdtCenterLineStdBSI
  3
"Amdt_StdImp|Product Description: AutoCAD Mechanical 2004 DX|Company: Autodesk"
 90
    32768
280
     0
281
     0
  0
CLASS
  1
ACMTHREADLINESTANDARDBSI
  2
AmdtThreadLineStdBSI
  3
"Amdt_StdImp|Product Description: AutoCAD Mechanical 2004 DX|Company: Autodesk"
 90
    32768
280
     0
281
     0
  0
CLASS
  1
ACMDETAILSTANDARDDIN
  2
AmdtDetailSymStdDIN
  3
"Amdt_StdImp|Product Description: AutoCAD Mechanical 2004 DX|Company: Autodesk"
 90
    32768
280
     0
281
     0
  0
CLASS
  1
ACMSECTIONSTANDARDDIN
  2
AmdtSectionSymStdDIN
  3
"Amdt_StdImp|Product Description: AutoCAD Mechanical 2004 DX|Company: Autodesk"
 90
    32768
280
     0
281
     0
  0
CLASS
  1
ACMCENTERLINESTANDARDDIN
  2
AmdtCenterLineStdDIN
  3
"Amdt_StdImp|Product Description: AutoCAD Mechanical 2004 DX|Company: Autodesk"
 90
    32768
280
     0
281
     0
  0
CLASS
  1
ACMTHREADLINESTANDARDDIN
  2
AmdtThreadLineStdDIN
  3
"Amdt_StdImp|Product Description: AutoCAD Mechanical 2004 DX|Company: Autodesk"
 90
    32768
280
     0
281
     0
  0
CLASS
  1
AMDTEDGESTANDARDISO
  2
AmdtEdgeStdISO
  3
"Amdt_StdImp|Product Description: AutoCAD Mechanical 2004 DX|Company: Autodesk"
 90
    32768
280
     0
281
     0
  0
CLASS
  1
ACMDETAILSTANDARDISO
  2
AmdtDetailSymStdISO
  3
"Amdt_StdImp|Product Description: AutoCAD Mechanical 2004 DX|Company: Autodesk"
 90
        0
280
     0
281
     0
  0
CLASS
  1
ACMSECTIONSTANDARDISO
  2
AmdtSectionSymStdISO
  3
"Amdt_StdImp|Product Description: AutoCAD Mechanical 2004 DX|Company: Autodesk"
 90
        0
280
     0
281
     0
  0
CLASS
  1
ACMCENTERLINESTANDARDISO
  2
AmdtCenterLineStdISO
  3
"Amdt_StdImp|Product Description: AutoCAD Mechanical 2004 DX|Company: Autodesk"
 90
        0
280
     0
281
     0
  0
CLASS
  1
ACMTHREADLINESTANDARDISO
  2
AmdtThreadLineStdISO
  3
"Amdt_StdImp|Product Description: AutoCAD Mechanical 2004 DX|Company: Autodesk"
 90
        0
280
     0
281
     0
  0
CLASS
  1
ACMNOTESTANDARDISO
  2
AmdtNoteStdISO
  3
"Amdt_StdImp|Product Description: AutoCAD Mechanical 2004 DX|Company: Autodesk"
 90
        0
280
     0
281
     0
  0
CLASS
  1
ACAMGHOLECHARTSTDISO
  2
AcAmgHoleChartStdISO
  3
ACMSYMBB_MODULE_NAME
 90
        0
280
     0
281
     0
  0
CLASS
  1
ACMNOTESTANDARDANSI
  2
AmdtNoteStdANSI
  3
"Amdt_StdImp|Product Description: AutoCAD Mechanical 2004 DX|Company: Autodesk"
 90
    32768
280
     0
281
     0
  0
CLASS
  1
AMDTNOTETEMPLATEDB
  2
AmdtNoteTemplateDB
  3
AMDT_STDIMP_MODULE_NAME
 90
        0
280
     0
281
     0
  0
CLASS
  1
ACAMGHOLECHARTSTDANSI
  2
AcAmgHoleChartStdANSI
  3
ACMSYMBB_MODULE_NAME
 90
    32768
280
     0
281
     0
  0
CLASS
  1
TABLESTYLE
  2
AcDbTableStyle
  3
ObjectDBX Classes
 90
     2047
280
     0
281
     0
  0
CLASS
  1
ACMBOM
  2
AcmBom
  3
"AcmSymBB|Product Description: AutoCAD Mechanical 2004 DX|Company: Autodesk"
 90
    32768
280
     0
281
     0
  0
CLASS
  1
AMDTFORMULAUPDATEDISPATCHER
  2
AmdtFormulaUpdateDispatcher
  3
AcMeServices
 90
    32768
280
     0
281
     0
  0
CLASS
  1
ACMPARTLIST
  2
AcmPartList
  3
"AcmSymBB|Product Description: AutoCAD Mechanical 2004 DX|Company: Autodesk"
 90
    33791
280
     0
281
     1
  0
CLASS
  1
VAACXREFPANELOBJECT
  2
VaAcXREFPanelObject
  3
VAAC_ADDIN
 90
    32768
280
     1
281
     0
  0
CLASS
  1
VAACIMAGEINVENTORY
  2
VaAcImageInventory
  3
VAAC_ADDIN
 90
    32768
280
     1
281
     0
  0
CLASS
  1
ACAMEXTERNALCOMPDEF
  2
AcAmExternalCompDef
  3
DesignerAssemblies
 90
    32768
280
     0
281
     0
  0
CLASS
  1
ACCMBODY
  2
AcCmBody
  3
DesignerAssemblies
 90
    32768
280
     0
281
     0
  0
CLASS
  1
ACAMCOMPENT
  2
AcAmCompEnt
  3
DesignerAssemblies
 90
    32768
280
     0
281
     1
  0
CLASS
  1
ACAMCOMPFEEDBACK
  2
AcAmCompFeedback
  3
DesignerAssemblies
 90
    32768
280
     0
281
     0
  0
CLASS
  1
ACAMCOMP
  2
AcAmComp
  3
DesignerAssemblies
 90
    32768
280
     0
281
     0
  0
CLASS
  1
ACAMCOMPENTCLONE
  2
AcAmCompEntClone
  3
DesignerAssemblies
 90
    32768
280
     0
281
     1
  0
CLASS
  1
ACAMCLONEREACTOR
  2
AcAmGrCompCloneReactor
  3
DesignerAssemblies
 90
    32768
280
     0
281
     0
  0
CLASS
  1
ACAMXREFCONTEXTMODELER
  2
AcAmXrefContextModeler
  3
DesignerAssemblies
 90
    32768
280
     0
281
     0
  0
CLASS
  1
ADPART
  2
AcAdPart
  3
DesignerServices
 90
    32768
280
     0
281
     1
  0
CLASS
  1
WORKPLANEDISPLAYMGR
  2
AcAdDisplayMgr
  3
DesignerServices
 90
    32768
280
     0
281
     0
  0
CLASS
  1
ADBASE
  2
AcAdBase
  3
DesignerServices
 90
    32768
280
     0
281
     0
  0
CLASS
  1
ADDATUMPLANEABS
  2
AcAdDatumPlaneAbs
  3
DesignerServices
 90
    32768
280
     0
281
     0
  0
CLASS
  1
ADDATUMAXISABS
  2
AcAdDatumAxisAbs
  3
DesignerServices
 90
    32768
280
     0
281
     0
  0
CLASS
  1
PARAM
  2
AcAdParam
  3
DesignerServices
 90
    32768
280
     0
281
     0
  0
CLASS
  1
BODYID
  2
AcAdBodyId
  3
DesignerServices
 90
    32768
280
     0
281
     0
  0
CLASS
  1
ADDATUMORIENTEDPLANE
  2
AcAdDatumOrientedPlane
  3
DesignerServices
 90
    32768
280
     0
281
     0
  0
CLASS
  1
ACADCONSGROUP
  2
AcAdConstraintGroup
  3
DesignerServices
 90
    32768
280
     0
281
     0
  0
CLASS
  1
ACADREFLINEACAD
  2
AcAdVirtualReferenceLine
  3
DesignerServices
 90
    32768
280
     0
281
     0
  0
CLASS
  1
ACADCONSLINE
  2
AcAdConstrainedLine
  3
DesignerServices
 90
    32768
280
     0
281
     0
  0
CLASS
  1
ACADLINEACAD
  2
AcAdVirtualBoundedLineAcad
  3
DesignerServices
 90
    32768
280
     0
281
     0
  0
CLASS
  1
ACADCONSPOINT
  2
AcAdConstrainedPoint
  3
DesignerServices
 90
    32768
280
     0
281
     0
  0
CLASS
  1
ADPCURCNS
  2
AcAdPointCurveConstr
  3
DesignerServices
 90
    32768
280
     0
281
     0
  0
CLASS
  1
ADHORCNS
  2
AcAdHorizontalConstr
  3
DesignerServices
 90
    32768
280
     0
281
     0
  0
CLASS
  1
ADVERCNS
  2
AcAdVerticalConstr
  3
DesignerServices
 90
    32768
280
     0
281
     0
  0
CLASS
  1
ACAD_FIXCONSTRAINT
  2
AcAdFixedConstraint
  3
DesignerServices
 90
    32768
280
     0
281
     0
  0
CLASS
  1
ADHDISTCNS
  2
AcAdHorizontalDistanceConstr
  3
DesignerServices
 90
    32768
280
     0
281
     0
  0
CLASS
  1
ADVDISTCNS
  2
AcAdVerticalDistanceConstr
  3
DesignerServices
 90
    32768
280
     0
281
     0
  0
CLASS
  1
ACADIMPPTACAD
  2
AcAdVirtualImplicitPoint
  3
DesignerServices
 90
    32768
280
     0
281
     0
  0
CLASS
  1
ADCLPROF2D
  2
AcAdClosedProfile2d
  3
DesignerServices
 90
    32768
280
     0
281
     0
  0
CLASS
  1
DEPEDGEFEATUREORDERING
  2
AcAdDepEdgeFeatureOrdering
  3
DesignerServices
 90
    32768
280
     0
281
     0
  0
CLASS
  1
ACADVOLFEATWITHTRIM
  2
AcAdVolFeatWithTrim
  3
DesignerServices
 90
    32768
280
     0
281
     0
  0
CLASS
  1
ADPLANEID
  2
AcAdPlaneId
  3
DesignerServices
 90
    32768
280
     0
281
     0
  0
CLASS
  1
EDGEID
  2
AcAdEdgeId
  3
DesignerServices
 90
    32768
280
     0
281
     0
  0
CLASS
  1
CNRREFID
  2
AcAdCornerId
  3
DesignerServices
 90
    32768
280
     0
281
     0
  0
CLASS
  1
STREFID
  2
AcAdStraightRefId
  3
DesignerServices
 90
    32768
280
     0
281
     0
  0
CLASS
  1
ADDATUMPLANEFACE
  2
AcAdDatumPlaneFace
  3
DesignerServices
 90
    32768
280
     0
281
     0
  0
CLASS
  1
DATUMPLANEDISPLAY
  2
AcAdDatumPlaneDisplay
  3
DesignerServices
 90
    32768
280
     0
281
     1
  0
CLASS
  1
ADDATUMPLANEOFFSET
  2
AcAdDatumPlaneOffset
  3
DesignerServices
 90
    32768
280
     0
281
     0
  0
CLASS
  1
ADACADANGCNS
  2
AcAdAcadAngleConstr
  3
DesignerServices
 90
    32768
280
     0
281
     0
  0
CLASS
  1
ACADLINEDEPID
  2
AcAdVirtualLineDepId
  3
DesignerServices
 90
    32768
280
     0
281
     0
  0
CLASS
  1
ADCOLNCNS
  2
AcAdColinearConstr
  3
DesignerServices
 90
    32768
280
     0
281
     0
  0
CLASS
  1
ACADPOINTDEPID
  2
AcAdVirtualPointDepId
  3
DesignerServices
 90
    32768
280
     0
281
     0
  0
CLASS
  1
ACADCIRCLEACAD
  2
AcAdVirtualCircleAcad
  3
DesignerServices
 90
    32768
280
     0
281
     0
  0
CLASS
  1
ACADCONSCIRCLE
  2
AcAdConstrainedCircle
  3
DesignerServices
 90
    32768
280
     0
281
     0
  0
CLASS
  1
ADCTRPTCNS
  2
AcAdCenterPointConstr
  3
DesignerServices
 90
    32768
280
     0
281
     0
  0
CLASS
  1
ADACADDIACNS
  2
AcAdAcadDiameterConstr
  3
DesignerServices
 90
    32768
280
     0
281
     0
  0
CLASS
  1
ACADARCACAD
  2
AcAdVirtualArcAcad
  3
DesignerServices
 90
    32768
280
     0
281
     0
  0
CLASS
  1
ADTANCNS
  2
AcAdTangentConstr
  3
DesignerServices
 90
    32768
280
     0
281
     0
  0
CLASS
  1
ADPARCNS
  2
AcAdParallelConstr
  3
DesignerServices
 90
    32768
280
     0
281
     0
  0
CLASS
  1
ADCONCCNS
  2
AcAdConcentricConstr
  3
DesignerServices
 90
    32768
280
     0
281
     0
  0
CLASS
  1
ADEQRADCNS
  2
AcAdEqualRadiusConstr
  3
DesignerServices
 90
    32768
280
     0
281
     0
  0
CLASS
  1
ADACADRADCNS
  2
AcAdAcadRadiusConstr
  3
DesignerServices
 90
    32768
280
     0
281
     0
  0
CLASS
  1
CIRREFID
  2
AcAdCircleRefId
  3
DesignerServices
 90
    32768
280
     0
281
     0
  0
CLASS
  1
ACADCIRCDEPID
  2
AcAdVirtualCircleDepId
  3
DesignerServices
 90
    32768
280
     0
281
     0
  0
CLASS
  1
ADFILLET
  2
AcAdFillet
  3
DesignerServices
 90
    32768
280
     0
281
     0
  0
CLASS
  1
ADSURFGEOMID
  2
AcAdSurfGeomId
  3
DesignerServices
 90
    32768
280
     0
281
     0
  0
CLASS
  1
DATUMAXISDISPLAY
  2
AcAdDatumAxisDisplay
  3
DesignerServices
 90
    32768
280
     0
281
     1
  0
CLASS
  1
ADDATUMAXISCENTER
  2
AcAdDatumAxisCenter
  3
DesignerServices
 90
    32768
280
     0
281
     0
  0
CLASS
  1
DEPEDGESECONDARYDEPID
  2
AcAdDepEdgeSecondaryDepId
  3
DesignerServices
 90
    32768
280
     0
281
     0
  0
CLASS
  1
ADDATUMPOINTAXISPLANE
  2
AcAdDatumPointAxisPlane
  3
DesignerServices
 90
    32768
280
     0
281
     0
  0
CLASS
  1
ADHOLEFEAT
  2
AcAdHoleFeat
  3
DesignerServices
 90
    32768
280
     0
281
     0
  0
CLASS
  1
ADDATUMPLANEAXISPLANE
  2
AcAdDatumPlaneAxisPlane
  3
DesignerServices
 90
    32768
280
     0
281
     0
  0
CLASS
  1
ACADBOUNDEDLINEDATUMID
  2
AcAdVirtualBoundedLineDatumId
  3
DesignerServices
 90
    32768
280
     0
281
     0
  0
CLASS
  1
OSTREFID
  2
AcAdOrientedStraightRefId
  3
DesignerServices
 90
    32768
280
     0
281
     0
  0
CLASS
  1
ADDATUMPOINT2EDGES
  2
AcAdDatumPoint2Edges
  3
DesignerServices
 90
    32768
280
     0
281
     0
  0
CLASS
  1
DEPEDGEPATTERNFEATURE
  2
AcAdDepEdgePatternFeature
  3
DesignerServices
 90
    32768
280
     0
281
     0
  0
CLASS
  1
ACADPATTNFEAT
  2
AcAdPatternFeat
  3
DesignerServices
 90
    32768
280
     0
281
     0
  0
CLASS
  1
SORTENTSTABLE
  2
AcDbSortentsTable
  3
ObjectDBX Classes
 90
        0
280
     0
281
     0
  0
CLASS
  1
ACAMGROUNDEDBASECOMP
  2
AcAmGroundedBaseComp
  3
DesignerAssemblies
 90
    32768
280
     0
281
     0
  0
CLASS
  1
ADPROJCNS
  2
AcAdProjectionConstr
  3
DesignerServices
 90
    32768
280
     0
281
     0
  0
CLASS
  1
ADPDISTCNS
  2
AcAdParallelDistanceConstr
  3
DesignerServices
 90
    32768
280
     0
281
     0
  0
CLASS
  1
DEPEDGEPATTERNINSTANCE
  2
AcAdDepEdgePatternInstance
  3
DesignerServices
 90
    32768
280
     0
281
     0
  0
CLASS
  1
ADPCOICNS
  2
AcAdPointCoincidenceConstr
  3
DesignerServices
 90
    32768
280
     0
281
     0
  0
CLASS
  1
ACADPARTLINEDGRES
  2
AcAdPartLinEdgRes
  3
AdGrefServices
 90
    32768
280
     0
281
     0
  0
CLASS
  1
ACRFINSADJ
  2
AcRfInsAdjuster
  3
AcMeServices
 90
    32768
280
     0
281
     0
  0
CLASS
  1
ACMEAXIS
  2
AcImAxisDisplay
  3
AcMeServices
 90
    32768
280
     0
281
     1
  0
CLASS
  1
FACEID
  2
AcAdFaceId
  3
DesignerServices
 90
    32768
280
     0
281
     0
  0
CLASS
  1
ACADPARTPLANARFACERES
  2
AcAdPartPlanarFaceRes
  3
AdGrefServices
 90
    32768
280
     0
281
     0
  0
CLASS
  1
ACMELINEARARROW
  2
AcImLinearArrowDisplay
  3
AcMeServices
 90
    32768
280
     0
281
     1
  0
CLASS
  1
ACADPARTCIRCEDGRES
  2
AcAdPartCircEdgRes
  3
AdGrefServices
 90
    32768
280
     0
281
     0
  0
CLASS
  1
ACADPARTCYLINDERFACERES
  2
AcAdPartCylinderFaceRes
  3
AdGrefServices
 90
    32768
280
     0
281
     0
  0
CLASS
  1
ACAMEXPR
  2
AcAmExpr
  3
DesignerAssemblies
 90
    32768
280
     0
281
     0
  0
CLASS
  1
ACCMDISTPLPL
  2
AcCmDistPlPl
  3
DesignerAssemblies
 90
    32768
280
     0
281
     0
  0
CLASS
  1
ACCMCONSTREACTOR
  2
AcCmConstraintReactor
  3
DesignerAssemblies
 90
    32768
280
     0
281
     0
  0
CLASS
  1
ACCMDISTLNLN
  2
AcCmDistLnLn
  3
DesignerAssemblies
 90
    32768
280
     0
281
     0
  0
CLASS
  1
ACCMANGVECVEC
  2
AcCmAngVecVec
  3
DesignerAssemblies
 90
    32768
280
     0
281
     0
  0
CLASS
  1
ACAMBLANKBODYCOMP
  2
AcAmBlankBodyComp
  3
DesignerAssemblies
 90
    32768
280
     0
281
     0
  0
CLASS
  1
ACAMTOOLBODYCOMP
  2
AcAmToolBodyComp
  3
DesignerAssemblies
 90
    32768
280
     0
281
     0
  0
CLASS
  1
ADPARAMETRICBOOLEAN
  2
AcAdParametricBoolean
  3
DesignerServices
 90
    32768
280
     0
281
     0
  0
CLASS
  1
DEPEDGEPARAMETRCBOOLORDERING
  2
AcAdDepEdgeParametricBooleanOrdering
  3
DesignerServices
 90
    32768
280
     0
281
     0
  0
CLASS
  1
AMACTIVEPARTSELECTFILTER
  2
AcDmActivePartViewEntFilter
  3
DesignerServices
 90
    32768
280
     0
281
     0
  0
CLASS
  1
AM_GREF_PLANE
  2
AcDmGrefPlnDef
  3
AcMechDwgViewMgmt
 90
    32768
280
     0
281
     0
  0
CLASS
  1
AM_ABS_AXIS
  2
AcDmAbsAxisDef
  3
AcMechDwgViewMgmt
 90
    32768
280
     0
281
     0
  0
CLASS
  1
AM_BASE_VIEW_ORIENT
  2
AcDmBaseViewOr
  3
AcMechDwgViewMgmt
 90
    32768
280
     0
281
     0
  0
CLASS
  1
AM_DWG_VIEWPORT
  2
AcDmViewport
  3
AcMechDwgViewMgmt
 90
    32768
280
     0
281
     0
  0
CLASS
  1
AM_VIEW_DISPLAY
  2
AcDmDwgViewDisplay
  3
AcMechDwgViewMgmt
 90
    32768
280
     0
281
     0
  0
CLASS
  1
AM_CLDFLTS
  2
AcDmClDflts
  3
AcMechDwgViewMgmt
 90
    32768
280
     0
281
     0
  0
CLASS
  1
AM_BASE_VIEW
  2
AcDmBaseView
  3
AcMechDwgViewMgmt
 90
    32768
280
     0
281
     0
  0
CLASS
  1
ACMEPLINE
  2
AcImPlineDisplay
  3
AcMeServices
 90
    32768
280
     0
281
     1
  0
CLASS
  1
ACDMPARTVIEWDATA
  2
AcDmPartViewData
  3
AcMechDwgViewMgmt
 90
    32768
280
     0
281
     0
  0
CLASS
  1
ACDMDISPLAYATTRIBS
  2
AcDmDisplayAttribs
  3
AcMechDwgViewMgmt
 90
    32768
280
     0
281
     0
  0
CLASS
  1
ACDMBODYINSTANCEDATA
  2
AcDmBodyInstanceData
  3
AcMechDwgViewMgmt
 90
    32768
280
     0
281
     0
  0
CLASS
  1
ACDMVWEDLINE
  2
AcDmViewEdgeLine
  3
AcMechDwgViewMgmt
 90
    32768
280
     0
281
     1
  0
CLASS
  1
ACDMVWEDELLIPSE
  2
AcDmViewEdgeEllipse
  3
AcMechDwgViewMgmt
 90
    32768
280
     0
281
     1
  0
CLASS
  1
ACDMVWEDSPLINE
  2
AcDmViewEdgeSpline
  3
AcMechDwgViewMgmt
 90
    32768
280
     0
281
     1
  0
CLASS
  1
ACDMVWEDARC
  2
AcDmViewEdgeArc
  3
AcMechDwgViewMgmt
 90
    32768
280
     0
281
     1
  0
CLASS
  1
ACDMVWEDCIRC
  2
AcDmViewEdgeCircle
  3
AcMechDwgViewMgmt
 90
    32768
280
     0
281
     1
  0
CLASS
  1
ACADPARTPOINTRES
  2
AcAdPartPointRes
  3
AdGrefServices
 90
    32768
280
     0
281
     0
  0
CLASS
  1
ACADPARTSKETCHPLANEAXISRES
  2
AcAdPartSketchPlaneAxisRes
  3
DesignerServices
 90
    32768
280
     0
281
     0
  0
CLASS
  1
AM_VIEWDIMPARALLEL
  2
AcDmViewDimParallel
  3
AcMechDwgViewMgmt
 90
    32768
280
     0
281
     0
  0
CLASS
  1
AMDTDMPARMAPDATA
  2
AmdtDmDimParMapData
  3
AcMechDwgViewMgmt
 90
    32768
280
     0
281
     0
  0
CLASS
  1
ACADPARTPBPOINTRES
  2
AcAdPartPBPointRes
  3
AdGrefServices
 90
    32768
280
     0
281
     0
  0
CLASS
  1
ACADSKETCHPOINTRES
  2
AcAdSketchPointRes
  3
DesignerServices
 90
    32768
280
     0
281
     0
  0
CLASS
  1
AM_VIEWDIMLINEAR
  2
AcDmViewDimLinear
  3
AcMechDwgViewMgmt
 90
    32768
280
     0
281
     0
  0
CLASS
  1
ACADSKETCHCIRCARCRES
  2
AcAdSketchCircArcRes
  3
DesignerServices
 90
    32768
280
     0
281
     0
  0
CLASS
  1
AM_VIEWDIMDIAMETER
  2
AcDmViewDimDiameter
  3
AcMechDwgViewMgmt
 90
    32768
280
     0
281
     0
  0
CLASS
  1
ACADSKETCHLINERES
  2
AcAdSketchLineRes
  3
DesignerServices
 90
    32768
280
     0
281
     0
  0
CLASS
  1
AM_VIEWDIMANGULAR
  2
AcDmViewDimAngular
  3
AcMechDwgViewMgmt
 90
    32768
280
     0
281
     0
  0
CLASS
  1
AM_ADLINCTRLINE
  2
AcAdLineCl
  3
DesignerServices
 90
    32768
280
     0
281
     0
  0
CLASS
  1
AM_ADCIRCTRLINE
  2
AcAdBullsEyeCl
  3
DesignerServices
 90
    32768
280
     0
281
     0
  0
CLASS
  1
ACDBLINERES
  2
AcDbLineRes
  3
AcGrefServices
 90
    32768
280
     0
281
     0
  0
CLASS
  1
ACRFDMINSADJ
  2
AcRfDMInsAdjuster
  3
AcMechDwgViewMgmt
 90
    32768
280
     0
281
     0
  0
CLASS
  1
AM_ORTHO_VIEW_ORIENT
  2
AcDmOrthoViewOr
  3
AcMechDwgViewMgmt
 90
    32768
280
     0
281
     0
  0
CLASS
  1
AM_ORTHO_VIEW
  2
AcDmOrthoView
  3
AcMechDwgViewMgmt
 90
    32768
280
     0
281
     0
  0
CLASS
  1
AMDT_RADIAL_DIM
  2
AmdtRadialDimension
  3
AcMeServices
 90
    32768
280
     0
281
     1
  0
CLASS
  1
AM_VIEWDIMRADIUS
  2
AcDmViewDimRadius
  3
AcMechDwgViewMgmt
 90
    32768
280
     0
281
     0
  0
CLASS
  1
ACADPARTDATUMPOINTRES
  2
AcAdPartDatumPointRes
  3
AdGrefServices
 90
    32768
280
     0
281
     0
  0
CLASS
  1
AMDTEDGESTANDARDISO13715
  2
AmdtEdgeStdISO13715
  3
"Amdt_StdImp|Product Description: AutoCAD Mechanical 2004 DX|Company: Autodesk"
 90
        0
280
     0
281
     0
  0
CLASS
  1
DIMASSOC
  2
AcDbDimAssoc
  3
"AcDbDimAssoc|Product Desc:     AcDim ARX App For Dimension|Company:          Autodesk, Inc.|WEB Address:      www.autodesk.com"
 90
    32768
280
     0
281
     0
  0
CLASS
  1
MATERIAL
  2
AcDbMaterial
  3
ObjectDBX Classes
 90
        0
280
     0
281
     0
  0
CLASS
  1
ACRFATTGENMGR
  2
AcRfAttGeneralMgr
  3
AcAttribServices
 90
    32768
280
     0
281
     0
  0
ENDSEC
  0
SECTION
  2
TABLES
  0
TABLE
  2
VPORT
  5
1F
330
0
100
AcDbSymbolTable
 70
     1
  0
VPORT
  5
3773
330
1F
100
AcDbSymbolTableRecord
100
AcDbViewportTableRecord
  2
*Active
 70
     0
 10
0.0
 20
0.0
 11
1.0
 21
1.0
 12
-16384.0
 22
9.971098265895944E+18
 13
0.0
 23
0.0
 14
2.5
 24
2.5
 15
10.0
 25
10.0
 16
0.0
 26
0.0
 36
1.0
 17
0.0
 27
0.0
 37
0.0
 40
2.199421965317919E+20
 41
0.9093298291721419
 42
50.0
 43
0.0
 44
0.0
 50
0.0
 51
0.0
 71
     0
 72
   100
 73
     1
 74
     1
 75
     0
 76
     0
 77
     0
 78
     0
281
     0
 65
     1
110
0.0
120
0.0
130
0.0
111
1.0
121
0.0
131
0.0
112
0.0
122
1.0
132
0.0
 79
     0
146
0.0
  0
ENDTAB
  0
TABLE
  2
LTYPE
  5
1A
330
0
100
AcDbSymbolTable
 70
    16
  0
LTYPE
  5
1B
330
1A
100
AcDbSymbolTableRecord
100
AcDbLinetypeTableRecord
  2
BYBLOCK
 70
     0
  3

 72
    65
 73
     0
 40
0.0
  0
LTYPE
  5
1C
330
1A
100
AcDbSymbolTableRecord
100
AcDbLinetypeTableRecord
  2
BYLAYER
 70
     0
  3

 72
    65
 73
     0
 40
0.0
  0
LTYPE
  5
9
330
1A
100
AcDbSymbolTableRecord
100
AcDbLinetypeTableRecord
  2
CONTINUOUS
 70
     0
  3
Solid line
 72
    65
 73
     0
 40
0.0
  0
LTYPE
  5
38
330
1A
100
AcDbSymbolTableRecord
100
AcDbLinetypeTableRecord
  2
AM_ISO08W050x2
 70
     0
  3
__ . __ . __ . __ . __ . __
 72
    65
 73
     4
 40
9.0
 49
6.0
 74
     0
 49
-0.75
 74
     0
 49
1.5
 74
     0
 49
-0.75
 74
     0
  0
LTYPE
  5
264
330
1A
100
AcDbSymbolTableRecord
100
AcDbLinetypeTableRecord
  2
HIDDEN
 70
     0
  3
Hidden __ __ __ __ __ __ __ __ __ __ __ __ __ _
 72
    65
 73
     2
 40
9.524999999999998
 49
6.349999999999999
 74
     0
 49
-3.174999999999999
 74
     0
  0
LTYPE
  5
265
330
1A
100
AcDbSymbolTableRecord
100
AcDbLinetypeTableRecord
  2
PHANTOM2
 70
     0
  3
Phantom (.5x) ___ _ _ ___ _ _ ___ _ _ ___ _ _
 72
    65
 73
     6
 40
31.75
 49
15.875
 74
     0
 49
-3.174999999999999
 74
     0
 49
3.174999999999999
 74
     0
 49
-3.174999999999999
 74
     0
 49
3.174999999999999
 74
     0
 49
-3.174999999999999
 74
     0
  0
LTYPE
  5
266
330
1A
100
AcDbSymbolTableRecord
100
AcDbLinetypeTableRecord
  2
CENTER
 70
     0
  3
Center ____ _ ____ _ ____ _ ____ _ ____ _ ____
 72
    65
 73
     4
 40
50.8
 49
31.75
 74
     0
 49
-6.349999999999999
 74
     0
 49
6.349999999999999
 74
     0
 49
-6.349999999999999
 74
     0
  0
LTYPE
  5
29A
330
1A
100
AcDbSymbolTableRecord
100
AcDbLinetypeTableRecord
  2
AM_ISO02W050
 70
     0
  3
__ __ __ __ __ __ __ __ __ __ __ __ __ __ __
 72
    65
 73
     2
 40
7.5
 49
6.0
 74
     0
 49
-1.5
 74
     0
  0
LTYPE
  5
29B
330
1A
100
AcDbSymbolTableRecord
100
AcDbLinetypeTableRecord
  2
AM_ISO08W050
 70
     0
  3
____ . ____ . ____ . ____ . ____ . ____ . ____
 72
    65
 73
     4
 40
18.0
 49
12.0
 74
     0
 49
-1.5
 74
     0
 49
3.0
 74
     0
 49
-1.5
 74
     0
  0
LTYPE
  5
29C
330
1A
100
AcDbSymbolTableRecord
100
AcDbLinetypeTableRecord
  2
AM_ISO09W050
 70
     0
  3
_____ . . _____ . . _____ . . ____ .. ____
 72
    65
 73
     6
 40
22.5
 49
12.0
 74
     0
 49
-1.5
 74
     0
 49
3.0
 74
     0
 49
-1.5
 74
     0
 49
3.0
 74
     0
 49
-1.5
 74
     0
  0
LTYPE
  5
29D
330
1A
100
AcDbSymbolTableRecord
100
AcDbLinetypeTableRecord
  2
Amconstr
 70
     0
  3
_______________________
 72
    65
 73
     2
 40
9999.0
 49
9999.0
 74
     0
 49
0.0
 74
     0
  0
LTYPE
  5
29E
330
1A
100
AcDbSymbolTableRecord
100
AcDbLinetypeTableRecord
  2
AM_ISO02W050x2
 70
     0
  3
 _ _ _ _ _ _ _ _ _ _ _ _
 72
    65
 73
     2
 40
3.75
 49
3.0
 74
     0
 49
-0.75
 74
     0
  0
LTYPE
  5
2A1
330
1A
100
AcDbSymbolTableRecord
100
AcDbLinetypeTableRecord
  2
Amzigzag
 70
     0
  3
/\/-/\/-/\/-/\/-/\/-/\/
 72
    65
 73
     2
 40
11.0001
 49
0.0001
 74
     4
 75
   135
340
2A0
 46
0.04
 50
0.0
 44
0.0
 45
0.0
 49
-11.0
 74
     0
  0
LTYPE
  5
2B0
330
1A
100
AcDbSymbolTableRecord
100
AcDbLinetypeTableRecord
  2
ACISOWELD
 70
     0
  3
_ _ _ _ _
 72
    65
 73
     2
 40
2.0
 49
2.0
 74
     0
 49
-1.0
 74
     0
  0
LTYPE
  5
2B1
330
1A
100
AcDbSymbolTableRecord
100
AcDbLinetypeTableRecord
  2
ACISOTGB
 70
     0
  3
__ . . __ . .
 72
    65
 73
     6
 40
9.0
 49
4.0
 74
     0
 49
-1.0
 74
     0
 49
1.0
 74
     0
 49
-1.0
 74
     0
 49
1.0
 74
     0
 49
-1.0
 74
     0
  0
LTYPE
  5
2B2
330
1A
100
AcDbSymbolTableRecord
100
AcDbLinetypeTableRecord
  2
ACISOTGL
 70
     0
  3
_ _ _ _ _
 72
    65
 73
     2
 40
3.0
 49
2.0
 74
     0
 49
-1.0
 74
     0
  0
LTYPE
  5
4187
330
1A
100
AcDbSymbolTableRecord
100
AcDbLinetypeTableRecord
  2
ASULTYPE
 70
     0
  3
實線
 72
    65
 73
     2
 40
3.0
 49
2.5
 74
     0
 49
0.5
 74
     0
  0
LTYPE
  5
4188
330
1A
100
AcDbSymbolTableRecord
100
AcDbLinetypeTableRecord
  2
ASVLTYPE
 70
     0
  3
__ __ __ __ __ __ __ __ __ __ __ __ __ __ __ __ __ __ __ __ __
 72
    65
 73
     2
 40
0.75
 49
0.5
 74
     0
 49
-0.25
 74
     0
  0
ENDTAB
  0
TABLE
  2
LAYER
  5
14
102
{ACAD_XDICTIONARY
360
15
102
}
330
0
100
AcDbSymbolTable
 70
     7
  0
LAYER
  5
5
330
14
100
AcDbSymbolTableRecord
100
AcDbLayerTableRecord
  2
0
 70
     0
 62
     7
  6
CONTINUOUS
370
    -3
390
6
  0
LAYER
  5
2D6
330
14
100
AcDbSymbolTableRecord
100
AcDbLayerTableRecord
  2
LOGO
 70
     0
 62
     7
  6
CONTINUOUS
370
    -3
390
6
  0
LAYER
  5
2D7
330
14
100
AcDbSymbolTableRecord
100
AcDbLayerTableRecord
  2
Defpoints
 70
     0
 62
     7
  6
CONTINUOUS
290
     0
370
    -3
390
6
  0
LAYER
  5
3000
330
14
100
AcDbSymbolTableRecord
100
AcDbLayerTableRecord
  2
AM_VIS
 70
     0
 62
     7
  6
CONTINUOUS
370
    50
390
6
  0
LAYER
  5
349B
330
14
100
AcDbSymbolTableRecord
100
AcDbLayerTableRecord
  2
AM_5
 70
     0
 62
     5
  6
CONTINUOUS
370
    50
390
6
  0
LAYER
  5
3517
330
14
100
AcDbSymbolTableRecord
100
AcDbLayerTableRecord
  2
AM_7
 70
     0
 62
     1
  6
AM_ISO08W050x2
370
    25
390
6
  0
LAYER
  5
378E
330
14
100
AcDbSymbolTableRecord
100
AcDbLayerTableRecord
  2
圖層1
 70
     0
 62
     3
  6
AM_ISO02W050x2
370
    -3
390
6
1001
AcAecLayerStandard
1000

1000

  0
ENDTAB
  0
TABLE
  2
STYLE
  5
17
330
0
100
AcDbSymbolTable
 70
     5
  0
STYLE
  5
18
330
17
100
AcDbSymbolTableRecord
100
AcDbTextStyleTableRecord
  2
STANDARD
 70
     0
 40
0.0
 41
1.0
 50
0.0
 71
     0
 42
1.0
  3
ISOCP.SHX
  4
CHINESET.SHX
  0
STYLE
  5
2A0
330
17
100
AcDbSymbolTableRecord
100
AcDbTextStyleTableRecord
  2

 70
     1
 40
0.0
 41
1.0
 50
0.0
 71
     0
 42
1.0
  3
ltypeshp.shx
  4

  0
STYLE
  5
2A2
330
17
100
AcDbSymbolTableRecord
100
AcDbTextStyleTableRecord
  2
ACISOTS
 70
     0
 40
1.0
 41
1.0
 50
0.0
 71
     0
 42
1.0
  3
isocp.shx
  4
chineset.shx
  0
STYLE
  5
2AF
330
17
100
AcDbSymbolTableRecord
100
AcDbTextStyleTableRecord
  2
ACISOGDT
 70
     0
 40
0.0
 41
1.0
 50
0.0
 71
     0
 42
1.0
  3
amgdt.shx
  4

  0
STYLE
  5
2D9
330
17
100
AcDbSymbolTableRecord
100
AcDbTextStyleTableRecord
  2
CHINESET
 70
     0
 40
0.0
 41
1.0
 50
0.0
 71
     0
 42
1.0
  3
simplex
  4
CHINESET.SHX
  0
ENDTAB
  0
TABLE
  2
VIEW
  5
1D
330
0
100
AcDbSymbolTable
 70
     0
  0
ENDTAB
  0
TABLE
  2
UCS
  5
1E
330
0
100
AcDbSymbolTable
 70
     0
  0
ENDTAB
  0
TABLE
  2
APPID
  5
21
330
0
100
AcDbSymbolTable
 70
    24
  0
APPID
  5
22
330
21
100
AcDbSymbolTableRecord
100
AcDbRegAppTableRecord
  2
ACAD
 70
     0
  0
APPID
  5
13
330
21
100
AcDbSymbolTableRecord
100
AcDbRegAppTableRecord
  2
ACAD_PSEXT
 70
     0
  0
APPID
  5
237
330
21
100
AcDbSymbolTableRecord
100
AcDbRegAppTableRecord
  2
MCAD_NO_VIS
 70
     0
  0
APPID
  5
238
330
21
100
AcDbSymbolTableRecord
100
AcDbRegAppTableRecord
  2
ACAD_TEMP_GRAPHIC
 70
     0
  0
APPID
  5
268
330
21
100
AcDbSymbolTableRecord
100
AcDbRegAppTableRecord
  2
AD_DRAW
 70
     0
  0
APPID
  5
26B
330
21
100
AcDbSymbolTableRecord
100
AcDbRegAppTableRecord
  2
ACATTRIBSERVICES
 70
     0
  0
APPID
  5
289
330
21
100
AcDbSymbolTableRecord
100
AcDbRegAppTableRecord
  2
DESIGNERASSEMBLIES
 70
     0
  0
APPID
  5
28F
330
21
100
AcDbSymbolTableRecord
100
AcDbRegAppTableRecord
  2
ACADM_DIM_EDIT
 70
     0
  0
APPID
  5
290
330
21
100
AcDbSymbolTableRecord
100
AcDbRegAppTableRecord
  2
AMDT_DM_ADJ
 70
     0
  0
APPID
  5
2DB
330
21
100
AcDbSymbolTableRecord
100
AcDbRegAppTableRecord
  2
GENIUS_GENOBJ-N-CRS_13
 70
     0
  0
APPID
  5
2DC
330
21
100
AcDbSymbolTableRecord
100
AcDbRegAppTableRecord
  2
GENIUS_GENOLIS_13
 70
     0
  0
APPID
  5
2DD
330
21
100
AcDbSymbolTableRecord
100
AcDbRegAppTableRecord
  2
GENIUS_GENOENT_13
 70
     0
  0
APPID
  5
2DE
330
21
100
AcDbSymbolTableRecord
100
AcDbRegAppTableRecord
  2
GENIUS_GENODEF_13
 70
     0
  0
APPID
  5
2DF
330
21
100
AcDbSymbolTableRecord
100
AcDbRegAppTableRecord
  2
GENIUS_GENOREF_13
 70
     0
  0
APPID
  5
2E0
330
21
100
AcDbSymbolTableRecord
100
AcDbRegAppTableRecord
  2
GENIUS_GENREC_14
 70
     0
  0
APPID
  5
2E1
330
21
100
AcDbSymbolTableRecord
100
AcDbRegAppTableRecord
  2
GENIUS_GENOBJ-N-REC_13
 70
     0
  0
APPID
  5
DE2
330
21
100
AcDbSymbolTableRecord
100
AcDbRegAppTableRecord
  2
ACAD_DSTYLE_DIMTEXT_FILL
 70
     0
  0
APPID
  5
E2A
330
21
100
AcDbSymbolTableRecord
100
AcDbRegAppTableRecord
  2
GENIUS_GENDIMSH_14
 70
     0
  0
APPID
  5
F24
330
21
100
AcDbSymbolTableRecord
100
AcDbRegAppTableRecord
  2
GENIUS_GENDTOL_13
 70
     0
  0
APPID
  5
11BF
330
21
100
AcDbSymbolTableRecord
100
AcDbRegAppTableRecord
  2
AcAecLayerStandard
 70
     0
  0
APPID
  5
410A
330
21
100
AcDbSymbolTableRecord
100
AcDbRegAppTableRecord
  2
GENIUS_GENDIM_13
 70
     0
  0
APPID
  5
410B
330
21
100
AcDbSymbolTableRecord
100
AcDbRegAppTableRecord
  2
GENIUS_GE3DTOL_13
 70
     0
  0
APPID
  5
4189
330
21
100
AcDbSymbolTableRecord
100
AcDbRegAppTableRecord
  2
ASURF_PCURVE_APPNAME
 70
     0
  0
APPID
  5
418E
330
21
100
AcDbSymbolTableRecord
100
AcDbRegAppTableRecord
  2
AMG_3D2D_5.0
 70
     0
  0
ENDTAB
  0
TABLE
  2
DIMSTYLE
  5
23
330
0
100
AcDbSymbolTable
 70
     9
100
AcDbDimStyleTable
 71
     3
340
24
340
25
340
26
  0
DIMSTYLE
105
24
330
23
100
AcDbSymbolTableRecord
100
AcDbDimStyleTableRecord
  2
AM_ISO
 70
     0
  4
"
 41
3.0
 42
1.0
 43
15.0
 44
1.0
 47
0.1
 48
0.1
 73
     0
 74
     0
 77
     1
 78
     8
 79
     2
140
3.5
141
0.0
143
0.0393701
146
0.71
147
1.0
172
     1
176
   256
177
   256
178
   256
271
     2
272
     2
283
     0
284
     8
285
     8
340
18
371
    -1
372
    -1
  0
DIMSTYLE
105
25
330
23
100
AcDbSymbolTableRecord
100
AcDbDimStyleTableRecord
  2
AM_ISO$SF
 70
     0
  4
"
 41
2.5
 42
1.0
 43
10.0
 44
1.0
 47
0.1
 48
0.1
 73
     0
 74
     0
 75
     1
 76
     1
 77
     1
 78
     8
 79
     2
140
3.5
141
0.0
143
0.0393701
146
0.71
147
1.0
172
     1
176
   256
177
   256
178
   256
271
     2
272
     2
283
     0
284
     8
340
18
371
    -1
372
    -1
  0
DIMSTYLE
105
26
330
23
100
AcDbSymbolTableRecord
100
AcDbDimStyleTableRecord
  2
AM_ISO$SH
 70
     0
  4
"
 41
2.5
 42
1.0
 43
10.0
 44
1.0
 47
0.1
 48
0.1
 73
     0
 74
     0
 75
     1
 76
     1
 77
     1
 78
     8
 79
     2
140
3.5
141
0.0
143
0.0393701
144
2.0
146
0.71
147
1.0
172
     1
173
     1
176
   256
177
   256
178
   256
271
     2
272
     2
283
     0
284
     8
340
18
343
27
371
    -1
372
    -1
  0
DIMSTYLE
105
2BB
102
{ACAD_REACTORS
330
4008
102
}
330
23
100
AcDbSymbolTableRecord
100
AcDbDimStyleTableRecord
  2
AM_ISO$3
 70
     0
  4
"
 41
3.0
 42
1.0
 43
15.0
 44
1.0
 47
0.1
 48
0.1
 73
     0
 77
     1
 78
     8
 79
     2
140
3.5
141
0.0
143
0.0393701
146
0.71
147
1.0
176
   256
177
   256
178
   256
271
     2
272
     2
283
     0
284
     8
285
     8
288
     1
289
     0
340
18
371
    -1
372
    -1
  0
DIMSTYLE
105
2BC
102
{ACAD_REACTORS
330
3D8B
330
3F33
102
}
330
23
100
AcDbSymbolTableRecord
100
AcDbDimStyleTableRecord
  2
AM_ISO$4
 70
     0
  4
"
 41
3.0
 42
1.0
 43
15.0
 44
1.0
 47
0.1
 48
0.1
 73
     0
 77
     1
 78
     8
 79
     2
140
3.5
141
0.0
143
0.0393701
146
0.71
147
1.0
176
   256
177
   256
178
   256
271
     2
272
     2
283
     0
284
     8
285
     8
288
     1
289
     0
340
18
371
    -1
372
    -1
  0
DIMSTYLE
105
2BD
330
23
100
AcDbSymbolTableRecord
100
AcDbDimStyleTableRecord
  2
AM_ISO$6
 70
     0
  4
"
 41
3.0
 42
1.0
 43
15.0
 44
1.0
 47
0.1
 48
0.1
 73
     0
 74
     0
 78
     8
 79
     2
140
3.5
141
0.0
143
0.0393701
146
0.71
147
1.0
172
     1
176
   256
177
   256
178
   256
271
     2
272
     2
283
     0
284
     8
285
     8
340
18
371
    -1
372
    -1
  0
DIMSTYLE
105
2BE
102
{ACAD_REACTORS
330
3ACF
102
}
330
23
100
AcDbSymbolTableRecord
100
AcDbDimStyleTableRecord
  2
AM_ISO$7
 70
     0
  4
"
 41
3.0
 42
1.0
 43
15.0
 44
1.0
 47
0.1
 48
0.1
 73
     0
 74
     0
 77
     1
 78
     8
 79
     2
140
3.5
141
0.0
143
0.0393701
146
0.71
147
1.5
172
     1
176
   256
177
   256
178
   256
271
     2
272
     2
283
     0
284
     8
285
     8
340
18
371
    -1
372
    -1
  0
DIMSTYLE
105
2DA
102
{ACAD_REACTORS
330
3ECA
330
37C4
330
3EB4
330
3F87
330
3F71
330
3FE0
330
3FCA
330
30F4
330
37A5
330
4244
330
3F52
102
}
330
23
100
AcDbSymbolTableRecord
100
AcDbDimStyleTableRecord
  2
AM_ISO$0
 70
     0
  4
"
 40
2.0
 41
3.0
 42
1.0
 43
10.0
 44
1.0
 47
0.1
 48
0.1
 73
     0
 74
     0
 77
     1
 78
     8
 79
     2
140
3.5
141
0.0
143
0.0393701
146
0.71
147
1.0
172
     1
176
   256
177
   256
178
   256
271
     2
272
     2
283
     0
284
     8
285
     8
340
18
371
    -1
372
    -1
  0
DIMSTYLE
105
1356
330
23
100
AcDbSymbolTableRecord
100
AcDbDimStyleTableRecord
  2
STANDARD
 70
     0
340
18
  0
ENDTAB
  0
TABLE
  2
BLOCK_RECORD
  5
1
330
0
100
AcDbSymbolTable
 70
    16
  0
BLOCK_RECORD
  5
2
102
{ACAD_XDICTIONARY
360
3
102
}
330
1
100
AcDbSymbolTableRecord
100
AcDbBlockTableRecord
  2
*MODEL_SPACE
340
B
  0
BLOCK_RECORD
  5
D
102
{ACAD_XDICTIONARY
360
1AC0
102
}
330
1
100
AcDbSymbolTableRecord
100
AcDbBlockTableRecord
  2
*PAPER_SPACE
340
10
  0
BLOCK_RECORD
  5
27
330
1
100
AcDbSymbolTableRecord
100
AcDbBlockTableRecord
  2
GENAXEH
340
0
  0
BLOCK_RECORD
  5
3208
330
1
100
AcDbSymbolTableRecord
100
AcDbBlockTableRecord
  2
*D1
340
0
  0
BLOCK_RECORD
  5
37A6
330
1
100
AcDbSymbolTableRecord
100
AcDbBlockTableRecord
  2
*D2
340
0
  0
BLOCK_RECORD
  5
37C5
330
1
100
AcDbSymbolTableRecord
100
AcDbBlockTableRecord
  2
*D3
340
0
  0
BLOCK_RECORD
  5
3D8C
330
1
100
AcDbSymbolTableRecord
100
AcDbBlockTableRecord
  2
*D4
340
0
  0
BLOCK_RECORD
  5
3EB5
330
1
100
AcDbSymbolTableRecord
100
AcDbBlockTableRecord
  2
*D5
340
0
  0
BLOCK_RECORD
  5
3ECB
330
1
100
AcDbSymbolTableRecord
100
AcDbBlockTableRecord
  2
*D6
340
0
  0
BLOCK_RECORD
  5
3F34
330
1
100
AcDbSymbolTableRecord
100
AcDbBlockTableRecord
  2
*D7
340
0
  0
BLOCK_RECORD
  5
3F53
330
1
100
AcDbSymbolTableRecord
100
AcDbBlockTableRecord
  2
*D8
340
0
  0
BLOCK_RECORD
  5
3F72
330
1
100
AcDbSymbolTableRecord
100
AcDbBlockTableRecord
  2
*D9
340
0
  0
BLOCK_RECORD
  5
3F88
330
1
100
AcDbSymbolTableRecord
100
AcDbBlockTableRecord
  2
*D10
340
0
  0
BLOCK_RECORD
  5
3FCB
330
1
100
AcDbSymbolTableRecord
100
AcDbBlockTableRecord
  2
*D11
340
0
  0
BLOCK_RECORD
  5
3FE1
330
1
100
AcDbSymbolTableRecord
100
AcDbBlockTableRecord
  2
*D12
340
0
  0
BLOCK_RECORD
  5
4009
330
1
100
AcDbSymbolTableRecord
100
AcDbBlockTableRecord
  2
*D13
340
0
  0
BLOCK_RECORD
  5
4245
330
1
100
AcDbSymbolTableRecord
100
AcDbBlockTableRecord
  2
*D15
340
0
  0
ENDTAB
  0
ENDSEC
  0
SECTION
  2
BLOCKS
  0
BLOCK
  5
4
330
2
100
AcDbEntity
  8
0
100
AcDbBlockBegin
  2
*MODEL_SPACE
 70
     0
 10
0.0
 20
0.0
 30
0.0
  3
*MODEL_SPACE
  1

  0
ENDBLK
  5
A
330
2
100
AcDbEntity
  8
0
100
AcDbBlockEnd
  0
BLOCK
  5
E
330
D
100
AcDbEntity
 67
     1
  8
0
100
AcDbBlockBegin
  2
*PAPER_SPACE
 70
     0
 10
0.0
 20
0.0
 30
0.0
  3
*PAPER_SPACE
  1

  0
ENDBLK
  5
F
330
D
100
AcDbEntity
 67
     1
  8
0
100
AcDbBlockEnd
  0
BLOCK
  5
28
330
27
100
AcDbEntity
  8
0
100
AcDbBlockBegin
  2
GENAXEH
 70
     0
 10
0.0
 20
0.0
 30
0.0
  3
GENAXEH
  1

  0
LINE
  5
29
330
27
100
AcDbEntity
  8
0
100
AcDbLine
 10
-1.0
 20
0.0
 30
0.0
 11
1.0
 21
0.0
 31
0.0
  0
ENDBLK
  5
2A
330
27
100
AcDbEntity
  8
0
100
AcDbBlockEnd
  0
BLOCK
  5
3212
330
3208
100
AcDbEntity
  8
0
100
AcDbBlockBegin
  2
*D1
 70
     1
 10
0.0
 20
0.0
 30
0.0
  3
*D1
  1

  0
LINE
  5
43E8
330
3208
100
AcDbEntity
  8
AM_5
100
AcDbLine
 10
159.426959646804
 20
159.7881923055971
 30
0.0
 11
149.9708345796915
 21
159.7881923055971
 31
0.0
  0
LINE
  5
43E9
330
3208
100
AcDbEntity
  8
AM_5
100
AcDbLine
 10
159.426959646804
 20
184.7881923055971
 30
0.0
 11
149.9708345796915
 21
184.7881923055971
 31
0.0
  0
LINE
  5
43EA
330
3208
100
AcDbEntity
  8
AM_5
100
AcDbLine
 10
151.3708345796915
 20
163.988192305597
 30
0.0
 11
151.3708345796915
 21
180.588192305597
 31
0.0
  0
SOLID
  5
43EB
330
3208
100
AcDbEntity
  8
AM_5
100
AcDbTrace
 10
150.6708345796915
 20
163.988192305597
 30
0.0
 11
152.0708345796915
 21
163.988192305597
 31
0.0
 12
151.3708345796915
 22
159.7881923055971
 32
0.0
 13
151.3708345796915
 23
159.7881923055971
 33
0.0
  0
SOLID
  5
43EC
330
3208
100
AcDbEntity
  8
AM_5
100
AcDbTrace
 10
150.6708345796915
 20
180.588192305597
 30
0.0
 11
152.0708345796915
 21
180.588192305597
 31
0.0
 12
151.3708345796915
 22
184.7881923055971
 32
0.0
 13
151.3708345796915
 23
184.7881923055971
 33
0.0
  0
MTEXT
  5
43ED
330
3208
100
AcDbEntity
  8
AM_5
100
AcDbMText
 10
147.5203522962269
 20
172.2881923055971
 30
0.0
 40
4.899999999999999
 41
0.0
 71
     5
 72
     1
  1
%%c25
 11
0.0000000000000001
 21
1.0
 31
0.0
 73
     1
 44
1.0
1001
ACAD
1000
MTEXTBEGIN
1070
    73
1070
     1
1070
    44
1040
1.0
1070
    74
1070
     0
1000
MTEXTEND
  0
POINT
  5
43EE
330
3208
100
AcDbEntity
  8
Defpoints
 62
     0
100
AcDbPoint
 10
160.826959646804
 20
159.7881923055971
 30
0.0
  0
POINT
  5
43EF
330
3208
100
AcDbEntity
  8
Defpoints
 62
     0
100
AcDbPoint
 10
160.826959646804
 20
184.7881923055971
 30
0.0
  0
POINT
  5
43F0
330
3208
100
AcDbEntity
  8
Defpoints
 62
     0
100
AcDbPoint
 10
151.3708345796915
 20
184.7881923055971
 30
0.0
  0
ENDBLK
  5
3213
330
3208
100
AcDbEntity
  8
0
100
AcDbBlockEnd
  0
BLOCK
  5
37B0
330
37A6
100
AcDbEntity
  8
0
100
AcDbBlockBegin
  2
*D2
 70
     1
 10
0.0
 20
0.0
 30
0.0
  3
*D2
  1

  0
LINE
  5
43FA
330
37A6
100
AcDbEntity
  8
AM_5
100
AcDbLine
 10
288.1763304148291
 20
149.538192305597
 30
0.0
 11
308.5135476011796
 21
149.538192305597
 31
0.0
  0
LINE
  5
43FB
330
37A6
100
AcDbEntity
  8
AM_5
100
AcDbLine
 10
288.1763304148291
 20
195.038192305597
 30
0.0
 11
308.5135476011796
 21
195.038192305597
 31
0.0
  0
LINE
  5
43FC
330
37A6
100
AcDbEntity
  8
AM_5
100
AcDbLine
 10
307.1135476011797
 20
153.738192305597
 30
0.0
 11
307.1135476011797
 21
190.838192305597
 31
0.0
  0
SOLID
  5
43FD
330
37A6
100
AcDbEntity
  8
AM_5
100
AcDbTrace
 10
306.4135476011797
 20
153.738192305597
 30
0.0
 11
307.8135476011797
 21
153.738192305597
 31
0.0
 12
307.1135476011797
 22
149.538192305597
 32
0.0
 13
307.1135476011797
 23
149.538192305597
 33
0.0
  0
SOLID
  5
43FE
330
37A6
100
AcDbEntity
  8
AM_5
100
AcDbTrace
 10
306.4135476011797
 20
190.838192305597
 30
0.0
 11
307.8135476011797
 21
190.838192305597
 31
0.0
 12
307.1135476011797
 22
195.038192305597
 32
0.0
 13
307.1135476011797
 23
195.038192305597
 33
0.0
  0
MTEXT
  5
43FF
330
37A6
100
AcDbEntity
  8
AM_5
100
AcDbMText
 10
303.2635476011796
 20
172.288192305597
 30
0.0
 40
4.899999999999999
 41
0.0
 71
     5
 72
     1
  1
%%c45.5
 11
0.0000000000000001
 21
1.0
 31
0.0
 73
     1
 44
1.0
1001
ACAD
1000
MTEXTBEGIN
1070
    73
1070
     1
1070
    44
1040
1.0
1070
    74
1070
     0
1000
MTEXTEND
  0
POINT
  5
4400
330
37A6
100
AcDbEntity
  8
Defpoints
 62
     0
100
AcDbPoint
 10
286.7763304148292
 20
149.538192305597
 30
0.0
  0
POINT
  5
4401
330
37A6
100
AcDbEntity
  8
Defpoints
 62
     0
100
AcDbPoint
 10
286.7763304148292
 20
195.038192305597
 30
0.0
  0
POINT
  5
4402
330
37A6
100
AcDbEntity
  8
Defpoints
 62
     0
100
AcDbPoint
 10
307.1135476011797
 20
195.038192305597
 30
0.0
  0
ENDBLK
  5
37B1
330
37A6
100
AcDbEntity
  8
0
100
AcDbBlockEnd
  0
BLOCK
  5
37CF
330
37C5
100
AcDbEntity
  8
0
100
AcDbBlockBegin
  2
*D3
 70
     1
 10
0.0
 20
0.0
 30
0.0
  3
*D3
  1

  0
LINE
  5
43A7
330
37C5
100
AcDbEntity
  8
AM_5
100
AcDbLine
 10
286.7763304148292
 20
210.888192305597
 30
0.0
 11
286.7763304148292
 21
236.718325642733
 31
0.0
  0
LINE
  5
43A8
330
37C5
100
AcDbEntity
  8
AM_5
100
AcDbLine
 10
249.7763304148291
 20
193.638192305597
 30
0.0
 11
249.7763304148291
 21
236.718325642733
 31
0.0
  0
LINE
  5
43A9
330
37C5
100
AcDbEntity
  8
AM_5
100
AcDbLine
 10
283.4763304148292
 20
235.618325642733
 30
0.0
 11
253.0763304148292
 21
235.618325642733
 31
0.0
  0
SOLID
  5
43AA
330
37C5
100
AcDbEntity
  8
AM_5
100
AcDbTrace
 10
283.4763304148292
 20
236.168325642733
 30
0.0
 11
283.4763304148292
 21
235.068325642733
 31
0.0
 12
286.7763304148292
 22
235.618325642733
 32
0.0
 13
286.7763304148292
 23
235.618325642733
 33
0.0
  0
SOLID
  5
43AB
330
37C5
100
AcDbEntity
  8
AM_5
100
AcDbTrace
 10
253.0763304148292
 20
236.168325642733
 30
0.0
 11
253.0763304148292
 21
235.068325642733
 31
0.0
 12
249.7763304148291
 22
235.618325642733
 32
0.0
 13
249.7763304148291
 23
235.618325642733
 33
0.0
  0
MTEXT
  5
43AC
330
37C5
100
AcDbEntity
  8
AM_5
100
AcDbMText
 10
268.2763304148291
 20
238.643325642733
 30
0.0
 40
3.85
 41
0.0
 71
     5
 72
     1
  1
37
 73
     1
 44
1.0
1001
ACAD
1000
MTEXTBEGIN
1070
    73
1070
     1
1070
    44
1040
1.0
1070
    74
1070
     0
1000
MTEXTEND
  0
POINT
  5
43AD
330
37C5
100
AcDbEntity
  8
Defpoints
 62
     0
100
AcDbPoint
 10
286.7763304148292
 20
209.788192305597
 30
0.0
  0
POINT
  5
43AE
330
37C5
100
AcDbEntity
  8
Defpoints
 62
     0
100
AcDbPoint
 10
249.7763304148291
 20
192.538192305597
 30
0.0
  0
POINT
  5
43AF
330
37C5
100
AcDbEntity
  8
Defpoints
 62
     0
100
AcDbPoint
 10
249.7763304148291
 20
235.618325642733
 30
0.0
  0
ENDBLK
  5
37D0
330
37C5
100
AcDbEntity
  8
0
100
AcDbBlockEnd
  0
BLOCK
  5
3D93
330
3D8C
100
AcDbEntity
  8
0
100
AcDbBlockBegin
  2
*D4
 70
     1
 10
0.0
 20
0.0
 30
0.0
  3
*D4
  1

  0
LINE
  5
4392
330
3D8C
100
AcDbEntity
  8
AM_5
100
AcDbLine
 10
54.03909832412129
 20
215.5714920402627
 30
0.0
 11
58.55322133710565
 21
226.172125150575
 31
0.0
  0
LINE
  5
4393
330
3D8C
100
AcDbEntity
  8
AM_5
100
AcDbLine
 10
58.55322133710565
 20
226.172125150575
 30
0.0
 11
82.36822133710566
 21
226.172125150575
 31
0.0
  0
SOLID
  5
4394
330
3D8C
100
AcDbEntity
  8
AM_5
100
AcDbTrace
 10
53.53306859060557
 20
215.7869773269948
 30
0.0
 11
54.54512805763698
 21
215.3560067535306
 31
0.0
 12
52.74618660372858
 22
212.5353136391684
 32
0.0
 13
52.74618660372858
 23
212.5353136391684
 33
0.0
  0
MTEXT
  5
4395
330
3D8C
100
AcDbEntity
  8
AM_5
100
AcDbMText
 10
71.01072133710565
 20
229.197125150575
 30
0.0
 40
3.85
 41
0.0
 71
     5
 72
     1
  1
4-M10*16L
 73
     1
 44
1.0
1001
ACAD
1000
MTEXTBEGIN
1070
    73
1070
     1
1070
    44
1040
1.0
1070
    74
1070
     0
1000
MTEXTEND
  0
POINT
  5
4396
330
3D8C
100
AcDbEntity
  8
Defpoints
 62
     0
100
AcDbPoint
 10
52.74618660372858
 20
212.5353136391684
 30
0.0
  0
POINT
  5
4397
330
3D8C
100
AcDbEntity
  8
Defpoints
 62
     0
100
AcDbPoint
 10
50.93761272410249
 20
208.2881923055973
 30
0.0
  0
ENDBLK
  5
3D94
330
3D8C
100
AcDbEntity
  8
0
100
AcDbBlockEnd
  0
BLOCK
  5
3EBF
330
3EB5
100
AcDbEntity
  8
0
100
AcDbBlockBegin
  2
*D5
 70
     1
 10
0.0
 20
0.0
 30
0.0
  3
*D5
  1

  0
LINE
  5
43B0
330
3EB5
100
AcDbEntity
  8
AM_5
100
AcDbLine
 10
50.93761272410251
 20
129.1195562387879
 30
0.0
 11
50.93761272410251
 21
110.188192305597
 31
0.0
  0
LINE
  5
43B1
330
3EB5
100
AcDbEntity
  8
AM_5
100
AcDbLine
 10
122.9376127241025
 20
129.1195562387879
 30
0.0
 11
122.9376127241025
 21
110.188192305597
 31
0.0
  0
LINE
  5
43B2
330
3EB5
100
AcDbEntity
  8
AM_5
100
AcDbLine
 10
55.13761272410251
 20
111.588192305597
 30
0.0
 11
118.7376127241025
 21
111.588192305597
 31
0.0
  0
SOLID
  5
43B3
330
3EB5
100
AcDbEntity
  8
AM_5
100
AcDbTrace
 10
55.13761272410251
 20
112.288192305597
 30
0.0
 11
55.13761272410251
 21
110.888192305597
 31
0.0
 12
50.93761272410251
 22
111.588192305597
 32
0.0
 13
50.93761272410251
 23
111.588192305597
 33
0.0
  0
SOLID
  5
43B4
330
3EB5
100
AcDbEntity
  8
AM_5
100
AcDbTrace
 10
118.7376127241025
 20
112.288192305597
 30
0.0
 11
118.7376127241025
 21
110.888192305597
 31
0.0
 12
122.9376127241025
 22
111.588192305597
 32
0.0
 13
122.9376127241025
 23
111.588192305597
 33
0.0
  0
MTEXT
  5
43B5
330
3EB5
100
AcDbEntity
  8
AM_5
100
AcDbMText
 10
86.93761272410254
 20
115.4386745890616
 30
0.0
 40
4.899999999999999
 41
0.0
 71
     5
 72
     1
  1
{\Famgdt|c136;o}72
 73
     1
 44
1.0
1001
ACAD
1000
MTEXTBEGIN
1070
    73
1070
     1
1070
    44
1040
1.0
1070
    74
1070
     0
1000
MTEXTEND
  0
POINT
  5
43B6
330
3EB5
100
AcDbEntity
  8
Defpoints
 62
     0
100
AcDbPoint
 10
50.93761272410251
 20
130.5195562387879
 30
0.0
  0
POINT
  5
43B7
330
3EB5
100
AcDbEntity
  8
Defpoints
 62
     0
100
AcDbPoint
 10
122.9376127241025
 20
130.5195562387879
 30
0.0
  0
POINT
  5
43B8
330
3EB5
100
AcDbEntity
  8
Defpoints
 62
     0
100
AcDbPoint
 10
122.9376127241025
 20
111.588192305597
 30
0.0
  0
ENDBLK
  5
3EC0
330
3EB5
100
AcDbEntity
  8
0
100
AcDbBlockEnd
  0
BLOCK
  5
3ED5
330
3ECB
100
AcDbEntity
  8
0
100
AcDbBlockBegin
  2
*D6
 70
     1
 10
0.0
 20
0.0
 30
0.0
  3
*D6
  1

  0
LINE
  5
439E
330
3ECB
100
AcDbEntity
  8
AM_5
100
AcDbLine
 10
39.43761272410256
 20
125.3881923055971
 30
0.0
 11
39.43761272410256
 21
93.68819230559703
 31
0.0
  0
LINE
  5
439F
330
3ECB
100
AcDbEntity
  8
AM_5
100
AcDbLine
 10
134.4376127241025
 20
125.388192305597
 30
0.0
 11
134.4376127241025
 21
93.68819230559703
 31
0.0
  0
LINE
  5
43A0
330
3ECB
100
AcDbEntity
  8
AM_5
100
AcDbLine
 10
43.63761272410257
 20
95.08819230559701
 30
0.0
 11
130.2376127241025
 21
95.08819230559701
 31
0.0
  0
SOLID
  5
43A1
330
3ECB
100
AcDbEntity
  8
AM_5
100
AcDbTrace
 10
43.63761272410257
 20
95.78819230559702
 30
0.0
 11
43.63761272410257
 21
94.38819230559701
 31
0.0
 12
39.43761272410256
 22
95.08819230559701
 32
0.0
 13
39.43761272410256
 23
95.08819230559701
 33
0.0
  0
SOLID
  5
43A2
330
3ECB
100
AcDbEntity
  8
AM_5
100
AcDbTrace
 10
130.2376127241025
 20
95.78819230559702
 30
0.0
 11
130.2376127241025
 21
94.38819230559701
 31
0.0
 12
134.4376127241025
 22
95.08819230559701
 32
0.0
 13
134.4376127241025
 23
95.08819230559701
 33
0.0
  0
MTEXT
  5
43A3
330
3ECB
100
AcDbEntity
  8
AM_5
100
AcDbMText
 10
86.93761272410256
 20
98.93819230559701
 30
0.0
 40
4.899999999999999
 41
0.0
 71
     5
 72
     1
  1
{\Famgdt|c136;o}95
 73
     1
 44
1.0
1001
ACAD
1000
MTEXTBEGIN
1070
    73
1070
     1
1070
    44
1040
1.0
1070
    74
1070
     0
1000
MTEXTEND
  0
POINT
  5
43A4
330
3ECB
100
AcDbEntity
  8
Defpoints
 62
     0
100
AcDbPoint
 10
39.43761272410256
 20
126.7881923055971
 30
0.0
  0
POINT
  5
43A5
330
3ECB
100
AcDbEntity
  8
Defpoints
 62
     0
100
AcDbPoint
 10
134.4376127241025
 20
126.788192305597
 30
0.0
  0
POINT
  5
43A6
330
3ECB
100
AcDbEntity
  8
Defpoints
 62
     0
100
AcDbPoint
 10
134.4376127241025
 20
95.08819230559701
 30
0.0
  0
ENDBLK
  5
3ED6
330
3ECB
100
AcDbEntity
  8
0
100
AcDbBlockEnd
  0
BLOCK
  5
3F3B
330
3F34
100
AcDbEntity
  8
0
100
AcDbBlockBegin
  2
*D7
 70
     1
 10
0.0
 20
0.0
 30
0.0
  3
*D7
  1

  0
LINE
  5
4398
330
3F34
100
AcDbEntity
  8
AM_5
100
AcDbLine
 10
241.5451043978986
 20
210.9304855570235
 30
0.0
 11
230.873528455385
 21
232.7272150110977
 31
0.0
  0
LINE
  5
4399
330
3F34
100
AcDbEntity
  8
AM_5
100
AcDbLine
 10
230.873528455385
 20
232.7272150110977
 30
0.0
 11
219.9491881784929
 21
232.7272150110977
 31
0.0
  0
SOLID
  5
439A
330
3F34
100
AcDbEntity
  8
AM_5
100
AcDbTrace
 10
242.0390780313915
 20
211.1723327182926
 30
0.0
 11
241.0511307644058
 21
210.6886383957544
 31
0.0
 12
242.9961873655131
 22
207.9666437560666
 32
0.0
 13
242.9961873655131
 23
207.9666437560666
 33
0.0
  0
MTEXT
  5
439B
330
3F34
100
AcDbEntity
  8
AM_5
100
AcDbMText
 10
224.8613583169389
 20
235.7590552879897
 30
0.0
 40
3.85
 41
0.0
 71
     5
 72
     1
  1
G1/4
 73
     1
 44
1.0
1001
ACAD
1000
MTEXTBEGIN
1070
    73
1070
     1
1070
    44
1040
1.0
1070
    74
1070
     0
1000
MTEXTEND
  0
POINT
  5
439C
330
3F34
100
AcDbEntity
  8
Defpoints
 62
     0
100
AcDbPoint
 10
242.9961873655131
 20
207.9666437560666
 30
0.0
  0
POINT
  5
439D
330
3F34
100
AcDbEntity
  8
Defpoints
 62
     0
100
AcDbPoint
 10
245.776330414829
 20
202.2881923055969
 30
0.0
  0
ENDBLK
  5
3F3C
330
3F34
100
AcDbEntity
  8
0
100
AcDbBlockEnd
  0
BLOCK
  5
3F5D
330
3F53
100
AcDbEntity
  8
0
100
AcDbBlockBegin
  2
*D8
 70
     1
 10
0.0
 20
0.0
 30
0.0
  3
*D8
  1

  0
LINE
  5
44D9
330
3F53
100
AcDbEntity
  8
AM_5
100
AcDbLine
 10
176.7763304148291
 20
148.388192305597
 30
0.0
 11
176.7763304148291
 21
110.188192305597
 31
0.0
  0
LINE
  5
44DA
330
3F53
100
AcDbEntity
  8
AM_5
100
AcDbLine
 10
166.7763304148291
 20
148.388192305597
 30
0.0
 11
166.7763304148291
 21
110.188192305597
 31
0.0
  0
LINE
  5
44DB
330
3F53
100
AcDbEntity
  8
AM_5
100
AcDbLine
 10
180.9763304148291
 20
111.588192305597
 30
0.0
 11
185.1763304148291
 21
111.588192305597
 31
0.0
  0
LINE
  5
44DC
330
3F53
100
AcDbEntity
  8
AM_5
100
AcDbLine
 10
162.5763304148291
 20
111.588192305597
 30
0.0
 11
158.3763304148291
 21
111.588192305597
 31
0.0
  0
LINE
  5
44DD
330
3F53
100
AcDbEntity
  8
AM_5
100
AcDbLine
 10
176.7763304148291
 20
111.588192305597
 30
0.0
 11
166.7763304148291
 21
111.588192305597
 31
0.0
  0
SOLID
  5
44DE
330
3F53
100
AcDbEntity
  8
AM_5
100
AcDbTrace
 10
180.9763304148291
 20
112.288192305597
 30
0.0
 11
180.9763304148291
 21
110.888192305597
 31
0.0
 12
176.7763304148291
 22
111.588192305597
 32
0.0
 13
176.7763304148291
 23
111.588192305597
 33
0.0
  0
SOLID
  5
44DF
330
3F53
100
AcDbEntity
  8
AM_5
100
AcDbTrace
 10
162.5763304148291
 20
112.288192305597
 30
0.0
 11
162.5763304148291
 21
110.888192305597
 31
0.0
 12
166.7763304148291
 22
111.588192305597
 32
0.0
 13
166.7763304148291
 23
111.588192305597
 33
0.0
  0
MTEXT
  5
44E0
330
3F53
100
AcDbEntity
  8
AM_5
100
AcDbMText
 10
171.7763304148291
 20
115.438192305597
 30
0.0
 40
4.899999999999999
 41
0.0
 71
     5
 72
     1
  1
10
 73
     1
 44
1.0
1001
ACAD
1000
MTEXTBEGIN
1070
    73
1070
     1
1070
    44
1040
1.0
1070
    74
1070
     0
1000
MTEXTEND
  0
POINT
  5
44E1
330
3F53
100
AcDbEntity
  8
Defpoints
 62
     0
100
AcDbPoint
 10
176.7763304148291
 20
149.788192305597
 30
0.0
  0
POINT
  5
44E2
330
3F53
100
AcDbEntity
  8
Defpoints
 62
     0
100
AcDbPoint
 10
166.7763304148291
 20
149.788192305597
 30
0.0
  0
POINT
  5
44E3
330
3F53
100
AcDbEntity
  8
Defpoints
 62
     0
100
AcDbPoint
 10
166.7763304148291
 20
111.588192305597
 30
0.0
  0
ENDBLK
  5
3F5E
330
3F53
100
AcDbEntity
  8
0
100
AcDbBlockEnd
  0
BLOCK
  5
3F7C
330
3F72
100
AcDbEntity
  8
0
100
AcDbBlockBegin
  2
*D9
 70
     1
 10
0.0
 20
0.0
 30
0.0
  3
*D9
  1

  0
LINE
  5
44D0
330
3F72
100
AcDbEntity
  8
AM_5
100
AcDbLine
 10
176.7763304148291
 20
148.388192305597
 30
0.0
 11
176.7763304148291
 21
110.188192305597
 31
0.0
  0
LINE
  5
44D1
330
3F72
100
AcDbEntity
  8
AM_5
100
AcDbLine
 10
286.7763304148292
 20
123.388192305597
 30
0.0
 11
286.7763304148292
 21
110.188192305597
 31
0.0
  0
LINE
  5
44D2
330
3F72
100
AcDbEntity
  8
AM_5
100
AcDbLine
 10
180.9763304148291
 20
111.588192305597
 30
0.0
 11
282.5763304148292
 21
111.588192305597
 31
0.0
  0
SOLID
  5
44D3
330
3F72
100
AcDbEntity
  8
AM_5
100
AcDbTrace
 10
180.9763304148291
 20
112.288192305597
 30
0.0
 11
180.9763304148291
 21
110.888192305597
 31
0.0
 12
176.7763304148291
 22
111.588192305597
 32
0.0
 13
176.7763304148291
 23
111.588192305597
 33
0.0
  0
SOLID
  5
44D4
330
3F72
100
AcDbEntity
  8
AM_5
100
AcDbTrace
 10
282.5763304148292
 20
112.288192305597
 30
0.0
 11
282.5763304148292
 21
110.888192305597
 31
0.0
 12
286.7763304148292
 22
111.588192305597
 32
0.0
 13
286.7763304148292
 23
111.588192305597
 33
0.0
  0
MTEXT
  5
44D5
330
3F72
100
AcDbEntity
  8
AM_5
100
AcDbMText
 10
231.7763304148292
 20
115.438192305597
 30
0.0
 40
4.899999999999999
 41
0.0
 71
     5
 72
     1
  1
110
 73
     1
 44
1.0
1001
ACAD
1000
MTEXTBEGIN
1070
    73
1070
     1
1070
    44
1040
1.0
1070
    74
1070
     0
1000
MTEXTEND
  0
POINT
  5
44D6
330
3F72
100
AcDbEntity
  8
Defpoints
 62
     0
100
AcDbPoint
 10
176.7763304148291
 20
149.788192305597
 30
0.0
  0
POINT
  5
44D7
330
3F72
100
AcDbEntity
  8
Defpoints
 62
     0
100
AcDbPoint
 10
286.7763304148292
 20
124.788192305597
 30
0.0
  0
POINT
  5
44D8
330
3F72
100
AcDbEntity
  8
Defpoints
 62
     0
100
AcDbPoint
 10
286.7763304148292
 20
111.588192305597
 30
0.0
  0
ENDBLK
  5
3F7D
330
3F72
100
AcDbEntity
  8
0
100
AcDbBlockEnd
  0
BLOCK
  5
3F92
330
3F88
100
AcDbEntity
  8
0
100
AcDbBlockBegin
  2
*D10
 70
     1
 10
0.0
 20
0.0
 30
0.0
  3
*D10
  1

  0
LINE
  5
44C7
330
3F88
100
AcDbEntity
  8
AM_5
100
AcDbLine
 10
166.7763304148291
 20
147.2881923055971
 30
0.0
 11
166.7763304148291
 21
93.68819230559726
 31
0.0
  0
LINE
  5
44C8
330
3F88
100
AcDbEntity
  8
AM_5
100
AcDbLine
 10
286.7763304148292
 20
123.388192305597
 30
0.0
 11
286.7763304148292
 21
93.68819230559726
 31
0.0
  0
LINE
  5
44C9
330
3F88
100
AcDbEntity
  8
AM_5
100
AcDbLine
 10
170.9763304148291
 20
95.08819230559724
 30
0.0
 11
282.5763304148292
 21
95.08819230559724
 31
0.0
  0
SOLID
  5
44CA
330
3F88
100
AcDbEntity
  8
AM_5
100
AcDbTrace
 10
170.9763304148291
 20
95.78819230559725
 30
0.0
 11
170.9763304148291
 21
94.38819230559724
 31
0.0
 12
166.7763304148291
 22
95.08819230559724
 32
0.0
 13
166.7763304148291
 23
95.08819230559724
 33
0.0
  0
SOLID
  5
44CB
330
3F88
100
AcDbEntity
  8
AM_5
100
AcDbTrace
 10
282.5763304148292
 20
95.78819230559725
 30
0.0
 11
282.5763304148292
 21
94.38819230559724
 31
0.0
 12
286.7763304148292
 22
95.08819230559724
 32
0.0
 13
286.7763304148292
 23
95.08819230559724
 33
0.0
  0
MTEXT
  5
44CC
330
3F88
100
AcDbEntity
  8
AM_5
100
AcDbMText
 10
226.7763304148291
 20
98.93867458906182
 30
0.0
 40
4.899999999999999
 41
0.0
 71
     5
 72
     1
  1
120
 73
     1
 44
1.0
1001
ACAD
1000
MTEXTBEGIN
1070
    73
1070
     1
1070
    44
1040
1.0
1070
    74
1070
     0
1000
MTEXTEND
  0
POINT
  5
44CD
330
3F88
100
AcDbEntity
  8
Defpoints
 62
     0
100
AcDbPoint
 10
166.7763304148291
 20
148.6881923055971
 30
0.0
  0
POINT
  5
44CE
330
3F88
100
AcDbEntity
  8
Defpoints
 62
     0
100
AcDbPoint
 10
286.7763304148292
 20
124.7881923055971
 30
0.0
  0
POINT
  5
44CF
330
3F88
100
AcDbEntity
  8
Defpoints
 62
     0
100
AcDbPoint
 10
286.7763304148292
 20
95.08819230559724
 30
0.0
  0
ENDBLK
  5
3F93
330
3F88
100
AcDbEntity
  8
0
100
AcDbBlockEnd
  0
BLOCK
  5
3FD5
330
3FCB
100
AcDbEntity
  8
0
100
AcDbBlockBegin
  2
*D11
 70
     1
 10
0.0
 20
0.0
 30
0.0
  3
*D11
  1

  0
LINE
  5
43DF
330
3FCB
100
AcDbEntity
  8
AM_5
100
AcDbLine
 10
330.5898188296038
 20
127.425412045775
 30
0.0
 11
330.5898188296038
 21
110.1881923055971
 31
0.0
  0
LINE
  5
43E0
330
3FCB
100
AcDbEntity
  8
AM_5
100
AcDbLine
 10
402.5898188296038
 20
127.425412045775
 30
0.0
 11
402.5898188296038
 21
110.1881923055971
 31
0.0
  0
LINE
  5
43E1
330
3FCB
100
AcDbEntity
  8
AM_5
100
AcDbLine
 10
334.7898188296038
 20
111.5881923055972
 30
0.0
 11
398.3898188296038
 21
111.5881923055972
 31
0.0
  0
SOLID
  5
43E2
330
3FCB
100
AcDbEntity
  8
AM_5
100
AcDbTrace
 10
334.7898188296038
 20
112.2881923055972
 30
0.0
 11
334.7898188296038
 21
110.8881923055971
 31
0.0
 12
330.5898188296038
 22
111.5881923055972
 32
0.0
 13
330.5898188296038
 23
111.5881923055972
 33
0.0
  0
SOLID
  5
43E3
330
3FCB
100
AcDbEntity
  8
AM_5
100
AcDbTrace
 10
398.3898188296038
 20
112.2881923055972
 30
0.0
 11
398.3898188296038
 21
110.8881923055971
 31
0.0
 12
402.5898188296038
 22
111.5881923055972
 32
0.0
 13
402.5898188296038
 23
111.5881923055972
 33
0.0
  0
MTEXT
  5
43E4
330
3FCB
100
AcDbEntity
  8
AM_5
100
AcDbMText
 10
366.5898188296038
 20
115.4386745890617
 30
0.0
 40
4.899999999999999
 41
0.0
 71
     5
 72
     1
  1
72
 73
     1
 44
1.0
1001
ACAD
1000
MTEXTBEGIN
1070
    73
1070
     1
1070
    44
1040
1.0
1070
    74
1070
     0
1000
MTEXTEND
  0
POINT
  5
43E5
330
3FCB
100
AcDbEntity
  8
Defpoints
 62
     0
100
AcDbPoint
 10
330.5898188296038
 20
128.825412045775
 30
0.0
  0
POINT
  5
43E6
330
3FCB
100
AcDbEntity
  8
Defpoints
 62
     0
100
AcDbPoint
 10
402.5898188296038
 20
128.825412045775
 30
0.0
  0
POINT
  5
43E7
330
3FCB
100
AcDbEntity
  8
Defpoints
 62
     0
100
AcDbPoint
 10
402.5898188296038
 20
111.5881923055972
 30
0.0
  0
ENDBLK
  5
3FD6
330
3FCB
100
AcDbEntity
  8
0
100
AcDbBlockEnd
  0
BLOCK
  5
3FEB
330
3FE1
100
AcDbEntity
  8
0
100
AcDbBlockBegin
  2
*D12
 70
     1
 10
0.0
 20
0.0
 30
0.0
  3
*D12
  1

  0
LINE
  5
43D6
330
3FE1
100
AcDbEntity
  8
AM_5
100
AcDbLine
 10
319.0898188296038
 20
125.388192305597
 30
0.0
 11
319.0898188296038
 21
93.6881923055972
 31
0.0
  0
LINE
  5
43D7
330
3FE1
100
AcDbEntity
  8
AM_5
100
AcDbLine
 10
414.0898188296038
 20
125.388192305597
 30
0.0
 11
414.0898188296038
 21
93.6881923055972
 31
0.0
  0
LINE
  5
43D8
330
3FE1
100
AcDbEntity
  8
AM_5
100
AcDbLine
 10
323.2898188296038
 20
95.08819230559719
 30
0.0
 11
409.8898188296038
 21
95.08819230559719
 31
0.0
  0
SOLID
  5
43D9
330
3FE1
100
AcDbEntity
  8
AM_5
100
AcDbTrace
 10
323.2898188296038
 20
95.78819230559719
 30
0.0
 11
323.2898188296038
 21
94.38819230559719
 31
0.0
 12
319.0898188296038
 22
95.08819230559719
 32
0.0
 13
319.0898188296038
 23
95.08819230559719
 33
0.0
  0
SOLID
  5
43DA
330
3FE1
100
AcDbEntity
  8
AM_5
100
AcDbTrace
 10
409.8898188296038
 20
95.78819230559719
 30
0.0
 11
409.8898188296038
 21
94.38819230559719
 31
0.0
 12
414.0898188296038
 22
95.08819230559719
 32
0.0
 13
414.0898188296038
 23
95.08819230559719
 33
0.0
  0
MTEXT
  5
43DB
330
3FE1
100
AcDbEntity
  8
AM_5
100
AcDbMText
 10
366.5898188296038
 20
98.93819230559719
 30
0.0
 40
4.899999999999999
 41
0.0
 71
     5
 72
     1
  1
95
 73
     1
 44
1.0
1001
ACAD
1000
MTEXTBEGIN
1070
    73
1070
     1
1070
    44
1040
1.0
1070
    74
1070
     0
1000
MTEXTEND
  0
POINT
  5
43DC
330
3FE1
100
AcDbEntity
  8
Defpoints
 62
     0
100
AcDbPoint
 10
319.0898188296038
 20
126.788192305597
 30
0.0
  0
POINT
  5
43DD
330
3FE1
100
AcDbEntity
  8
Defpoints
 62
     0
100
AcDbPoint
 10
414.0898188296038
 20
126.788192305597
 30
0.0
  0
POINT
  5
43DE
330
3FE1
100
AcDbEntity
  8
Defpoints
 62
     0
100
AcDbPoint
 10
414.0898188296038
 20
95.08819230559719
 30
0.0
  0
ENDBLK
  5
3FEC
330
3FE1
100
AcDbEntity
  8
0
100
AcDbBlockEnd
  0
BLOCK
  5
4012
330
4009
100
AcDbEntity
  8
0
100
AcDbBlockBegin
  2
*D13
 70
     1
 10
0.0
 20
0.0
 30
0.0
  3
*D13
  1

  0
LINE
  5
438C
330
4009
100
AcDbEntity
  8
AM_5
100
AcDbLine
 10
335.8891936209571
 20
215.3136194684657
 30
0.0
 11
346.4359917385635
 21
229.2956012859479
 31
0.0
  0
LINE
  5
438D
330
4009
100
AcDbEntity
  8
AM_5
100
AcDbLine
 10
346.4359917385635
 20
229.2956012859479
 30
0.0
 11
359.4709917385636
 21
229.2956012859479
 31
0.0
  0
SOLID
  5
438E
330
4009
100
AcDbEntity
  8
AM_5
100
AcDbTrace
 10
335.4501044232778
 20
215.6448303929253
 30
0.0
 11
336.3282828186364
 21
214.9824085440061
 31
0.0
 12
333.9019280741997
 22
212.67908428239
 32
0.0
 13
333.9019280741997
 23
212.67908428239
 33
0.0
  0
MTEXT
  5
438F
330
4009
100
AcDbEntity
  8
AM_5
100
AcDbMText
 10
353.5034917385634
 20
232.3206012859479
 30
0.0
 40
3.85
 41
0.0
 71
     5
 72
     1
  1
4-\U+220511
 73
     1
 44
1.0
1001
ACAD
1000
MTEXTBEGIN
1070
    73
1070
     1
1070
    44
1040
1.0
1070
    74
1070
     0
1000
MTEXTEND
  0
POINT
  5
4390
330
4009
100
AcDbEntity
  8
Defpoints
 62
     0
100
AcDbPoint
 10
333.9019280741997
 20
212.67908428239
 30
0.0
  0
POINT
  5
4391
330
4009
100
AcDbEntity
  8
Defpoints
 62
     0
100
AcDbPoint
 10
327.2777095850082
 20
203.8973003288043
 30
0.0
  0
ENDBLK
  5
4013
330
4009
100
AcDbEntity
  8
0
100
AcDbBlockEnd
  0
BLOCK
  5
424F
330
4245
100
AcDbEntity
  8
0
100
AcDbBlockBegin
  2
*D15
 70
     1
 10
0.0
 20
0.0
 30
0.0
  3
*D15
  1

  0
LINE
  5
44BE
330
4245
100
AcDbEntity
  8
AM_5
100
AcDbLine
 10
165.3763304148291
 20
149.788192305597
 30
0.0
 11
141.6282376400157
 21
149.788192305597
 31
0.0
  0
LINE
  5
44BF
330
4245
100
AcDbEntity
  8
AM_5
100
AcDbLine
 10
165.3763304148291
 20
194.788192305597
 30
0.0
 11
141.6282376400157
 21
194.788192305597
 31
0.0
  0
LINE
  5
44C0
330
4245
100
AcDbEntity
  8
AM_5
100
AcDbLine
 10
143.0282376400157
 20
153.988192305597
 30
0.0
 11
143.0282376400157
 21
190.5881923055971
 31
0.0
  0
SOLID
  5
44C1
330
4245
100
AcDbEntity
  8
AM_5
100
AcDbTrace
 10
142.3282376400157
 20
153.988192305597
 30
0.0
 11
143.7282376400157
 21
153.988192305597
 31
0.0
 12
143.0282376400157
 22
149.788192305597
 32
0.0
 13
143.0282376400157
 23
149.788192305597
 33
0.0
  0
SOLID
  5
44C2
330
4245
100
AcDbEntity
  8
AM_5
100
AcDbTrace
 10
142.3282376400157
 20
190.5881923055971
 30
0.0
 11
143.7282376400157
 21
190.5881923055971
 31
0.0
 12
143.0282376400158
 22
194.788192305597
 32
0.0
 13
143.0282376400158
 23
194.788192305597
 33
0.0
  0
MTEXT
  5
44C3
330
4245
100
AcDbEntity
  8
AM_5
100
AcDbMText
 10
139.1782376400157
 20
172.2881923055971
 30
0.0
 40
4.899999999999999
 41
0.0
 71
     5
 72
     1
  1
%%c45
 11
0.0000000000000001
 21
1.0
 31
0.0
 73
     1
 44
1.0
1001
ACAD
1000
MTEXTBEGIN
1070
    73
1070
     1
1070
    44
1040
1.0
1070
    74
1070
     0
1000
MTEXTEND
  0
POINT
  5
44C4
330
4245
100
AcDbEntity
  8
Defpoints
 62
     0
100
AcDbPoint
 10
166.7763304148291
 20
149.788192305597
 30
0.0
  0
POINT
  5
44C5
330
4245
100
AcDbEntity
  8
Defpoints
 62
     0
100
AcDbPoint
 10
166.7763304148291
 20
194.788192305597
 30
0.0
  0
POINT
  5
44C6
330
4245
100
AcDbEntity
  8
Defpoints
 62
     0
100
AcDbPoint
 10
143.0282376400158
 20
194.788192305597
 30
0.0
  0
ENDBLK
  5
4250
330
4245
100
AcDbEntity
  8
0
100
AcDbBlockEnd
  0
ENDSEC
  0
SECTION
  2
ENTITIES
  0
VIEWPORT
  5
230
102
{ACAD_XDICTIONARY
360
450C
102
}
330
D
100
AcDbEntity
 67
     1
  8
0
100
AcDbViewport
 10
225.7228320822173
 20
154.8020264689059
 30
0.0
 40
404.1740071523663
 41
301.3166304641718
 68
     1
 69
     1
 12
225.7228320822173
 22
154.8020264689059
 13
0.0
 23
0.0
 14
1.0
 24
1.0
 15
0.0
 25
0.0
 16
0.0
 26
0.0
 36
1.0
 17
0.0
 27
0.0
 37
0.0
 42
50.0
 43
0.0
 44
0.0
 45
301.3166304641718
 50
0.0
 51
0.0
 72
  1000
 90
    32800
  1

281
     0
 71
     1
 74
     0
110
0.0
120
0.0
130
0.0
111
1.0
121
0.0
131
0.0
112
0.0
122
1.0
132
0.0
 79
     0
146
0.0
  0
TEXT
  5
D17
330
D
100
AcDbEntity
 67
     1
  8
LOGO
 62
     7
100
AcDbText
 10
85.92032501556582
 20
26.6415415972903
 30
0.0
 40
5.345607547256028
  1
訂購代號:
  7
CHINESET
100
AcDbText
  0
TEXT
  5
D18
330
D
100
AcDbEntity
 67
     1
  8
LOGO
 62
     7
100
AcDbText
 10
85.2809608819968
 20
21.62453586104308
 30
0.0
 40
3.563738364837352
  1
Order example:
 41
0.8
  7
CHINESET
100
AcDbText
  0
LINE
  5
D19
330
D
100
AcDbEntity
 67
     1
  8
LOGO
 62
     4
100
AcDbLine
 10
140.0962951372933
 20
8.832933118624509
 30
0.0
 11
122.2776033131066
 21
8.832933118624509
 31
0.0
  0
LINE
  5
D1A
330
D
100
AcDbEntity
 67
     1
  8
LOGO
 62
     4
100
AcDbLine
 10
140.0962951372933
 20
18.63321362192717
 30
0.0
 11
122.2776033131066
 21
18.63321362192717
 31
0.0
  0
LINE
  5
D1B
330
D
100
AcDbEntity
 67
     1
  8
LOGO
 62
     4
100
AcDbLine
 10
140.7708238838809
 20
22.6424192823692
 30
0.0
 11
121.0049028007194
 21
22.6424192823692
 31
0.0
  0
LINE
  5
D1C
330
D
100
AcDbEntity
 67
     1
  8
LOGO
 62
     4
100
AcDbLine
 10
140.7708238838809
 20
30.66083060325331
 30
0.0
 11
121.0049028007194
 21
30.66083060325331
 31
0.0
  0
TEXT
  5
D1D
330
D
100
AcDbEntity
 67
     1
  8
LOGO
  6
Continuous
 62
     7
100
AcDbText
 10
124.9291943583724
 20
24.42428846478794
 30
0.0
 40
4.454672956046691
  1
MCB
  7
CHINESET
 72
     1
 11
131.1869492251999
 21
26.65162494281128
 31
0.0
100
AcDbText
 73
     2
  0
LINE
  5
D1E
330
D
100
AcDbEntity
 67
     1
  8
LOGO
 62
     4
100
AcDbLine
 10
121.0049028007194
 20
30.66083060325331
 30
0.0
 11
121.0049028007194
 21
22.6424192823692
 31
0.0
  0
LINE
  5
D1F
330
D
100
AcDbEntity
 67
     1
  8
LOGO
 62
     4
100
AcDbLine
 10
122.2776033131066
 20
18.63321362192717
 30
0.0
 11
122.2776033131066
 21
8.832933118624509
 31
0.0
  0
TEXT
  5
D20
330
D
100
AcDbEntity
 67
     1
  8
LOGO
100
AcDbText
 10
128.1723185132158
 20
10.20574919049497
 30
0.0
 40
1.773312183520055
  1
Model
 72
     4
 11
131.1869492251999
 21
11.06026959664783
 31
0.0
100
AcDbText
  0
TEXT
  5
D21
330
D
100
AcDbEntity
 67
     1
  8
LOGO
100
AcDbText
 10
127.6232108603625
 20
13.82427139929727
 30
0.0
 40
3.563738364837352
  1
型式
 72
     4
 11
131.1869492251999
 21
15.51494255269452
 31
0.0
100
AcDbText
  0
LINE
  5
D22
330
D
100
AcDbEntity
 67
     1
  8
LOGO
 62
     4
100
AcDbLine
 10
131.1869492251999
 20
22.6424192823692
 30
0.0
 11
131.1869492251999
 21
18.63321362192717
 31
0.0
  0
LINE
  5
D23
330
D
100
AcDbEntity
 67
     1
  8
LOGO
 62
     4
100
AcDbLine
 10
140.7708238838809
 20
30.66083060325331
 30
0.0
 11
140.7708238838809
 21
22.6424192823692
 31
0.0
  0
LINE
  5
D2B
330
D
100
AcDbEntity
 67
     1
  8
LOGO
 62
     4
100
AcDbLine
 10
140.0962951372934
 20
18.63321362192717
 30
0.0
 11
140.0962951372934
 21
8.832933118624509
 31
0.0
  0
LINE
  5
D39
330
D
100
AcDbEntity
 67
     1
  8
LOGO
 62
     4
100
AcDbLine
 10
161.400833221313
 20
30.66083060325337
 30
0.0
 11
161.400833221313
 21
22.64241928236929
 31
0.0
  0
LINE
  5
D3A
330
D
100
AcDbEntity
 67
     1
  8
LOGO
 62
     4
100
AcDbLine
 10
147.0965184066104
 20
30.66083060325331
 30
0.0
 11
147.0965184066104
 21
22.64241928236929
 31
0.0
  0
LINE
  5
D3C
330
D
100
AcDbEntity
 67
     1
  8
LOGO
 62
     4
100
AcDbLine
 10
161.400833221313
 20
8.832933118624509
 30
0.0
 11
147.0965184066104
 21
8.832933118624509
 31
0.0
  0
LINE
  5
D3D
330
D
100
AcDbEntity
 67
     1
  8
LOGO
 62
     4
100
AcDbLine
 10
161.400833221313
 20
22.64241928236929
 30
0.0
 11
147.0965184066104
 21
22.64241928236929
 31
0.0
  0
LINE
  5
D3E
330
D
100
AcDbEntity
 67
     1
  8
LOGO
 62
     4
100
AcDbLine
 10
161.400833221313
 20
18.6332136219273
 30
0.0
 11
147.0965184066104
 21
18.6332136219273
 31
0.0
  0
LINE
  5
D3F
330
D
100
AcDbEntity
 67
     1
  8
LOGO
 62
     4
100
AcDbLine
 10
147.0965184066104
 20
18.6332136219273
 30
0.0
 11
147.0965184066104
 21
8.832933118624509
 31
0.0
  0
TEXT
  5
D40
330
D
100
AcDbEntity
 67
     1
  8
LOGO
100
AcDbText
 10
151.7660387570337
 20
10.20115837826538
 30
0.0
 40
1.773312183520055
  1
Bore
 72
     4
 11
154.2486758139617
 21
11.06026959664783
 31
0.0
100
AcDbText
  0
TEXT
  5
D41
330
D
100
AcDbEntity
 67
     1
  8
LOGO
100
AcDbText
 10
150.4622038013221
 20
13.73307337027584
 30
0.0
 40
3.563738364837352
  1
內徑
 72
     4
 11
154.2486758139617
 21
15.51494255269452
 31
0.0
100
AcDbText
  0
LINE
  5
D42
330
D
100
AcDbEntity
 67
     1
  8
LOGO
 62
     4
100
AcDbLine
 10
154.2486756085259
 20
22.64241928236929
 30
0.0
 11
154.2486756085259
 21
18.6332136219273
 31
0.0
  0
LINE
  5
D43
330
D
100
AcDbEntity
 67
     1
  8
LOGO
 62
     4
100
AcDbLine
 10
161.400833221313
 20
18.6332136219273
 30
0.0
 11
161.400833221313
 21
8.832933118624509
 31
0.0
  0
LINE
  5
D45
330
D
100
AcDbEntity
 67
     1
  8
LOGO
 62
     4
100
AcDbLine
 10
161.400833221313
 20
30.66083060325337
 30
0.0
 11
147.0965184066104
 21
30.66083060325331
 31
0.0
  0
LINE
  5
D46
330
D
100
AcDbEntity
 67
     1
  8
LOGO
  6
Continuous
 62
     7
100
AcDbLine
 10
142.1692201484477
 20
26.62322246270424
 30
0.0
 11
145.7098580089217
 21
26.62322246270424
 31
0.0
  0
TEXT
  5
D47
330
D
100
AcDbEntity
 67
     1
  8
LOGO
  6
Continuous
 62
     7
100
AcDbText
 10
151.0582815830417
 20
24.37377219276505
 30
0.0
 40
4.454672956046691
  1
80
  7
CHINESET
 72
     1
 11
154.6644454046034
 21
26.6011086707884
 31
0.0
100
AcDbText
 73
     2
  0
LINE
  5
D60
330
D
100
AcDbEntity
 67
     1
  8
LOGO
 62
     4
100
AcDbLine
 10
83.73250447496937
 20
6.605596640600978
 30
0.0
 11
83.73250447496937
 21
33.33363437688176
 31
0.0
  0
TEXT
  5
D61
330
D
100
AcDbEntity
 67
     1
  8
LOGO
  6
Continuous
100
AcDbText
 10
34.53165275487902
 20
11.85627931776731
 30
0.0
 40
4.009205660442055
  1
金器工業股份有限公司
  7
CHINESET
100
AcDbText
  0
TEXT
  5
D62
330
D
100
AcDbEntity
 67
     1
  8
LOGO
  6
Continuous
100
AcDbText
 10
27.16753513887117
 20
7.846288167349669
 30
0.0
 40
2.672803773628037
  1
MINDMAN INDUSTRIAL CO., LTD.
 41
0.85
  7
CHINESET
100
AcDbText
  0
LINE
  5
D63
330
D
100
AcDbEntity
 67
     1
  8
LOGO
 62
     4
100
AcDbLine
 10
83.73250447496937
 20
27.98802682962548
 30
0.0
 11
44.53138246175723
 21
27.98802682962548
 31
0.0
  0
LINE
  5
D64
330
D
100
AcDbEntity
 67
     1
  8
LOGO
 62
     4
100
AcDbLine
 10
83.73250447496937
 20
22.64241928236929
 30
0.0
 11
44.53138246175723
 21
22.64241928236929
 31
0.0
  0
LINE
  5
D65
330
D
100
AcDbEntity
 67
     1
  8
LOGO
 62
     4
100
AcDbLine
 10
83.73250447496937
 20
17.29681173511335
 30
0.0
 11
24.9308214551519
 21
17.29681173511335
 31
0.0
  0
LINE
  5
D66
330
D
100
AcDbEntity
 67
     1
  8
LOGO
 62
     4
100
AcDbLine
 10
44.53138246175723
 20
17.29681173511335
 30
0.0
 11
44.53138246175723
 21
33.33363437688176
 31
0.0
  0
TEXT
  5
D67
330
D
100
AcDbEntity
 67
     1
  8
LOGO
100
AcDbText
 10
71.32349909301161
 20
18.63321362192722
 30
0.0
 40
2.672803773628037
  1
mm
  7
CHINESET
 72
     1
 11
74.63268471750348
 21
19.96961550874124
 31
0.0
100
AcDbText
 73
     2
  0
TEXT
  5
D68
330
D
100
AcDbEntity
 67
     1
  8
LOGO
100
AcDbText
 10
69.92345902111122
 20
29.32442871643935
 30
0.0
 40
2.672803773628037
  1
1 : 1
  7
CHINESET
 72
     1
 11
74.63268471750348
 21
30.66083060325337
 31
0.0
100
AcDbText
 73
     2
  0
LINE
  5
D69
330
D
100
AcDbEntity
 67
     1
  8
LOGO
 62
     4
100
AcDbLine
 10
65.91381265078211
 20
17.29681173511335
 30
0.0
 11
65.91381265078211
 21
33.33363437688176
 31
0.0
  0
TEXT
  5
D6A
330
D
100
AcDbEntity
 67
     1
  8
LOGO
100
AcDbText
 10
46.73525235903071
 20
29.32574407262716
 30
175.1711561365895
 40
2.672803773628037
  1
比例 Scale:
 41
0.9
  7
CHINESET
 72
     4
 11
55.2225975562701
 21
30.66083060325337
 31
175.1711561365895
100
AcDbText
  0
TEXT
  5
D6B
330
D
100
AcDbEntity
 67
     1
  8
LOGO
100
AcDbText
 10
46.58132749885303
 20
24.01641843355159
 30
175.1711561365895
 40
2.672803773628037
  1
投影  View:
 41
0.9
  7
CHINESET
 72
     4
 11
55.2225975562701
 21
25.3152230559974
 31
175.1711561365895
100
AcDbText
  0
TEXT
  5
D6C
330
D
100
AcDbEntity
 67
     1
  8
LOGO
100
AcDbText
 10
46.84264179636397
 20
18.63321362192722
 30
175.1711561365895
 40
2.672803773628037
  1
單位  Unit:
 41
0.9
  7
CHINESET
 72
     4
 11
55.2225975562701
 21
19.96961550874124
 31
175.1711561365895
100
AcDbText
  0
SOLID
  5
D6D
330
D
100
AcDbEntity
 67
     1
  8
LOGO
 62
     5
100
AcDbTrace
 10
27.70389826552906
 20
21.73996756511127
 30
0.0
 11
28.85954848287466
 21
21.73996756511058
 31
0.0
 12
33.68139938973113
 22
32.69871962614849
 32
0.0
 13
34.83704960707715
 23
32.69871962614767
 33
0.0
  0
SOLID
  5
D6E
330
D
100
AcDbEntity
 67
     1
  8
LOGO
 62
     5
100
AcDbTrace
 10
29.33774857281198
 20
21.73996756511127
 30
0.0
 11
30.49339879015764
 21
21.73996756511127
 31
0.0
 12
34.83704960707715
 22
31.82201946126516
 32
0.0
 13
33.68139938973113
 23
27.58463533099741
 33
0.0
  0
SOLID
  5
D6F
330
D
100
AcDbEntity
 67
     1
  8
LOGO
 62
     2
100
AcDbTrace
 10
28.85954848287466
 20
21.73996756511058
 30
0.0
 11
29.33774857281198
 21
21.73996756511127
 31
0.0
 12
34.83704960707715
 22
32.69871962614767
 32
0.0
 13
35.31524969701404
 23
32.69871962614767
 33
0.0
  0
SOLID
  5
D70
330
D
100
AcDbEntity
 67
     1
  8
LOGO
 62
     5
100
AcDbTrace
 10
25.85110756697574
 20
17.75496681564308
 30
0.0
 11
26.24960764192316
 21
17.75496681564308
 31
0.0
 12
27.37181486974006
 22
19.74746719037715
 32
0.0
 13
27.77031494468678
 23
19.74746719037715
 33
0.0
  0
SOLID
  5
D71
330
D
100
AcDbEntity
 67
     1
  8
LOGO
 62
     5
100
AcDbTrace
 10
27.37181486974006
 20
19.74746719037715
 30
0.0
 11
27.77031494468678
 21
19.74746719037715
 31
0.0
 12
27.37181486974006
 22
17.75496681564308
 32
0.0
 13
27.77031494468678
 23
17.75496681564308
 33
0.0
  0
SOLID
  5
D72
330
D
100
AcDbEntity
 67
     1
  8
LOGO
 62
     5
100
AcDbTrace
 10
27.37181486974006
 20
17.75496681564308
 30
0.0
 11
27.77031494468678
 21
17.75496681564308
 31
0.0
 12
28.89252217250574
 22
19.74746719037715
 32
0.0
 13
29.29102224745222
 23
19.74746719037715
 33
0.0
  0
SOLID
  5
D73
330
D
100
AcDbEntity
 67
     1
  8
LOGO
 62
     5
100
AcDbTrace
 10
28.89252217250574
 20
19.74746719037715
 30
0.0
 11
29.29102224745222
 21
19.74746719037715
 31
0.0
 12
28.89252217250574
 22
17.75496681564308
 32
0.0
 13
29.29102224745222
 23
17.75496681564308
 33
0.0
  0
POLYLINE
  5
D74
330
D
100
AcDbEntity
 67
     1
  8
LOGO
 62
     5
100
AcDb2dPolyline
 66
     1
 10
0.0
 20
0.0
 30
0.0
 40
0.3991386968617867
 41
0.3991386968617867
  0
VERTEX
  5
D75
330
D74
100
AcDbEntity
 67
     1
  8
LOGO
 62
     5
100
AcDbVertex
100
AcDb2dVertex
 10
42.25010893396062
 20
18.95046704048314
 30
0.0
 42
1.0
  0
VERTEX
  5
D76
330
D74
100
AcDbEntity
 67
     1
  8
LOGO
 62
     5
100
AcDbVertex
100
AcDb2dVertex
 10
41.05269284337574
 20
18.95046704048314
 30
0.0
 42
1.0
  0
SEQEND
  5
D77
330
D74
100
AcDbEntity
 67
     1
  8
LOGO
 62
     5
  0
POLYLINE
  5
D78
330
D
100
AcDbEntity
 67
     1
  8
LOGO
 62
     5
100
AcDb2dPolyline
 66
     1
 10
0.0
 20
0.0
 30
0.0
 70
     1
  0
VERTEX
  5
D79
330
D78
100
AcDbEntity
 67
     1
  8
LOGO
 62
     5
100
AcDbVertex
100
AcDb2dVertex
 10
38.79551025155377
 20
18.75121700300999
 30
0.0
 42
1.000000057330635
  0
VERTEX
  5
D7A
330
D78
100
AcDbEntity
 67
     1
  8
LOGO
 62
     5
100
AcDbVertex
100
AcDb2dVertex
 10
39.99101047639363
 20
18.75121700300999
 30
0.0
 42
1.000000057330635
  0
SEQEND
  5
D7B
330
D78
100
AcDbEntity
 67
     1
  8
LOGO
 62
     5
  0
CIRCLE
  5
D7C
330
D
100
AcDbEntity
 67
     1
  8
LOGO
 62
     5
100
AcDbCircle
 10
39.39326036397444
 20
18.75121700300999
 30
0.0
 40
0.5977501124202118
  0
POLYLINE
  5
D7D
330
D
100
AcDbEntity
 67
     1
  8
LOGO
 62
     5
100
AcDb2dPolyline
 66
     1
 10
0.0
 20
0.0
 30
0.0
 70
     1
 40
0.3991386968617867
 41
0.3991386968617867
  0
VERTEX
  5
D7E
330
D7D
100
AcDbEntity
 67
     1
  8
LOGO
 62
     5
100
AcDbVertex
100
AcDb2dVertex
 10
38.59498297025048
 20
18.75121700300999
 30
0.0
 42
1.0
  0
VERTEX
  5
D7F
330
D7D
100
AcDbEntity
 67
     1
  8
LOGO
 62
     5
100
AcDbVertex
100
AcDb2dVertex
 10
40.19153775769765
 20
18.75121700300999
 30
0.0
 42
1.0
  0
SEQEND
  5
D80
330
D7D
100
AcDbEntity
 67
     1
  8
LOGO
 62
     5
  0
LINE
  5
D81
330
D
100
AcDbEntity
 67
     1
  8
LOGO
100
AcDbLine
 10
42.44840103856063
 20
17.75496681564308
 30
0.0
 11
42.44840103856063
 21
18.95046704048314
 31
0.0
  0
SOLID
  5
D82
330
D
100
AcDbEntity
 67
     1
  8
LOGO
 62
     5
100
AcDbTrace
 10
39.99097062638785
 20
19.74746719037715
 30
0.0
 11
40.38947070133414
 21
19.74746719037715
 31
0.0
 12
39.99097062638785
 22
17.75496681564308
 32
0.0
 13
40.38947070133414
 23
17.75496681564308
 33
0.0
  0
SOLID
  5
D83
330
D
100
AcDbEntity
 67
     1
  8
LOGO
 62
     5
100
AcDbTrace
 10
40.85440073877392
 20
17.75496681564308
 30
0.0
 11
41.25290081372077
 21
17.75496681564308
 31
0.0
 12
40.85440073877392
 22
19.74746719037715
 32
0.0
 13
41.25290081372077
 23
19.74746719037715
 33
0.0
  0
SOLID
  5
D84
330
D
100
AcDbEntity
 67
     1
  8
LOGO
 62
     5
100
AcDbTrace
 10
42.04990096361497
 20
18.95046704048314
 30
0.0
 11
42.44840103856063
 21
18.95046704048314
 31
0.0
 12
42.04990096361497
 22
17.75496681564308
 32
0.0
 13
42.44840103856063
 23
17.75496681564308
 33
0.0
  0
SOLID
  5
D85
330
D
100
AcDbEntity
 67
     1
  8
LOGO
 62
     5
100
AcDbTrace
 10
40.81455073127902
 20
31.82201946126516
 30
0.0
 11
39.65890051393375
 21
27.58463533099741
 31
0.0
 12
40.81455073127902
 22
21.73996756511058
 32
0.0
 13
39.65890051393375
 23
21.73996756511058
 33
0.0
  0
SOLID
  5
D86
330
D
100
AcDbEntity
 67
     1
  8
LOGO
 62
     5
100
AcDbTrace
 10
41.29275082121547
 20
21.73996756511058
 30
0.0
 11
42.44840103856063
 21
21.73996756511058
 31
0.0
 12
41.29275082121547
 22
32.69871962614767
 32
0.0
 13
42.44840103856063
 23
32.69871962614849
 33
0.0
  0
SOLID
  5
D87
330
D
100
AcDbEntity
 67
     1
  8
LOGO
 62
     2
100
AcDbTrace
 10
40.81455073127902
 20
32.69871962614849
 30
0.0
 11
41.29275082121547
 21
32.69871962614767
 31
0.0
 12
40.81455073127902
 22
21.73996756511058
 32
0.0
 13
41.29275082121547
 23
21.73996756511058
 33
0.0
  0
POLYLINE
  5
D88
330
D
100
AcDbEntity
 67
     1
  8
LOGO
 62
     5
100
AcDb2dPolyline
 66
     1
 10
0.0
 20
0.0
 30
0.0
 40
0.3991386968617867
 41
0.3991386968617867
  0
VERTEX
  5
D89
330
D88
100
AcDbEntity
 67
     1
  8
LOGO
 62
     5
100
AcDbVertex
100
AcDb2dVertex
 10
36.53824795971861
 20
18.95046704048314
 30
0.0
 42
1.0
  0
VERTEX
  5
D8A
330
D88
100
AcDbEntity
 67
     1
  8
LOGO
 62
     5
100
AcDbVertex
100
AcDb2dVertex
 10
35.34083186913242
 20
18.95046704048314
 30
0.0
 42
1.0
  0
SEQEND
  5
D8B
330
D88
100
AcDbEntity
 67
     1
  8
LOGO
 62
     5
  0
POLYLINE
  5
D8C
330
D
100
AcDbEntity
 67
     1
  8
LOGO
 62
     5
100
AcDb2dPolyline
 66
     1
 10
0.0
 20
0.0
 30
0.0
 40
0.3991386968617867
 41
0.3991386968617867
  0
VERTEX
  5
D8D
330
D8C
100
AcDbEntity
 67
     1
  8
LOGO
 62
     5
100
AcDbVertex
100
AcDb2dVertex
 10
37.73374818455847
 20
18.95046704048314
 30
0.0
 42
1.0
  0
VERTEX
  5
D8E
330
D8C
100
AcDbEntity
 67
     1
  8
LOGO
 62
     5
100
AcDbVertex
100
AcDb2dVertex
 10
36.53633209397297
 20
18.95046704048314
 30
0.0
 42
1.0
  0
SEQEND
  5
D8F
330
D8C
100
AcDbEntity
 67
     1
  8
LOGO
 62
     5
  0
POLYLINE
  5
D90
330
D
100
AcDbEntity
 67
     1
  8
LOGO
 62
     5
100
AcDb2dPolyline
 66
     1
 10
0.0
 20
0.0
 30
0.0
 40
0.3991386968617867
 41
0.3991386968617867
  0
VERTEX
  5
D91
330
D90
100
AcDbEntity
 67
     1
  8
LOGO
 62
     5
100
AcDbVertex
100
AcDb2dVertex
 10
32.02188721031516
 20
18.95046704048314
 30
0.0
 42
1.0
  0
VERTEX
  5
D92
330
D90
100
AcDbEntity
 67
     1
  8
LOGO
 62
     5
100
AcDbVertex
100
AcDb2dVertex
 10
30.82447111972984
 20
18.95046704048314
 30
0.0
 42
1.0
  0
SEQEND
  5
D93
330
D90
100
AcDbEntity
 67
     1
  8
LOGO
 62
     5
  0
SOLID
  5
D94
330
D
100
AcDbEntity
 67
     1
  8
LOGO
 62
     5
100
AcDbTrace
 10
30.62617901512908
 20
19.74746719037715
 30
0.0
 11
31.02467909007524
 21
19.74746719037715
 31
0.0
 12
30.62617901512908
 22
17.75496681564308
 32
0.0
 13
31.02467909007524
 23
17.75496681564308
 33
0.0
  0
SOLID
  5
D95
330
D
100
AcDbEntity
 67
     1
  8
LOGO
 62
     5
100
AcDbTrace
 10
31.82167923997
 20
18.95046704048314
 30
0.0
 11
32.2201793149176
 21
18.95046704048314
 31
0.0
 12
31.82167923997
 22
17.75496681564308
 32
0.0
 13
32.2201793149176
 23
17.75496681564308
 33
0.0
  0
POLYLINE
  5
D96
330
D
100
AcDbEntity
 67
     1
  8
LOGO
 62
     5
100
AcDb2dPolyline
 66
     1
 10
0.0
 20
0.0
 30
0.0
 70
     1
 40
0.3991386968617867
 41
0.3991386968617867
  0
VERTEX
  5
D97
330
D96
100
AcDbEntity
 67
     1
  8
LOGO
 62
     5
100
AcDbVertex
100
AcDb2dVertex
 10
32.8831219960076
 20
18.75121700300999
 30
0.0
 42
1.0
  0
VERTEX
  5
D98
330
D96
100
AcDbEntity
 67
     1
  8
LOGO
 62
     5
100
AcDbVertex
100
AcDb2dVertex
 10
34.47967678345471
 20
18.75121700300999
 30
0.0
 42
1.0
  0
SEQEND
  5
D99
330
D96
100
AcDbEntity
 67
     1
  8
LOGO
 62
     5
  0
SOLID
  5
D9A
330
D
100
AcDbEntity
 67
     1
  8
LOGO
 62
     5
100
AcDbTrace
 10
34.2791096521446
 20
20.34521730279752
 30
0.0
 11
34.67760972709151
 21
20.34521730279752
 31
0.0
 12
34.2791096521446
 22
17.75496681564308
 32
0.0
 13
34.67760972709151
 23
17.75496681564308
 33
0.0
  0
SOLID
  5
D9B
330
D
100
AcDbEntity
 67
     1
  8
LOGO
 62
     5
100
AcDbTrace
 10
35.14253976453273
 20
19.74746719037715
 30
0.0
 11
35.54103983947895
 21
19.74746719037715
 31
0.0
 12
35.14253976453273
 22
17.75496681564308
 32
0.0
 13
35.54103983947895
 23
17.75496681564308
 33
0.0
  0
SOLID
  5
D9C
330
D
100
AcDbEntity
 67
     1
  8
LOGO
 62
     5
100
AcDbTrace
 10
36.33803998937202
 20
18.95046704048314
 30
0.0
 11
36.736540064319
 21
18.95046704048314
 31
0.0
 12
36.33803998937202
 22
17.75496681564308
 32
0.0
 13
36.736540064319
 23
17.75496681564308
 33
0.0
  0
SOLID
  5
D9D
330
D
100
AcDbEntity
 67
     1
  8
LOGO
 62
     5
100
AcDbTrace
 10
37.53354021421195
 20
18.95046704048314
 30
0.0
 11
37.93204028915949
 21
18.95046704048314
 31
0.0
 12
37.53354021421195
 22
17.75496681564265
 32
0.0
 13
37.93204028915949
 23
17.75496681564265
 33
0.0
  0
SOLID
  5
D9E
330
D
100
AcDbEntity
 67
     1
  8
LOGO
 62
     5
100
AcDbTrace
 10
29.76274890274151
 20
20.02641724283976
 30
0.0
 11
30.16124897769024
 21
20.02641724283976
 31
0.0
 12
29.76274890274151
 22
20.34521730279752
 32
0.0
 13
30.16124897769024
 23
20.34521730279752
 33
0.0
  0
SOLID
  5
D9F
330
D
100
AcDbEntity
 67
     1
  8
LOGO
 62
     5
100
AcDbTrace
 10
29.76274890274151
 20
19.74746719037715
 30
0.0
 11
30.16124897769024
 21
19.74746719037715
 31
0.0
 12
29.76274890274151
 22
17.75496681564265
 32
0.0
 13
30.16124897769024
 23
17.75496681564308
 33
0.0
  0
SOLID
  5
DA0
330
D
100
AcDbEntity
 67
     1
  8
LOGO
 62
     5
100
AcDbTrace
 10
33.68139938973113
 20
21.73996756511127
 30
0.0
 11
34.83704960707715
 21
21.73996756511127
 31
0.0
 12
33.68139938973113
 22
27.58463533099741
 32
0.0
 13
34.83704960707715
 23
31.82201946126516
 33
0.0
  0
SOLID
  5
DA1
330
D
100
AcDbEntity
 67
     1
  8
LOGO
 62
     5
100
AcDbTrace
 10
35.31524969701404
 20
32.69871962614767
 30
0.0
 11
36.4708999143597
 21
32.69871962614849
 31
0.0
 12
35.31524969701404
 22
22.61666772999351
 32
0.0
 13
36.4708999143597
 23
26.85405186026157
 33
0.0
  0
SOLID
  5
DA2
330
D
100
AcDbEntity
 67
     1
  8
LOGO
 62
     2
100
AcDbTrace
 10
34.83704960707715
 20
32.69871962614767
 30
0.0
 11
35.31524969701404
 21
32.69871962614767
 31
0.0
 12
34.83704960707715
 22
21.73996756511127
 32
0.0
 13
35.31524969701404
 23
21.73996756511127
 33
0.0
  0
SOLID
  5
DA3
330
D
100
AcDbEntity
 67
     1
  8
LOGO
 62
     5
100
AcDbTrace
 10
35.31524969701404
 20
22.61666772999351
 30
0.0
 11
36.4708999143597
 21
26.85405186026157
 31
0.0
 12
40.81455073127902
 22
32.69871962614849
 32
0.0
 13
39.65890051393375
 23
32.69871962614849
 33
0.0
  0
SOLID
  5
DA4
330
D
100
AcDbEntity
 67
     1
  8
LOGO
 62
     5
100
AcDbTrace
 10
35.31524969701404
 20
21.73996756511127
 30
0.0
 11
36.4708999143597
 21
21.73996756511127
 31
0.0
 12
40.81455073127902
 22
31.82201946126516
 32
0.0
 13
39.65890051393375
 23
27.58463533099741
 33
0.0
  0
SOLID
  5
DA5
330
D
100
AcDbEntity
 67
     1
  8
LOGO
 62
     2
100
AcDbTrace
 10
34.83704960707715
 20
21.73996756511127
 30
0.0
 11
35.31524969701404
 21
21.73996756511127
 31
0.0
 12
40.81455073127902
 22
32.69871962614849
 32
0.0
 13
41.29275082121547
 23
32.69871962614767
 33
0.0
  0
LWPOLYLINE
  5
DA6
330
D
100
AcDbEntity
 67
     1
  8
LOGO
 62
     4
100
AcDbPolyline
 90
        4
 70
     1
 43
0.0
 10
24.93082145515295
 20
33.3336343768813
 10
426.5228914981811
 20
33.33363437688125
 10
426.5228914981811
 20
6.605596640600801
 10
24.93082145515295
 20
6.605596640600833
1001
GENIUS_GENREC_14
1002
{
1000
PYDIR
1011
24.93082145515295
1021
6.605596640600833
1031
0.0
1002
}
1002
{
1000
PXDIR
1011
426.5228914981811
1021
33.33363437688125
1031
0.0
1002
}
1002
{
1000
PORI
1011
24.93082145515295
1021
33.3336343768813
1031
0.0
1002
}
1002
{
1000
PINS
1011
24.93082145515295
1021
33.3336343768813
1031
0.0
1002
}
1002
{
1000
PINS2
1011
426.5228914981811
1021
6.605596640600801
1031
0.0
1002
}
1002
{
1000
C
1070
     1
1002
}
1001
GENIUS_GENOBJ-N-REC_13
1002
{
1000
OWNER
1000
GEN
1002
}
1001
GENIUS_GENODEF_13
1002
{
1000
HIER
1070
     0
1002
}
1002
{
1000
MANEDIT
1070
     0
1002
}
1002
{
1000
NOSEL
1070
     0
1002
}
1002
{
1000
BEHIND
1070
     0
1002
}
1002
{
1000
OTHER
1070
     0
1002
}
1002
{
1000
REACTOR
1002
}
  0
TEXT
  5
DA7
330
D
100
AcDbEntity
 67
     1
  8
LOGO
100
AcDbText
 10
84.6144822580066
 20
8.027517698783761
 30
0.0
 40
2.673190841985246
  1
00909240
 41
0.7
  7
CHINESET
 72
     1
 11
91.47567208576873
 21
8.027517698783761
 31
0.0
100
AcDbText
  0
LINE
  5
DA8
330
D
100
AcDbEntity
 67
     1
  8
LOGO
 62
     4
100
AcDbLine
 10
99.77164952687907
 20
11.95120418785773
 30
0.0
 11
99.77164952688093
 21
6.605596640601227
 31
0.0
  0
LINE
  5
DA9
330
D
100
AcDbEntity
 67
     1
  8
LOGO
 62
     4
100
AcDbLine
 10
99.77164952687907
 20
11.95120418785773
 30
0.0
 11
83.73250447496937
 21
11.95120418785773
 31
0.0
  0
CIRCLE
  5
DAA
330
D
100
AcDbEntity
 67
     1
  8
LOGO
  6
Continuous
100
AcDbCircle
 10
70.86284314666613
 20
25.32094020282817
 30
0.0
 40
1.551892781677569
  0
CIRCLE
  5
DAB
330
D
100
AcDbEntity
 67
     1
  8
LOGO
  6
Continuous
100
AcDbCircle
 10
70.86284314666613
 20
25.32094020282817
 30
0.0
 40
0.9092717887679418
  0
LINE
  5
DAC
330
D
100
AcDbEntity
 67
     1
  8
LOGO
100
AcDbLine
 10
80.6151174607508
 20
23.76904742115046
 30
0.0
 11
80.6151174607508
 21
26.87283298450603
 31
0.0
  0
LINE
  5
DAD
330
D
100
AcDbEntity
 67
     1
  8
LOGO
100
AcDbLine
 10
75.75002267308746
 20
24.41166841406037
 30
0.0
 11
75.75002267308746
 21
26.23021199159644
 31
0.0
  0
LINE
  5
DAE
330
D
100
AcDbEntity
 67
     1
  8
LOGO
  6
Continuous
100
AcDbLine
 10
75.75002267308746
 20
26.23021199159644
 30
0.0
 11
80.6151174607508
 21
26.87283298450603
 31
0.0
  0
LINE
  5
DAF
330
D
100
AcDbEntity
 67
     1
  8
LOGO
  6
Continuous
100
AcDbLine
 10
75.75002267308746
 20
24.41166841406037
 30
0.0
 11
80.6151174607508
 21
23.76904742115046
 31
0.0
  0
LINE
  5
DB0
330
D
100
AcDbEntity
 67
     1
  8
LOGO
  6
AM_ISO08W050x2
 48
0.3
100
AcDbLine
 10
68.72353570935823
 20
25.32094020282817
 30
0.0
 11
73.00215058397234
 21
25.32094020282817
 31
0.0
1001
GENIUS_GENOREF_13
1005
DBB
  0
LINE
  5
DB1
330
D
100
AcDbEntity
 67
     1
  8
LOGO
  6
AM_ISO08W050x2
 48
0.3
100
AcDbLine
 10
70.86284314666613
 20
23.18163276552143
 30
0.0
 11
70.86284314666613
 21
27.46024764013544
 31
0.0
1001
GENIUS_GENOREF_13
1005
DBA
  0
LINE
  5
DB2
330
D
100
AcDbEntity
 67
     1
  8
LOGO
  6
CENTER
 48
0.5
100
AcDbLine
 10
75.36095031475166
 20
25.32094020282817
 30
0.0
 11
81.10501675674393
 21
25.32094020282817
 31
0.0
1001
GENIUS_GENOREF_13
1005
DB9
  0
POINT
  5
DB9
330
D
100
AcDbEntity
 67
     1
  8
0
 60
     1
100
AcDbPoint
 10
2113.309964340805
 20
-560.586859288516
 30
0.0
1001
GENIUS_GENOBJ-N-CRS_13
1002
{
1000
OWNER
1000
GEN
1002
}
1001
GENIUS_GENOLIS_13
1002
{
1000
ENT
1005
0
1005
0
1005
0
1005
DB2
1002
}
1001
GENIUS_GENOENT_13
1002
{
1000
MYREF
1005
DB9
1002
}
1002
{
1000
GRP
1005
0
1002
}
1001
GENIUS_GENODEF_13
1002
{
1000
HIER
1070
    10
1002
}
1002
{
1000
MANEDIT
1070
     1
1002
}
1002
{
1000
NOSEL
1070
     0
1002
}
1002
{
1000
BEHIND
1070
     0
1002
}
1002
{
1000
OTHER
1070
     0
1002
}
1002
{
1000
REACTOR
1002
}
  0
POINT
  5
DBA
330
D
100
AcDbEntity
 67
     1
  8
0
 60
     1
100
AcDbPoint
 10
2101.98537911795
 20
-551.7112728098798
 30
0.0
1001
GENIUS_GENOBJ-N-CRS_13
1002
{
1000
OWNER
1000
GEN
1002
}
1001
GENIUS_GENOLIS_13
1002
{
1000
ENT
1005
0
1005
0
1005
0
1005
DB1
1002
}
1001
GENIUS_GENOENT_13
1002
{
1000
MYREF
1005
DBA
1002
}
1002
{
1000
GRP
1005
0
1002
}
1001
GENIUS_GENODEF_13
1002
{
1000
HIER
1070
    10
1002
}
1002
{
1000
MANEDIT
1070
     1
1002
}
1002
{
1000
NOSEL
1070
     0
1002
}
1002
{
1000
BEHIND
1070
     0
1002
}
1002
{
1000
OTHER
1070
     0
1002
}
1002
{
1000
REACTOR
1002
}
  0
POINT
  5
DBB
330
D
100
AcDbEntity
 67
     1
  8
0
 60
     1
100
AcDbPoint
 10
2108.344052815787
 20
-560.586859288516
 30
0.0
1001
GENIUS_GENOBJ-N-CRS_13
1002
{
1000
OWNER
1000
GEN
1002
}
1001
GENIUS_GENOLIS_13
1002
{
1000
ENT
1005
0
1005
0
1005
0
1005
DB0
1002
}
1001
GENIUS_GENOENT_13
1002
{
1000
MYREF
1005
DBB
1002
}
1002
{
1000
GRP
1005
0
1002
}
1001
GENIUS_GENODEF_13
1002
{
1000
HIER
1070
    10
1002
}
1002
{
1000
MANEDIT
1070
     1
1002
}
1002
{
1000
NOSEL
1070
     0
1002
}
1002
{
1000
BEHIND
1070
     0
1002
}
1002
{
1000
OTHER
1070
     0
1002
}
1002
{
1000
REACTOR
1002
}
  0
LWPOLYLINE
  5
2552
330
D
100
AcDbEntity
 67
     1
  8
LOGO
 62
     4
100
AcDbPolyline
 90
        4
 70
     1
 43
0.0
 10
24.93082145515302
 20
303.0046258457341
 10
426.5228914981811
 20
303.0046258457341
 10
426.5228914981811
 20
33.33363437688125
 10
24.93082145515302
 20
33.33363437688125
  0
DIMENSION
  5
30F4
330
D
100
AcDbEntity
 67
     1
  8
AM_5
100
AcDbDimension
  2
*D1
 10
151.3708345796915
 20
184.7881923055971
 30
0.0
 11
151.3708345796915
 21
172.2881923055971
 31
0.0
 70
   160
  1
%%c<>
 71
     5
 42
25.0
  3
AM_ISO$0
100
AcDbAlignedDimension
 13
160.826959646804
 23
159.7881923055971
 33
0.0
 14
160.826959646804
 24
184.7881923055971
 34
0.0
 50
90.0
100
AcDbRotatedDimension
1001
ACAD
1000
DSTYLE
1002
{
1070
    40
1040
1.399999999999999
1002
}
  0
LINE
  5
3128
330
D
100
AcDbEntity
 67
     1
  8
AM_7
  6
AM_ISO08W050x2
100
AcDbLine
 10
160.826959646804
 20
184.7881923055971
 30
0.0
 11
157.1269596468041
 21
183.4415024388121
 31
0.0
  0
LINE
  5
3129
330
D
100
AcDbEntity
 67
     1
  8
AM_7
  6
AM_ISO08W050x2
100
AcDbLine
 10
160.826959646804
 20
159.7881923055971
 30
0.0
 11
157.1269596468041
 21
161.134882172382
 31
0.0
  0
LINE
  5
312A
330
D
100
AcDbEntity
 67
     1
  8
AM_7
  6
AM_ISO08W050x2
100
AcDbLine
 10
292.8620129299654
 20
159.788192305597
 30
0.0
 11
160.826959646804
 21
159.7881923055971
 31
0.0
  0
LINE
  5
312B
330
D
100
AcDbEntity
 67
     1
  8
AM_7
  6
AM_ISO08W050x2
100
AcDbLine
 10
292.8620129299654
 20
184.7881923055971
 30
0.0
 11
160.826959646804
 21
184.7881923055971
 31
0.0
  0
LINE
  5
312C
330
D
100
AcDbEntity
 67
     1
  8
AM_7
  6
AM_ISO08W050x2
100
AcDbLine
 10
157.1269596468041
 20
161.134882172382
 30
0.0
 11
157.1269596468041
 21
183.4415024388121
 31
0.0
  0
LINE
  5
312D
330
D
100
AcDbEntity
 67
     1
  8
AM_7
  6
AM_ISO08W050x2
100
AcDbLine
 10
160.826959646804
 20
184.7881923055971
 30
0.0
 11
160.826959646804
 21
159.7881923055971
 31
0.0
  0
LINE
  5
3788
330
D
100
AcDbEntity
 67
     1
  8
圖層1
100
AcDbLine
 10
286.7763304148292
 20
195.038192305597
 30
0.0
 11
252.2763304148291
 21
195.038192305597
 31
0.0
  0
LINE
  5
3789
330
D
100
AcDbEntity
 67
     1
  8
圖層1
100
AcDbLine
 10
286.7763304148292
 20
149.538192305597
 30
0.0
 11
252.2763304148291
 21
149.538192305597
 31
0.0
  0
LINE
  5
378A
330
D
100
AcDbEntity
 67
     1
  8
圖層1
100
AcDbLine
 10
249.7763304148291
 20
192.538192305597
 30
0.0
 11
249.7763304148291
 21
152.038192305597
 31
0.0
  0
ARC
  5
378C
330
D
100
AcDbEntity
 67
     1
  8
圖層1
100
AcDbCircle
 10
252.2763304148291
 20
192.538192305597
 30
0.0
 40
2.5
100
AcDbArc
 50
90.0
 51
180.0
  0
ARC
  5
378D
330
D
100
AcDbEntity
 67
     1
  8
圖層1
100
AcDbCircle
 10
252.2763304148291
 20
152.038192305597
 30
0.0
 40
2.5
100
AcDbArc
 50
180.0
 51
270.0
  0
DIMENSION
  5
37A5
330
D
100
AcDbEntity
 67
     1
  8
AM_5
100
AcDbDimension
  2
*D2
 10
307.1135476011797
 20
195.038192305597
 30
0.0
 11
307.1135476011796
 21
172.288192305597
 31
0.0
 70
   160
  1
%%c<>
 71
     5
 42
45.49999999999999
  3
AM_ISO$0
100
AcDbAlignedDimension
 13
286.7763304148292
 23
149.538192305597
 33
0.0
 14
286.7763304148292
 24
195.038192305597
 34
0.0
 50
90.0
100
AcDbRotatedDimension
1001
ACAD
1000
DSTYLE
1002
{
1070
    40
1040
1.399999999999999
1002
}
  0
DIMENSION
  5
37C4
330
D
100
AcDbEntity
 67
     1
  8
AM_5
100
AcDbDimension
  2
*D3
 10
249.7763304148291
 20
235.618325642733
 30
0.0
 11
268.2763304148291
 21
235.618325642733
 31
0.0
 70
   160
 71
     5
 42
37.0
  3
AM_ISO$0
100
AcDbAlignedDimension
 13
286.7763304148292
 23
209.788192305597
 33
0.0
 14
249.7763304148291
 24
192.538192305597
 34
0.0
100
AcDbRotatedDimension
1001
ACAD
1000
DSTYLE
1002
{
1070
    40
1040
1.1
1070
   174
1070
     1
1002
}
  0
LINE
  5
3884
330
D
100
AcDbEntity
 67
     1
  8
AM_7
  6
AM_ISO08W050x2
100
AcDbLine
 10
57.61612239172774
 20
136.288192305597
 30
0.0
 11
44.91784576070091
 21
136.288192305597
 31
0.0
1001
GENIUS_GENOREF_13
1005
3886
  0
LINE
  5
3885
330
D
100
AcDbEntity
 67
     1
  8
AM_7
  6
AM_ISO08W050x2
100
AcDbLine
 10
50.93761272410251
 20
142.5688124565965
 30
0.0
 11
50.93761272410251
 21
130.5195562387879
 31
0.0
1001
GENIUS_GENOREF_13
1005
3886
  0
POINT
  5
3886
330
D
100
AcDbEntity
 67
     1
  8
0
 60
     1
100
AcDbPoint
 10
-257.012152699141
 20
56.5
 30
0.0
1001
GENIUS_GENOLIS_13
1002
{
1000
ENT
1005
3885
1005
3884
1005
3519
1005
3518
1002
}
1001
GENIUS_GENOENT_13
1002
{
1000
MYREF
1005
3886
1002
}
1002
{
1000
GRP
1005
0
1002
}
1001
GENIUS_GENOBJ-N-CRS_13
1002
{
1000
OWNER
1000
GEN
1002
}
1001
GENIUS_GENODEF_13
1002
{
1000
HIER
1070
    10
1002
}
1002
{
1000
MANEDIT
1070
     1
1002
}
1002
{
1000
NOSEL
1070
     0
1002
}
1002
{
1000
BEHIND
1070
     0
1002
}
1002
{
1000
OTHER
1070
     0
1002
}
1002
{
1000
REACTOR
1002
}
  0
LINE
  5
3ABB
330
D
100
AcDbEntity
 67
     1
  8
AM_7
  6
AM_ISO08W050x2
100
AcDbLine
 10
292.8620129299654
 20
184.7881923055971
 30
0.0
 11
292.8620129299654
 21
159.7881923055971
 31
0.0
  0
LEADER
  5
3ACF
330
D
100
AcDbEntity
 67
     1
  8
AM_5
100
AcDbLeader
  3
AM_ISO$7
 73
     0
 74
     0
 75
     1
 40
5.25
 41
19.06634645669292
 76
     3
 10
289.5650522805165
 20
184.7881923055971
 30
0.0
 10
301.7878531498638
 20
234.6279336964196
 30
0.0
 10
305.6378531498639
 20
234.6279336964196
 30
0.0
340
3AD0
213
3.077444538073109
223
1.608431681897855
233
0.0
1001
ACAD
1000
DSTYLE
1002
{
1070
    40
1040
1.1
1070
   371
1070
     0
1070
    41
1040
3.5
1070
    74
1070
     1
1070
   147
1040
1.0
1070
   172
1070
     0
1070
   288
1070
     1
1070
   289
1070
     0
1002
}
  0
MTEXT
  5
3AD0
102
{ACAD_REACTORS
330
3ACF
102
}
330
D
100
AcDbEntity
 67
     1
  8
AM_5
100
AcDbMText
 10
303.6604086117908
 20
234.1195020145217
 30
0.0
 40
4.2
 41
0.0
 71
     7
 72
     1
  1
Support
 73
     1
 44
1.0
1001
ACAD
1000
MTEXTBEGIN
1070
    73
1070
     1
1070
    44
1040
1.0
1070
    74
1070
     0
1000
MTEXTEND
  0
LINE
  5
3C91
330
D
100
AcDbEntity
 67
     1
  8
AM_VIS
100
AcDbLine
 10
286.7763304148292
 20
126.788192305597
 30
0.0
 11
286.7763304148292
 21
217.7881923055971
 31
0.0
  0
LINE
  5
3C92
330
D
100
AcDbEntity
 67
     1
  8
AM_VIS
100
AcDbLine
 10
254.7763304148292
 20
126.788192305597
 30
0.0
 11
176.7763304148291
 21
126.788192305597
 31
0.0
  0
LINE
  5
3C93
330
D
100
AcDbEntity
 67
     1
  8
AM_VIS
100
AcDbLine
 10
254.7763304148292
 20
124.7881923055971
 30
0.0
 11
254.7763304148292
 21
126.7881923055971
 31
0.0
  0
LINE
  5
3C94
330
D
100
AcDbEntity
 67
     1
  8
AM_VIS
100
AcDbLine
 10
254.7763304148292
 20
126.788192305597
 30
0.0
 11
254.7763304148292
 21
217.7881923055971
 31
0.0
  0
LINE
  5
3C95
330
D
100
AcDbEntity
 67
     1
  8
AM_VIS
100
AcDbLine
 10
254.7763304148292
 20
217.7881923055971
 30
0.0
 11
254.7763304148292
 21
219.7881923055971
 31
0.0
  0
LINE
  5
3C96
330
D
100
AcDbEntity
 67
     1
  8
AM_VIS
100
AcDbLine
 10
176.7763304148291
 20
217.7881923055971
 30
0.0
 11
254.7763304148292
 21
217.7881923055971
 31
0.0
  0
LINE
  5
3C97
330
D
100
AcDbEntity
 67
     1
  8
AM_VIS
100
AcDbLine
 10
286.7763304148292
 20
219.7881923055971
 30
0.0
 11
274.7763304148292
 21
219.7881923055971
 31
0.0
  0
LINE
  5
3C98
330
D
100
AcDbEntity
 67
     1
  8
AM_VIS
100
AcDbLine
 10
286.7763304148292
 20
217.7881923055971
 30
0.0
 11
286.7763304148292
 21
219.7881923055971
 31
0.0
  0
LINE
  5
3C99
330
D
100
AcDbEntity
 67
     1
  8
AM_VIS
100
AcDbLine
 10
274.7763304148291
 20
217.7881923055971
 30
0.0
 11
286.7763304148292
 21
217.7881923055971
 31
0.0
  0
LINE
  5
3C9A
330
D
100
AcDbEntity
 67
     1
  8
AM_VIS
100
AcDbLine
 10
286.7763304148292
 20
126.788192305597
 30
0.0
 11
274.7763304148292
 21
126.788192305597
 31
0.0
  0
LINE
  5
3C9B
330
D
100
AcDbEntity
 67
     1
  8
AM_VIS
100
AcDbLine
 10
286.7763304148292
 20
124.788192305597
 30
0.0
 11
286.7763304148292
 21
126.788192305597
 31
0.0
  0
LINE
  5
3C9C
330
D
100
AcDbEntity
 67
     1
  8
AM_VIS
100
AcDbLine
 10
274.7763304148291
 20
124.7881923055971
 30
0.0
 11
286.7763304148292
 21
124.7881923055971
 31
0.0
  0
LINE
  5
3C9D
330
D
100
AcDbEntity
 67
     1
  8
AM_VIS
100
AcDbLine
 10
274.7763304148291
 20
219.7881923055971
 30
0.0
 11
274.7763304148291
 21
217.788192305597
 31
0.0
  0
LINE
  5
3C9E
330
D
100
AcDbEntity
 67
     1
  8
AM_VIS
100
AcDbLine
 10
274.7763304148291
 20
217.7881923055971
 30
0.0
 11
274.7763304148291
 21
126.788192305597
 31
0.0
  0
LINE
  5
3C9F
330
D
100
AcDbEntity
 67
     1
  8
AM_VIS
100
AcDbLine
 10
274.7763304148291
 20
126.788192305597
 30
0.0
 11
274.7763304148291
 21
124.7881923055971
 31
0.0
  0
LINE
  5
3CA0
330
D
100
AcDbEntity
 67
     1
  8
AM_VIS
100
AcDbLine
 10
176.7763304148291
 20
219.7881923055971
 30
0.0
 11
176.7763304148291
 21
217.788192305597
 31
0.0
  0
LINE
  5
3CA1
330
D
100
AcDbEntity
 67
     1
  8
AM_VIS
100
AcDbLine
 10
176.7763304148291
 20
217.7881923055971
 30
0.0
 11
176.7763304148291
 21
126.788192305597
 31
0.0
  0
LINE
  5
3CA2
330
D
100
AcDbEntity
 67
     1
  8
AM_VIS
100
AcDbLine
 10
176.7763304148291
 20
126.788192305597
 30
0.0
 11
176.7763304148291
 21
124.788192305597
 31
0.0
  0
LINE
  5
3CA3
330
D
100
AcDbEntity
 67
     1
  8
AM_VIS
100
AcDbLine
 10
176.7763304148291
 20
124.788192305597
 30
0.0
 11
254.7763304148292
 21
124.788192305597
 31
0.0
  0
LINE
  5
3CA4
330
D
100
AcDbEntity
 67
     1
  8
AM_VIS
100
AcDbLine
 10
254.7763304148292
 20
219.7881923055971
 30
0.0
 11
176.7763304148291
 21
219.7881923055971
 31
0.0
  0
LINE
  5
3CA5
330
D
100
AcDbEntity
 67
     1
  8
AM_VIS
100
AcDbLine
 10
274.7763304148291
 20
210.2881923055971
 30
0.0
 11
254.7763304148292
 21
210.2881923055971
 31
0.0
  0
LINE
  5
3CA6
330
D
100
AcDbEntity
 67
     1
  8
AM_VIS
100
AcDbLine
 10
274.7763304148291
 20
134.288192305597
 30
0.0
 11
254.7763304148292
 21
134.288192305597
 31
0.0
  0
LINE
  5
3CA7
330
D
100
AcDbEntity
 67
     1
  8
AM_VIS
100
AcDbLine
 10
176.7763304148291
 20
194.788192305597
 30
0.0
 11
166.7763304148291
 21
194.788192305597
 31
0.0
  0
LINE
  5
3CA8
330
D
100
AcDbEntity
 67
     1
  8
AM_VIS
100
AcDbLine
 10
176.7763304148291
 20
149.788192305597
 30
0.0
 11
166.7763304148291
 21
149.788192305597
 31
0.0
  0
CIRCLE
  5
3CA9
330
D
100
AcDbEntity
 67
     1
  8
AM_VIS
100
AcDbCircle
 10
245.7763304148291
 20
202.288192305597
 30
0.0
 40
5.722499999999995
  0
LINE
  5
3CAA
330
D
100
AcDbEntity
 67
     1
  8
AM_VIS
100
AcDbLine
 10
166.7763304148291
 20
194.788192305597
 30
0.0
 11
166.7763304148291
 21
149.788192305597
 31
0.0
  0
CIRCLE
  5
3CAB
330
D
100
AcDbEntity
 67
     1
  8
AM_VIS
100
AcDbCircle
 10
220.7763304148291
 20
172.2881923055971
 30
0.0
 40
29.5
  0
ARC
  5
3CAC
330
D
100
AcDbEntity
 67
     1
  8
AM_VIS
100
AcDbCircle
 10
245.7763304148291
 20
202.288192305597
 30
0.0
 40
6.322500000000004
100
AcDbArc
 50
253.1506836506435
 51
197.409375204372
  0
LINE
  5
3CAD
330
D
100
AcDbEntity
 67
     1
  8
AM_VIS
100
AcDbLine
 10
164.2763304148294
 20
158.7881923055968
 30
0.0
 11
166.7763304148291
 21
157.4971895608527
 31
0.0
  0
LINE
  5
3CAE
330
D
100
AcDbEntity
 67
     1
  8
AM_VIS
100
AcDbLine
 10
164.2763304148294
 20
185.7881923055973
 30
0.0
 11
166.7763304148291
 21
187.0791950503415
 31
0.0
  0
LINE
  5
3CAF
330
D
100
AcDbEntity
 67
     1
  8
AM_VIS
100
AcDbLine
 10
164.2763304148294
 20
158.7881923055968
 30
0.0
 11
164.2763304148294
 21
185.7881923055973
 31
0.0
  0
CIRCLE
  5
3CB0
330
D
100
AcDbEntity
 67
     1
  8
AM_VIS
100
AcDbCircle
 10
220.7763304148293
 20
172.2881923055971
 30
0.0
 40
29.3
  0
CIRCLE
  5
3CB1
330
D
100
AcDbEntity
 67
     1
  8
AM_VIS
100
AcDbCircle
 10
196.2763304148293
 20
172.2881923055971
 30
0.0
 40
4.25
  0
CIRCLE
  5
3CB2
330
D
100
AcDbEntity
 67
     1
  8
AM_VIS
100
AcDbCircle
 10
245.2763304148293
 20
172.2881923055971
 30
0.0
 40
4.250000000000003
  0
LINE
  5
3CB3
330
D
100
AcDbEntity
 67
     1
  8
AM_VIS
100
AcDbLine
 10
244.5546425783423
 20
171.038192305597
 30
0.0
 11
243.8329547418553
 21
172.288192305597
 31
0.0
  0
LINE
  5
3CB4
330
D
100
AcDbEntity
 67
     1
  8
AM_VIS
100
AcDbLine
 10
243.8329547418553
 20
172.288192305597
 30
0.0
 11
244.5546425783423
 21
173.538192305597
 31
0.0
  0
LINE
  5
3CB5
330
D
100
AcDbEntity
 67
     1
  8
AM_VIS
100
AcDbLine
 10
245.9980182513163
 20
171.0381923055971
 30
0.0
 11
244.5546425783423
 21
171.038192305597
 31
0.0
  0
LINE
  5
3CB6
330
D
100
AcDbEntity
 67
     1
  8
AM_VIS
100
AcDbLine
 10
246.7197060878034
 20
172.2881923055971
 30
0.0
 11
245.9980182513163
 21
171.0381923055971
 31
0.0
  0
LINE
  5
3CB7
330
D
100
AcDbEntity
 67
     1
  8
AM_VIS
100
AcDbLine
 10
245.9980182513163
 20
173.5381923055971
 30
0.0
 11
246.7197060878034
 21
172.2881923055971
 31
0.0
  0
LINE
  5
3CB8
330
D
100
AcDbEntity
 67
     1
  8
AM_VIS
100
AcDbLine
 10
244.5546425783423
 20
173.538192305597
 30
0.0
 11
245.9980182513163
 21
173.5381923055971
 31
0.0
  0
CIRCLE
  5
3CB9
330
D
100
AcDbEntity
 67
     1
  8
AM_VIS
100
AcDbCircle
 10
245.2763304148293
 20
172.2881923055971
 30
0.0
 40
3.820000000000009
  0
LINE
  5
3CBA
330
D
100
AcDbEntity
 67
     1
  8
AM_VIS
100
AcDbLine
 10
196.9980182513163
 20
173.5381923055971
 30
0.0
 11
197.7197060878033
 21
172.2881923055971
 31
0.0
  0
LINE
  5
3CBB
330
D
100
AcDbEntity
 67
     1
  8
AM_VIS
100
AcDbLine
 10
197.7197060878033
 20
172.2881923055971
 30
0.0
 11
196.9980182513163
 21
171.0381923055971
 31
0.0
  0
LINE
  5
3CBC
330
D
100
AcDbEntity
 67
     1
  8
AM_VIS
100
AcDbLine
 10
195.5546425783423
 20
173.5381923055971
 30
0.0
 11
196.9980182513163
 21
173.5381923055971
 31
0.0
  0
LINE
  5
3CBD
330
D
100
AcDbEntity
 67
     1
  8
AM_VIS
100
AcDbLine
 10
194.8329547418552
 20
172.288192305597
 30
0.0
 11
195.5546425783423
 21
173.5381923055971
 31
0.0
  0
LINE
  5
3CBE
330
D
100
AcDbEntity
 67
     1
  8
AM_VIS
100
AcDbLine
 10
195.5546425783423
 20
171.0381923055971
 30
0.0
 11
194.8329547418552
 21
172.288192305597
 31
0.0
  0
LINE
  5
3CBF
330
D
100
AcDbEntity
 67
     1
  8
AM_VIS
100
AcDbLine
 10
196.9980182513163
 20
171.0381923055971
 30
0.0
 11
195.5546425783423
 21
171.0381923055971
 31
0.0
  0
CIRCLE
  5
3CC0
330
D
100
AcDbEntity
 67
     1
  8
AM_VIS
100
AcDbCircle
 10
196.2763304148293
 20
172.2881923055971
 30
0.0
 40
3.820000000000009
  0
LINE
  5
3CC1
330
D
100
AcDbEntity
 67
     1
  8
AM_VIS
100
AcDbLine
 10
132.4376127241025
 20
219.7881923055971
 30
0.0
 11
134.4376127241025
 21
217.788192305597
 31
0.0
  0
LINE
  5
3CC2
330
D
100
AcDbEntity
 67
     1
  8
AM_VIS
100
AcDbLine
 10
134.4376127241025
 20
217.7881923055971
 30
0.0
 11
134.4376127241025
 21
126.788192305597
 31
0.0
  0
LINE
  5
3CC3
330
D
100
AcDbEntity
 67
     1
  8
AM_VIS
100
AcDbLine
 10
134.4376127241025
 20
126.788192305597
 30
0.0
 11
132.4376127241025
 21
124.788192305597
 31
0.0
  0
LINE
  5
3CC4
330
D
100
AcDbEntity
 67
     1
  8
AM_VIS
100
AcDbLine
 10
41.43761272410251
 20
124.788192305597
 30
0.0
 11
39.43761272410251
 21
126.7881923055971
 31
0.0
  0
LINE
  5
3CC5
330
D
100
AcDbEntity
 67
     1
  8
AM_VIS
100
AcDbLine
 10
39.43761272410256
 20
126.7881923055971
 30
0.0
 11
39.43761272410256
 21
217.7881923055971
 31
0.0
  0
LINE
  5
3CC6
330
D
100
AcDbEntity
 67
     1
  8
AM_VIS
100
AcDbLine
 10
39.43761272410256
 20
217.7881923055971
 30
0.0
 11
41.43761272410251
 21
219.788192305597
 31
0.0
  0
LINE
  5
3CC7
330
D
100
AcDbEntity
 67
     1
  8
AM_VIS
100
AcDbLine
 10
132.4376127241025
 20
124.788192305597
 30
0.0
 11
41.43761272410251
 21
124.788192305597
 31
0.0
  0
LINE
  5
3CC8
330
D
100
AcDbEntity
 67
     1
  8
AM_VIS
100
AcDbLine
 10
41.43761272410251
 20
219.7881923055971
 30
0.0
 11
132.4376127241025
 21
219.7881923055971
 31
0.0
  0
CIRCLE
  5
3CCB
330
D
100
AcDbEntity
 67
     1
  8
AM_VIS
100
AcDbCircle
 10
122.9376127241025
 20
208.288192305597
 30
0.0
 40
4.188000000000002
  0
CIRCLE
  5
3CCC
330
D
100
AcDbEntity
 67
     1
  8
AM_VIS
100
AcDbCircle
 10
122.9376127241025
 20
136.288192305597
 30
0.0
 40
4.187999999999998
  0
CIRCLE
  5
3CCD
330
D
100
AcDbEntity
 67
     1
  8
AM_VIS
100
AcDbCircle
 10
50.93761272410251
 20
208.2881923055971
 30
0.0
 40
4.188000000000002
  0
CIRCLE
  5
3CCE
330
D
100
AcDbEntity
 67
     1
  8
AM_VIS
100
AcDbCircle
 10
50.93761272410251
 20
136.288192305597
 30
0.0
 40
4.187999999999998
  0
CIRCLE
  5
3CCF
330
D
100
AcDbEntity
 67
     1
  8
AM_VIS
100
AcDbCircle
 10
86.93761272410256
 20
172.2881923055971
 30
0.0
 40
12.49999999999992
  0
LINE
  5
3CD9
330
D
100
AcDbEntity
 67
     1
  8
AM_VIS
100
AcDbLine
 10
414.0898188296038
 20
217.7881923055971
 30
0.0
 11
414.0898188296038
 21
126.788192305597
 31
0.0
  0
LINE
  5
3CDA
330
D
100
AcDbEntity
 67
     1
  8
AM_VIS
100
AcDbLine
 10
319.0898188296038
 20
126.788192305597
 30
0.0
 11
319.0898188296038
 21
217.7881923055971
 31
0.0
  0
LINE
  5
3CDB
330
D
100
AcDbEntity
 67
     1
  8
AM_VIS
100
AcDbLine
 10
412.0898188296037
 20
219.7881923055971
 30
0.0
 11
414.0898188296038
 21
217.7881923055971
 31
0.0
  0
LINE
  5
3CDC
330
D
100
AcDbEntity
 67
     1
  8
AM_VIS
100
AcDbLine
 10
321.0898188296038
 20
219.7881923055971
 30
0.0
 11
412.0898188296037
 21
219.7881923055971
 31
0.0
  0
LINE
  5
3CDD
330
D
100
AcDbEntity
 67
     1
  8
AM_VIS
100
AcDbLine
 10
319.0898188296038
 20
217.7881923055971
 30
0.0
 11
321.0898188296038
 21
219.7881923055971
 31
0.0
  0
LINE
  5
3CDE
330
D
100
AcDbEntity
 67
     1
  8
AM_VIS
100
AcDbLine
 10
321.0898188296038
 20
124.788192305597
 30
0.0
 11
319.0898188296038
 21
126.788192305597
 31
0.0
  0
LINE
  5
3CDF
330
D
100
AcDbEntity
 67
     1
  8
AM_VIS
100
AcDbLine
 10
412.0898188296037
 20
124.788192305597
 30
0.0
 11
321.0898188296038
 21
124.788192305597
 31
0.0
  0
LINE
  5
3CE0
330
D
100
AcDbEntity
 67
     1
  8
AM_VIS
100
AcDbLine
 10
414.0898188296038
 20
126.788192305597
 30
0.0
 11
412.0898188296037
 21
124.7881923055971
 31
0.0
  0
CIRCLE
  5
3CE1
330
D
100
AcDbEntity
 67
     1
  8
AM_VIS
100
AcDbCircle
 10
402.5898188296038
 20
136.2881923055971
 30
0.0
 40
5.5
  0
CIRCLE
  5
3CE3
330
D
100
AcDbEntity
 67
     1
  8
AM_VIS
100
AcDbCircle
 10
366.5898188296038
 20
172.2881923055971
 30
0.0
 40
22.75
  0
CIRCLE
  5
3CE5
330
D
100
AcDbEntity
 67
     1
  8
AM_VIS
100
AcDbCircle
 10
330.5898188296038
 20
136.2881923055971
 30
0.0
 40
5.5
  0
CIRCLE
  5
3CE6
330
D
100
AcDbEntity
 67
     1
  8
AM_VIS
100
AcDbCircle
 10
402.5898188296038
 20
208.2881923055971
 30
0.0
 40
5.5
  0
CIRCLE
  5
3CE7
330
D
100
AcDbEntity
 67
     1
  8
AM_VIS
100
AcDbCircle
 10
330.5898188296038
 20
208.2881923055971
 30
0.0
 40
5.5
  0
CIRCLE
  5
3CE8
330
D
100
AcDbEntity
 67
     1
  8
AM_VIS
100
AcDbCircle
 10
366.5898188296038
 20
172.2881923055971
 30
0.0
 40
12.49999999999992
  0
LINE
  5
3D6F
330
D
100
AcDbEntity
 67
     1
  8
AM_7
  6
AM_ISO08W050x2
100
AcDbLine
 10
129.6161223917278
 20
136.288192305597
 30
0.0
 11
116.9178457607009
 21
136.288192305597
 31
0.0
1001
GENIUS_GENOREF_13
1005
3D71
  0
LINE
  5
3D70
330
D
100
AcDbEntity
 67
     1
  8
AM_7
  6
AM_ISO08W050x2
100
AcDbLine
 10
122.9376127241025
 20
142.5688124565965
 30
0.0
 11
122.9376127241025
 21
130.5195562387879
 31
0.0
1001
GENIUS_GENOREF_13
1005
3D71
  0
POINT
  5
3D71
330
D
100
AcDbEntity
 67
     1
  8
0
 60
     1
100
AcDbPoint
 10
-185.0121526991409
 20
56.5
 30
0.0
1001
GENIUS_GENOLIS_13
1002
{
1000
ENT
1005
3D70
1005
3D6F
1005
0
1005
0
1002
}
1001
GENIUS_GENOENT_13
1002
{
1000
MYREF
1005
3D71
1002
}
1002
{
1000
GRP
1005
0
1002
}
1001
GENIUS_GENOBJ-N-CRS_13
1002
{
1000
OWNER
1000
GEN
1002
}
1001
GENIUS_GENODEF_13
1002
{
1000
HIER
1070
    10
1002
}
1002
{
1000
MANEDIT
1070
     1
1002
}
1002
{
1000
NOSEL
1070
     0
1002
}
1002
{
1000
BEHIND
1070
     0
1002
}
1002
{
1000
OTHER
1070
     0
1002
}
1002
{
1000
REACTOR
1002
}
  0
LINE
  5
3D72
330
D
100
AcDbEntity
 67
     1
  8
AM_7
  6
AM_ISO08W050x2
100
AcDbLine
 10
129.6161223917278
 20
208.288192305597
 30
0.0
 11
116.9178457607009
 21
208.288192305597
 31
0.0
1001
GENIUS_GENOREF_13
1005
3D74
  0
LINE
  5
3D73
330
D
100
AcDbEntity
 67
     1
  8
AM_7
  6
AM_ISO08W050x2
100
AcDbLine
 10
122.9376127241025
 20
214.5688124565966
 30
0.0
 11
122.9376127241025
 21
202.5195562387879
 31
0.0
1001
GENIUS_GENOREF_13
1005
3D74
  0
POINT
  5
3D74
330
D
100
AcDbEntity
 67
     1
  8
0
 60
     1
100
AcDbPoint
 10
-185.0121526991409
 20
128.5
 30
0.0
1001
GENIUS_GENOLIS_13
1002
{
1000
ENT
1005
3D73
1005
3D72
1005
0
1005
0
1002
}
1001
GENIUS_GENOENT_13
1002
{
1000
MYREF
1005
3D74
1002
}
1002
{
1000
GRP
1005
0
1002
}
1001
GENIUS_GENOBJ-N-CRS_13
1002
{
1000
OWNER
1000
GEN
1002
}
1001
GENIUS_GENODEF_13
1002
{
1000
HIER
1070
    10
1002
}
1002
{
1000
MANEDIT
1070
     1
1002
}
1002
{
1000
NOSEL
1070
     0
1002
}
1002
{
1000
BEHIND
1070
     0
1002
}
1002
{
1000
OTHER
1070
     0
1002
}
1002
{
1000
REACTOR
1002
}
  0
LINE
  5
3D75
330
D
100
AcDbEntity
 67
     1
  8
AM_7
  6
AM_ISO08W050x2
100
AcDbLine
 10
57.61612239172774
 20
208.2881923055971
 30
0.0
 11
44.91784576070091
 21
208.2881923055971
 31
0.0
1001
GENIUS_GENOREF_13
1005
3D77
  0
LINE
  5
3D76
330
D
100
AcDbEntity
 67
     1
  8
AM_7
  6
AM_ISO08W050x2
100
AcDbLine
 10
50.93761272410251
 20
214.5688124565967
 30
0.0
 11
50.93761272410251
 21
202.519556238788
 31
0.0
1001
GENIUS_GENOREF_13
1005
3D77
  0
POINT
  5
3D77
330
D
100
AcDbEntity
 67
     1
  8
0
 60
     1
100
AcDbPoint
 10
-257.012152699141
 20
128.5000000000001
 30
0.0
1001
GENIUS_GENOLIS_13
1002
{
1000
ENT
1005
3D76
1005
3D75
1005
0
1005
0
1002
}
1001
GENIUS_GENOENT_13
1002
{
1000
MYREF
1005
3D77
1002
}
1002
{
1000
GRP
1005
0
1002
}
1001
GENIUS_GENOBJ-N-CRS_13
1002
{
1000
OWNER
1000
GEN
1002
}
1001
GENIUS_GENODEF_13
1002
{
1000
HIER
1070
    10
1002
}
1002
{
1000
MANEDIT
1070
     1
1002
}
1002
{
1000
NOSEL
1070
     0
1002
}
1002
{
1000
BEHIND
1070
     0
1002
}
1002
{
1000
OTHER
1070
     0
1002
}
1002
{
1000
REACTOR
1002
}
  0
ARC
  5
3D87
330
D
100
AcDbEntity
 67
     1
  8
0
100
AcDbCircle
 10
50.93761272410251
 20
208.2881923055971
 30
0.0
 40
4.616164977569667
100
AcDbArc
 50
252.6972430772671
 51
188.6871709135324
  0
ARC
  5
3D88
330
D
100
AcDbEntity
 67
     1
  8
0
100
AcDbCircle
 10
122.9376127241025
 20
208.288192305597
 30
0.0
 40
4.616164977569667
100
AcDbArc
 50
252.6972430772671
 51
188.6871709135324
  0
ARC
  5
3D89
330
D
100
AcDbEntity
 67
     1
  8
0
100
AcDbCircle
 10
122.9376127241025
 20
136.288192305597
 30
0.0
 40
4.616164977569667
100
AcDbArc
 50
252.6972430772671
 51
188.6871709135324
  0
ARC
  5
3D8A
330
D
100
AcDbEntity
 67
     1
  8
0
100
AcDbCircle
 10
50.93761272410251
 20
136.288192305597
 30
0.0
 40
4.616164977569667
100
AcDbArc
 50
252.6972430772671
 51
188.6871709135324
  0
DIMENSION
  5
3D8B
330
D
100
AcDbEntity
 67
     1
  8
AM_5
100
AcDbDimension
  2
*D4
 10
50.93761272410249
 20
208.2881923055973
 30
0.0
 11
71.01072133710565
 21
226.172125150575
 31
0.0
 70
   164
  1
4-M10*16L
 71
     5
 42
4.616164977569667
  3
AM_ISO$4
100
AcDbRadialDimension
 15
52.74618660372858
 25
212.5353136391684
 35
0.0
 40
0.0
1001
ACAD
1000
DSTYLE
1002
{
1070
    40
1040
1.1
1002
}
  0
DIMENSION
  5
3EB4
330
D
100
AcDbEntity
 67
     1
  8
AM_5
100
AcDbDimension
  2
*D5
 10
122.9376127241025
 20
111.588192305597
 30
0.0
 11
86.93761272410254
 21
115.4386745890616
 31
0.0
 70
    32
  1
{\Famgdt;o}<>
 71
     5
 42
72.00000000000006
  3
AM_ISO$0
100
AcDbAlignedDimension
 13
50.93761272410251
 23
130.5195562387879
 33
0.0
 14
122.9376127241025
 24
130.5195562387879
 34
0.0
 50
0.0000000000001132
100
AcDbRotatedDimension
1001
ACAD
1000
DSTYLE
1002
{
1070
    40
1040
1.399999999999999
1002
}
  0
DIMENSION
  5
3ECA
330
D
100
AcDbEntity
 67
     1
  8
AM_5
100
AcDbDimension
  2
*D6
 10
134.4376127241025
 20
95.08819230559701
 30
0.0
 11
86.93761272410256
 21
98.93819230559701
 31
0.0
 70
    32
  1
{\Famgdt;o}<>
 71
     5
 42
95.0
  3
AM_ISO$0
100
AcDbAlignedDimension
 13
39.43761272410256
 23
126.7881923055971
 33
0.0
 14
134.4376127241025
 24
126.788192305597
 34
0.0
 50
0.0000000000001132
100
AcDbRotatedDimension
1001
ACAD
1000
DSTYLE
1002
{
1070
    40
1040
1.399999999999999
1002
}
  0
LINE
  5
3EFE
330
D
100
AcDbEntity
 67
     1
  8
AM_7
  6
AM_ISO08W050x2
100
AcDbLine
 10
338.5730318123652
 20
136.2881923055971
 30
0.0
 11
322.7462425513785
 21
136.2881923055971
 31
0.0
1001
GENIUS_GENOREF_13
1005
3F00
  0
LINE
  5
3EFF
330
D
100
AcDbEntity
 67
     1
  8
AM_7
  6
AM_ISO08W050x2
100
AcDbLine
 10
330.5898188296038
 20
143.9685471872456
 30
0.0
 11
330.5898188296038
 21
128.825412045775
 31
0.0
1001
GENIUS_GENOREF_13
1005
3F00
  0
POINT
  5
3F00
330
D
100
AcDbEntity
 67
     1
  8
0
 60
     1
100
AcDbPoint
 10
22.64005340636032
 20
56.50000000000005
 30
0.0
1001
GENIUS_GENOLIS_13
1002
{
1000
ENT
1005
3EFF
1005
3EFE
1005
0
1005
0
1002
}
1001
GENIUS_GENOENT_13
1002
{
1000
MYREF
1005
3F00
1002
}
1002
{
1000
GRP
1005
0
1002
}
1001
GENIUS_GENOBJ-N-CRS_13
1002
{
1000
OWNER
1000
GEN
1002
}
1001
GENIUS_GENODEF_13
1002
{
1000
HIER
1070
    10
1002
}
1002
{
1000
MANEDIT
1070
     1
1002
}
1002
{
1000
NOSEL
1070
     0
1002
}
1002
{
1000
BEHIND
1070
     0
1002
}
1002
{
1000
OTHER
1070
     0
1002
}
1002
{
1000
REACTOR
1002
}
  0
LINE
  5
3F01
330
D
100
AcDbEntity
 67
     1
  8
AM_7
  6
AM_ISO08W050x2
100
AcDbLine
 10
410.5730318123652
 20
136.2881923055971
 30
0.0
 11
394.7462425513785
 21
136.2881923055971
 31
0.0
1001
GENIUS_GENOREF_13
1005
3F03
  0
LINE
  5
3F02
330
D
100
AcDbEntity
 67
     1
  8
AM_7
  6
AM_ISO08W050x2
100
AcDbLine
 10
402.5898188296038
 20
143.9685471872456
 30
0.0
 11
402.5898188296038
 21
128.825412045775
 31
0.0
1001
GENIUS_GENOREF_13
1005
3F03
  0
POINT
  5
3F03
330
D
100
AcDbEntity
 67
     1
  8
0
 60
     1
100
AcDbPoint
 10
94.64005340636033
 20
56.50000000000005
 30
0.0
1001
GENIUS_GENOLIS_13
1002
{
1000
ENT
1005
3F02
1005
3F01
1005
0
1005
0
1002
}
1001
GENIUS_GENOENT_13
1002
{
1000
MYREF
1005
3F03
1002
}
1002
{
1000
GRP
1005
0
1002
}
1001
GENIUS_GENOBJ-N-CRS_13
1002
{
1000
OWNER
1000
GEN
1002
}
1001
GENIUS_GENODEF_13
1002
{
1000
HIER
1070
    10
1002
}
1002
{
1000
MANEDIT
1070
     1
1002
}
1002
{
1000
NOSEL
1070
     0
1002
}
1002
{
1000
BEHIND
1070
     0
1002
}
1002
{
1000
OTHER
1070
     0
1002
}
1002
{
1000
REACTOR
1002
}
  0
LINE
  5
3F04
330
D
100
AcDbEntity
 67
     1
  8
AM_7
  6
AM_ISO08W050x2
100
AcDbLine
 10
410.5730318123652
 20
208.2881923055971
 30
0.0
 11
394.7462425513785
 21
208.2881923055971
 31
0.0
1001
GENIUS_GENOREF_13
1005
3F06
  0
LINE
  5
3F05
330
D
100
AcDbEntity
 67
     1
  8
AM_7
  6
AM_ISO08W050x2
100
AcDbLine
 10
402.5898188296038
 20
215.9685471872456
 30
0.0
 11
402.5898188296038
 21
200.825412045775
 31
0.0
1001
GENIUS_GENOREF_13
1005
3F06
  0
POINT
  5
3F06
330
D
100
AcDbEntity
 67
     1
  8
0
 60
     1
100
AcDbPoint
 10
94.64005340636033
 20
128.5
 30
0.0
1001
GENIUS_GENOLIS_13
1002
{
1000
ENT
1005
3F05
1005
3F04
1005
0
1005
0
1002
}
1001
GENIUS_GENOENT_13
1002
{
1000
MYREF
1005
3F06
1002
}
1002
{
1000
GRP
1005
0
1002
}
1001
GENIUS_GENOBJ-N-CRS_13
1002
{
1000
OWNER
1000
GEN
1002
}
1001
GENIUS_GENODEF_13
1002
{
1000
HIER
1070
    10
1002
}
1002
{
1000
MANEDIT
1070
     1
1002
}
1002
{
1000
NOSEL
1070
     0
1002
}
1002
{
1000
BEHIND
1070
     0
1002
}
1002
{
1000
OTHER
1070
     0
1002
}
1002
{
1000
REACTOR
1002
}
  0
LINE
  5
3F07
330
D
100
AcDbEntity
 67
     1
  8
AM_7
  6
AM_ISO08W050x2
100
AcDbLine
 10
338.5730318123652
 20
208.2881923055971
 30
0.0
 11
322.7462425513785
 21
208.2881923055971
 31
0.0
1001
GENIUS_GENOREF_13
1005
3F09
  0
LINE
  5
3F08
330
D
100
AcDbEntity
 67
     1
  8
AM_7
  6
AM_ISO08W050x2
100
AcDbLine
 10
330.5898188296038
 20
215.9685471872456
 30
0.0
 11
330.5898188296038
 21
200.825412045775
 31
0.0
1001
GENIUS_GENOREF_13
1005
3F09
  0
POINT
  5
3F09
330
D
100
AcDbEntity
 67
     1
  8
0
 60
     1
100
AcDbPoint
 10
22.64005340636032
 20
128.5
 30
0.0
1001
GENIUS_GENOLIS_13
1002
{
1000
ENT
1005
3F08
1005
3F07
1005
0
1005
0
1002
}
1001
GENIUS_GENOENT_13
1002
{
1000
MYREF
1005
3F09
1002
}
1002
{
1000
GRP
1005
0
1002
}
1001
GENIUS_GENOBJ-N-CRS_13
1002
{
1000
OWNER
1000
GEN
1002
}
1001
GENIUS_GENODEF_13
1002
{
1000
HIER
1070
    10
1002
}
1002
{
1000
MANEDIT
1070
     1
1002
}
1002
{
1000
NOSEL
1070
     0
1002
}
1002
{
1000
BEHIND
1070
     0
1002
}
1002
{
1000
OTHER
1070
     0
1002
}
1002
{
1000
REACTOR
1002
}
  0
LINE
  5
3F30
330
D
100
AcDbEntity
 67
     1
  8
AM_7
  6
AM_ISO08W050x2
100
AcDbLine
 10
253.7595433975905
 20
202.288192305597
 30
0.0
 11
237.9327541366038
 21
202.288192305597
 31
0.0
1001
GENIUS_GENOREF_13
1005
3F32
  0
LINE
  5
3F31
330
D
100
AcDbEntity
 67
     1
  8
AM_7
  6
AM_ISO08W050x2
100
AcDbLine
 10
245.7763304148291
 20
209.9685471872455
 30
0.0
 11
245.7763304148291
 21
194.8254120457749
 31
0.0
1001
GENIUS_GENOREF_13
1005
3F32
  0
POINT
  5
3F32
330
D
100
AcDbEntity
 67
     1
  8
0
 60
     1
100
AcDbPoint
 10
-57.49401396394524
 20
122.5
 30
0.0
1001
GENIUS_GENOLIS_13
1002
{
1000
ENT
1005
3F31
1005
3F30
1005
0
1005
0
1002
}
1001
GENIUS_GENOENT_13
1002
{
1000
MYREF
1005
3F32
1002
}
1002
{
1000
GRP
1005
0
1002
}
1001
GENIUS_GENOBJ-N-CRS_13
1002
{
1000
OWNER
1000
GEN
1002
}
1001
GENIUS_GENODEF_13
1002
{
1000
HIER
1070
    10
1002
}
1002
{
1000
MANEDIT
1070
     1
1002
}
1002
{
1000
NOSEL
1070
     0
1002
}
1002
{
1000
BEHIND
1070
     0
1002
}
1002
{
1000
OTHER
1070
     0
1002
}
1002
{
1000
REACTOR
1002
}
  0
DIMENSION
  5
3F33
330
D
100
AcDbEntity
 67
     1
  8
AM_5
100
AcDbDimension
  2
*D7
 10
245.776330414829
 20
202.2881923055969
 30
0.0
 11
224.8613583169389
 21
232.7272150110977
 31
0.0
 70
   164
  1
G1/4
 71
     5
 42
6.322500000000147
  3
AM_ISO$4
100
AcDbRadialDimension
 15
242.9961873655131
 25
207.9666437560666
 35
0.0
 40
0.0
1001
ACAD
1000
DSTYLE
1002
{
1070
    40
1040
1.1
1002
}
  0
DIMENSION
  5
3F52
330
D
100
AcDbEntity
 67
     1
  8
AM_5
100
AcDbDimension
  2
*D8
 10
166.7763304148291
 20
111.588192305597
 30
0.0
 11
171.7763304148291
 21
115.438192305597
 31
0.0
 70
    32
 71
     5
 42
10.0
  3
AM_ISO$0
100
AcDbAlignedDimension
 13
176.7763304148291
 23
149.788192305597
 33
0.0
 14
166.7763304148291
 24
149.788192305597
 34
0.0
 50
0.0000000000001132
100
AcDbRotatedDimension
1001
ACAD
1000
DSTYLE
1002
{
1070
    40
1040
1.399999999999999
1002
}
  0
DIMENSION
  5
3F71
330
D
100
AcDbEntity
 67
     1
  8
AM_5
100
AcDbDimension
  2
*D9
 10
286.7763304148292
 20
111.588192305597
 30
0.0
 11
231.7763304148292
 21
115.438192305597
 31
0.0
 70
    32
 71
     5
 42
110.0
  3
AM_ISO$0
100
AcDbAlignedDimension
 13
176.7763304148291
 23
149.788192305597
 33
0.0
 14
286.7763304148292
 24
124.788192305597
 34
0.0
100
AcDbRotatedDimension
1001
ACAD
1000
DSTYLE
1002
{
1070
    40
1040
1.399999999999999
1002
}
  0
DIMENSION
  5
3F87
330
D
100
AcDbEntity
 67
     1
  8
AM_5
100
AcDbDimension
  2
*D10
 10
286.7763304148292
 20
95.08819230559724
 30
0.0
 11
226.7763304148291
 21
98.93867458906182
 31
0.0
 70
    32
 71
     5
 42
120.0
  3
AM_ISO$0
100
AcDbAlignedDimension
 13
166.7763304148291
 23
148.6881923055971
 33
0.0
 14
286.7763304148292
 24
124.7881923055971
 34
0.0
 50
0.0000000000001132
100
AcDbRotatedDimension
1001
ACAD
1000
DSTYLE
1002
{
1070
    40
1040
1.399999999999999
1002
}
  0
DIMENSION
  5
3FCA
330
D
100
AcDbEntity
 67
     1
  8
AM_5
100
AcDbDimension
  2
*D11
 10
402.5898188296038
 20
111.5881923055972
 30
0.0
 11
366.5898188296038
 21
115.4386745890617
 31
0.0
 70
    32
 71
     5
 42
72.0
  3
AM_ISO$0
100
AcDbAlignedDimension
 13
330.5898188296038
 23
128.825412045775
 33
0.0
 14
402.5898188296038
 24
128.825412045775
 34
0.0
 50
0.0000000000001132
100
AcDbRotatedDimension
1001
ACAD
1000
DSTYLE
1002
{
1070
    40
1040
1.399999999999999
1002
}
  0
DIMENSION
  5
3FE0
330
D
100
AcDbEntity
 67
     1
  8
AM_5
100
AcDbDimension
  2
*D12
 10
414.0898188296038
 20
95.08819230559719
 30
0.0
 11
366.5898188296038
 21
98.93819230559719
 31
0.0
 70
    32
 71
     5
 42
95.0
  3
AM_ISO$0
100
AcDbAlignedDimension
 13
319.0898188296038
 23
126.788192305597
 33
0.0
 14
414.0898188296038
 24
126.788192305597
 34
0.0
 50
0.0000000000001132
100
AcDbRotatedDimension
1001
ACAD
1000
DSTYLE
1002
{
1070
    40
1040
1.399999999999999
1002
}
  0
DIMENSION
  5
4008
330
D
100
AcDbEntity
 67
     1
  8
AM_5
100
AcDbDimension
  2
*D13
 10
327.2777095850082
 20
203.8973003288043
 30
0.0
 11
353.5034917385634
 21
229.2956012859479
 31
0.0
 70
   163
  1
4-<>
 71
     5
 42
11.00000000000005
  3
AM_ISO$3
100
AcDbDiametricDimension
 15
333.9019280741997
 25
212.67908428239
 35
0.0
 40
0.0
1001
ACAD
1000
DSTYLE
1002
{
1070
    40
1040
1.1
1002
}
  0
LINE
  5
40E1
330
D
100
AcDbEntity
 67
     1
  8
AM_7
  6
AM_ISO08W050x2
100
AcDbLine
 10
108.3210428073735
 20
172.2881923055971
 30
0.0
 11
64.45724504369207
 21
172.2881923055971
 31
0.0
1001
GENIUS_GENOREF_13
1005
40E3
  0
LINE
  5
40E2
330
D
100
AcDbEntity
 67
     1
  8
AM_7
  6
AM_ISO08W050x2
100
AcDbLine
 10
86.93761272410256
 20
192.6936064432977
 30
0.0
 11
86.93761272410256
 21
150.4858268822072
 31
0.0
1001
GENIUS_GENOREF_13
1005
40E3
  0
POINT
  5
40E3
330
D
100
AcDbEntity
 67
     1
  8
0
 60
     1
100
AcDbPoint
 10
-221.0121526991409
 20
92.50000000000005
 30
0.0
1001
GENIUS_GENOLIS_13
1002
{
1000
ENT
1005
40E2
1005
40E1
1005
0
1005
0
1002
}
1001
GENIUS_GENOENT_13
1002
{
1000
MYREF
1005
40E3
1002
}
1002
{
1000
GRP
1005
0
1002
}
1001
GENIUS_GENOBJ-N-CRS_13
1002
{
1000
OWNER
1000
GEN
1002
}
1001
GENIUS_GENODEF_13
1002
{
1000
HIER
1070
    10
1002
}
1002
{
1000
MANEDIT
1070
     1
1002
}
1002
{
1000
NOSEL
1070
     0
1002
}
1002
{
1000
BEHIND
1070
     0
1002
}
1002
{
1000
OTHER
1070
     0
1002
}
1002
{
1000
REACTOR
1002
}
  0
LINE
  5
40E4
330
D
100
AcDbEntity
 67
     1
  8
AM_7
  6
AM_ISO08W050x2
100
AcDbLine
 10
297.3539316055178
 20
172.2881923055971
 30
0.0
 11
154.674717288972
 21
172.2881923055971
 31
0.0
  0
LINE
  5
40EE
330
D
100
AcDbEntity
 67
     1
  8
AM_7
  6
AM_ISO08W050x2
100
AcDbLine
 10
392.2503902202709
 20
172.2881923055971
 30
0.0
 11
341.0346725646631
 21
172.2881923055971
 31
0.0
1001
GENIUS_GENOREF_13
1005
40F0
  0
LINE
  5
40EF
330
D
100
AcDbEntity
 67
     1
  8
AM_7
  6
AM_ISO08W050x2
100
AcDbLine
 10
366.5898188296038
 20
197.3817127711847
 30
0.0
 11
366.5898188296038
 21
147.0929691241315
 31
0.0
1001
GENIUS_GENOREF_13
1005
40F0
  0
POINT
  5
40F0
330
D
100
AcDbEntity
 67
     1
  8
0
 60
     1
100
AcDbPoint
 10
58.64005340636032
 20
92.50000000000005
 30
0.0
1001
GENIUS_GENOLIS_13
1002
{
1000
ENT
1005
40EF
1005
40EE
1005
0
1005
0
1002
}
1001
GENIUS_GENOENT_13
1002
{
1000
MYREF
1005
40F0
1002
}
1002
{
1000
GRP
1005
0
1002
}
1001
GENIUS_GENOBJ-N-CRS_13
1002
{
1000
OWNER
1000
GEN
1002
}
1001
GENIUS_GENODEF_13
1002
{
1000
HIER
1070
    10
1002
}
1002
{
1000
MANEDIT
1070
     1
1002
}
1002
{
1000
NOSEL
1070
     0
1002
}
1002
{
1000
BEHIND
1070
     0
1002
}
1002
{
1000
OTHER
1070
     0
1002
}
1002
{
1000
REACTOR
1002
}
  0
DIMENSION
  5
4244
330
D
100
AcDbEntity
 67
     1
  8
AM_5
100
AcDbDimension
  2
*D15
 10
143.0282376400158
 20
194.788192305597
 30
0.0
 11
143.0282376400157
 21
172.2881923055971
 31
0.0
 70
   160
  1
%%c<>
 71
     5
 42
45.0
  3
AM_ISO$0
100
AcDbAlignedDimension
 13
166.7763304148291
 23
149.788192305597
 33
0.0
 14
166.7763304148291
 24
194.788192305597
 34
0.0
 50
90.0
100
AcDbRotatedDimension
1001
ACAD
1000
DSTYLE
1002
{
1070
    40
1040
1.399999999999999
1002
}
  0
CIRCLE
  5
44E4
330
D
100
AcDbEntity
 67
     1
  8
0
100
AcDbCircle
 10
86.93761272410256
 20
172.2881923055971
 30
0.0
 40
22.5
  0
ENDSEC
  0
SECTION
  2
OBJECTS
  0
DICTIONARY
  5
8
330
0
100
AcDbDictionary
281
     1
  3
ACAD_COLOR
350
31
  3
ACAD_GROUP
350
2D
  3
ACAD_LAYOUT
350
C
  3
ACAD_MATERIAL
350
30
  3
ACAD_MLINESTYLE
350
2E
  3
ACAD_PLOTSETTINGS
350
2F
  3
ACAD_PLOTSTYLENAME
350
7
  3
ACAD_TABLESTYLE
350
32
  3
AcadDim
350
3AD1
  3
ACDBHEADERROUNDTRIPXREC
350
4508
  3
AcDbVariableDictionary
350
226
  3
AcmDictionary
350
28A
  3
AMG
350
232
  3
AMGSNAPSETTINGS
350
2C1
  3
DWGPROPS
350
4507
  3
MAPISURF_MODULE
350
418C
  0
DICTIONARY
  5
15
330
14
100
AcDbDictionary
280
     1
281
     1
  3
ACAD_LAYERFILTERS
360
379A
  3
ACAD_LAYERSTATES
360
16
  3
ACLYDICTIONARY
360
3799
  3
AMLAYER_GROUPCOLORS
360
13C8
  0
DICTIONARY
  5
3
330
2
100
AcDbDictionary
280
     1
281
     1
  3
ACAD_INDEX
360
447D
  0
DICTIONARY
  5
1AC0
330
D
100
AcDbDictionary
280
     1
281
     1
  3
ACAD_SORTENTS
360
1AC1
  0
DICTIONARY
  5
450C
330
230
100
AcDbDictionary
280
     1
281
     1
  3
ACAD_XREC_ROUNDTRIP
360
450D
  0
DICTIONARY
  5
31
102
{ACAD_REACTORS
330
8
102
}
330
8
100
AcDbDictionary
281
     1
  0
DICTIONARY
  5
2D
102
{ACAD_REACTORS
330
8
102
}
330
8
100
AcDbDictionary
281
     1
  0
DICTIONARY
  5
C
102
{ACAD_REACTORS
330
8
102
}
330
8
100
AcDbDictionary
281
     1
  3
Model
350
B
  3
配置1
350
10
  0
DICTIONARY
  5
30
102
{ACAD_REACTORS
330
8
102
}
330
8
100
AcDbDictionary
281
     1
  3
Global
350
135C
  0
DICTIONARY
  5
2E
102
{ACAD_REACTORS
330
8
102
}
330
8
100
AcDbDictionary
281
     1
  3
STANDARD
350
33
  0
DICTIONARY
  5
2F
102
{ACAD_REACTORS
330
8
102
}
330
8
100
AcDbDictionary
281
     1
  0
ACDBDICTIONARYWDFLT
  5
7
102
{ACAD_REACTORS
330
8
102
}
330
8
100
AcDbDictionary
281
     1
  3
Normal
350
6
100
AcDbDictionaryWithDefault
340
6
  0
DICTIONARY
  5
32
102
{ACAD_REACTORS
330
8
102
}
330
8
100
AcDbDictionary
281
     1
  3
Standard
350
34
  0
XRECORD
  5
3AD1
102
{ACAD_REACTORS
330
8
102
}
330
8
100
AcDbXrecord
280
     1
 90
   990106
  3

 60
     0
 61
     0
 62
     4
 63
     4
 64
     1
 65
     0
 66
     0
 67
     3
 68
     0
 69
     0
 70
     0
 71
     0
 72
     0
 40
0.0
170
     2
340
3AD0
  0
DICTIONARY
  5
4508
102
{ACAD_REACTORS
330
8
102
}
330
8
100
AcDbDictionary
281
     1
  0
DICTIONARY
  5
226
102
{ACAD_REACTORS
330
8
102
}
330
8
100
AcDbDictionary
281
     1
  3
CTABLESTYLE
350
227
  3
DIMASSOC
350
229
  3
HIDETEXT
350
228
  3
INDEXCTL
350
4506
  3
PROJECTNAME
350
22A
  0
DICTIONARY
  5
28A
102
{ACAD_REACTORS
330
8
102
}
330
8
100
AcDbDictionary
281
     1
  3
AcmStdDictionary
350
297
  3
AMDTSECTSYM_ARROWCOLOR
350
2B3
  0
DICTIONARY
  5
232
102
{ACAD_REACTORS
330
8
102
}
330
8
100
AcDbDictionary
281
     1
  3
AcMgSettings
350
4108
  0
DICTIONARY
  5
2C1
102
{ACAD_REACTORS
330
8
102
}
330
8
100
AcDbDictionary
281
     1
  0
XRECORD
  5
4507
102
{ACAD_REACTORS
330
8
102
}
330
8
100
AcDbXrecord
280
     1
  1
DWGPROPS COOKIE
  2

  3

  4

  6

  7

  8

  9

300
AmdtFileType=84
301
=
302
=
303
=
304
=
305
=
306
=
307
=
308
=
309
=
 40
0.395465474537037
 41
2454816.659313322
 42
2455117.71063794
  1

 90
        1
  0
DICTIONARY
  5
379A
102
{ACAD_REACTORS
330
15
102
}
330
15
100
AcDbDictionary
281
     1
  0
DICTIONARY
  5
16
102
{ACAD_REACTORS
330
15
102
}
330
15
100
AcDbDictionary
281
     1
  0
DICTIONARY
  5
3799
102
{ACAD_REACTORS
330
15
102
}
330
15
100
AcDbDictionary
281
     1
1001
ACAD
1000
<All
  0
DICTIONARY
  5
13C8
102
{ACAD_REACTORS
330
15
102
}
330
15
100
AcDbDictionary
280
     1
281
     1
  0
DICTIONARY
  5
447D
102
{ACAD_REACTORS
330
3
102
}
330
3
100
AcDbDictionary
281
     1
  3
*A1
350
447E
  0
SORTENTSTABLE
  5
1AC1
102
{ACAD_REACTORS
330
1AC0
102
}
330
1AC0
100
AcDbSortentsTable
330
D
331
D22
  5
D22
331
D43
  5
D43
331
230
  5
230
331
312D
  5
312D
331
D3D
  5
D3D
331
D7C
  5
D7C
331
D6E
  5
D6E
331
D9D
  5
D9D
331
DB0
  5
DB0
331
3129
  5
3129
331
D39
  5
D39
331
D78
  5
D78
331
D6A
  5
D6A
331
DAC
  5
DAC
331
D1F
  5
D1F
331
D66
  5
D66
331
D87
  5
D87
331
DA8
  5
DA8
331
D1B
  5
D1B
331
D62
  5
D62
331
D83
  5
D83
331
DA4
  5
DA4
331
D96
  5
D96
331
D17
  5
D17
331
D46
  5
D46
331
D71
  5
D71
331
DA0
  5
DA0
331
D21
  5
D21
331
D42
  5
D42
331
312C
  5
312C
331
D3C
  5
D3C
331
D6D
  5
D6D
331
D9C
  5
D9C
331
DAF
  5
DAF
331
3128
  5
3128
331
D69
  5
D69
331
DAB
  5
DAB
331
30F4
  5
30F4
331
D1E
  5
D1E
331
D65
  5
D65
331
D86
  5
D86
331
DA7
  5
DA7
331
2552
  5
2552
331
D1A
  5
D1A
331
D61
  5
D61
331
378A
  5
378D
331
D82
  5
D82
331
D74
  5
D74
331
DA3
  5
DA3
331
D95
  5
D95
331
D45
  5
D45
331
D3F
  5
D3F
331
D70
  5
D70
331
D9F
  5
D9F
331
DB2
  5
DB2
331
D20
  5
D20
331
D41
  5
D41
331
312B
  5
312B
331
D6C
  5
D6C
331
D9B
  5
D9B
331
DAE
  5
DAE
331
D68
  5
D68
331
DAA
  5
DAA
331
D2B
  5
D2B
331
D1D
  5
D1D
331
D64
  5
D64
331
378D
  5
378C
331
D85
  5
D85
331
DA6
  5
DA6
331
D19
  5
D19
331
D60
  5
D60
331
3789
  5
378B
331
D81
  5
D81
331
D73
  5
D73
331
DA2
  5
DA2
331
D94
  5
D94
331
D23
  5
D23
331
D3E
  5
D3E
331
D7D
  5
D7D
331
D6F
  5
D6F
331
D9E
  5
D9E
331
D90
  5
D90
331
DB1
  5
DB1
331
D40
  5
D40
331
312A
  5
312A
331
D3A
  5
D3A
331
D6B
  5
D6B
331
D9A
  5
D9A
331
D8C
  5
D8C
331
DAD
  5
DAD
331
D67
  5
D67
331
D88
  5
D88
331
DA9
  5
DA9
331
D1C
  5
D1C
331
D63
  5
D63
331
378C
  5
378A
331
D84
  5
D84
331
DA5
  5
DA5
331
D18
  5
D18
331
D47
  5
D47
331
3788
  5
3788
331
D72
  5
D72
331
DA1
  5
DA1
  0
XRECORD
  5
450D
102
{ACAD_REACTORS
330
450C
102
}
330
450C
100
AcDbXrecord
280
     1
102
SHADEPLOT
 70
     0
  0
LAYOUT
  5
B
102
{ACAD_XDICTIONARY
360
4509
102
}
102
{ACAD_REACTORS
330
C
102
}
330
C
100
AcDbPlotSettings
  1

  2
\\NOVIBDC\HPLJ4-TPUB
  4

  6

 40
0.0
 41
0.0
 42
0.0
 43
0.0
 44
0.0
 45
0.0
 46
0.0
 47
0.0
 48
0.0
 49
0.0
140
0.0
141
0.0
142
1.0
143
1.0
 70
  1712
 72
     0
 73
     0
 74
     0
  7

 75
     0
147
1.0
148
0.0
149
0.0
100
AcDbLayout
  1
Model
 70
     1
 71
     0
 10
0.0
 20
0.0
 11
12.0
 21
9.0
 12
0.0
 22
0.0
 32
0.0
 14
0.0
 24
0.0
 34
0.0
 15
0.0
 25
0.0
 35
0.0
146
0.0
 13
0.0
 23
0.0
 33
0.0
 16
1.0
 26
0.0
 36
0.0
 17
0.0
 27
1.0
 37
0.0
 76
     0
330
2
  0
LAYOUT
  5
10
102
{ACAD_XDICTIONARY
360
11
102
}
102
{ACAD_REACTORS
330
C
102
}
330
C
100
AcDbPlotSettings
  1

  2
\\RDS1\iR3300影印機
  4
A3
  6

 40
6.805083274841308
 41
5.365738868713378
 42
7.228424072265625
 43
5.027069091796875
 44
296.9259948730469
 45
419.9466552734374
 46
0.0
 47
0.0
 48
0.0
 49
0.0
140
0.0
141
0.0
142
1.0
143
1.1
 70
   672
 72
     1
 73
     1
 74
     5
  7

 75
    16
147
1.0
148
0.0
149
0.0
100
AcDbLayout
  1
配置1
 70
     1
 71
     1
 10
-5.529776000976562
 20
-7.485591602325439
 11
456.4115447998047
 21
319.1330027580262
 12
0.0
 22
0.0
 32
0.0
 14
24.90636132852967
 24
6.583688530589483
 34
-0.0133624591374542
 15
426.5393028359048
 25
303.0203644072224
 35
175.1711569523934
146
0.0
 13
0.0
 23
0.0
 33
0.0
 16
1.0
 26
0.0
 36
0.0
 17
0.0
 27
1.0
 37
0.0
 76
     0
330
D
331
230
1001
ACAD_PSEXT
1000
\\RDS1\iR3300影印機
1000
Canon iR2200-3300 PCL5e
1000
\\RDS1
1000

1070
     0
  0
MATERIAL
  5
135C
102
{ACAD_XDICTIONARY
360
135D
102
}
102
{ACAD_REACTORS
330
30
102
}
330
30
100
AcDbMaterial
  1
Global
  0
MLINESTYLE
  5
33
102
{ACAD_REACTORS
330
2E
102
}
330
2E
100
AcDbMlineStyle
  2
STANDARD
 70
     0
  3

 62
     0
 51
90.0
 52
90.0
 71
     2
 49
0.5
 62
   256
  6
BYLAYER
 49
-0.5
 62
   256
  6
BYLAYER
  0
ACDBPLACEHOLDER
  5
6
102
{ACAD_REACTORS
330
7
102
}
330
7
  0
TABLESTYLE
  5
34
102
{ACAD_REACTORS
330
32
102
}
330
32
100
AcDbTableStyle
  3
Standard
 70
     0
 71
     0
 40
1.5
 41
1.5
280
     0
281
     0
  7
STANDARD
140
4.5
170
     2
 62
     0
 63
     7
283
     0
274
    -2
284
     1
 64
     0
275
    -2
285
     1
 65
     0
276
    -2
286
     1
 66
     0
277
    -2
287
     1
 67
     0
278
    -2
288
     1
 68
     0
279
    -2
289
     1
 69
     0
  7
STANDARD
140
6.0
170
     5
 62
     0
 63
     7
283
     0
274
    -2
284
     1
 64
     0
275
    -2
285
     1
 65
     0
276
    -2
286
     1
 66
     0
277
    -2
287
     1
 67
     0
278
    -2
288
     1
 68
     0
279
    -2
289
     1
 69
     0
  7
STANDARD
140
4.5
170
     5
 62
     0
 63
     7
283
     0
274
    -2
284
     1
 64
     0
275
    -2
285
     1
 65
     0
276
    -2
286
     1
 66
     0
277
    -2
287
     1
 67
     0
278
    -2
288
     1
 68
     0
279
    -2
289
     1
 69
     0
  0
DICTIONARYVAR
  5
227
102
{ACAD_REACTORS
330
226
102
}
330
226
100
DictionaryVariables
280
     0
  1
STANDARD
  0
DICTIONARYVAR
  5
229
102
{ACAD_REACTORS
330
226
102
}
330
226
100
DictionaryVariables
280
     0
  1
1
  0
DICTIONARYVAR
  5
228
102
{ACAD_REACTORS
330
226
102
}
330
226
100
DictionaryVariables
280
     0
  1
1
  0
DICTIONARYVAR
  5
4506
102
{ACAD_REACTORS
330
226
102
}
330
226
100
DictionaryVariables
280
     0
  1
1
  0
DICTIONARYVAR
  5
22A
102
{ACAD_REACTORS
330
226
102
}
330
226
100
DictionaryVariables
280
     0
  1

  0
DICTIONARY
  5
297
102
{ACAD_REACTORS
330
28A
102
}
330
28A
100
AcDbDictionary
281
     1
  0
XRECORD
  5
2B3
102
{ACAD_REACTORS
330
28A
102
}
330
28A
100
AcDbXrecord
280
     1
 90
-1023410169
  0
DICTIONARY
  5
4108
102
{ACAD_REACTORS
330
232
102
}
330
232
100
AcDbDictionary
281
     1
  3
DWGSETTINGS
350
4109
  3
TRANSSETTINGS
350
410C
  0
LAYER_INDEX
  5
447E
102
{ACAD_REACTORS
330
447D
102
}
330
447D
100
AcDbIndex
 40
2455117.71063794
100
AcDbLayerIndex
  8
0
360
447F
 90
        0
  8
LOGO
360
4480
 90
        0
  8
Defpoints
360
4481
 90
        0
  8
AM_VIS
360
4482
 90
        0
  8
AM_5
360
4483
 90
        0
  8
AM_7
360
4484
 90
        0
  8
圖層1
360
4485
 90
        0
  0
DICTIONARY
  5
4509
330
B
100
AcDbDictionary
280
     1
281
     1
  3
ACAD_XREC_ROUNDTRIP
360
450A
  0
DICTIONARY
  5
11
330
10
100
AcDbDictionary
280
     1
281
     1
  3
ACAD_XREC_ROUNDTRIP
360
450B
  3
ADSK_XREC_LAYOUTTHUMBNAIL
360
12
  0
DICTIONARY
  5
135D
330
135C
100
AcDbDictionary
280
     1
281
     1
  3
ACAD_XREC_ROUNDTRIP
360
135E
  0
IDBUFFER
  5
447F
330
0
100
AcDbIdBuffer
  0
IDBUFFER
  5
4480
330
0
100
AcDbIdBuffer
  0
IDBUFFER
  5
4481
330
0
100
AcDbIdBuffer
  0
IDBUFFER
  5
4482
330
0
100
AcDbIdBuffer
  0
IDBUFFER
  5
4483
330
0
100
AcDbIdBuffer
  0
IDBUFFER
  5
4484
330
0
100
AcDbIdBuffer
  0
IDBUFFER
  5
4485
330
0
100
AcDbIdBuffer
  0
XRECORD
  5
450A
102
{ACAD_REACTORS
330
4509
102
}
330
4509
100
AcDbXrecord
280
     1
102
SHADEPLOT
 70
     0
102
SHADEPLOTRESLEVEL
 70
     2
102
SHADEPLOTCUSTOMDPI
 70
   300
  0
XRECORD
  5
450B
102
{ACAD_REACTORS
330
11
102
}
330
11
100
AcDbXrecord
280
     1
102
SHADEPLOT
 70
     0
102
SHADEPLOTRESLEVEL
 70
     2
102
SHADEPLOTCUSTOMDPI
 70
   300
  0
XRECORD
  5
12
102
{ACAD_REACTORS
330
11
102
}
330
11
100
AcDbXrecord
280
     1
310
28000000B40000007F00000001000800000000004C590000000000000000000000010000000000000000000000000000FFFFFF000000000000000000000000000000000000000000000000000000000000000000330000006600000099000000CC000000FF00000000330000333300006633000099330000CC330000FF3300
310
0000660000336600006666000099660000CC660000FF66000000990000339900006699000099990000CC990000FF99000000CC000033CC000066CC000099CC0000CCCC0000FFCC000000FF000033FF000066FF000099FF0000CCFF0000FFFF000000003300330033006600330099003300CC003300FF003300003333003333
310
33006633330099333300CC333300FF33330000663300336633006666330099663300CC663300FF66330000993300339933006699330099993300CC993300FF99330000CC330033CC330066CC330099CC3300CCCC3300FFCC330000FF330033FF330066FF330099FF3300CCFF3300FFFF330000006600330066006600660099
310
006600CC006600FF00660000336600333366006633660099336600CC336600FF33660000666600336666006666660099666600CC666600FF66660000996600339966006699660099996600CC996600FF99660000CC660033CC660066CC660099CC6600CCCC6600FFCC660000FF660033FF660066FF660099FF6600CCFF6600
310
FFFF660000009900330099006600990099009900CC009900FF00990000339900333399006633990099339900CC339900FF33990000669900336699006666990099669900CC669900FF66990000999900339999006699990099999900CC999900FF99990000CC990033CC990066CC990099CC9900CCCC9900FFCC990000FF99
310
0033FF990066FF990099FF9900CCFF9900FFFF99000000CC003300CC006600CC009900CC00CC00CC00FF00CC000033CC003333CC006633CC009933CC00CC33CC00FF33CC000066CC003366CC006666CC009966CC00CC66CC00FF66CC000099CC003399CC006699CC009999CC00CC99CC00FF99CC0000CCCC0033CCCC0066CC
310
CC0099CCCC00CCCCCC00FFCCCC0000FFCC0033FFCC0066FFCC0099FFCC00CCFFCC00FFFFCC000000FF003300FF006600FF009900FF00CC00FF00FF00FF000033FF003333FF006633FF009933FF00CC33FF00FF33FF000066FF003366FF006666FF009966FF00CC66FF00FF66FF000099FF003399FF006699FF009999FF00CC
310
99FF00FF99FF0000CCFF0033CCFF0066CCFF0099CCFF00CCCCFF00FFCCFF0000FFFF0033FFFF0066FFFF0099FFFF00CCFFFF00FFFFFF00000000000D0D0D001A1A1A00282828003535350043434300505050005D5D5D006B6B6B00787878008686860093939300A1A1A100AEAEAE00BBBBBB00C9C9C900D6D6D600E4E4E400
310
F1F1F100FFFFFF0000000000000000000000000000000000000000000000000000000000000000000000000000000000E2E2E2E2E2E2E2E2E2E2E2E2E2E2E2E2E2E2E2E2E2E2E2E2E2E2E2E2E2E2E2E2E2E2E2E2E2E2E2E2E2E2E2E2E2E2E2E2E2E2E2E2E2E2E2E2E2E2E2E2E2E2E2E2E2E2E2E2E2E2E2E2E2E2E2E2E2E2E2
310
E2E2E2E2E2E2E2E2E2E2E2E2E2E2E2E2E2E2E2E2E2E2E2E2E2E2E2E2E2E2E2E2E2E2E2E2E2E2E2E2E2E2E2E2E2E2E2E2E2E2E2E2E2E2E2E2E2E2E2E2E2E2E2E2E2E2E2E2E2E2E2E2E2E2E2E2E2E2E2E2E2E2E2E2E2E2E2E2E2E2E2E2E2E2E2E2E2E2E2E2E2E2E2E2E2E2E2E2E2E2E2E2E2E2E2E2E2E2E2E2E2E2E2E2E2E2E2
310
E2E2E2E2E2E2E2E2E2E2E2E2E2E2E2E2E2E2E2E2E2E2E2E2E2E2E2E2E2E2E2E2E2E2E2E2E2E2E2E2E2E2E2E2E2E2E2E2E2E2E2E2E2E2E2E2E2E2E2E2E2E2E2E2E2E2E2E2E2E2E2E2E2E2E2E2E2E2E2E2E2E2E2E2E2E2E2E2E2E2E2E2E2E2E2E2E2E2E2E2E2E2E2E2E2E2E2E2E2E2E2E2E2E2E2E2E2E2E2E2E2E2E2E2E2E2E2
310
E2E2E2E2E2E2E2E2E2E2E2E2E2E2E2E2E2E2E2E2E2E2E2E2E2E2E2E2E2E2E2E2E2E2E2E2E2E2E2E2E2E2E2E2E2E2E2E2E2E2E2E2E2E2E2E2E2E2E2E2E2E2E2E2E2E2E2E2E2E2E2E2E2E2E2E2E2E2E2E2E2E2E2E2E2E2E2E2E2E2E2E2E2E2E2E2E2E2E2E2E2E2E2E2E2E2E2E2E2E2E2E2E2E2E2E2E2E2E2E2E2E2E2E2E2E2E2
310
E2E2E2E2E2E2E2E2E2E2E2E2E2E2E2E2E2E2E2E2E2E2E2E2E2E2E2E2E2E2E2E2E2E2E2E2E2E2E2E2E2E2E2E2E2E2E2E2E2E2E2E2E2E2E2E2E2E2E2E2E2E2E2E2E2E2E2E2E2E2E2E2E2E2E2E2E2E2E2E2E2E2E2E2E2E2E2E2E2E2E2E2E2E2E2E2E2E2E2E2E2E2E2E2E2E2E2E2E2E2E2E2E2E2E2E2E2E2E2E2E2E2E2E2E2E2E2
310
E2E2E2E2E2E2E2E2E2E2E2E2E2E2E2E2E2E2E2E2E2E2E2E2E2E2E2E2E2E2E2E2E2E2E2E2E2E2E2E2E2E2E2E2E2E2E2E2E2E2E2E2E2E2E2E2E2E2E2E2E2E2E2E2E2E2E2E2E2E2E2E2E2E2E2E2E2E2E2E2E2E2E2E2E2E2E2E2E2E2E2E2E2E2E2E2E2E2E2E2E2E2E2E2E2E2E2E2E2E2E2E2E2E2E2E2E2E2E2E2E2E2E2E2E2E2E2
310
E2E2E2E2E2E2E2E2E2E2E2E2E2E2E2E2E2E2E2E2E2E2E2E2E2E2E2E2E2E2E2E2E2E2E2E2E2E2E2E2E2E2E2E2E2E2E2E2E2E2E2E2E2E2E2E2E2E2E2E2E2E2E2E2E2E2E2E2E2E2E2E2E2E2E2E2E2E2E2E2E2E2E2E2E2E2E2E2E2E2E2E2E2E2E2E2E2E2E2E2E2E2E2E2E2E2E2E2E2E2E2E2E2E2E2E2E2E2E2E2E2E2E2E2E2E2E2
310
E2E2E2E2E2E2E2E2E2E2E2E2E2E2E2E2E2E2E2E2E2E2E2E2E2E2E2E2E2E2E2E2E2E2E2E2E2E2E2E2E2E2E2E2E2E2E2E2E2E2E2E2E2E2E2E2E2E2E2E2E2E2E2E2E2E2E2E2E2E2E2E2E2E2E2E2E2E2E2E2E2E2E2E2E2E2E2E2E2E2E2E2E2E2E2E2E2E2E2E2E2E2E2E2E2E2E2E2E2E2E2E2E2E2E2E2E2E2E2E2E2E2E2E2E2E2E2
310
E2E2E2E2E2E2E2E2E2E2E2E2E2E2E2E2E2E2E2E2E2E2E2E2E2E2E2E2E2E2E2E2E2E2E2E2E2E2E2E2E2E2E2E2E2E2E2E2E2E2E2E2E2E2E2E2E2E2E2E2E2E2E2E2E2E2E2E2E2E2E2E2E2E2E2E2E2E2E2E2E2E2E2E2E2E2E2E2E2E2E2E2E2E2E2E2E2E2E2E2E2E2E2E2E2E2E2E2E2E2E2E2E2E2E2E2E2E2E2E2E2E2E2E22D2D2D
310
2D2D2D2D2D2D2D2D2D2D2D2D2D2D2D2D2D2D2D2D2D2D2D2D2D2D2D2D2D2D2D2D2D2D2D2D2D2D2D2D2D2D2D2D2D2D2D2D2D2D2D2D2D2D2D2D2D2D2D2D2D2D2D2D2D2D2D2D2D2D2D2D2D2D2D2D2D2D2D2D2D2D2D2D2D2D2D2D2D2D2D2D2D2D2D2D2D2D2D2D2D2D2D2D2D2D2D2D2D2D2D2D2D2D2D2D2D2D2D2D2D2D2D2D2D2D2D
310
2D2D2D2D2D2D2D2D2D2D2D2D2D2D2D2D2D2D2D2D2D2D2D2D2DE2E2E2E2E2E2E2E2E2E2E2E2E2E2E2E2E2E2E2E2E2E2E2E2E22DF5F5F5F5F5F5F5F5F5F5F5F5F5F5F5F5F5F5F5F5F5F5F5F5F5F5F5F52DE2E2E2E2E2E2E22D2D2D2D2D2D2D2DE2E22D2D2D2D2D2DE2E2E2E2E2E2E2E2E2E2E2E2E2E2E2E2E2E2E2E2E2E2E2E2
310
E2E2E2E2E2E2E2E2E2E2E2E2E2E2E2E2E2E2E2E2E2E2E2E2E2E2E2E2E2E2E2E2E2E2E2E2E2E2E2E2E2E2E2E2E2E2E2E2E2E2E2E2E2E2E2E2E2E2E2E2E2E2E2E2E2E2E2E2E2E2E2E2E2E2E2E2E22DE2E2E2E2E2E2E2E2E2E2E2E2E2E2E2E2E2E2E2E2E2E2E2E2E22DF5F5F5F5F5F5F5F5F5F5F5F5F5F5F5F5F5F5F5F5F5E22D
310
2D2D2D2D2D2DE2E2E2E2E2E2E22DE2E2F5F5F5E22DE2E22DE2F5F5F52DE2E2E2E2E2E2E2E2E2E2E2E2E2E2E2E2E2E2E2E2E2E2E2E2E2E2E2E2E2E2E2E2E2E2E2E2E2E2E2E2E2E2E2E2E2E2E2E2E2E2E2E2E2E2E2E2E2E2E2E2E2E2E2E2E2E2E2E2E2E2E2E2E2E2E2E2E2E2E2E2E2E2E2E2E2E2E2E2E2E2E2E2E2E2E2E2E2E2
310
E2E2E22DE2E2E2E2E2E2E2E2E2E2E2E2E2E2E2E2E2E2E2E2E2E2E2E2E22DE2E2E2F5F5F5F5F5F5F5F5F5F5F5F5F5F5F5F5E2E2E22DE2E2E2E2E2E2E2E2E2E2E2E2E22DE2E2F5F5F5E22DE2E22DF5F5F5F52DE2E2E2E2E2E2E2E2E2E2E2E2E2E2E2E2E2E2E2E2E2E2E2E2E2E2E2E2E2E2E2E2E2E2E2E2E2E2E2E2E2E2E2E2E2
310
E2E2E2E2E2E2E2E2E2E2E2E2E2E2E2E2E2E2E2E2E2E2E2E2E2E2E2E2E2E2E2E2E2E2E2E2E2E2E2E2E2E2E2E2E2E2E2E2E2E2E2E2E2E2E2E22DE2E2E2E2E2E2E2E2E2E2E2E2E2E2E2E2E2E2E2E2E2E2E2E2E22D0F0F0F0F0F0F0F2D2D2D2D2D2D2D2D2D2D2D2D2D2D2D2DE2E2E2E2E2E2E2E2E2E2E2E2E22DE2E2F5F5F5E22D
310
E2E22DF5F5F5F52DE2E2E2E2E2E2E2E2E2E2E2E2E2E2E2E2E2E2E2E2E2E2E2E2E2E2E2E2E2E2E2E2E2E2E2E2E2E2E2E2E2E2E2E2E2E2E2E2E2E2E2E2E2E2E2E2E2E2E2E2E2E2E2E2E2E2E2E2E2E2E2E2E2E2E2E2E2E2E2E2E2E2E2E2E2E2E2E2E2E2E2E2E2E2E2E2E2E2E2E2E22DE2E2E2E2E2E2E2E2E2E2E2E2E2E2E2E2E2
310
E2E2E2E2E2E2E2E22D0F0F0F0F0F0F0F2DF5F5E2F5F5F5F52DE2F5F5F5E2E22DE2E2E2E2E2E2E2E2E2F5E2E2E22D2D2D2D2D2D2D2DE2E22D2D2D2D2D2DE2E2E2E2E2E2E2E2E2E2E2E2E2E2E2E2E2E2E2E2E2E2E2E2E2E2E2E2E2E2E2E2E2E2E2E2E2E2E2E2E2E2E2E2E2E2E2E2E2E2E2E2E2E2E2E2E2E2E2E2E2E2E2E2E2E2
310
E2E2E2E2E2E2E2E2E2E2E2E2E2E2E2E2E2E2E2E2E2E2E2E2E2E2E2E2E2E2E2E2E2E2E22DE2E2E2E2E2E2E2E2E2E2E2E2E2E2E2E2E2E2E2E2E2E2E2E2E22D0FDC0FDC0FDC0F2DF5F52DF5F5F52D2D2D2D2D2D2D2D2DF5F5F5F5E2F5F5F5F5F5F5F5F52D2D2D2D2D2D2D2D2DE22D2D2D2D2D2DE2E2E2E2E2E2E2E2E2E2E2E2E2
310
E2E2E2E2E2E2E2E2E2E2E2E2E2E2E2E2E2E2E2E2E2E2E2E2E2E2E2E2E2E2E2E2E2E2E2E2E2E2E2E2E2E2E2E2E2E2E2E2E2E2E2E2E2E2E2E2E2E2E2E2E2E2E2E2E2E2E2E2E2E2E2E2E2E2E2E2E2E2E2E2E2E2E2E2E2E2E2E22DE2E2E2E2E2E2E2E2E2E2E2E2E2E2E2E2E2E2E2E2E2E2E2E2E22DE20F0FDCDC0F0FF5F5F5E2F5
310
F5F5F52DF5F5F5F5F5F52DF5F5F5F5E2F5F5F5F5F5F5F5F52DF5F5F5F5F5F5E22DE22DF5F5F5F52DE2E2E2E2E2E2E2E2E2E2E2E2E2E2E2E2E2E2E2E2E2E2E2E2E2E2E2E2E2E2E2E2E2E2E2E2E2E2E2E2E2E2E2E2E2E2E2E2E2E2E2E2E2E2E2E2E2E2E2E2E2E2E2E2E2E2E2E2E2E2E2E2E2E2E2E2E2E2E2E2E2E2E2E2E2E2E2
310
E2E2E2E2E2E2E2E2E2E2E2E2E2E22DE2E2E2E2E2E2E2E2E2E2E2E2E2E2E2E2E2E2E2E2E2E2E2E2E22DE20F0FDCDC0F0FF5F5F52DF5F5F5F52DF5F52DF5F52D2DF5F5F5F5F5F5F5F5F5E2E2E2E22DF5F5F5F5F5F5E2F5F52DF5F5F5F52DE2E2E2E2E2E2E2E2E2E2E2E2E2E2E2E2E2E2E2E2E2E2E2E2E2E2E2E2E2E2E2E2E2E2
310
E2E2E2E2E2E2E2E2E2E2E2E2E2E2E2E2E2E2E2E2E2E2E2E2E2E2E2E2E2E2E2E2E2E2E2E2E2E2E2E2E2E2E2E2E2E2E2E2E2E2E2E2E2E2E2E2E2E2E2E2E2E2E2E2E2E2E22DE2E2E2E2E2E2E2E2E2E2E2E2E2E2E2E2E2E2E2E2E2E2E2E2E22DE2E20FDC0FDC0F2DF5F5F5F5F5F5F52DE2F5F5E2F5E22DF5F5F5F5F5F5F5F5F5E2
310
E2E2E22DF52DF5F5F5F52D2DE22D2DF5F5F52DE2E2E2E2E2E2E2E2E2E2E2E2E2E2E2E2E2E2E2E2E2E2E2E2E2E2E2E2E2E2E2E2E2E2E2E2E2E2E2E2E2E2E2E2E2E2E2E2E2E2E2E2E2E2E2E2E2E2E2E2E2E2E2E2E2E2E2E2E2E2E2E2E2E2E2E2E2E2E2E2E2E2E2E2E2E2E2E2E2E2E2E2E2E2E2E2E2E2E2E2E22DE2E2E2E2E2E2
310
E2E2E2E2E2E2E2E2E2E2E2E2E2E2E2E2E2E2E22D2D2D2D2D2D2D2D2D2D2D2D2D2D2D2D2D2D2D2D2D2D2D2D2D2D2D2D2D2D2D2D2D2D2D2D2D2D2D2D2D2D2D2D2D2D2D2D2D2D2D2D2D2D2D2D2D2D2D2D2D2D2D2D2D2D2D2D2D2D2D2D2D2D2D2D2D2D2D2D2D2D2D2D2D2D2D2D2D2D2D2D2D2D2D2D2D2D2D2D2D2D2D2D2D2D2D2D
310
2D2D2D2D2D2D2D2D2D2D2D2D2D2D2D2D2D2D2D2D2D2D2D2D2D2D2D2D2D2D2D2D2D2D2D2D2D2D2D2D2D2D2D2D2D2D2DE2E2E2E2E2E2E2E2E2E2E2E2E2E2E2E2E2E2E2E2E2E2E2E2E22DE2E2E2E2E2E2E2E2E2E2E2E2E2E2E2E2E2E2E2E2E2E2E2E2E2E2E2E2E2E2E2E2E2E2E2E2E2E2E2E2E2E2E2E2E2E2E2E2E2E2E2E2E2E2
310
E2E2E2E2E2E2E2E2E2E2E2E2E2E2E2E2E2E2E2E2E2E2E2E2E2E2E2E2E2E2E2E2E2E2E2E2E2E2E2E2E2E2E2E2E2E2E2E2E2E2E2E2E2E2E2E2E2E2E2E2E2E2E2E2E2E2E2E2E2E2E2E2E2E2E2E2E2E2E2E2E2E2E2E2E2E2E2E2E2E2E2E2E2E2E2E2E2E2E22DE2E2E2E2E2E2E2E2E2E2E2E2E2E2E2E2E2E2E2E2E2E2E2E2E22DE2
310
E2E2E2E2E2E2E2E2E2E2E2E2E2E2E2E2E2E2E2E2E2E2E2E2E2E2E2E2E2E2E2E2E2E2E2E2E2E2E2E2E2E2E2E2E2E2E2E2E2E2E2E2E2E2E2E2E2E2E2E2E2E2E2E2E2E2E2E2E2E2E2E2E2E2E2E2E2E2E2E2E2E2E2E2E2E2E2E2E2E2E2E2E2E2E2E2E2E2E2E2E2E2E2E2E2E2E2E2E2E2E2E2E2E2E2E2E2E2E2E2E2E2E2E2E2E2E2
310
E2E2E2E2E2E2E2E2E2E2E2E2E2E2E2E2E2E2E2E2E2E2E2E2E22DE2E2E2E2E2E2E2E2E2E2E2E2E2E2E2E2E2E2E2E2E2E2E2E2E22DE2E2E2E2E2E2E2E2E2E2E2E2E2E2E2E2E2E2E2E2E2E2E2E2E2E2E2E2E2E2E2E2E2E2E2E2E2E2E2E2E2E2E2E2E2E2E2E2E2E2E2E2E2E2E2E2E2E2E2E2E2E2E2E2E2E2E2E2E2E2E2E2E2E2E2
310
E2E2E2E2E2E2E2E2E2E2E2E2E2E2E2E2E2E2E2E2E2E2E2E2E2E2E2E2E2E2E2E2E2E2E2E2E2E2E2E2E2E2E2E2E2E2E2E2E2E2E2E2E2E2E2E2E2E2E2E2E2E2E2E2E2E2E2E2E2E2E2E2E2E2E2E2E2E22DE2E2E2E2E2E2E2E2E2E2E2E2E2E2E2E2E2E2E2E2E2E2E2E2E22DE2E2E2E2E2E2E2E2E2E2E2E2E2E2E2E2E2E2E2E2E2E2
310
E2E2E2E2E2E2E2E2E2E2E2E2E2E2E2E2E2E2E2E2E2E2E2E2E2E2E2E2E2E2E2E2E2E2E2E2E2E2E2E2E2E2E2E2E2E2E2E2E2E2E2E2E2E2E2E2E2E2E2E2E2E2E2E2E2E2E2E2E2E2E2E2E2E2E2E2E2E2E2E2E2E2E2E2E2E2E2E2E2E2E2E2E2E2E2E2E2E2E2E2E2E2E2E2E2E2E2E2E2E2E2E2E2E2E2E2E2E2E2E2E2E2E2E2E2E2E2
310
E2E2E2E22DE2E2E2E2E2E2E2E2E2E2E2E2E2E2E2E2E2E2E2E2E2E2E2E2E22DE2E2E2E2E2E2E2E2E2E2E2E2E2E2E2E2E2E2E2E2E2E2E2E2E2E2E2E2E2E2E2E2E2E2E2E2E2E2E2E2E2E2E2E2E2E2E2E2E2E2E2E2E2E2E2E2E2E2E2E2E2E2E2E2E2E2E2E2E2E2E2E2E2E2E2E2E2E2E2E2E2E2E2E2E2E2E2E2E2E2E2E2E2E2E2E2
310
E2E2E2E2E2E2E2E2E2E2E2E2E2E2E2E2E2E2E2E2E2E2E2E2E2E2E2E2E2E2E2E2E2E2E2E2E2E2E2E2E2E2E2E2E2E2E2E2E2E2E2E2E2E2E2E2E22DE2E2E2E2E2E2E2E2E2E2E2E2E2E2E2E2E2E2E2E2E2E2E2E2E22DE2E2E2E2E2E2E2E2E2E2E2E2E2E2E2E2E2E2E2E2E2E2E2E2E2E2E2E2E2E2E2E2E2E2E2E2E2E2E2E2E2E2E2
310
E2E2E2E2E2E2E2E2E2E2E2E2E2E2E2E2E2E2E2E2E2E2E2E2E2E2E2E2E2E2E2E2E2E2E2E2E2E2E2E2E2E2E2E2E2E2E2E2E2E2E2E2E2E2E2E2E2E2E2E2E2E2E2E2E2E2E2E2E2E2E2E2E2E2E2E2E2E2E2E2E2E2E2E2E2E2E2E2E2E2E2E2E2E2E2E2E2E2E2E2E2E2E2E2E2E2E2E2E2E22DE2E2E2E2E2E2E2E2E2E2E2E2E2E2E2E2
310
E2E2E2E2E2E2E2E2E22DE2E2E2E2E2E2E2E2E2E2E2E2E2E2E2E2E2E2E2E2E2E2E2E2E2E2E2E2E2E2E2E2E2E2E2E2E2E2E2E2E2E2E2E2E2E2E2E2E2E2E2E2E2E2E2E2E2E2E2E2E2E2E2E2E2E2E2E2E2E2E2E2E2E2E2E2E2E2E2E2E2E2E2E2E2E2E2E2E2E2E2E2E2E2E2E2E2E2E2E2E2E2E2E2E2E2E2E2E2E2E2E2E2E2E2E2E2
310
E2E2E2E2E2E2E2E2E2E2E2E2E2E2E2E2E2E2E2E2E2E2E2E2E2E2E2E2E2E2E2E2E2E2E2E22DE2E2E2E2E2E2E2E2E2E2E2E2E2E2E2E2E2E2E2E2E2E2E2E2E22DE2E2E2E2E2E2E2E2E2E2E2E2E2E2E2E2E2E2E2E2E2E2E2E2E2E2E2E2E2E2E2E2E2E2E2E2E2E2E2E2E2E2E2E2E2E2E2E2E2E2E2E2E2E2E2E2E2E2E2E2E2E2E2E2
310
E2E2E2E2E2E2E2E2E2E2E2E2E2E2E2E2E2E2E2E2E2E2E2E2E2E2E2E2E2E2E2E2E2E2E2E2E2E2E2E2E2E2E2E2E2E2E2E2E2E2E2E2E2E2E2E2E2E2E2E2E2E2E2E2E2E2E2E2E2E2E2E2E2E2E2E2E2E2E2E2E2E2E2E2E2E2E2E2E22DE2E2E2E2E2E2E2E2E2E2E2E2E2E2E2E2E2E2E2E2E2E2E2E2E22DE2E2E2E2E2E2E2E2E2E2E2
310
E2E2E2E2E2E2E2E2E2E2E2E2E2E2E2E2E2E2E2E2E2E2E2E2E2E2E2E2E2E2E2E2E2E2E2E2E2E2E2E2E2E2E2E2E2E2E2E2E2E2E2E2E2E2E2E2E2E2E2E2E2E2E2E2E2E2E2E2E2E2E2E2E2E2E2E2E2E2E2E2E2E2E2E2E2E2E2E2E2E2E2E2E2E2E2E2E2E2E2E2E2E2E2E2E2E2E2E2E2E2E2E2E2E2E2E2E2E2E2E2E2E2E2E2E2E2E2
310
E2E2E2E2E2E2E2E2E2E2E2E2E2E2E22DE2E2E2E2E2E2E2E2E2E2E2E2E2E2E2E2E2E2E2E2E2E2E2E2E22DE2E2E2E2E2E2E2E2E2E2E2E2E2E2E2E2E2E2E2E2E2E2E2E2E2E2E2E2E2E2E2E2E2E2E2E2E2E2E2E2E2E2E2E2E2E2E2E2E2E2E2E2E2E2E2E2E2E2E2E2E2E2E2E2E2E2E2E2E2E2E2E2E2E2E2E2E2E2E2E2E2E2E2E2E2
310
E2E2E2E2E2E2E2E2E2E2E2E2E2E2E2E2E2E2E2E2E2E2E2E2E2E2E2E2E2E2E2E2E2E2E2E2E2E2E2E2E2E2E2E2E2E2E2E2E2E2E2E2E2E2E2E2E2E2E2E2E2E2E2E2E2E2E2E22DE2E2E2E2E2E2E2E2E2E2E2E2E2E2E2E2E2E2E2E2E2E2E2E2E22DE2E2E2E2E2E2E2E2E2E2E2E2E2E2E2E2E2E2E2E2E2E2E2E2E2E2E2E2E2E2E2E2
310
E2E2E2E2E2E2E2E2E2E2E2E2E2E2E2E2E2E2E2E2E2E2E2E2E2E2E2E2E2E2E2E2E2E2E2E2E2E2E2E2E2E2E2E2E2E2E2E2E2E2E2E2E2E2E2E2E2E2E2E2E2E2E2E2E2E2E2E2E2E2E2E2E2E2E2E2E2E2E2E2E2E2E2E2E2E2E2E2E2E2E2E2E2E2E2E2E2E2E2E2E2E2E2E2E2E2E2E2E2E2E2E2E2E2E2E2E2E2E2E2E22DE2E2E2E2E2
310
E2E2E2E2E2E2E2E2E2E2E2E2E2E2E2E2E2E2E2E22DE2E2E2E2E2E2E2E2E2E2E2E2E2E2E2E2E2E2E2E2E2E2E2E2E2E2E2E2E2E2E2E2E2E2E2E2E2E2E2E2E2E2E2E2E2E2E2E2E2E2E2E2E2E2E2E2E2E2E2E2E2E2E2E2E2E2E2E2E2E2E2E2E2E2E2E2E2E2E2E2E2E2E2E2E2E2E2E2E2E2E2E2E2E2E2E2E2E2E2E2E2E2E2E2E2E2
310
E2E2E2E2E2E2E2E2E2E2E2E2E2E2E2E2E2E2E2E2E2E2E2E2E2E2E2E2E2E2E2E2E2E2E2E2E2E2E2E2E2E2E2E2E2E2E22DE2E2E2E2E2E2E2E2E2E2E2E2E2E2E2E2E2E2E2E2E2E2E2E2E22DE2E2E2E2E2E2E2E2E2E2E2E2E2E2E2E2E2E2E2E2E2E2E2E2E2E2E2E2E2E2E2E2E2E2E2E2E2E2E2E2E2E2E2E2E2E2E2E2E2E2E2E2E2
310
E2E2E2E2E2E2E2E2E2E2E2E2E2E2E2E2E2E2E2E2E2E2E2E2E2E2E2E2E2E2E2E2E2E2E2E2E2E2E2E2E2E2E2E2E2E2E2E2E2E2E2E2E2E2E2E2E2E2E2E2E2E2E2E2E2E2E2E2E2E2E2E2E2E2E2E2E2E2E2E2E2E2E2E2E2E2E2E2E2E2E2E2E2E2E2E2E2E2E2E22DE2E2E2E2E2E2E2E2E2E2E2E2E2E2E2E2E2E2E2E2E2E2E2E2E22D
310
E2E2E2E2E2E2E2E2E2E2E2E2E2E2E2E2E2E2E2E2E2E2E2E2E2E2E2E2E2E2E2E2E2E2E2E2E2E2E2E2E2E2E2E2E2E2E2E2E2E2E2E2E2E2E2E2E2E2E2E2E2E2E2E2E2E2E2E2E2E2E2E2E2E2E2E2E2E2E2E2E2E2E2E2E2E2E2E2E2E2E2E2E2E2E2E2E2E2E2E2E2E2E2E2E2E2E2E2E2E2E2E2E2E2E2E2E2E2E2E2E2E2E2E2E2E2E2
310
E2E2E2E2E2E2E2E2E2E2E2E2E2E2E2E2E2E2E2E2E2E2E2E2E2E22DE2E2E2E2E2E2E2E2E2E2E2E2E2E2E2E2E2E2E2E2E2E2E2E2E22DE2E2E2E2E2E2E2E2E2E2E2E2E2E2E2E2E2E2E2E2E2E2E2E2E2E2E2E2E2E2E2E2E2E2E2E2E2E2E2E2E2E2E2E2E2E2E2E2E2E2E2E2E2E2E2E2E2E2E2E2E2E2E2E2E2E2E2E2E2E2E2E2E2E2
310
E2E2E2E2E2E2E2E2E2E2E2E2E2E2E2E2E2E2E2E2E2E2E2E2E2E2E2E2E2E2E2E2E2E2E2E2E2E2E2E2E2E2E2E2E2E2E2E2E2E2E2E2E2E2E2E2E2E2E2E2E2E2E2E2E2E2E2E2E2E2E2E2E2E2E2E2E2E2E22DE2E2E2E2E2E2E2E2E2E2E2E2E2E2E2E2E2E2E2E2E2E2E2E2E22DE2E2E2E2E2E2E2E2E2E2E2E2E2E2E2E2E2E2E2E2E2
310
E2E2E2E2E2E2E2E2E2E2E2E2E2E2E2E2E2E2E2E2E2E2E2E2E2E2E2E2E2E2E2E2E2E2E2E2E2E2E2E2E2E2E2E2E2E2E2E2E2E2E2E2E2E2E2E2E2E2E2E2E2E2E2E2E2E2E2E2E2E2E2E2E2E2E2E2E2E2E2E2E2E2E2E2E2E2E2E2E2E2E2E2E2E2E2E2E2E2E2E2E2E2E2E2E2E2E2E2E2E2E2E2E2E2E2E2E2E2E2E2E2E2E2E2E2E2E2
310
E2E2E2E2E22DE2E2E2E2E2E2E2E2E2E2E2E2E2E2E2E2E2E2E2E2E2E2E2E2E22DE2E2E2E2E2E2E2E2E2E2E2E2E2E2E2E2E2E2E2E2E2E2E2E2E2E2E2E2E2E2E2E2E2E2E2E2E2E2E2E2E2E2E2E2E2E2E2E2E2E2E2E2E2E2E2E2E2E2E2E2E2E2E2E2E2E2E2E2E2E2E2E2E2E2E2E2E2E2E2E2E2E2E2E2E2E2E2E2E2E2E2E2E2E2E2
310
E2E2E2E2E2E2E2E2E2E2E2E2E2E2E2E2E2E2E2E2E2E2E2E2E2E2E2E2E2E2E2E2E2E2E2E2E2E2E2E2E2E2E2E2E2E2E2E2E2E2E2E2E2E2E2E2E2E22DE2E2E2E2E2E2E2E2E2E2E2E2E2E2E2E2E2E2E2E2E2E2E2E2E22DE2E2E2E2E2E2E2E2E2E2E2E2E2E2E2E2E2E2E2E2E2E2E2E2E2E2E2E2E2E2E2E2E2E2E2E2E2E2E2E2E2E2
310
E2E2E2E2E2E2E2E2E2E2E2E2E2E2E2E2E2E2E2E2E2E2E2E2E2E2E2E2E2E2E2E2E2E2E2E2E2E2E2E2E2E2E2E2E2E2E2E2E2E2E2E2E2E2E2E2E2E2E2E2E2E2E2E2E2E2E2E2E2E2E2E2E2E2E2E2E2E2E2E2E2E2E2E2E2E2E2E2E2E2E2E2E2E2E2E2E2E2E2E2E2E2E2E2E2E2E2E2E2E2E22DE2E2E2E2E2E2E2E2E2E2E2E2E2E2E2
310
E2E2E2E2E2E2E2E2E2E22DE2E2E2E2E2E2E2E2E2E2E2E2E2E2E2E2E2E2E2E2E2E2E2E2E2E2E2E2E2E2E2E2E2E2E2E2E2E2E2E2E2E2E2E2E2E2E2E2E2E2E2E2E2E2E2E2E2E2E2E2E2E2E2E2E2E2E2E2E2E2E2E2E2E2E2E2E2E2E2E2E2E2E2E2E2E2E2E2E2E2E2E2E2E2E2E2E2E2E2E2E2E2E2E2E2E2E2E2E2E2E2E2E2E2E2E2
310
E2E2E2E2E2E2E2E2E2E2E2E2E2E2E2E2E2E2E2E2E2E2E2E2E2E2E2E2E2E2E2E2E2E2E2E2E22DE2E2E2E2E2E2E2E2E2E2E2E2E2E2E2E2E2E2E2E2E2E2E2E2E22DE2E2E2E2E2E2E2E2E2E2E2E2E2E2E2E2E2E2E2E2E2E2E2E2E2E2E2E2E2E2E2E2E2E2E2E2E2E2E2E2E2E2E2E2E2E2E2E2E2E2E2E2E2E2E2E2E2E2E2E2E2E2E2
310
E2E2E2E2E2E2E2E2E2E2E2E2E2E2E2E2E2E2E2E2E2E2E2E2E2E2E2E2E2E2E2E2E2E2E2E2E2E2E2E2E2E2E2E2E2E2E2E2E2E2E2E2E2E2E2E2E2E2E2E2E2E2E2E2E2E2E2E2E2E2E2E2E2E2E2E2E2E2E2E2E2E2E2E2E2E2E2E2E2E22DE2E2E2E2E2E2E2E2E2E2E2E2E2E2E2E2E2E2E2E2E2E2E2E2E22DE2E2E2E2E2E2E2E2E2E2
310
E2E2E2E2E2E2E2E2E2E2E2E2E2E2E2E2E2E2E2E2E2E2E2E2E2E2E2E2E2E2E2E2E2E2E2E2E2E2E2E2E2E2E2E2E2E2E2E2E2E2E2E2E2E2E2E2E2E2E2E2E2E2E2E2E2E2E2E2E2E2E2E2E2E2E2E2E2E2E2E2E2E2E2E2E2E2E2E2E2E2E2E2E2E2E2E2E2E2E2E2E2E2E2E2E2E2E2E2E2E2E2E2E2E2E2E2E2E2E2E2E2E2E2E2E2E2E2
310
E2E2E2E2E2E2E2E2E2E2E2E2E2E2E2E22DE2E2E2E2E2E2E2E2E2E2E2E2E2E2E2E2E2E2E2E2E2E2E2E2E22DE2E2E2E2E2E2E2E2E2E2E2E2E2E2E2E2E2E2E2E2E2E2E2E2E2E2E2E2E2E2E2E2E2E2E2E2E2E2E2E2E2E2E2E2E2E2E2E2E2E2E2E2E2E2E2E2E2E2E2E2E2E2E2E2E2E2E2E2E2E2E2E2E2E2E2E2E2E2E2E2E2E2E2E2
310
E2E2E2E2E2E2E2E2E2E2E2E2E2E2E2E2E2E2E2E2E2E2E2E2E2E2E2E2E2E2E2E2E2E2E2E2E2E2E2E2E2E2E2E2E2E2E2E2E2E2E2E2E2E2E2E2E2E2E2E2E2E2E2E2E2E2E2E2E22DE2E2E2E2E2E2E2E2E2E2E2E2E2E2E2E2E2E2E2E2E2E2E2E2E22DE2E2E2E2E2E2E2E2E2E2E2E2E2E2E2E2E2E2E2E2E2E2E2E2E2E2E2E2E2E2E2
310
E2E2E2E2E2E2E2E2E2E2E2E2E2E2E2E2E2E2E2E2E2E2E2E2E2E2E2E2E2E2E2E2E2E2E2E2E2E2E2E2E2E2E2E2E2E2E2E2E2E2E2E2E2E2E2E2E2E2E2E2E2E2E2E2E2E2E2E2E2E2E2E2E2E2E2E2E2E2E2E2E2E2E2E2E2E2E2E2E2E2E2E2E2E2E2E2E2E2E2E2E2E2E2E2E2E2E2E2E2E2E2E2E2E2E2E2E2E2E2E2E2E22DE2E2E2E2
310
E2E2E2E2E2E2E2E2E2E2E2E2E2E2E2E2E2E2E2E2E22DE2E2E2E2E20F0F0F0F0F0F0F0F0F0F0F0F0F0F0F0F0F0F0F0F0F0F0F0F0F0F0F0F0F0F0F0F0F0F0F0F0FE2E2E2E2E2E2E2E2E2E2E2E20F0F0F0F0F0F0F0F0F0F0F0F0F0F0F0F0F0F0F0F0F0F0F0F0F0F0F0F0F0F0F0F0F0F0F0F0F0F0F0F0F0F0F0F0F0F0FE2E2E2E2
310
E2E2E2E2E2E2E20F0F0F0F0F0F0F0F0F0F0F0F0F0F0F0F0F0F0F0F0F0F0F0F0F0F0F0F0F0F0F0F0F0F0F0F0FE2E2E2E22DE2E2E2E2E2E2E2E2E2E2E2E2E2E2E2E2E2E2E2E2E2E2E2E2E22DE2E2E2E2E20FE2E2E2E2E2E2E2E2E2E2E2E2E2E2E20F0F0F0F0FE2E2E2E2E2E2E2E2E2E2E2E2E2E2E20FE2E2E2E2E2E2E2E2E2E2
310
E2E20FE2E2E2E2E2E2E2E2E2E2E2E2E2E2E2E2E2E2E2E20F0F0F0FE2E2E2E2E2E2E2E2E2E2E2E2E2E2E2E2E2E2E2E2E20FE2E2E2E2E2E2E2E2E2E2E20FE2E2E2E2E2E2E2E2E2E2E2E2E2E2E2E20F0F0FE2E2E2E2E2E2E2E2E2E2E2E2E2E2E2E20FE2E2E2E22DE2E2E2E2E2E2E2E2E2E2E2E2E2E2E2E2E2E2E2E2E2E2E2E2E2
310
2DE2E2E2E2E20FE2E2E2E2E2E2E2E2E2E2E2E2E2E2E20FE20F0F0FE2E2E2E2E2E2E2E2E2E2E2E2E2E2E20FE2E2E2E2E2E2E2E2E2E2E2E20FE2E2E2E2E2E2E2E2E2E2E2E2E2E2E2E2E2E2E2E20F0F0F0FE2E2E2E2E2E2E2E2E2E2E2E2E2E2E2E2E2E2E2E2E20FE2E2E2E2E2E2E2E2E2E2E20FE2E2E2E2E2E2E2E2E2E2E2E2E2
310
E2E2E20F0F0FE2E2E2E2E2E2E2E2E2E2E2E2E2E2E2E20FE2E2E2E22DE2E2E2E2E2E2E2E2E2E2E2E2E2E2E2E2E2E2E2E2E2E2E2E2E22DE2E2E2E2E20FE2E2E2E2E2E2E2E2E2E2E2E2E2E2E20F0F0FE2E2E2E2E2E2E2E2E2E2E2E2E2E2E2E2E20FE2E2E2E2E2E2E2E2E2E2E2E20FE2E2E2E2E2E2E2E2E2E2E2E2E2E2E2E2E2E2
310
E2E2E2E2E2E2E2E2E2E2E2E2E2E2E2E2E2E2E2E2E2E2E2E2E2E2E20FE2E2E2E2E2E2E2E2E2E2E20FE2E2E2E2E2E2E2E2E2E2E2E2E2E2E2E2E2E2E2E2E2E2E2E2E2E2E2E2E2E2E2E2E2E2E20FE2E2E2E22DE2E2E2E2E2E2E2E2E2E2E2E2E2E2E2E2E2E2E2E2E2E2E2E2E22DE2E2E2E2E20FE2E2E2E2E2E2E2E2E2E2E2E2E2E2
310
E2E2E2E2E2E2E2E2E2E2E2E2E2E2E2E2E2E2E2E2E20FE2E2E2E2E2E2E2E2E2E2E2E20FE2E2E2E2E2E2E2E2E2E2E2E2E2E2E2E2E2E2E2E2E2E2E2E2E2E2E2E2E2E2E2E2E2E2E2E2E2E2E2E2E2E2E2E2E20FE2E2E2E2E2E2E2E2E2E2E20FE2E2E2E2E2E2E2E2E2E2E2E2E2E2E2E2E2E2E2E2E2E2E2E2E2E2E2E2E2E2E2E2E2E2
310
E20FE2E2E2E22DE2E2E2E2E2E2E2E2E2E2E2E2E2E2E2E2E2E2E2E2E2E2E2E2E22DE2E2E2E2E20FE2E2E2E2E2E2E2E2E2E2E2E2E2E2E2E2E2E2E2E2E2E2E2E2E2E2E2E2E2E2E2E2E2E2E20FE2E2E2E2E2E2E2E2E2E2E2E20FE2E2E2E2E2E2E2E2E2E2E2E2E2E2E2E2E2E2E2E2E2E2E2E2E2E2E2E2E2E2E2E2E2E2E2E2E2E2E2
310
E2E2E2E2E2E20FE2E2E2E2E2E2E2E2E2E2E20FE2E2E2E2E2E2E2E2E2E2E2E2E2E2E2E2E2E2E2E2E2E2E2E2E2E2E2E2E2E2E2E2E2E2E20FE2E2E2E22DE2E2E2E2E2E2E2E2E2E2E2E2E2E2E2E2E2E2E2E2E2E2E2E2E22DE2E2E2E2E20FE2E2E20FE20FE2E2E2E2E2E2E2E2E2E2E2E2E2E2E2E2E2E2E2E2E2E2E20FE20FE2E2E2
310
0FE2E2E2E2E2E2E2E2E2E20FE20FE2E20FE20FE2E2E2E2E2E2E2E2E2E2E2E2E2E2E2E2E2E2E2E2E2E2E2E2E2E2E2E2E2E2E2E2E2E2E2E2E2E20FE20FE2E2E2E2E2E2E2E2E2E2E20FE2E2E20FE20FE2E2E2E2E2E2E2E2E2E2E2E2E2E2E2E2E2E2E2E2E2E2E20FE20FE2E2E20FE2E2E2E22DE2E2E2E2E2E2E2E2E2E2E2E2E2E2
310
E2E2E2E2E2E2E2E2E2E2E22DE2E2E2E2E20FE2E2E20F0F0F0F0F0F0F0F0F0F0F0F0F0F0F0F0F0F0F0F0F0F0F0F0F0F0F0F0FE2E2E20FE2E2E2E2E2E2E2E20F0F0F0F0F0F0F0F0F0F0F0F0F0F0F0F0F0F0F0F0F0F0F0F0F0F0F0F0F0F0F0F0F0F0F0F0F0F0F0F0F0F0F0F0F0F0F0F0F0F0FE2E2E2E2E2E2E2E2E2E2E20FE2E2
310
E20F0F0F0F0F0F0F0F0F0F0F0F0F0F0F0F0F0F0F0F0F0F0F0F0F0F0F0F0FE2E2E20FE2E2E2E22DE2E2E2E2E2E2E2E2E2E2E2E2E2E2E2E2E2E2E2E2E2E2E2E2E22DE2E2E2E2E20FE2E2E20FE2E2E2E2E2E2E2E2E2E2E20FE20F0F0FE2E2E2E2E2E2E2E2E2E2E20FE2E2E20FE2E2E2E2E2E2E2E2E2E2E2E20F0F0F0FE2E2E2E2
310
E2E2E2E2E2E2E2E2E2E2E2E2E2E2E20F0F0F0FE2E2E2E2E2E2E2E2E2E2E2E2E2E2E2E2E2E2E20FE2E2E2E2E2E2E2E2E2E2E20FE2E2E20FE2E2E2E2E2E2E2E2E2E2E2E2E20F0FE2E2E2E2E2E2E2E2E2E2E2E20FE2E2E20FE2E2E2E22DE2E2E2E2E2E2E2E2E2E2E2E2E2E2E2E2E2E2E2E2E2E2E2E2E22DE2E2E2E2E20FE2E2E2
310
0FE2E2E2E2E2E2E2E2E2E2E20F0F0F0F0FE2E2E2E2E2E2E2E2E2E2E20FE2E2E20FE2E2E2E2E2E2E2E2E2E2E2E20F0F0F0FE2E2E2E2E2E2E2E2E2E2E2E2E2E2E2E2E2E2E20F0F0F0FE2E2E2E2E2E2E2E2E2E2E2E2E2E2E2E2E2E2E20FE2E2E2E2E2E2E2E2E2E2E20FE2E2E20FE2E2E2E2E2E2E2E2E2E2E2E20F0F0FE2E2E2E2
310
E2E2E2E2E2E2E2E20FE2E2E20FE2E2E2E22DE2E2E2E2E2E2E2E2E2E2E2E2E2E2E2E2E2E2E2E2E2E2E2E2E22DE2E2E2E2E20FE2E2E20FE2E2E2E2E2E2E2E2E2E2E2E2E2E2E2E2E2E2E2E2E2E2E2E2E2E2E20FE2E2E20FE2E2E2E2E2E2E2E2E2E2E2E20FE2E20FE2E2E2E2E2E2E2E2E2E2E2E2E2E2E2E2E2E2E2E2E2E2E2E2E2
310
E2E2E2E2E2E2E2E2E2E2E2E2E2E2E2E2E20FE2E2E2E2E2E2E2E2E2E2E20FE2E2E20FE2E2E2E2E2E2E2E2E2E2E2E2E2E2E2E2E2E2E2E2E2E2E2E2E2E2E20FE2E2E20FE2E2E2E22DE2E2E2E2E2E2E2E2E2E2E2E2E2E2E2E2E2E2E2E2E2E2E2E2E22DE2E2E2E2E20FE2E2E20FE2E2E2E2E2E2E2E2E2E2E2E2E2E2E2E2E2E2E2E2
310
E2E2E2E2E2E2E20FE2E2E20FE2E2E2E2E2E2E2E2E2E2E2E20FE2E20FE2E2E2E2E2E2E2E2E2E2E2E2E2E2E2E2E2E2E2E2E2E2E2E2E2E2E2E2E2E2E2E2E2E2E2E2E2E2E2E2E2E20FE2E2E2E2E2E2E2E2E2E2E20FE2E2E20FE2E2E2E2E2E2E2E2E2E2E2E2E2E2E2E2E2E2E2E2E2E2E2E2E2E2E20FE2E2E20FE2E2E2E22DE2E2E2
310
E2E2E2E2E2E2E2E2E2E2E2E2E2E2E2E2E2E2E2E2E2E22DE2E2E2E2E20FF5F5F50FF5F5F5F5F5F5F5F5F5F5F5F5F5F5F5F5F5F5F5F5F5F5F5F5F5F5F50FF5F5F50FE2E2E2E2E2E2E2E2E2E2E2E20FE2E20FF5F5F5F5F5F5F5F5F5F5F5F5F5F5F5F5F5F5F5F5F5F5F5F5F5F5F5F5F5F5E2E2E2E2E2E2E2F5F5F5F5F50FE2E2E2
310
E2E2E2E2E2E2E2E20FF5F5F50FF5F5F5F5F5F5F5F5F5F5F5F5F5F5F5F5F5F5F5F5F5F5F5F5F5F5F50FF5F5F50FE2E2E2E22DE2E2E2E2E2E2E2E2E2E2E2E2E2E2E2E2E2E2E2E2E2E2E2E2E22DE2E2E2E2E2F5E2E2E20FE2E2E2E2E2E2E2E2E2E2E2E2E2E2E2E2E2E2E2E2E2E2E2E2E2E2E20FE2E2E2F5E2E2E2E2E2E2E2E2E2
310
E2E2E20FE2E20FE2E2E2E2E2E2E2E2E2E2E2E2E2E2E2E2E2E2E2E2E2E2E2E2E2E2E2E2E2F5E2E2E2E2E2E2E2F5E2E2E2E2F5E2E2E2E2E2E2E2E2E2E2E2F5E2E2E20FE2E2E2E2E2E2E2E2E2E2E2E2E2E2E2E2E2E2E2E2E2E2E2E2E2E2E20FE2E2E2F5E2E2E2E22DE2E2E2E2E2E2E2E2E2E2E2E2E2E2E2E2E2E2E2E2E2E2E2E2
310
E22DE2E2E2E2E2F5E2E2E20FF5E2E2E2E2E2E2E2E2E2E2E2E2E2E2E2E2E2E2E2E2E2E2E2E2E2F50FF5E2E2F5E2E2E2E2E2E2E2E2E2E2E2E20FE2E20FE2E2E2E2E2E2E2E2E2E2E2E2E2E2E2E2E2E2E2E2E2E2E2E2E2E2E2E2E2F5E2E2E2E2E2E2E2F5E2E2E2E2F5E2E2E2E2E2E2E2E2E2E2E2F5E2E2F5BEF5F5E2E2E2E2E2E2
310
E2E2E2E2E2E2E2E2E2E2E2E2E2E2E2E2E2E2F5BEF5E2E2F5E2E2E2E22DE2E2E2E2E2E2E2E2E2E2E2E2E2E2E2E2E2E2E2E2E2E2E2E2E22DE2E2E2E2E2F5E2E2F5BEF5F5E2E2E2E2E2E2E2E2E2E2E2E2E2E2E2E2E2E2E2E2E2E2E2F5F5BEF5E2E2F5E2E2E2E2E2E2E2E2E2E2E2E20FE2E20FE2E2E2E2E2E2E2E2E2E2E2E2E2E2
310
E2E2E2E2E2E2E2E2E2E2E2E2E2E2E2F5F5F5F5F5F5F5F5F5E2E2E2E2F5E2E2E2E2E2E2E2E2E2E2E2F5E2F5F5BEE2F5E2E2E2E2E2E2E2E2E2E2E2E2E2E2E2E2E2E2E2E2E2E2E2F5E2BEE2F5E2F5E2E2E2E22DE2E2E2E2E2E2E2E2E2E2E2E2E2E2E2E2E2E2E2E2E2E2E2E2E22DE2E2E2E2E2F5E2F5F5BEBEF5BEE2E2E2E2E2E2
310
E2E2E2E2E2E2E2E2E2E2E2E2E2E2E2BEF5BEBEF5BEE2F5E2E2E2E2E2E2E2E2E2E2E2E20FE2E20FE2E2E2E2E2E2E2E2E2E2E2E2E2E2E2E2E2E2E2E2E2E2E2E2E2E2E2E2E2F5E2E2E2E2E2E2E2F5E2E2E2E2F5E2E2E2E2E2E2E2E2E2E2E2F5BEBEBEBEBEBEBEE2E2E2E2E2E2E2E2E2E2E2E2E2E2E2E2E2E2E2E2E2BEBEBEBEBE
310
BEBEF5E2E2E2E22DE2E2E2E2E2E2E2E2E2E2E2E2E2E2E2E2E2E2E2E2E2E2E2E2E22DE2E2E2E2E2F5E2E2F5BEF5F5E2E2E2E2E2E2E2E2E2E2E2E2E2E2E2E2E2E2E2E2E2E2E2F5F5BEF5E2E2F5E2E2E2E2E2E2E2E2E2E2E2E20FE2E20FE2E2E2E2E2E2E2E2E2E2E2E2E2E2E2E2E2E2E2E2E2E2E2E2E2E2E2E2E2F5E2E2E2E2E2
310
E2E2F5E2E2E2E2F5E2E2E2E2E2E2E2E2E2E2E2F5E2F5F5BEE2F5E2E2E2E2E2E2E2E2E2E2E2E2E2E2E2E2E2E2E2E2E2E2E2F5E2BEE2F5E2F5E2E2E2E22DE2E2E2E2E2E2E2E2E2E2E2E2E2E2E2E2E2E2E2E2E2E2E2E2E22DE2E2E2E2E2F5E2E2F5F5F5E2E2E2E2E2E2E2E2E2E2E2E2E2E2E2E2E2E2E2E2E2E2E2E2E2F5F5E2E2
310
E2F5E2E2E2E2E2E2E2E2E2E2E2E20FE2E20FE2E2E2E2E2E2E2E2E2E2E2E2E2E2E2E2F5E2E2E2E2E2E2E2E2E2E2E2E2F5E2E2E2E2E2E2E2F5E2E2E2E2F5E2E2E2E2E2E2E2E2E2E2E2F5E2E2F5BEF5F5E2E2E2E2E2E2E2E2E2E2E2E2E2E2E2E2E2E2E2E2E2E2E2E2F5BEF5E2E2F5E2E2E2E22DE2E2E2E2E2E2E2E2E2E2E2E2E2
310
E2E2E2E2E2E2E2E2E2E2E2E22DE2E2E2E2E2F5E2E2E2E2E2E2E2E2E2E2E2E2E2E2E2E2E2E2E2E2E2E2E2E2E2E2E2E2E2E2E2E2E2E2E2F5E2E2E2E2E2E2E2E2E2E2E2E20FE2E20FE2E2E2E2E2E2E2E2E2E2E2E2F5F5F5F5F5F5F5F5F5E2E2E2E2E2E2E2E2F5E2E2E2E2E2E2E2F5E2E2E2E2F5E2E2E2E2E2E2E2E2E2E2E2F5E2
310
E2E2BEE2E2E2E2E2E2E2E2E2E2E2E2E2E2E2E2E2E2E2E2E2E2E2E2E2E2E2BEE2E2E2F5E2E2E2E22DE2E2E2E2E2E2E2E2E2E2E2E2E2E2E2E2E2E2E2E2E2E2E2E2E22DE2E2E2E2E2F5E2E2E2E2E2E2E2E2E2E2E2E2E2E2E2E2E2E2E2E2E2E2E2E2E2E2E2E2E2E2E2E2E2E2E2F5E2E2E2E2E2E2E2E2E2E2E2E20FE2E20FE2E2E2
310
E2E2E2E2E2E2E2F5F5E2E2E2E2E2E2E2E2E2F5F5F5E2E2E2E2E2F5E2E2E2E2E2E2E2F5E2E2E2E2F5E2E2E2E2E2E2E2E2E2E2E2F5E2E2E2E2E2E2E2E2E2E2E2E2E2E2E2E2E2BEE2E2E2E2E2E2E2E2E2E2E2E2E2E2E2E2E2F5E2E2E2E22DE2E2E2E2E2E2E2E2E2E2E2E2E2E2E2E2E2E2E2E2E2E2E2E2E22DE2E2E2E2E2F5E2E2
310
E2E2E2E2E2E2E2E2E2E2E2E2E2F5F5F5F5F5E2E2E2E2E2E2E2E2E2E2E2E2E2E2E2F5E2E20F0F0F0F0F0F0F0F0F0F0FF5F50FE2E2E2E2E2E2E2E2E2F5F5E2E2E2E2E2E2E2E2E2E2E2E2F5E2E2E2E228F528282828282828F528282828F50F0F0F0F0F0F0F0FE2E2E2F5E2E2E2E2E2E2E2E2E2E2E2E2E2E2E2F5F5BEF5F5E2E2
310
E2E2E2E2E2E2E2E2E2E2E2E2E2F5E2E2E2E22DE2E2E2E2E2E2E2E2E2E2E2E2E2E2E2E2E2E2E2E2E2E2E2E2E22DE2E2E2E2E2F5E2E2E2E2E2E2E2E2E2E2E2E2F5F5F5E2E2BEE2F5F5F5E2E2E2E2E2E2E2E2E2E2E2E2E2F5E2E20F0FE2E2E2E2E2E2E2E2F5E2E2F5E2E2E2E2E2E2E2E2F5F5E2E2E2E2E2E2E2E2E2E2E2E2E2E2
310
F5F5E228E2F5E2E2E2E2E2E2E2F5E2E2E2E2F5E2E2E2E2E2E20F0FE2E2E2F5E2E2E2E2E2E2E2E2E2E2E2E2E2F5F5E2E2BEE2E2F5F5E2E2E2E2E2E2E2E2E2E2E2E2E2F5E2E2E2E22DE2E2E2E2E2E2E2E2E2E2E2E2E2E2E2E2E2E2E2E2E2E2E2E2E22DE2E2E2E2E2F5E2E2E2E2E2E2E2E2E2E2E2F5F5E2E2E2E2BEE2E2E2E2F5
310
F5E2E2E2E2E2E2E2E2E2E2E2F5E2E20F0FE2E2E2E2E2E2E2E2F5E2E2F5E2E2E2E2E2E2E2F5E2E2E2E2E2E2E2E2E2E2E2E2E2E2E2E2E2F5F528E2F5E2E2E2E2E2E2E2F5E2E2E2E2F5E2E2E2E2E2E20F0FE2E2E2F5E2E2E2E2E2E2E2E2E2E2E2E2F5E2E2E2E2BEE2E2E2E2F5F5E2E2E2E2E2E2E2E2E2E2E2F5E2E2E2E22DE2E2
310
E2E2E2E2E2E2E2E2E2E2E2E2E2E2E2E2E2E2E2E2E2E2E22DE2E2E2E2E2F5E2E2E2E2E2E2E2E2E2E2F5F5E2E2E2E2E2BEE2E2E2E2E2F5F5E2E2E2E2E2E2E2E2E2E2F5E2E20FE2E2E2E2E2E2E2E2E2F5E2E2F5E2E2E2E2E2E2F5E2E2E2E2E2E2E2E2E2E2E2E2E2E2E2E2E2E2E2F528E2F5E2E2E2E2E2E2E2F5E2E2E2E2F5E2E2
310
E2E2E2E20FE2E2E2E2F5E2E2E2E2E2E2E2E2E2E2F5F5E2E2E2E2E2BEE2E2E2E2E2F5F5E2E2E2E2E2E2E2E2E2E2F5E2E2E2E22DE2E2E2E2E2E2E2E2E2E2E2E2E2E2E2E2E2E2E2E2E2E2E2E2E22DE2E2E2E2E2F5E2E2E2E2E2E2E2E2E2E2F5E2E2E2E2F5F5BEF5F5E2E2E2E2F5E2E2E2E2E2E2E2E2E2E2F5E2E20FE2E20F0F0F
310
0FBEBEF5F5BEBEF5BEBEBEBEBEBEF5BEBEBEBEBEBEBEBEBEBEBEBEBEBEBEBEBEBEBEF528BEF5BEBEBEBEBEBEBEF5BEBEBEBEF5BEBEE2E2E2E20FE2E2E2E2F5E2E2E2E2E2E2E2E2E2E2F5E2E2E2E2F5F5BEF5F5E2E2E2E2F5F5E2E2E2E2E2E2E2E2E2F5E2E2E2E22DE2E2E2E2E2E2E2E2E2E2E2E2E2E2E2E2E2E2E2E2E2E2E2
310
E2E22DE2E2E2E2E2F5E2E2E2E2E2E2E2E2E2F5E2E2E2E2F5E2E2BEE2F5F5E2E2E2E2F5E2E2E2E2E2E2E2E2E2F5E2E20FE2E2E20FE2BEBEE2F5F5E2E2F5E2E2E2E2E2F5F5E2E2E2E2E2E2E2E2E2E2E2E2E2E2E2E2E2E2E2E2F5E2F5E2E2E2E2E2E2E2F5E2E2E2E2F5E2BEE2E2E2E20FE2E2E2E2F5E2E2E2E2E2E2E2E2E2F5E2
310
E2E2E2F5F5E2BEE2E2F5E2E2E2E2F5E2E2E2E2E2E2E2E2E2F5E2E2E2E22DE2E2E2E2E2E2E2E2E2E2E2E2E2E2E2E2E2E2E2E2E2E2E2E2E22DE2E2E2E2E2F5E2E2E2E2E2E2E2E2E2F5E2E2E2F5E2E2E2BEE2E2E2F5E2E2E2F5E2E2E2E2E2E2E2E2E2F5E2E20FE2E20F0FE2BEBEE2F5F5E2E2F5E2E2E2E2E2F5E2E2E2E2E2E2E2
310
E2E2E2E2E2E2E2E2E2E2E2E2E2E2F5E2F5E2E2E2E2E2E2E2F5E2E2E2E2F5E2BEE2E20F0F0FE2E2E2E2F5E2E2E2E2E2E2E2E2E2F5E2E2E2F5E2E2E2BEE2E2E2F5E2E2E2F5E2E2E2E2E2E2E2E2E2F5E2E2E2E22DE2E2E2E2E2E2E2E2E2E2E2E2E2E2E2E2E2E2E2E2E2E2E2E2E22DE2E2E2E2E2F5E2E2E2E2E2E2E2E2F5F5E2E2
310
F5F5E2E2E2BEE2E2E2F5E2E2E2F5E2E2E2E2E2E2E2E2E2F50F0F0FE20F0F0FE2BEBEE2F5F5E2E2F5E2E2E2E2E2F5F5F5F5E2E2E2E2E2E2E2E2E2E2E2E2E2E2E2E2F5F5F5E2F5E2E2E2E2E2E2E2F5E2E2E2E2F5E2BEE2E20F0F0FE2E2E2E2F5E2E2E2E2E2E2E2E2E2F5E2E2E2F5E2E2E2BEE2E2E2F5F5E2E2E2F5E2E2E2E2E2
310
E2E2E2F5E2E2E2E22DE2E2E2E2E2E2E2E2E2E2E2E2E2E2E2E2E2E2E2E2E2E2E2E2E22DE2E2E2E2E2F5E2E2E2E2E2E2E2E2F5E2E2E2F5E2E2E2E2BEE2E2E2E2F5E2E2F5F5E2E2E2E2E2E2E2E2F50F0F0F0F0F0F0FE2BEBEE2F5F5E2E2F5E2E2E2E2E2F5F5F5F5E2E2E2E2E2E2E2E2E2E2E2E2E2E2E2F5F5F5F5E2F5E2E2E2E2
310
E2E2E2F5E2E2E2E2F5E2BEE2E20F0F0FE2E2E2E2F5E2E2E2E2E2E2E2E2F5E2E2E2F5E2E2E2E2BEE2E2E2E2F5E2E2E2F5E2E2E2E2E2E2E2E2F5E2E2E2E22DE2E2E2E2E2E2E2E2E2E2E2E2E2E2E2E2E2E2E2E2E2E2E2E2E22DE2E2E2E2E2F5E2E2E2E2E2E2E2E2F5BEBEBEBEBEBEBEBEBEBEBEBEBEBEBEBEBEF5E2E2E2E2E2E2
310
E2E2F50F0F0F0F0F0F0FBEBEBEBEBEBEBEBEBEBEBEBEBEBEBEBEBEBEBEBEBEBEBEBEBEBEBEBEBEBEBEBEBEBEBEBEBEBEBEBEBEBEBEBEBEBEBEBEBEBEBEBEBEBEBEBE0F0F0FE2E2E2E2F5E2E2E2E2E2E2E2BEBEBEBEBEBEBEBEBEBEBEBEBEBEBEBEBEBEBEBEBEE2E2E2E2E2E2E2F5E2E2E2E22DE2E2E2E2E2E2E2E2E2E2E2E2
310
E2E2E2E2E2E2E2E2E2E2E2E2E22DE2E2E2E2E2F5E2E2E2E2E2E2E2E2F5E2E2E2F5E2E2E2E2BEE2E2E2F5F5E2E2F5E2E2E2E2E2E2E2E2E2F50F0F0F0F0F0F0FE2BEBEE2F5F5E2E2F5E2E2E2E2E2F5F5F5F5E2E2E2E2E2E2E2E2E2E2E2E2E2E2E2F5F5F5F5E2F5E2E2E2E2E2E2E2F5E2E2E2E2F5E2BEE2E20F0F0FE2E2E2E2F5
310
E2E2E2E2E2E2E2E2F5F5E2E2F5F5E2E2E2BEE2E2E2E2F5E2E2E2F5E2E2E2E2E2E2E2E2F5E2E2E2E22DE2E2E2E2E2E2E2E2E2E2E2E2E2E2E2E2E2E2E2E2E2E2E2E2E22DE2E2E2E2E2F5E2E2E2E2E2E2E2E2E2F5E2E2E2F5E2E2E2BEE2E2E2F5E2E2E2F5E2E2E2E2E2E2E2E2E2F50F0F0F0F0F0F0FE2BEBEE2F5F5E2E2F5E2E2
310
E2E2E2F5E2E2E2E2E2E2E2E2E2E2E2E2E2E2E2E2E2E2E2E2E2F5E2F5E2E2E2E2E2E2E2F5E2E2E2E2F5E2BEE2E20F0F0FE2E2E2E2F5E2E2E2E2E2E2E2E2E2F5E2E2E2F5E2E2E2BEE2E2E2F5E2E2E2E2F5E2E2E2E2E2E2E2E2F5E2E2E2E22DE2E2E2E2E2E2E2E2E2E2E2E2E2E2E2E2E2E2E2E2E2E2E2E2E22DE2E2E2E2E2F5E2
310
E2E2E2E2E2E2E2E2F5E2E2E2F5F5E2E2BEE2E2F5F5E2E2E2F5E2E2E2E2E2E2E2E2E2F5E2E20FE2E20F0FE2BEBEE2F5F5E2E2F5E2E2E2E2E2F5E2E2E2E2E2E2E2E2E2E2E2E2E2E2E2E2E2E2E2E2E2F5E2F5E2E2E2E2E2E2E2F5E2E2E2E2F5E2BEE2E20F0F0FE2E2E2E2F5E2E2E2E2E2E2E2E2E2F5E2E2E2F5F5E2E2BEE2E2F5
310
F5E2E2E2F5E2E2E2E2E2E2E2E2E2F5E2E2E2E22DE2E2E2E2E2E2E2E2E2E2E2E2E2E2E2E2E2E2E2E2E2E2E2E2E22DE2E2E2E2E2F5E2E2E2E2E2E2E2E2E2F5F5E2E2E2F5F5E2BEF5F5F5E2E2E2F5F5E2E2E2E2E2E2E2E2E2F5E2E20FE2E2E20FE2BEBEE2F5F5E2E2F5E2E2E2E2E2E2F5E2E2E2E2E2E2E2E2E2E2E2E2E2E2E2E2
310
E2E2E2E2F5E2F5E2E2E2E2E2E2E2F5E2E2E2E2F5E2BEE2E2E2E20FE2E2E2E2F5E2E2E2E2E2E2E2E2E2F5F5E2E2E2F5F5F5BEE2F5F5E2E2E2E2F5E2E2E2E2E2E2E2E2E2F5E2E2E2E22DE2E2E2E2E2E2E2E2E2E2E2E2E2E2E2E2E2E2E2E2E2E2E2E2E22DE2E2E2E2E2F5E2E2E2E2E2E2E2E2E2E2F5E2E2E2E2E2F5BEF5E2E2E2
310
E2E2F5E2E2E2E2E2E2E2E2E2E2F5E2E20FE2E20F0F0F0FBEBEF5F5BEBEF5BEBEBEBEBEBEF5BEBEBEBEBEBEBEBEBEBEBEBEBEBEBEBEBEBEBEF528BEF5BEBEBEBEBEBEBEF5BEBEBEBEF50FBEE2E2E2E20FE2E2E2E2F5E2E2E2E2E2E2E2E2E2E2F5E2E2E2E2E2F5BEF5E2E2E2E2E2F5E2E2E2E2E2E2E2E2E2E2F5E2E2E2E22DE2
310
E2E2E2E2E2E2E2E2E2E2E2E2E2E2E2E2E2E2E2E2E2E2E2E22DE2E2E2E2E2F5E2E2E2E2E2E2E2E2E2E2F5F5E2E2E2E2E2BEE2E2E2E2E2F5E2E2E2E2E2E2E2E2E2E2E2F5E2E20FE2E2E2E2E2E2E2E2E2F5E2E2F5E2E2E2E2E2E2E2F5E2E2E2E2E2E2E2E2E2E2E2E2E2E2E2E2E2F5F528E2F5E2E2E2E2E2E2E2F5E2E2E2E2F50F
310
E2E2E2E2E20FE2E2E2E2F5E2E2E2E2E2E2E2E2E2E2E2F5E2E2E2E2E2BEE2E2E2E2E2F5E2E2E2E2E2E2E2E2E2E2E2F5E2E2E2E22DE2E2E2E2E2E2E2E2E2E2E2E2E2E2E2E2E2E2E2E2E2E2E2E2E22DE2E2E2E2E2F5E2E2E2E2E2E2E2E2E2E2E2E2F5F5E2E2E2BEE2E2E2F5F5E2E2E2E2E2E2E2E2E2E2E2E2F5E2E20F0FE2E2E2
310
E2E2E2E2E2F5E2E2F5E2E2E2E2E2E2E2F5F5E2E2E2E2E2E2E2E2E2E2E2E2E2E2E2F5F5E228E2F5E2E2E2E2E2E2E2F5E2E2E2E2F50FE2E2E2E2E20F0FE2E2E2F5E2E2E2E2E2E2E2E2E2E2E2E2F5F5E2E2E2BEE2E2E2F5F5F5E2E2E2E2E2E2E2E2E2E2E2F5E2E2E2E22DE2E2E2E2E2E2E2E2E2E2E2E2E2E2E2E2E2E2E2E2E2E2
310
E2E2E22DE2E2E2E2E2F5E2E2E2E2E2E2E2E2E2E2E2E2E2F5F5F5F5F5F5F5F5E2E2E2E2E2E2E2E2E2E2E2E2E2E2F5E2E20F0F0F0F0F0F0F0F0F0F0FF5F5F5E2E2E2E2E2E2E2E2F5F5E2E2E2E2E2E2E2E2E2E2E2E2E2E2F5F5BE0F28F5E2E2E2E2E2E2E2F5E2E2E2E2F50FE2E2E2E2E20F0FE2E2E2F5E2E2E2E2E2E2E2E2E2E2
310
E2E2E2F5F5F5F5BEE2F5F5F5E2E2E2E2E2E2E2E2E2E2E2E2E2F5E2E2E2E22DE2E2E2E2E2E2E2E2E2E2E2E2E2E2E2E2E2E2E2E2E2E2E2E2E22DE2E2E2E2E2F5E2E2E2E2E2E2E2E2E2E2E2E2E2E2E2E2E2E2E2E2E2E2E2E2E2E2E2E2E2E2E2E2E2E2E2F5E2E2E2E2E2E2E2E2E2E2E2E2E2E2E2F5E2E2E2E2E2E2E2E2E2F5F5E2
310
E2E2E2E2E2E2E2E2E2E2E2F5E2F5BEF528F528282828282828F528282828F50F0F0F0F0F0F0F0FE2E2E2F5E2E2E2E2E2E2E2E2E2E2E2E2E2E2E2E2F5BEF5E2E2E2E2E2E2E2E2E2E2E2E2E2E2E2E2F5E2E2E2E22DE2E2E2E2E2E2E2E2E2E2E2E2E2E2E2E2E2E2E2E2E2E2E2E2E22DE2E2E2E2E2F5E2E2E2E2E2E2E2E2E2E2E2
310
E2E2E2E2E2E2E2E2E2E2E2E2E2E2E2E2E2E2E2E2E2E2E2E2F5E2E2E2E2E2E2E2E2E2E2E2E2E2E2E2F5E2E2E2E2E2E2E2E2E2E2E2F5F5E2E2E2E2E2E2E2F5F5F5E2F5E2BEF5F5F5E2E2E2E2E2E2E2F5E2E2E2E2F5E20FE2E2E2E2E2E2E2E2E2F5E2E2E2E2E2E2E2E2E2E2E2E2E2E2E2E2E2E2E2E2E2E2E2E2E2E2E2E2E2E2E2
310
E2E2E2E2F5E2E2E2E22DE2E2E2E2E2E2E2E2E2E2E2E2E2E2E2E2E2E2E2E2E2E2E2E2E22DE2E2E2E2E2F5E2E2E2BEE2E2E2E2E2E2E2E2E2E2E2E2E2E2E2E2E2E2E2E2E2E2E2E2E2E2E2BEE2E2E2F5E2E2E2E2E2E2E2E2E2E2E2E2E2E2E2F5E2E2E2E2E2E2E2E2E2E2E2E2E2F5F5F5F5F5F5F5F5E2E2BEBEBE0FBEBEBEE2E2E2
310
E2E2E2E2F5E2E2E2E2F5E20FE2E2E2E2E2E2E2E2E2F5E2E2E2BEE2E2E2E2E2E2E2E2E2E2E2E2E2E2E2E2E2E2E2E2E2E2E2E2E2E2E2BEE2E2E2F5E2E2E2E22DE2E2E2E2E2E2E2E2E2E2E2E2E2E2E2E2E2E2E2E2E2E2E2E2E22DE2E2E2E2E2F5E2E2F5F5F5E2E2E2E2E2E2E2E2E2E2E2E2E2E2E2E2E2E2E2E2E2E2E2E2E2F5F5
310
F5E2E2F5E2E2E2E2E2E2E2E2E2E2E2E2E2E2E2F5E2E2E2E2E2E2E2E2E2E2E2E2E2E2E2E2E2E2E2E2E2E2E2F5F5E2BE0FF5F5E2E2E2E2E2E2E2F5E2E2E2E2F5E20FE2E2E2E2E2E2E2E2E2F5E2E20FBEF5F5E2E2E2E2E2E2E2E2E2E2E2E2E2E2E2E2E2E2E2E2E2E2E2F5F5BEF5F5E2F5E2E2E2E22DE2E2E2E2E2E2E2E2E2E2E2
310
E2E2E2E2E2E2E2E2E2E2E2E2E2E22DE2E2E2E2E2F5E2F5F5BEF5F5E2E2E2E2E2E2E2E2E2E2E2E2E2E2E2E2E2E2E2E2E2E2E2F5F5BEF5E2E2F5E2E2E2E2E2E2E2E2E2E2E2E2E2E2E2F5E2E2E2E2E2E2E2E2E2E2E2E2E2E2E2E2E2E2E2E2E2E2E2E2F5F5BEF5F5F5E2E2E2E2E2E2E2F5E2E2E2E2F5E2E20FE2E2E2E2E2E2E2E2
310
F5E2F5E2BEE2F5E2E2E2E2E2E2E2E2E2E2E2E2E2E2E2E2E2E2E2E2E2E2E2F5E2BEE2F5E2F5E2E2E2E22DE2E2E2E2E2E2E2E2E2E2E2E2E2E2E2E2E2E2E2E2E2E2E2E2E22DE2E2E2E2E2F5E2F5F50FBEF5BEE2E2E2E2E2E2E2E2E2E2E2E2E2E2E2E2E2E2E2E2E2BEF5BEBEF5BEE2F5E2E2E2E2E2E2E2E2E2E2E2E2E2E2E2F5E2
310
E2E2E2E2E2E2E2E2E2E2E2E2E2E2E2E2E2E2E2E2E2E2E2E20FBEF5E2F5F5F5F5F5F5F5F5F5E2E2E2E2F5E2E20FE2E2E2E2E2E2E2E2F5BEBEBEBEBEBEBEE2E2E2E2E2E2E2E2E2E2E2E2E2E2E2E2E2E2E2E2E2BEBEBEBEBEBEBEF5E2E2E2E22DE2E2E2E2E2E2E2E2E2E2E2E2E2E2E2E2E2E2E2E2E2E2E2E2E22DE2E2E2E2E2F5
310
E2E2F5F50FF5E2E2E2E2E2E2E2E2E2E2E2E2E2E2E2E2E2E2E2E2E2E2E2F5F5F5F5E2E2F5E2E2E2E2E2E2E2E2E2E2E2E2E2E2E2F5E2E2E2E2E2E2E2E2E2E2E2E2E2E2E2E2E2E2E2E2E2E2E2E20FE2E20FE2F5E2E2E2E2E2E2E2F5E2E2E2E2F5E2E20FE2E2E2E2E2E2E2E2F5E2F5F5BEF50FE2E2E2E2E2E2E2E2E2E2E2E2E2E2
310
E2E2E2E2E2E2E2E2E2F5F5BEF5F5E2F5E2E2E2E22DE2E2E2E2E2E2E2E2E2E2E2E2E2E2E2E2E2E2E2E2E2E2E2E2E22DE2E2E2E2E2F5E2E2E2BE0FE2E2E2E2E2E2E2E2E2E2E2E2E2E2E2E2E2E2E2E2E2E2E2E2E2E2BEE2E2E2F5E2E2E2E2E2E2E2E2E2E2E2E2E2E2E2F5E2E2E2E2E2E2E2E2E2E2E2E2E2E2E2E2E2E2E2E2E2E2
310
E2E20FE2E20FE2F5E2E2E2E2E2E2E2F5E2E2E2E2F5E2E20FE2E2E2E2E2E2E2E2F5E2E2E2BEF50F0FE2E2E2E2E2E2E2E2E2E2E2E2E2E2E2E2E2E2E2E2E2E2E2F5BEF5E2E2F5E2E2E2E22DE2E2E2E2E2E2E2E2E2E2E2E2E2E2E2E2E2E2E2E2E2E2E2E2E22DE2E2E2E2E2F5E2E2E2E20FE2E2E2E2E2E2E2E2E2E2E2E2E2E2E2E2
310
E2E2E2E2E2E2E2E2E2E2E2E2E2E2F5E2E2E2E2E2E2E2E2E2E2E2E2E2E2E2F5F5F5F5F5F5F5F5F5F5F5F5F5F5F5F5F5F5F5F5F5F5F5F50FF5F5F5F5F5F5E2E2E2E2E2E2E2F5F5F5F5F5F5E2E20FE2E2E2E2E2E2E2E2F5E2E2E2BEE2E20FE2E2E2E2E2E2E2E2E2E2E2E2E2E2E2E2E2E2E2E2E2E2E2E2BEE2E2E2F5E2E2E2E22D
310
E2E2E2E2E2E2E2E2E2E2E2E2E2E2E2E2E2E2E2E2E2E2E2E2E22DE2E2E2E2E2F5F5F5F5F5F50FF5F5F5F5F5F5F5F5F5F5F5F5F5F5F5F5F5F5F5F5F5F5F5F5F5F5F5F5F5E2E2E2E2E2E2E2E2E2E2E2E2E2E2E2E2F5F5F5F5F5F5F5F5F5F5F5F5F5F5F5F5F5F5F5F5F5F5F5F50FF5F5F5F5F5F5E2E2E2E2E2E2E2F5F5F5F5F5F5
310
E2E2E20FE2E2E2E2E2E2E2E2F5F5F5F5F5F50FF5F5F5F5F5F5F5F5F5F5F5F5F5F5F5F5F5F5F5F5F5F5F5F5F5F5F5F5F5E2E2E2E22DE2E2E2E2E2E2E2E2E2E2E2E2E2E2E2E2E2E2E2E2E2E2E2E2E22DE2E2E2E2E2E2E2E2E2E2E20FE2E2E2E2E2E2E2E2E2E2E2E2E2E2E2E2E2E2E2E2E2E2E2E2E2E2E2E2E2E2E2E2E2E2E2E2
310
E2E2E2E2E2E2E2E2E2E2E2E2E2E2E2E2E2E2E2E2E2E2E2E2E2E2E2E2E2E2E2E20FE2E2E2E20FE2E2E2E2E2E2E2E2E2E2E2E2E2E20FE2E2E20FE2E2E2E2E2E2E2E2E2E2E2E2E2E2E20FE2E2E2E2E2E2E2E2E2E2E2E2E2E2E2E2E2E2E2E2E2E2E2E2E2E2E2E2E2E2E2E22DE2E2E2E2E2E2E2E2E2E2E2E2E2E2E2E2E2E2E2E2E2
310
E2E2E2E22DE2E2E2E2E2E2E2E2E2E2E2E20FE2E2E2E2E2E2E2E2E2E2E2E2E2E2E2E2E2E2E2E2E2E2E2E2E2E2E2E2E2E2E2E2E2E2E2E2E2E2E2E2E2E2E2E2E2E2E2E2E2E2E2E2E2E2E2E2E2E2E2E2E2E2E2E2E2E2E20FE2E2E2E20FE2E2E2E2E2E2E2E2E2E2E2E2E2E20FE2E2E20FE2E2E2E2E2E2E2E2E2E2E2E2E2E2E2E20F
310
E2E2E2E2E2E2E2E2E2E2E2E2E2E2E2E2E2E2E2E2E2E2E2E2E2E2E2E2E2E2E22DE2E2E2E2E2E2E2E2E2E2E2E2E2E2E2E2E2E2E2E2E2E2E2E2E22DE2E2E2E2E2E2E2E2E2E2E2E20F0F0F0F0F0F0F0F0F0FE2E2E2E2E2E2E2E2E2E2E2E2E2E2E2E2E2E2E2E2E2E2E2E2E2E2E2E2E2E2E2E2E2E2E2E2E2E2E2E2E2E2E2E2E2E2E2
310
E2E2E2E2E2E2E2E2E2E20FE2E2E2E2E20FE2E2E2E2E2E2E2E2E2E2E2E2E2E20FE2E2E20FE2E2E2E2E2E2E2E2E2E2E2E2E2E2E2E20FE2E2E2E2E2E2E2E2E2E2E2E2E2E2E2E2E2E2E2E2E2E2E2E2E2E2E2E2E2E2E22DE2E2E2E2E2E2E2E2E2E2E2E2E2E2E2E2E2E2E2E2E2E2E2E2E22DE2E2E2E2E2E2E2E2E2E2E2E2E20FE20F
310
0F0F0F0F0F0FE2E2E2E2E2E2E2E2E2E2E2E2E2E2E2E2E2E2E2E2E2E2E2E2E2E2E2E2E2E2E2E2E2E2E2E2E2E2E2E2E2E2E2E2E2E2E2E2E2E2E2E2E2E2E2E2E20FE2E2E2E2E20FE2E2E2E2E2E2E2E2E2E2E2E2E2E20FE2E2E2E20FE2E2E2E2E2E2E2E2E2E2E2E2E2E2E2E20F0F0F0F0F0FE2E2E2E2E2E2E2E2E2E2E2E2E2E2E2
310
E2E2E2E2E2E2E2E2E2E22DE2E2E2E2E2E2E2E2E2E2E2E2E2E2E2E2E2E2E2E2E2E2E2E2E22DE2E2E2E2E2E2E2E2E2E2E2E2E2E2E2E2E2E2E2E2E2E2E2E2E2E2E2E2E2E2E2E2E2E2E2E2E2E2E2E2E2E2E2E2E2E2E2E2E2E2E2E2E2E2E2E2E2E2E2E2E2E2E2E2E2E2E2E2E2E2E2E2E2E20F0F0F0F0FE2E2E2E2E2E20FE2E2E2E2
310
E2E2E2E2E2E2E2E2E2E20FE2E2E2E20FE2E2E2E2E2E2E2E2E2E2E2E2E2E2E2E2E20F0F0F0F0FE2E2E2E2E2E2E2E2E2E2E2E2E2E2E2E2E2E2E2E2E2E2E2E2E22DE2E2E2E2E2E2E2E2E2E2E2E2E2E2E2E2E2E2E2E2E2E2E2E2E22DE2E2E2E2E2E2E2E2E2E2E2E2E2E2E2E2E2E2E2E2E2E2E2E2E2E2E2E2E2E2E2E2E2E2E2E2E2
310
E2E2E2E2E2E2E2E2E2E2E2E2E2E2E2E2E2E2E2E2E2E2E2E2E2E2E2E2E2E2E2E2E2E2E2E2E20F0F0F0F0FE2E2E2E2E2E20F0F0F0F0F0F0F0F0F0F0F0F0F0F0F0FE2E2E2E20F0F0F0F0F0F0F0F0F0FE2E2E2E2E2E2E2E20FE2E20F0FE2E2E2E2E2E2E2E2E2E2E2E2E2E2E2E2E2E2E2E2E2E2E2E2E22DE2E2E2E2E2E2E2E2E2E2
310
E2E2E2E2E2E2E2E2E2E2E2E2E2E2E22DE2E2E2E2E2E2E2E2E2E2E2E2E2E2E2E2E2E2E2E2E2E2E2E2E2E2E2E2E2E2E2E2E2E2E2E2E2E2E2E2E2E2E2E2E2E2E2E2E2E2E2E2E2E2E2E2E2E2E2E2E2E2E2E2E2E2E2E2E2E2E2E2E2E20F0F0F0FE2E2E2E2E2E2E20FE2E2E2E2E2E20F0FE2E2E2E2E2E20FE2E2E2E2E20F0F0F0F0F
310
0F0F0FE2E2E2E2E2E2E2E2E2E2E2E2E2E2E2E2E2E2E2E2E2E2E2E2E2E2E2E2E2E2E2E2E2E2E2E2E2E2E22DE2E2E2E2E2E2E2E2E2E2E2E2E2E2E2E2E2E2E2E2E2E2E2E2E22DE2E2E2E2E2E2E2E2E2E2E2E2E2E2E2E2E2E2E2E2E2E2E2E2E2E2E2E2E2E2E2E2E2E2E2E2E2E2E2E2E2E2E2E2E2E2E2E2E2E2E2E2E2E2E2E2E2E2
310
E2E2E2E2E2E2E2E2E2E2E2E2E2E2E2E2E2E2E2E2E2E2E2E2E2E2E2E2E2E2E2E2E2E20F0FE2E2E2E2E2E2E2E2E2E2E2E20F0FE2E2E2E2E20FE2E2E2E2E2E2E2E2E2E2E2E2E2E2E2E2E2E2E2E2E2E2E2E2E2E2E2E2E2E2E2E2E2E2E2E2E2E2E22DE2E2E2E2E2E2E2E2E2E2E2E2E2E2E2E2E2E2E2E2E2E2E2E2E22DE2E2E2E2E2
310
E2E2E2E2E2E2E2E2E2E2E2E2E2E2E2E2E2E2E2E2E2E2E2E2E2E2E2E2E2E2E2E2E2E2E2E2E2E2E2E2E2E2E2E2E2E2E2E2E2E2E2E2E2E2E2E2E2E2E2E2E2E2E2E2E2E2E2E2E2E2E2E2E2E2E2E2E2E2E2E2E2E2E2E2E2E2E2E2E2E2E2E2E2E2E2E2E2E2E2E2E2E2E2E2E2E2E2E2E2E2E2E2E2E2E2E2E2E2E2E2E2E2E2E2E2E2E2
310
E2E2E2E2E2E2E2E2E2E2E2E2E2E2E2E2E2E2E2E2E22DE2E2E2E2E2E2E2E2E2E2E2E2E2E2E2E2E2E2E2E2E2E2E2E2E22DE2E2E2E2E2E2E2E2E2E2E2E2E2E2E2E2E2E2E2E2E2E2E2E2E2E2E2E2E2E2E2E2E2E2E2E2E2E2E2E2E2E2E2E2E2E2E2E2E2E2E2E2E2E2E2E2E2E2E2E2E2E2E2E2E2E2E2E2E2E2E2E2E2E2E2E2E2E2E2
310
E2E2E2E2E2E2E2E2E2E2E2E2E2E2E2E2E2E2E2E2E2E2E2E2E2E2E2E2E2E2E2E2E2E2E2E2E2E2E2E2E2E2E2E2E2E2E2E2E2E2E2E2E2E2E2E2E2E2E2E2E2E2E2E2E2E2E2E2E2E2E2E2E2E22DE2E2E2E2E2E2E2E2E2E2E2E2E2E2E2E2E2E2E2E2E2E2E2E2E22DE2E2E2E2E2E2E2E2E2E2E2E2E2E2E2E2E2E2E2E2E2E2E2E2E2E2
310
E2E2E2E2E2E2E2E2E2E2E2E2E2E2E2E2E2E2E2E2E2E2E2E2E2E2E2E2E2E2E2E2E2E2E2E2E2E2E2E2E2E2E2E2E2E2E2E2E2E2E2E2E2E2E2E2E2E2E2E2E2E2E2E2E2E2E2E2E2E2E2E2E2E2E2E2E2E2E2E2E2E2E2E2E2E2E2E2E2E2E2E2E2E2E2E2E2E2E2E2E2E2E2E2E2E2E2E2E2E2E2E2E2E2E2E2E2E2E2E2E2E2E2E2E2E2E2
310
2DE2E2E2E2E2E2E2E2E2E2E2E2E2E2E2E2E2E2E2E2E2E2E2E2E22DE2E2E2E2E2E2E2E2E2E2E2E2E2E2E2E2E2E2E2E2E2E2E2E2E2E2E2E2E2E2E2E2E2E2E2E2E2E2E2E2E2E2E2E2E2E2E2E2E2E2E2E2E2E2E2E2E2E2E2E2E2E2E2E2E2E2E2E2E2E2E2E2E2E2E2E2E2E2E2E2E2E2E2E2E2E2E2E2E2E2E2E2E2E2E2E2E2E2E2E2
310
E2E2E2E2E2E2E2E2E2E2E2E2E2E2E2E2E2E2E2E2E2E2E2E2E2E2E2E2E2E2E2E2E2E2E2E2E2E2E2E2E2E2E2E2E2E2E2E2E2E2E2E2E22DE2E2E2E2E2E2E2E2E2E2E2E2E2E2E2E2E2E2E2E2E2E2E2E2E22DE2E2E2E2E2E2E2E2E2E2E2E2E2E2E2E2E2E2E2E2E2E2E2E2E2E2E2E2E2E2E2E2E2E2E2E2E2E2E2E2E2E2E2E2E2E2E2
310
E2E2E2E2E2E2E2E2E2E2E2E2E2E2E2E2E2E2E2E2E2E2E2E2E2E2E2E2E2E2E2E2E2E2E2E2E2E2E2E2E2E2E2E2E2E2E2E2E2E2E2E2E2E2E2E2E2E2E2E2E2E2E2E2E2E2E2E2E2E2E2E2E2E2E2E2E2E2E2E2E2E2E2E2E2E2E2E2E2E2E2E2E2E2E2E2E2E2E2E2E2E2E2E2E2E22DE2E2E2E2E2E2E2E2E2E2E2E2E2E2E2E2E2E2E2E2
310
E2E2E2E2E22DE2E2E2E2E2E2E2E2E2E2E2E2E2E2E2E2E2E2E2E2E2E2E2E2E2E2E2E2E2E2E2E2E2E2E2E2E2E2E2E2E2E2E2E2E2E2E2E2E2E2E2E2E2E2E2E2E2E2E2E2E2E2E2E2E2E2E2E2E2E2E2E2E2E2E2E2E2E2E2E2E2E2E2E2E2E2E2E2E2E2E2E2E2E2E2E2E2E2E2E2E2E2E2E2E2E2E2E2E2E2E2E2E2E2E2E2E2E2E2E2E2
310
E2E2E2E2E2E2E2E2E2E2E2E2E2E2E2E2E2E2E2E2E2E2E2E2E2E2E2E2E2E2E2E22DE2E2E2E2E2E2E2E2E2E2E2E2E2E2E2E2E2E2E2E2E2E2E2E2E22DE2E2E2E2E2E2E2E2E2E2E2E2E2E2E2E2E2E2E2E2E2E2E2E2E2E2E2E2E2E2E2E2E2E2E2E2E2E2E2E2E2E2E2E2E2E2E2E2E2E2E2E2E2E2E2E2E2E2E2E2E2E2E2E2E2E2E2E2
310
E2E2E2E2E2E2E2E2E2E2E2E2E2E2E2E2E2E2E2E2E2E2E2E2E2E2E2E2E2E2E2E2E2E2E2E2E2E2E2E2E2E2E2E2E2E2E2E2E2E2E2E2E2E2E2E2E2E2E2E2E2E2E2E2E2E2E2E2E2E2E2E2E2E2E2E2E2E2E2E2E2E2E2E2E22DE2E2E2E2E2E2E2E2E2E2E2E2E2E2E2E2E2E2E2E2E2E2E2E2E22DE2E2E2E2E2E2E2E2E2E2E2E2E2E2E2
310
E2E2E2E2E2E2E2E2E2E2E2E2E2E2E2E2E2E2E2E2E2E2E2E2E2E2E2E2E2E2E2E2E2E2E2E2E2E2E2E2E2E2E2E2E2E2E2E2E2E2E2E2E2E2E2E2E2E2E2E2E2E2E2E2E2E2E2E2E2E2E2E2E2E2E2E2E2E2E2E2E2E2E2E2E2E2E2E2E2E2E2E2E2E2E2E2E2E2E2E2E2E2E2E2E2E2E2E2E2E2E2E2E2E2E2E2E2E2E2E2E2E2E2E2E2E2E2
310
E2E2E2E2E2E2E2E2E2E2E22DE2E2E2E2E2E2E2E2E2E2E2E2E2E2E2E2E2E2E2E2E2E2E2E2E22DE2E2E2E2E2E2E2E2E2E2E2E2E2E2E2E2E2E2E2E2E2E2E2E2E2E2E2E2E2E2E2E2E2E2E2E2E2E2E2E2E2E2E2E2E2E2E2E2E2E2E2E2E2E2E2E2E2E2E2E2E2E2E2E2E2E2E2E2E2E2E2E2E2E2E2E2E2E2E2E2E2E2E2E2E2E2E2E2E2
310
E2E2E2E2E2E2E2E2E2E2E2E2E2E2E2E2E2E2E2E2E2E2E2E2E2E2E2E2E2E2E2E2E2E2E2E2E2E2E2E2E2E2E2E2E2E2E2E2E2E2E2E2E2E2E2E2E2E2E2E2E2E2E2E22DE2E2E2E2E2E2E2E2E2E2E2E2E2E2E2E2E2E2E2E2E2E2E2E2E22DE2E2E2E2E2E2E2E2E2E2E2E2E2E2E2E2E2E2E2E2E2E2E2E2E2E2E2E2E2E2E2E2E2E2E2E2
310
E2E2E2E2E2E2E2E2E2E2E2E2E2E2E2E2E2E2E2E2E2E2E2E2E2E2E2E2E2E2E2E2E2E2E2E2E2E2E2E2E2E2E2E2E2E2E2E2E2E2E2E2E2E2E2E2E2E2E2E2E2E2E2E2E2E2E2E2E2E2E2E2E2E2E2E2E2E2E2E2E2E2E2E2E2E2E2E2E2E2E2E2E2E2E2E2E2E2E2E2E2E2E2E2E2E2E2E2E2E2E2E2E2E2E2E2E22DE2E2E2E2E2E2E2E2E2
310
E2E2E2E2E2E2E2E2E2E2E2E2E2E2E2E22DE2E2E2E2E2E2E2E2E2E2E2E2E2E2E2E2E2E2E2E2E2E2E2E2E2E2E2E2E2E2E2E2E2E2E2E2E2E2E2E2E2E2E2E2E2E2E2E2E2E2E2E2E2E2E2E2E2E2E2E2E2E2E2E2E2E2E2E2E2E2E2E2E2E2E2E2E2E2E2E2E2E2E2E2E2E2E2E2E2E2E2E2E2E2E2E2E2E2E2E2E2E2E2E2E2E2E2E2E2E2
310
E2E2E2E2E2E2E2E2E2E2E2E2E2E2E2E2E2E2E2E2E2E2E2E2E2E2E2E2E2E2E2E2E2E2E2E2E2E2E2E2E2E2E22DE2E2E2E2E2E2E2E2E2E2E2E2E2E2E2E2E2E2E2E2E2E2E2E2E22DE2E2E2E2E2E2E2E2E2E2E2E2E2E2E2E2E2E2E2E2E2E2E2E2E2E2E2E2E2E2E2E2E2E2E2E2E2E2E2E2E2E2E2E2E2E2E2E2E2E2E2E2E2E2E2E2E2
310
E2E2E2E2E2E2E2E2E2E2E2E2E2E2E2E2E2E2E2E2E2E2E2E2E2E2E2E2E2E2E2E2E2E2E2E2E2E2E2E2E2E2E2E2E2E2E2E2E2E2E2E2E2E2E2E2E2E2E2E2E2E2E2E2E2E2E2E2E2E2E2E2E2E2E2E2E2E2E2E2E2E2E2E2E2E2E2E2E2E2E2E2E2E2E2E22DE2E2E2E2E2E2E2E2E2E2E2E2E2E2E2E2E2E2E2E2E2E2E2E2E22DE2E2E2E2
310
E2E2E2E2E2E2E2E2E2E2E2E2E2E2E2E2E2E2E2E2E2E2E2E2E2E2E2E2E2E2E2E2E2E2E2E2E2E2E2E2E2E2E2E2E2E2E2E2E2E2E2E2E2E2E2E2E2E2E2E2E2E2E2E2E2E2E2E2E2E2E2E2E2E2E2E2E2E2E2E2E2E2E2E2E2E2E2E2E2E2E2E2E2E2E2E2E2E2E2E2E2E2E2E2E2E2E2E2E2E2E2E2E2E2E2E2E2E2E2E2E2E2E2E2E2E2E2
310
E2E2E2E2E2E2E2E2E2E2E2E2E2E2E2E2E2E2E2E2E2E22DE2E2E2E2E2E2E2E2E2E2E2E2E2E2E2E2E2E2E2E2E2E2E2E2E22DE2E2E2E2E2E2E2E2E2E2E2E2E2E2E2E2E2E2E2E2E2E2E2E2E2E2E2E2E2E2E2E2E2E2E2E2E2E2E2E2E2E2E2E2E2E2E2E2E2E2E2E2E2E2E2E2E2E2E2E2E2E2E2E2E2E2E2E2E2E2E2E2E2E2E2E2E2E2
310
E2E2E2E2E2E2E2E2E2E2E2E2E2E2E2E2E2E2E2E2E2E2E2E2E2E2E2E2E2E2E2E2E2E2E2E2E2E2E2E2E2E2E2E2E2E2E2E2E2E2E2E2E2E2E2E2E2E2E2E2E2E2E2E2E2E2E2E2E2E2E2E2E2E2E22DE2E2E2E2E2E2E2E2E2E2E2E2E2E2E2E2E2E2E2E2E2E2E2E2E22DE2E2E2E2E2E2E2E2E2E2E2E2E2E2E2E2E2E2E2E2E2E2E2E2E2
310
E2E2E2E2E2E2E2E2E2E2E2E2E2E2E2E2E2E2E2E2E2E2E2E2E2E2E2E2E2E2E2E2E2E2E2E2E2E2E2E2E2E2E2E2E2E2E2E2E2E2E2E2E2E2E2E2E2E2E2E2E2E2E2E2E2E2E2E2E2E2E2E2E2E2E2E2E2E2E2E2E2E2E2E2E2E2E2E2E2E2E2E2E2E2E2E2E2E2E2E2E2E2E2E2E2E2E2E2E2E2E2E2E2E2E2E2E2E2E2E2E2E2E2E2E2E2E2
310
E22DE2E2E2E2E2E2E2E2E2E2E2E2E2E2E2E2E2E2E2E2E2E2E2E2E22DE2E2E2E2E2E2E2E2E2E2E2E2E2E2E2E2E2E2E2E2E2E2E2E2E2E2E2E2E2E2E2E2E2E2E2E2E2E2E2E2E2E2E2E2E2E2E2E2E2E2E2E2E2E2E2E2E2E2E2E2E2E2E2E2E2E2E2E2E2E2E2E2E2E2E2E2E2E2E2E2E2E2E2E2E2E2E2E2E2E2E2E2E2E2E2E2E2E2E2
310
E2E2E2E2E2E2E2E2E2E2E2E2E2E2E2E2E2E2E2E2E2E2E2E2E2E2E2E2E2E2E2E2E2E2E2E2E2E2E2E2E2E2E2E2E2E2E2E2E2E2E2E2E2E22DE2E2E2E2E2E2E2E2E2E2E2E2E2E2E2E2E2E2E2E2E2E2E2E2E22DE2E2E2E2E2E2E2E2E2E2E2E2E2E2E2E2E2E2E2E2E2E2E2E2E2E2E2E2E2E2E2E2E2E2E2E2E2E2E2E2E2E2E2E2E2E2
310
E2E2E2E2E2E2E2E2E2E2E2E2E2E2E2E2E2E2E2E2E2E2E2E2E2E2E2E2E2E2E2E2E2E2E2E2E2E2E2E2E2E2E2E2E2E2E2E2E2E2E2E2E2E2E2E2E2E2E2E2E2E2E2E2E2E2E2E2E2E2E2E2E2E2E2E2E2E2E2E2E2E2E2E2E2E2E2E2E2E2E2E2E2E2E2E2E2E2E2E2E2E2E2E2E2E2E22DE2E2E2E2E2E2E2E2E2E2E2E2E2E2E2E2E2E2E2
310
E2E2E2E2E2E22DE2E2E2E2E2E2E2E2E2E2E2E2E2E2E2E2E2E2E2E2E2E2E2E2E2E2E2E2E2E2E2E2E2E2E2E2E2E2E2E2E2E2E2E2E2E2E2E2E2E2E2E2E2E2E2E2E2E2E2E2E2E2E2E2E2E2E2E2E2E2E2E2E2E2E2E2E2E2E2E2E2E2E2E2E2E2E2E2E2E2E2E2E2E2E2E2E2E2E2E2E2E2E2E2E2E2E2E2E2E2E2E2E2E2E2E2E2E2E2E2
310
E2E2E2E2E2E2E2E2E2E2E2E2E2E2E2E2E2E2E2E2E2E2E2E2E2E2E2E2E2E2E2E2E22DE2E2E2E2E2E2E2E2E2E2E2E2E2E2E2E2E2E2E2E2E2E2E2E2E22DE2E2E2E2E2E2E2E2E2E2E2E2E2E2E2E2E2E2E2E2E2E2E2E2E2E2E2E2E2E2E2E2E2E2E2E2E2E2E2E2E2E2E2E2E2E2E2E2E2E2E2E2E2E2E2E2E2E2E2E2E2E2E2E2E2E2E2
310
E2E2E2E2E2E2E2E2E2E2E2E2E2E2E2E2E2E2E2E2E2E2E2E2E2E2E2E2E2E2E2E2E2E2E2E2E2E2E2E2E2E2E2E2E2E2E2E2E2E2E2E2E2E2E2E2E2E2E2E2E2E2E2E2E2E2E2E2E2E2E2E2E2E2E2E2E2E2E2E2E2E2E2E2E2E22DE2E2E2E2E2E2E2E2E2E2E2E2E2E2E2E2E2E2E2E2E2E2E2E2E22DE2E2E2E2E2E2E2E2E2E2E2E2E2E2
310
E2E2E2E2E2E2E2E2E2E2E2E2E2E2E2E2E2E2E2E2E2E2E2E2E2E2E2E2E2E2E2E2E2E2E2E2E2E2E2E2E2E2E2E2E2E2E2E2E2E2E2E2E2E2E2E2E2E2E2E2E2E2E2E2E2E2E2E2E2E2E2E2E2E2E2E2E2E2E2E2E2E2E2E2E2E2E2E2E2E2E2E2E2E2E2E2E2E2E2E2E2E2E2E2E2E2E2E2E2E2E2E2E2E2E2E2E2E2E2E2E2E2E2E2E2E2E2
310
E2E2E2E2E2E2E2E2E2E2E2E22DE2E2E2E2E2E2E2E2E2E2E2E2E2E2E2E2E2E2E2E2E2E2E2E2E22DE2E2E2E2E2E2E2E2E2E2E2E2E2E2E2E2E2E2E2E2E2E2E2E2E2E2E2E2E2E2E2E2E2E2E2E2E2E2E2E2E2E2E2E2E2E2E2E2E2E2E2E2E2E2E2E2E2E2E2E2E2E2E2E2E2E2E2E2E2E2E2E2E2E2E2E2E2E2E2E2E2E2E2E2E2E2E2E2
310
E2E2E2E2E2E2E2E2E2E2E2E2E2E2E2E2E2E2E2E2E2E2E2E2E2E2E2E2E2E2E2E2E2E2E2E2E2E2E2E2E2E2E2E2E2E2E2E2E2E2E2E2E2E2E2E2E2E2E2E2E2E2E2E2E22DE2E2E2E2E2E2E2E2E2E2E2E2E2E2E2E2E2E2E2E2E2E2E2E2E22DE2E2E2E2E2E2E2E2E2E2E2E2E2E2E2E2E2E2E2E2E2E2E2E2E2E2E2E2E2E2E2E2E2E2E2
310
E2E2E2E2E2E2E2E2E2E2E2E2E2E2E2E2E2E2E2E2E2E2E2E2E2E2E2E2E2E2E2E2E2E2E2E2E2E2E2E2E2E2E2E2E2E2E2E2E2E2E2E2E2E2E2E2E2E2E2E2E2E2E2E2E2E2E2E2E2E2E2E2E2E2E2E2E2E2E2E2E2E2E2E2E2E2E2E2E2E2E2E2E2E2E2E2E2E2E2E2E2E2E2E2E2E2E2E2E2E2E2E2E2E2E2E2E2E22DE2E2E2E2E2E2E2E2
310
E2E2E2E2E2E2E2E2E2E2E2E2E2E2E2E2E22DE2E2E2E2E2E2E2E2E2E2E2E2E2E2E2E2E2E2E2E2E2E2E2E2E2E2E2E2E2E2E2E2E2E2E2E2E2E2E2E2E2E2E2E2E2E2E2E2E2E2E2E2E2E2E2E2E2E2E2E2E2E2E2E2E2E2E2E2E2E2E2E2E2E2E2E2E2E2E2E2E2E2E2E2E2E2E2E2E2E2E2E2E2E2E2E2E2E2E2E2E2E2E2E2E2E2E2E2E2
310
E2E2E2E2E2E2E2E2E2E2E2E2E2E2E2E2E2E2E2E2E2E2E2E2E2E2E2E2E2E2E2E2E2E2E2E2E2E2E2E2E2E2E2E22DE2E2E2E2E2E2E2E2E2E2E2E2E2E2E2E2E2E2E2E2E2E2E2E2E22D2D2D2D2D2D2D2D2D2D2D2D2D2D2D2D2D2D2D2D2D2D2D2D2D2D2D2D2D2D2D2D2D2D2D2D2D2D2D2D2D2D2D2D2D2D2D2D2D2D2D2D2D2D2D2D2D
310
2D2D2D2D2D2D2D2D2D2D2D2D2D2D2D2D2D2D2D2D2D2D2D2D2D2D2D2D2D2D2D2D2D2D2D2D2D2D2D2D2D2D2D2D2D2D2D2D2D2D2D2D2D2D2D2D2D2D2D2D2D2D2D2D2D2D2D2D2D2D2D2D2D2D2D2D2D2D2D2D2D2D2D2D2D2D2D2D2D2D2D2D2D2D2D2D2D2DE2E2E2E2E2E2E2E2E2E2E2E2E2E2E2E2E2E2E2E2E2E2E2E2E2E2E2E2E2
310
E2E2E2E2E2E2E2E2E2E2E2E2E2E2E2E2E2E2E2E2E2E2E2E2E2E2E2E2E2E2E2E2E2E2E2E2E2E2E2E2E2E2E2E2E2E2E2E2E2E2E2E2E2E2E2E2E2E2E2E2E2E2E2E2E2E2E2E2E2E2E2E2E2E2E2E2E2E2E2E2E2E2E2E2E2E2E2E2E2E2E2E2E2E2E2E2E2E2E2E2E2E2E2E2E2E2E2E2E2E2E2E2E2E2E2E2E2E2E2E2E2E2E2E2E2E2E2
310
E2E2E2E2E2E2E2E2E2E2E2E2E2E2E2E2E2E2E2E2E2E2E2E2E2E2E2E2E2E2E2E2E2E2E2E2E2E2E2E2E2E2E2E2E2E2E2E2E2E2E2E2E2E2E2E2E2E2E2E2E2E2E2E2E2E2E2E2E2E2E2E2E2E2E2E2E2E2E2E2E2E2E2E2E2E2E2E2E2E2E2E2E2E2E2E2E2E2E2E2E2E2E2E2E2E2E2E2E2E2E2E2E2E2E2E2E2E2E2E2E2E2E2E2E2E2E2
310
E2E2E2E2E2E2E2E2E2E2E2E2E2E2E2E2E2E2E2E2E2E2E2E2E2E2E2E2E2E2E2E2E2E2E2E2E2E2E2E2E2E2E2E2E2E2E2E2E2E2E2E2E2E2E2E2E2E2E2E2E2E2E2E2E2E2E2E2E2E2E2E2E2E2E2E2E2E2E2E2E2E2E2E2E2E2E2E2E2E2E2E2E2E2E2E2E2E2E2E2E2E2E2E2E2E2E2E2E2E2E2E2E2E2E2E2E2E2E2E2E2E2E2E2E2E2E2
310
E2E2E2E2E2E2E2E2E2E2E2E2E2E2E2E2E2E2E2E2E2E2E2E2E2E2E2E2E2E2E2E2E2E2E2E2E2E2E2E2E2E2E2E2E2E2E2E2E2E2E2E2E2E2E2E2E2E2E2E2E2E2E2E2E2E2E2E2E2E2E2E2E2E2E2E2E2E2E2E2E2E2E2E2E2E2E2E2E2E2E2E2E2E2E2E2E2E2E2E2E2E2E2E2E2E2E2E2E2E2E2E2E2E2E2E2E2E2E2E2E2E2E2E2E2E2E2
310
E2E2E2E2E2E2E2E2E2E2E2E2E2E2E2E2E2E2E2E2E2E2E2E2E2E2E2E2E2E2E2E2E2E2E2E2E2E2E2E2E2E2E2E2E2E2E2E2E2E2E2E2E2E2E2E2E2E2E2E2E2E2E2E2E2E2E2E2E2E2E2E2E2E2E2E2E2E2E2E2E2E2E2E2E2E2E2E2E2E2E2E2E2E2E2E2E2E2E2E2E2E2E2E2E2E2E2E2E2E2E2E2E2E2E2E2E2E2E2E2E2E2E2E2E2E2E2
310
E2E2E2E2E2E2E2E2E2E2E2E2E2E2E2E2E2E2E2E2E2E2E2E2E2E2E2E2E2E2E2E2E2E2E2E2E2E2E2E2E2E2E2E2E2E2E2E2E2E2E2E2E2E2E2E2E2E2E2E2E2E2E2E2E2E2E2E2E2E2E2E2E2E2E2E2E2E2E2E2E2E2E2E2E2E2E2E2E2E2E2E2E2E2E2E2E2E2E2E2E2E2E2E2E2E2E2E2E2E2E2E2E2E2E2E2E2E2E2E2E2E2E2E2E2E2E2
310
E2E2E2E2E2E2E2E2E2E2E2E2E2E2E2E2E2E2E2E2E2E2E2E2E2E2E2E2E2E2E2E2E2E2E2E2E2E2E2E2E2E2E2E2E2E2E2E2E2E2E2E2E2E2E2E2E2E2E2E2E2E2E2E2E2E2E2E2E2E2E2E2E2E2E2E2E2E2E2E2E2E2E2E2E2E2E2E2E2E2E2E2E2E2E2E2E2E2E2E2E2E2E2E2E2E2E2E2E2E2E2E2E2E2E2E2E2E2E2E2E2E2E2E2E2E2E2
310
E2E2E2E2E2E2E2E2E2E2E2E2E2E2E2E2E2E2E2E2E2E2E2E2E2E2E2E2E2E2E2E2E2E2E2E2E2E2E2E2E2E2E2E2E2E2E2E2E2E2E2E2E2E2E2E2E2E2E2E2E2E2E2E2E2E2E2E2E2E2E2E2E2E2E2E2E2E2E2E2E2E2E2E2E2E2E2E2E2E2E2E2E2E2E2E2E2E2E2E2E2E2E2E2E2E2E2E2E2E2E2E2E2E2E2E2E2E2E2E2E2E2E2E2E2E2E2
310
E2E2E2E2E2E2E2E2E2E2E2E2E2E2E2E2E2E2E2E2E2E2E2E2E2E2E2E2E2E2E2E2E2E2E2E2E2E2E2E2E2E2E2E2E2E2E2E2
  0
XRECORD
  5
135E
102
{ACAD_REACTORS
330
135D
102
}
330
135D
100
AcDbXrecord
280
     1
102
MATERIAL
148
0.0
149
0.0
149
0.0
 93
        0
 94
       63
282
     0
 72
     1
 77
     1
171
     1
175
     1
179
     1
273
     0
  0
ENDSEC
  0
EOF
