  0
SECTION
  2
HEADER
  9
$ACADVER
  1
AC1015
  9
$ACADMAINTVER
 70
    20
  9
$DWGCODEPAGE
  3
ANSI_950
  9
$INSBASE
 10
0.0
 20
0.0
 30
0.0
  9
$EXTMIN
 10
1.000000000000000E+20
 20
1.000000000000000E+20
 30
1.000000000000000E+20
  9
$EXTMAX
 10
-1.000000000000000E+20
 20
-1.000000000000000E+20
 30
-1.000000000000000E+20
  9
$LIMMIN
 10
0.0
 20
0.0
  9
$LIMMAX
 10
420.0
 20
297.0
  9
$ORTHOMODE
 70
     1
  9
$REGENMODE
 70
     1
  9
$FILLMODE
 70
     1
  9
$QTEXTMODE
 70
     0
  9
$MIRRTEXT
 70
     1
  9
$LTSCALE
 40
1.0
  9
$ATTMODE
 70
     1
  9
$TEXTSIZE
 40
1.0
  9
$TRACEWID
 40
1.0
  9
$TEXTSTYLE
  7
STANDARD
  9
$CLAYER
  8
0
  9
$CELTYPE
  6
BYLAYER
  9
$CECOLOR
 62
   256
  9
$CELTSCALE
 40
1.0
  9
$DISPSILH
 70
     0
  9
$DIMSCALE
 40
1.0
  9
$DIMASZ
 40
3.0
  9
$DIMEXO
 40
1.0
  9
$DIMDLI
 40
15.0
  9
$DIMRND
 40
0.0
  9
$DIMDLE
 40
0.0
  9
$DIMEXE
 40
1.0
  9
$DIMTP
 40
0.1
  9
$DIMTM
 40
0.1
  9
$DIMTXT
 40
3.5
  9
$DIMCEN
 40
0.0
  9
$DIMTSZ
 40
0.0
  9
$DIMTOL
 70
     0
  9
$DIMLIM
 70
     0
  9
$DIMTIH
 70
     0
  9
$DIMTOH
 70
     0
  9
$DIMSE1
 70
     0
  9
$DIMSE2
 70
     0
  9
$DIMTAD
 70
     1
  9
$DIMZIN
 70
     8
  9
$DIMBLK
  1

  9
$DIMASO
 70
     1
  9
$DIMSHO
 70
     1
  9
$DIMPOST
  1

  9
$DIMAPOST
  1
"
  9
$DIMALT
 70
     0
  9
$DIMALTD
 70
     2
  9
$DIMALTF
 40
0.0393701
  9
$DIMLFAC
 40
1.0
  9
$DIMTOFL
 70
     1
  9
$DIMTVP
 40
0.0
  9
$DIMTIX
 70
     0
  9
$DIMSOXD
 70
     0
  9
$DIMSAH
 70
     0
  9
$DIMBLK1
  1

  9
$DIMBLK2
  1

  9
$DIMSTYLE
  2
AM_ISO
  9
$DIMCLRD
 70
   256
  9
$DIMCLRE
 70
   256
  9
$DIMCLRT
 70
   256
  9
$DIMTFAC
 40
0.71
  9
$DIMGAP
 40
1.0
  9
$DIMJUST
 70
     0
  9
$DIMSD1
 70
     0
  9
$DIMSD2
 70
     0
  9
$DIMTOLJ
 70
     0
  9
$DIMTZIN
 70
     8
  9
$DIMALTZ
 70
     8
  9
$DIMALTTZ
 70
     0
  9
$DIMUPT
 70
     0
  9
$DIMDEC
 70
     2
  9
$DIMTDEC
 70
     8
  9
$DIMALTU
 70
     2
  9
$DIMALTTD
 70
     2
  9
$DIMTXSTY
  7
STANDARD
  9
$DIMAUNIT
 70
     0
  9
$DIMADEC
 70
     0
  9
$DIMALTRND
 40
0.0
  9
$DIMAZIN
 70
     2
  9
$DIMDSEP
 70
    46
  9
$DIMATFIT
 70
     3
  9
$DIMFRAC
 70
     0
  9
$DIMLDRBLK
  1

  9
$DIMLUNIT
 70
     2
  9
$DIMLWD
 70
    -1
  9
$DIMLWE
 70
    -1
  9
$DIMTMOVE
 70
     0
  9
$LUNITS
 70
     2
  9
$LUPREC
 70
     2
  9
$SKETCHINC
 40
1.0
  9
$FILLETRAD
 40
2.5
  9
$AUNITS
 70
     0
  9
$AUPREC
 70
     0
  9
$MENU
  1
.
  9
$ELEVATION
 40
0.0
  9
$PELEVATION
 40
0.0
  9
$THICKNESS
 40
0.0
  9
$LIMCHECK
 70
     0
  9
$CHAMFERA
 40
2.5
  9
$CHAMFERB
 40
2.5
  9
$CHAMFERC
 40
20.0
  9
$CHAMFERD
 40
0.0
  9
$SKPOLY
 70
     0
  9
$TDCREATE
 40
2454816.659313322
  9
$TDUCREATE
 40
2454816.325979989
  9
$TDUPDATE
 40
2455117.710923472
  9
$TDUUPDATE
 40
2455117.377590139
  9
$TDINDWG
 40
0.2956443403
  9
$TDUSRTIMER
 40
0.2956443403
  9
$USRTIMER
 70
     1
  9
$ANGBASE
 50
0.0
  9
$ANGDIR
 70
     0
  9
$PDMODE
 70
     0
  9
$PDSIZE
 40
0.0
  9
$PLINEWID
 40
0.0
  9
$SPLFRAME
 70
     0
  9
$SPLINETYPE
 70
     6
  9
$SPLINESEGS
 70
     8
  9
$HANDSEED
  5
3DE3
  9
$SURFTAB1
 70
     6
  9
$SURFTAB2
 70
     6
  9
$SURFTYPE
 70
     6
  9
$SURFU
 70
     6
  9
$SURFV
 70
     6
  9
$UCSBASE
  2

  9
$UCSNAME
  2

  9
$UCSORG
 10
0.0
 20
0.0
 30
0.0
  9
$UCSXDIR
 10
1.0
 20
0.0
 30
0.0
  9
$UCSYDIR
 10
0.0
 20
1.0
 30
0.0
  9
$UCSORTHOREF
  2

  9
$UCSORTHOVIEW
 70
     0
  9
$UCSORGTOP
 10
0.0
 20
0.0
 30
0.0
  9
$UCSORGBOTTOM
 10
0.0
 20
0.0
 30
0.0
  9
$UCSORGLEFT
 10
0.0
 20
0.0
 30
0.0
  9
$UCSORGRIGHT
 10
0.0
 20
0.0
 30
0.0
  9
$UCSORGFRONT
 10
0.0
 20
0.0
 30
0.0
  9
$UCSORGBACK
 10
0.0
 20
0.0
 30
0.0
  9
$PUCSBASE
  2

  9
$PUCSNAME
  2

  9
$PUCSORG
 10
0.0
 20
0.0
 30
0.0
  9
$PUCSXDIR
 10
1.0
 20
0.0
 30
0.0
  9
$PUCSYDIR
 10
0.0
 20
1.0
 30
0.0
  9
$PUCSORTHOREF
  2

  9
$PUCSORTHOVIEW
 70
     0
  9
$PUCSORGTOP
 10
0.0
 20
0.0
 30
0.0
  9
$PUCSORGBOTTOM
 10
0.0
 20
0.0
 30
0.0
  9
$PUCSORGLEFT
 10
0.0
 20
0.0
 30
0.0
  9
$PUCSORGRIGHT
 10
0.0
 20
0.0
 30
0.0
  9
$PUCSORGFRONT
 10
0.0
 20
0.0
 30
0.0
  9
$PUCSORGBACK
 10
0.0
 20
0.0
 30
0.0
  9
$USERI1
 70
     0
  9
$USERI2
 70
     0
  9
$USERI3
 70
     0
  9
$USERI4
 70
     0
  9
$USERI5
 70
     0
  9
$USERR1
 40
0.0
  9
$USERR2
 40
0.0
  9
$USERR3
 40
0.0
  9
$USERR4
 40
0.0
  9
$USERR5
 40
0.0
  9
$WORLDVIEW
 70
     1
  9
$SHADEDGE
 70
     3
  9
$SHADEDIF
 70
    70
  9
$TILEMODE
 70
     0
  9
$MAXACTVP
 70
    48
  9
$PINSBASE
 10
0.0
 20
0.0
 30
0.0
  9
$PLIMCHECK
 70
     0
  9
$PEXTMIN
 10
24.91694315271138
 20
9.020761247349241
 30
-0.0038020288658345
  9
$PEXTMAX
 10
390.0377990685072
 20
278.5086484079246
 30
159.2483396732887
  9
$PLIMMIN
 10
-5.027069091796875
 20
-6.805083274841308
  9
$PLIMMAX
 10
414.9195861816406
 20
290.1209115982056
  9
$UNITMODE
 70
     0
  9
$VISRETAIN
 70
     1
  9
$PLINEGEN
 70
     0
  9
$PSLTSCALE
 70
     1
  9
$TREEDEPTH
 70
  3020
  9
$CMLSTYLE
  2
STANDARD
  9
$CMLJUST
 70
     0
  9
$CMLSCALE
 40
1.0
  9
$PROXYGRAPHICS
 70
     1
  9
$MEASUREMENT
 70
     1
  9
$CELWEIGHT
370
    -1
  9
$ENDCAPS
280
     0
  9
$JOINSTYLE
280
     0
  9
$LWDISPLAY
290
     0
  9
$INSUNITS
 70
     4
  9
$HYPERLINKBASE
  1

  9
$STYLESHEET
  1

  9
$XEDIT
290
     1
  9
$CEPSNTYPE
380
     0
  9
$PSTYLEMODE
290
     1
  9
$FINGERPRINTGUID
  2
{CAC0B594-D082-4A08-878C-C7C0726FFACF}
  9
$VERSIONGUID
  2
{1D89C7DB-E1DC-4D05-86D0-25D6B3708F51}
  9
$EXTNAMES
290
     1
  9
$PSVPSCALE
 40
0.0
  9
$OLESTARTUP
290
     0
  0
ENDSEC
  0
SECTION
  2
CLASSES
  0
CLASS
  1
DICTIONARYVAR
  2
AcDbDictionaryVar
  3
ObjectDBX Classes
 90
        0
280
     0
281
     0
  0
CLASS
  1
ACMESTATEMGR
  2
AcMeStateMgr
  3
AcMeServices
 90
        0
280
     0
281
     0
  0
CLASS
  1
ACMESCOPE
  2
AcMeScope
  3
AcMeServices
 90
        0
280
     0
281
     0
  0
CLASS
  1
ACMECOMMANDHISTORY
  2
AcMeCommandHistory
  3
AcMeServices
 90
        0
280
     0
281
     0
  0
CLASS
  1
ACRFINSADJUSTERMGR
  2
AcRfInsAdjusterMgr
  3
AcMeServices
 90
        0
280
     0
281
     0
  0
CLASS
  1
ACMEDRAWINGMAN
  2
AcMeDrawingMan
  3
AcMeServices
 90
        0
280
     0
281
     0
  0
CLASS
  1
AMATTR
  2
AcMeAttribute
  3
AcMeServices
 90
    32768
280
     0
281
     0
  0
CLASS
  1
ACMEBOMCOLUMN
  2
AcMeBOMColumn
  3
AcMeServices
 90
    32768
280
     0
281
     0
  0
CLASS
  1
ACMEBOMCONF
  2
AcMeBOMConf
  3
AcMeServices
 90
    32768
280
     0
281
     0
  0
CLASS
  1
ACMEBOMTABLE
  2
AcMeBOMTable
  3
AcMeServices
 90
    32768
280
     0
281
     0
  0
CLASS
  1
ACMEBOMENTRY
  2
AcMeBOMEntry
  3
AcMeServices
 90
    32768
280
     0
281
     0
  0
CLASS
  1
ACMEVIEW
  2
AcMeView
  3
AcMeServices
 90
        0
280
     0
281
     0
  0
CLASS
  1
ACGREFMASTER
  2
AcGrefMaster
  3
AcAttribServices
 90
        0
280
     0
281
     0
  0
CLASS
  1
AMIMASTER
  2
AmiMaster
  3
AmiServices
 90
        0
280
     0
281
     0
  0
CLASS
  1
ACASGREFMASTER
  2
AcAsGrefMaster
  3
AutoSurfResolverServices
 90
        0
280
     0
281
     0
  0
CLASS
  1
ADAPPL
  2
AcAdAppl
  3
DesignerServices
 90
        0
280
     0
281
     0
  0
CLASS
  1
DEPMGR
  2
AcAdDepMgr
  3
DesignerServices
 90
        0
280
     0
281
     0
  0
CLASS
  1
PARAMMGR
  2
AcAdParamMgr
  3
DesignerServices
 90
        0
280
     0
281
     0
  0
CLASS
  1
PARAMSCOPE
  2
AcAdParamScope
  3
DesignerServices
 90
        0
280
     0
281
     0
  0
CLASS
  1
ACIMSYSVARMAN
  2
AcImSysVarManager
  3
AcMeServices
 90
        0
280
     0
281
     0
  0
CLASS
  1
ACIMINTSYSVAR
  2
AcImIntSysVar
  3
AcMeServices
 90
        0
280
     0
281
     0
  0
CLASS
  1
ACIMREALSYSVAR
  2
AcImRealSysVar
  3
AcMeServices
 90
        0
280
     0
281
     0
  0
CLASS
  1
ACIMSTRSYSVAR
  2
AcImStrSysVar
  3
AcMeServices
 90
        0
280
     0
281
     0
  0
CLASS
  1
NAMEDAPPL
  2
AcAdNamedAppl
  3
DesignerServices
 90
        0
280
     0
281
     0
  0
CLASS
  1
ADHNTMPLT
  2
AdHoleNoteTemplateMgr
  3
DesignerServices
 90
    32768
280
     0
281
     0
  0
CLASS
  1
AM_HNTEMPLATE_MGR_NAME
  2
AdHoleNoteTemplateMgrName
  3
DesignerServices
 90
    32768
280
     0
281
     0
  0
CLASS
  1
ACADGREFMODULE
  2
AcAdGrefModule
  3
AdGrefServices
 90
        0
280
     0
281
     0
  0
CLASS
  1
AM_DRAWING_MGR
  2
AcDmDwgMgr
  3
AcMechDwgViewMgmt
 90
        0
280
     0
281
     0
  0
CLASS
  1
AM_DWG_DOCUMENT
  2
AcDmDwgDocument
  3
AcMechDwgViewMgmt
 90
        0
280
     0
281
     0
  0
CLASS
  1
AM_DWG_SHEET
  2
AcDmSheet
  3
AcMechDwgViewMgmt
 90
        0
280
     0
281
     0
  0
CLASS
  1
AM_VIEWDIMPARMAP
  2
AcDmViewDimParMap
  3
AcMechDwgViewMgmt
 90
        0
280
     0
281
     0
  0
CLASS
  1
AM_DWGMGR_NAME
  2
AcDmDwgMgrName
  3
AcMechDwgViewMgmt
 90
        0
280
     0
281
     0
  0
CLASS
  1
ACAMPROJECT
  2
AcAmProject
  3
DesignerAssemblies
 90
        0
280
     0
281
     0
  0
CLASS
  1
ACAMGRCOMPSET
  2
AcAmGrCompSet
  3
DesignerAssemblies
 90
    32768
280
     1
281
     0
  0
CLASS
  1
ACAMGRCOMPDEFSET
  2
AcAmGrCompDefSet
  3
DesignerAssemblies
 90
        0
280
     0
281
     0
  0
CLASS
  1
ACAMGRCOMPDEF
  2
AcAmGrCompDef
  3
DesignerAssemblies
 90
        0
280
     0
281
     0
  0
CLASS
  1
ACCMCONTEXT
  2
AcCmContext
  3
DesignerAssemblies
 90
        0
280
     0
281
     0
  0
CLASS
  1
ACAMCOMPDEF
  2
AcAmCompDef
  3
DesignerAssemblies
 90
        0
280
     0
281
     0
  0
CLASS
  1
ACAMCOMPDEFMGR
  2
AcAmCompDefMgr
  3
DesignerAssemblies
 90
        0
280
     0
281
     0
  0
CLASS
  1
AMCONTEXTMGR
  2
AcAmContextMgr
  3
DesignerAssemblies
 90
        0
280
     0
281
     0
  0
CLASS
  1
ACAMCONTEXTMODELER
  2
AcAmContextModeler
  3
DesignerAssemblies
 90
        0
280
     0
281
     0
  0
CLASS
  1
ACDMVIEWGEOM
  2
AcDmViewGeometry
  3
AcMechDwgViewMgmt
 90
    32768
280
     0
281
     1
  0
CLASS
  1
CBROWSERAPPOBJECT
  2
CBrowserAppObject
  3
McadcomServices
 90
        0
280
     0
281
     0
  0
CLASS
  1
IM_STATIC_MAN
  2
AcImStaticVarManager
  3
AcMeServices
 90
        0
280
     0
281
     0
  0
CLASS
  1
ASAPP
  2
AcAsAppObject
  3
AutoSurfServices
 90
        0
280
     0
281
     0
  0
CLASS
  1
ACIMDBLSTATICVAR
  2
AcImDblStaticVar
  3
AcMeServices
 90
        0
280
     0
281
     0
  0
CLASS
  1
ACIMSTRSTATICVAR
  2
AcImStrStaticVar
  3
AcMeServices
 90
        0
280
     0
281
     0
  0
CLASS
  1
ACIMINTSTATICVAR
  2
AcImIntStaticVar
  3
AcMeServices
 90
        0
280
     0
281
     0
  0
CLASS
  1
CATALOGSTATE
  2
AcAmCatalogState
  3
DesignerAssemblies
 90
        0
280
     0
281
     0
  0
CLASS
  1
DM_PLACEHOLDER
  2
AcDmSelsetPlaceholder
  3
AcMechDwgViewMgmt
 90
        0
280
     0
281
     0
  0
CLASS
  1
LAYER_INDEX
  2
AcDbLayerIndex
  3
ObjectDBX Classes
 90
        0
280
     0
281
     0
  0
CLASS
  1
IDBUFFER
  2
AcDbIdBuffer
  3
ObjectDBX Classes
 90
        0
280
     0
281
     0
  0
CLASS
  1
ACMSTANDARDJIS
  2
AcmStandardJIS
  3
"Amdt_StdImp|Product Description: AutoCAD Mechanical 2004 DX|Company: Autodesk"
 90
    32768
280
     0
281
     0
  0
CLASS
  1
ACMSTANDARDANSI
  2
AcmStandardANSI
  3
"Amdt_StdImp|Product Description: AutoCAD Mechanical 2004 DX|Company: Autodesk"
 90
    32768
280
     0
281
     0
  0
CLASS
  1
ACMSTANDARDBSI
  2
AcmStandardBSI
  3
"Amdt_StdImp|Product Description: AutoCAD Mechanical 2004 DX|Company: Autodesk"
 90
    32768
280
     0
281
     0
  0
CLASS
  1
ACMSTANDARDDIN
  2
AcmStandardDIN
  3
"Amdt_StdImp|Product Description: AutoCAD Mechanical 2004 DX|Company: Autodesk"
 90
    32768
280
     0
281
     0
  0
CLASS
  1
ACMSTANDARDISO
  2
AcmStandardISO
  3
"Amdt_StdImp|Product Description: AutoCAD Mechanical 2004 DX|Company: Autodesk"
 90
        0
280
     0
281
     0
  0
CLASS
  1
ACDBDICTIONARYWDFLT
  2
AcDbDictionaryWithDefault
  3
ObjectDBX Classes
 90
        0
280
     0
281
     0
  0
CLASS
  1
ACDBPLACEHOLDER
  2
AcDbPlaceHolder
  3
ObjectDBX Classes
 90
        0
280
     0
281
     0
  0
CLASS
  1
LAYOUT
  2
AcDbLayout
  3
ObjectDBX Classes
 90
        0
280
     0
281
     0
  0
CLASS
  1
ACME_DOCUMENT
  2
AcMeDbDoc
  3
AcMeServices
 90
        0
280
     0
281
     0
  0
CLASS
  1
AMGSETTINGSOBJ
  2
AmgSettingsObj
  3
"AcadM|Product Description: AutoCAD Mechanical 2000|Company: Autodesk"
 90
        0
280
     0
281
     0
  0
CLASS
  1
AMGOBJPROPCFG
  2
AmgObjPropCfg
  3
"AmgLay|Product Description: AutoCAD Mechanical 2000|Company: Autodesk"
 90
        1
280
     0
281
     0
  0
CLASS
  1
ACDBENTITYCACHE
  2
AcMeEntityCache
  3
AcMeServices
 90
        0
280
     0
281
     0
  0
CLASS
  1
GSMANAGER
  2
AcMeGSManager
  3
AcMeServices
 90
        0
280
     0
281
     0
  0
CLASS
  1
AMDTINTERNALREACTOR
  2
AmdtInternalReactor
  3
AcMeServices
 90
        0
280
     0
281
     0
  0
CLASS
  1
ACME_DATABASE
  2
AcMeDbDatabase
  3
AcMeServices
 90
        0
280
     0
281
     0
  0
CLASS
  1
ACGREFACADMASTER
  2
AcGrefacadMaster
  3
AcGrefServices
 90
        0
280
     0
281
     0
  0
CLASS
  1
AMDTMENUSTATEMGR
  2
AmdtMenuStateMgr
  3
McadcomServices
 90
        0
280
     0
281
     0
  0
CLASS
  1
AMDTMCOMMENUSTATE
  2
AmdtMcomMenuState
  3
McadcomServices
 90
        0
280
     0
281
     0
  0
CLASS
  1
MAPIADMODULE
  2
MApiAdModule
  3
MApiAdServices
 90
        0
280
     0
281
     0
  0
CLASS
  1
AMDTDMMENUSTATE
  2
AmdtDmMenuState
  3
AcMechDwgViewMgmt
 90
        0
280
     0
281
     0
  0
CLASS
  1
AMDTADMENUSTATE
  2
AmdtAdMenuState
  3
DesignerServices
 90
        0
280
     0
281
     0
  0
CLASS
  1
AMDTAMMENUSTATE
  2
AmdtAmMenuState
  3
DesignerAssemblies
 90
        0
280
     0
281
     0
  0
CLASS
  1
ACMDATADICTIONARY
  2
AcmDataDictionary
  3
"AcmSymBB|Product Description: AutoCAD Mechanical 2004 DX|Company: Autodesk"
 90
        0
280
     0
281
     0
  0
CLASS
  1
ACMDATAENTRYBLOCK
  2
AcmDataEntryBlock
  3
"AcmSymBB|Product Description: AutoCAD Mechanical 2004 DX|Company: Autodesk"
 90
        0
280
     0
281
     0
  0
CLASS
  1
ACMSURFSTANDARDJIS
  2
AcmSurfTextStdJIS
  3
"Amdt_StdImp|Product Description: AutoCAD Mechanical 2004 DX|Company: Autodesk"
 90
    32768
280
     0
281
     0
  0
CLASS
  1
ACMFCFSTANDARDJIS
  2
AcmFCFStdJIS
  3
"Amdt_StdImp|Product Description: AutoCAD Mechanical 2004 DX|Company: Autodesk"
 90
    32768
280
     0
281
     0
  0
CLASS
  1
ACMWELDSTANDARDJIS
  2
AcmWeldingStdJIS
  3
"Amdt_StdImp|Product Description: AutoCAD Mechanical 2004 DX|Company: Autodesk"
 90
    32768
280
     0
281
     0
  0
CLASS
  1
ACMIDSTANDARDJIS
  2
AcmIdStdJIS
  3
"Amdt_StdImp|Product Description: AutoCAD Mechanical 2004 DX|Company: Autodesk"
 90
    32768
280
     0
281
     0
  0
CLASS
  1
ACMDATUMSTANDARDJIS
  2
AcmDatumStdJIS
  3
"Amdt_StdImp|Product Description: AutoCAD Mechanical 2004 DX|Company: Autodesk"
 90
    32768
280
     0
281
     0
  0
CLASS
  1
ACMBOMSTANDARDJIS
  2
AcmBOMStdJIS
  3
"Amdt_StdImp|Product Description: AutoCAD Mechanical 2004 DX|Company: Autodesk"
 90
    32768
280
     0
281
     0
  0
CLASS
  1
ACMSURFSTANDARDANSI
  2
AcmSurfTextStdANSI
  3
"Amdt_StdImp|Product Description: AutoCAD Mechanical 2004 DX|Company: Autodesk"
 90
    32768
280
     0
281
     0
  0
CLASS
  1
ACMFCFSTANDARDANSI
  2
AcmFCFStdANSI
  3
"Amdt_StdImp|Product Description: AutoCAD Mechanical 2004 DX|Company: Autodesk"
 90
    32768
280
     0
281
     0
  0
CLASS
  1
ACMWELDSTANDARDANSI
  2
AcmWeldingStdANSI
  3
"Amdt_StdImp|Product Description: AutoCAD Mechanical 2004 DX|Company: Autodesk"
 90
    32768
280
     0
281
     0
  0
CLASS
  1
ACMIDSTANDARDANSI
  2
AcmIdStdANSI
  3
"Amdt_StdImp|Product Description: AutoCAD Mechanical 2004 DX|Company: Autodesk"
 90
    32768
280
     0
281
     0
  0
CLASS
  1
ACMDATUMSTANDARDANSI
  2
AcmDatumStdANSI
  3
"Amdt_StdImp|Product Description: AutoCAD Mechanical 2004 DX|Company: Autodesk"
 90
    32768
280
     0
281
     0
  0
CLASS
  1
ACMBOMSTANDARDANSI
  2
AcmBOMStdANSI
  3
"Amdt_StdImp|Product Description: AutoCAD Mechanical 2004 DX|Company: Autodesk"
 90
    32768
280
     0
281
     0
  0
CLASS
  1
ACMSURFSTANDARDBSI
  2
AcmSurfTextStdBSI
  3
"Amdt_StdImp|Product Description: AutoCAD Mechanical 2004 DX|Company: Autodesk"
 90
    32768
280
     0
281
     0
  0
CLASS
  1
ACMFCFSTANDARDBSI
  2
AcmFCFStdBSI
  3
"Amdt_StdImp|Product Description: AutoCAD Mechanical 2004 DX|Company: Autodesk"
 90
    32768
280
     0
281
     0
  0
CLASS
  1
ACMWELDSTANDARDBSI
  2
AcmWeldingStdBSI
  3
"Amdt_StdImp|Product Description: AutoCAD Mechanical 2004 DX|Company: Autodesk"
 90
    32768
280
     0
281
     0
  0
CLASS
  1
ACMIDSTANDARDBSI
  2
AcmIdStdBSI
  3
"Amdt_StdImp|Product Description: AutoCAD Mechanical 2004 DX|Company: Autodesk"
 90
    32768
280
     0
281
     0
  0
CLASS
  1
ACMDATUMSTANDARDBSI
  2
AcmDatumStdBSI
  3
"Amdt_StdImp|Product Description: AutoCAD Mechanical 2004 DX|Company: Autodesk"
 90
    32768
280
     0
281
     0
  0
CLASS
  1
ACMBOMSTANDARDBSI
  2
AcmBOMStdBSI
  3
"Amdt_StdImp|Product Description: AutoCAD Mechanical 2004 DX|Company: Autodesk"
 90
    32768
280
     0
281
     0
  0
CLASS
  1
AMDTEDGESTANDARDDIN
  2
AmdtEdgeStdDIN
  3
"Amdt_StdImp|Product Description: AutoCAD Mechanical 2004 DX|Company: Autodesk"
 90
    32768
280
     0
281
     0
  0
CLASS
  1
ACMSURFSTANDARDDIN
  2
AcmSurfTextStdDIN
  3
"Amdt_StdImp|Product Description: AutoCAD Mechanical 2004 DX|Company: Autodesk"
 90
    32768
280
     0
281
     0
  0
CLASS
  1
ACMFCFSTANDARDDIN
  2
AcmFCFStdDIN
  3
"Amdt_StdImp|Product Description: AutoCAD Mechanical 2004 DX|Company: Autodesk"
 90
    32768
280
     0
281
     0
  0
CLASS
  1
ACMWELDSTANDARDDIN
  2
AcmWeldingStdDIN
  3
"Amdt_StdImp|Product Description: AutoCAD Mechanical 2004 DX|Company: Autodesk"
 90
    32768
280
     0
281
     0
  0
CLASS
  1
ACMIDSTANDARDDIN
  2
AcmIdStdDIN
  3
"Amdt_StdImp|Product Description: AutoCAD Mechanical 2004 DX|Company: Autodesk"
 90
    32768
280
     0
281
     0
  0
CLASS
  1
ACMDATUMSTANDARDDIN
  2
AcmDatumStdDIN
  3
"Amdt_StdImp|Product Description: AutoCAD Mechanical 2004 DX|Company: Autodesk"
 90
    32768
280
     0
281
     0
  0
CLASS
  1
ACMBOMSTANDARDDIN
  2
AcmBOMStdDIN
  3
"Amdt_StdImp|Product Description: AutoCAD Mechanical 2004 DX|Company: Autodesk"
 90
    32768
280
     0
281
     0
  0
CLASS
  1
ACMSURFSTANDARDISO
  2
AcmSurfTextStdISO
  3
"Amdt_StdImp|Product Description: AutoCAD Mechanical 2004 DX|Company: Autodesk"
 90
        0
280
     0
281
     0
  0
CLASS
  1
ACMFCFSTANDARDISO
  2
AcmFCFStdISO
  3
"Amdt_StdImp|Product Description: AutoCAD Mechanical 2004 DX|Company: Autodesk"
 90
        0
280
     0
281
     0
  0
CLASS
  1
ACMWELDSTANDARDISO
  2
AcmWeldingStdISO
  3
"Amdt_StdImp|Product Description: AutoCAD Mechanical 2004 DX|Company: Autodesk"
 90
        0
280
     0
281
     0
  0
CLASS
  1
ACMIDSTANDARDISO
  2
AcmIdStdISO
  3
"Amdt_StdImp|Product Description: AutoCAD Mechanical 2004 DX|Company: Autodesk"
 90
        0
280
     0
281
     0
  0
CLASS
  1
ACMDATUMSTANDARDISO
  2
AcmDatumStdISO
  3
"Amdt_StdImp|Product Description: AutoCAD Mechanical 2004 DX|Company: Autodesk"
 90
        0
280
     0
281
     0
  0
CLASS
  1
ACMBOMSTANDARDISO
  2
AcmBOMStdISO
  3
"Amdt_StdImp|Product Description: AutoCAD Mechanical 2004 DX|Company: Autodesk"
 90
        0
280
     0
281
     0
  0
CLASS
  1
AMDTBROWSERDBTAB
  2
AmdtBrowserDbTab
  3
McadcomServices
 90
        0
280
     0
281
     0
  0
CLASS
  1
ACAMGFILTERDAT
  2
AcAmgFilterDat
  3
"AcadM|Product Description: AutoCAD Mechanical 2000|Company: Autodesk"
 90
    32768
280
     0
281
     0
  0
CLASS
  1
MAPIAMMOUDLE
  2
MApiAmModule
  3
MApiAmServices
 90
        0
280
     0
281
     0
  0
CLASS
  1
AMDTMAPISURFMOUDULE
  2
AmdtMApiSurfModule
  3
MApiSurfServices
 90
        0
280
     0
281
     0
  0
CLASS
  1
ACAMGLAYSTD
  2
AcAmgLayStd
  3
"AcAmgLayStd|Product Description: AutoCAD Mechanical 2000|Company: Autodesk"
 90
        0
280
     0
281
     0
  0
CLASS
  1
ACAMGDIMSTD
  2
AcAmgDimStd
  3
"AcAmgDimStd|Product Description: AutoCAD Mechanical 2000|Company: Autodesk"
 90
        0
280
     0
281
     0
  0
CLASS
  1
ACAMGTITLESTD
  2
AcAmgTitleStd
  3
"TITLEAPP"
 90
        0
280
     0
281
     0
  0
CLASS
  1
ACMDETAILSTANDARDJIS
  2
AmdtDetailSymStdJIS
  3
"Amdt_StdImp|Product Description: AutoCAD Mechanical 2004 DX|Company: Autodesk"
 90
    32768
280
     0
281
     0
  0
CLASS
  1
ACMSECTIONSTANDARDJIS
  2
AmdtSectionSymStdJIS
  3
"Amdt_StdImp|Product Description: AutoCAD Mechanical 2004 DX|Company: Autodesk"
 90
    32768
280
     0
281
     0
  0
CLASS
  1
ACMCENTERLINESTANDARDJIS
  2
AmdtCenterLineStdJIS
  3
"Amdt_StdImp|Product Description: AutoCAD Mechanical 2004 DX|Company: Autodesk"
 90
    32768
280
     0
281
     0
  0
CLASS
  1
ACMTHREADLINESTANDARDJIS
  2
AmdtThreadLineStdJIS
  3
"Amdt_StdImp|Product Description: AutoCAD Mechanical 2004 DX|Company: Autodesk"
 90
    32768
280
     0
281
     0
  0
CLASS
  1
ACMDETAILSTANDARDANSI
  2
AmdtDetailSymStdANSI
  3
"Amdt_StdImp|Product Description: AutoCAD Mechanical 2004 DX|Company: Autodesk"
 90
    32768
280
     0
281
     0
  0
CLASS
  1
ACMSECTIONSTANDARDANSI
  2
AmdtSectionSymStdANSI
  3
"Amdt_StdImp|Product Description: AutoCAD Mechanical 2004 DX|Company: Autodesk"
 90
    32768
280
     0
281
     0
  0
CLASS
  1
ACMCENTERLINESTANDARDANSI
  2
AmdtCenterLineStdANSI
  3
"Amdt_StdImp|Product Description: AutoCAD Mechanical 2004 DX|Company: Autodesk"
 90
    32768
280
     0
281
     0
  0
CLASS
  1
ACMTHREADLINESTANDARDANSI
  2
AmdtThreadLineStdANSI
  3
"Amdt_StdImp|Product Description: AutoCAD Mechanical 2004 DX|Company: Autodesk"
 90
    32768
280
     0
281
     0
  0
CLASS
  1
ACMDETAILSTANDARDBSI
  2
AmdtDetailSymStdBSI
  3
"Amdt_StdImp|Product Description: AutoCAD Mechanical 2004 DX|Company: Autodesk"
 90
    32768
280
     0
281
     0
  0
CLASS
  1
ACMSECTIONSTANDARDBSI
  2
AmdtSectionSymStdBSI
  3
"Amdt_StdImp|Product Description: AutoCAD Mechanical 2004 DX|Company: Autodesk"
 90
    32768
280
     0
281
     0
  0
CLASS
  1
ACMCENTERLINESTANDARDBSI
  2
AmdtCenterLineStdBSI
  3
"Amdt_StdImp|Product Description: AutoCAD Mechanical 2004 DX|Company: Autodesk"
 90
    32768
280
     0
281
     0
  0
CLASS
  1
ACMTHREADLINESTANDARDBSI
  2
AmdtThreadLineStdBSI
  3
"Amdt_StdImp|Product Description: AutoCAD Mechanical 2004 DX|Company: Autodesk"
 90
    32768
280
     0
281
     0
  0
CLASS
  1
ACMDETAILSTANDARDDIN
  2
AmdtDetailSymStdDIN
  3
"Amdt_StdImp|Product Description: AutoCAD Mechanical 2004 DX|Company: Autodesk"
 90
    32768
280
     0
281
     0
  0
CLASS
  1
ACMSECTIONSTANDARDDIN
  2
AmdtSectionSymStdDIN
  3
"Amdt_StdImp|Product Description: AutoCAD Mechanical 2004 DX|Company: Autodesk"
 90
    32768
280
     0
281
     0
  0
CLASS
  1
ACMCENTERLINESTANDARDDIN
  2
AmdtCenterLineStdDIN
  3
"Amdt_StdImp|Product Description: AutoCAD Mechanical 2004 DX|Company: Autodesk"
 90
    32768
280
     0
281
     0
  0
CLASS
  1
ACMTHREADLINESTANDARDDIN
  2
AmdtThreadLineStdDIN
  3
"Amdt_StdImp|Product Description: AutoCAD Mechanical 2004 DX|Company: Autodesk"
 90
    32768
280
     0
281
     0
  0
CLASS
  1
AMDTEDGESTANDARDISO
  2
AmdtEdgeStdISO
  3
"Amdt_StdImp|Product Description: AutoCAD Mechanical 2004 DX|Company: Autodesk"
 90
    32768
280
     0
281
     0
  0
CLASS
  1
ACMDETAILSTANDARDISO
  2
AmdtDetailSymStdISO
  3
"Amdt_StdImp|Product Description: AutoCAD Mechanical 2004 DX|Company: Autodesk"
 90
        0
280
     0
281
     0
  0
CLASS
  1
ACMSECTIONSTANDARDISO
  2
AmdtSectionSymStdISO
  3
"Amdt_StdImp|Product Description: AutoCAD Mechanical 2004 DX|Company: Autodesk"
 90
        0
280
     0
281
     0
  0
CLASS
  1
ACMCENTERLINESTANDARDISO
  2
AmdtCenterLineStdISO
  3
"Amdt_StdImp|Product Description: AutoCAD Mechanical 2004 DX|Company: Autodesk"
 90
        0
280
     0
281
     0
  0
CLASS
  1
ACMTHREADLINESTANDARDISO
  2
AmdtThreadLineStdISO
  3
"Amdt_StdImp|Product Description: AutoCAD Mechanical 2004 DX|Company: Autodesk"
 90
        0
280
     0
281
     0
  0
CLASS
  1
ACMNOTESTANDARDISO
  2
AmdtNoteStdISO
  3
"Amdt_StdImp|Product Description: AutoCAD Mechanical 2004 DX|Company: Autodesk"
 90
        0
280
     0
281
     0
  0
CLASS
  1
ACAMGHOLECHARTSTDISO
  2
AcAmgHoleChartStdISO
  3
ACMSYMBB_MODULE_NAME
 90
        0
280
     0
281
     0
  0
CLASS
  1
ACMNOTESTANDARDANSI
  2
AmdtNoteStdANSI
  3
"Amdt_StdImp|Product Description: AutoCAD Mechanical 2004 DX|Company: Autodesk"
 90
    32768
280
     0
281
     0
  0
CLASS
  1
AMDTNOTETEMPLATEDB
  2
AmdtNoteTemplateDB
  3
AMDT_STDIMP_MODULE_NAME
 90
        0
280
     0
281
     0
  0
CLASS
  1
ACAMGHOLECHARTSTDANSI
  2
AcAmgHoleChartStdANSI
  3
ACMSYMBB_MODULE_NAME
 90
    32768
280
     0
281
     0
  0
CLASS
  1
TABLESTYLE
  2
AcDbTableStyle
  3
ObjectDBX Classes
 90
     2047
280
     0
281
     0
  0
CLASS
  1
ACMBOM
  2
AcmBom
  3
"AcmSymBB|Product Description: AutoCAD Mechanical 2004 DX|Company: Autodesk"
 90
    32768
280
     0
281
     0
  0
CLASS
  1
AMDTFORMULAUPDATEDISPATCHER
  2
AmdtFormulaUpdateDispatcher
  3
AcMeServices
 90
    32768
280
     0
281
     0
  0
CLASS
  1
ACMPARTLIST
  2
AcmPartList
  3
"AcmSymBB|Product Description: AutoCAD Mechanical 2004 DX|Company: Autodesk"
 90
    33791
280
     0
281
     1
  0
CLASS
  1
VAACXREFPANELOBJECT
  2
VaAcXREFPanelObject
  3
VAAC_ADDIN
 90
    32768
280
     1
281
     0
  0
CLASS
  1
VAACIMAGEINVENTORY
  2
VaAcImageInventory
  3
VAAC_ADDIN
 90
    32768
280
     1
281
     0
  0
CLASS
  1
ACAMEXTERNALCOMPDEF
  2
AcAmExternalCompDef
  3
DesignerAssemblies
 90
    32768
280
     0
281
     0
  0
CLASS
  1
ACCMBODY
  2
AcCmBody
  3
DesignerAssemblies
 90
    32768
280
     0
281
     0
  0
CLASS
  1
ACAMCOMPENT
  2
AcAmCompEnt
  3
DesignerAssemblies
 90
    32768
280
     0
281
     1
  0
CLASS
  1
ACAMCOMPFEEDBACK
  2
AcAmCompFeedback
  3
DesignerAssemblies
 90
    32768
280
     0
281
     0
  0
CLASS
  1
ACAMCOMP
  2
AcAmComp
  3
DesignerAssemblies
 90
    32768
280
     0
281
     0
  0
CLASS
  1
ACAMCOMPENTCLONE
  2
AcAmCompEntClone
  3
DesignerAssemblies
 90
    32768
280
     0
281
     1
  0
CLASS
  1
ACAMCLONEREACTOR
  2
AcAmGrCompCloneReactor
  3
DesignerAssemblies
 90
    32768
280
     0
281
     0
  0
CLASS
  1
ACAMXREFCONTEXTMODELER
  2
AcAmXrefContextModeler
  3
DesignerAssemblies
 90
    32768
280
     0
281
     0
  0
CLASS
  1
ADPART
  2
AcAdPart
  3
DesignerServices
 90
    32768
280
     0
281
     1
  0
CLASS
  1
WORKPLANEDISPLAYMGR
  2
AcAdDisplayMgr
  3
DesignerServices
 90
    32768
280
     0
281
     0
  0
CLASS
  1
ADBASE
  2
AcAdBase
  3
DesignerServices
 90
    32768
280
     0
281
     0
  0
CLASS
  1
ADDATUMPLANEABS
  2
AcAdDatumPlaneAbs
  3
DesignerServices
 90
    32768
280
     0
281
     0
  0
CLASS
  1
ADDATUMAXISABS
  2
AcAdDatumAxisAbs
  3
DesignerServices
 90
    32768
280
     0
281
     0
  0
CLASS
  1
PARAM
  2
AcAdParam
  3
DesignerServices
 90
    32768
280
     0
281
     0
  0
CLASS
  1
BODYID
  2
AcAdBodyId
  3
DesignerServices
 90
    32768
280
     0
281
     0
  0
CLASS
  1
ADDATUMORIENTEDPLANE
  2
AcAdDatumOrientedPlane
  3
DesignerServices
 90
    32768
280
     0
281
     0
  0
CLASS
  1
ACADCONSGROUP
  2
AcAdConstraintGroup
  3
DesignerServices
 90
    32768
280
     0
281
     0
  0
CLASS
  1
ACADREFLINEACAD
  2
AcAdVirtualReferenceLine
  3
DesignerServices
 90
    32768
280
     0
281
     0
  0
CLASS
  1
ACADCONSLINE
  2
AcAdConstrainedLine
  3
DesignerServices
 90
    32768
280
     0
281
     0
  0
CLASS
  1
ACADLINEACAD
  2
AcAdVirtualBoundedLineAcad
  3
DesignerServices
 90
    32768
280
     0
281
     0
  0
CLASS
  1
ACADCONSPOINT
  2
AcAdConstrainedPoint
  3
DesignerServices
 90
    32768
280
     0
281
     0
  0
CLASS
  1
ADPCURCNS
  2
AcAdPointCurveConstr
  3
DesignerServices
 90
    32768
280
     0
281
     0
  0
CLASS
  1
ADHORCNS
  2
AcAdHorizontalConstr
  3
DesignerServices
 90
    32768
280
     0
281
     0
  0
CLASS
  1
ADVERCNS
  2
AcAdVerticalConstr
  3
DesignerServices
 90
    32768
280
     0
281
     0
  0
CLASS
  1
ACAD_FIXCONSTRAINT
  2
AcAdFixedConstraint
  3
DesignerServices
 90
    32768
280
     0
281
     0
  0
CLASS
  1
ADHDISTCNS
  2
AcAdHorizontalDistanceConstr
  3
DesignerServices
 90
    32768
280
     0
281
     0
  0
CLASS
  1
ADVDISTCNS
  2
AcAdVerticalDistanceConstr
  3
DesignerServices
 90
    32768
280
     0
281
     0
  0
CLASS
  1
ACADIMPPTACAD
  2
AcAdVirtualImplicitPoint
  3
DesignerServices
 90
    32768
280
     0
281
     0
  0
CLASS
  1
ADCLPROF2D
  2
AcAdClosedProfile2d
  3
DesignerServices
 90
    32768
280
     0
281
     0
  0
CLASS
  1
DEPEDGEFEATUREORDERING
  2
AcAdDepEdgeFeatureOrdering
  3
DesignerServices
 90
    32768
280
     0
281
     0
  0
CLASS
  1
ACADVOLFEATWITHTRIM
  2
AcAdVolFeatWithTrim
  3
DesignerServices
 90
    32768
280
     0
281
     0
  0
CLASS
  1
ADPLANEID
  2
AcAdPlaneId
  3
DesignerServices
 90
    32768
280
     0
281
     0
  0
CLASS
  1
EDGEID
  2
AcAdEdgeId
  3
DesignerServices
 90
    32768
280
     0
281
     0
  0
CLASS
  1
CNRREFID
  2
AcAdCornerId
  3
DesignerServices
 90
    32768
280
     0
281
     0
  0
CLASS
  1
STREFID
  2
AcAdStraightRefId
  3
DesignerServices
 90
    32768
280
     0
281
     0
  0
CLASS
  1
ADDATUMPLANEFACE
  2
AcAdDatumPlaneFace
  3
DesignerServices
 90
    32768
280
     0
281
     0
  0
CLASS
  1
DATUMPLANEDISPLAY
  2
AcAdDatumPlaneDisplay
  3
DesignerServices
 90
    32768
280
     0
281
     1
  0
CLASS
  1
ADDATUMPLANEOFFSET
  2
AcAdDatumPlaneOffset
  3
DesignerServices
 90
    32768
280
     0
281
     0
  0
CLASS
  1
ADACADANGCNS
  2
AcAdAcadAngleConstr
  3
DesignerServices
 90
    32768
280
     0
281
     0
  0
CLASS
  1
ACADLINEDEPID
  2
AcAdVirtualLineDepId
  3
DesignerServices
 90
    32768
280
     0
281
     0
  0
CLASS
  1
ADCOLNCNS
  2
AcAdColinearConstr
  3
DesignerServices
 90
    32768
280
     0
281
     0
  0
CLASS
  1
ACADPOINTDEPID
  2
AcAdVirtualPointDepId
  3
DesignerServices
 90
    32768
280
     0
281
     0
  0
CLASS
  1
ACADCIRCLEACAD
  2
AcAdVirtualCircleAcad
  3
DesignerServices
 90
    32768
280
     0
281
     0
  0
CLASS
  1
ACADCONSCIRCLE
  2
AcAdConstrainedCircle
  3
DesignerServices
 90
    32768
280
     0
281
     0
  0
CLASS
  1
ADCTRPTCNS
  2
AcAdCenterPointConstr
  3
DesignerServices
 90
    32768
280
     0
281
     0
  0
CLASS
  1
ADACADDIACNS
  2
AcAdAcadDiameterConstr
  3
DesignerServices
 90
    32768
280
     0
281
     0
  0
CLASS
  1
ACADARCACAD
  2
AcAdVirtualArcAcad
  3
DesignerServices
 90
    32768
280
     0
281
     0
  0
CLASS
  1
ADTANCNS
  2
AcAdTangentConstr
  3
DesignerServices
 90
    32768
280
     0
281
     0
  0
CLASS
  1
ADPARCNS
  2
AcAdParallelConstr
  3
DesignerServices
 90
    32768
280
     0
281
     0
  0
CLASS
  1
ADCONCCNS
  2
AcAdConcentricConstr
  3
DesignerServices
 90
    32768
280
     0
281
     0
  0
CLASS
  1
ADEQRADCNS
  2
AcAdEqualRadiusConstr
  3
DesignerServices
 90
    32768
280
     0
281
     0
  0
CLASS
  1
ADACADRADCNS
  2
AcAdAcadRadiusConstr
  3
DesignerServices
 90
    32768
280
     0
281
     0
  0
CLASS
  1
CIRREFID
  2
AcAdCircleRefId
  3
DesignerServices
 90
    32768
280
     0
281
     0
  0
CLASS
  1
ACADCIRCDEPID
  2
AcAdVirtualCircleDepId
  3
DesignerServices
 90
    32768
280
     0
281
     0
  0
CLASS
  1
ADFILLET
  2
AcAdFillet
  3
DesignerServices
 90
    32768
280
     0
281
     0
  0
CLASS
  1
ADSURFGEOMID
  2
AcAdSurfGeomId
  3
DesignerServices
 90
    32768
280
     0
281
     0
  0
CLASS
  1
DATUMAXISDISPLAY
  2
AcAdDatumAxisDisplay
  3
DesignerServices
 90
    32768
280
     0
281
     1
  0
CLASS
  1
ADDATUMAXISCENTER
  2
AcAdDatumAxisCenter
  3
DesignerServices
 90
    32768
280
     0
281
     0
  0
CLASS
  1
DEPEDGESECONDARYDEPID
  2
AcAdDepEdgeSecondaryDepId
  3
DesignerServices
 90
    32768
280
     0
281
     0
  0
CLASS
  1
ADDATUMPOINTAXISPLANE
  2
AcAdDatumPointAxisPlane
  3
DesignerServices
 90
    32768
280
     0
281
     0
  0
CLASS
  1
ADHOLEFEAT
  2
AcAdHoleFeat
  3
DesignerServices
 90
    32768
280
     0
281
     0
  0
CLASS
  1
ADDATUMPLANEAXISPLANE
  2
AcAdDatumPlaneAxisPlane
  3
DesignerServices
 90
    32768
280
     0
281
     0
  0
CLASS
  1
ACADBOUNDEDLINEDATUMID
  2
AcAdVirtualBoundedLineDatumId
  3
DesignerServices
 90
    32768
280
     0
281
     0
  0
CLASS
  1
OSTREFID
  2
AcAdOrientedStraightRefId
  3
DesignerServices
 90
    32768
280
     0
281
     0
  0
CLASS
  1
ADDATUMPOINT2EDGES
  2
AcAdDatumPoint2Edges
  3
DesignerServices
 90
    32768
280
     0
281
     0
  0
CLASS
  1
DEPEDGEPATTERNFEATURE
  2
AcAdDepEdgePatternFeature
  3
DesignerServices
 90
    32768
280
     0
281
     0
  0
CLASS
  1
ACADPATTNFEAT
  2
AcAdPatternFeat
  3
DesignerServices
 90
    32768
280
     0
281
     0
  0
CLASS
  1
SORTENTSTABLE
  2
AcDbSortentsTable
  3
ObjectDBX Classes
 90
        0
280
     0
281
     0
  0
CLASS
  1
ACAMGROUNDEDBASECOMP
  2
AcAmGroundedBaseComp
  3
DesignerAssemblies
 90
    32768
280
     0
281
     0
  0
CLASS
  1
ADPROJCNS
  2
AcAdProjectionConstr
  3
DesignerServices
 90
    32768
280
     0
281
     0
  0
CLASS
  1
ADPDISTCNS
  2
AcAdParallelDistanceConstr
  3
DesignerServices
 90
    32768
280
     0
281
     0
  0
CLASS
  1
DEPEDGEPATTERNINSTANCE
  2
AcAdDepEdgePatternInstance
  3
DesignerServices
 90
    32768
280
     0
281
     0
  0
CLASS
  1
ADPCOICNS
  2
AcAdPointCoincidenceConstr
  3
DesignerServices
 90
    32768
280
     0
281
     0
  0
CLASS
  1
ACADPARTLINEDGRES
  2
AcAdPartLinEdgRes
  3
AdGrefServices
 90
    32768
280
     0
281
     0
  0
CLASS
  1
ACRFINSADJ
  2
AcRfInsAdjuster
  3
AcMeServices
 90
    32768
280
     0
281
     0
  0
CLASS
  1
ACMEAXIS
  2
AcImAxisDisplay
  3
AcMeServices
 90
    32768
280
     0
281
     1
  0
CLASS
  1
FACEID
  2
AcAdFaceId
  3
DesignerServices
 90
    32768
280
     0
281
     0
  0
CLASS
  1
ACADPARTPLANARFACERES
  2
AcAdPartPlanarFaceRes
  3
AdGrefServices
 90
    32768
280
     0
281
     0
  0
CLASS
  1
ACMELINEARARROW
  2
AcImLinearArrowDisplay
  3
AcMeServices
 90
    32768
280
     0
281
     1
  0
CLASS
  1
ACADPARTCIRCEDGRES
  2
AcAdPartCircEdgRes
  3
AdGrefServices
 90
    32768
280
     0
281
     0
  0
CLASS
  1
ACADPARTCYLINDERFACERES
  2
AcAdPartCylinderFaceRes
  3
AdGrefServices
 90
    32768
280
     0
281
     0
  0
CLASS
  1
ACAMEXPR
  2
AcAmExpr
  3
DesignerAssemblies
 90
    32768
280
     0
281
     0
  0
CLASS
  1
ACCMDISTPLPL
  2
AcCmDistPlPl
  3
DesignerAssemblies
 90
    32768
280
     0
281
     0
  0
CLASS
  1
ACCMCONSTREACTOR
  2
AcCmConstraintReactor
  3
DesignerAssemblies
 90
    32768
280
     0
281
     0
  0
CLASS
  1
ACCMDISTLNLN
  2
AcCmDistLnLn
  3
DesignerAssemblies
 90
    32768
280
     0
281
     0
  0
CLASS
  1
ACCMANGVECVEC
  2
AcCmAngVecVec
  3
DesignerAssemblies
 90
    32768
280
     0
281
     0
  0
CLASS
  1
ACAMBLANKBODYCOMP
  2
AcAmBlankBodyComp
  3
DesignerAssemblies
 90
    32768
280
     0
281
     0
  0
CLASS
  1
ACAMTOOLBODYCOMP
  2
AcAmToolBodyComp
  3
DesignerAssemblies
 90
    32768
280
     0
281
     0
  0
CLASS
  1
ADPARAMETRICBOOLEAN
  2
AcAdParametricBoolean
  3
DesignerServices
 90
    32768
280
     0
281
     0
  0
CLASS
  1
DEPEDGEPARAMETRCBOOLORDERING
  2
AcAdDepEdgeParametricBooleanOrdering
  3
DesignerServices
 90
    32768
280
     0
281
     0
  0
CLASS
  1
AMACTIVEPARTSELECTFILTER
  2
AcDmActivePartViewEntFilter
  3
DesignerServices
 90
    32768
280
     0
281
     0
  0
CLASS
  1
AM_GREF_PLANE
  2
AcDmGrefPlnDef
  3
AcMechDwgViewMgmt
 90
    32768
280
     0
281
     0
  0
CLASS
  1
AM_ABS_AXIS
  2
AcDmAbsAxisDef
  3
AcMechDwgViewMgmt
 90
    32768
280
     0
281
     0
  0
CLASS
  1
AM_BASE_VIEW_ORIENT
  2
AcDmBaseViewOr
  3
AcMechDwgViewMgmt
 90
    32768
280
     0
281
     0
  0
CLASS
  1
AM_DWG_VIEWPORT
  2
AcDmViewport
  3
AcMechDwgViewMgmt
 90
    32768
280
     0
281
     0
  0
CLASS
  1
AM_VIEW_DISPLAY
  2
AcDmDwgViewDisplay
  3
AcMechDwgViewMgmt
 90
    32768
280
     0
281
     0
  0
CLASS
  1
AM_CLDFLTS
  2
AcDmClDflts
  3
AcMechDwgViewMgmt
 90
    32768
280
     0
281
     0
  0
CLASS
  1
AM_BASE_VIEW
  2
AcDmBaseView
  3
AcMechDwgViewMgmt
 90
    32768
280
     0
281
     0
  0
CLASS
  1
ACMEPLINE
  2
AcImPlineDisplay
  3
AcMeServices
 90
    32768
280
     0
281
     1
  0
CLASS
  1
ACDMPARTVIEWDATA
  2
AcDmPartViewData
  3
AcMechDwgViewMgmt
 90
    32768
280
     0
281
     0
  0
CLASS
  1
ACDMDISPLAYATTRIBS
  2
AcDmDisplayAttribs
  3
AcMechDwgViewMgmt
 90
    32768
280
     0
281
     0
  0
CLASS
  1
ACDMBODYINSTANCEDATA
  2
AcDmBodyInstanceData
  3
AcMechDwgViewMgmt
 90
    32768
280
     0
281
     0
  0
CLASS
  1
ACDMVWEDLINE
  2
AcDmViewEdgeLine
  3
AcMechDwgViewMgmt
 90
    32768
280
     0
281
     1
  0
CLASS
  1
ACDMVWEDELLIPSE
  2
AcDmViewEdgeEllipse
  3
AcMechDwgViewMgmt
 90
    32768
280
     0
281
     1
  0
CLASS
  1
ACDMVWEDSPLINE
  2
AcDmViewEdgeSpline
  3
AcMechDwgViewMgmt
 90
    32768
280
     0
281
     1
  0
CLASS
  1
ACDMVWEDARC
  2
AcDmViewEdgeArc
  3
AcMechDwgViewMgmt
 90
    32768
280
     0
281
     1
  0
CLASS
  1
ACDMVWEDCIRC
  2
AcDmViewEdgeCircle
  3
AcMechDwgViewMgmt
 90
    32768
280
     0
281
     1
  0
CLASS
  1
ACADPARTPOINTRES
  2
AcAdPartPointRes
  3
AdGrefServices
 90
    32768
280
     0
281
     0
  0
CLASS
  1
ACADPARTSKETCHPLANEAXISRES
  2
AcAdPartSketchPlaneAxisRes
  3
DesignerServices
 90
    32768
280
     0
281
     0
  0
CLASS
  1
AM_VIEWDIMPARALLEL
  2
AcDmViewDimParallel
  3
AcMechDwgViewMgmt
 90
    32768
280
     0
281
     0
  0
CLASS
  1
AMDTDMPARMAPDATA
  2
AmdtDmDimParMapData
  3
AcMechDwgViewMgmt
 90
    32768
280
     0
281
     0
  0
CLASS
  1
ACADPARTPBPOINTRES
  2
AcAdPartPBPointRes
  3
AdGrefServices
 90
    32768
280
     0
281
     0
  0
CLASS
  1
ACADSKETCHPOINTRES
  2
AcAdSketchPointRes
  3
DesignerServices
 90
    32768
280
     0
281
     0
  0
CLASS
  1
AM_VIEWDIMLINEAR
  2
AcDmViewDimLinear
  3
AcMechDwgViewMgmt
 90
    32768
280
     0
281
     0
  0
CLASS
  1
ACADSKETCHCIRCARCRES
  2
AcAdSketchCircArcRes
  3
DesignerServices
 90
    32768
280
     0
281
     0
  0
CLASS
  1
AM_VIEWDIMDIAMETER
  2
AcDmViewDimDiameter
  3
AcMechDwgViewMgmt
 90
    32768
280
     0
281
     0
  0
CLASS
  1
ACADSKETCHLINERES
  2
AcAdSketchLineRes
  3
DesignerServices
 90
    32768
280
     0
281
     0
  0
CLASS
  1
AM_VIEWDIMANGULAR
  2
AcDmViewDimAngular
  3
AcMechDwgViewMgmt
 90
    32768
280
     0
281
     0
  0
CLASS
  1
AM_ADLINCTRLINE
  2
AcAdLineCl
  3
DesignerServices
 90
    32768
280
     0
281
     0
  0
CLASS
  1
AM_ADCIRCTRLINE
  2
AcAdBullsEyeCl
  3
DesignerServices
 90
    32768
280
     0
281
     0
  0
CLASS
  1
ACDBLINERES
  2
AcDbLineRes
  3
AcGrefServices
 90
    32768
280
     0
281
     0
  0
CLASS
  1
ACRFDMINSADJ
  2
AcRfDMInsAdjuster
  3
AcMechDwgViewMgmt
 90
    32768
280
     0
281
     0
  0
CLASS
  1
AM_ORTHO_VIEW_ORIENT
  2
AcDmOrthoViewOr
  3
AcMechDwgViewMgmt
 90
    32768
280
     0
281
     0
  0
CLASS
  1
AM_ORTHO_VIEW
  2
AcDmOrthoView
  3
AcMechDwgViewMgmt
 90
    32768
280
     0
281
     0
  0
CLASS
  1
AMDT_RADIAL_DIM
  2
AmdtRadialDimension
  3
AcMeServices
 90
    32768
280
     0
281
     1
  0
CLASS
  1
AM_VIEWDIMRADIUS
  2
AcDmViewDimRadius
  3
AcMechDwgViewMgmt
 90
    32768
280
     0
281
     0
  0
CLASS
  1
ACADPARTDATUMPOINTRES
  2
AcAdPartDatumPointRes
  3
AdGrefServices
 90
    32768
280
     0
281
     0
  0
CLASS
  1
AMDTEDGESTANDARDISO13715
  2
AmdtEdgeStdISO13715
  3
"Amdt_StdImp|Product Description: AutoCAD Mechanical 2004 DX|Company: Autodesk"
 90
        0
280
     0
281
     0
  0
CLASS
  1
DIMASSOC
  2
AcDbDimAssoc
  3
"AcDbDimAssoc|Product Desc:     AcDim ARX App For Dimension|Company:          Autodesk, Inc.|WEB Address:      www.autodesk.com"
 90
    32768
280
     0
281
     0
  0
CLASS
  1
MATERIAL
  2
AcDbMaterial
  3
ObjectDBX Classes
 90
        0
280
     0
281
     0
  0
CLASS
  1
ACRFATTGENMGR
  2
AcRfAttGeneralMgr
  3
AcAttribServices
 90
    32768
280
     0
281
     0
  0
ENDSEC
  0
SECTION
  2
TABLES
  0
TABLE
  2
VPORT
  5
1F
330
0
100
AcDbSymbolTable
 70
     1
  0
VPORT
  5
3773
330
1F
100
AcDbSymbolTableRecord
100
AcDbViewportTableRecord
  2
*Active
 70
     0
 10
0.0
 20
0.0
 11
1.0
 21
1.0
 12
-16384.0
 22
9.971098265895944E+18
 13
0.0
 23
0.0
 14
2.5
 24
2.5
 15
10.0
 25
10.0
 16
0.0
 26
0.0
 36
1.0
 17
0.0
 27
0.0
 37
0.0
 40
2.199421965317919E+20
 41
0.9093298291721419
 42
50.0
 43
0.0
 44
0.0
 50
0.0
 51
0.0
 71
     0
 72
   100
 73
     1
 74
     1
 75
     0
 76
     0
 77
     0
 78
     0
281
     0
 65
     1
110
0.0
120
0.0
130
0.0
111
1.0
121
0.0
131
0.0
112
0.0
122
1.0
132
0.0
 79
     0
146
0.0
  0
ENDTAB
  0
TABLE
  2
LTYPE
  5
1A
330
0
100
AcDbSymbolTable
 70
    16
  0
LTYPE
  5
1B
330
1A
100
AcDbSymbolTableRecord
100
AcDbLinetypeTableRecord
  2
BYBLOCK
 70
     0
  3

 72
    65
 73
     0
 40
0.0
  0
LTYPE
  5
1C
330
1A
100
AcDbSymbolTableRecord
100
AcDbLinetypeTableRecord
  2
BYLAYER
 70
     0
  3

 72
    65
 73
     0
 40
0.0
  0
LTYPE
  5
9
330
1A
100
AcDbSymbolTableRecord
100
AcDbLinetypeTableRecord
  2
CONTINUOUS
 70
     0
  3
Solid line
 72
    65
 73
     0
 40
0.0
  0
LTYPE
  5
38
330
1A
100
AcDbSymbolTableRecord
100
AcDbLinetypeTableRecord
  2
AM_ISO08W050x2
 70
     0
  3
__ . __ . __ . __ . __ . __
 72
    65
 73
     4
 40
9.0
 49
6.0
 74
     0
 49
-0.75
 74
     0
 49
1.5
 74
     0
 49
-0.75
 74
     0
  0
LTYPE
  5
264
330
1A
100
AcDbSymbolTableRecord
100
AcDbLinetypeTableRecord
  2
HIDDEN
 70
     0
  3
Hidden __ __ __ __ __ __ __ __ __ __ __ __ __ _
 72
    65
 73
     2
 40
9.524999999999998
 49
6.349999999999999
 74
     0
 49
-3.174999999999999
 74
     0
  0
LTYPE
  5
265
330
1A
100
AcDbSymbolTableRecord
100
AcDbLinetypeTableRecord
  2
PHANTOM2
 70
     0
  3
Phantom (.5x) ___ _ _ ___ _ _ ___ _ _ ___ _ _
 72
    65
 73
     6
 40
31.75
 49
15.875
 74
     0
 49
-3.174999999999999
 74
     0
 49
3.174999999999999
 74
     0
 49
-3.174999999999999
 74
     0
 49
3.174999999999999
 74
     0
 49
-3.174999999999999
 74
     0
  0
LTYPE
  5
266
330
1A
100
AcDbSymbolTableRecord
100
AcDbLinetypeTableRecord
  2
CENTER
 70
     0
  3
Center ____ _ ____ _ ____ _ ____ _ ____ _ ____
 72
    65
 73
     4
 40
50.8
 49
31.75
 74
     0
 49
-6.349999999999999
 74
     0
 49
6.349999999999999
 74
     0
 49
-6.349999999999999
 74
     0
  0
LTYPE
  5
29A
330
1A
100
AcDbSymbolTableRecord
100
AcDbLinetypeTableRecord
  2
AM_ISO02W050
 70
     0
  3
__ __ __ __ __ __ __ __ __ __ __ __ __ __ __
 72
    65
 73
     2
 40
7.5
 49
6.0
 74
     0
 49
-1.5
 74
     0
  0
LTYPE
  5
29B
330
1A
100
AcDbSymbolTableRecord
100
AcDbLinetypeTableRecord
  2
AM_ISO08W050
 70
     0
  3
____ . ____ . ____ . ____ . ____ . ____ . ____
 72
    65
 73
     4
 40
18.0
 49
12.0
 74
     0
 49
-1.5
 74
     0
 49
3.0
 74
     0
 49
-1.5
 74
     0
  0
LTYPE
  5
29C
330
1A
100
AcDbSymbolTableRecord
100
AcDbLinetypeTableRecord
  2
AM_ISO09W050
 70
     0
  3
_____ . . _____ . . _____ . . ____ .. ____
 72
    65
 73
     6
 40
22.5
 49
12.0
 74
     0
 49
-1.5
 74
     0
 49
3.0
 74
     0
 49
-1.5
 74
     0
 49
3.0
 74
     0
 49
-1.5
 74
     0
  0
LTYPE
  5
29D
330
1A
100
AcDbSymbolTableRecord
100
AcDbLinetypeTableRecord
  2
Amconstr
 70
     0
  3
_______________________
 72
    65
 73
     2
 40
9999.0
 49
9999.0
 74
     0
 49
0.0
 74
     0
  0
LTYPE
  5
29E
330
1A
100
AcDbSymbolTableRecord
100
AcDbLinetypeTableRecord
  2
AM_ISO02W050x2
 70
     0
  3
 _ _ _ _ _ _ _ _ _ _ _ _
 72
    65
 73
     2
 40
3.75
 49
3.0
 74
     0
 49
-0.75
 74
     0
  0
LTYPE
  5
2A1
330
1A
100
AcDbSymbolTableRecord
100
AcDbLinetypeTableRecord
  2
Amzigzag
 70
     0
  3
/\/-/\/-/\/-/\/-/\/-/\/
 72
    65
 73
     2
 40
11.0001
 49
0.0001
 74
     4
 75
   135
340
2A0
 46
0.04
 50
0.0
 44
0.0
 45
0.0
 49
-11.0
 74
     0
  0
LTYPE
  5
2B0
330
1A
100
AcDbSymbolTableRecord
100
AcDbLinetypeTableRecord
  2
ACISOWELD
 70
     0
  3
_ _ _ _ _
 72
    65
 73
     2
 40
2.0
 49
2.0
 74
     0
 49
-1.0
 74
     0
  0
LTYPE
  5
2B1
330
1A
100
AcDbSymbolTableRecord
100
AcDbLinetypeTableRecord
  2
ACISOTGB
 70
     0
  3
__ . . __ . .
 72
    65
 73
     6
 40
9.0
 49
4.0
 74
     0
 49
-1.0
 74
     0
 49
1.0
 74
     0
 49
-1.0
 74
     0
 49
1.0
 74
     0
 49
-1.0
 74
     0
  0
LTYPE
  5
2B2
330
1A
100
AcDbSymbolTableRecord
100
AcDbLinetypeTableRecord
  2
ACISOTGL
 70
     0
  3
_ _ _ _ _
 72
    65
 73
     2
 40
3.0
 49
2.0
 74
     0
 49
-1.0
 74
     0
  0
LTYPE
  5
3D59
330
1A
100
AcDbSymbolTableRecord
100
AcDbLinetypeTableRecord
  2
ASULTYPE
 70
     0
  3
實線
 72
    65
 73
     2
 40
3.0
 49
2.5
 74
     0
 49
0.5
 74
     0
  0
LTYPE
  5
3D5A
330
1A
100
AcDbSymbolTableRecord
100
AcDbLinetypeTableRecord
  2
ASVLTYPE
 70
     0
  3
__ __ __ __ __ __ __ __ __ __ __ __ __ __ __ __ __ __ __ __ __
 72
    65
 73
     2
 40
0.75
 49
0.5
 74
     0
 49
-0.25
 74
     0
  0
ENDTAB
  0
TABLE
  2
LAYER
  5
14
102
{ACAD_XDICTIONARY
360
15
102
}
330
0
100
AcDbSymbolTable
 70
     7
  0
LAYER
  5
5
330
14
100
AcDbSymbolTableRecord
100
AcDbLayerTableRecord
  2
0
 70
     0
 62
     7
  6
CONTINUOUS
370
    -3
390
6
  0
LAYER
  5
2D6
330
14
100
AcDbSymbolTableRecord
100
AcDbLayerTableRecord
  2
LOGO
 70
     0
 62
     7
  6
CONTINUOUS
370
    -3
390
6
  0
LAYER
  5
2D7
330
14
100
AcDbSymbolTableRecord
100
AcDbLayerTableRecord
  2
Defpoints
 70
     0
 62
     7
  6
CONTINUOUS
290
     0
370
    -3
390
6
  0
LAYER
  5
3000
330
14
100
AcDbSymbolTableRecord
100
AcDbLayerTableRecord
  2
AM_VIS
 70
     0
 62
     7
  6
CONTINUOUS
370
    50
390
6
  0
LAYER
  5
349B
330
14
100
AcDbSymbolTableRecord
100
AcDbLayerTableRecord
  2
AM_5
 70
     0
 62
     5
  6
CONTINUOUS
370
    50
390
6
  0
LAYER
  5
3517
330
14
100
AcDbSymbolTableRecord
100
AcDbLayerTableRecord
  2
AM_7
 70
     0
 62
     1
  6
AM_ISO08W050x2
370
    25
390
6
  0
LAYER
  5
378E
330
14
100
AcDbSymbolTableRecord
100
AcDbLayerTableRecord
  2
圖層1
 70
     0
 62
     3
  6
AM_ISO02W050x2
370
    -3
390
6
1001
AcAecLayerStandard
1000

1000

  0
ENDTAB
  0
TABLE
  2
STYLE
  5
17
330
0
100
AcDbSymbolTable
 70
     5
  0
STYLE
  5
18
330
17
100
AcDbSymbolTableRecord
100
AcDbTextStyleTableRecord
  2
STANDARD
 70
     0
 40
0.0
 41
1.0
 50
0.0
 71
     0
 42
1.0
  3
ISOCP.SHX
  4
CHINESET.SHX
  0
STYLE
  5
2A0
330
17
100
AcDbSymbolTableRecord
100
AcDbTextStyleTableRecord
  2

 70
     1
 40
0.0
 41
1.0
 50
0.0
 71
     0
 42
1.0
  3
ltypeshp.shx
  4

  0
STYLE
  5
2A2
330
17
100
AcDbSymbolTableRecord
100
AcDbTextStyleTableRecord
  2
ACISOTS
 70
     0
 40
1.0
 41
1.0
 50
0.0
 71
     0
 42
1.0
  3
isocp.shx
  4
chineset.shx
  0
STYLE
  5
2AF
330
17
100
AcDbSymbolTableRecord
100
AcDbTextStyleTableRecord
  2
ACISOGDT
 70
     0
 40
0.0
 41
1.0
 50
0.0
 71
     0
 42
1.0
  3
amgdt.shx
  4

  0
STYLE
  5
2D9
330
17
100
AcDbSymbolTableRecord
100
AcDbTextStyleTableRecord
  2
CHINESET
 70
     0
 40
0.0
 41
1.0
 50
0.0
 71
     0
 42
1.0
  3
simplex
  4
CHINESET.SHX
  0
ENDTAB
  0
TABLE
  2
VIEW
  5
1D
330
0
100
AcDbSymbolTable
 70
     0
  0
ENDTAB
  0
TABLE
  2
UCS
  5
1E
330
0
100
AcDbSymbolTable
 70
     0
  0
ENDTAB
  0
TABLE
  2
APPID
  5
21
330
0
100
AcDbSymbolTable
 70
    24
  0
APPID
  5
22
330
21
100
AcDbSymbolTableRecord
100
AcDbRegAppTableRecord
  2
ACAD
 70
     0
  0
APPID
  5
13
330
21
100
AcDbSymbolTableRecord
100
AcDbRegAppTableRecord
  2
ACAD_PSEXT
 70
     0
  0
APPID
  5
237
330
21
100
AcDbSymbolTableRecord
100
AcDbRegAppTableRecord
  2
MCAD_NO_VIS
 70
     0
  0
APPID
  5
238
330
21
100
AcDbSymbolTableRecord
100
AcDbRegAppTableRecord
  2
ACAD_TEMP_GRAPHIC
 70
     0
  0
APPID
  5
268
330
21
100
AcDbSymbolTableRecord
100
AcDbRegAppTableRecord
  2
AD_DRAW
 70
     0
  0
APPID
  5
26B
330
21
100
AcDbSymbolTableRecord
100
AcDbRegAppTableRecord
  2
ACATTRIBSERVICES
 70
     0
  0
APPID
  5
289
330
21
100
AcDbSymbolTableRecord
100
AcDbRegAppTableRecord
  2
DESIGNERASSEMBLIES
 70
     0
  0
APPID
  5
28F
330
21
100
AcDbSymbolTableRecord
100
AcDbRegAppTableRecord
  2
ACADM_DIM_EDIT
 70
     0
  0
APPID
  5
290
330
21
100
AcDbSymbolTableRecord
100
AcDbRegAppTableRecord
  2
AMDT_DM_ADJ
 70
     0
  0
APPID
  5
2DB
330
21
100
AcDbSymbolTableRecord
100
AcDbRegAppTableRecord
  2
GENIUS_GENOBJ-N-CRS_13
 70
     0
  0
APPID
  5
2DC
330
21
100
AcDbSymbolTableRecord
100
AcDbRegAppTableRecord
  2
GENIUS_GENOLIS_13
 70
     0
  0
APPID
  5
2DD
330
21
100
AcDbSymbolTableRecord
100
AcDbRegAppTableRecord
  2
GENIUS_GENOENT_13
 70
     0
  0
APPID
  5
2DE
330
21
100
AcDbSymbolTableRecord
100
AcDbRegAppTableRecord
  2
GENIUS_GENODEF_13
 70
     0
  0
APPID
  5
2DF
330
21
100
AcDbSymbolTableRecord
100
AcDbRegAppTableRecord
  2
GENIUS_GENOREF_13
 70
     0
  0
APPID
  5
2E0
330
21
100
AcDbSymbolTableRecord
100
AcDbRegAppTableRecord
  2
GENIUS_GENREC_14
 70
     0
  0
APPID
  5
2E1
330
21
100
AcDbSymbolTableRecord
100
AcDbRegAppTableRecord
  2
GENIUS_GENOBJ-N-REC_13
 70
     0
  0
APPID
  5
DE2
330
21
100
AcDbSymbolTableRecord
100
AcDbRegAppTableRecord
  2
ACAD_DSTYLE_DIMTEXT_FILL
 70
     0
  0
APPID
  5
E2A
330
21
100
AcDbSymbolTableRecord
100
AcDbRegAppTableRecord
  2
GENIUS_GENDIMSH_14
 70
     0
  0
APPID
  5
F24
330
21
100
AcDbSymbolTableRecord
100
AcDbRegAppTableRecord
  2
GENIUS_GENDTOL_13
 70
     0
  0
APPID
  5
11BF
330
21
100
AcDbSymbolTableRecord
100
AcDbRegAppTableRecord
  2
AcAecLayerStandard
 70
     0
  0
APPID
  5
3CDC
330
21
100
AcDbSymbolTableRecord
100
AcDbRegAppTableRecord
  2
GENIUS_GENDIM_13
 70
     0
  0
APPID
  5
3CDD
330
21
100
AcDbSymbolTableRecord
100
AcDbRegAppTableRecord
  2
GENIUS_GE3DTOL_13
 70
     0
  0
APPID
  5
3D5B
330
21
100
AcDbSymbolTableRecord
100
AcDbRegAppTableRecord
  2
ASURF_PCURVE_APPNAME
 70
     0
  0
APPID
  5
3D60
330
21
100
AcDbSymbolTableRecord
100
AcDbRegAppTableRecord
  2
AMG_3D2D_5.0
 70
     0
  0
ENDTAB
  0
TABLE
  2
DIMSTYLE
  5
23
330
0
100
AcDbSymbolTable
 70
     9
100
AcDbDimStyleTable
 71
     3
340
24
340
25
340
26
  0
DIMSTYLE
105
24
102
{ACAD_REACTORS
330
30FA
102
}
330
23
100
AcDbSymbolTableRecord
100
AcDbDimStyleTableRecord
  2
AM_ISO
 70
     0
  4
"
 41
3.0
 42
1.0
 43
15.0
 44
1.0
 47
0.1
 48
0.1
 73
     0
 74
     0
 77
     1
 78
     8
 79
     2
140
3.5
141
0.0
143
0.0393701
146
0.71
147
1.0
172
     1
176
   256
177
   256
178
   256
271
     2
272
     2
283
     0
284
     8
285
     8
340
18
371
    -1
372
    -1
  0
DIMSTYLE
105
25
330
23
100
AcDbSymbolTableRecord
100
AcDbDimStyleTableRecord
  2
AM_ISO$SF
 70
     0
  4
"
 41
2.5
 42
1.0
 43
10.0
 44
1.0
 47
0.1
 48
0.1
 73
     0
 74
     0
 75
     1
 76
     1
 77
     1
 78
     8
 79
     2
140
3.5
141
0.0
143
0.0393701
146
0.71
147
1.0
172
     1
176
   256
177
   256
178
   256
271
     2
272
     2
283
     0
284
     8
340
18
371
    -1
372
    -1
  0
DIMSTYLE
105
26
330
23
100
AcDbSymbolTableRecord
100
AcDbDimStyleTableRecord
  2
AM_ISO$SH
 70
     0
  4
"
 41
2.5
 42
1.0
 43
10.0
 44
1.0
 47
0.1
 48
0.1
 73
     0
 74
     0
 75
     1
 76
     1
 77
     1
 78
     8
 79
     2
140
3.5
141
0.0
143
0.0393701
144
2.0
146
0.71
147
1.0
172
     1
173
     1
176
   256
177
   256
178
   256
271
     2
272
     2
283
     0
284
     8
340
18
343
27
371
    -1
372
    -1
  0
DIMSTYLE
105
2BB
102
{ACAD_REACTORS
330
3AD2
102
}
330
23
100
AcDbSymbolTableRecord
100
AcDbDimStyleTableRecord
  2
AM_ISO$3
 70
     0
  4
"
 41
3.0
 42
1.0
 43
15.0
 44
1.0
 47
0.1
 48
0.1
 73
     0
 77
     1
 78
     8
 79
     2
140
3.5
141
0.0
143
0.0393701
146
0.71
147
1.0
176
   256
177
   256
178
   256
271
     2
272
     2
283
     0
284
     8
285
     8
288
     1
289
     0
340
18
371
    -1
372
    -1
  0
DIMSTYLE
105
2BC
102
{ACAD_REACTORS
330
3565
330
3857
102
}
330
23
100
AcDbSymbolTableRecord
100
AcDbDimStyleTableRecord
  2
AM_ISO$4
 70
     0
  4
"
 41
3.0
 42
1.0
 43
15.0
 44
1.0
 47
0.1
 48
0.1
 73
     0
 77
     1
 78
     8
 79
     2
140
3.5
141
0.0
143
0.0393701
146
0.71
147
1.0
176
   256
177
   256
178
   256
271
     2
272
     2
283
     0
284
     8
285
     8
288
     1
289
     0
340
18
371
    -1
372
    -1
  0
DIMSTYLE
105
2BD
330
23
100
AcDbSymbolTableRecord
100
AcDbDimStyleTableRecord
  2
AM_ISO$6
 70
     0
  4
"
 41
3.0
 42
1.0
 43
15.0
 44
1.0
 47
0.1
 48
0.1
 73
     0
 74
     0
 78
     8
 79
     2
140
3.5
141
0.0
143
0.0393701
146
0.71
147
1.0
172
     1
176
   256
177
   256
178
   256
271
     2
272
     2
283
     0
284
     8
285
     8
340
18
371
    -1
372
    -1
  0
DIMSTYLE
105
2BE
102
{ACAD_REACTORS
330
3ACF
102
}
330
23
100
AcDbSymbolTableRecord
100
AcDbDimStyleTableRecord
  2
AM_ISO$7
 70
     0
  4
"
 41
3.0
 42
1.0
 43
15.0
 44
1.0
 47
0.1
 48
0.1
 73
     0
 74
     0
 77
     1
 78
     8
 79
     2
140
3.5
141
0.0
143
0.0393701
146
0.71
147
1.5
172
     1
176
   256
177
   256
178
   256
271
     2
272
     2
283
     0
284
     8
285
     8
340
18
371
    -1
372
    -1
  0
DIMSTYLE
105
2DA
102
{ACAD_REACTORS
330
30F0
330
30F1
330
30F6
330
30F9
330
352B
330
30F2
330
37C4
330
37A5
330
30F4
330
30F3
102
}
330
23
100
AcDbSymbolTableRecord
100
AcDbDimStyleTableRecord
  2
AM_ISO$0
 70
     0
  4
"
 40
2.0
 41
3.0
 42
1.0
 43
10.0
 44
1.0
 47
0.1
 48
0.1
 73
     0
 74
     0
 77
     1
 78
     8
 79
     2
140
3.5
141
0.0
143
0.0393701
146
0.71
147
1.0
172
     1
176
   256
177
   256
178
   256
271
     2
272
     2
283
     0
284
     8
285
     8
340
18
371
    -1
372
    -1
  0
DIMSTYLE
105
1356
330
23
100
AcDbSymbolTableRecord
100
AcDbDimStyleTableRecord
  2
STANDARD
 70
     0
340
18
  0
ENDTAB
  0
TABLE
  2
BLOCK_RECORD
  5
1
330
0
100
AcDbSymbolTable
 70
    16
  0
BLOCK_RECORD
  5
2
102
{ACAD_XDICTIONARY
360
3
102
}
330
1
100
AcDbSymbolTableRecord
100
AcDbBlockTableRecord
  2
*MODEL_SPACE
340
B
  0
BLOCK_RECORD
  5
D
102
{ACAD_XDICTIONARY
360
1AC0
102
}
330
1
100
AcDbSymbolTableRecord
100
AcDbBlockTableRecord
  2
*PAPER_SPACE
340
10
  0
BLOCK_RECORD
  5
27
330
1
100
AcDbSymbolTableRecord
100
AcDbBlockTableRecord
  2
GENAXEH
340
0
  0
BLOCK_RECORD
  5
31D6
330
1
100
AcDbSymbolTableRecord
100
AcDbBlockTableRecord
  2
*D1
340
0
  0
BLOCK_RECORD
  5
31E4
330
1
100
AcDbSymbolTableRecord
100
AcDbBlockTableRecord
  2
*D2
340
0
  0
BLOCK_RECORD
  5
31F0
330
1
100
AcDbSymbolTableRecord
100
AcDbBlockTableRecord
  2
*D3
340
0
  0
BLOCK_RECORD
  5
31FC
330
1
100
AcDbSymbolTableRecord
100
AcDbBlockTableRecord
  2
*D4
340
0
  0
BLOCK_RECORD
  5
3208
330
1
100
AcDbSymbolTableRecord
100
AcDbBlockTableRecord
  2
*D5
340
0
  0
BLOCK_RECORD
  5
321D
330
1
100
AcDbSymbolTableRecord
100
AcDbBlockTableRecord
  2
*D6
340
0
  0
BLOCK_RECORD
  5
3241
330
1
100
AcDbSymbolTableRecord
100
AcDbBlockTableRecord
  2
*D7
340
0
  0
BLOCK_RECORD
  5
324D
330
1
100
AcDbSymbolTableRecord
100
AcDbBlockTableRecord
  2
*D8
340
0
  0
BLOCK_RECORD
  5
352C
330
1
100
AcDbSymbolTableRecord
100
AcDbBlockTableRecord
  2
*D9
340
0
  0
BLOCK_RECORD
  5
3566
330
1
100
AcDbSymbolTableRecord
100
AcDbBlockTableRecord
  2
*D10
340
0
  0
BLOCK_RECORD
  5
37A6
330
1
100
AcDbSymbolTableRecord
100
AcDbBlockTableRecord
  2
*D11
340
0
  0
BLOCK_RECORD
  5
37C5
330
1
100
AcDbSymbolTableRecord
100
AcDbBlockTableRecord
  2
*D12
340
0
  0
BLOCK_RECORD
  5
3858
330
1
100
AcDbSymbolTableRecord
100
AcDbBlockTableRecord
  2
*D13
340
0
  0
BLOCK_RECORD
  5
3AD3
330
1
100
AcDbSymbolTableRecord
100
AcDbBlockTableRecord
  2
*D14
340
0
  0
ENDTAB
  0
ENDSEC
  0
SECTION
  2
BLOCKS
  0
BLOCK
  5
4
330
2
100
AcDbEntity
  8
0
100
AcDbBlockBegin
  2
*MODEL_SPACE
 70
     0
 10
0.0
 20
0.0
 30
0.0
  3
*MODEL_SPACE
  1

  0
ENDBLK
  5
A
330
2
100
AcDbEntity
  8
0
100
AcDbBlockEnd
  0
BLOCK
  5
E
330
D
100
AcDbEntity
 67
     1
  8
0
100
AcDbBlockBegin
  2
*PAPER_SPACE
 70
     0
 10
0.0
 20
0.0
 30
0.0
  3
*PAPER_SPACE
  1

  0
ENDBLK
  5
F
330
D
100
AcDbEntity
 67
     1
  8
0
100
AcDbBlockEnd
  0
BLOCK
  5
28
330
27
100
AcDbEntity
  8
0
100
AcDbBlockBegin
  2
GENAXEH
 70
     0
 10
0.0
 20
0.0
 30
0.0
  3
GENAXEH
  1

  0
LINE
  5
29
330
27
100
AcDbEntity
  8
0
100
AcDbLine
 10
-1.0
 20
0.0
 30
0.0
 11
1.0
 21
0.0
 31
0.0
  0
ENDBLK
  5
2A
330
27
100
AcDbEntity
  8
0
100
AcDbBlockEnd
  0
BLOCK
  5
31E2
330
31D6
100
AcDbEntity
  8
0
100
AcDbBlockBegin
  2
*D1
 70
     1
 10
0.0
 20
0.0
 30
0.0
  3
*D1
  1

  0
LINE
  5
3B85
330
31D6
100
AcDbEntity
  8
AM_5
100
AcDbLine
 10
163.7215333677745
 20
144.0033988768866
 30
0.0
 11
163.7215333677745
 21
115.5033988768866
 31
0.0
  0
LINE
  5
3B86
330
31D6
100
AcDbEntity
  8
AM_5
100
AcDbLine
 10
173.7215333677745
 20
127.5033988768866
 30
0.0
 11
173.7215333677745
 21
115.5033988768866
 31
0.0
  0
LINE
  5
3B87
330
31D6
100
AcDbEntity
  8
AM_5
100
AcDbLine
 10
166.7215333677745
 20
116.5033988768866
 30
0.0
 11
170.7215333677745
 21
116.5033988768866
 31
0.0
  0
SOLID
  5
3B88
330
31D6
100
AcDbEntity
  8
AM_5
100
AcDbTrace
 10
166.7215333677745
 20
117.0033988768866
 30
0.0
 11
166.7215333677745
 21
116.0033988768866
 31
0.0
 12
163.7215333677745
 22
116.5033988768866
 32
0.0
 13
163.7215333677745
 23
116.5033988768866
 33
0.0
  0
SOLID
  5
3B89
330
31D6
100
AcDbEntity
  8
AM_5
100
AcDbTrace
 10
170.7215333677745
 20
117.0033988768866
 30
0.0
 11
170.7215333677745
 21
116.0033988768866
 31
0.0
 12
173.7215333677745
 22
116.5033988768866
 32
0.0
 13
173.7215333677745
 23
116.5033988768866
 33
0.0
  0
MTEXT
  5
3B8A
330
31D6
100
AcDbEntity
  8
AM_5
100
AcDbMText
 10
168.7215333677745
 20
119.2533988768866
 30
0.0
 40
3.5
 41
0.0
 71
     5
 72
     1
  1
10
 73
     1
 44
1.0
1001
ACAD
1000
MTEXTBEGIN
1070
    73
1070
     1
1070
    44
1040
1.0
1070
    74
1070
     0
1000
MTEXTEND
  0
POINT
  5
3B8B
330
31D6
100
AcDbEntity
  8
Defpoints
 62
     0
100
AcDbPoint
 10
163.7215333677745
 20
145.0033988768866
 30
0.0
  0
POINT
  5
3B8C
330
31D6
100
AcDbEntity
  8
Defpoints
 62
     0
100
AcDbPoint
 10
173.7215333677745
 20
128.5033988768866
 30
0.0
  0
POINT
  5
3B8D
330
31D6
100
AcDbEntity
  8
Defpoints
 62
     0
100
AcDbPoint
 10
173.7215333677745
 20
116.5033988768866
 30
0.0
  0
ENDBLK
  5
31E3
330
31D6
100
AcDbEntity
  8
0
100
AcDbBlockEnd
  0
BLOCK
  5
31EE
330
31E4
100
AcDbEntity
  8
0
100
AcDbBlockBegin
  2
*D2
 70
     1
 10
0.0
 20
0.0
 30
0.0
  3
*D2
  1

  0
LINE
  5
3B8E
330
31E4
100
AcDbEntity
  8
AM_5
100
AcDbLine
 10
163.7215333677745
 20
144.0033988768866
 30
0.0
 11
163.7215333677745
 21
100.5033988768866
 31
0.0
  0
LINE
  5
3B8F
330
31E4
100
AcDbEntity
  8
AM_5
100
AcDbLine
 10
263.7215333677746
 20
127.5033988768866
 30
0.0
 11
263.7215333677746
 21
100.5033988768866
 31
0.0
  0
LINE
  5
3B90
330
31E4
100
AcDbEntity
  8
AM_5
100
AcDbLine
 10
166.7215333677745
 20
101.5033988768866
 30
0.0
 11
260.7215333677745
 21
101.5033988768866
 31
0.0
  0
SOLID
  5
3B91
330
31E4
100
AcDbEntity
  8
AM_5
100
AcDbTrace
 10
166.7215333677745
 20
102.0033988768866
 30
0.0
 11
166.7215333677745
 21
101.0033988768866
 31
0.0
 12
163.7215333677745
 22
101.5033988768866
 32
0.0
 13
163.7215333677745
 23
101.5033988768866
 33
0.0
  0
SOLID
  5
3B92
330
31E4
100
AcDbEntity
  8
AM_5
100
AcDbTrace
 10
260.7215333677745
 20
102.0033988768866
 30
0.0
 11
260.7215333677745
 21
101.0033988768866
 31
0.0
 12
263.7215333677746
 22
101.5033988768866
 32
0.0
 13
263.7215333677746
 23
101.5033988768866
 33
0.0
  0
MTEXT
  5
3B93
330
31E4
100
AcDbEntity
  8
AM_5
100
AcDbMText
 10
213.7215333677746
 20
104.2533988768866
 30
0.0
 40
3.5
 41
0.0
 71
     5
 72
     1
  1
100
 73
     1
 44
1.0
1001
ACAD
1000
MTEXTBEGIN
1070
    73
1070
     1
1070
    44
1040
1.0
1070
    74
1070
     0
1000
MTEXTEND
  0
POINT
  5
3B94
330
31E4
100
AcDbEntity
  8
Defpoints
 62
     0
100
AcDbPoint
 10
163.7215333677745
 20
145.0033988768866
 30
0.0
  0
POINT
  5
3B95
330
31E4
100
AcDbEntity
  8
Defpoints
 62
     0
100
AcDbPoint
 10
263.7215333677746
 20
128.5033988768866
 30
0.0
  0
POINT
  5
3B96
330
31E4
100
AcDbEntity
  8
Defpoints
 62
     0
100
AcDbPoint
 10
263.7215333677746
 20
101.5033988768866
 30
0.0
  0
ENDBLK
  5
31EF
330
31E4
100
AcDbEntity
  8
0
100
AcDbBlockEnd
  0
BLOCK
  5
31FA
330
31F0
100
AcDbEntity
  8
0
100
AcDbBlockBegin
  2
*D3
 70
     1
 10
0.0
 20
0.0
 30
0.0
  3
*D3
  1

  0
LINE
  5
3B97
330
31F0
100
AcDbEntity
  8
AM_5
100
AcDbLine
 10
173.7215333677745
 20
127.5033988768866
 30
0.0
 11
173.7215333677745
 21
115.5033988768867
 31
0.0
  0
LINE
  5
3B98
330
31F0
100
AcDbEntity
  8
AM_5
100
AcDbLine
 10
263.7215333677746
 20
127.5033988768866
 30
0.0
 11
263.7215333677746
 21
115.5033988768867
 31
0.0
  0
LINE
  5
3B99
330
31F0
100
AcDbEntity
  8
AM_5
100
AcDbLine
 10
176.7215333677745
 20
116.5033988768867
 30
0.0
 11
260.7215333677745
 21
116.5033988768867
 31
0.0
  0
SOLID
  5
3B9A
330
31F0
100
AcDbEntity
  8
AM_5
100
AcDbTrace
 10
176.7215333677745
 20
117.0033988768867
 30
0.0
 11
176.7215333677745
 21
116.0033988768867
 31
0.0
 12
173.7215333677745
 22
116.5033988768867
 32
0.0
 13
173.7215333677745
 23
116.5033988768867
 33
0.0
  0
SOLID
  5
3B9B
330
31F0
100
AcDbEntity
  8
AM_5
100
AcDbTrace
 10
260.7215333677745
 20
117.0033988768867
 30
0.0
 11
260.7215333677745
 21
116.0033988768867
 31
0.0
 12
263.7215333677746
 22
116.5033988768867
 32
0.0
 13
263.7215333677746
 23
116.5033988768867
 33
0.0
  0
MTEXT
  5
3B9C
330
31F0
100
AcDbEntity
  8
AM_5
100
AcDbMText
 10
218.7215333677746
 20
119.2533988768867
 30
0.0
 40
3.5
 41
0.0
 71
     5
 72
     1
  1
90
 73
     1
 44
1.0
1001
ACAD
1000
MTEXTBEGIN
1070
    73
1070
     1
1070
    44
1040
1.0
1070
    74
1070
     0
1000
MTEXTEND
  0
POINT
  5
3B9D
330
31F0
100
AcDbEntity
  8
Defpoints
 62
     0
100
AcDbPoint
 10
173.7215333677745
 20
128.5033988768866
 30
0.0
  0
POINT
  5
3B9E
330
31F0
100
AcDbEntity
  8
Defpoints
 62
     0
100
AcDbPoint
 10
263.7215333677746
 20
128.5033988768866
 30
0.0
  0
POINT
  5
3B9F
330
31F0
100
AcDbEntity
  8
Defpoints
 62
     0
100
AcDbPoint
 10
263.7215333677746
 20
116.5033988768867
 30
0.0
  0
ENDBLK
  5
31FB
330
31F0
100
AcDbEntity
  8
0
100
AcDbBlockEnd
  0
BLOCK
  5
3206
330
31FC
100
AcDbEntity
  8
0
100
AcDbBlockBegin
  2
*D4
 70
     1
 10
0.0
 20
0.0
 30
0.0
  3
*D4
  1

  0
LINE
  5
3CC2
330
31FC
100
AcDbEntity
  8
AM_5
100
AcDbLine
 10
164.2215333677745
 20
143.5033988768866
 30
0.0
 11
139.4679828966651
 21
143.5033988768866
 31
0.0
  0
LINE
  5
3CC3
330
31FC
100
AcDbEntity
  8
AM_5
100
AcDbLine
 10
164.2215333677745
 20
188.5033988768866
 30
0.0
 11
139.4679828966651
 21
188.5033988768866
 31
0.0
  0
LINE
  5
3CC4
330
31FC
100
AcDbEntity
  8
AM_5
100
AcDbLine
 10
140.4679828966651
 20
146.5033988768866
 30
0.0
 11
140.4679828966651
 21
185.5033988768866
 31
0.0
  0
SOLID
  5
3CC5
330
31FC
100
AcDbEntity
  8
AM_5
100
AcDbTrace
 10
139.9679828966652
 20
146.5033988768866
 30
0.0
 11
140.9679828966652
 21
146.5033988768866
 31
0.0
 12
140.4679828966651
 22
143.5033988768866
 32
0.0
 13
140.4679828966651
 23
143.5033988768866
 33
0.0
  0
SOLID
  5
3CC6
330
31FC
100
AcDbEntity
  8
AM_5
100
AcDbTrace
 10
139.9679828966652
 20
185.5033988768866
 30
0.0
 11
140.9679828966652
 21
185.5033988768866
 31
0.0
 12
140.4679828966651
 22
188.5033988768866
 32
0.0
 13
140.4679828966651
 23
188.5033988768866
 33
0.0
  0
MTEXT
  5
3CC7
330
31FC
100
AcDbEntity
  8
AM_5
100
AcDbMText
 10
137.7179828966651
 20
166.0033988768867
 30
0.0
 40
3.5
 41
0.0
 71
     5
 72
     1
  1
%%c45
 11
0.0000000000000001
 21
1.0
 31
0.0
 73
     1
 44
1.0
1001
ACAD
1000
MTEXTBEGIN
1070
    73
1070
     1
1070
    44
1040
1.0
1070
    74
1070
     0
1000
MTEXTEND
  0
POINT
  5
3CC8
330
31FC
100
AcDbEntity
  8
Defpoints
 62
     0
100
AcDbPoint
 10
165.2215333677745
 20
143.5033988768866
 30
0.0
  0
POINT
  5
3CC9
330
31FC
100
AcDbEntity
  8
Defpoints
 62
     0
100
AcDbPoint
 10
165.2215333677745
 20
188.5033988768866
 30
0.0
  0
POINT
  5
3CCA
330
31FC
100
AcDbEntity
  8
Defpoints
 62
     0
100
AcDbPoint
 10
140.4679828966651
 20
188.5033988768866
 30
0.0
  0
ENDBLK
  5
3207
330
31FC
100
AcDbEntity
  8
0
100
AcDbBlockEnd
  0
BLOCK
  5
3212
330
3208
100
AcDbEntity
  8
0
100
AcDbBlockBegin
  2
*D5
 70
     1
 10
0.0
 20
0.0
 30
0.0
  3
*D5
  1

  0
LINE
  5
3CB9
330
3208
100
AcDbEntity
  8
AM_5
100
AcDbLine
 10
159.4215333677745
 20
156.0033988768866
 30
0.0
 11
148.803298527863
 21
156.0033988768866
 31
0.0
  0
LINE
  5
3CBA
330
3208
100
AcDbEntity
  8
AM_5
100
AcDbLine
 10
159.4215333677745
 20
176.0033988768866
 30
0.0
 11
148.803298527863
 21
176.0033988768866
 31
0.0
  0
LINE
  5
3CBB
330
3208
100
AcDbEntity
  8
AM_5
100
AcDbLine
 10
149.803298527863
 20
159.0033988768866
 30
0.0
 11
149.803298527863
 21
173.0033988768866
 31
0.0
  0
SOLID
  5
3CBC
330
3208
100
AcDbEntity
  8
AM_5
100
AcDbTrace
 10
149.303298527863
 20
159.0033988768866
 30
0.0
 11
150.303298527863
 21
159.0033988768866
 31
0.0
 12
149.803298527863
 22
156.0033988768866
 32
0.0
 13
149.803298527863
 23
156.0033988768866
 33
0.0
  0
SOLID
  5
3CBD
330
3208
100
AcDbEntity
  8
AM_5
100
AcDbTrace
 10
149.303298527863
 20
173.0033988768866
 30
0.0
 11
150.303298527863
 21
173.0033988768866
 31
0.0
 12
149.803298527863
 22
176.0033988768866
 32
0.0
 13
149.803298527863
 23
176.0033988768866
 33
0.0
  0
MTEXT
  5
3CBE
330
3208
100
AcDbEntity
  8
AM_5
100
AcDbMText
 10
147.052954039674
 20
166.0033988768867
 30
0.0
 40
3.5
 41
0.0
 71
     5
 72
     1
  1
%%c20
 11
0.0000000000000001
 21
1.0
 31
0.0
 73
     1
 44
1.0
1001
ACAD
1000
MTEXTBEGIN
1070
    73
1070
     1
1070
    44
1040
1.0
1070
    74
1070
     0
1000
MTEXTEND
  0
POINT
  5
3CBF
330
3208
100
AcDbEntity
  8
Defpoints
 62
     0
100
AcDbPoint
 10
160.4215333677745
 20
156.0033988768866
 30
0.0
  0
POINT
  5
3CC0
330
3208
100
AcDbEntity
  8
Defpoints
 62
     0
100
AcDbPoint
 10
160.4215333677745
 20
176.0033988768866
 30
0.0
  0
POINT
  5
3CC1
330
3208
100
AcDbEntity
  8
Defpoints
 62
     0
100
AcDbPoint
 10
149.803298527863
 20
176.0033988768866
 30
0.0
  0
ENDBLK
  5
3213
330
3208
100
AcDbEntity
  8
0
100
AcDbBlockEnd
  0
BLOCK
  5
3227
330
321D
100
AcDbEntity
  8
0
100
AcDbBlockBegin
  2
*D6
 70
     1
 10
0.0
 20
0.0
 30
0.0
  3
*D6
  1

  0
LINE
  5
3BB2
330
321D
100
AcDbEntity
  8
AM_5
100
AcDbLine
 10
300.7940836616781
 20
131.9315074885792
 30
0.0
 11
300.7940836616781
 21
100.5033988768866
 31
0.0
  0
LINE
  5
3BB3
330
321D
100
AcDbEntity
  8
AM_5
100
AcDbLine
 10
375.7940836616781
 20
131.9315074885792
 30
0.0
 11
375.7940836616781
 21
100.5033988768866
 31
0.0
  0
LINE
  5
3BB4
330
321D
100
AcDbEntity
  8
AM_5
100
AcDbLine
 10
303.7940836616781
 20
101.5033988768866
 30
0.0
 11
372.7940836616781
 21
101.5033988768866
 31
0.0
  0
SOLID
  5
3BB5
330
321D
100
AcDbEntity
  8
AM_5
100
AcDbTrace
 10
303.7940836616781
 20
102.0033988768866
 30
0.0
 11
303.7940836616781
 21
101.0033988768866
 31
0.0
 12
300.7940836616781
 22
101.5033988768866
 32
0.0
 13
300.7940836616781
 23
101.5033988768866
 33
0.0
  0
SOLID
  5
3BB6
330
321D
100
AcDbEntity
  8
AM_5
100
AcDbTrace
 10
372.7940836616781
 20
102.0033988768866
 30
0.0
 11
372.7940836616781
 21
101.0033988768866
 31
0.0
 12
375.7940836616781
 22
101.5033988768866
 32
0.0
 13
375.7940836616781
 23
101.5033988768866
 33
0.0
  0
MTEXT
  5
3BB7
330
321D
100
AcDbEntity
  8
AM_5
100
AcDbMText
 10
338.2940836616781
 20
104.2533988768866
 30
0.0
 40
3.5
 41
0.0
 71
     5
 72
     1
  1
{\Famgdt|c136;o}75
 73
     1
 44
1.0
1001
ACAD
1000
MTEXTBEGIN
1070
    73
1070
     1
1070
    44
1040
1.0
1070
    74
1070
     0
1000
MTEXTEND
  0
POINT
  5
3BB8
330
321D
100
AcDbEntity
  8
Defpoints
 62
     0
100
AcDbPoint
 10
300.7940836616781
 20
132.9315074885792
 30
0.0
  0
POINT
  5
3BB9
330
321D
100
AcDbEntity
  8
Defpoints
 62
     0
100
AcDbPoint
 10
375.7940836616781
 20
132.9315074885792
 30
0.0
  0
POINT
  5
3BBA
330
321D
100
AcDbEntity
  8
Defpoints
 62
     0
100
AcDbPoint
 10
375.7940836616781
 20
101.5033988768866
 30
0.0
  0
ENDBLK
  5
3228
330
321D
100
AcDbEntity
  8
0
100
AcDbBlockEnd
  0
BLOCK
  5
324B
330
3241
100
AcDbEntity
  8
0
100
AcDbBlockBegin
  2
*D7
 70
     1
 10
0.0
 20
0.0
 30
0.0
  3
*D7
  1

  0
LINE
  5
3BBB
330
3241
100
AcDbEntity
  8
AM_5
100
AcDbLine
 10
43.7819309625371
 20
131.9315074885792
 30
0.0
 11
43.7819309625371
 21
100.5033988768866
 31
0.0
  0
LINE
  5
3BBC
330
3241
100
AcDbEntity
  8
AM_5
100
AcDbLine
 10
118.7819309625371
 20
131.9315074885792
 30
0.0
 11
118.7819309625371
 21
100.5033988768866
 31
0.0
  0
LINE
  5
3BBD
330
3241
100
AcDbEntity
  8
AM_5
100
AcDbLine
 10
46.7819309625371
 20
101.5033988768866
 30
0.0
 11
115.7819309625371
 21
101.5033988768866
 31
0.0
  0
SOLID
  5
3BBE
330
3241
100
AcDbEntity
  8
AM_5
100
AcDbTrace
 10
46.7819309625371
 20
102.0033988768866
 30
0.0
 11
46.7819309625371
 21
101.0033988768866
 31
0.0
 12
43.7819309625371
 22
101.5033988768866
 32
0.0
 13
43.7819309625371
 23
101.5033988768866
 33
0.0
  0
SOLID
  5
3BBF
330
3241
100
AcDbEntity
  8
AM_5
100
AcDbTrace
 10
115.7819309625371
 20
102.0033988768866
 30
0.0
 11
115.7819309625371
 21
101.0033988768866
 31
0.0
 12
118.7819309625371
 22
101.5033988768866
 32
0.0
 13
118.7819309625371
 23
101.5033988768866
 33
0.0
  0
MTEXT
  5
3BC0
330
3241
100
AcDbEntity
  8
AM_5
100
AcDbMText
 10
81.2819309625371
 20
104.2533988768866
 30
0.0
 40
3.5
 41
0.0
 71
     5
 72
     1
  1
{\Famgdt|c136;o}75
 73
     1
 44
1.0
1001
ACAD
1000
MTEXTBEGIN
1070
    73
1070
     1
1070
    44
1040
1.0
1070
    74
1070
     0
1000
MTEXTEND
  0
POINT
  5
3BC1
330
3241
100
AcDbEntity
  8
Defpoints
 62
     0
100
AcDbPoint
 10
43.7819309625371
 20
132.9315074885792
 30
0.0
  0
POINT
  5
3BC2
330
3241
100
AcDbEntity
  8
Defpoints
 62
     0
100
AcDbPoint
 10
118.7819309625371
 20
132.9315074885792
 30
0.0
  0
POINT
  5
3BC3
330
3241
100
AcDbEntity
  8
Defpoints
 62
     0
100
AcDbPoint
 10
118.7819309625371
 20
101.5033988768866
 30
0.0
  0
ENDBLK
  5
324C
330
3241
100
AcDbEntity
  8
0
100
AcDbBlockEnd
  0
BLOCK
  5
3257
330
324D
100
AcDbEntity
  8
0
100
AcDbBlockBegin
  2
*D8
 70
     1
 10
0.0
 20
0.0
 30
0.0
  3
*D8
  1

  0
LINE
  5
3BC4
330
324D
100
AcDbEntity
  8
AM_5
100
AcDbLine
 10
53.03193096253711
 20
136.7533988768866
 30
0.0
 11
53.03193096253711
 21
115.5033988768866
 31
0.0
  0
LINE
  5
3BC5
330
324D
100
AcDbEntity
  8
AM_5
100
AcDbLine
 10
109.5319309625371
 20
136.7533988768866
 30
0.0
 11
109.5319309625371
 21
115.5033988768866
 31
0.0
  0
LINE
  5
3BC6
330
324D
100
AcDbEntity
  8
AM_5
100
AcDbLine
 10
56.0319309625371
 20
116.5033988768866
 30
0.0
 11
106.5319309625371
 21
116.5033988768866
 31
0.0
  0
SOLID
  5
3BC7
330
324D
100
AcDbEntity
  8
AM_5
100
AcDbTrace
 10
56.0319309625371
 20
117.0033988768866
 30
0.0
 11
56.0319309625371
 21
116.0033988768866
 31
0.0
 12
53.03193096253711
 22
116.5033988768866
 32
0.0
 13
53.03193096253711
 23
116.5033988768866
 33
0.0
  0
SOLID
  5
3BC8
330
324D
100
AcDbEntity
  8
AM_5
100
AcDbTrace
 10
106.5319309625371
 20
117.0033988768866
 30
0.0
 11
106.5319309625371
 21
116.0033988768866
 31
0.0
 12
109.5319309625371
 22
116.5033988768866
 32
0.0
 13
109.5319309625371
 23
116.5033988768866
 33
0.0
  0
MTEXT
  5
3BC9
330
324D
100
AcDbEntity
  8
AM_5
100
AcDbMText
 10
81.2819309625371
 20
119.2533988768866
 30
0.0
 40
3.5
 41
0.0
 71
     5
 72
     1
  1
{\Famgdt|c136;o}56.5
 73
     1
 44
1.0
1001
ACAD
1000
MTEXTBEGIN
1070
    73
1070
     1
1070
    44
1040
1.0
1070
    74
1070
     0
1000
MTEXTEND
  0
POINT
  5
3BCA
330
324D
100
AcDbEntity
  8
Defpoints
 62
     0
100
AcDbPoint
 10
53.03193096253711
 20
137.7533988768866
 30
0.0
  0
POINT
  5
3BCB
330
324D
100
AcDbEntity
  8
Defpoints
 62
     0
100
AcDbPoint
 10
109.5319309625371
 20
137.7533988768866
 30
0.0
  0
POINT
  5
3BCC
330
324D
100
AcDbEntity
  8
Defpoints
 62
     0
100
AcDbPoint
 10
109.5319309625371
 20
116.5033988768866
 30
0.0
  0
ENDBLK
  5
3258
330
324D
100
AcDbEntity
  8
0
100
AcDbBlockEnd
  0
BLOCK
  5
3536
330
352C
100
AcDbEntity
  8
0
100
AcDbBlockBegin
  2
*D9
 70
     1
 10
0.0
 20
0.0
 30
0.0
  3
*D9
  1

  0
LINE
  5
3BCD
330
352C
100
AcDbEntity
  8
AM_5
100
AcDbLine
 10
310.0440836616781
 20
130.9847628100775
 30
0.0
 11
310.0440836616781
 21
115.5033988768867
 31
0.0
  0
LINE
  5
3BCE
330
352C
100
AcDbEntity
  8
AM_5
100
AcDbLine
 10
366.5440836616781
 20
130.9847628100775
 30
0.0
 11
366.5440836616781
 21
115.5033988768867
 31
0.0
  0
LINE
  5
3BCF
330
352C
100
AcDbEntity
  8
AM_5
100
AcDbLine
 10
313.0440836616781
 20
116.5033988768867
 30
0.0
 11
363.5440836616781
 21
116.5033988768867
 31
0.0
  0
SOLID
  5
3BD0
330
352C
100
AcDbEntity
  8
AM_5
100
AcDbTrace
 10
313.0440836616781
 20
117.0033988768867
 30
0.0
 11
313.0440836616781
 21
116.0033988768867
 31
0.0
 12
310.0440836616781
 22
116.5033988768867
 32
0.0
 13
310.0440836616781
 23
116.5033988768867
 33
0.0
  0
SOLID
  5
3BD1
330
352C
100
AcDbEntity
  8
AM_5
100
AcDbTrace
 10
363.5440836616781
 20
117.0033988768867
 30
0.0
 11
363.5440836616781
 21
116.0033988768867
 31
0.0
 12
366.5440836616781
 22
116.5033988768867
 32
0.0
 13
366.5440836616781
 23
116.5033988768867
 33
0.0
  0
MTEXT
  5
3BD2
330
352C
100
AcDbEntity
  8
AM_5
100
AcDbMText
 10
338.2940836616781
 20
119.2533988768867
 30
0.0
 40
3.5
 41
0.0
 71
     5
 72
     1
  1
{\Famgdt|c136;o}56.5
 73
     1
 44
1.0
1001
ACAD
1000
MTEXTBEGIN
1070
    73
1070
     1
1070
    44
1040
1.0
1070
    74
1070
     0
1000
MTEXTEND
  0
POINT
  5
3BD3
330
352C
100
AcDbEntity
  8
Defpoints
 62
     0
100
AcDbPoint
 10
310.0440836616781
 20
131.9847628100775
 30
0.0
  0
POINT
  5
3BD4
330
352C
100
AcDbEntity
  8
Defpoints
 62
     0
100
AcDbPoint
 10
366.5440836616781
 20
131.9847628100775
 30
0.0
  0
POINT
  5
3BD5
330
352C
100
AcDbEntity
  8
Defpoints
 62
     0
100
AcDbPoint
 10
366.5440836616781
 20
116.5033988768867
 30
0.0
  0
ENDBLK
  5
3537
330
352C
100
AcDbEntity
  8
0
100
AcDbBlockEnd
  0
BLOCK
  5
356D
330
3566
100
AcDbEntity
  8
0
100
AcDbBlockBegin
  2
*D10
 70
     1
 10
0.0
 20
0.0
 30
0.0
  3
*D10
  1

  0
LINE
  5
3BD6
330
3566
100
AcDbEntity
  8
AM_5
100
AcDbLine
 10
228.2315302798868
 20
192.4829905824944
 30
0.0
 11
216.8072741764975
 21
208.9695082176267
 31
0.0
  0
LINE
  5
3BD7
330
3566
100
AcDbEntity
  8
AM_5
100
AcDbLine
 10
216.8072741764975
 20
208.9695082176267
 30
0.0
 11
207.2260557429593
 21
208.9695082176268
 31
0.0
  0
SOLID
  5
3BD8
330
3566
100
AcDbEntity
  8
AM_5
100
AcDbTrace
 10
228.642503688968
 20
192.7677727045248
 30
0.0
 11
227.8205568708056
 21
192.1982084604639
 31
0.0
 12
229.9402230120698
 22
190.0171501280073
 32
0.0
 13
229.9402230120698
 23
190.0171501280073
 33
0.0
  0
MTEXT
  5
3BD9
330
3566
100
AcDbEntity
  8
AM_5
100
AcDbMText
 10
211.5166649597283
 20
211.725726651165
 30
0.0
 40
3.5
 41
0.0
 71
     5
 72
     1
  1
G1/8
 73
     1
 44
1.0
1001
ACAD
1000
MTEXTBEGIN
1070
    73
1070
     1
1070
    44
1040
1.0
1070
    74
1070
     0
1000
MTEXTEND
  0
POINT
  5
3BDA
330
3566
100
AcDbEntity
  8
Defpoints
 62
     0
100
AcDbPoint
 10
229.9402230120698
 20
190.0171501280073
 30
0.0
  0
POINT
  5
3BDB
330
3566
100
AcDbEntity
  8
Defpoints
 62
     0
100
AcDbPoint
 10
232.7215333677745
 20
186.0033988768866
 30
0.0
  0
ENDBLK
  5
356E
330
3566
100
AcDbEntity
  8
0
100
AcDbBlockEnd
  0
BLOCK
  5
37B0
330
37A6
100
AcDbEntity
  8
0
100
AcDbBlockBegin
  2
*D11
 70
     1
 10
0.0
 20
0.0
 30
0.0
  3
*D11
  1

  0
LINE
  5
3CB0
330
37A6
100
AcDbEntity
  8
AM_5
100
AcDbLine
 10
264.7215333677745
 20
143.2533988768866
 30
0.0
 11
285.0587505541251
 21
143.2533988768866
 31
0.0
  0
LINE
  5
3CB1
330
37A6
100
AcDbEntity
  8
AM_5
100
AcDbLine
 10
264.7215333677745
 20
188.7533988768866
 30
0.0
 11
285.0587505541251
 21
188.7533988768866
 31
0.0
  0
LINE
  5
3CB2
330
37A6
100
AcDbEntity
  8
AM_5
100
AcDbLine
 10
284.0587505541251
 20
146.2533988768866
 30
0.0
 11
284.0587505541251
 21
185.7533988768866
 31
0.0
  0
SOLID
  5
3CB3
330
37A6
100
AcDbEntity
  8
AM_5
100
AcDbTrace
 10
283.5587505541251
 20
146.2533988768866
 30
0.0
 11
284.5587505541251
 21
146.2533988768866
 31
0.0
 12
284.0587505541251
 22
143.2533988768866
 32
0.0
 13
284.0587505541251
 23
143.2533988768866
 33
0.0
  0
SOLID
  5
3CB4
330
37A6
100
AcDbEntity
  8
AM_5
100
AcDbTrace
 10
283.5587505541251
 20
185.7533988768866
 30
0.0
 11
284.5587505541251
 21
185.7533988768866
 31
0.0
 12
284.0587505541251
 22
188.7533988768866
 32
0.0
 13
284.0587505541251
 23
188.7533988768866
 33
0.0
  0
MTEXT
  5
3CB5
330
37A6
100
AcDbEntity
  8
AM_5
100
AcDbMText
 10
281.308750554125
 20
166.0033988768867
 30
0.0
 40
3.5
 41
0.0
 71
     5
 72
     1
  1
%%c45.5
 11
0.0000000000000001
 21
1.0
 31
0.0
 73
     1
 44
1.0
1001
ACAD
1000
MTEXTBEGIN
1070
    73
1070
     1
1070
    44
1040
1.0
1070
    74
1070
     0
1000
MTEXTEND
  0
POINT
  5
3CB6
330
37A6
100
AcDbEntity
  8
Defpoints
 62
     0
100
AcDbPoint
 10
263.7215333677746
 20
143.2533988768866
 30
0.0
  0
POINT
  5
3CB7
330
37A6
100
AcDbEntity
  8
Defpoints
 62
     0
100
AcDbPoint
 10
263.7215333677746
 20
188.7533988768866
 30
0.0
  0
POINT
  5
3CB8
330
37A6
100
AcDbEntity
  8
Defpoints
 62
     0
100
AcDbPoint
 10
284.0587505541251
 20
188.7533988768866
 30
0.0
  0
ENDBLK
  5
37B1
330
37A6
100
AcDbEntity
  8
0
100
AcDbBlockEnd
  0
BLOCK
  5
37CF
330
37C5
100
AcDbEntity
  8
0
100
AcDbBlockBegin
  2
*D12
 70
     1
 10
0.0
 20
0.0
 30
0.0
  3
*D12
  1

  0
LINE
  5
3CA7
330
37C5
100
AcDbEntity
  8
AM_5
100
AcDbLine
 10
263.7215333677746
 20
204.5033988768866
 30
0.0
 11
263.7215333677746
 21
216.5033988768866
 31
0.0
  0
LINE
  5
3CA8
330
37C5
100
AcDbEntity
  8
AM_5
100
AcDbLine
 10
234.7215333677746
 20
187.2533988768866
 30
0.0
 11
234.7215333677746
 21
216.5033988768866
 31
0.0
  0
LINE
  5
3CA9
330
37C5
100
AcDbEntity
  8
AM_5
100
AcDbLine
 10
260.7215333677745
 20
215.5033988768867
 30
0.0
 11
237.7215333677745
 21
215.5033988768867
 31
0.0
  0
SOLID
  5
3CAA
330
37C5
100
AcDbEntity
  8
AM_5
100
AcDbTrace
 10
260.7215333677745
 20
216.0033988768867
 30
0.0
 11
260.7215333677745
 21
215.0033988768866
 31
0.0
 12
263.7215333677746
 22
215.5033988768867
 32
0.0
 13
263.7215333677746
 23
215.5033988768867
 33
0.0
  0
SOLID
  5
3CAB
330
37C5
100
AcDbEntity
  8
AM_5
100
AcDbTrace
 10
237.7215333677745
 20
216.0033988768867
 30
0.0
 11
237.7215333677745
 21
215.0033988768866
 31
0.0
 12
234.7215333677746
 22
215.5033988768867
 32
0.0
 13
234.7215333677746
 23
215.5033988768867
 33
0.0
  0
MTEXT
  5
3CAC
330
37C5
100
AcDbEntity
  8
AM_5
100
AcDbMText
 10
249.2215333677746
 20
218.2537433650756
 30
0.0
 40
3.5
 41
0.0
 71
     5
 72
     1
  1
29
 73
     1
 44
1.0
1001
ACAD
1000
MTEXTBEGIN
1070
    73
1070
     1
1070
    44
1040
1.0
1070
    74
1070
     0
1000
MTEXTEND
  0
POINT
  5
3CAD
330
37C5
100
AcDbEntity
  8
Defpoints
 62
     0
100
AcDbPoint
 10
263.7215333677746
 20
203.5033988768867
 30
0.0
  0
POINT
  5
3CAE
330
37C5
100
AcDbEntity
  8
Defpoints
 62
     0
100
AcDbPoint
 10
234.7215333677746
 20
186.2533988768866
 30
0.0
  0
POINT
  5
3CAF
330
37C5
100
AcDbEntity
  8
Defpoints
 62
     0
100
AcDbPoint
 10
234.7215333677746
 20
215.5033988768867
 30
0.0
  0
ENDBLK
  5
37D0
330
37C5
100
AcDbEntity
  8
0
100
AcDbBlockEnd
  0
BLOCK
  5
385F
330
3858
100
AcDbEntity
  8
0
100
AcDbBlockBegin
  2
*D13
 70
     1
 10
0.0
 20
0.0
 30
0.0
  3
*D13
  1

  0
LINE
  5
3BEE
330
3858
100
AcDbEntity
  8
AM_5
100
AcDbLine
 10
55.82219027667118
 20
200.4112790868595
 30
0.0
 11
60.45897487843092
 21
210.6442936287152
 31
0.0
  0
LINE
  5
3BEF
330
3858
100
AcDbEntity
  8
AM_5
100
AcDbLine
 10
60.45897487843092
 20
210.6442936287152
 30
0.0
 11
80.35897487843092
 21
210.6442936287151
 31
0.0
  0
SOLID
  5
3BF0
330
3858
100
AcDbEntity
  8
AM_5
100
AcDbTrace
 10
55.36676281520871
 20
200.617642425042
 30
0.0
 11
56.27761773813367
 21
200.2049157486769
 31
0.0
 12
54.58401024757598
 22
197.6787143180845
 32
0.0
 13
54.58401024757598
 23
197.6787143180845
 33
0.0
  0
MTEXT
  5
3BF1
330
3858
100
AcDbEntity
  8
AM_5
100
AcDbMText
 10
70.90897487843091
 20
213.3946381169042
 30
0.0
 40
3.5
 41
0.0
 71
     5
 72
     1
  1
4-M8*12L
 73
     1
 44
1.0
1001
ACAD
1000
MTEXTBEGIN
1070
    73
1070
     1
1070
    44
1040
1.0
1070
    74
1070
     0
1000
MTEXTEND
  0
POINT
  5
3BF2
330
3858
100
AcDbEntity
  8
Defpoints
 62
     0
100
AcDbPoint
 10
54.58401024757598
 20
197.6787143180845
 30
0.0
  0
POINT
  5
3BF3
330
3858
100
AcDbEntity
  8
Defpoints
 62
     0
100
AcDbPoint
 10
53.03193096253707
 20
194.2533988768867
 30
0.0
  0
ENDBLK
  5
3860
330
3858
100
AcDbEntity
  8
0
100
AcDbBlockEnd
  0
BLOCK
  5
3ADC
330
3AD3
100
AcDbEntity
  8
0
100
AcDbBlockBegin
  2
*D14
 70
     1
 10
0.0
 20
0.0
 30
0.0
  3
*D14
  1

  0
LINE
  5
3BFA
330
3AD3
100
AcDbEntity
  8
AM_5
100
AcDbLine
 10
313.8808954996509
 20
200.697688978984
 30
0.0
 11
319.8970600358665
 21
210.8024090462068
 31
0.0
  0
LINE
  5
3BFB
330
3AD3
100
AcDbEntity
  8
AM_5
100
AcDbLine
 10
319.8970600358665
 20
210.8024090462068
 30
0.0
 11
330.9476372123727
 21
210.8024090462068
 31
0.0
  0
SOLID
  5
3BFC
330
3AD3
100
AcDbEntity
  8
AM_5
100
AcDbTrace
 10
313.451276159511
 20
200.9534764348489
 30
0.0
 11
314.3105148397907
 21
200.4419015231192
 31
0.0
 12
312.3461707644617
 22
198.119972938145
 32
0.0
 13
312.3461707644617
 23
198.119972938145
 33
0.0
  0
MTEXT
  5
3BFD
330
3AD3
100
AcDbEntity
  8
AM_5
100
AcDbMText
 10
325.9223486241197
 20
213.5524090462067
 30
0.0
 40
3.5
 41
0.0
 71
     5
 72
     1
  1
4-\U+22059
 73
     1
 44
1.0
1001
ACAD
1000
MTEXTBEGIN
1070
    73
1070
     1
1070
    44
1040
1.0
1070
    74
1070
     0
1000
MTEXTEND
  0
POINT
  5
3BFE
330
3AD3
100
AcDbEntity
  8
Defpoints
 62
     0
100
AcDbPoint
 10
312.3461707644617
 20
198.119972938145
 30
0.0
  0
POINT
  5
3BFF
330
3AD3
100
AcDbEntity
  8
Defpoints
 62
     0
100
AcDbPoint
 10
307.7419965588941
 20
190.3868248156281
 30
0.0
  0
ENDBLK
  5
3ADD
330
3AD3
100
AcDbEntity
  8
0
100
AcDbBlockEnd
  0
ENDSEC
  0
SECTION
  2
ENTITIES
  0
VIEWPORT
  5
230
102
{ACAD_XDICTIONARY
360
3DE1
102
}
330
D
100
AcDbEntity
 67
     1
  8
0
100
AcDbViewport
 10
207.4773711106092
 20
143.7647048276369
 30
0.0
 40
367.4309155930603
 41
273.9242095128834
 68
     1
 69
     1
 12
207.4773711106092
 22
143.7647048276369
 13
0.0
 23
0.0
 14
1.0
 24
1.0
 15
0.0
 25
0.0
 16
0.0
 26
0.0
 36
1.0
 17
0.0
 27
0.0
 37
0.0
 42
50.0
 43
0.0
 44
0.0
 45
273.9242095128834
 50
0.0
 51
0.0
 72
  1000
 90
    32800
  1

281
     0
 71
     1
 74
     0
110
0.0
120
0.0
130
0.0
111
1.0
121
0.0
131
0.0
112
0.0
122
1.0
132
0.0
 79
     0
146
0.0
  0
TEXT
  5
D17
330
D
100
AcDbEntity
 67
     1
  8
LOGO
 62
     7
100
AcDbText
 10
80.37582469189192
 20
27.24991366816221
 30
0.0
 40
4.859643224778206
  1
訂購代號:
  7
CHINESET
100
AcDbText
  0
TEXT
  5
D18
330
D
100
AcDbEntity
 67
     1
  8
LOGO
 62
     7
100
AcDbText
 10
79.79458457046553
 20
22.68899936248292
 30
0.0
 40
3.239762149852138
  1
Order example:
 41
0.8
  7
CHINESET
100
AcDbText
  0
LINE
  5
D19
330
D
100
AcDbEntity
 67
     1
  8
LOGO
 62
     4
100
AcDbLine
 10
129.6267066207351
 20
11.06026959664785
 30
0.0
 11
113.4278958714744
 21
11.06026959664785
 31
0.0
  0
LINE
  5
D1A
330
D
100
AcDbEntity
 67
     1
  8
LOGO
 62
     4
100
AcDbLine
 10
129.6267066207351
 20
19.96961550874118
 30
0.0
 11
113.4278958714744
 21
19.96961550874118
 31
0.0
  0
LINE
  5
D1B
330
D
100
AcDbEntity
 67
     1
  8
LOGO
 62
     4
100
AcDbLine
 10
130.2399145721783
 20
23.61434792732485
 30
0.0
 11
112.2708954056679
 21
23.61434792732485
 31
0.0
  0
LINE
  5
D1C
330
D
100
AcDbEntity
 67
     1
  8
LOGO
 62
     4
100
AcDbLine
 10
130.2399145721783
 20
30.90381276449222
 30
0.0
 11
112.2708954056679
 21
30.90381276449222
 31
0.0
  0
TEXT
  5
D1D
330
D
100
AcDbEntity
 67
     1
  8
LOGO
  6
Continuous
 62
     7
100
AcDbText
 10
115.8384331853524
 20
25.23422900225097
 30
0.0
 40
4.049702687315173
  1
MCB
  7
CHINESET
 72
     1
 11
121.5273012461047
 21
27.25908034590856
 31
0.0
100
AcDbText
 73
     2
  0
LINE
  5
D1E
330
D
100
AcDbEntity
 67
     1
  8
LOGO
 62
     4
100
AcDbLine
 10
112.2708954056679
 20
30.90381276449222
 30
0.0
 11
112.2708954056679
 21
23.61434792732485
 31
0.0
  0
LINE
  5
D1F
330
D
100
AcDbEntity
 67
     1
  8
LOGO
 62
     4
100
AcDbLine
 10
113.4278958714744
 20
19.96961550874118
 30
0.0
 11
113.4278958714744
 21
11.06026959664785
 31
0.0
  0
TEXT
  5
D20
330
D
100
AcDbEntity
 67
     1
  8
LOGO
100
AcDbText
 10
118.7867278715737
 20
12.30828420743919
 30
0.0
 40
1.612101985018231
  1
Model
 72
     4
 11
121.5273012461047
 21
13.08512094030541
 31
0.0
100
AcDbText
  0
TEXT
  5
D21
330
D
100
AcDbEntity
 67
     1
  8
LOGO
100
AcDbText
 10
118.2875390962526
 20
15.59784985180491
 30
0.0
 40
3.239762149852138
  1
型式
 72
     4
 11
121.5273012461047
 21
17.13482362762059
 31
0.0
100
AcDbText
  0
LINE
  5
D22
330
D
100
AcDbEntity
 67
     1
  8
LOGO
 62
     4
100
AcDbLine
 10
121.5273012461047
 20
23.61434792732485
 30
0.0
 11
121.5273012461047
 21
19.96961550874118
 31
0.0
  0
LINE
  5
D23
330
D
100
AcDbEntity
 67
     1
  8
LOGO
 62
     4
100
AcDbLine
 10
130.2399145721783
 20
30.90381276449222
 30
0.0
 11
130.2399145721783
 21
23.61434792732485
 31
0.0
  0
LINE
  5
D2B
330
D
100
AcDbEntity
 67
     1
  8
LOGO
 62
     4
100
AcDbLine
 10
129.6267066207351
 20
19.96961550874118
 30
0.0
 11
129.6267066207351
 21
11.06026959664785
 31
0.0
  0
LINE
  5
D39
330
D
100
AcDbEntity
 67
     1
  8
LOGO
 62
     4
100
AcDbLine
 10
148.9944685152984
 20
30.90381276449227
 30
0.0
 11
148.9944685152984
 21
23.61434792732493
 31
0.0
  0
LINE
  5
D3A
330
D
100
AcDbEntity
 67
     1
  8
LOGO
 62
     4
100
AcDbLine
 10
135.9905459564779
 20
30.90381276449222
 30
0.0
 11
135.9905459564779
 21
23.61434792732493
 31
0.0
  0
LINE
  5
D3C
330
D
100
AcDbEntity
 67
     1
  8
LOGO
 62
     4
100
AcDbLine
 10
148.9944685152984
 20
11.06026959664785
 30
0.0
 11
135.9905459564779
 21
11.06026959664785
 31
0.0
  0
LINE
  5
D3D
330
D
100
AcDbEntity
 67
     1
  8
LOGO
 62
     4
100
AcDbLine
 10
148.9944685152984
 20
23.61434792732493
 30
0.0
 11
135.9905459564779
 21
23.61434792732493
 31
0.0
  0
LINE
  5
D3E
330
D
100
AcDbEntity
 67
     1
  8
LOGO
 62
     4
100
AcDbLine
 10
148.9944685152984
 20
19.9696155087413
 30
0.0
 11
135.9905459564779
 21
19.9696155087413
 31
0.0
  0
LINE
  5
D3F
330
D
100
AcDbEntity
 67
     1
  8
LOGO
 62
     4
100
AcDbLine
 10
135.9905459564779
 20
19.9696155087413
 30
0.0
 11
135.9905459564779
 21
11.06026959664785
 31
0.0
  0
TEXT
  5
D40
330
D
100
AcDbEntity
 67
     1
  8
LOGO
100
AcDbText
 10
140.2355644568627
 20
12.30411074177591
 30
0.0
 40
1.612101985018231
  1
Bore
 72
     4
 11
142.4925072358882
 21
13.08512094030541
 31
0.0
100
AcDbText
  0
TEXT
  5
D41
330
D
100
AcDbEntity
 67
     1
  8
LOGO
100
AcDbText
 10
139.0502599516703
 20
15.51494255269452
 30
0.0
 40
3.239762149852138
  1
內徑
 72
     4
 11
142.4925072358882
 21
17.13482362762059
 31
0.0
100
AcDbText
  0
LINE
  5
D42
330
D
100
AcDbEntity
 67
     1
  8
LOGO
 62
     4
100
AcDbLine
 10
142.4925070491284
 20
23.61434792732493
 30
0.0
 11
142.4925070491284
 21
19.9696155087413
 31
0.0
  0
LINE
  5
D43
330
D
100
AcDbEntity
 67
     1
  8
LOGO
 62
     4
100
AcDbLine
 10
148.9944685152984
 20
19.9696155087413
 30
0.0
 11
148.9944685152984
 21
11.06026959664785
 31
0.0
  0
LINE
  5
D45
330
D
100
AcDbEntity
 67
     1
  8
LOGO
 62
     4
100
AcDbLine
 10
148.9944685152984
 20
30.90381276449227
 30
0.0
 11
135.9905459564779
 21
30.90381276449222
 31
0.0
  0
LINE
  5
D46
330
D
100
AcDbEntity
 67
     1
  8
LOGO
  6
Continuous
 62
     7
100
AcDbLine
 10
131.5111839036027
 20
27.23325990944761
 30
0.0
 11
134.7299455949427
 21
27.23325990944761
 31
0.0
  0
TEXT
  5
D47
330
D
100
AcDbEntity
 67
     1
  8
LOGO
  6
Continuous
 62
     7
100
AcDbText
 10
139.5921488441428
 20
25.18830511859381
 30
0.0
 40
4.049702687315173
  1
63
  7
CHINESET
 72
     1
 11
142.870479591017
 21
27.21315646225139
 31
0.0
100
AcDbText
 73
     2
  0
LINE
  5
D60
330
D
100
AcDbEntity
 67
     1
  8
LOGO
 62
     4
100
AcDbLine
 10
78.38689692771334
 20
9.035418252990098
 30
0.0
 11
78.38689692771334
 21
33.33363437688172
 31
0.0
  0
TEXT
  5
D61
330
D
100
AcDbEntity
 67
     1
  8
LOGO
  6
Continuous
100
AcDbText
 10
33.65884990944937
 20
13.80876614132313
 30
0.0
 40
3.644732418583686
  1
金器工業股份有限公司
  7
CHINESET
100
AcDbText
  0
TEXT
  5
D62
330
D
100
AcDbEntity
 67
     1
  8
LOGO
  6
Continuous
100
AcDbText
 10
26.96419753126042
 20
10.16331964094345
 30
0.0
 40
2.429821612389124
  1
MINDMAN INDUSTRIAL CO., LTD.
 41
0.85
  7
CHINESET
100
AcDbText
  0
LINE
  5
D63
330
D
100
AcDbEntity
 67
     1
  8
LOGO
 62
     4
100
AcDbLine
 10
78.38689692771334
 20
28.47399115210328
 30
0.0
 11
42.74951327933865
 21
28.47399115210328
 31
0.0
  0
LINE
  5
D64
330
D
100
AcDbEntity
 67
     1
  8
LOGO
 62
     4
100
AcDbLine
 10
78.38689692771334
 20
23.61434792732493
 30
0.0
 11
42.74951327933865
 21
23.61434792732493
 31
0.0
  0
LINE
  5
D65
330
D
100
AcDbEntity
 67
     1
  8
LOGO
 62
     4
100
AcDbLine
 10
78.38689692771334
 20
18.7547047025468
 30
0.0
 11
24.930821455152
 21
18.7547047025468
 31
0.0
  0
LINE
  5
D66
330
D
100
AcDbEntity
 67
     1
  8
LOGO
 62
     4
100
AcDbLine
 10
42.74951327933865
 20
18.7547047025468
 30
0.0
 11
42.74951327933865
 21
33.33363437688172
 31
0.0
  0
TEXT
  5
D67
330
D
100
AcDbEntity
 67
     1
  8
LOGO
100
AcDbText
 10
67.10598294411536
 20
19.96961550874123
 30
0.0
 40
2.429821612389124
  1
mm
  7
CHINESET
 72
     1
 11
70.11433351183524
 21
21.1845263149358
 31
0.0
100
AcDbText
 73
     2
  0
TEXT
  5
D68
330
D
100
AcDbEntity
 67
     1
  8
LOGO
100
AcDbText
 10
65.83321924238774
 20
29.68890195829771
 30
0.0
 40
2.429821612389124
  1
1 : 1
  7
CHINESET
 72
     1
 11
70.11433351183524
 21
30.90381276449227
 31
0.0
100
AcDbText
 73
     2
  0
LINE
  5
D69
330
D
100
AcDbEntity
 67
     1
  8
LOGO
 62
     4
100
AcDbLine
 10
62.18808617845218
 20
18.7547047025468
 30
0.0
 11
62.18808617845218
 21
33.33363437688172
 31
0.0
  0
TEXT
  5
D6A
330
D
100
AcDbEntity
 67
     1
  8
LOGO
100
AcDbText
 10
44.7530313677691
 20
29.69009773665027
 30
159.2465055787177
 40
2.429821612389124
  1
比例 Scale:
 41
0.9
  7
CHINESET
 72
     4
 11
52.46879972889582
 21
30.90381276449227
 31
159.2465055787177
100
AcDbText
  0
TEXT
  5
D6B
330
D
100
AcDbEntity
 67
     1
  8
LOGO
100
AcDbText
 10
44.61309967669848
 20
24.86343806476338
 30
159.2465055787177
 40
2.429821612389124
  1
投影  View:
 41
0.9
  7
CHINESET
 72
     4
 11
52.46879972889582
 21
26.04416953971412
 31
159.2465055787177
100
AcDbText
  0
TEXT
  5
D6C
330
D
100
AcDbEntity
 67
     1
  8
LOGO
100
AcDbText
 10
44.85065812898116
 20
19.96961550874123
 30
159.2465055787177
 40
2.429821612389124
  1
單位  Unit:
 41
0.9
  7
CHINESET
 72
     4
 11
52.46879972889582
 21
21.1845263149358
 31
159.2465055787177
100
AcDbText
  0
SOLID
  5
D6D
330
D
100
AcDbEntity
 67
     1
  8
LOGO
 62
     5
100
AcDbTrace
 10
27.45180037367669
 20
22.79393727527219
 30
0.0
 11
28.50239148035451
 21
22.79393727527156
 31
0.0
 12
32.88589230476947
 22
32.75643914894238
 32
0.0
 13
33.93648341144768
 23
32.75643914894164
 33
0.0
  0
SOLID
  5
D6E
330
D
100
AcDbEntity
 67
     1
  8
LOGO
 62
     5
100
AcDbTrace
 10
28.93711883484298
 20
22.79393727527219
 30
0.0
 11
29.98770994152085
 21
22.79393727527219
 31
0.0
 12
33.93648341144768
 22
31.95943899904845
 32
0.0
 13
32.88589230476947
 23
28.10727160789594
 33
0.0
  0
SOLID
  5
D6F
330
D
100
AcDbEntity
 67
     1
  8
LOGO
 62
     2
100
AcDbTrace
 10
28.50239148035451
 20
22.79393727527156
 30
0.0
 11
28.93711883484298
 21
22.79393727527219
 31
0.0
 12
33.93648341144768
 22
32.75643914894164
 32
0.0
 13
34.37121076593576
 23
32.75643914894164
 33
0.0
  0
SOLID
  5
D70
330
D
100
AcDbEntity
 67
     1
  8
LOGO
 62
     5
100
AcDbTrace
 10
25.76744519317367
 20
19.1712093212102
 30
0.0
 11
26.12971798858041
 21
19.1712093212102
 31
0.0
 12
27.14990637750486
 22
20.98257329824116
 32
0.0
 13
27.51217917291098
 23
20.98257329824116
 33
0.0
  0
SOLID
  5
D71
330
D
100
AcDbEntity
 67
     1
  8
LOGO
 62
     5
100
AcDbTrace
 10
27.14990637750486
 20
20.98257329824116
 30
0.0
 11
27.51217917291098
 21
20.98257329824116
 31
0.0
 12
27.14990637750486
 22
19.1712093212102
 32
0.0
 13
27.51217917291098
 23
19.1712093212102
 33
0.0
  0
SOLID
  5
D72
330
D
100
AcDbEntity
 67
     1
  8
LOGO
 62
     5
100
AcDbTrace
 10
27.14990637750486
 20
19.1712093212102
 30
0.0
 11
27.51217917291098
 21
19.1712093212102
 31
0.0
 12
28.53236756183731
 22
20.98257329824116
 32
0.0
 13
28.89464035724319
 23
20.98257329824116
 33
0.0
  0
SOLID
  5
D73
330
D
100
AcDbEntity
 67
     1
  8
LOGO
 62
     5
100
AcDbTrace
 10
28.53236756183731
 20
20.98257329824116
 30
0.0
 11
28.89464035724319
 21
20.98257329824116
 31
0.0
 12
28.53236756183731
 22
19.1712093212102
 32
0.0
 13
28.89464035724319
 23
19.1712093212102
 33
0.0
  0
POLYLINE
  5
D74
330
D
100
AcDbEntity
 67
     1
  8
LOGO
 62
     5
100
AcDb2dPolyline
 66
     1
 10
0.0
 20
0.0
 30
0.0
 40
0.3628533607834424
 41
0.3628533607834424
  0
VERTEX
  5
D75
330
D74
100
AcDbEntity
 67
     1
  8
LOGO
 62
     5
100
AcDbVertex
100
AcDb2dVertex
 10
40.67562825406901
 20
20.25802770742842
 30
0.0
 42
1.0
  0
VERTEX
  5
D76
330
D74
100
AcDbEntity
 67
     1
  8
LOGO
 62
     5
100
AcDbVertex
100
AcDb2dVertex
 10
39.58706817171913
 20
20.25802770742842
 30
0.0
 42
1.0
  0
SEQEND
  5
D77
330
D74
100
AcDbEntity
 67
     1
  8
LOGO
 62
     5
  0
POLYLINE
  5
D78
330
D
100
AcDbEntity
 67
     1
  8
LOGO
 62
     5
100
AcDb2dPolyline
 66
     1
 10
0.0
 20
0.0
 30
0.0
 70
     1
  0
VERTEX
  5
D79
330
D78
100
AcDbEntity
 67
     1
  8
LOGO
 62
     5
100
AcDbVertex
100
AcDb2dVertex
 10
37.53508399733551
 20
20.07689130972557
 30
0.0
 42
1.000000057330635
  0
VERTEX
  5
D7A
330
D78
100
AcDbEntity
 67
     1
  8
LOGO
 62
     5
100
AcDbVertex
100
AcDb2dVertex
 10
38.62190238355356
 20
20.07689130972557
 30
0.0
 42
1.000000057330635
  0
SEQEND
  5
D7B
330
D78
100
AcDbEntity
 67
     1
  8
LOGO
 62
     5
  0
CIRCLE
  5
D7C
330
D
100
AcDbEntity
 67
     1
  8
LOGO
 62
     5
100
AcDbCircle
 10
38.07849319044521
 20
20.07689130972557
 30
0.0
 40
0.5434091931092834
  0
POLYLINE
  5
D7D
330
D
100
AcDbEntity
 67
     1
  8
LOGO
 62
     5
100
AcDb2dPolyline
 66
     1
 10
0.0
 20
0.0
 30
0.0
 70
     1
 40
0.3628533607834424
 41
0.3628533607834424
  0
VERTEX
  5
D7E
330
D7D
100
AcDbEntity
 67
     1
  8
LOGO
 62
     5
100
AcDbVertex
100
AcDb2dVertex
 10
37.35278646887798
 20
20.07689130972557
 30
0.0
 42
1.0
  0
VERTEX
  5
D7F
330
D7D
100
AcDbEntity
 67
     1
  8
LOGO
 62
     5
100
AcDbVertex
100
AcDb2dVertex
 10
38.80419991201177
 20
20.07689130972557
 30
0.0
 42
1.0
  0
SEQEND
  5
D80
330
D7D
100
AcDbEntity
 67
     1
  8
LOGO
 62
     5
  0
LINE
  5
D81
330
D
100
AcDbEntity
 67
     1
  8
LOGO
100
AcDbLine
 10
40.85589380370538
 20
19.1712093212102
 30
0.0
 11
40.85589380370538
 21
20.25802770742842
 31
0.0
  0
SOLID
  5
D82
330
D
100
AcDbEntity
 67
     1
  8
LOGO
 62
     5
100
AcDbTrace
 10
38.62186615627559
 20
20.98257329824116
 30
0.0
 11
38.9841389516813
 21
20.98257329824116
 31
0.0
 12
38.62186615627559
 22
19.1712093212102
 32
0.0
 13
38.9841389516813
 23
19.1712093212102
 33
0.0
  0
SOLID
  5
D83
330
D
100
AcDbEntity
 67
     1
  8
LOGO
 62
     5
100
AcDbTrace
 10
39.4068026220811
 20
19.1712093212102
 30
0.0
 11
39.76907541748733
 21
19.1712093212102
 31
0.0
 12
39.4068026220811
 22
20.98257329824116
 32
0.0
 13
39.76907541748733
 23
20.98257329824116
 33
0.0
  0
SOLID
  5
D84
330
D
100
AcDbEntity
 67
     1
  8
LOGO
 62
     5
100
AcDbTrace
 10
40.49362100830023
 20
20.25802770742842
 30
0.0
 11
40.85589380370538
 21
20.25802770742842
 31
0.0
 12
40.49362100830023
 22
19.1712093212102
 32
0.0
 13
40.85589380370538
 23
19.1712093212102
 33
0.0
  0
SOLID
  5
D85
330
D
100
AcDbEntity
 67
     1
  8
LOGO
 62
     5
100
AcDbTrace
 10
39.37057534254029
 20
31.95943899904845
 30
0.0
 11
38.31998423586276
 21
28.10727160789594
 31
0.0
 12
39.37057534254029
 22
22.79393727527156
 32
0.0
 13
38.31998423586276
 23
22.79393727527156
 33
0.0
  0
SOLID
  5
D86
330
D
100
AcDbEntity
 67
     1
  8
LOGO
 62
     5
100
AcDbTrace
 10
39.80530269702797
 20
22.79393727527156
 30
0.0
 11
40.85589380370538
 21
22.79393727527156
 31
0.0
 12
39.80530269702797
 22
32.75643914894164
 32
0.0
 13
40.85589380370538
 23
32.75643914894238
 33
0.0
  0
SOLID
  5
D87
330
D
100
AcDbEntity
 67
     1
  8
LOGO
 62
     2
100
AcDbTrace
 10
39.37057534254029
 20
32.75643914894238
 30
0.0
 11
39.80530269702797
 21
32.75643914894164
 31
0.0
 12
39.37057534254029
 22
22.79393727527156
 32
0.0
 13
39.80530269702797
 23
22.79393727527156
 33
0.0
  0
POLYLINE
  5
D88
330
D
100
AcDbEntity
 67
     1
  8
LOGO
 62
     5
100
AcDb2dPolyline
 66
     1
 10
0.0
 20
0.0
 30
0.0
 40
0.3628533607834424
 41
0.3628533607834424
  0
VERTEX
  5
D89
330
D88
100
AcDbEntity
 67
     1
  8
LOGO
 62
     5
100
AcDbVertex
100
AcDb2dVertex
 10
35.48302736839446
 20
20.25802770742842
 30
0.0
 42
1.0
  0
VERTEX
  5
D8A
330
D88
100
AcDbEntity
 67
     1
  8
LOGO
 62
     5
100
AcDbVertex
100
AcDb2dVertex
 10
34.39446728604338
 20
20.25802770742842
 30
0.0
 42
1.0
  0
SEQEND
  5
D8B
330
D88
100
AcDbEntity
 67
     1
  8
LOGO
 62
     5
  0
POLYLINE
  5
D8C
330
D
100
AcDbEntity
 67
     1
  8
LOGO
 62
     5
100
AcDb2dPolyline
 66
     1
 10
0.0
 20
0.0
 30
0.0
 40
0.3628533607834424
 41
0.3628533607834424
  0
VERTEX
  5
D8D
330
D8C
100
AcDbEntity
 67
     1
  8
LOGO
 62
     5
100
AcDbVertex
100
AcDb2dVertex
 10
36.56984575461251
 20
20.25802770742842
 30
0.0
 42
1.0
  0
VERTEX
  5
D8E
330
D8C
100
AcDbEntity
 67
     1
  8
LOGO
 62
     5
100
AcDbVertex
100
AcDb2dVertex
 10
35.48128567226206
 20
20.25802770742842
 30
0.0
 42
1.0
  0
SEQEND
  5
D8F
330
D8C
100
AcDbEntity
 67
     1
  8
LOGO
 62
     5
  0
POLYLINE
  5
D90
330
D
100
AcDbEntity
 67
     1
  8
LOGO
 62
     5
100
AcDb2dPolyline
 66
     1
 10
0.0
 20
0.0
 30
0.0
 40
0.3628533607834424
 41
0.3628533607834424
  0
VERTEX
  5
D91
330
D90
100
AcDbEntity
 67
     1
  8
LOGO
 62
     5
100
AcDbVertex
100
AcDb2dVertex
 10
31.37724486893677
 20
20.25802770742842
 30
0.0
 42
1.0
  0
VERTEX
  5
D92
330
D90
100
AcDbEntity
 67
     1
  8
LOGO
 62
     5
100
AcDbVertex
100
AcDb2dVertex
 10
30.28868478658649
 20
20.25802770742842
 30
0.0
 42
1.0
  0
SEQEND
  5
D93
330
D90
100
AcDbEntity
 67
     1
  8
LOGO
 62
     5
  0
SOLID
  5
D94
330
D
100
AcDbEntity
 67
     1
  8
LOGO
 62
     5
100
AcDbTrace
 10
30.10841923694943
 20
20.98257329824116
 30
0.0
 11
30.47069203235504
 21
20.98257329824116
 31
0.0
 12
30.10841923694943
 22
19.1712093212102
 32
0.0
 13
30.47069203235504
 23
19.1712093212102
 33
0.0
  0
SOLID
  5
D95
330
D
100
AcDbEntity
 67
     1
  8
LOGO
 62
     5
100
AcDbTrace
 10
31.19523762316845
 20
20.25802770742842
 30
0.0
 11
31.55751041857536
 21
20.25802770742842
 31
0.0
 12
31.19523762316845
 22
19.1712093212102
 32
0.0
 13
31.55751041857536
 23
19.1712093212102
 33
0.0
  0
POLYLINE
  5
D96
330
D
100
AcDbEntity
 67
     1
  8
LOGO
 62
     5
100
AcDb2dPolyline
 66
     1
 10
0.0
 20
0.0
 30
0.0
 70
     1
 40
0.3628533607834424
 41
0.3628533607834424
  0
VERTEX
  5
D97
330
D96
100
AcDbEntity
 67
     1
  8
LOGO
 62
     5
100
AcDbVertex
100
AcDb2dVertex
 10
32.16018558320263
 20
20.07689130972557
 30
0.0
 42
1.0
  0
VERTEX
  5
D98
330
D96
100
AcDbEntity
 67
     1
  8
LOGO
 62
     5
100
AcDbVertex
100
AcDb2dVertex
 10
33.61159902633636
 20
20.07689130972557
 30
0.0
 42
1.0
  0
SEQEND
  5
D99
330
D96
100
AcDbEntity
 67
     1
  8
LOGO
 62
     5
  0
SOLID
  5
D9A
330
D
100
AcDbEntity
 67
     1
  8
LOGO
 62
     5
100
AcDbTrace
 10
33.4292652705999
 20
21.52598249135059
 30
0.0
 11
33.79153806600618
 21
21.52598249135059
 31
0.0
 12
33.4292652705999
 22
19.1712093212102
 32
0.0
 13
33.79153806600618
 23
19.1712093212102
 33
0.0
  0
SOLID
  5
D9B
330
D
100
AcDbEntity
 67
     1
  8
LOGO
 62
     5
100
AcDbTrace
 10
34.21420173640729
 20
20.98257329824116
 30
0.0
 11
34.57647453181295
 21
20.98257329824116
 31
0.0
 12
34.21420173640729
 22
19.1712093212102
 32
0.0
 13
34.57647453181295
 23
19.1712093212102
 33
0.0
  0
SOLID
  5
D9C
330
D
100
AcDbEntity
 67
     1
  8
LOGO
 62
     5
100
AcDbTrace
 10
35.30102012262484
 20
20.25802770742842
 30
0.0
 11
35.66329291803118
 21
20.25802770742842
 31
0.0
 12
35.30102012262484
 22
19.1712093212102
 32
0.0
 13
35.66329291803118
 23
19.1712093212102
 33
0.0
  0
SOLID
  5
D9D
330
D
100
AcDbEntity
 67
     1
  8
LOGO
 62
     5
100
AcDbTrace
 10
36.38783850884295
 20
20.25802770742842
 30
0.0
 11
36.7501113042498
 21
20.25802770742842
 31
0.0
 12
36.38783850884295
 22
19.1712093212098
 32
0.0
 13
36.7501113042498
 23
19.1712093212098
 33
0.0
  0
SOLID
  5
D9E
330
D
100
AcDbEntity
 67
     1
  8
LOGO
 62
     5
100
AcDbTrace
 10
29.32348277114255
 20
21.23616425502536
 30
0.0
 11
29.68575556655049
 21
21.23616425502536
 31
0.0
 12
29.32348277114255
 22
21.52598249135059
 32
0.0
 13
29.68575556655049
 23
21.52598249135059
 33
0.0
  0
SOLID
  5
D9F
330
D
100
AcDbEntity
 67
     1
  8
LOGO
 62
     5
100
AcDbTrace
 10
29.32348277114255
 20
20.98257329824116
 30
0.0
 11
29.68575556655049
 21
20.98257329824116
 31
0.0
 12
29.32348277114255
 22
19.1712093212098
 32
0.0
 13
29.68575556655049
 23
19.1712093212102
 33
0.0
  0
SOLID
  5
DA0
330
D
100
AcDbEntity
 67
     1
  8
LOGO
 62
     5
100
AcDbTrace
 10
32.88589230476947
 20
22.79393727527219
 30
0.0
 11
33.93648341144768
 21
22.79393727527219
 31
0.0
 12
32.88589230476947
 22
28.10727160789594
 32
0.0
 13
33.93648341144768
 23
31.95943899904845
 33
0.0
  0
SOLID
  5
DA1
330
D
100
AcDbEntity
 67
     1
  8
LOGO
 62
     5
100
AcDbTrace
 10
34.37121076593576
 20
32.75643914894164
 30
0.0
 11
35.42180187261363
 21
32.75643914894238
 31
0.0
 12
34.37121076593576
 22
23.59093742516512
 32
0.0
 13
35.42180187261363
 23
27.44310481631791
 33
0.0
  0
SOLID
  5
DA2
330
D
100
AcDbEntity
 67
     1
  8
LOGO
 62
     2
100
AcDbTrace
 10
33.93648341144768
 20
32.75643914894164
 30
0.0
 11
34.37121076593576
 21
32.75643914894164
 31
0.0
 12
33.93648341144768
 22
22.79393727527219
 32
0.0
 13
34.37121076593576
 23
22.79393727527219
 33
0.0
  0
SOLID
  5
DA3
330
D
100
AcDbEntity
 67
     1
  8
LOGO
 62
     5
100
AcDbTrace
 10
34.37121076593576
 20
23.59093742516512
 30
0.0
 11
35.42180187261363
 21
27.44310481631791
 31
0.0
 12
39.37057534254029
 22
32.75643914894238
 32
0.0
 13
38.31998423586276
 23
32.75643914894238
 33
0.0
  0
SOLID
  5
DA4
330
D
100
AcDbEntity
 67
     1
  8
LOGO
 62
     5
100
AcDbTrace
 10
34.37121076593576
 20
22.79393727527219
 30
0.0
 11
35.42180187261363
 21
22.79393727527219
 31
0.0
 12
39.37057534254029
 22
31.95943899904845
 32
0.0
 13
38.31998423586276
 23
28.10727160789594
 33
0.0
  0
SOLID
  5
DA5
330
D
100
AcDbEntity
 67
     1
  8
LOGO
 62
     2
100
AcDbTrace
 10
33.93648341144768
 20
22.79393727527219
 30
0.0
 11
34.37121076593576
 21
22.79393727527219
 31
0.0
 12
39.37057534254029
 22
32.75643914894238
 32
0.0
 13
39.80530269702797
 23
32.75643914894164
 33
0.0
  0
LWPOLYLINE
  5
DA6
330
D
100
AcDbEntity
 67
     1
  8
LOGO
 62
     4
100
AcDbPolyline
 90
        4
 70
     1
 43
0.0
 10
24.93082145515295
 20
33.33363437688129
 10
390.0145214942695
 20
33.33363437688125
 10
390.0145214942695
 20
9.035418252989938
 10
24.93082145515295
 20
9.035418252989966
1001
GENIUS_GENREC_14
1002
{
1000
PYDIR
1011
24.93082145515295
1021
9.035418252989966
1031
0.0
1002
}
1002
{
1000
PXDIR
1011
390.0145214942695
1021
33.33363437688125
1031
0.0
1002
}
1002
{
1000
PORI
1011
24.93082145515295
1021
33.33363437688129
1031
0.0
1002
}
1002
{
1000
PINS
1011
24.93082145515295
1021
33.33363437688129
1031
0.0
1002
}
1002
{
1000
PINS2
1011
390.0145214942695
1021
9.035418252989938
1031
0.0
1002
}
1002
{
1000
C
1070
     1
1002
}
1001
GENIUS_GENOBJ-N-REC_13
1002
{
1000
OWNER
1000
GEN
1002
}
1001
GENIUS_GENODEF_13
1002
{
1000
HIER
1070
     0
1002
}
1002
{
1000
MANEDIT
1070
     0
1002
}
1002
{
1000
NOSEL
1070
     0
1002
}
1002
{
1000
BEHIND
1070
     0
1002
}
1002
{
1000
OTHER
1070
     0
1002
}
1002
{
1000
REACTOR
1002
}
  0
TEXT
  5
DA7
330
D
100
AcDbEntity
 67
     1
  8
LOGO
100
AcDbText
 10
79.18869491229265
 20
10.32807376042899
 30
0.0
 40
2.43017349271386
  1
00909240
 41
0.7
  7
CHINESET
 72
     1
 11
85.42614021025821
 21
10.32807376042899
 31
0.0
100
AcDbText
  0
LINE
  5
DA8
330
D
100
AcDbEntity
 67
     1
  8
LOGO
 62
     4
100
AcDbLine
 10
92.96793788399487
 20
13.89506147776896
 30
0.0
 11
92.96793788399657
 21
9.035418252990325
 31
0.0
  0
LINE
  5
DA9
330
D
100
AcDbEntity
 67
     1
  8
LOGO
 62
     4
100
AcDbLine
 10
92.96793788399487
 20
13.89506147776896
 30
0.0
 11
78.38689692771334
 21
13.89506147776896
 31
0.0
  0
CIRCLE
  5
DAA
330
D
100
AcDbEntity
 67
     1
  8
LOGO
  6
Continuous
100
AcDbCircle
 10
66.68720481107403
 20
26.04936694592391
 30
0.0
 40
1.410811619706881
  0
CIRCLE
  5
DAB
330
D
100
AcDbEntity
 67
     1
  8
LOGO
  6
Continuous
100
AcDbCircle
 10
66.68720481107403
 20
26.04936694592391
 30
0.0
 40
0.8266107170617653
  0
LINE
  5
DAC
330
D
100
AcDbEntity
 67
     1
  8
LOGO
100
AcDbLine
 10
75.55290873296917
 20
24.6385553262169
 30
0.0
 11
75.55290873296917
 21
27.46017856563105
 31
0.0
  0
LINE
  5
DAD
330
D
100
AcDbEntity
 67
     1
  8
LOGO
100
AcDbLine
 10
71.13009528963885
 20
25.22275622886227
 30
0.0
 11
71.13009528963885
 21
26.87597766298598
 31
0.0
  0
LINE
  5
DAE
330
D
100
AcDbEntity
 67
     1
  8
LOGO
  6
Continuous
100
AcDbLine
 10
71.13009528963885
 20
26.87597766298598
 30
0.0
 11
75.55290873296917
 21
27.46017856563105
 31
0.0
  0
LINE
  5
DAF
330
D
100
AcDbEntity
 67
     1
  8
LOGO
  6
Continuous
100
AcDbLine
 10
71.13009528963885
 20
25.22275622886227
 30
0.0
 11
75.55290873296917
 21
24.6385553262169
 31
0.0
  0
LINE
  5
DB0
330
D
100
AcDbEntity
 67
     1
  8
LOGO
  6
AM_ISO08W050x2
 48
0.3
100
AcDbLine
 10
64.74237986806684
 20
26.04936694592391
 30
0.0
 11
68.63202975407967
 21
26.04936694592391
 31
0.0
1001
GENIUS_GENOREF_13
1005
DBB
  0
LINE
  5
DB1
330
D
100
AcDbEntity
 67
     1
  8
LOGO
  6
AM_ISO08W050x2
 48
0.3
100
AcDbLine
 10
66.68720481107403
 20
24.10454200291778
 30
0.0
 11
66.68720481107403
 21
27.99419188893052
 31
0.0
1001
GENIUS_GENOREF_13
1005
DBA
  0
LINE
  5
DB2
330
D
100
AcDbEntity
 67
     1
  8
LOGO
  6
CENTER
 48
0.5
100
AcDbLine
 10
70.77639314569722
 20
26.04936694592391
 30
0.0
 11
75.99827172932657
 21
26.04936694592391
 31
0.0
1001
GENIUS_GENOREF_13
1005
DB9
  0
POINT
  5
DB9
330
D
100
AcDbEntity
 67
     1
  8
0
 60
     1
100
AcDbPoint
 10
2113.309964340805
 20
-560.586859288516
 30
0.0
1001
GENIUS_GENOBJ-N-CRS_13
1002
{
1000
OWNER
1000
GEN
1002
}
1001
GENIUS_GENOLIS_13
1002
{
1000
ENT
1005
0
1005
0
1005
0
1005
DB2
1002
}
1001
GENIUS_GENOENT_13
1002
{
1000
MYREF
1005
DB9
1002
}
1002
{
1000
GRP
1005
0
1002
}
1001
GENIUS_GENODEF_13
1002
{
1000
HIER
1070
    10
1002
}
1002
{
1000
MANEDIT
1070
     1
1002
}
1002
{
1000
NOSEL
1070
     0
1002
}
1002
{
1000
BEHIND
1070
     0
1002
}
1002
{
1000
OTHER
1070
     0
1002
}
1002
{
1000
REACTOR
1002
}
  0
POINT
  5
DBA
330
D
100
AcDbEntity
 67
     1
  8
0
 60
     1
100
AcDbPoint
 10
2101.98537911795
 20
-551.7112728098798
 30
0.0
1001
GENIUS_GENOBJ-N-CRS_13
1002
{
1000
OWNER
1000
GEN
1002
}
1001
GENIUS_GENOLIS_13
1002
{
1000
ENT
1005
0
1005
0
1005
0
1005
DB1
1002
}
1001
GENIUS_GENOENT_13
1002
{
1000
MYREF
1005
DBA
1002
}
1002
{
1000
GRP
1005
0
1002
}
1001
GENIUS_GENODEF_13
1002
{
1000
HIER
1070
    10
1002
}
1002
{
1000
MANEDIT
1070
     1
1002
}
1002
{
1000
NOSEL
1070
     0
1002
}
1002
{
1000
BEHIND
1070
     0
1002
}
1002
{
1000
OTHER
1070
     0
1002
}
1002
{
1000
REACTOR
1002
}
  0
POINT
  5
DBB
330
D
100
AcDbEntity
 67
     1
  8
0
 60
     1
100
AcDbPoint
 10
2108.344052815787
 20
-560.586859288516
 30
0.0
1001
GENIUS_GENOBJ-N-CRS_13
1002
{
1000
OWNER
1000
GEN
1002
}
1001
GENIUS_GENOLIS_13
1002
{
1000
ENT
1005
0
1005
0
1005
0
1005
DB0
1002
}
1001
GENIUS_GENOENT_13
1002
{
1000
MYREF
1005
DBB
1002
}
1002
{
1000
GRP
1005
0
1002
}
1001
GENIUS_GENODEF_13
1002
{
1000
HIER
1070
    10
1002
}
1002
{
1000
MANEDIT
1070
     1
1002
}
1002
{
1000
NOSEL
1070
     0
1002
}
1002
{
1000
BEHIND
1070
     0
1002
}
1002
{
1000
OTHER
1070
     0
1002
}
1002
{
1000
REACTOR
1002
}
  0
LWPOLYLINE
  5
2552
330
D
100
AcDbEntity
 67
     1
  8
LOGO
 62
     4
100
AcDbPolyline
 90
        4
 70
     1
 43
0.0
 10
24.93082145515302
 20
278.4890811667475
 10
390.0145214942695
 20
278.4890811667475
 10
390.0145214942695
 20
33.33363437688125
 10
24.93082145515302
 20
33.33363437688125
  0
DIMENSION
  5
30F0
330
D
100
AcDbEntity
 67
     1
  8
AM_5
100
AcDbDimension
  2
*D1
 10
173.7215333677745
 20
116.5033988768866
 30
0.0
 11
168.7215333677745
 21
119.2533988768866
 31
0.0
 70
    32
 71
     5
 42
10.0
  3
AM_ISO$0
100
AcDbAlignedDimension
 13
163.7215333677745
 23
145.0033988768866
 33
0.0
 14
173.7215333677745
 24
128.5033988768866
 34
0.0
100
AcDbRotatedDimension
1001
ACAD
1000
DSTYLE
1002
{
1070
    40
1040
1.0
1070
    43
1040
15.0
1070
    74
1070
     1
1070
   172
1070
     0
1070
   288
1070
     1
1070
   289
1070
     0
1002
}
  0
DIMENSION
  5
30F1
330
D
100
AcDbEntity
 67
     1
  8
AM_5
100
AcDbDimension
  2
*D2
 10
263.7215333677746
 20
101.5033988768866
 30
0.0
 11
213.7215333677746
 21
104.2533988768866
 31
0.0
 70
    32
 71
     5
 42
100.0
  3
AM_ISO$0
100
AcDbAlignedDimension
 13
163.7215333677745
 23
145.0033988768866
 33
0.0
 14
263.7215333677746
 24
128.5033988768866
 34
0.0
100
AcDbRotatedDimension
1001
ACAD
1000
DSTYLE
1002
{
1070
    40
1040
1.0
1070
    43
1040
15.0
1002
}
  0
DIMENSION
  5
30F2
330
D
100
AcDbEntity
 67
     1
  8
AM_5
100
AcDbDimension
  2
*D3
 10
263.7215333677746
 20
116.5033988768867
 30
0.0
 11
218.7215333677746
 21
119.2533988768867
 31
0.0
 70
    32
 71
     5
 42
90.0
  3
AM_ISO$0
100
AcDbAlignedDimension
 13
173.7215333677745
 23
128.5033988768866
 33
0.0
 14
263.7215333677746
 24
128.5033988768866
 34
0.0
100
AcDbRotatedDimension
1001
ACAD
1000
DSTYLE
1002
{
1070
    40
1040
1.0
1070
    43
1040
15.0
1002
}
  0
DIMENSION
  5
30F3
330
D
100
AcDbEntity
 67
     1
  8
AM_5
100
AcDbDimension
  2
*D4
 10
140.4679828966651
 20
188.5033988768866
 30
0.0
 11
140.4679828966651
 21
166.0033988768867
 31
0.0
 70
   160
  1
%%c<>
 71
     5
 42
45.0
  3
AM_ISO$0
100
AcDbAlignedDimension
 13
165.2215333677745
 23
143.5033988768866
 33
0.0
 14
165.2215333677745
 24
188.5033988768866
 34
0.0
 50
90.0
100
AcDbRotatedDimension
1001
ACAD
1000
DSTYLE
1002
{
1070
    40
1040
1.0
1070
    43
1040
15.0
1002
}
  0
DIMENSION
  5
30F4
330
D
100
AcDbEntity
 67
     1
  8
AM_5
100
AcDbDimension
  2
*D5
 10
149.803298527863
 20
176.0033988768866
 30
0.0
 11
149.803298527863
 21
166.0033988768867
 31
0.0
 70
   160
  1
%%c<>
 71
     5
 42
20.0
  3
AM_ISO$0
100
AcDbAlignedDimension
 13
160.4215333677745
 23
156.0033988768866
 33
0.0
 14
160.4215333677745
 24
176.0033988768866
 34
0.0
 50
90.0
100
AcDbRotatedDimension
1001
ACAD
1000
DSTYLE
1002
{
1070
    40
1040
1.0
1070
    43
1040
15.0
1002
}
  0
DIMENSION
  5
30F6
330
D
100
AcDbEntity
 67
     1
  8
AM_5
100
AcDbDimension
  2
*D6
 10
375.7940836616781
 20
101.5033988768866
 30
0.0
 11
338.2940836616781
 21
104.2533988768866
 31
0.0
 70
    32
  1
{\Famgdt;o}<>
 71
     5
 42
75.0
  3
AM_ISO$0
100
AcDbAlignedDimension
 13
300.7940836616781
 23
132.9315074885792
 33
0.0
 14
375.7940836616781
 24
132.9315074885792
 34
0.0
100
AcDbRotatedDimension
1001
ACAD
1000
DSTYLE
1002
{
1070
    40
1040
1.0
1070
    43
1040
15.0
1070
    74
1070
     1
1070
   172
1070
     0
1070
   288
1070
     1
1070
   289
1070
     0
1002
}
  0
DIMENSION
  5
30F9
330
D
100
AcDbEntity
 67
     1
  8
AM_5
100
AcDbDimension
  2
*D7
 10
118.7819309625371
 20
101.5033988768866
 30
0.0
 11
81.2819309625371
 21
104.2533988768866
 31
0.0
 70
    32
  1
{\Famgdt;o}<>
 71
     5
 42
75.0
  3
AM_ISO$0
100
AcDbAlignedDimension
 13
43.7819309625371
 23
132.9315074885792
 33
0.0
 14
118.7819309625371
 24
132.9315074885792
 34
0.0
100
AcDbRotatedDimension
1001
ACAD
1000
DSTYLE
1002
{
1070
    40
1040
1.0
1070
    43
1040
15.0
1070
    74
1070
     1
1070
   172
1070
     0
1070
   288
1070
     1
1070
   289
1070
     0
1002
}
  0
DIMENSION
  5
30FA
330
D
100
AcDbEntity
 67
     1
  8
AM_5
100
AcDbDimension
  2
*D8
 10
109.5319309625371
 20
116.5033988768866
 30
0.0
 11
81.2819309625371
 21
119.2533988768866
 31
0.0
 70
    32
  1
{\Famgdt;o}<>
 71
     5
 42
56.5
  3
AM_ISO
100
AcDbAlignedDimension
 13
53.03193096253711
 23
137.7533988768866
 33
0.0
 14
109.5319309625371
 24
137.7533988768866
 34
0.0
100
AcDbRotatedDimension
  0
LINE
  5
30FC
330
D
100
AcDbEntity
 67
     1
  8
AM_VIS
100
AcDbLine
 10
263.7215333677746
 20
199.075290265194
 30
0.0
 11
263.7215333677746
 21
132.9315074885792
 31
0.0
  0
LINE
  5
30FD
330
D
100
AcDbEntity
 67
     1
  8
AM_VIS
100
AcDbLine
 10
239.7215333677745
 20
132.9315074885792
 30
0.0
 11
239.7215333677745
 21
199.075290265194
 31
0.0
  0
LINE
  5
30FE
330
D
100
AcDbEntity
 67
     1
  8
AM_VIS
100
AcDbLine
 10
255.7215333677746
 20
199.075290265194
 30
0.0
 11
255.7215333677746
 21
132.9315074885792
 31
0.0
  0
LINE
  5
30FF
330
D
100
AcDbEntity
 67
     1
  8
AM_VIS
100
AcDbLine
 10
173.7215333677745
 20
199.075290265194
 30
0.0
 11
173.7215333677745
 21
132.9315074885792
 31
0.0
  0
LINE
  5
3100
330
D
100
AcDbEntity
 67
     1
  8
AM_VIS
100
AcDbLine
 10
173.7215333677745
 20
203.5033988768867
 30
0.0
 11
239.7215333677745
 21
203.5033988768867
 31
0.0
  0
LINE
  5
3101
330
D
100
AcDbEntity
 67
     1
  8
AM_VIS
100
AcDbLine
 10
239.7215333677745
 20
199.075290265194
 30
0.0
 11
173.7215333677745
 21
199.075290265194
 31
0.0
  0
LINE
  5
3102
330
D
100
AcDbEntity
 67
     1
  8
AM_VIS
100
AcDbLine
 10
173.7215333677745
 20
132.9315074885792
 30
0.0
 11
239.7215333677745
 21
132.9315074885792
 31
0.0
  0
LINE
  5
3103
330
D
100
AcDbEntity
 67
     1
  8
AM_VIS
100
AcDbLine
 10
239.7215333677745
 20
128.5033988768866
 30
0.0
 11
173.7215333677745
 21
128.5033988768866
 31
0.0
  0
LINE
  5
3104
330
D
100
AcDbEntity
 67
     1
  8
AM_VIS
100
AcDbLine
 10
263.7215333677746
 20
199.075290265194
 30
0.0
 11
255.7215333677746
 21
199.075290265194
 31
0.0
  0
LINE
  5
3105
330
D
100
AcDbEntity
 67
     1
  8
AM_VIS
100
AcDbLine
 10
255.7215333677746
 20
203.5033988768867
 30
0.0
 11
263.7215333677746
 21
203.5033988768867
 31
0.0
  0
LINE
  5
3106
330
D
100
AcDbEntity
 67
     1
  8
AM_VIS
100
AcDbLine
 10
263.7215333677746
 20
128.5033988768866
 30
0.0
 11
255.7215333677746
 21
128.5033988768866
 31
0.0
  0
LINE
  5
3107
330
D
100
AcDbEntity
 67
     1
  8
AM_VIS
100
AcDbLine
 10
255.7215333677746
 20
132.9315074885792
 30
0.0
 11
263.7215333677746
 21
132.9315074885792
 31
0.0
  0
LINE
  5
3108
330
D
100
AcDbEntity
 67
     1
  8
AM_VIS
100
AcDbLine
 10
240.1215333677745
 20
193.5033988768866
 30
0.0
 11
255.7215333677746
 21
193.5033988768866
 31
0.0
  0
LINE
  5
3109
330
D
100
AcDbEntity
 67
     1
  8
AM_VIS
100
AcDbLine
 10
240.1215333677745
 20
138.5033988768866
 30
0.0
 11
255.7215333677746
 21
138.5033988768866
 31
0.0
  0
LINE
  5
310A
330
D
100
AcDbEntity
 67
     1
  8
AM_VIS
100
AcDbLine
 10
163.7215333677745
 20
145.0033988768866
 30
0.0
 11
165.2215333677745
 21
143.5033988768866
 31
0.0
  0
LINE
  5
310B
330
D
100
AcDbEntity
 67
     1
  8
AM_VIS
100
AcDbLine
 10
163.7215333677745
 20
187.0033988768866
 30
0.0
 11
165.2215333677745
 21
188.5033988768866
 31
0.0
  0
LINE
  5
310C
330
D
100
AcDbEntity
 67
     1
  8
AM_VIS
100
AcDbLine
 10
165.2215333677745
 20
188.5033988768866
 30
0.0
 11
173.7215333677745
 21
188.5033988768866
 31
0.0
  0
LINE
  5
310D
330
D
100
AcDbEntity
 67
     1
  8
AM_VIS
100
AcDbLine
 10
165.2215333677745
 20
143.5033988768866
 30
0.0
 11
173.7215333677745
 21
143.5033988768866
 31
0.0
  0
LINE
  5
3112
330
D
100
AcDbEntity
 67
     1
  8
AM_VIS
100
AcDbLine
 10
239.7215333697757
 20
193.9033988768866
 30
0.0
 11
239.7215333697757
 21
193.9033422925492
 31
0.0
  0
LINE
  5
3113
330
D
100
AcDbEntity
 67
     1
  8
AM_VIS
100
AcDbLine
 10
239.7215333697757
 20
138.1034554612241
 30
0.0
 11
239.7215333697757
 21
138.1033988768866
 31
0.0
  0
LINE
  5
3114
330
D
100
AcDbEntity
 67
     1
  8
AM_VIS
100
AcDbLine
 10
239.7215333697757
 20
193.9033988768866
 30
0.0
 11
239.7215333697757
 21
193.9033422925492
 31
0.0
  0
LINE
  5
3115
330
D
100
AcDbEntity
 67
     1
  8
AM_VIS
100
AcDbLine
 10
239.7215333697757
 20
138.1034554612241
 30
0.0
 11
239.7215333697757
 21
138.1033988768866
 31
0.0
  0
ARC
  5
3116
330
D
100
AcDbEntity
 67
     1
  8
AM_VIS
100
AcDbCircle
 10
205.7215333677746
 20
166.0033988768866
 30
0.0
 40
24.0
100
AcDbArc
 50
180.0
 51
0.0
  0
ARC
  5
3117
330
D
100
AcDbEntity
 67
     1
  8
AM_VIS
100
AcDbCircle
 10
232.7215333677746
 20
186.0033988768866
 30
0.0
 40
4.883225000000001
100
AcDbArc
 50
218.9047993370907
 51
180.0
  0
LINE
  5
3118
330
D
100
AcDbEntity
 67
     1
  8
AM_VIS
100
AcDbLine
 10
173.7215333677745
 20
203.5033988768867
 30
0.0
 11
173.7215333677745
 21
199.075290265194
 31
0.0
  0
LINE
  5
3119
330
D
100
AcDbEntity
 67
     1
  8
AM_VIS
100
AcDbLine
 10
239.7215333677745
 20
199.075290265194
 30
0.0
 11
239.7215333677745
 21
203.5033988768867
 31
0.0
  0
LINE
  5
311A
330
D
100
AcDbEntity
 67
     1
  8
AM_VIS
100
AcDbLine
 10
173.7215333677745
 20
132.9315074885792
 30
0.0
 11
173.7215333677745
 21
128.5033988768866
 31
0.0
  0
LINE
  5
311B
330
D
100
AcDbEntity
 67
     1
  8
AM_VIS
100
AcDbLine
 10
239.7215333677745
 20
128.5033988768867
 30
0.0
 11
239.7215333677745
 21
132.9315074885793
 31
0.0
  0
LINE
  5
311C
330
D
100
AcDbEntity
 67
     1
  8
AM_VIS
100
AcDbLine
 10
255.7215333677746
 20
203.5033988768867
 30
0.0
 11
255.7215333677746
 21
199.075290265194
 31
0.0
  0
LINE
  5
311D
330
D
100
AcDbEntity
 67
     1
  8
AM_VIS
100
AcDbLine
 10
263.7215333677746
 20
199.075290265194
 30
0.0
 11
263.7215333677746
 21
203.5033988768867
 31
0.0
  0
LINE
  5
311E
330
D
100
AcDbEntity
 67
     1
  8
AM_VIS
100
AcDbLine
 10
255.7215333677746
 20
132.9315074885792
 30
0.0
 11
255.7215333677746
 21
128.5033988768866
 31
0.0
  0
LINE
  5
311F
330
D
100
AcDbEntity
 67
     1
  8
AM_VIS
100
AcDbLine
 10
263.7215333677746
 20
128.5033988768867
 30
0.0
 11
263.7215333677746
 21
132.9315074885793
 31
0.0
  0
ARC
  5
3120
330
D
100
AcDbEntity
 67
     1
  8
AM_VIS
100
AcDbCircle
 10
240.1215333677745
 20
193.9033988768866
 30
0.0
 40
0.3999999999999986
100
AcDbArc
 50
180.0
 51
270.0
  0
ARC
  5
3121
330
D
100
AcDbEntity
 67
     1
  8
AM_VIS
100
AcDbCircle
 10
240.1215333677745
 20
138.1033988768866
 30
0.0
 40
0.3999999999999986
100
AcDbArc
 50
90.0
 51
180.0
  0
LINE
  5
3122
330
D
100
AcDbEntity
 67
     1
  8
AM_VIS
100
AcDbLine
 10
165.2215333677745
 20
188.5033988768866
 30
0.0
 11
165.2215333677745
 21
143.5033988768866
 31
0.0
  0
LINE
  5
3123
330
D
100
AcDbEntity
 67
     1
  8
AM_VIS
100
AcDbLine
 10
163.7215333677745
 20
145.0033988768866
 30
0.0
 11
163.7215333677745
 21
187.0033988768866
 31
0.0
  0
ARC
  5
3127
330
D
100
AcDbEntity
 67
     1
  8
AM_VIS
100
AcDbCircle
 10
205.7215333677746
 20
166.0033988768866
 30
0.0
 40
24.0
100
AcDbArc
 50
0.0
 51
180.0
  0
LINE
  5
3128
330
D
100
AcDbEntity
 67
     1
  8
AM_7
  6
AM_ISO08W050x2
100
AcDbLine
 10
160.4215333677745
 20
176.0033988768866
 30
0.0
 11
156.7215333677745
 21
174.6567090101017
 31
0.0
  0
LINE
  5
3129
330
D
100
AcDbEntity
 67
     1
  8
AM_7
  6
AM_ISO08W050x2
100
AcDbLine
 10
160.4215333677745
 20
156.0033988768866
 30
0.0
 11
156.7215333677745
 21
157.3500887436715
 31
0.0
  0
LINE
  5
312A
330
D
100
AcDbEntity
 67
     1
  8
AM_7
  6
AM_ISO08W050x2
100
AcDbLine
 10
270.173157037695
 20
156.0033988768866
 30
0.0
 11
160.4215333677745
 21
156.0033988768866
 31
0.0
  0
LINE
  5
312B
330
D
100
AcDbEntity
 67
     1
  8
AM_7
  6
AM_ISO08W050x2
100
AcDbLine
 10
270.173157037695
 20
176.0033988768866
 30
0.0
 11
160.4215333677745
 21
176.0033988768866
 31
0.0
  0
LINE
  5
312C
330
D
100
AcDbEntity
 67
     1
  8
AM_7
  6
AM_ISO08W050x2
100
AcDbLine
 10
156.7215333677745
 20
157.3500887436715
 30
0.0
 11
156.7215333677745
 21
174.6567090101017
 31
0.0
  0
LINE
  5
312D
330
D
100
AcDbEntity
 67
     1
  8
AM_7
  6
AM_ISO08W050x2
100
AcDbLine
 10
160.4215333677745
 20
176.0033988768866
 30
0.0
 11
160.4215333677745
 21
156.0033988768866
 31
0.0
  0
ARC
  5
312E
330
D
100
AcDbEntity
 67
     1
  8
AM_VIS
100
AcDbCircle
 10
225.7215333677745
 20
166.0033988768866
 30
0.0
 40
3.199999999999999
100
AcDbArc
 50
359.9999999999992
 51
180.0
  0
ARC
  5
312F
330
D
100
AcDbEntity
 67
     1
  8
AM_VIS
100
AcDbCircle
 10
205.7215333677746
 20
166.0033988768866
 30
0.0
 40
24.0
100
AcDbArc
 50
90.0
 51
270.0
  0
ARC
  5
3130
330
D
100
AcDbEntity
 67
     1
  8
AM_VIS
100
AcDbCircle
 10
185.7215333677745
 20
166.0033988768866
 30
0.0
 40
3.199999999999999
100
AcDbArc
 50
359.9999999999992
 51
180.0
  0
ARC
  5
3131
330
D
100
AcDbEntity
 67
     1
  8
AM_VIS
100
AcDbCircle
 10
185.7215333677745
 20
166.0033988768866
 30
0.0
 40
3.199999999999999
100
AcDbArc
 50
180.0
 51
359.9999999999992
  0
ARC
  5
3132
330
D
100
AcDbEntity
 67
     1
  8
AM_VIS
100
AcDbCircle
 10
225.7215333677745
 20
166.0033988768866
 30
0.0
 40
3.199999999999999
100
AcDbArc
 50
180.0
 51
359.9999999999992
  0
ARC
  5
3133
330
D
100
AcDbEntity
 67
     1
  8
AM_VIS
100
AcDbCircle
 10
205.7215333677746
 20
166.0033988768866
 30
0.0
 40
24.0
100
AcDbArc
 50
270.0
 51
90.0
  0
LINE
  5
3134
330
D
100
AcDbEntity
 67
     1
  8
AM_VIS
100
AcDbLine
 10
162.7215333677745
 20
177.0033988768865
 30
0.0
 11
163.7215333677745
 21
177.7780005237332
 31
0.0
  0
LINE
  5
3135
330
D
100
AcDbEntity
 67
     1
  8
AM_VIS
100
AcDbLine
 10
162.7215333677745
 20
155.0033988768867
 30
0.0
 11
163.7215333677745
 21
154.2287972300401
 31
0.0
  0
LINE
  5
3136
330
D
100
AcDbEntity
 67
     1
  8
AM_VIS
100
AcDbLine
 10
162.7215333677745
 20
166.0033988768866
 30
0.0
 11
162.7215333677745
 21
177.0033988768865
 31
0.0
  0
LINE
  5
3137
330
D
100
AcDbEntity
 67
     1
  8
AM_VIS
100
AcDbLine
 10
162.7215333677745
 20
155.0033988768867
 30
0.0
 11
162.7215333677745
 21
166.0033988768866
 31
0.0
  0
LINE
  5
3138
330
D
100
AcDbEntity
 67
     1
  8
AM_VIS
100
AcDbLine
 10
225.1435844080904
 20
167.0033988768866
 30
0.0
 11
224.5665333677746
 21
166.0033988768866
 31
0.0
  0
LINE
  5
3139
330
D
100
AcDbEntity
 67
     1
  8
AM_VIS
100
AcDbLine
 10
224.5665333677746
 20
166.0033988768866
 30
0.0
 11
225.1435844080904
 21
165.0033988768866
 31
0.0
  0
LINE
  5
313A
330
D
100
AcDbEntity
 67
     1
  8
AM_VIS
100
AcDbLine
 10
225.1435844080904
 20
165.0033988768866
 30
0.0
 11
226.2994823274587
 21
165.0033988768866
 31
0.0
  0
LINE
  5
313B
330
D
100
AcDbEntity
 67
     1
  8
AM_VIS
100
AcDbLine
 10
226.2994823274587
 20
165.0033988768866
 30
0.0
 11
226.8765333677745
 21
166.0033988768866
 31
0.0
  0
LINE
  5
313C
330
D
100
AcDbEntity
 67
     1
  8
AM_VIS
100
AcDbLine
 10
226.8765333677745
 20
166.0033988768866
 30
0.0
 11
226.2994823274587
 21
167.0033988768866
 31
0.0
  0
LINE
  5
313D
330
D
100
AcDbEntity
 67
     1
  8
AM_VIS
100
AcDbLine
 10
226.2994823274587
 20
167.0033988768866
 30
0.0
 11
225.1435844080904
 21
167.0033988768866
 31
0.0
  0
ARC
  5
313E
330
D
100
AcDbEntity
 67
     1
  8
AM_VIS
100
AcDbCircle
 10
225.7215333677745
 20
166.0033988768866
 30
0.0
 40
2.849999999999995
100
AcDbArc
 50
90.0
 51
270.0
  0
ARC
  5
313F
330
D
100
AcDbEntity
 67
     1
  8
AM_VIS
100
AcDbCircle
 10
225.7215333677745
 20
166.0033988768866
 30
0.0
 40
2.849999999999995
100
AcDbArc
 50
270.0
 51
90.0
  0
LINE
  5
3140
330
D
100
AcDbEntity
 67
     1
  8
AM_VIS
100
AcDbLine
 10
185.1435844080904
 20
167.0033988768866
 30
0.0
 11
184.5665333677746
 21
166.0033988768866
 31
0.0
  0
LINE
  5
3141
330
D
100
AcDbEntity
 67
     1
  8
AM_VIS
100
AcDbLine
 10
184.5665333677746
 20
166.0033988768866
 30
0.0
 11
185.1435844080904
 21
165.0033988768866
 31
0.0
  0
LINE
  5
3142
330
D
100
AcDbEntity
 67
     1
  8
AM_VIS
100
AcDbLine
 10
185.1435844080904
 20
165.0033988768866
 30
0.0
 11
186.2994823274587
 21
165.0033988768866
 31
0.0
  0
LINE
  5
3143
330
D
100
AcDbEntity
 67
     1
  8
AM_VIS
100
AcDbLine
 10
186.2994823274587
 20
165.0033988768866
 30
0.0
 11
186.8765333677745
 21
166.0033988768866
 31
0.0
  0
LINE
  5
3144
330
D
100
AcDbEntity
 67
     1
  8
AM_VIS
100
AcDbLine
 10
186.8765333677745
 20
166.0033988768866
 30
0.0
 11
186.2994823274587
 21
167.0033988768866
 31
0.0
  0
LINE
  5
3145
330
D
100
AcDbEntity
 67
     1
  8
AM_VIS
100
AcDbLine
 10
186.2994823274587
 20
167.0033988768866
 30
0.0
 11
185.1435844080904
 21
167.0033988768866
 31
0.0
  0
ARC
  5
3146
330
D
100
AcDbEntity
 67
     1
  8
AM_VIS
100
AcDbCircle
 10
185.7215333677745
 20
166.0033988768866
 30
0.0
 40
2.849999999999995
100
AcDbArc
 50
90.0
 51
270.0
  0
ARC
  5
3147
330
D
100
AcDbEntity
 67
     1
  8
AM_VIS
100
AcDbCircle
 10
185.7215333677745
 20
166.0033988768866
 30
0.0
 40
2.849999999999995
100
AcDbArc
 50
270.0
 51
90.0
  0
LINE
  5
3184
330
D
100
AcDbEntity
 67
     1
  8
AM_VIS
100
AcDbLine
 10
43.7819309625371
 20
132.9315074885792
 30
0.0
 11
43.7819309625371
 21
199.075290265194
 31
0.0
  0
LINE
  5
3185
330
D
100
AcDbEntity
 67
     1
  8
AM_VIS
100
AcDbLine
 10
48.21003957422971
 20
203.5033988768867
 30
0.0
 11
114.3538223508445
 21
203.5033988768867
 31
0.0
  0
LINE
  5
3186
330
D
100
AcDbEntity
 67
     1
  8
AM_VIS
100
AcDbLine
 10
118.7819309625371
 20
199.075290265194
 30
0.0
 11
118.7819309625371
 21
132.9315074885792
 31
0.0
  0
LINE
  5
3187
330
D
100
AcDbEntity
 67
     1
  8
AM_VIS
100
AcDbLine
 10
114.3538223508445
 20
128.5033988768866
 30
0.0
 11
48.21003957422971
 21
128.5033988768866
 31
0.0
  0
ARC
  5
318A
330
D
100
AcDbEntity
 67
     1
  8
AM_VIS
100
AcDbCircle
 10
53.03193096253711
 20
194.2533988768866
 30
0.0
 40
3.324999999999998
100
AcDbArc
 50
90.0
 51
270.0
  0
ARC
  5
318B
330
D
100
AcDbEntity
 67
     1
  8
AM_VIS
100
AcDbCircle
 10
53.03193096253711
 20
137.7533988768866
 30
0.0
 40
3.324999999999998
100
AcDbArc
 50
90.0
 51
270.0
  0
ARC
  5
318C
330
D
100
AcDbEntity
 67
     1
  8
AM_VIS
100
AcDbCircle
 10
109.5319309625371
 20
194.2533988768866
 30
0.0
 40
3.324999999999998
100
AcDbArc
 50
90.0
 51
270.0
  0
ARC
  5
318D
330
D
100
AcDbEntity
 67
     1
  8
AM_VIS
100
AcDbCircle
 10
109.5319309625371
 20
137.7533988768866
 30
0.0
 40
3.324999999999998
100
AcDbArc
 50
90.0
 51
270.0
  0
ARC
  5
318E
330
D
100
AcDbEntity
 67
     1
  8
AM_VIS
100
AcDbCircle
 10
81.2819309625371
 20
166.0033988768866
 30
0.0
 40
50.0
100
AcDbArc
 50
221.4096221092709
 51
228.5903778907302
  0
ARC
  5
318F
330
D
100
AcDbEntity
 67
     1
  8
AM_VIS
100
AcDbCircle
 10
81.2819309625371
 20
166.0033988768866
 30
0.0
 40
50.0
100
AcDbArc
 50
131.4096221092697
 51
138.590377890729
  0
ARC
  5
3190
330
D
100
AcDbEntity
 67
     1
  8
AM_VIS
100
AcDbCircle
 10
81.2819309625371
 20
166.0033988768866
 30
0.0
 40
50.0
100
AcDbArc
 50
41.40962210927096
 51
48.59037789073025
  0
ARC
  5
3191
330
D
100
AcDbEntity
 67
     1
  8
AM_VIS
100
AcDbCircle
 10
81.2819309625371
 20
166.0033988768866
 30
0.0
 40
50.0
100
AcDbArc
 50
311.4096221092698
 51
318.590377890729
  0
ARC
  5
3192
330
D
100
AcDbEntity
 67
     1
  8
AM_VIS
100
AcDbCircle
 10
53.03193096253711
 20
194.2533988768866
 30
0.0
 40
3.324999999999998
100
AcDbArc
 50
270.0
 51
90.0
  0
ARC
  5
3193
330
D
100
AcDbEntity
 67
     1
  8
AM_VIS
100
AcDbCircle
 10
53.03193096253711
 20
137.7533988768866
 30
0.0
 40
3.324999999999998
100
AcDbArc
 50
270.0
 51
90.0
  0
ARC
  5
3194
330
D
100
AcDbEntity
 67
     1
  8
AM_VIS
100
AcDbCircle
 10
109.5319309625371
 20
194.2533988768866
 30
0.0
 40
3.324999999999998
100
AcDbArc
 50
270.0
 51
90.0
  0
ARC
  5
3195
330
D
100
AcDbEntity
 67
     1
  8
AM_VIS
100
AcDbCircle
 10
109.5319309625371
 20
137.7533988768866
 30
0.0
 40
3.324999999999998
100
AcDbArc
 50
270.0
 51
90.0
  0
ARC
  5
3199
330
D
100
AcDbEntity
 67
     1
  8
AM_VIS
100
AcDbCircle
 10
81.2819309625371
 20
166.0033988768866
 30
0.0
 40
22.5
100
AcDbArc
 50
270.0
 51
90.0
  0
ARC
  5
319B
330
D
100
AcDbEntity
 67
     1
  8
AM_VIS
100
AcDbCircle
 10
81.2819309625371
 20
166.0033988768866
 30
0.0
 40
22.5
100
AcDbArc
 50
90.0
 51
270.0
  0
ARC
  5
319E
330
D
100
AcDbEntity
 67
     1
  8
AM_VIS
100
AcDbCircle
 10
81.2819309625371
 20
166.0033988768866
 30
0.0
 40
10.0
100
AcDbArc
 50
270.0
 51
90.0
  0
ARC
  5
319F
330
D
100
AcDbEntity
 67
     1
  8
AM_VIS
100
AcDbCircle
 10
81.2819309625371
 20
166.0033988768866
 30
0.0
 40
10.0
100
AcDbArc
 50
90.0
 51
270.0
  0
LINE
  5
31A4
330
D
100
AcDbEntity
 67
     1
  8
AM_VIS
100
AcDbLine
 10
300.7940836616781
 20
199.075290265194
 30
0.0
 11
300.7940836616781
 21
132.9315074885792
 31
0.0
  0
LINE
  5
31A5
330
D
100
AcDbEntity
 67
     1
  8
AM_VIS
100
AcDbLine
 10
371.3659750499854
 20
203.5033988768867
 30
0.0
 11
305.2221922733707
 21
203.5033988768867
 31
0.0
  0
LINE
  5
31A6
330
D
100
AcDbEntity
 67
     1
  8
AM_VIS
100
AcDbLine
 10
375.7940836616781
 20
132.9315074885792
 30
0.0
 11
375.7940836616781
 21
199.075290265194
 31
0.0
  0
LINE
  5
31A8
330
D
100
AcDbEntity
 67
     1
  8
AM_VIS
100
AcDbLine
 10
305.2221922733707
 20
128.5033988768866
 30
0.0
 11
371.3659750499854
 21
128.5033988768866
 31
0.0
  0
ARC
  5
31B4
330
D
100
AcDbEntity
 67
     1
  8
AM_VIS
100
AcDbCircle
 10
338.2940836616781
 20
166.0033988768866
 30
0.0
 40
50.0
100
AcDbArc
 50
311.4096221092698
 51
318.590377890729
  0
ARC
  5
31B5
330
D
100
AcDbEntity
 67
     1
  8
AM_VIS
100
AcDbCircle
 10
338.2940836616781
 20
166.0033988768866
 30
0.0
 40
50.0
100
AcDbArc
 50
41.40962210927096
 51
48.59037789073025
  0
ARC
  5
31B6
330
D
100
AcDbEntity
 67
     1
  8
AM_VIS
100
AcDbCircle
 10
338.2940836616781
 20
166.0033988768866
 30
0.0
 40
50.0
100
AcDbArc
 50
131.4096221092697
 51
138.590377890729
  0
ARC
  5
31B7
330
D
100
AcDbEntity
 67
     1
  8
AM_VIS
100
AcDbCircle
 10
338.2940836616781
 20
166.0033988768866
 30
0.0
 40
50.0
100
AcDbArc
 50
221.4096221092709
 51
228.5903778907302
  0
CIRCLE
  5
349A
330
D
100
AcDbEntity
 67
     1
  8
0
100
AcDbCircle
 10
338.2940836616781
 20
166.0033988768866
 30
0.0
 40
10.0
  0
CIRCLE
  5
3515
330
D
100
AcDbEntity
 67
     1
  8
0
100
AcDbCircle
 10
310.0440836616781
 20
137.7533988768866
 30
0.0
 40
4.5
  0
LINE
  5
351A
330
D
100
AcDbEntity
 67
     1
  8
AM_7
  6
AM_ISO08W050x2
100
AcDbLine
 10
316.7225933293033
 20
137.7533988768866
 30
0.0
 11
304.0243166982765
 21
137.7533988768866
 31
0.0
1001
GENIUS_GENOREF_13
1005
351C
  0
LINE
  5
351B
330
D
100
AcDbEntity
 67
     1
  8
AM_7
  6
AM_ISO08W050x2
100
AcDbLine
 10
310.0440836616781
 20
144.0340190278862
 30
0.0
 11
310.0440836616781
 21
131.9847628100775
 31
0.0
1001
GENIUS_GENOREF_13
1005
351C
  0
POINT
  5
351C
330
D
100
AcDbEntity
 67
     1
  8
0
 60
     1
100
AcDbPoint
 10
0.0
 20
0.0
 30
0.0
1001
GENIUS_GENOLIS_13
1002
{
1000
ENT
1005
351B
1005
351A
1005
3519
1005
3518
1002
}
1001
GENIUS_GENOENT_13
1002
{
1000
MYREF
1005
351C
1002
}
1002
{
1000
GRP
1005
0
1002
}
1001
GENIUS_GENOBJ-N-CRS_13
1002
{
1000
OWNER
1000
GEN
1002
}
1001
GENIUS_GENODEF_13
1002
{
1000
HIER
1070
    10
1002
}
1002
{
1000
MANEDIT
1070
     1
1002
}
1002
{
1000
NOSEL
1070
     0
1002
}
1002
{
1000
BEHIND
1070
     0
1002
}
1002
{
1000
OTHER
1070
     0
1002
}
1002
{
1000
REACTOR
1002
}
  0
CIRCLE
  5
351F
330
D
100
AcDbEntity
 67
     1
  8
0
100
AcDbCircle
 10
310.0440836616781
 20
194.2533988768866
 30
0.0
 40
4.5
  0
LINE
  5
3520
330
D
100
AcDbEntity
 67
     1
  8
AM_7
  6
AM_ISO08W050x2
100
AcDbLine
 10
316.7225933293033
 20
194.2533988768866
 30
0.0
 11
304.0243166982765
 21
194.2533988768866
 31
0.0
1001
GENIUS_GENOREF_13
1005
3522
  0
LINE
  5
3521
330
D
100
AcDbEntity
 67
     1
  8
AM_7
  6
AM_ISO08W050x2
100
AcDbLine
 10
310.0440836616781
 20
187.9727787258871
 30
0.0
 11
310.0440836616781
 21
200.0220349436958
 31
0.0
1001
GENIUS_GENOREF_13
1005
3522
  0
POINT
  5
3522
330
D
100
AcDbEntity
 67
     1
  8
0
 60
     1
100
AcDbPoint
 10
0.0
 20
291.2917302860984
 30
0.0
1001
GENIUS_GENOLIS_13
1002
{
1000
ENT
1005
3521
1005
3520
1005
3519
1005
3518
1002
}
1001
GENIUS_GENOENT_13
1002
{
1000
MYREF
1005
3522
1002
}
1002
{
1000
GRP
1005
0
1002
}
1001
GENIUS_GENOBJ-N-CRS_13
1002
{
1000
OWNER
1000
GEN
1002
}
1001
GENIUS_GENODEF_13
1002
{
1000
HIER
1070
    10
1002
}
1002
{
1000
MANEDIT
1070
     1
1002
}
1002
{
1000
NOSEL
1070
     0
1002
}
1002
{
1000
BEHIND
1070
     0
1002
}
1002
{
1000
OTHER
1070
     0
1002
}
1002
{
1000
REACTOR
1002
}
  0
CIRCLE
  5
3523
330
D
100
AcDbEntity
 67
     1
  8
0
100
AcDbCircle
 10
366.5440836616781
 20
137.7533988768866
 30
0.0
 40
4.5
  0
LINE
  5
3524
330
D
100
AcDbEntity
 67
     1
  8
AM_7
  6
AM_ISO08W050x2
100
AcDbLine
 10
359.8655739940529
 20
137.7533988768866
 30
0.0
 11
372.5638506250797
 21
137.7533988768866
 31
0.0
1001
GENIUS_GENOREF_13
1005
352A
  0
LINE
  5
3525
330
D
100
AcDbEntity
 67
     1
  8
AM_7
  6
AM_ISO08W050x2
100
AcDbLine
 10
366.5440836616781
 20
144.0340190278862
 30
0.0
 11
366.5440836616781
 21
131.9847628100775
 31
0.0
1001
GENIUS_GENOREF_13
1005
352A
  0
CIRCLE
  5
3526
330
D
100
AcDbEntity
 67
     1
  8
0
100
AcDbCircle
 10
366.5440836616781
 20
194.2533988768866
 30
0.0
 40
4.5
  0
LINE
  5
3527
330
D
100
AcDbEntity
 67
     1
  8
AM_7
  6
AM_ISO08W050x2
100
AcDbLine
 10
359.8655739940529
 20
194.2533988768866
 30
0.0
 11
372.5638506250797
 21
194.2533988768866
 31
0.0
1001
GENIUS_GENOREF_13
1005
3529
  0
LINE
  5
3528
330
D
100
AcDbEntity
 67
     1
  8
AM_7
  6
AM_ISO08W050x2
100
AcDbLine
 10
366.5440836616781
 20
187.9727787258871
 30
0.0
 11
366.5440836616781
 21
200.0220349436958
 31
0.0
1001
GENIUS_GENOREF_13
1005
3529
  0
POINT
  5
3529
330
D
100
AcDbEntity
 67
     1
  8
0
 60
     1
100
AcDbPoint
 10
1658.771604659451
 20
291.2917302860984
 30
0.0
1001
GENIUS_GENOLIS_13
1002
{
1000
ENT
1005
3528
1005
3527
1005
3519
1005
3518
1002
}
1001
GENIUS_GENOENT_13
1002
{
1000
MYREF
1005
3529
1002
}
1002
{
1000
GRP
1005
0
1002
}
1001
GENIUS_GENOBJ-N-CRS_13
1002
{
1000
OWNER
1000
GEN
1002
}
1001
GENIUS_GENODEF_13
1002
{
1000
HIER
1070
    10
1002
}
1002
{
1000
MANEDIT
1070
     1
1002
}
1002
{
1000
NOSEL
1070
     0
1002
}
1002
{
1000
BEHIND
1070
     0
1002
}
1002
{
1000
OTHER
1070
     0
1002
}
1002
{
1000
REACTOR
1002
}
  0
POINT
  5
352A
330
D
100
AcDbEntity
 67
     1
  8
0
 60
     1
100
AcDbPoint
 10
1658.771604659451
 20
0.0
 30
0.0
1001
GENIUS_GENOLIS_13
1002
{
1000
ENT
1005
3525
1005
3524
1005
3519
1005
3518
1002
}
1001
GENIUS_GENOENT_13
1002
{
1000
MYREF
1005
352A
1002
}
1002
{
1000
GRP
1005
0
1002
}
1001
GENIUS_GENOBJ-N-CRS_13
1002
{
1000
OWNER
1000
GEN
1002
}
1001
GENIUS_GENODEF_13
1002
{
1000
HIER
1070
    10
1002
}
1002
{
1000
MANEDIT
1070
     1
1002
}
1002
{
1000
NOSEL
1070
     0
1002
}
1002
{
1000
BEHIND
1070
     0
1002
}
1002
{
1000
OTHER
1070
     0
1002
}
1002
{
1000
REACTOR
1002
}
  0
DIMENSION
  5
352B
330
D
100
AcDbEntity
 67
     1
  8
AM_5
100
AcDbDimension
  2
*D9
 10
366.5440836616781
 20
116.5033988768867
 30
0.0
 11
338.2940836616781
 21
119.2533988768867
 31
0.0
 70
    32
  1
{\Famgdt;o}<>
 71
     5
 42
56.5
  3
AM_ISO$0
100
AcDbAlignedDimension
 13
310.0440836616781
 23
131.9847628100775
 33
0.0
 14
366.5440836616781
 24
131.9847628100775
 34
0.0
 50
0.0000000000002036
100
AcDbRotatedDimension
1001
ACAD
1000
DSTYLE
1002
{
1070
    40
1040
1.0
1070
    43
1040
15.0
1070
    74
1070
     1
1070
   172
1070
     0
1070
   288
1070
     1
1070
   289
1070
     0
1002
}
  0
DIMENSION
  5
3565
330
D
100
AcDbEntity
 67
     1
  8
AM_5
100
AcDbDimension
  2
*D10
 10
232.7215333677745
 20
186.0033988768866
 30
0.0
 11
211.5166649597283
 21
208.9695082176267
 31
0.0
 70
   164
  1
G1/8
 71
     5
 42
4.883224999999839
  3
AM_ISO$4
100
AcDbRadialDimension
 15
229.9402230120698
 25
190.0171501280073
 35
0.0
 40
0.0
  0
CIRCLE
  5
3771
330
D
100
AcDbEntity
 67
     1
  8
0
100
AcDbCircle
 10
232.7215333677746
 20
186.0033988768866
 30
0.0
 40
4.28
  0
LINE
  5
3788
330
D
100
AcDbEntity
 67
     1
  8
圖層1
100
AcDbLine
 10
263.7215333677746
 20
188.7533988768866
 30
0.0
 11
237.2215333677746
 21
188.7533988768866
 31
0.0
  0
LINE
  5
3789
330
D
100
AcDbEntity
 67
     1
  8
圖層1
100
AcDbLine
 10
263.7215333677746
 20
143.2533988768866
 30
0.0
 11
237.2215333677746
 21
143.2533988768866
 31
0.0
  0
LINE
  5
378A
330
D
100
AcDbEntity
 67
     1
  8
圖層1
100
AcDbLine
 10
234.7215333677746
 20
186.2533988768866
 30
0.0
 11
234.7215333677746
 21
145.7533988768866
 31
0.0
  0
ARC
  5
378C
330
D
100
AcDbEntity
 67
     1
  8
圖層1
100
AcDbCircle
 10
237.2215333677746
 20
186.2533988768866
 30
0.0
 40
2.5
100
AcDbArc
 50
90.0
 51
180.0
  0
ARC
  5
378D
330
D
100
AcDbEntity
 67
     1
  8
圖層1
100
AcDbCircle
 10
237.2215333677746
 20
145.7533988768866
 30
0.0
 40
2.5
100
AcDbArc
 50
180.0
 51
270.0
  0
DIMENSION
  5
37A5
330
D
100
AcDbEntity
 67
     1
  8
AM_5
100
AcDbDimension
  2
*D11
 10
284.0587505541251
 20
188.7533988768866
 30
0.0
 11
284.058750554125
 21
166.0033988768867
 31
0.0
 70
   160
  1
%%c<>
 71
     5
 42
45.49999999999999
  3
AM_ISO$0
100
AcDbAlignedDimension
 13
263.7215333677746
 23
143.2533988768866
 33
0.0
 14
263.7215333677746
 24
188.7533988768866
 34
0.0
 50
90.0
100
AcDbRotatedDimension
1001
ACAD
1000
DSTYLE
1002
{
1070
    40
1040
1.0
1070
    43
1040
15.0
1002
}
  0
DIMENSION
  5
37C4
330
D
100
AcDbEntity
 67
     1
  8
AM_5
100
AcDbDimension
  2
*D12
 10
234.7215333677746
 20
215.5033988768867
 30
0.0
 11
249.2215333677746
 21
218.2537433650756
 31
0.0
 70
    32
 71
     5
 42
29.0
  3
AM_ISO$0
100
AcDbAlignedDimension
 13
263.7215333677746
 23
203.5033988768867
 33
0.0
 14
234.7215333677746
 24
186.2533988768866
 34
0.0
100
AcDbRotatedDimension
1001
ACAD
1000
DSTYLE
1002
{
1070
    40
1040
1.0
1070
    43
1040
15.0
1002
}
  0
ARC
  5
37F5
330
D
100
AcDbEntity
 67
     1
  8
0
100
AcDbCircle
 10
53.03193096253711
 20
194.2533988768866
 30
0.0
 40
3.76054995695506
100
AcDbArc
 50
255.7523822464592
 51
187.7342815029713
  0
ARC
  5
37F6
330
D
100
AcDbEntity
 67
     1
  8
0
100
AcDbCircle
 10
109.5319309625371
 20
194.2533988768866
 30
0.0
 40
3.76054995695506
100
AcDbArc
 50
255.7523822464592
 51
187.7342815029713
  0
ARC
  5
37F7
330
D
100
AcDbEntity
 67
     1
  8
0
100
AcDbCircle
 10
109.5319309625371
 20
137.7533988768866
 30
0.0
 40
3.76054995695506
100
AcDbArc
 50
255.7523822464592
 51
187.7342815029713
  0
ARC
  5
37F8
330
D
100
AcDbEntity
 67
     1
  8
0
100
AcDbCircle
 10
53.03193096253711
 20
137.7533988768866
 30
0.0
 40
3.76054995695506
100
AcDbArc
 50
255.7523822464592
 51
187.7342815029713
  0
DIMENSION
  5
3857
330
D
100
AcDbEntity
 67
     1
  8
AM_5
100
AcDbDimension
  2
*D13
 10
53.03193096253707
 20
194.2533988768867
 30
0.0
 11
70.90897487843091
 21
210.6442936287152
 31
0.0
 70
   164
  1
4-M8*12L
 71
     5
 42
3.760549956955117
  3
AM_ISO$4
100
AcDbRadialDimension
 15
54.58401024757598
 25
197.6787143180845
 35
0.0
 40
0.0
  0
LINE
  5
3884
330
D
100
AcDbEntity
 67
     1
  8
AM_7
  6
AM_ISO08W050x2
100
AcDbLine
 10
59.71044063016234
 20
194.2533988768866
 30
0.0
 11
47.0121639991355
 21
194.2533988768866
 31
0.0
1001
GENIUS_GENOREF_13
1005
3886
  0
LINE
  5
3885
330
D
100
AcDbEntity
 67
     1
  8
AM_7
  6
AM_ISO08W050x2
100
AcDbLine
 10
53.03193096253711
 20
200.5340190278862
 30
0.0
 11
53.03193096253711
 21
188.4847628100775
 31
0.0
1001
GENIUS_GENOREF_13
1005
3886
  0
POINT
  5
3886
330
D
100
AcDbEntity
 67
     1
  8
0
 60
     1
100
AcDbPoint
 10
-257.012152699141
 20
56.5
 30
0.0
1001
GENIUS_GENOLIS_13
1002
{
1000
ENT
1005
3885
1005
3884
1005
3519
1005
3518
1002
}
1001
GENIUS_GENOENT_13
1002
{
1000
MYREF
1005
3886
1002
}
1002
{
1000
GRP
1005
0
1002
}
1001
GENIUS_GENOBJ-N-CRS_13
1002
{
1000
OWNER
1000
GEN
1002
}
1001
GENIUS_GENODEF_13
1002
{
1000
HIER
1070
    10
1002
}
1002
{
1000
MANEDIT
1070
     1
1002
}
1002
{
1000
NOSEL
1070
     0
1002
}
1002
{
1000
BEHIND
1070
     0
1002
}
1002
{
1000
OTHER
1070
     0
1002
}
1002
{
1000
REACTOR
1002
}
  0
LINE
  5
3887
330
D
100
AcDbEntity
 67
     1
  8
AM_7
  6
AM_ISO08W050x2
100
AcDbLine
 10
116.2104406301623
 20
194.2533988768866
 30
0.0
 11
103.5121639991355
 21
194.2533988768866
 31
0.0
1001
GENIUS_GENOREF_13
1005
3889
  0
LINE
  5
3888
330
D
100
AcDbEntity
 67
     1
  8
AM_7
  6
AM_ISO08W050x2
100
AcDbLine
 10
109.5319309625371
 20
200.5340190278862
 30
0.0
 11
109.5319309625371
 21
188.4847628100775
 31
0.0
1001
GENIUS_GENOREF_13
1005
3889
  0
POINT
  5
3889
330
D
100
AcDbEntity
 67
     1
  8
0
 60
     1
100
AcDbPoint
 10
-200.512152699141
 20
56.5
 30
0.0
1001
GENIUS_GENOLIS_13
1002
{
1000
ENT
1005
3888
1005
3887
1005
3519
1005
3518
1002
}
1001
GENIUS_GENOENT_13
1002
{
1000
MYREF
1005
3889
1002
}
1002
{
1000
GRP
1005
0
1002
}
1001
GENIUS_GENOBJ-N-CRS_13
1002
{
1000
OWNER
1000
GEN
1002
}
1001
GENIUS_GENODEF_13
1002
{
1000
HIER
1070
    10
1002
}
1002
{
1000
MANEDIT
1070
     1
1002
}
1002
{
1000
NOSEL
1070
     0
1002
}
1002
{
1000
BEHIND
1070
     0
1002
}
1002
{
1000
OTHER
1070
     0
1002
}
1002
{
1000
REACTOR
1002
}
  0
LINE
  5
388A
330
D
100
AcDbEntity
 67
     1
  8
AM_7
  6
AM_ISO08W050x2
100
AcDbLine
 10
116.2104406301623
 20
137.7533988768866
 30
0.0
 11
103.5121639991355
 21
137.7533988768866
 31
0.0
1001
GENIUS_GENOREF_13
1005
388C
  0
LINE
  5
388B
330
D
100
AcDbEntity
 67
     1
  8
AM_7
  6
AM_ISO08W050x2
100
AcDbLine
 10
109.5319309625371
 20
144.0340190278862
 30
0.0
 11
109.5319309625371
 21
131.9847628100775
 31
0.0
1001
GENIUS_GENOREF_13
1005
388C
  0
POINT
  5
388C
330
D
100
AcDbEntity
 67
     1
  8
0
 60
     1
100
AcDbPoint
 10
-200.512152699141
 20
0.0
 30
0.0
1001
GENIUS_GENOLIS_13
1002
{
1000
ENT
1005
388B
1005
388A
1005
3519
1005
3518
1002
}
1001
GENIUS_GENOENT_13
1002
{
1000
MYREF
1005
388C
1002
}
1002
{
1000
GRP
1005
0
1002
}
1001
GENIUS_GENOBJ-N-CRS_13
1002
{
1000
OWNER
1000
GEN
1002
}
1001
GENIUS_GENODEF_13
1002
{
1000
HIER
1070
    10
1002
}
1002
{
1000
MANEDIT
1070
     1
1002
}
1002
{
1000
NOSEL
1070
     0
1002
}
1002
{
1000
BEHIND
1070
     0
1002
}
1002
{
1000
OTHER
1070
     0
1002
}
1002
{
1000
REACTOR
1002
}
  0
LINE
  5
388D
330
D
100
AcDbEntity
 67
     1
  8
AM_7
  6
AM_ISO08W050x2
100
AcDbLine
 10
59.71044063016234
 20
137.7533988768866
 30
0.0
 11
47.0121639991355
 21
137.7533988768866
 31
0.0
1001
GENIUS_GENOREF_13
1005
388F
  0
LINE
  5
388E
330
D
100
AcDbEntity
 67
     1
  8
AM_7
  6
AM_ISO08W050x2
100
AcDbLine
 10
53.03193096253711
 20
144.0340190278862
 30
0.0
 11
53.03193096253711
 21
131.9847628100775
 31
0.0
1001
GENIUS_GENOREF_13
1005
388F
  0
POINT
  5
388F
330
D
100
AcDbEntity
 67
     1
  8
0
 60
     1
100
AcDbPoint
 10
-257.012152699141
 20
0.0
 30
0.0
1001
GENIUS_GENOLIS_13
1002
{
1000
ENT
1005
388E
1005
388D
1005
3519
1005
3518
1002
}
1001
GENIUS_GENOENT_13
1002
{
1000
MYREF
1005
388F
1002
}
1002
{
1000
GRP
1005
0
1002
}
1001
GENIUS_GENOBJ-N-CRS_13
1002
{
1000
OWNER
1000
GEN
1002
}
1001
GENIUS_GENODEF_13
1002
{
1000
HIER
1070
    10
1002
}
1002
{
1000
MANEDIT
1070
     1
1002
}
1002
{
1000
NOSEL
1070
     0
1002
}
1002
{
1000
BEHIND
1070
     0
1002
}
1002
{
1000
OTHER
1070
     0
1002
}
1002
{
1000
REACTOR
1002
}
  0
LINE
  5
3AB1
330
D
100
AcDbEntity
 67
     1
  8
AM_7
  6
AM_ISO08W050x2
100
AcDbLine
 10
271.9262706722337
 20
166.0033988768866
 30
0.0
 11
153.6452419187574
 21
166.0033988768866
 31
0.0
  0
LINE
  5
3ABB
330
D
100
AcDbEntity
 67
     1
  8
AM_7
  6
AM_ISO08W050x2
100
AcDbLine
 10
270.173157037695
 20
176.0033988768866
 30
0.0
 11
270.173157037695
 21
156.0033988768866
 31
0.0
  0
LEADER
  5
3ACF
330
D
100
AcDbEntity
 67
     1
  8
AM_5
100
AcDbLeader
  3
AM_ISO$7
 73
     0
 74
     0
 75
     1
 40
4.375
 41
15.88862204724409
 76
     3
 10
266.8761963882461
 20
176.0033988768866
 30
0.0
 10
278.6450092630174
 20
213.569187258161
 30
0.0
 10
281.6450092630174
 20
213.569187258161
 30
0.0
340
3AD0
213
3.077444538073109
223
1.608431681897855
233
0.0
1001
ACAD
1000
DSTYLE
1002
{
1070
    74
1070
     1
1070
   147
1040
1.0
1070
   172
1070
     0
1070
   288
1070
     1
1070
   289
1070
     0
1002
}
  0
MTEXT
  5
3AD0
102
{ACAD_REACTORS
330
3ACF
102
}
330
D
100
AcDbEntity
 67
     1
  8
AM_5
100
AcDbMText
 10
279.5675647249443
 20
212.9607555762632
 30
0.0
 40
3.5
 41
0.0
 71
     7
 72
     1
  1
Support
 73
     1
 44
1.0
1001
ACAD
1000
MTEXTBEGIN
1070
    73
1070
     1
1070
    44
1040
1.0
1070
    74
1070
     0
1000
MTEXTEND
  0
DIMENSION
  5
3AD2
330
D
100
AcDbEntity
 67
     1
  8
AM_5
100
AcDbDimension
  2
*D14
 10
307.7419965588941
 20
190.3868248156281
 30
0.0
 11
325.9223486241197
 21
210.8024090462067
 31
0.0
 70
   163
  1
4-<>
 71
     5
 42
8.999999999999886
  3
AM_ISO$3
100
AcDbDiametricDimension
 15
312.3461707644617
 25
198.119972938145
 35
0.0
 40
0.0
1001
ACAD
1000
DSTYLE
1002
{
1070
    40
1040
1.0
1002
}
  0
LINE
  5
3C00
330
D
100
AcDbEntity
 67
     1
  8
AM_7
  6
AM_ISO08W050x2
100
AcDbLine
 10
239.4000430353998
 20
186.0033988768866
 30
0.0
 11
226.701766404373
 21
186.0033988768866
 31
0.0
1001
GENIUS_GENOREF_13
1005
3C02
  0
LINE
  5
3C01
330
D
100
AcDbEntity
 67
     1
  8
AM_7
  6
AM_ISO08W050x2
100
AcDbLine
 10
232.7215333677746
 20
179.7227787258871
 30
0.0
 11
232.7215333677746
 21
191.7720349436957
 31
0.0
1001
GENIUS_GENOREF_13
1005
3C02
  0
POINT
  5
3C02
330
D
100
AcDbEntity
 67
     1
  8
0
 60
     1
100
AcDbPoint
 10
-77.32255029390353
 20
283.0417302860984
 30
0.0
1001
GENIUS_GENOLIS_13
1002
{
1000
ENT
1005
3C01
1005
3C00
1005
0
1005
0
1002
}
1001
GENIUS_GENOENT_13
1002
{
1000
MYREF
1005
3C02
1002
}
1002
{
1000
GRP
1005
0
1002
}
1001
GENIUS_GENOBJ-N-CRS_13
1002
{
1000
OWNER
1000
GEN
1002
}
1001
GENIUS_GENODEF_13
1002
{
1000
HIER
1070
    10
1002
}
1002
{
1000
MANEDIT
1070
     1
1002
}
1002
{
1000
NOSEL
1070
     0
1002
}
1002
{
1000
BEHIND
1070
     0
1002
}
1002
{
1000
OTHER
1070
     0
1002
}
1002
{
1000
REACTOR
1002
}
  0
CIRCLE
  5
3C04
330
D
100
AcDbEntity
 67
     1
  8
0
100
AcDbCircle
 10
338.2940836616781
 20
166.0033988768866
 30
0.0
 40
22.75
  0
LINE
  5
3CA1
330
D
100
AcDbEntity
 67
     1
  8
AM_7
  6
AM_ISO08W050x2
100
AcDbLine
 10
106.9425023532042
 20
166.0033988768866
 30
0.0
 11
55.72678469759637
 21
166.0033988768866
 31
0.0
1001
GENIUS_GENOREF_13
1005
3CA3
  0
LINE
  5
3CA2
330
D
100
AcDbEntity
 67
     1
  8
AM_7
  6
AM_ISO08W050x2
100
AcDbLine
 10
81.2819309625371
 20
191.0969193424743
 30
0.0
 11
81.2819309625371
 21
140.8081756954211
 31
0.0
1001
GENIUS_GENOREF_13
1005
3CA3
  0
POINT
  5
3CA3
330
D
100
AcDbEntity
 67
     1
  8
0
 60
     1
100
AcDbPoint
 10
-182.2834657948501
 20
159.0665379633817
 30
0.0
1001
GENIUS_GENOLIS_13
1002
{
1000
ENT
1005
3CA2
1005
3CA1
1005
0
1005
0
1002
}
1001
GENIUS_GENOENT_13
1002
{
1000
MYREF
1005
3CA3
1002
}
1002
{
1000
GRP
1005
0
1002
}
1001
GENIUS_GENOBJ-N-CRS_13
1002
{
1000
OWNER
1000
GEN
1002
}
1001
GENIUS_GENODEF_13
1002
{
1000
HIER
1070
    10
1002
}
1002
{
1000
MANEDIT
1070
     1
1002
}
1002
{
1000
NOSEL
1070
     0
1002
}
1002
{
1000
BEHIND
1070
     0
1002
}
1002
{
1000
OTHER
1070
     0
1002
}
1002
{
1000
REACTOR
1002
}
  0
LINE
  5
3CA4
330
D
100
AcDbEntity
 67
     1
  8
AM_7
  6
AM_ISO08W050x2
100
AcDbLine
 10
363.9546550523452
 20
166.0033988768866
 30
0.0
 11
312.7389373967373
 21
166.0033988768866
 31
0.0
1001
GENIUS_GENOREF_13
1005
3CA6
  0
LINE
  5
3CA5
330
D
100
AcDbEntity
 67
     1
  8
AM_7
  6
AM_ISO08W050x2
100
AcDbLine
 10
338.2940836616781
 20
191.0969193424743
 30
0.0
 11
338.2940836616781
 21
140.8081756954211
 31
0.0
1001
GENIUS_GENOREF_13
1005
3CA6
  0
POINT
  5
3CA6
330
D
100
AcDbEntity
 67
     1
  8
0
 60
     1
100
AcDbPoint
 10
74.72868690429089
 20
159.0665379633817
 30
0.0
1001
GENIUS_GENOLIS_13
1002
{
1000
ENT
1005
3CA5
1005
3CA4
1005
0
1005
0
1002
}
1001
GENIUS_GENOENT_13
1002
{
1000
MYREF
1005
3CA6
1002
}
1002
{
1000
GRP
1005
0
1002
}
1001
GENIUS_GENOBJ-N-CRS_13
1002
{
1000
OWNER
1000
GEN
1002
}
1001
GENIUS_GENODEF_13
1002
{
1000
HIER
1070
    10
1002
}
1002
{
1000
MANEDIT
1070
     1
1002
}
1002
{
1000
NOSEL
1070
     0
1002
}
1002
{
1000
BEHIND
1070
     0
1002
}
1002
{
1000
OTHER
1070
     0
1002
}
1002
{
1000
REACTOR
1002
}
  0
ENDSEC
  0
SECTION
  2
OBJECTS
  0
DICTIONARY
  5
8
330
0
100
AcDbDictionary
281
     1
  3
ACAD_COLOR
350
31
  3
ACAD_GROUP
350
2D
  3
ACAD_LAYOUT
350
C
  3
ACAD_MATERIAL
350
30
  3
ACAD_MLINESTYLE
350
2E
  3
ACAD_PLOTSETTINGS
350
2F
  3
ACAD_PLOTSTYLENAME
350
7
  3
ACAD_TABLESTYLE
350
32
  3
AcadDim
350
3AD1
  3
ACDBHEADERROUNDTRIPXREC
350
3DDD
  3
AcDbVariableDictionary
350
226
  3
AcmDictionary
350
28A
  3
AMG
350
232
  3
AMGSNAPSETTINGS
350
2C1
  3
DWGPROPS
350
3DDC
  3
MAPISURF_MODULE
350
3D5E
  0
DICTIONARY
  5
15
330
14
100
AcDbDictionary
280
     1
281
     1
  3
ACAD_LAYERFILTERS
360
379A
  3
ACAD_LAYERSTATES
360
16
  3
ACLYDICTIONARY
360
3799
  3
AMLAYER_GROUPCOLORS
360
13C8
  0
DICTIONARY
  5
3
330
2
100
AcDbDictionary
280
     1
281
     1
  3
ACAD_INDEX
360
3DB1
  0
DICTIONARY
  5
1AC0
330
D
100
AcDbDictionary
280
     1
281
     1
  3
ACAD_SORTENTS
360
1AC1
  0
DICTIONARY
  5
3DE1
330
230
100
AcDbDictionary
280
     1
281
     1
  3
ACAD_XREC_ROUNDTRIP
360
3DE2
  0
DICTIONARY
  5
31
102
{ACAD_REACTORS
330
8
102
}
330
8
100
AcDbDictionary
281
     1
  0
DICTIONARY
  5
2D
102
{ACAD_REACTORS
330
8
102
}
330
8
100
AcDbDictionary
281
     1
  0
DICTIONARY
  5
C
102
{ACAD_REACTORS
330
8
102
}
330
8
100
AcDbDictionary
281
     1
  3
Model
350
B
  3
配置1
350
10
  0
DICTIONARY
  5
30
102
{ACAD_REACTORS
330
8
102
}
330
8
100
AcDbDictionary
281
     1
  3
Global
350
135C
  0
DICTIONARY
  5
2E
102
{ACAD_REACTORS
330
8
102
}
330
8
100
AcDbDictionary
281
     1
  3
STANDARD
350
33
  0
DICTIONARY
  5
2F
102
{ACAD_REACTORS
330
8
102
}
330
8
100
AcDbDictionary
281
     1
  0
ACDBDICTIONARYWDFLT
  5
7
102
{ACAD_REACTORS
330
8
102
}
330
8
100
AcDbDictionary
281
     1
  3
Normal
350
6
100
AcDbDictionaryWithDefault
340
6
  0
DICTIONARY
  5
32
102
{ACAD_REACTORS
330
8
102
}
330
8
100
AcDbDictionary
281
     1
  3
Standard
350
34
  0
XRECORD
  5
3AD1
102
{ACAD_REACTORS
330
8
102
}
330
8
100
AcDbXrecord
280
     1
 90
   990106
  3

 60
     0
 61
     0
 62
     4
 63
     4
 64
     1
 65
     0
 66
     0
 67
     3
 68
     0
 69
     0
 70
     0
 71
     0
 72
     0
 40
0.0
170
     2
340
3AD0
  0
DICTIONARY
  5
3DDD
102
{ACAD_REACTORS
330
8
102
}
330
8
100
AcDbDictionary
281
     1
  0
DICTIONARY
  5
226
102
{ACAD_REACTORS
330
8
102
}
330
8
100
AcDbDictionary
281
     1
  3
CTABLESTYLE
350
227
  3
DIMASSOC
350
229
  3
HIDETEXT
350
228
  3
INDEXCTL
350
3DDB
  3
PROJECTNAME
350
22A
  0
DICTIONARY
  5
28A
102
{ACAD_REACTORS
330
8
102
}
330
8
100
AcDbDictionary
281
     1
  3
AcmStdDictionary
350
297
  3
AMDTSECTSYM_ARROWCOLOR
350
2B3
  0
DICTIONARY
  5
232
102
{ACAD_REACTORS
330
8
102
}
330
8
100
AcDbDictionary
281
     1
  3
AcMgSettings
350
3CDA
  0
DICTIONARY
  5
2C1
102
{ACAD_REACTORS
330
8
102
}
330
8
100
AcDbDictionary
281
     1
  0
XRECORD
  5
3DDC
102
{ACAD_REACTORS
330
8
102
}
330
8
100
AcDbXrecord
280
     1
  1
DWGPROPS COOKIE
  2

  3

  4

  6

  7

  8

  9

300
AmdtFileType=84
301
=
302
=
303
=
304
=
305
=
306
=
307
=
308
=
309
=
 40
0.2956439814814815
 41
2454816.659313322
 42
2455117.710923472
  1

 90
        1
  0
DICTIONARY
  5
379A
102
{ACAD_REACTORS
330
15
102
}
330
15
100
AcDbDictionary
281
     1
  0
DICTIONARY
  5
16
102
{ACAD_REACTORS
330
15
102
}
330
15
100
AcDbDictionary
281
     1
  0
DICTIONARY
  5
3799
102
{ACAD_REACTORS
330
15
102
}
330
15
100
AcDbDictionary
281
     1
1001
ACAD
1000
<All
  0
DICTIONARY
  5
13C8
102
{ACAD_REACTORS
330
15
102
}
330
15
100
AcDbDictionary
280
     1
281
     1
  0
DICTIONARY
  5
3DB1
102
{ACAD_REACTORS
330
3
102
}
330
3
100
AcDbDictionary
281
     1
  3
*A1
350
3DB2
  0
SORTENTSTABLE
  5
1AC1
102
{ACAD_REACTORS
330
1AC0
102
}
330
1AC0
100
AcDbSortentsTable
330
D
331
30F0
  5
30F0
331
D9A
  5
D9A
331
D43
  5
D43
331
312F
  5
312F
331
31A6
  5
31A6
331
D63
  5
D63
331
DA2
  5
DA2
331
3100
  5
3100
331
3137
  5
3137
331
D6B
  5
D6B
331
DAA
  5
DAA
331
3108
  5
3108
331
313F
  5
313F
331
31B6
  5
31B6
331
DB2
  5
DB2
331
D1C
  5
D1C
331
D73
  5
D73
331
3147
  5
3147
331
3118
  5
3118
331
3187
  5
3187
331
D83
  5
D83
331
318F
  5
318F
331
3120
  5
3120
331
D3C
  5
D3C
331
3520
  5
3520
331
319F
  5
319F
331
30F1
  5
30F1
331
3128
  5
3128
331
D9B
  5
D9B
331
3528
  5
3528
331
3130
  5
3130
331
30F9
  5
30F9
331
D64
  5
D64
331
DA3
  5
DA3
331
3101
  5
3101
331
3138
  5
3138
331
D6C
  5
D6C
331
DAB
  5
DAB
331
3109
  5
3109
331
3140
  5
3140
331
31B7
  5
31B7
331
D74
  5
D74
331
D1D
  5
D1D
331
D7C
  5
D7C
331
3119
  5
3119
331
D84
  5
D84
331
3788
  5
3788
331
3190
  5
3190
331
3521
  5
3521
331
2552
  5
2552
331
D3D
  5
D3D
331
D8C
  5
D8C
331
3121
  5
3121
331
D94
  5
D94
331
3129
  5
3129
331
30F2
  5
30F2
331
D9C
  5
D9C
331
D45
  5
D45
331
31A8
  5
31A8
331
3131
  5
3131
331
30FA
  5
30FA
331
D65
  5
D65
331
DA4
  5
DA4
331
3102
  5
3102
331
3139
  5
3139
331
D6D
  5
D6D
331
DAC
  5
DAC
331
349A
  5
349A
331
310A
  5
310A
331
3141
  5
3141
331
D1E
  5
D1E
331
3771
  5
3771
331
3112
  5
3112
331
D7D
  5
D7D
331
3789
  5
378B
331
351A
  5
351A
331
311A
  5
311A
331
D85
  5
D85
331
3122
  5
3122
331
3191
  5
3191
331
D3E
  5
D3E
331
3199
  5
3199
331
D95
  5
D95
331
312A
  5
312A
331
30F3
  5
30F3
331
D46
  5
D46
331
D9D
  5
D9D
331
3132
  5
3132
331
DA5
  5
DA5
331
D66
  5
D66
331
3103
  5
3103
331
313A
  5
313A
331
D17
  5
D17
331
D6E
  5
D6E
331
DAD
  5
DAD
331
310B
  5
310B
331
3142
  5
3142
331
D1F
  5
D1F
331
3113
  5
3113
331
378A
  5
378D
331
351B
  5
351B
331
318A
  5
318A
331
311B
  5
311B
331
D86
  5
D86
331
3523
  5
3523
331
3123
  5
3123
331
3192
  5
3192
331
D3F
  5
D3F
331
D96
  5
D96
331
230
  5
230
331
352B
  5
352B
331
312B
  5
312B
331
30F4
  5
30F4
331
D47
  5
D47
331
D9E
  5
D9E
331
30FC
  5
30FC
331
3133
  5
3133
331
DA6
  5
DA6
331
D67
  5
D67
331
313B
  5
313B
331
3104
  5
3104
331
D18
  5
D18
331
D6F
  5
D6F
331
DAE
  5
DAE
331
310C
  5
310C
331
3143
  5
3143
331
D20
  5
D20
331
3114
  5
3114
331
318B
  5
318B
331
311C
  5
311C
331
D87
  5
D87
331
3524
  5
3524
331
3193
  5
3193
331
319B
  5
319B
331
D40
  5
D40
331
312C
  5
312C
331
D60
  5
D60
331
D9F
  5
D9F
331
30FD
  5
30FD
331
3134
  5
3134
331
DA7
  5
DA7
331
D68
  5
D68
331
313C
  5
313C
331
3105
  5
3105
331
D19
  5
D19
331
D70
  5
D70
331
DAF
  5
DAF
331
310D
  5
310D
331
3144
  5
3144
331
D21
  5
D21
331
D78
  5
D78
331
3515
  5
3515
331
3184
  5
3184
331
3115
  5
3115
331
378C
  5
378A
331
318C
  5
318C
331
311D
  5
311D
331
D88
  5
D88
331
D39
  5
D39
331
3194
  5
3194
331
D90
  5
D90
331
3525
  5
3525
331
D41
  5
D41
331
30F6
  5
30F6
331
312D
  5
312D
331
31A4
  5
31A4
331
D61
  5
D61
331
DA0
  5
DA0
331
30FE
  5
30FE
331
3135
  5
3135
331
D69
  5
D69
331
DA8
  5
DA8
331
31B4
  5
31B4
331
313D
  5
313D
331
3106
  5
3106
331
DB0
  5
DB0
331
D1A
  5
D1A
331
D71
  5
D71
331
3565
  5
3565
331
3145
  5
3145
331
D22
  5
D22
331
3185
  5
3185
331
3116
  5
3116
331
D81
  5
D81
331
318D
  5
318D
331
311E
  5
311E
331
D3A
  5
D3A
331
378D
  5
378C
331
3195
  5
3195
331
3526
  5
3526
331
D42
  5
D42
331
312E
  5
312E
331
31A5
  5
31A5
331
D62
  5
D62
331
DA1
  5
DA1
331
30FF
  5
30FF
331
3136
  5
3136
331
D6A
  5
D6A
331
DA9
  5
DA9
331
3107
  5
3107
331
313E
  5
313E
331
31B5
  5
31B5
331
DB1
  5
DB1
331
D1B
  5
D1B
331
D72
  5
D72
331
3146
  5
3146
331
D23
  5
D23
331
3186
  5
3186
331
3117
  5
3117
331
D2B
  5
D2B
331
D82
  5
D82
331
318E
  5
318E
331
311F
  5
311F
331
351F
  5
351F
331
3127
  5
3127
331
3527
  5
3527
331
319E
  5
319E
  0
XRECORD
  5
3DE2
102
{ACAD_REACTORS
330
3DE1
102
}
330
3DE1
100
AcDbXrecord
280
     1
102
SHADEPLOT
 70
     0
  0
LAYOUT
  5
B
102
{ACAD_XDICTIONARY
360
3DDE
102
}
102
{ACAD_REACTORS
330
C
102
}
330
C
100
AcDbPlotSettings
  1

  2
\\NOVIBDC\HPLJ4-TPUB
  4

  6

 40
0.0
 41
0.0
 42
0.0
 43
0.0
 44
0.0
 45
0.0
 46
0.0
 47
0.0
 48
0.0
 49
0.0
140
0.0
141
0.0
142
1.0
143
1.0
 70
  1712
 72
     0
 73
     0
 74
     0
  7

 75
     0
147
1.0
148
0.0
149
0.0
100
AcDbLayout
  1
Model
 70
     1
 71
     0
 10
0.0
 20
0.0
 11
12.0
 21
9.0
 12
0.0
 22
0.0
 32
0.0
 14
0.0
 24
0.0
 34
0.0
 15
0.0
 25
0.0
 35
0.0
146
0.0
 13
0.0
 23
0.0
 33
0.0
 16
1.0
 26
0.0
 36
0.0
 17
0.0
 27
1.0
 37
0.0
 76
     0
330
2
  0
LAYOUT
  5
10
102
{ACAD_XDICTIONARY
360
11
102
}
102
{ACAD_REACTORS
330
C
102
}
330
C
100
AcDbPlotSettings
  1

  2
\\RDS1\iR3300影印機
  4
A3
  6

 40
6.805083274841308
 41
5.365738868713378
 42
7.228424072265625
 43
5.027069091796875
 44
296.9259948730469
 45
419.9466552734374
 46
0.0
 47
0.0
 48
0.0
 49
0.0
140
0.0
141
0.0
142
1.0
143
1.0
 70
   688
 72
     1
 73
     1
 74
     5
  7

 75
    16
147
1.0
148
0.0
149
0.0
100
AcDbLayout
  1
配置1
 70
     1
 71
     1
 10
-5.027069091796875
 20
-6.805083274841308
 11
414.9195861816406
 21
290.1209115982056
 12
0.0
 22
0.0
 32
0.0
 14
24.91694315271138
 24
9.020761247349241
 34
-0.0038020288658345
 15
390.0377990685072
 25
278.5086484079246
 35
159.2483396732887
146
0.0
 13
0.0
 23
0.0
 33
0.0
 16
1.0
 26
0.0
 36
0.0
 17
0.0
 27
1.0
 37
0.0
 76
     0
330
D
331
230
1001
ACAD_PSEXT
1000
\\RDS1\iR3300影印機
1000
Canon iR2200-3300 PCL5e
1000
\\RDS1
1000

1070
     0
  0
MATERIAL
  5
135C
102
{ACAD_XDICTIONARY
360
135D
102
}
102
{ACAD_REACTORS
330
30
102
}
330
30
100
AcDbMaterial
  1
Global
  0
MLINESTYLE
  5
33
102
{ACAD_REACTORS
330
2E
102
}
330
2E
100
AcDbMlineStyle
  2
STANDARD
 70
     0
  3

 62
     0
 51
90.0
 52
90.0
 71
     2
 49
0.5
 62
   256
  6
BYLAYER
 49
-0.5
 62
   256
  6
BYLAYER
  0
ACDBPLACEHOLDER
  5
6
102
{ACAD_REACTORS
330
7
102
}
330
7
  0
TABLESTYLE
  5
34
102
{ACAD_REACTORS
330
32
102
}
330
32
100
AcDbTableStyle
  3
Standard
 70
     0
 71
     0
 40
1.5
 41
1.5
280
     0
281
     0
  7
STANDARD
140
4.5
170
     2
 62
     0
 63
     7
283
     0
274
    -2
284
     1
 64
     0
275
    -2
285
     1
 65
     0
276
    -2
286
     1
 66
     0
277
    -2
287
     1
 67
     0
278
    -2
288
     1
 68
     0
279
    -2
289
     1
 69
     0
  7
STANDARD
140
6.0
170
     5
 62
     0
 63
     7
283
     0
274
    -2
284
     1
 64
     0
275
    -2
285
     1
 65
     0
276
    -2
286
     1
 66
     0
277
    -2
287
     1
 67
     0
278
    -2
288
     1
 68
     0
279
    -2
289
     1
 69
     0
  7
STANDARD
140
4.5
170
     5
 62
     0
 63
     7
283
     0
274
    -2
284
     1
 64
     0
275
    -2
285
     1
 65
     0
276
    -2
286
     1
 66
     0
277
    -2
287
     1
 67
     0
278
    -2
288
     1
 68
     0
279
    -2
289
     1
 69
     0
  0
DICTIONARYVAR
  5
227
102
{ACAD_REACTORS
330
226
102
}
330
226
100
DictionaryVariables
280
     0
  1
STANDARD
  0
DICTIONARYVAR
  5
229
102
{ACAD_REACTORS
330
226
102
}
330
226
100
DictionaryVariables
280
     0
  1
1
  0
DICTIONARYVAR
  5
228
102
{ACAD_REACTORS
330
226
102
}
330
226
100
DictionaryVariables
280
     0
  1
1
  0
DICTIONARYVAR
  5
3DDB
102
{ACAD_REACTORS
330
226
102
}
330
226
100
DictionaryVariables
280
     0
  1
1
  0
DICTIONARYVAR
  5
22A
102
{ACAD_REACTORS
330
226
102
}
330
226
100
DictionaryVariables
280
     0
  1

  0
DICTIONARY
  5
297
102
{ACAD_REACTORS
330
28A
102
}
330
28A
100
AcDbDictionary
281
     1
  0
XRECORD
  5
2B3
102
{ACAD_REACTORS
330
28A
102
}
330
28A
100
AcDbXrecord
280
     1
 90
-1023410169
  0
DICTIONARY
  5
3CDA
102
{ACAD_REACTORS
330
232
102
}
330
232
100
AcDbDictionary
281
     1
  3
DWGSETTINGS
350
3CDB
  3
TRANSSETTINGS
350
3CDE
  0
LAYER_INDEX
  5
3DB2
102
{ACAD_REACTORS
330
3DB1
102
}
330
3DB1
100
AcDbIndex
 40
2455117.710923472
100
AcDbLayerIndex
  8
0
360
3DB3
 90
        0
  8
LOGO
360
3DB4
 90
        0
  8
Defpoints
360
3DB5
 90
        0
  8
AM_VIS
360
3DB6
 90
        0
  8
AM_5
360
3DB7
 90
        0
  8
AM_7
360
3DB8
 90
        0
  8
圖層1
360
3DB9
 90
        0
  0
DICTIONARY
  5
3DDE
330
B
100
AcDbDictionary
280
     1
281
     1
  3
ACAD_XREC_ROUNDTRIP
360
3DDF
  0
DICTIONARY
  5
11
330
10
100
AcDbDictionary
280
     1
281
     1
  3
ACAD_XREC_ROUNDTRIP
360
3DE0
  3
ADSK_XREC_LAYOUTTHUMBNAIL
360
12
  0
DICTIONARY
  5
135D
330
135C
100
AcDbDictionary
280
     1
281
     1
  3
ACAD_XREC_ROUNDTRIP
360
135E
  0
IDBUFFER
  5
3DB3
330
0
100
AcDbIdBuffer
  0
IDBUFFER
  5
3DB4
330
0
100
AcDbIdBuffer
  0
IDBUFFER
  5
3DB5
330
0
100
AcDbIdBuffer
  0
IDBUFFER
  5
3DB6
330
0
100
AcDbIdBuffer
  0
IDBUFFER
  5
3DB7
330
0
100
AcDbIdBuffer
  0
IDBUFFER
  5
3DB8
330
0
100
AcDbIdBuffer
  0
IDBUFFER
  5
3DB9
330
0
100
AcDbIdBuffer
  0
XRECORD
  5
3DDF
102
{ACAD_REACTORS
330
3DDE
102
}
330
3DDE
100
AcDbXrecord
280
     1
102
SHADEPLOT
 70
     0
102
SHADEPLOTRESLEVEL
 70
     2
102
SHADEPLOTCUSTOMDPI
 70
   300
  0
XRECORD
  5
3DE0
102
{ACAD_REACTORS
330
11
102
}
330
11
100
AcDbXrecord
280
     1
102
SHADEPLOT
 70
     0
102
SHADEPLOTRESLEVEL
 70
     2
102
SHADEPLOTCUSTOMDPI
 70
   300
  0
XRECORD
  5
12
102
{ACAD_REACTORS
330
11
102
}
330
11
100
AcDbXrecord
280
     1
310
28000000B40000007F00000001000800000000004C590000000000000000000000010000000000000000000000000000FFFFFF000000000000000000000000000000000000000000000000000000000000000000330000006600000099000000CC000000FF00000000330000333300006633000099330000CC330000FF3300
310
0000660000336600006666000099660000CC660000FF66000000990000339900006699000099990000CC990000FF99000000CC000033CC000066CC000099CC0000CCCC0000FFCC000000FF000033FF000066FF000099FF0000CCFF0000FFFF000000003300330033006600330099003300CC003300FF003300003333003333
310
33006633330099333300CC333300FF33330000663300336633006666330099663300CC663300FF66330000993300339933006699330099993300CC993300FF99330000CC330033CC330066CC330099CC3300CCCC3300FFCC330000FF330033FF330066FF330099FF3300CCFF3300FFFF330000006600330066006600660099
310
006600CC006600FF00660000336600333366006633660099336600CC336600FF33660000666600336666006666660099666600CC666600FF66660000996600339966006699660099996600CC996600FF99660000CC660033CC660066CC660099CC6600CCCC6600FFCC660000FF660033FF660066FF660099FF6600CCFF6600
310
FFFF660000009900330099006600990099009900CC009900FF00990000339900333399006633990099339900CC339900FF33990000669900336699006666990099669900CC669900FF66990000999900339999006699990099999900CC999900FF99990000CC990033CC990066CC990099CC9900CCCC9900FFCC990000FF99
310
0033FF990066FF990099FF9900CCFF9900FFFF99000000CC003300CC006600CC009900CC00CC00CC00FF00CC000033CC003333CC006633CC009933CC00CC33CC00FF33CC000066CC003366CC006666CC009966CC00CC66CC00FF66CC000099CC003399CC006699CC009999CC00CC99CC00FF99CC0000CCCC0033CCCC0066CC
310
CC0099CCCC00CCCCCC00FFCCCC0000FFCC0033FFCC0066FFCC0099FFCC00CCFFCC00FFFFCC000000FF003300FF006600FF009900FF00CC00FF00FF00FF000033FF003333FF006633FF009933FF00CC33FF00FF33FF000066FF003366FF006666FF009966FF00CC66FF00FF66FF000099FF003399FF006699FF009999FF00CC
310
99FF00FF99FF0000CCFF0033CCFF0066CCFF0099CCFF00CCCCFF00FFCCFF0000FFFF0033FFFF0066FFFF0099FFFF00CCFFFF00FFFFFF00000000000D0D0D001A1A1A00282828003535350043434300505050005D5D5D006B6B6B00787878008686860093939300A1A1A100AEAEAE00BBBBBB00C9C9C900D6D6D600E4E4E400
310
F1F1F100FFFFFF0000000000000000000000000000000000000000000000000000000000000000000000000000000000E2E2E2E2E2E2E2E2E2E2E2E2E2E2E2E2E2E2E2E2E2E2E2E2E2E2E2E2E2E2E2E2E2E2E2E2E2E2E2E2E2E2E2E2E2E2E2E2E2E2E2E2E2E2E2E2E2E2E2E2E2E2E2E2E2E2E2E2E2E2E2E2E2E2E2E2E2E2E2
310
E2E2E2E2E2E2E2E2E2E2E2E2E2E2E2E2E2E2E2E2E2E2E2E2E2E2E2E2E2E2E2E2E2E2E2E2E2E2E2E2E2E2E2E2E2E2E2E2E2E2E2E2E2E2E2E2E2E2E2E2E2E2E2E2E2E2E2E2E2E2E2E2E2E2E2E2E2E2E2E2E2E2E2E2E2E2E2E2E2E2E2E2E2E2E2E2E2E2E2E2E2E2E2E2E2E2E2E2E2E2E2E2E2E2E2E2E2E2E2E2E2E2E2E2E2E2E2
310
E2E2E2E2E2E2E2E2E2E2E2E2E2E2E2E2E2E2E2E2E2E2E2E2E2E2E2E2E2E2E2E2E2E2E2E2E2E2E2E2E2E2E2E2E2E2E2E2E2E2E2E2E2E2E2E2E2E2E2E2E2E2E2E2E2E2E2E2E2E2E2E2E2E2E2E2E2E2E2E2E2E2E2E2E2E2E2E2E2E2E2E2E2E2E2E2E2E2E2E2E2E2E2E2E2E2E2E2E2E2E2E2E2E2E2E2E2E2E2E2E2E2E2E2E2E2E2
310
E2E2E2E2E2E2E2E2E2E2E2E2E2E2E2E2E2E2E2E2E2E2E2E2E2E2E2E2E2E2E2E2E2E2E2E2E2E2E2E2E2E2E2E2E2E2E2E2E2E2E2E2E2E2E2E2E2E2E2E2E2E2E2E2E2E2E2E2E2E2E2E2E2E2E2E2E2E2E2E2E2E2E2E2E2E2E2E2E2E2E2E2E2E2E2E2E2E2E2E2E2E2E2E2E2E2E2E2E2E2E2E2E2E2E2E2E2E2E2E2E2E2E2E2E2E2E2
310
E2E2E2E2E2E2E2E2E2E2E2E2E2E2E2E2E2E2E2E2E2E2E2E2E2E2E2E2E2E2E2E2E2E2E2E2E2E2E2E2E2E2E2E2E2E2E2E2E2E2E2E2E2E2E2E2E2E2E2E2E2E2E2E2E2E2E2E2E2E2E2E2E2E2E2E2E2E2E2E2E2E2E2E2E2E2E2E2E2E2E2E2E2E2E2E2E2E2E2E2E2E2E2E2E2E2E2E2E2E2E2E2E2E2E2E2E2E2E2E2E2E2E2E2E2E2E2
310
E2E2E2E2E2E2E2E2E2E2E2E2E2E2E2E2E2E2E2E2E2E2E2E2E2E2E2E2E2E2E2E2E2E2E2E2E2E2E2E2E2E2E2E2E2E2E2E2E2E2E2E2E2E2E2E2E2E2E2E2E2E2E2E2E2E2E2E2E2E2E2E2E2E2E2E2E2E2E2E2E2E2E2E2E2E2E2E2E2E2E2E2E2E2E2E2E2E2E2E2E2E2E2E2E2E2E2E2E2E2E2E2E2E2E2E2E2E2E2E2E2E2E2E2E2E2E2
310
E2E2E2E2E2E2E2E2E2E2E2E2E2E2E2E2E2E2E2E2E2E2E2E2E2E2E2E2E2E2E2E2E2E2E2E2E2E2E2E2E2E2E2E2E2E2E2E2E2E2E2E2E2E2E2E2E2E2E2E2E2E2E2E2E2E2E2E2E2E2E2E2E2E2E2E2E2E2E2E2E2E2E2E2E2E2E2E2E2E2E2E2E2E2E2E2E2E2E2E2E2E2E2E2E2E2E2E2E2E2E2E2E2E2E2E2E2E2E2E2E2E2E2E2E2E2E2
310
E2E2E2E2E2E2E2E2E2E2E2E2E2E2E2E2E2E2E2E2E2E2E2E2E2E2E2E2E2E2E2E2E2E2E2E2E2E2E2E2E2E2E2E2E2E2E2E2E2E2E2E2E2E2E2E2E2E2E2E2E2E2E2E2E2E2E2E2E2E2E2E2E2E2E2E2E2E2E2E2E2E2E2E2E2E2E2E2E2E2E2E2E2E2E2E2E2E2E2E2E2E2E2E2E2E2E2E2E2E2E2E2E2E2E2E2E2E2E2E2E2E2E2E2E2E2E2
310
E2E2E2E2E2E2E2E2E2E2E2E2E2E2E2E2E2E2E2E2E2E2E2E2E2E2E2E2E2E2E2E2E2E2E2E2E2E2E2E2E2E2E2E2E2E2E2E2E2E2E2E2E2E2E2E2E2E2E2E2E2E2E2E2E2E2E2E2E2E2E2E2E2E2E2E2E2E2E2E2E2E2E2E2E2E2E2E2E2E2E2E2E2E2E2E2E2E2E2E2E2E2E2E2E2E2E2E2E2E2E2E2E2E2E2E2E2E2E2E2E2E2E2E2E2E2E2
310
E2E2E2E2E2E2E2E2E2E2E2E2E2E2E2E2E2E2E2E2E2E2E2E2E2E2E2E2E2E2E2E2E2E2E2E2E2E2E2E2E2E2E2E2E2E2E2E2E2E2E2E2E2E2E2E2E2E2E2E2E2E2E2E2E2E2E2E2E2E2E2E2E2E2E2E2E2E2E2E2E2E2E2E2E2E2E2E2E2E2E2E2E2E2E2E2E2E2E2E2E2E2E2E2E2E2E2E2E2E2E2E2E2E2E2E2E2E2E2E2E2E2E2E2E2E2E2
310
E2E2E2E2E2E2E2E2E2E2E2E2E2E2E2E2E2E2E2E2E2E2E2E2E2E2E2E2E2E2E2E2E2E2E2E2E2E2E2E2E2E2E2E2E2E2E2E2E2E2E22D2D2D2D2D2D2D2D2D2D2D2D2D2D2D2D2D2D2D2D2D2D2D2D2D2D2D2D2D2D2D2D2D2D2D2D2D2D2D2D2D2D2D2D2D2D2D2D2D2D2D2D2D2D2D2D2D2D2D2D2D2D2D2D2D2D2D2D2D2D2D2D2D2D2D2D
310
2D2D2D2D2D2D2D2D2D2D2D2D2D2D2D2D2D2D2D2D2D2D2D2D2D2D2D2D2D2D2D2D2D2D2D2D2D2D2D2D2D2D2D2D2D2D2D2D2D2D2D2D2D2D2D2D2D2D2D2D2D2D2D2D2D2D2D2D2D2D2D2D2D2D2D2D2D2D2DE2E2E2E2E2E2E2E2E2E2E2E2E2E2E2E2E2E2E2E2E2E2E2E2E22DF5F5F5F5F5F5F5F5F5F5F5F5F5F5F5F5F5F5F5F5F5F5
310
F5F5F5F5F5F52DE2E2E2E2E2E2E22D2D2D2D2D2D2D2DE2E22D2D2D2D2D2DE2E2E2E2E2E2E2E2E2E2E2E2E2E2E2E2E2E2E2E2E2E2E2E2E2E2E2E2E2E2E2E2E2E2E2E2E2E2E2E2E2E2E2E2E2E2E2E2E2E2E2E2E2E2E2E2E2E2E2E2E2E2E2E2E2E2E2E2E2E2E2E2E2E2E2E2E2E2E2E2E2E2E2E2E2E2E2E2E2E2E2E2E2E2E2E2E2
310
E2E2E2E22DE2E2E2E2E2E2E2E2E2E2E2E2E2E2E2E2E2E2E2E2E2E2E2E2E22DF5F5F5F5F5F5F5F5F5F5F5F5F5F5E2F5F5E2F5F5F5E22D2D2D2D2D2D2DE2E2E2E2E2E2E22DE2E2F5F5F5E22DE2E22DE2F5F5F52DE2E2E2E2E2E2E2E2E2E2E2E2E2E2E2E2E2E2E2E2E2E2E2E2E2E2E2E2E2E2E2E2E2E2E2E2E2E2E2E2E2E2E2E2
310
E2E2E2E2E2E2E2E2E2E2E2E2E2E2E2E2E2E2E2E2E2E2E2E2E2E2E2E2E2E2E2E2E2E2E2E2E2E2E2E2E2E2E2E2E2E2E2E2E2E2E2E2E2E2E2E2E22DE2E2E2E2E2E2E2E2E2E2E2E2E2E2E2E2E2E2E2E2E2E2E2E2E22DE2E2E2F5F5F5F5F5F5F5F5F5F5F5F5F5F5F5F5E2E2E22DE2E2E2E2E2E2E2E2E2E2E2E2E22DE2E2F5F5F5E2
310
2DE2E22DF5F5F5F52DE2E2E2E2E2E2E2E2E2E2E2E2E2E2E2E2E2E2E2E2E2E2E2E2E2E2E2E2E2E2E2E2E2E2E2E2E2E2E2E2E2E2E2E2E2E2E2E2E2E2E2E2E2E2E2E2E2E2E2E2E2E2E2E2E2E2E2E2E2E2E2E2E2E2E2E2E2E2E2E2E2E2E2E2E2E2E2E2E2E2E2E2E2E2E2E2E2E2E2E2E22DE2E2E2E2E2E2E2E2E2E2E2E2E2E2E2E2
310
E2E2E2E2E2E2E2E2E22DE2E2E2F5F5F5F5F5F5F5F5F5F5F5F5F5F5F5F5E2E2E22DE2E2E2E2E2E2E2E2E2E2E2E2E22DE2E2F5F5F5E22DE2E22DF5F5F5F52DE2E2E2E2E2E2E2E2E2E2E2E2E2E2E2E2E2E2E2E2E2E2E2E2E2E2E2E2E2E2E2E2E2E2E2E2E2E2E2E2E2E2E2E2E2E2E2E2E2E2E2E2E2E2E2E2E2E2E2E2E2E2E2E2E2
310
E2E2E2E2E2E2E2E2E2E2E2E2E2E2E2E2E2E2E2E2E2E2E2E2E2E2E2E2E2E2E2E2E2E2E2E22DE2E2E2E2E2E2E2E2E2E2E2E2E2E2E2E2E2E2E2E2E2E2E2E2E22D0F0F0F0F0F0F0F2DF5F52DF5F5F5F52D2DF5F5F52D2D2DE2E2E2E2E2E2E2E2E2E2E2E2E22D2D2D2D2DF52D2DE2E22D2DF52D2D2DE2E2E2E2E2E2E2E2E2E2E2E2
310
E2E2E2E2E2E2E2E2E2E2E2E2E2E2E2E2E2E2E2E2E2E2E2E2E2E2E2E2E2E2E2E2E2E2E2E2E2E2E2E2E2E2E2E2E2E2E2E2E2E2E2E2E2E2E2E2E2E2E2E2E2E2E2E2E2E2E2E2E2E2E2E2E2E2E2E2E2E2E2E2E2E2E2E2E2E2E2E2E22DE2E2E2E2E2E2E2E2E2E2E2E2E2E2E2E2E2E2E2E2E2E2E2E2E22D0F0F0FDC0FDC0F2DF5F5E2
310
F5F5F5F52DE2F5F5F5E2E22DF5F5F5F5E2F5F5F5F5F5F5F5E2E2E2E2E22DE2E2E2E2E2E2E2E22DE2E2E2E2E2E2E2E2E2E2E2E2E2E2E2E2E2E2E2E2E2E2E2E2E2E2E2E2E2E2E2E2E2E2E2E2E2E2E2E2E2E2E2E2E2E2E2E2E2E2E2E2E2E2E2E2E2E2E2E2E2E2E2E2E2E2E2E2E2E2E2E2E2E2E2E2E2E2E2E2E2E2E2E2E2E2E2E2
310
E2E2E2E2E2E2E2E2E2E2E2E2E2E2E22DE2E2E2E2E2E2E2E2E2E2E2E2E2E2E2E2E2E2E2E2E2E2E2E2E22DE20F0F0FDCDC0FF5F5F52DF5F5F5F52DF5F52DF5F52D2DF5F5F5F5E2F5F5F5F5F5F5F5E22DF5F5F52DF5F52DE2E22D2DF5F5F52DE2E2E2E2E2E2E2E2E2E2E2E2E2E2E2E2E2E2E2E2E2E2E2E2E2E2E2E2E2E2E2E2E2
310
E2E2E2E2E2E2E2E2E2E2E2E2E2E2E2E2E2E2E2E2E2E2E2E2E2E2E2E2E2E2E2E2E2E2E2E2E2E2E2E2E2E2E2E2E2E2E2E2E2E2E2E2E2E2E2E2E2E2E2E2E2E2E2E2E2E2E2E22DE2E2E2E2E2E2E2E2E2E2E2E2E2E2E2E2E2E2E2E2E2E2E2E2E22DE20F0FDCDC0F0FF5F5F5E2F5F5F5F52DF5F5F5F5F5F52DF5F5F5F5F5F5F5F5F5
310
E2F5E2E22DF5F5F5F5F5F52DF5F52DF5F5F5F52DE2E2E2E2E2E2E2E2E2E2E2E2E2E2E2E2E2E2E2E2E2E2E2E2E2E2E2E2E2E2E2E2E2E2E2E2E2E2E2E2E2E2E2E2E2E2E2E2E2E2E2E2E2E2E2E2E2E2E2E2E2E2E2E2E2E2E2E2E2E2E2E2E2E2E2E2E2E2E2E2E2E2E2E2E2E2E2E2E2E2E2E2E2E2E2E2E2E2E2E2E22DE2E2E2E2E2
310
E2E2E2E2E2E2E2E2E2E2E2E2E2E2E2E2E2E2E2E22DE2E20FDC0FDC0F2DF5F5F5F5F5F5F52D2DF5F52DF52D2DF5F5F5F5F5F5F5F5F5E2E2E2E22DF5E2F5F5F5F52DE2E22DE2F5F5F52DE2E2E2E2E2E2E2E2E2E2E2E2E2E2E2E2E2E2E2E2E2E2E2E2E2E2E2E2E2E2E2E2E2E2E2E2E2E2E2E2E2E2E2E2E2E2E2E2E2E2E2E2E2E2
310
E2E2E2E2E2E2E2E2E2E2E2E2E2E2E2E2E2E2E2E2E2E2E2E2E2E2E2E2E2E2E2E2E2E2E2E2E2E2E2E2E2E2E2E2E2E2E22DE2E2E2E2E2E2E2E2E2E2E2E2E2E2E2E2E2E2E2E2E2E2E2E2E22DE2E20FDC0FDC0F2DF5F5F5F5F5F5F52DF5F5F5E2F5E22DF5F5F5F5F5F5F5F5F5E2E2E2E22D2D2D2D2D2D2D2DE2E22D2D2D2D2D2DE2
310
E2E2E2E2E2E2E2E2E2E2E2E2E2E2E2E2E2E2E2E2E2E2E2E2E2E2E2E2E2E2E2E2E2E2E2E2E2E2E2E2E2E2E2E2E2E2E2E2E2E2E2E2E2E2E2E2E2E2E2E2E2E2E2E2E2E2E2E2E2E2E2E2E2E2E2E2E2E2E2E2E2E2E2E2E2E2E2E2E2E2E2E2E2E2E2E2E2E2E2E22DE2E2E2E2E2E2E2E2E2E2E2E2E2E2E2E2E2E2E2E2E2E2E2E2E22D
310
2D2D2D2D2D2D2D2D2D2D2D2D2D2D2D2D2D2D2D2D2D2D2D2D2D2D2D2D2D2D2D2D2D2D2D2D2D2D2D2D2D2D2D2D2D2D2D2D2D2D2D2D2D2D2D2D2D2D2D2D2D2D2D2D2D2D2D2D2D2D2D2D2D2D2D2D2D2D2D2D2D2D2D2D2D2D2D2D2D2D2D2D2D2D2D2D2D2D2D2D2D2D2D2D2D2D2D2D2D2D2D2D2D2D2D2D2D2D2D2D2D2D2D2D2D2D2D
310
2D2D2D2D2D2D2D2D2D2D2D2D2D2D2D2D2D2D2D2D2D2D2D2D2D2D2DE2E2E2E2E2E2E2E2E2E2E2E2E2E2E2E2E2E2E2E2E2E2E2E2E22DE2E2E2E2E2E2E2E2E2E2E2E2E2E2E2E2E2E2E2E2E2E2E2E2E2E2E2E2E2E2E2E2E2E2E2E2E2E2E2E2E2E2E2E2E2E2E2E2E2E2E2E2E2E2E2E2E2E2E2E2E2E2E2E2E2E2E2E2E2E2E2E2E2E2
310
E2E2E2E2E2E2E2E2E2E2E2E2E2E2E2E2E2E2E2E2E2E2E2E2E2E2E2E2E2E2E2E2E2E2E2E2E2E2E2E2E2E2E2E2E2E2E2E2E2E2E2E2E2E2E2E2E2E2E2E2E2E2E2E2E2E2E2E2E2E2E2E2E2E2E2E2E2E2E22DE2E2E2E2E2E2E2E2E2E2E2E2E2E2E2E2E2E2E2E2E2E2E2E2E22DE2E2E2E2E2E2E2E2E2E2E2E2E2E2E2E2E2E2E2E2E2
310
E2E2E2E2E2E2E2E2E2E2E2E2E2E2E2E2E2E2E2E2E2E2E2E2E2E2E2E2E2E2E2E2E2E2E2E2E2E2E2E2E2E2E2E2E2E2E2E2E2E2E2E2E2E2E2E2E2E2E2E2E2E2E2E2E2E2E2E2E2E2E2E2E2E2E2E2E2E2E2E2E2E2E2E2E2E2E2E2E2E2E2E2E2E2E2E2E2E2E2E2E2E2E2E2E2E2E2E2E2E2E2E2E2E2E2E2E2E2E2E2E2E2E2E2E2E2E2
310
E2E2E2E2E22DE2E2E2E2E2E2E2E2E2E2E2E2E2E2E2E2E2E2E2E2E2E2E2E2E22DE2E2E2E2E2E2E2E2E2E2E2E2E2E2E2E2E2E2E2E2E2E2E2E2E2E2E2E2E2E2E2E2E2E2E2E2E2E2E2E2E2E2E2E2E2E2E2E2E2E2E2E2E2E2E2E2E2E2E2E2E2E2E2E2E2E2E2E2E2E2E2E2E2E2E2E2E2E2E2E2E2E2E2E2E2E2E2E2E2E2E2E2E2E2E2
310
E2E2E2E2E2E2E2E2E2E2E2E2E2E2E2E2E2E2E2E2E2E2E2E2E2E2E2E2E2E2E2E2E2E2E2E2E2E2E2E2E2E2E2E2E2E2E2E2E2E2E2E2E2E2E2E2E2E22DE2E2E2E2E2E2E2E2E2E2E2E2E2E2E2E2E2E2E2E2E2E2E2E2E22DE2E2E2E2E2E2E2E2E2E2E2E2E2E2E2E2E2E2E2E2E2E2E2E2E2E2E2E2E2E2E2E2E2E2E2E2E2E2E2E2E2E2
310
E2E2E2E2E2E2E2E2E2E2E2E2E2E2E2E2E2E2E2E2E2E2E2E2E2E2E2E2E2E2E2E2E2E2E2E2E2E2E2E2E2E2E2E2E2E2E2E2E2E2E2E2E2E2E2E2E2E2E2E2E2E2E2E2E2E2E2E2E2E2E2E2E2E2E2E2E2E2E2E2E2E2E2E2E2E2E2E2E2E2E2E2E2E2E2E2E2E2E2E2E2E2E2E2E2E2E2E2E2E2E22DE2E2E2E2E2E2E2E2E2E2E2E2E2E2E2
310
E2E2E2E2E2E2E2E2E2E22DE2E2E2E2E2E2E2E2E2E2E2E2E2E2E2E2E2E2E2E2E2E2E2E2E2E2E2E2E2E2E2E2E2E2E2E2E2E2E2E2E2E2E2E2E2E2E2E2E2E2E2E2E2E2E2E2E2E2E2E2E2E2E2E2E2E2E2E2E2E2E2E2E2E2E2E2E2E2E2E2E2E2E2E2E2E2E2E2E2E2E2E2E2E2E2E2E2E2E2E2E2E2E2E2E2E2E2E2E2E2E2E2E2E2E2E2
310
E2E2E2E2E2E2E2E2E2E2E2E2E2E2E2E2E2E2E2E2E2E2E2E2E2E2E2E2E2E2E2E2E2E2E2E2E22DE2E2E2E2E2E2E2E2E2E2E2E2E2E2E2E2E2E2E2E2E2E2E2E2E22DE2E2E2E2E2E2E2E2E2E2E2E2E2E2E2E2E2E2E2E2E2E2E2E2E2E2E2E2E2E2E2E2E2E2E2E2E2E2E2E2E2E2E2E2E2E2E2E2E2E2E2E2E2E2E2E2E2E2E2E2E2E2E2
310
E2E2E2E2E2E2E2E2E2E2E2E2E2E2E2E2E2E2E2E2E2E2E2E2E2E2E2E2E2E2E2E2E2E2E2E2E2E2E2E2E2E2E2E2E2E2E2E2E2E2E2E2E2E2E2E2E2E2E2E2E2E2E2E2E2E2E2E2E2E2E2E2E2E2E2E2E2E2E2E2E2E2E2E2E2E2E2E2E2E22DE2E2E2E2E2E2E2E2E2E2E2E2E2E2E2E2E2E2E2E2E2E2E2E2E22DE2E2E2E2E2E2E2E2E2E2
310
E2E2E2E2E2E2E2E2E2E2E2E2E2E2E2E2E2E2E2E2E2E2E2E2E2E2E2E2E2E2E2E2E2E2E2E2E2E2E2E2E2E2E2E2E2E2E2E2E2E2E2E2E2E2E2E2E2E2E2E2E2E2E2E2E2E2E2E2E2E2E2E2E2E2E2E2E2E2E2E2E2E2E2E2E2E2E2E2E2E2E2E2E2E2E2E2E2E2E2E2E2E2E2E2E2E2E2E2E2E2E2E2E2E2E2E2E2E2E2E2E2E2E2E2E2E2E2
310
E2E2E2E2E2E2E2E2E2E2E2E2E2E2E2E22DE2E2E2E2E2E2E2E2E2E2E2E2E2E2E2E2E2E2E2E2E2E2E2E2E22DE2E2E2E2E2E2E2E2E2E2E2E2E2E2E2E2E2E2E2E2E2E2E2E2E2E2E2E2E2E2E2E2E2E2E2E2E2E2E2E2E2E2E2E2E2E2E2E2E2E2E2E2E2E2E2E2E2E2E2E2E2E2E2E2E2E2E2E2E2E2E2E2E2E2E2E2E2E2E2E2E2E2E2E2
310
E2E2E2E2E2E2E2E2E2E2E2E2E2E2E2E2E2E2E2E2E2E2E2E2E2E2E2E2E2E2E2E2E2E2E2E2E2E2E2E2E2E2E2E2E2E2E2E2E2E2E2E2E2E2E2E2E2E2E2E2E2E2E2E2E2E2E2E2E22DE2E2E2E2E2E2E2E2E2E2E2E2E2E2E2E2E2E2E2E2E2E2E2E2E22DE2E2E2E2E2E2E2E2E2E2E2E2E2E2E2E2E2E2E2E2E2E2E2E2E2E2E2E2E2E2E2
310
E2E2E2E2E2E2E2E2E2E2E2E2E2E2E2E2E2E2E2E2E2E2E2E2E2E2E2E2E2E2E2E2E2E2E2E2E2E2E2E2E2E2E2E2E2E2E2E2E2E2E2E2E2E2E2E2E2E2E2E2E2E2E2E2E2E2E2E2E2E2E2E2E2E2E2E2E2E2E2E2E2E2E2E2E2E2E2E2E2E2E2E2E2E2E2E2E2E2E2E2E2E2E2E2E2E2E2E2E2E2E2E2E2E2E2E2E2E2E2E2E2E22DE2E2E2E2
310
E2E2E2E2E2E2E2E2E2E2E2E2E2E2E2E2E2E2E2E2E22DE2E2E2E2E2E2E2E2E2E2E2E2E2E2E2E2E2E2E2E2E2E2E2E2E2E2E2E2E2E2E2E2E2E2E2E2E2E2E2E2E2E2E2E2E2E2E2E2E2E2E2E2E2E2E2E2E2E2E2E2E2E2E2E2E2E2E2E2E2E2E2E2E2E2E2E2E2E2E2E2E2E2E2E2E2E2E2E2E2E2E2E2E2E2E2E2E2E2E2E2E2E2E2E2E2
310
E2E2E2E2E2E2E2E2E2E2E2E2E2E2E2E2E2E2E2E2E2E2E2E2E2E2E2E2E2E2E2E2E2E2E2E2E2E2E2E2E2E2E2E2E2E2E2E22DE2E2E2E2E2E2E2E2E2E2E2E2E2E2E2E2E2E2E2E2E2E2E2E2E22DE2E2E2E2E2E2E2E2E2E2E2E2E2E2E2E2E2E2E2E2E2E2E2E2E2E2E2E2E2E2E2E2E2E2E2E2E2E2E2E2E2E2E2E2E2E2E2E2E2E2E2E2
310
E2E2E2E2E2E2E2E2E2E2E2E2E2E2E2E2E2E2E2E2E2E2E2E2E2E2E2E2E2E2E2E2E2E2E2E2E2E2E2E2E2E2E2E2E2E2E2E2E2E2E2E2E2E2E2E2E2E2E2E2E2E2E2E2E2E2E2E2E2E2E2E2E2E2E2E2E2E2E2E2E2E2E2E2E2E2E2E2E2E2E2E2E2E2E2E2E2E2E2E2E22DE2E2E2E2E2E2E2E2E2E2E2E2E2E2E2E2E2E2E2E2E2E2E2E2E2
310
2DE2E2E2E2E2E2E2E2E2E2E2E2E2E2E2E2E2E2E2E2E2E2E2E2E2E2E2E2E2E2E2E2E2E2E2E2E2E2E2E2E2E2E2E2E2E2E2E2E2E2E2E2E2E2E2E2E2E2E2E2E2E2E2E2E2E2E2E2E2E2E2E2E2E2E2E2E2E2E2E2E2E2E2E2E2E2E2E2E2E2E2E2E2E2E2E2E2E2E2E2E2E2E2E2E2E2E2E2E2E2E2E2E2E2E2E2E2E2E2E2E2E2E2E2E2E2
310
E2E2E2E2E2E2E2E2E2E2E2E2E2E2E2E2E2E2E2E2E2E2E2E2E2E2E22DE2E2E2E2E2E2E2E2E2E2E2E2E2E2E2E2E2E2E2E2E2E2E2E2E22DE2E2E2E2E2E2E2E2E2E2E2E2E2E2E2E2E2E2E2E2E2E2E2E2E2E2E2E2E2E2E2E2E2E2E2E2E2E2E2E2E2E2E2E2E2E2E2E2E2E2E2E2E2E2E2E2E2E2E2E2E2E2E2E2E2E2E2E2E2E2E2E2E2
310
E2E2E2E2E2E2E2E2E2E2E2E2E2E2E2E2E2E2E2E2E2E2E2E2E2E2E2E2E2E2E2E2E2E2E2E2E2E2E2E2E2E2E2E2E2E2E2E2E2E2E2E2E2E2E2E2E2E2E2E2E2E2E2E2E2E2E2E2E2E2E2E2E2E2E2E2E2E2E2E22DE2E2E2E2E2E2E2E2E2E2E2E2E2E2E2E2E2E2E2E2E2E2E2E2E22DE2E2E2E2E2E2E2E2E2E2E2E2E2E2E2E2E2E2E2E2
310
E2E2E2E2E2E2E2E2E2E2E2E2E2E2E2E2E2E2E2E2E2E2E2E2E2E2E2E2E2E2E2E2E2E2E2E2E2E2E2E2E2E2E2E2E2E2E2E2E2E2E2E2E2E2E2E2E2E2E2E2E2E2E2E2E2E2E2E2E2E2E2E2E2E2E2E2E2E2E2E2E2E2E2E2E2E2E2E2E2E2E2E2E2E2E2E2E2E2E2E2E2E2E2E2E2E2E2E2E2E2E2E2E2E2E2E2E2E2E2E2E2E2E2E2E2E2E2
310
E2E2E2E2E2E22DE2E2E2E2E2E2E2E2E2E2E2E2E2E2E2E2E2E2E2E2E2E2E2E2E22DE2E2E2E2E2E2E2E2E2E2E2E2E2E2E2E2E2E2E2E2E2E2E2E2E2E2E2E2E2E2E2E2E2E2E2E2E2E2E2E2E2E2E2E2E2E2E2E2E2E2E2E2E2E2E2E2E2E2E2E2E2E2E2E2E2E2E2E2E2E2E2E2E2E2E2E2E2E2E2E2E2E2E2E2E2E2E2E2E2E2E2E2E2E2
310
E2E2E2E2E2E2E2E2E2E2E2E2E2E2E2E2E2E2E2E2E2E2E2E2E2E2E2E2E2E2E2E2E2E2E2E2E2E2E2E2E2E2E2E2E2E2E2E2E2E2E2E2E2E2E2E2E2E2E22DE2E2E2E2E2E2E2E2E2E2E2E2E2E2E2E2E2E2E2E2E2E2E2E2E22DE2E2E2E2E2E2E2E2E2E2E2E2E2E2E2E2E2E2E2E2E2E2E2E2E2E2E2E2E2E2E2E2E2E2E2E2E2E2E2E2E2
310
E2E2E2E2E2E2E2E2E2E2E2E2E2E2E2E2E2E2E2E2E2E2E2E2E2E2E2E2E2E2E2E2E2E2E2E2E2E2E2E2E2E2E2E2E2E2E2E2E2E2E2E2E2E2E2E2E2E2E2E2E2E2E2E2E2E2E2E2E2E2E2E2E2E2E2E2E2E2E2E2E2E2E2E2E2E2E2E2E2E2E2E2E2E2E2E2E2E2E2E2E2E2E2E2E2E2E2E2E2E2E2E22DE2E2E2E2E2E2E2E2E2E2E2E2E2E2
310
E2E2E2E2E2E2E2E2E2E2E22DE2E2E2E2E2E2E2E2E2E2E2E2E2E2E2E2E2E2E2E2E2E2E2E2E2E2E2E2E2E2E2E2E2E2E2E2E2E2E2E2E2E2E2E2E2E2E2E2E2E2E2E2E2E2E2E2E2E2E2E2E2E2E2E2E2E2E2E2E2E2E2E2E2E2E2E2E2E2E2E2E2E2E2E2E2E2E2E2E2E2E2E2E2E2E2E2E2E2E2E2E2E2E2E2E2E2E2E2E2E2E2E2E2E2E2
310
E2E2E2E2E2E2E2E2E2E2E2E2E2E2E2E2E2E2E2E2E2E2E2E2E2E2E2E2E2E2E2E2E2E2E2E2E2E22DE2E2E2E2E2E2E2E2E2E2E2E2E2E2E2E2E2E2E2E2E2E2E2E2E22DE2E2E2E2E2E2E2E2E2E2E2E2E2E2E2E2E2E2E2E2E2E2E2E2E2E2E2E2E2E2E2E2E2E2E2E2E2E2E2E2E2E2E2E2E2E2E2E2E2E2E2E2E2E2E2E2E2E2E2E2E2E2
310
E2E2E2E2E2E2E2E2E2E2E2E2E2E2E2E2E2E2E2E2E2E2E2E2E2E2E2E2E2E2E2E2E2E2E2E2E2E2E2E2E2E2E2E2E2E2E2E2E2E2E2E2E2E2E2E2E2E2E2E2E2E2E2E2E2E2E2E2E2E2E2E2E2E2E2E2E2E2E2E2E2E2E2E2E2E2E2E2E2E2E22DE2E2E2E2E2E2E2E2E2E2E2E2E2E2E2E2E2E2E2E2E2E2E2E2E22DE2E2E2E2E2E2E2E2E2
310
E2E2E2E2E2E2E2E2E2E2E2E2E2E2E2E2E2E2E2E2E2E2E2E2E2E2E2E2E2E2E2E2E2E2E2E2E2E2E2E2E2E2E2E2E2E2E2E2E2E2E2E2E2E2E2E2E2E2E2E2E2E2E2E2E2E2E2E2E2E2E2E2E2E2E2E2E2E2E2E2E2E2E2E2E2E2E2E2E2E2E2E2E2E2E2E2E2E2E2E2E2E2E2E2E2E2E2E2E2E2E2E2E2E2E2E2E2E2E2E2E2E2E2E2E2E2E2
310
E2E2E2E2E2E2E2E2E2E2E2E2E2E2E2E2E22DE2E2E2E2E2E2E2E2E2E2E2E2E2E2E2E2E2E2E2E2E2E2E2E2E22DE2E2E2E2E2E2E2E2E2E2E2E2E2E2E2E2E2E2E2E2E2E2E2E2E2E2E2E2E2E2E2E2E2E2E2E2E2E2E2E2E2E2E2E2E2E2E2E2E2E2E2E2E2E2E2E2E2E2E2E2E2E2E2E2E2E2E2E2E2E2E2E2E2E2E2E2E2E2E2E2E2E2E2
310
E2E2E2E2E2E2E2E2E2E2E2E2E2E2E2E2E2E2E2E2E2E2E2E2E2E2E2E2E2E2E2E2E2E2E2E2E2E2E2E2E2E2E2E2E2E2E2E2E2E2E2E2E2E2E2E2E2E2E2E2E2E2E2E2E2E2E2E2E2E22DE2E2E2E2E2E2E2E2E2E2E2E2E2E2E2E2E2E2E2E2E2E2E2E2E22DE2E2E2E2E2E2E2E2E2E2E2E2E2E2E2E2E2E2E2E2E2E2E2E2E2E2E2E2E2E2
310
E2E2E2E2E2E2E2E2E2E2E2E2E2E2E2E2E2E2E2E2E2E2E2E2E2E2E2E2E2E2E2E2E2E2E2E2E2E2E2E2E2E2E2E2E2E2E2E2E2E2E2E2E2E2E2E2E2E2E2E2E2E2E2E2E2E2E2E2E2E2E2E2E2E2E2E2E2E2E2E2E2E2E2E2E2E2E2E2E2E2E2E2E2E2E2E2E2E2E2E2E2E2E2E2E2E2E2E2E2E2E2E2E2E2E2E2E2E2E2E2E2E2E22DE2E2E2
310
E2E2E2E2E2E2E2E2E2E2E2E2E2E2E2E2E2E2E2E2E2E22DE2E2E2E2E2E2E2E2E2E2E2E2E2E2E2E2E2E2E2E2E2E2E2E2E2E2E2E2E2E2E2E2E2E2E2E2E2E2E2E2E2E2E2E2E2E2E2E2E2E2E2E2E2E2E2E2E2E2E2E2E2E2E2E2E2E2E2E2E2E2E2E2E2E2E2E2E2E2E2E2E2E2E2E2E2E2E2E2E2E2E2E2E2E2E2E2E2E2E2E2E2E2E2E2
310
E2E2E2E2E2E2E2E2E2E2E2E2E2E2E2E2E2E2E2E2E2E2E2E2E2E2E2E2E2E2E2E2E2E2E2E2E2E2E2E2E2E2E2E2E2E2E2E2E22DE2E2E2E2E2E2E2E2E2E2E2E2E2E2E2E2E2E2E2E2E2E2E2E2E22DE2E2E2E2E2E2E2E2E2E2E2E2E2E2E2E2E2E2E2E2E2E2E2E2E2E2E2E2E2E2E2E2E2E2E2E2E2E2E2E2E2E2E2E2E2E2E2E2E2E2E2
310
E2E2E2E2E2E2E2E2E2E2E2E2E2E2E2E2E2E2E2E2E2E2E2E2E2E2E2E2E2E2E2E2E2E2E2E2E2E2E2E2E2E2E2E2E2E2E2E2E2E2E2E2E2E2E2E2E2E2E2E2E2E2E2E2E2E2E2E2E2E2E2E2E2E2E2E2E2E2E2E2E2E2E2E2E2E2E2E2E2E2E2E2E2E2E2E2E2E2E2E2E2E22DE2E2E2E2E2E2E2E2E2E2E2E2E2E2E2E2E2E2E2E2E2E2E2E2
310
E22DE2E2E2E2E2E2E2E2E2E2E2E2E2E2E2E2E2E2E2E2E2E2E2E2E2E2E2E2E2E2E2E2E2E2E2E2E2E2E2E2E2E2E2E2E2E2E2E2E2E2E2E2E2E2E2E2E2E2E2E2E2E2E2E2E2E2E2E2E2E2E2E2E2E2E2E2E2E2E2E2E2E2E2E2E2E2E2E2E2E2E2E2E2E2E2E2E2E2E2E2E2E2E2E2E2E2E2E2E2E2E2E2E2E2E2E2E2E2E2E2E2E2E2E2E2
310
E2E2E2E2E2E2E2E2E2E2E2E2E2E2E2E2E2E2E2E2E2E2E2E2E2E2E2E22DE2E2E2E2E2E2E2E2E2E2E2E2E2E2E2E2E2E2E2E2E2E2E2E2E22DE2E2E2E2E2E2E2E2E2E2E2E2E2E2E2E2E2E2E2E2E2E2E2E2E2E2E2E2E2E2E2E2E2E2E2E2E2E2E2E2E2E2E2E2E2E2E2E2E2E2E2E2E2E2E2E2E2E2E2E2E2E2E2E2E2E2E2E2E2E2E2E2
310
E2E2E2E2E2E2E2E2E2E2E2E2E2E2E2E2E2E2E2E2E2E2E2E2E2E2E2E2E2E2E2E2E2E2E2E2E2E2E2E2E2E2E2E2E2E2E2E2E2E2E2E2E2E2E2E2E2E2E2E2E2E2E2E2E2E2E2E2E2E2E2E2E2E2E2E2E2E2E2E2E22DE2E2E2E2E2E2E2E2E2E2E2E2E2E2E2E2E2E2E2E2E2E2E2E2E22DE2E2E2E2E2E2E2E2E2E2E2E2E2E2E2E2E2E2E2
310
E2E2E2E2E2E2E2E2E2E2E2E2E2E2E2E2E2E2E2E2E2E2E2E2E2E2E2E2E2E2E2E2E2E2E2E2E2E2E2E2E2E2E2E2E2E2E2E2E2E2E2E2E2E2E2E2E2E2E2E2E2E2E2E2E2E2E2E2E2E2E2E2E2E2E2E2E2E2E2E2E2E2E2E2E2E2E2E2E2E2E2E2E2E2E2E2E2E2E2E2E2E2E2E2E2E2E2E2E2E2E2E2E2E2E2E2E2E2E2E2E2E2E2E2E2E2E2
310
E2E2E2E2E2E2E22DE2E2E2E2E2E2E2E2E2E2E2E2E2E2E2E2E2E2E2E2E2E2E2E2E22DE2E2E2E2E2E2E2E2E2E2E2E2E2E2E2E2E2E2E2E2E2E2E2E2E2E2E2E2E2E2E2E2E2E2E2E2E2E2E2E2E2E2E2E2E2E2E2E2E2E2E2E2E2E2E2E2E2E2E2E2E2E2E2E2E2E2E2E2E2E2E2E2E2E2E2E2E2E2E2E2E2E2E2E2E2E2E2E2E2E2E2E2E2
310
E2E2E2E2E2E2E2E2E2E2E2E2E2E2E2E2E2E2E2E2E2E2E2E2E2E2E2E2E2E2E2E2E2E2E2E2E2E2E2E2E2E2E2E2E2E2E2E2E2E2E2E2E2E2E2E2E2E2E2E22DE2E2E2E2E2E2E2E2E2E2E2E2E2E2E2E2E2E2E2E2E2E2E2E2E22DE2E2E2E2E2E2E20F0FE2E2E2E2E2E2E2E2E2E2E2E2E2E2E2E2E2E2E2E2E2E2E2E2E2E2E2E20FE20F
310
E2E2E2E2E2E2E2E2E2E2E2E2E2E2E2E2E2E20F0FE2E2E2E2E2E2E2E2E2E2E2E2E2E2E2E2E2E2E2E2E2E2E2E2E2E2E2E2E2E2E2E2E2E2E2E2E2E2E20F0FE2E2E2E2E2E2E2E2E2E2E2E2E2E20FE20FE2E2E2E2E2E2E2E2E2E2E2E2E2E2E2E2E2E2E2E2E2E2E2E2E2E2E2E20F0FE2E2E2E2E22DE2E2E2E2E2E2E2E2E2E2E2E2E2
310
E2E2E2E2E2E2E2E2E2E2E2E22DE2E2E2E2E2E2E20F0F0F0F0F0F0F0F0F0F0F0F0F0F0F0F0F0F0F0F0F0F0F0F0F0F0F0F0F0F0F0F0FE2E2E2E2E2E2E2E2E2E2E2E2E2E2E2E2E2E20F0F0F0F0F0F0F0F0F0F0F0F0F0F0F0F0F0F0F0F0F0F0F0F0F0F0F0F0F0F0F0F0F0F0F0F0F0F0F0F0F0F0FE2E2E2E2E2E2E2E2E2E2E2E2E2
310
E20F0F0F0F0F0F0F0F0F0F0F0F0F0F0F0F0F0F0F0F0F0F0F0F0F0F0F0F0F0F0F0F0FE2E2E2E2E22DE2E2E2E2E2E2E2E2E2E2E2E2E2E2E2E2E2E2E2E2E2E2E2E2E22DE2E2E2E2E2E2E20FE2E2E2E2E2E2E2E2E2E2E2E2E20F0F0F0F0FE2E2E2E2E2E2E2E2E2E2E2E2E20FE2E2E2E2E2E2E2E2E2E2E2E2E2E2E2E2E2E20FE2E2
310
E2E2E2E2E2E2E2E2E2E2E2E2E2E2E2E2E20F0F0FE2E2E2E2E2E2E2E2E2E2E2E2E2E2E2E2E2E2E20FE2E2E2E2E2E2E2E2E2E2E2E2E2E20FE2E2E2E2E2E2E2E2E2E2E2E2E20F0F0F0F0FE2E2E2E2E2E2E2E2E2E2E2E2E20FE2E2E2E2E22DE2E2E2E2E2E2E2E2E2E2E2E2E2E2E2E2E2E2E2E2E2E2E2E2E22DE2E2E2E2E2E2E20F
310
E2E2E2E2E2E2E2E2E2E2E2E2E2E2E2E2E2E2E2E2E2E2E2E2E2E2E2E2E2E2E20FE2E2E2E2E2E2E2E2E2E2E2E2E2E2E2E2E2E20FE2E2E2E2E2E2E2E2E2E2E2E2E2E2E2E2E2E2E2E2E2E2E2E2E2E2E2E2E2E2E2E2E2E2E2E2E2E2E2E2E20FE2E2E2E2E2E2E2E2E2E2E2E2E2E20FE2E2E2E2E2E2E2E2E2E2E2E2E2E2E2E2E2E2E2
310
E2E2E2E2E2E2E2E2E2E2E2E20FE2E2E2E2E22DE2E2E2E2E2E2E2E2E2E2E2E2E2E2E2E2E2E2E2E2E2E2E2E2E22DE2E2E2E2E2E2E20FE2E2E2E2E2E2E2E2E2E2E2E2E2E2E2E2E2E2E2E2E2E2E2E2E2E2E2E2E2E2E20FE2E2E2E2E2E2E2E2E2E2E2E2E2E2E2E2E2E20FE2E2E2E2E2E2E2E2E2E2E2E2E2E2E2E2E2E2E2E2E2E2E2
310
E2E2E2E2E2E2E2E2E2E2E2E2E2E2E2E2E2E20FE2E2E2E2E2E2E2E2E2E2E2E2E2E20FE2E2E2E2E2E2E2E2E2E2E2E2E2E2E2E2E2E2E2E2E2E2E2E2E2E2E2E2E2E2E20FE2E2E2E2E22DE2E2E2E2E2E2E2E2E2E2E2E2E2E2E2E2E2E2E2E2E2E2E2E2E22DE2E2E2E2E2E2E20FE2E2E2E2E2E2E2E2E2E2E2E2E2E2E2E2E2E2E2E2E2
310
E2E2E2E2E2E2E2E2E2E20FE2E2E2E2E2E2E2E2E2E2E2E2E2E2E2E2E2E20FE2E2E2E2E2E2E2E2E2E2E2E2E2E2E2E2E2E2E2E2E2E2E2E2E2E2E2E2E2E2E2E2E2E2E2E2E2E2E2E2E20FE2E2E2E2E2E2E2E2E2E2E2E2E2E20FE2E2E2E2E2E2E2E2E2E2E2E2E2E2E2E2E2E2E2E2E2E2E2E2E2E2E2E2E2E2E20FE2E2E2E2E22DE2E2
310
E2E2E2E2E2E2E2E2E2E2E2E2E2E2E2E2E2E2E2E2E2E2E22DE2E2E2E2E2E2E20FE2E2E20FE2E2E2E2E2E2E2E2E2E2E2E2E2E2E2E2E2E2E2E2E2E2E20FE2E2E20FE2E2E2E2E2E2E2E2E2E2E2E2E2E2E2E2E2E20FE2E2E20FE2E2E2E2E2E2E2E2E2E2E2E2E2E2E2E2E2E2E2E2E2E2E2E2E2E2E2E2E2E2E2E2E2E2E2E2E20FE2E2
310
E2E2E2E2E2E2E2E2E2E2E2E20FE2E2E20FE2E2E2E2E2E2E2E2E2E2E2E2E2E2E2E2E2E2E2E2E2E2E20FE2E2E20FE2E2E2E2E22DE2E2E2E2E2E2E2E2E2E2E2E2E2E2E2E2E2E2E2E2E2E2E2E2E22DE2E2E2E2E2E2E20FE2E2E20F0F0F0F0F0F0F0F0F0F0F0F0F0F0F0F0F0F0F0F0F0F0F0F0FE2E2E20FE2E2E2E2E2E2E2E2E2E2
310
E2E2E2E2E2E2E2E20F0F0F0F0F0F0F0F0F0F0F0F0F0F0F0F0F0F0F0F0F0F0F0F0F0F0F0F0F0F0F0F0F0F0F0F0F0F0F0F0F0F0FE2E2E2E2E2E2E2E2E2E2E2E2E2E20FE2E2E20F0F0F0F0F0F0F0F0F0F0F0F0F0F0F0F0F0F0F0F0F0F0F0F0FE2E2E20FE2E2E2E2E22DE2E2E2E2E2E2E2E2E2E2E2E2E2E2E2E2E2E2E2E2E2E2E2
310
E2E22DE2E2E2E2E2E2E20FE2E2E20FE2E2E2E2E2E2E2E20FE20F0F0F0FE2E2E2E2E2E2E2E2E20FE2E2E20FE2E2E2E2E2E2E2E2E2E2E2E2E2E2E2E2E2E20F0F0FE20FE2E2E2E2E2E2E2E2E2E2E2E2E2E2E2E2E20F0F0FE2E2E2E2E2E2E2E2E2E2E2E2E2E2E2E2E20FE2E2E2E2E2E2E2E2E2E2E2E2E2E20FE2E2E20FE2E2E2E2
310
E2E2E2E2E20F0F0F0F0F0FE2E2E2E2E2E2E2E20FE2E2E20FE2E2E2E2E22DE2E2E2E2E2E2E2E2E2E2E2E2E2E2E2E2E2E2E2E2E2E2E2E2E22DE2E2E2E2E2E2E20FE2E2E20FE2E2E2E2E2E2E2E20F0F0F0F0F0FE2E2E2E2E2E2E2E2E20FE2E2E20FE2E2E2E2E2E2E2E2E2E2E2E2E2E2E2E2E2E20F0F0FE20FE2E2E2E2E2E2E2E2
310
E2E2E2E2E2E2E2E2E20F0F0FE2E2E2E2E2E2E2E2E2E2E2E2E2E2E2E2E20FE2E2E2E2E2E2E2E2E2E2E2E2E2E20FE2E2E20FE2E2E2E2E2E2E2E2E20F0F0F0F0F0FE2E2E2E2E2E2E2E20FE2E2E20FE2E2E2E2E22DE2E2E2E2E2E2E2E2E2E2E2E2E2E2E2E2E2E2E2E2E2E2E2E2E22DE2E2E2E2E2E2E20FE2E2E20FE2E2E2E2E2E2
310
E2E2E2E2E2E2E2E2E2E2E2E2E2E2E2E2E20FE2E2E20FE2E2E2E2E2E2E2E2E2E2E2E2E2E2E2E2E2E20FE2E2E20FE2E2E2E2E2E2E2E2E2E2E2E2E2E2E2E2E2E2E2E2E2E2E2E2E2E2E2E2E2E2E2E2E2E2E2E2E20FE2E2E2E2E2E2E2E2E2E2E2E2E2E20FE2E2E20FE2E2E2E2E2E2E2E2E2E2E2E2E2E2E2E2E2E2E2E2E2E2E20FE2
310
E2E20FE2E2E2E2E22DE2E2E2E2E2E2E2E2E2E2E2E2E2E2E2E2E2E2E2E2E2E2E2E2E22DE2E2E2E2E2E2E20FE2E2E20FE2E2E2E2E2E2E2E2E2E2E2E2E2E2E2E2E2E2E2E2E2E2E20FE2E2E20FE2E2E2E2E2E2E2E2E2E2E2E2E2E2E2E2E2E20FE2E2E20FE2E2E2E2E2E2E2E2E2E2E2E2E2E2E2E2E2E2E2E2E2E2E2E2E2E2E2E2E2
310
E2E2E2E2E2E2E2E20FE2E2E2E2E2E2E2E2E2E2E2E2E2E20FE2E2E20FE2E2E2E2E2E2E2E2E2E2E2E2E2E2E2E2E2E2E2E2E2E2E20FE2E2E20FE2E2E2E2E22DE2E2E2E2E2E2E2E2E2E2E2E2E2E2E2E2E2E2E2E2E2E2E2E2E22DE2E2E2E2E2E2E20FE2F5F5F5F5F5F5F5F5F5F5F5F5F5F5F5F5F5F5F5F5F5F5F5F5F5F5F5F5F5E2
310
0FE2E2E2E2E2E2E2E2E2E2E2E2E2E2E2E2E2E20FE2E2E2F5F5F5F5F5F5F5F5F5F5F5F5F5F5F5F5F5F5F5F5F5F5F5F5F5F5F5F5F5E2E2E2E2E2F5F5F5F5F5E2E2E2E2E2E2E2E2E2E2E2E2E2E20FE2F5F50FF5F5F5F5F5F5F5F5F5F5F5F5F5F5F5F5F5F5F5F5F5F5F50FF5F5E20FE2E2E2E2E22DE2E2E2E2E2E2E2E2E2E2E2E2
310
E2E2E2E2E2E2E2E2E2E2E2E2E22DE2E2E2E2E2E2E20FF5E2E2BEE2E2E2E2E2E2E2E2E2E2E2E2E2E2E2E2E2E2E2E2E2E2E2BEE2E2F50FE2E2E2E2E2E2E2E2E2E2E2E2E2E2E2E2E2E20FE2E2E2F5E2E2E2E2E2E2E2E2E2E2E2E2E2E2E2E2E2E2E2E2E2E2E2E2E2E2E2F5E2E2E2E2E2F5E2E2E2F5E2E2E2E2E2E2E2E2E2E2E2E2
310
E2E20FF5E2E20FE2E2E2E2E2E2E2E2E2E2E2E2E2E2E2E2E2E2E2E2E2E2E20FE2E2F50FE2E2E2E2E22DE2E2E2E2E2E2E2E2E2E2E2E2E2E2E2E2E2E2E2E2E2E2E2E2E22DE2E2E2E2E2E2E2F5E2E2E2BEF5E2E2E2E2E2E2E2E2E2E2E2E2E2E2E2E2E2E2E2E2E2F5BEE2E2E2F5E2E2E2E2E2E2E2E2E2E2E2E2E2E2E2E2E2E20FE2
310
E2E2F5F5F5F5F5F5F5F5F5F5F5F5F5F5F5F5F5F5F5F5F5F5F5F5F5F5F5F5F5E2E2E2E2E2F5F5F5F5F5E2E2E2E2E2E2E2E2E2E2E2E2E2E2F5E2E2F5BEF5E2E2E2E2E2E2E2E2E2E2E2E2E2E2E2E2E2E2E2E2E2F5BEF5E2E2F5E2E2E2E2E22DE2E2E2E2E2E2E2E2E2E2E2E2E2E2E2E2E2E2E2E2E2E2E2E2E22DE2E2E2E2E2E2E2
310
F5E2E2F5BEF5E2E2E2E2E2E2E2E2E2E2E2E2E2E2E2E2E2E2E2E2F5F5BEF5E2E2F5E2E2E2E2E2E2E2E2E2E2E2E2E2E2E2E2E2E20FE2E2E2F5E2E2E2E2E2E2E2E2E2E2E2E2E2E2E2E2E2E2E2E2E2E2E2E2E2E2E2F5E2E2E2E2E2F5E2E2E2F5E2E2E2E2E2E2E2E2E2E2E2E2E2E2F5E2F5F5BEE2F5E2E2E2E2E2E2E2E2E2E2E2E2
310
E2E2E2E2E2E2E2F5F5BEE2F5E2F5E2E2E2E2E22DE2E2E2E2E2E2E2E2E2E2E2E2E2E2E2E2E2E2E2E2E2E2E2E2E22DE2E2E2E2E2E2E2F5BEBEBEBEBEBEBEE2E2E2E2E2E2E2E2E2E2E2E2E2E2E2E2E2BEBEBEBEBEBEBEF5E2E2E2E2E2E2E2E2E2E2E2E2E2E2E2E2E2E20FE2E2E2F5E2E2E2E2E2E2E2E2E2E2E2E2E2E2E2E2E2E2
310
E2E2E2E2E2E2E2E2E2F5F5F5F5F5F5F5E2E2E2F5E2E2E2E2E2E2E2E2E2E2E2E2E2E2F5E2BEBEBEBEBEBEE2E2E2E2E2E2E2E2E2E2E2E2E2E2E2E2E2BEBEBEBEBEBEBEF5E2E2E2E2E22DE2E2E2E2E2E2E2E2E2E2E2E2E2E2E2E2E2E2E2E2E2E2E2E2E22DE2E2E2E2E2E2E2F5E2E2F5BEF5E2E2E2E2E2E2E2E2E2E2BEE2E2E2E2
310
E2E2E2E2E2F5F5BEF5E2E2F5E2E2E2E2E2E2E2E2E2E2E2E2E2E2E2E2E2E20FE2E2E2F5E2E2E2E2E2E2E2E2E2E2E2E2E2E2E2E2E2E2E2E2E2E2E2E2E2E2E2F5E2E2E2E2E2F5E2E2E2F5E2E2E2E2E2E2E2E2E2E2E2E2E2E2F5E2E2F5BEF5F5E2E2E2E2E2E2E2E2E2BEE2E2E2E2E2E2E2E2E2F5F5BEF5F5E2F5E2E2E2E2E22DE2
310
E2E2E2E2E2E2E2E2E2E2E2E2E2E2E2E2E2E2E2E2E2E2E2E22DE2E2E2E2E2E2E2F5E2E2E2BEE2E2E2E2E2E2E2E2E2F5F5BEF5F5E2E2E2E2E2E2E2E2E2BEE2E2E2F5E2E2E2E2E2E2E20F0F0F0F0F0F0F0F0F0F0FF5F5F5F5F5E2E2E2E2E2E2E2E2F5F5F5F5F5F5F5F5F5E2E2E2E2E2E2E2E22828282828282828282828280F0F
310
0F0F0F0F0F0F0F0FE2E2E2E2E2F5E2E2F5BEF5E2E2E2E2E2E2E2E2F5F5BEF5F5E2E2E2E2E2E2E2E2F5BEF5E2E2F5E2E2E2E2E22DE2E2E2E2E2E2E2E2E2E2E2E2E2E2E2E2E2E2E2E2E2E2E2E2E22DE2E2E2E2E2E2E2F5E2E2E2BEE2E2E2E2E2E2F5F5F5E2E2BEE2E2F5F5E2E2E2E2E2E2E2BEE2E2E2F5E2E2E2E2E2E2E2E20F
310
E2E2E2E2E2E2E2E2E2F5E2E2E2F5E2E2E2E2E2E2E2F5F5E2E2E2E2E2E2E2E2F5F5E2E2E2E2E2E228E2F5E2E2E2E2E2F5E2E2E2F5E2E2E2E2E2E2E20F0FE2E2E2E2E2F5E2E2E2BEE2E2E2E2E2E2E2F5F5E2E2BEE2E2F5F5F5E2E2E2E2E2E2BEE2E2E2F5E2E2E2E2E22DE2E2E2E2E2E2E2E2E2E2E2E2E2E2E2E2E2E2E2E2E2E2
310
E2E2E22DE2E2E2E2E2E2E2F5E2E2E2E2E2E2E2E2E2F5F5E2E2E2E2BEE2E2E2E2F5F5E2E2E2E2E2E2E2E2E2F5E2E2E2E2E2E2E2E20FE2E2E2E2E2E2E2E2E2F5E2E2E2F5E2E2E2E2E2E2F5E2E2E2E2E2E2E2E2E2E2E2E2F5E2E2E2E2E228E2F5E2E2E2E2E2F5E2E2E2F5E2E2E2E2E2E2E20FE2E2E2E2E2E2F5E2E2E2E2E2E2E2
310
E2E2F5F5E2E2E2E2BEE2E2E2E2E2F5E2E2E2E2E2E2E2E2E2F5E2E2E2E2E22DE2E2E2E2E2E2E2E2E2E2E2E2E2E2E2E2E2E2E2E2E2E2E2E2E22DE2E2E2E2E2E2E2F5E2E2E2E2E2E2E2E2F5E2E2E2E2E2E2BEE2E2E2E2E2E2F5E2E2E2E2E2E2E2E2F5E2E2E2E2E2E2E2E20FE2E2E2E2E2E2E2E2E2F5E2E2E2F5E2E2E2E2E2F5E2
310
E2E2E2E2E2E2E2E2E2E2E2E2F5F5E2E2E2E228E2F5E2E2E2E2E2F5E2E2E2F5E2E2E2E2E2E2E20FE2E2E2E2E2E2F5E2E2E2E2E2E2E2E2F5E2E2E2E2E2E2BEE2E2E2E2E2E2F5E2E2E2E2E2E2E2E2F5E2E2E2E2E22DE2E2E2E2E2E2E2E2E2E2E2E2E2E2E2E2E2E2E2E2E2E2E2E2E22DE2E2E2E2E2E2E2F5E2E2E2E2E2E2E2E2F5
310
E2E2E2E2E2E2BEE2E2E2E2E2E2F5E2E2E2E2E2E2E2E2F5E2E2E2E2E2E2E2E20FE2E2E2E2E2E2E2E2E2F5E2E2E2F5E2E2E2E2F5E2E2E2E2E2E2E2E2E2E2E2E2E2E2E2E2F5E2E2E228E2F5E2E2E2E2E2F5E2E2E2F5E2E2E2E2E2E2E20FE2E2E2E2E2E2F5E2E2E2E2E2E2E2F5F5E2E2E2E2E2E2BEE2E2E2E2E2E2E2F5E2E2E2E2
310
E2E2E2F5E2E2E2E2E22DE2E2E2E2E2E2E2E2E2E2E2E2E2E2E2E2E2E2E2E2E2E2E2E2E22DE2E2E2E2E2E2E2F5E2E2E2E2E2E2F5F5E2E2E2E2E2E2E2BEE2E2E2E2E2E2E2F5E2E2E2E2E2E2E2F5E2E2E2E2E2E2E2E20FE2E2E2E2E2E2E2E2F5F5E2E2E2F5E2E2E2F5E2E2E2E2E2E2E2E2E2E2E2E2E2E2E2E2E2F5E2E2E228E2F5
310
E2E2E2E2E2F5E2E2E2F5E2E2E2E2E2E2E20FE2E2E2E2E2E2F5E2E2E2E2E2E2E2F5E2E2E2E2E2E2E2BEE2E2E2E2E2E2E2E2F5E2E2E2E2E2E2F5E2E2E2E2E22DE2E2E2E2E2E2E2E2E2E2E2E2E2E2E2E2E2E2E2E2E2E2E2E2E22DE2E2E2E2E2E2E2F5E2E2E2E2E2E2F5E2E2E2E2E2E2F5F5BEF5F5E2E2E2E2E2E2F5E2E2E2E2E2
310
E2F5E2E2E2E2E2E2E2E20FE2E20F0F0F0FBEBEF5BEBEBEBEBEBEBEBEF5BEBEBEBEBEBEBEBEBEBEBEBEBEBEBEBEBEBEF5BEBE28BEBEBEBEBEBEBEBEBEBEBEBEBEBEBEE2E2E2E20FE2E2E2E2E2E2F5E2E2E2E2E2E2F5E2E2E2E2E2E2F5F5BEF5F5F5E2E2E2E2E2F5E2E2E2E2E2E2F5E2E2E2E2E22DE2E2E2E2E2E2E2E2E2E2E2
310
E2E2E2E2E2E2E2E2E2E2E2E2E2E22DE2E2E2E2E2E2E2F5E2E2E2E2E2E2F5E2E2E2E2E2F5E2E2BEE2E2F5E2E2E2E2E2F5E2E2E2E2E2E2F5E2E2E2E2E2E2E2E20FE2E2E20FE2E2BEBEF5F5E2E2E2F5E2E2E2F5E2E2E2E2E2E2E2E2E2E2E2E2E2E2E2E2E2E2F5E2E228E2F5E2E2E2E2E2F5E2E2E2F5E2E2BEE2E2E20F0FE2E2E2
310
E2E2E2F5E2E2E2E2E2E2F5E2E2E2E2E2F5E2E2BEE2E2F5E2E2E2E2E2F5E2E2E2E2E2E2F5E2E2E2E2E22DE2E2E2E2E2E2E2E2E2E2E2E2E2E2E2E2E2E2E2E2E2E2E2E2E22DE2E2E2E2E2E2E2F5E2E2E2E2E2E2F5E2E2E2E2F5E2E2E2BEE2E2F5F5E2E2E2E2F5E2E2E2E2E2E2F5E2E2E2E2E2E20F0F0FE20F0F0FE2E2BEBEF5F5
310
E2E2E2F5E2E2F5E2F5E2E2E2E2E2E2E2E2E2E2E2E2E2E2E2F5F5F5E2E228E2F5E2E2E2E2E2F5E2E2E2F5E2E2BEE2E2E20F0FE2E2E2E2E2E2F5E2E2E2E2E2E2F5E2E2E2E2F5F5E2E2BEE2E2E2F5E2E2E2E2E2F5E2E2E2E2E2F5E2E2E2E2E22DE2E2E2E2E2E2E2E2E2E2E2E2E2E2E2E2E2E2E2E2E2E2E2E2E22DE2E2E2E2E2E2
310
E2F5E2E2E2E2E2F5E2E2E2E2E2F5E2E2E2BEE2E2E2F5E2E2E2E2F5E2E2E2E2E2E2F5E2E2E2E2E2E20F0F0FE20F0F0FE2E2BEBEF5F5E2E2E2F5E2E2F5F5F5F5E2E2E2E2E2E2E2E2E2E2E2E2E2F5F5F5F5E2E228E2F5E2E2E2E2E2F5E2E2E2F5E2E2BEE2E2E20F0FE2E2E2E2E2E2F5E2E2E2E2E2E2F5E2E2E2E2F5E2E2E2BEE2
310
E2E2F5E2E2E2E2E2F5E2E2E2E2E2F5E2E2E2E2E22DE2E2E2E2E2E2E2E2E2E2E2E2E2E2E2E2E2E2E2E2E2E2E2E2E22DE2E2E2E2E2E2E2F5E2E2E2E2BEBEBEBEBEBEBEBEBEBEBEBEBEBEBEBEBEBEBEBEBEBEBEE2E2E2E2F5E2E2E2E2E2E20F0F0FE20F0F0FBEBEBEBEBEBEBEBEBEBEBEBEBEBEBEBEBEBEBEBEBEBEBEBEBEBEBE
310
BEBEBEBEBEBEBEBEBEBEBEBEBEBEBEBEBEBEBEBEBEBEBEBEE2E2E20F0FE2E2E2E2E2E2F5E2E2E2E2BEBEBEBEBEBEBEBEBEBEBEBEBEBEBEBEBEBEBEBEBEBEBEE2E2E2E2F5E2E2E2E2E22DE2E2E2E2E2E2E2E2E2E2E2E2E2E2E2E2E2E2E2E2E2E2E2E2E22DE2E2E2E2E2E2E2F5E2E2E2E2E2F5E2E2E2E2E2F5E2E2E2BEE2E2E2
310
F5E2E2E2E2F5E2E2E2E2E2E2F5E2E2E2E2E2E20F0F0FE20F0F0FE2E2BEBEF5F5E2E2E2F5E2E2F5F5F5F5E2E2E2E2E2E2E2E2E2E2E2E2E2E2F5F5F5E2E228E2F5E2E2E2E2E2F5E2E2E2F5E2E2BEE2E2E20F0FE2E2E2E2E2E2F5E2E2E2E2E2E2F5E2E2E2E2F5E2E2E2BEE2E2E2F5E2E2E2E2E2F5E2E2E2E2E2F5E2E2E2E2E22D
310
E2E2E2E2E2E2E2E2E2E2E2E2E2E2E2E2E2E2E2E2E2E2E2E2E22DE2E2E2E2E2E2E2F5E2E2E2E2E2E2F5E2E2E2E2F5E2E2E2BEE2E2F5F5E2E2E2E2F5E2E2E2E2E2E2F5E2E2E2E2E2E2E2E20FE2E2E20FE2E2BEBEF5F5E2E2E2F5E2E2F5E2E2E2E2E2E2E2E2E2E2E2E2E2E2E2E2E2E2E2F5E2E228E2F5E2E2E2E2E2F5E2E2E2F5
310
E2E2BEE2E2E20F0FE2E2E2E2E2E2F5E2E2E2E2E2E2F5E2E2E2E2F5F5E2E2BEE2E2E2F5E2E2E2E2E2F5E2E2E2E2E2F5E2E2E2E2E22DE2E2E2E2E2E2E2E2E2E2E2E2E2E2E2E2E2E2E2E2E2E2E2E2E22DE2E2E2E2E2E2E2F5E2E2E2E2E2E2F5E2E2E2E2E2F5F5E2BEE2F5F5E2E2E2E2E2F5E2E2E2E2E2E2F5E2E2E2E2E2E2E2E2
310
0FE2E2E20FE2E2BEBEF5F5E2E2E2F5E2E2E2F5E2E2E2E2E2E2E2E2E2E2E2E2E2E2E2E2E2E2F5E2E228E2F5E2E2E2E2E2F5E2E2E2F5E2E2BEE2E2E2E20FE2E2E2E2E2E2F5E2E2E2E2E2E2F5E2E2E2E2E2F5F5E2BEE2E2F5E2E2E2E2E2F5E2E2E2E2E2E2F5E2E2E2E2E22DE2E2E2E2E2E2E2E2E2E2E2E2E2E2E2E2E2E2E2E2E2
310
E2E2E2E22DE2E2E2E2E2E2E2F5E2E2E2E2E2E2F5E2E2E2E2E2E2F5F5BEF5F5E2E2E2E2E2F5E2E2E2E2E2E2E2F5E2E2E2E2E2E2E2E20FE2E20F0F0F0F0FBEF5BEBEBEBEBEBEBEBEF5BEBEBEBEBEBEBEBEBEBEBEBEBEBEBEBEBEBEF5BEBE28BEBEBEBEBEBEBEBEBEBEBEBE0FBEBEE2E2E2E20FE2E2E2E2E2E2F5E2E2E2E2E2E2
310
E2F5E2E2E2E2E2F5F5BEF5F5E2E2E2E2E2E2F5E2E2E2E2E2E2F5E2E2E2E2E22DE2E2E2E2E2E2E2E2E2E2E2E2E2E2E2E2E2E2E2E2E2E2E2E2E22DE2E2E2E2E2E2E2F5E2E2E2E2E2E2E2F5E2E2E2E2E2E2E2BEE2E2E2E2E2E2E2F5E2E2E2E2E2E2E2F5E2E2E2E2E2E2E2E20FE2E2E2E2E2E2E2E2E2F5E2E2E2F5E2E2E2F5F5E2
310
E2E2E2E2E2E2E2E2E2E2E2E2E2E2E2F5E2E2E228E2F5E2E2E2E2E2F5E2E2E2F50F0FE2E2E2E2E20FE2E2E2E2E2E2F5E2E2E2E2E2E2E2F5E2E2E2E2E2E2E2BEE2E2E2E2E2E2E2F5E2E2E2E2E2E2E2F5E2E2E2E2E22DE2E2E2E2E2E2E2E2E2E2E2E2E2E2E2E2E2E2E2E2E2E2E2E2E22DE2E2E2E2E2E2E2F5E2E2E2E2E2E2E2E2
310
F5E2E2E2E2E2E2BEE2E2E2E2E2E2F5E2E2E2E2E2E2E2E2F5E2E2E2E2E2E2E2E20FE2E2E2E2E2E2E2E2E2F5E2E2E2F5E2E2E2E2E2F5E2E2E2E2E2E2E2E2E2E2E2E2E2E2F5E2E2F5BE28E2F5E2E2E2E2E2F5E2E2E2F50FE2E2E2E2E2E20FE2E2E2E2E2E2F5E2E2E2E2E2E2E2E2F5E2E2E2E2E2E2BEE2E2E2E2E2E2E2F5E2E2E2
310
E2E2E2E2F5E2E2E2E2E22DE2E2E2E2E2E2E2E2E2E2E2E2E2E2E2E2E2E2E2E2E2E2E2E2E22DE2E2E2E2E2E2E2F5E2E2E2E2E2E2E2E2F5F5E2E2E2E2E2BEE2E2E2E2E2F5F5E2E2E2E2E2E2E2E2F5E2E2E2E2E2E2E2E20FE2E2E2E2E2E2E2E2E2F5E2E2E2F5E2E2E2E2E2F5E2E2E2E2E2E2E2E2E2E2E2E2E2F5E2E2F5F5BE28E2
310
F5E2E2E2E2E2F5E2E2E2F5E20FE2E2E2E2E20FE2E2E2E2E2E2F5E2E2E2E2E2E2E2E2F5F5E2E2E2E2E2BEE2E2E2E2E2F5F5E2E2E2E2E2E2E2E2F5E2E2E2E2E22DE2E2E2E2E2E2E2E2E2E2E2E2E2E2E2E2E2E2E2E2E2E2E2E2E22DE2E2E2E2E2E2E2F5E2E2E2E2E2E2E2E2E2E2F5E2E2E2E2BEE2E2E2F5F5E2E2E2E2E2E2E2E2
310
E2E2F5E2E2E2E2E2E2E2E20FE2E2E2E2E2E2E2E2E2F5E2E2E2F5E2E2E2E2E2E2F5F5E2E2E2E2E2E2E2E2E2E2F5F5E2BEBEBEBEBEBEBEE2E2E2E2E2F5E2E2E2F5E20FE2E2E2E2E20F0FE2E2E2E2E2F5E2E2E2E2E2E2E2E2E2E2F5F5E2E2E2BEE2E2E2E2F5F5E2E2E2E2E2E2E2E2E2F5E2E2E2E2E22DE2E2E2E2E2E2E2E2E2E2
310
E2E2E2E2E2E2E2E2E2E2E2E2E2E2E22DE2E2E2E2E2E2E2F5E2E2E2BEE2E2E2E2E2E2E2F5F5F5F5BEF5F5F5E2E2E2E2E2E2E2E2BEE2E2E2F5E2E2E2E2E2E2E20F0F0F0F0F0F0F0F0F0F0FF5F5F5F5F5E2E2E2E2E2E2E2E2F5F5E2E2E2E2E2F5F5F5E2E2E2E2F5E2BE0F28282828282828282828280F0F0F0F0F0F0F0F0F0FE2
310
E2E2E2E2F5E2E2E2BEE2E2E2E2E2E2E2E2F5F5F5BEF5F5F5F5E2E2E2E2E2E2E2BEE2E2E2F5E2E2E2E2E22DE2E2E2E2E2E2E2E2E2E2E2E2E2E2E2E2E2E2E2E2E2E2E2E2E22DE2E2E2E2E2E2E2F5E2E2E2BEF5E2E2E2E2E2E2E2E2E2E2BEE2E2E2E2E2E2E2E2E2E2F5BEF5E2E2F5E2E2E2E2E2E2E2E2E2E2E2E2E2E2E2E2E2E2
310
E2E2E2E2F5E2E2E2E2E2E2E2E2E2E2F5F5F5F5F5E2E2E2E2E2E2E2F5F5BE0FE2F5E2E2E2E2E2F5E2E2E2F5E2E20FE2E2E2E2E2E2E2E2E2E2E2F5E2E20FBEF5E2E2E2E2E2E2E2E2E2E2BEE2E2E2E2E2E2E2E2E2E2F5BEF5E2E2F5E2E2E2E2E22DE2E2E2E2E2E2E2E2E2E2E2E2E2E2E2E2E2E2E2E2E2E2E2E2E22DE2E2E2E2E2
310
E2E2F5E2E2F5BEF5E2E2E2E2E2E2E2E2E2E2E2E2E2E2E2E2E2E2E2E2F5F5BEF5E2E2F5E2E2E2E2E2E2E2E2E2E2E2E2E2E2E2E2E2E2E2E2E2E2F5E2E2E2E2E2E2E2E2E2E2E2E2E2E2E2E2E2E2E2E2E2E20FE2BE0FE2F5F5F5F5F5F5F5E2E2E2F5E2E20FE2E2E2E2E2E2E2E2E2E2E2F5E2F5F5BEE2F5E2E2E2E2E2E2E2E2E2E2
310
E2E2E2E2E2E2E2E2E2F5F5BEE2F5E2F5E2E2E2E2E22DE2E2E2E2E2E2E2E2E2E2E2E2E2E2E2E2E2E2E2E2E2E2E2E2E22DE2E2E2E2E2E2E2F5BEBEBEBEBEBEBEE2E2E2E2E2E2E2E2E2E2E2E2E2E2E2E2E2BEBEBEBEBEBEBEF5E2E2E2E2E2E2E2E2E2E2E2E2E2E2E2E2E2E2E2E2E2E2F5E2E2E2E2E2E2E2E2E2E2E2E2E2E2E2E2
310
E2E2E2E2E20FE2E2E20FE2F5E2E2E2E2E2F5E2E2E2F5E2E20FE2E2E2E2E2E2E2E2E2E2E2F5E2BEBEBEBEBEBEE2E2E2E2E2E2E2E2E2E2E2E2E2E2E2E2E2BEBEBEBEBEBEBEF5E2E2E2E2E22DE2E2E2E2E2E2E2E2E2E2E2E2E2E2E2E2E2E2E2E2E2E2E2E2E22DE2E2E2E2E2E2E2F5E2E2F5BE0FE2E2E2E2E2E2E2E2E2E2E2E2E2
310
E2E2E2E2E2E2E2F5F5BEF5E2E2F5E2E2E2E2E2E2E2E2E2E2E2E2E2E2E2E2E2E2E2E2E2E2F5E2E2E2E2E2E2E2E2E2E2E2E2E2E2E2E2E2E2E2E2E20FE2E2E20FE2F5E2E2E2E2E2F5E2E2E2F5E2E2E20FE2E2E2E2E2E2E2E2E2E2F5E2E2F5BE0FF5E2E2E2E2E2E2E2E2E2E2E2E2E2E2E2E2E2E2E2F5F5BEF5F5E2F5E2E2E2E2E2
310
2DE2E2E2E2E2E2E2E2E2E2E2E2E2E2E2E2E2E2E2E2E2E2E2E2E22DE2E2E2E2E2E2E2F5E2E2E2BE0FE2E2E2E2E2E2E2E2E2E2E2E2E2E2E2E2E2E2E2E2E2E2BEE2E2E2F5E2E2E2E2E2E2E2E2E2E2E2E2E2E2E2E2E2E2E2E2E2E2F5F5F5F5F5F5F5F5F5F5F5F5F5F5F5F5F5F5F5F5F50FF5F5F5F50FF5F5E2E2E2E2E2F5F5F5F5
310
F5E2E2E20FE2E2E2E2E2E2E2E2E2E2F5E2E2E2BEF50FE2E2E2E2E2E2E2E2E2E2E2E2E2E2E2E2E2E2E2E2E2BEF5E2E2F5E2E2E2E2E22DE2E2E2E2E2E2E2E2E2E2E2E2E2E2E2E2E2E2E2E2E2E2E2E2E22DE2E2E2E2E2E2E2E2F5E2E2E20FE2E2E2E2E2E2E2E2E2E2E2E2E2E2E2E2E2E2E2E2E2E2E2E2E2F5E2E2E2E2E2E2E2E2
310
E2E2E2E2E2E2E2E2E2E2E2E2E2E2E2F5E2E2E2E2E2E2E2E2E2E2E2E2E2E2E2E2E2E2E20FE2E2E2E2E20FE2F5E2E2E2E2E2F5E2E2E2F5E2E2E20FE2E2E2E2E2E2E2E2E2E2E2F5E2E2E2E20FE2E2E2E2E2E2E2E2E2E2E2E2E2E2E2E2E2E2E2E2E2E2E2E2F5E2E2E2E2E2E22DE2E2E2E2E2E2E2E2E2E2E2E2E2E2E2E2E2E2E2E2
310
E2E2E2E2E22DE2E2E2E2E2E2E2E2E2F5F5F5F50FF5F5F5F5F5F5F5F5F5F5F5F5F5F5F5F5F5F5F5F5F5F5F5F5E2E2E2E2E2E2E2E2E2E2E2E2E2E2E2E2E2E2E2E2E2E2E2E2F5F5F5F5F5F5F5F5F5F5F5F5F5F5F5F5F5F5F50FF5F5F5F5F5F50FF5F5E2E2E2E2E2F5F5F5F50FE2E2E2E20FE2E2E2E2E2E2E2E2E2E2E2F5F5F5F5
310
F50FF5F5F5F5F5F5F5F5F5F5F5F5F5F5F5F5F5F5F5F5F5F5F5E2E2E2E2E2E2E22DE2E2E2E2E2E2E2E2E2E2E2E2E2E2E2E2E2E2E2E2E2E2E2E2E22DE2E2E2E2E2E2E2E2E2E2E2E2E20FE2E2E2E2E2E2E2E2E2E2E2E2E2E2E2E2E2E2E2E2E2E2E2E2E2E2E2E2E2E2E2E2E2E2E2E2E2E2E2E2E2E2E2E2E2E2E2E2E2E2E2E2E2E2
310
E2E2E2E2E2E2E2E2E2E2E2E2E20FE2E2E2E2E2E20FE2E2E2E2E2E2E2E2E2E2E20FE2E2E2E20FE2E2E2E2E2E2E2E2E2E2E2E2E2E2E2E20FE2E2E2E2E2E2E2E2E2E2E2E2E2E2E2E2E2E2E2E2E2E2E2E2E2E2E2E2E2E22DE2E2E2E2E2E2E2E2E2E2E2E2E2E2E2E2E2E2E2E2E2E2E2E2E22DE2E2E2E2E2E2E2E2E2E2E2E2E2E20F
310
E2E2E2E2E2E2E2E2E2E2E2E2E2E2E2E2E2E2E2E2E2E2E2E2E2E2E2E2E2E2E2E2E2E2E2E2E2E2E2E2E2E2E2E2E2E2E2E2E2E2E2E2E2E2E2E2E2E2E2E2E20F0F0F0F0FE2E2E2E2E2E2E20FE2E2E2E2E2E2E2E2E2E2E20FE2E2E2E20FE2E2E2E2E2E2E2E2E2E2E2E2E2E2E2E2E20FE2E2E2E2E2E2E2E2E2E2E2E2E2E2E2E2E2E2
310
E2E2E2E2E2E2E2E2E2E2E22DE2E2E2E2E2E2E2E2E2E2E2E2E2E2E2E2E2E2E2E2E2E2E2E2E22DE2E2E2E2E2E2E2E2E2E2E2E2E2E20F0F0F0F0F0F0F0F0FE2E2E2E2E2E2E2E2E2E2E2E2E2E2E2E2E2E2E2E2E2E2E2E2E2E2E2E2E2E2E2E2E2E2E2E2E2E2E2E2E2E2E2E2E2E2E2E2E2E2E2E2E20F0F0F0F0FE2E2E2E2E2E2E20F
310
E2E2E2E2E2E2E2E2E2E2E20FE2E2E2E2E20FE2E2E2E2E2E2E2E2E2E2E2E2E2E2E2E20F0F0F0F0F0FE2E2E2E2E2E2E2E2E2E2E2E2E2E2E2E2E2E2E2E2E2E2E2E22DE2E2E2E2E2E2E2E2E2E2E2E2E2E2E2E2E2E2E2E2E2E2E2E2E22DE2E2E2E2E2E2E2E2E2E2E2E2E2E2E20F0F0F0F0F0F0F0FE2E2E2E2E2E2E2E2E2E2E2E2E2
310
E2E2E2E2E2E2E2E2E2E2E2E2E2E2E2E2E2E2E2E2E2E2E2E2E2E2E2E2E2E2E2E2E2E2E2E2E2E2E2E20F0F0F0F0FE2E2E2E2E2E2E20FE2E2E2E2E2E2E2E2E2E2E20FE2E2E2E2E20F0F0F0F0F0F0F0F0FE2E2E2E2E2E2E2E2E20F0F0F0F0FE2E2E2E2E2E2E2E2E2E2E2E2E2E2E2E2E2E2E2E2E2E2E2E22DE2E2E2E2E2E2E2E2E2
310
E2E2E2E2E2E2E2E2E2E2E2E2E2E2E2E22DE2E2E2E2E2E2E2E2E2E2E2E2E2E2E2E2E2E2E2E2E2E2E2E2E2E2E2E2E2E2E2E2E2E2E2E2E2E2E2E2E2E2E2E2E2E2E2E2E2E2E2E2E2E2E2E2E2E2E2E2E2E2E2E2E2E2E2E2E2E2E2E2E2E2E2E2E2E2E2E2E2E2E2E2E2E2E2E20F0F0F0F0F0F0F0F0F0F0F0F0FE2E2E2E2E2E20F0F0F
310
0F0F0F0FE2E2E2E2E2E2E2E2E2E20FE2E20F0FE2E2E2E2E2E2E2E2E2E2E2E2E2E2E2E2E2E2E2E2E2E2E2E22DE2E2E2E2E2E2E2E2E2E2E2E2E2E2E2E2E2E2E2E2E2E2E2E2E22DE2E2E2E2E2E2E2E2E2E2E2E2E2E2E2E2E2E2E2E2E2E2E2E2E2E2E2E2E2E2E2E2E2E2E2E2E2E2E2E2E2E2E2E2E2E2E2E2E2E2E2E2E2E2E2E2E2
310
E2E2E2E2E2E2E2E2E2E2E2E2E2E2E2E2E2E2E2E2E2E2E2E2E2E2E2E2E2E2E2E2E2E2E2E20F0FE2E2E2E2E2E2E2E2E2E2E2E2E2E2E2E2E2E2E2E2E2E2E2E2E2E2E2E2E2E2E2E2E2E2E2E2E2E2E2E2E2E2E2E2E2E2E2E2E2E2E2E2E2E2E2E2E2E22DE2E2E2E2E2E2E2E2E2E2E2E2E2E2E2E2E2E2E2E2E2E2E2E2E22DE2E2E2E2
310
E2E2E2E2E2E2E2E2E2E2E2E2E2E2E2E2E2E2E2E2E2E2E2E2E2E2E2E2E2E2E2E2E2E2E2E2E2E2E2E2E2E2E2E2E2E2E2E2E2E2E2E2E2E2E2E2E2E2E2E2E2E2E2E2E2E2E2E2E2E2E2E2E2E2E2E2E2E2E2E2E2E2E2E2E2E2E2E2E20F0FE2E2E2E2E2E2E2E2E2E2E2E2E2E2E2E2E2E2E2E2E2E2E2E2E2E2E2E2E2E2E2E2E2E2E2E2
310
E2E2E2E2E2E2E2E2E2E2E2E2E2E2E2E2E2E2E2E2E2E22DE2E2E2E2E2E2E2E2E2E2E2E2E2E2E2E2E2E2E2E2E2E2E2E2E22DE2E2E2E2E2E2E2E2E2E2E2E2E2E2E2E2E2E2E2E2E2E2E2E2E2E2E2E2E2E2E2E2E2E2E2E2E2E2E2E2E2E2E2E2E2E2E2E2E2E2E2E2E2E2E2E2E2E2E2E2E2E2E2E2E2E2E2E2E2E2E2E2E2E2E2E2E2E2
310
E2E2E2E2E2E2E2E2E2E2E2E2E2E2E2E2E2E2E2E2E2E2E2E2E2E2E2E2E2E2E2E2E2E2E2E2E2E2E2E2E2E2E2E2E2E2E2E2E2E2E2E2E2E2E2E2E2E2E2E2E2E2E2E2E2E2E2E2E2E2E2E2E2E2E22DE2E2E2E2E2E2E2E2E2E2E2E2E2E2E2E2E2E2E2E2E2E2E2E2E22DE2E2E2E2E2E2E2E2E2E2E2E2E2E2E2E2E2E2E2E2E2E2E2E2E2
310
E2E2E2E2E2E2E2E2E2E2E2E2E2E2E2E2E2E2E2E2E2E2E2E2E2E2E2E2E2E2E2E2E2E2E2E2E2E2E2E2E2E2E2E2E2E2E2E2E2E2E2E2E2E2E2E2E2E2E2E2E2E2E2E2E2E2E2E2E2E2E2E2E2E2E2E2E2E2E2E2E2E2E2E2E2E2E2E2E2E2E2E2E2E2E2E2E2E2E2E2E2E2E2E2E2E2E2E2E2E2E2E2E2E2E2E2E2E2E2E2E2E2E2E2E2E2E2
310
E22DE2E2E2E2E2E2E2E2E2E2E2E2E2E2E2E2E2E2E2E2E2E2E2E2E22DE2E2E2E2E2E2E2E2E2E2E2E2E2E2E2E2E2E2E2E2E2E2E2E2E2E2E2E2E2E2E2E2E2E2E2E2E2E2E2E2E2E2E2E2E2E2E2E2E2E2E2E2E2E2E2E2E2E2E2E2E2E2E2E2E2E2E2E2E2E2E2E2E2E2E2E2E2E2E2E2E2E2E2E2E2E2E2E2E2E2E2E2E2E2E2E2E2E2E2
310
E2E2E2E2E2E2E2E2E2E2E2E2E2E2E2E2E2E2E2E2E2E2E2E2E2E2E2E2E2E2E2E2E2E2E2E2E2E2E2E2E2E2E2E2E2E2E2E2E2E2E2E2E2E22DE2E2E2E2E2E2E2E2E2E2E2E2E2E2E2E2E2E2E2E2E2E2E2E2E22DE2E2E2E2E2E2E2E2E2E2E2E2E2E2E2E2E2E2E2E2E2E2E2E2E2E2E2E2E2E2E2E2E2E2E2E2E2E2E2E2E2E2E2E2E2E2
310
E2E2E2E2E2E2E2E2E2E2E2E2E2E2E2E2E2E2E2E2E2E2E2E2E2E2E2E2E2E2E2E2E2E2E2E2E2E2E2E2E2E2E2E2E2E2E2E2E2E2E2E2E2E2E2E2E2E2E2E2E2E2E2E2E2E2E2E2E2E2E2E2E2E2E2E2E2E2E2E2E2E2E2E2E2E2E2E2E2E2E2E2E2E2E2E2E2E2E2E2E2E2E2E2E2E2E22DE2E2E2E2E2E2E2E2E2E2E2E2E2E2E2E2E2E2E2
310
E2E2E2E2E2E22DE2E2E2E2E2E2E2E2E2E2E2E2E2E2E2E2E2E2E2E2E2E2E2E2E2E2E2E2E2E2E2E2E2E2E2E2E2E2E2E2E2E2E2E2E2E2E2E2E2E2E2E2E2E2E2E2E2E2E2E2E2E2E2E2E2E2E2E2E2E2E2E2E2E2E2E2E2E2E2E2E2E2E2E2E2E2E2E2E2E2E2E2E2E2E2E2E2E2E2E2E2E2E2E2E2E2E2E2E2E2E2E2E2E2E2E2E2E2E2E2
310
E2E2E2E2E2E2E2E2E2E2E2E2E2E2E2E2E2E2E2E2E2E2E2E2E2E2E2E2E2E2E2E2E22DE2E2E2E2E2E2E2E2E2E2E2E2E2E2E2E2E2E2E2E2E2E2E2E2E22DE2E2E2E2E2E2E2E2E2E2E2E2E2E2E2E2E2E2E2E2E2E2E2E2E2E2E2E2E2E2E2E2E2E2E2E2E2E2E2E2E2E2E2E2E2E2E2E2E2E2E2E2E2E2E2E2E2E2E2E2E2E2E2E2E2E2E2
310
E2E2E2E2E2E2E2E2E2E2E2E2E2E2E2E2E2E2E2E2E2E2E2E2E2E2E2E2E2E2E2E2E2E2E2E2E2E2E2E2E2E2E2E2E2E2E2E2E2E2E2E2E2E2E2E2E2E2E2E2E2E2E2E2E2E2E2E2E2E2E2E2E2E2E2E2E2E2E2E2E2E2E2E2E2E22DE2E2E2E2E2E2E2E2E2E2E2E2E2E2E2E2E2E2E2E2E2E2E2E2E22DE2E2E2E2E2E2E2E2E2E2E2E2E2E2
310
E2E2E2E2E2E2E2E2E2E2E2E2E2E2E2E2E2E2E2E2E2E2E2E2E2E2E2E2E2E2E2E2E2E2E2E2E2E2E2E2E2E2E2E2E2E2E2E2E2E2E2E2E2E2E2E2E2E2E2E2E2E2E2E2E2E2E2E2E2E2E2E2E2E2E2E2E2E2E2E2E2E2E2E2E2E2E2E2E2E2E2E2E2E2E2E2E2E2E2E2E2E2E2E2E2E2E2E2E2E2E2E2E2E2E2E2E2E2E2E2E2E2E2E2E2E2E2
310
E2E2E2E2E2E2E2E2E2E2E2E22DE2E2E2E2E2E2E2E2E2E2E2E2E2E2E2E2E2E2E2E2E2E2E2E2E22DE2E2E2E2E2E2E2E2E2E2E2E2E2E2E2E2E2E2E2E2E2E2E2E2E2E2E2E2E2E2E2E2E2E2E2E2E2E2E2E2E2E2E2E2E2E2E2E2E2E2E2E2E2E2E2E2E2E2E2E2E2E2E2E2E2E2E2E2E2E2E2E2E2E2E2E2E2E2E2E2E2E2E2E2E2E2E2E2
310
E2E2E2E2E2E2E2E2E2E2E2E2E2E2E2E2E2E2E2E2E2E2E2E2E2E2E2E2E2E2E2E2E2E2E2E2E2E2E2E2E2E2E2E2E2E2E2E2E2E2E2E2E2E2E2E2E2E2E2E2E2E2E2E2E22DE2E2E2E2E2E2E2E2E2E2E2E2E2E2E2E2E2E2E2E2E2E2E2E2E22DE2E2E2E2E2E2E2E2E2E2E2E2E2E2E2E2E2E2E2E2E2E2E2E2E2E2E2E2E2E2E2E2E2E2E2
310
E2E2E2E2E2E2E2E2E2E2E2E2E2E2E2E2E2E2E2E2E2E2E2E2E2E2E2E2E2E2E2E2E2E2E2E2E2E2E2E2E2E2E2E2E2E2E2E2E2E2E2E2E2E2E2E2E2E2E2E2E2E2E2E2E2E2E2E2E2E2E2E2E2E2E2E2E2E2E2E2E2E2E2E2E2E2E2E2E2E2E2E2E2E2E2E2E2E2E2E2E2E2E2E2E2E2E2E2E2E2E2E2E2E2E2E2E2E22DE2E2E2E2E2E2E2E2
310
E2E2E2E2E2E2E2E2E2E2E2E2E2E2E2E2E22DE2E2E2E2E2E2E2E2E2E2E2E2E2E2E2E2E2E2E2E2E2E2E2E2E2E2E2E2E2E2E2E2E2E2E2E2E2E2E2E2E2E2E2E2E2E2E2E2E2E2E2E2E2E2E2E2E2E2E2E2E2E2E2E2E2E2E2E2E2E2E2E2E2E2E2E2E2E2E2E2E2E2E2E2E2E2E2E2E2E2E2E2E2E2E2E2E2E2E2E2E2E2E2E2E2E2E2E2E2
310
E2E2E2E2E2E2E2E2E2E2E2E2E2E2E2E2E2E2E2E2E2E2E2E2E2E2E2E2E2E2E2E2E2E2E2E2E2E2E2E2E2E2E2E22DE2E2E2E2E2E2E2E2E2E2E2E2E2E2E2E2E2E2E2E2E2E2E2E2E22DE2E2E2E2E2E2E2E2E2E2E2E2E2E2E2E2E2E2E2E2E2E2E2E2E2E2E2E2E2E2E2E2E2E2E2E2E2E2E2E2E2E2E2E2E2E2E2E2E2E2E2E2E2E2E2E2
310
E2E2E2E2E2E2E2E2E2E2E2E2E2E2E2E2E2E2E2E2E2E2E2E2E2E2E2E2E2E2E2E2E2E2E2E2E2E2E2E2E2E2E2E2E2E2E2E2E2E2E2E2E2E2E2E2E2E2E2E2E2E2E2E2E2E2E2E2E2E2E2E2E2E2E2E2E2E2E2E2E2E2E2E2E2E2E2E2E2E2E2E2E2E2E2E2E22DE2E2E2E2E2E2E2E2E2E2E2E2E2E2E2E2E2E2E2E2E2E2E2E2E22DE2E2E2
310
E2E2E2E2E2E2E2E2E2E2E2E2E2E2E2E2E2E2E2E2E2E2E2E2E2E2E2E2E2E2E2E2E2E2E2E2E2E2E2E2E2E2E2E2E2E2E2E2E2E2E2E2E2E2E2E2E2E2E2E2E2E2E2E2E2E2E2E2E2E2E2E2E2E2E2E2E2E2E2E2E2E2E2E2E2E2E2E2E2E2E2E2E2E2E2E2E2E2E2E2E2E2E2E2E2E2E2E2E2E2E2E2E2E2E2E2E2E2E2E2E2E2E2E2E2E2E2
310
E2E2E2E2E2E2E2E2E2E2E2E2E2E2E2E2E2E2E2E2E2E2E22DE2E2E2E2E2E2E2E2E2E2E2E2E2E2E2E2E2E2E2E2E2E2E2E2E22DE2E2E2E2E2E2E2E2E2E2E2E2E2E2E2E2E2E2E2E2E2E2E2E2E2E2E2E2E2E2E2E2E2E2E2E2E2E2E2E2E2E2E2E2E2E2E2E2E2E2E2E2E2E2E2E2E2E2E2E2E2E2E2E2E2E2E2E2E2E2E2E2E2E2E2E2E2
310
E2E2E2E2E2E2E2E2E2E2E2E2E2E2E2E2E2E2E2E2E2E2E2E2E2E2E2E2E2E2E2E2E2E2E2E2E2E2E2E2E2E2E2E2E2E2E2E2E2E2E2E2E2E2E2E2E2E2E2E2E2E2E2E2E2E2E2E2E2E2E2E2E2E2E2E22DE2E2E2E2E2E2E2E2E2E2E2E2E2E2E2E2E2E2E2E2E2E2E2E2E22DE2E2E2E2E2E2E2E2E2E2E2E2E2E2E2E2E2E2E2E2E2E2E2E2
310
E2E2E2E2E2E2E2E2E2E2E2E2E2E2E2E2E2E2E2E2E2E2E2E2E2E2E2E2E2E2E2E2E2E2E2E2E2E2E2E2E2E2E2E2E2E2E2E2E2E2E2E2E2E2E2E2E2E2E2E2E2E2E2E2E2E2E2E2E2E2E2E2E2E2E2E2E2E2E2E2E2E2E2E2E2E2E2E2E2E2E2E2E2E2E2E2E2E2E2E2E2E2E2E2E2E2E2E2E2E2E2E2E2E2E2E2E2E2E2E2E2E2E2E2E2E2E2
310
E2E22DE2E2E2E2E2E2E2E2E2E2E2E2E2E2E2E2E2E2E2E2E2E2E2E2E22DE2E2E2E2E2E2E2E2E2E2E2E2E2E2E2E2E2E2E2E2E2E2E2E2E2E2E2E2E2E2E2E2E2E2E2E2E2E2E2E2E2E2E2E2E2E2E2E2E2E2E2E2E2E2E2E2E2E2E2E2E2E2E2E2E2E2E2E2E2E2E2E2E2E2E2E2E2E2E2E2E2E2E2E2E2E2E2E2E2E2E2E2E2E2E2E2E2E2
310
E2E2E2E2E2E2E2E2E2E2E2E2E2E2E2E2E2E2E2E2E2E2E2E2E2E2E2E2E2E2E2E2E2E2E2E2E2E2E2E2E2E2E2E2E2E2E2E2E2E2E2E2E2E2E22DE2E2E2E2E2E2E2E2E2E2E2E2E2E2E2E2E2E2E2E2E2E2E2E2E22DE2E2E2E2E2E2E2E2E2E2E2E2E2E2E2E2E2E2E2E2E2E2E2E2E2E2E2E2E2E2E2E2E2E2E2E2E2E2E2E2E2E2E2E2E2
310
E2E2E2E2E2E2E2E2E2E2E2E2E2E2E2E2E2E2E2E2E2E2E2E2E2E2E2E2E2E2E2E2E2E2E2E2E2E2E2E2E2E2E2E2E2E2E2E2E2E2E2E2E2E2E2E2E2E2E2E2E2E2E2E2E2E2E2E2E2E2E2E2E2E2E2E2E2E2E2E2E2E2E2E2E2E2E2E2E2E2E2E2E2E2E2E2E2E2E2E2E2E2E2E2E2E2E2E22DE2E2E2E2E2E2E2E2E2E2E2E2E2E2E2E2E2E2
310
E2E2E2E2E2E2E22DE2E2E2E2E2E2E2E2E2E2E2E2E2E2E2E2E2E2E2E2E2E2E2E2E2E2E2E2E2E2E2E2E2E2E2E2E2E2E2E2E2E2E2E2E2E2E2E2E2E2E2E2E2E2E2E2E2E2E2E2E2E2E2E2E2E2E2E2E2E2E2E2E2E2E2E2E2E2E2E2E2E2E2E2E2E2E2E2E2E2E2E2E2E2E2E2E2E2E2E2E2E2E2E2E2E2E2E2E2E2E2E2E2E2E2E2E2E2E2
310
E2E2E2E2E2E2E2E2E2E2E2E2E2E2E2E2E2E2E2E2E2E2E2E2E2E2E2E2E2E2E2E2E2E22DE2E2E2E2E2E2E2E2E2E2E2E2E2E2E2E2E2E2E2E2E2E2E2E2E22DE2E2E2E2E2E2E2E2E2E2E2E2E2E2E2E2E2E2E2E2E2E2E2E2E2E2E2E2E2E2E2E2E2E2E2E2E2E2E2E2E2E2E2E2E2E2E2E2E2E2E2E2E2E2E2E2E2E2E2E2E2E2E2E2E2E2
310
E2E2E2E2E2E2E2E2E2E2E2E2E2E2E2E2E2E2E2E2E2E2E2E2E2E2E2E2E2E2E2E2E2E2E2E2E2E2E2E2E2E2E2E2E2E2E2E2E2E2E2E2E2E2E2E2E2E2E2E2E2E2E2E2E2E2E2E2E2E2E2E2E2E2E2E2E2E2E2E2E2E2E2E2E2E2E22DE2E2E2E2E2E2E2E2E2E2E2E2E2E2E2E2E2E2E2E2E2E2E2E2E22DE2E2E2E2E2E2E2E2E2E2E2E2E2
310
E2E2E2E2E2E2E2E2E2E2E2E2E2E2E2E2E2E2E2E2E2E2E2E2E2E2E2E2E2E2E2E2E2E2E2E2E2E2E2E2E2E2E2E2E2E2E2E2E2E2E2E2E2E2E2E2E2E2E2E2E2E2E2E2E2E2E2E2E2E2E2E2E2E2E2E2E2E2E2E2E2E2E2E2E2E2E2E2E2E2E2E2E2E2E2E2E2E2E2E2E2E2E2E2E2E2E2E2E2E2E2E2E2E2E2E2E2E2E2E2E2E2E2E2E2E2E2
310
E2E2E2E2E2E2E2E2E2E2E2E2E22DE2E2E2E2E2E2E2E2E2E2E2E2E2E2E2E2E2E2E2E2E2E2E2E2E22DE2E2E2E2E2E2E2E2E2E2E2E2E2E2E2E2E2E2E2E2E2E2E2E2E2E2E2E2E2E2E2E2E2E2E2E2E2E2E2E2E2E2E2E2E2E2E2E2E2E2E2E2E2E2E2E2E2E2E2E2E2E2E2E2E2E2E2E2E2E2E2E2E2E2E2E2E2E2E2E2E2E2E2E2E2E2E2
310
E2E2E2E2E2E2E2E2E2E2E2E2E2E2E2E2E2E2E2E2E2E2E2E2E2E2E2E2E2E2E2E2E2E2E2E2E2E2E2E2E2E2E2E2E2E2E2E2E2E2E2E2E2E2E2E2E2E2E2E2E2E2E2E2E2E22DE2E2E2E2E2E2E2E2E2E2E2E2E2E2E2E2E2E2E2E2E2E2E2E2E22DE2E2E2E2E2E2E2E2E2E2E2E2E2E2E2E2E2E2E2E2E2E2E2E2E2E2E2E2E2E2E2E2E2E2
310
E2E2E2E2E2E2E2E2E2E2E2E2E2E2E2E2E2E2E2E2E2E2E2E2E2E2E2E2E2E2E2E2E2E2E2E2E2E2E2E2E2E2E2E2E2E2E2E2E2E2E2E2E2E2E2E2E2E2E2E2E2E2E2E2E2E2E2E2E2E2E2E2E2E2E2E2E2E2E2E2E2E2E2E2E2E2E2E2E2E2E2E2E2E2E2E2E2E2E2E2E2E2E2E2E2E2E2E2E2E2E2E2E2E2E2E2E2E2E22DE2E2E2E2E2E2E2
310
E2E2E2E2E2E2E2E2E2E2E2E2E2E2E2E2E2E22DE2E2E2E2E2E2E2E2E2E2E2E2E2E2E2E2E2E2E2E2E2E2E2E2E2E2E2E2E2E2E2E2E2E2E2E2E2E2E2E2E2E2E2E2E2E2E2E2E2E2E2E2E2E2E2E2E2E2E2E2E2E2E2E2E2E2E2E2E2E2E2E2E2E2E2E2E2E2E2E2E2E2E2E2E2E2E2E2E2E2E2E2E2E2E2E2E2E2E2E2E2E2E2E2E2E2E2E2
310
E2E2E2E2E2E2E2E2E2E2E2E2E2E2E2E2E2E2E2E2E2E2E2E2E2E2E2E2E2E2E2E2E2E2E2E2E2E2E2E2E2E2E2E2E22DE2E2E2E2E2E2E2E2E2E2E2E2E2E2E2E2E2E2E2E2E2E2E2E2E22DE2E2E2E2E2E2E2E2E2E2E2E2E2E2E2E2E2E2E2E2E2E2E2E2E2E2E2E2E2E2E2E2E2E2E2E2E2E2E2E2E2E2E2E2E2E2E2E2E2E2E2E2E2E2E2
310
E2E2E2E2E2E2E2E2E2E2E2E2E2E2E2E2E2E2E2E2E2E2E2E2E2E2E2E2E2E2E2E2E2E2E2E2E2E2E2E2E2E2E2E2E2E2E2E2E2E2E2E2E2E2E2E2E2E2E2E2E2E2E2E2E2E2E2E2E2E2E2E2E2E2E2E2E2E2E2E2E2E2E2E2E2E2E2E2E2E2E2E2E2E2E2E2E2E22DE2E2E2E2E2E2E2E2E2E2E2E2E2E2E2E2E2E2E2E2E2E2E2E2E22D2D2D
310
2D2D2D2D2D2D2D2D2D2D2D2D2D2D2D2D2D2D2D2D2D2D2D2D2D2D2D2D2D2D2D2D2D2D2D2D2D2D2D2D2D2D2D2D2D2D2D2D2D2D2D2D2D2D2D2D2D2D2D2D2D2D2D2D2D2D2D2D2D2D2D2D2D2D2D2D2D2D2D2D2D2D2D2D2D2D2D2D2D2D2D2D2D2D2D2D2D2D2D2D2D2D2D2D2D2D2D2D2D2D2D2D2D2D2D2D2D2D2D2D2D2D2D2D2D2D2D
310
2D2D2D2D2D2D2D2D2D2D2D2D2D2D2D2D2D2D2D2D2D2D2D2D2DE2E2E2E2E2E2E2E2E2E2E2E2E2E2E2E2E2E2E2E2E2E2E2E2E2E2E2E2E2E2E2E2E2E2E2E2E2E2E2E2E2E2E2E2E2E2E2E2E2E2E2E2E2E2E2E2E2E2E2E2E2E2E2E2E2E2E2E2E2E2E2E2E2E2E2E2E2E2E2E2E2E2E2E2E2E2E2E2E2E2E2E2E2E2E2E2E2E2E2E2E2E2
310
E2E2E2E2E2E2E2E2E2E2E2E2E2E2E2E2E2E2E2E2E2E2E2E2E2E2E2E2E2E2E2E2E2E2E2E2E2E2E2E2E2E2E2E2E2E2E2E2E2E2E2E2E2E2E2E2E2E2E2E2E2E2E2E2E2E2E2E2E2E2E2E2E2E2E2E2E2E2E2E2E2E2E2E2E2E2E2E2E2E2E2E2E2E2E2E2E2E2E2E2E2E2E2E2E2E2E2E2E2E2E2E2E2E2E2E2E2E2E2E2E2E2E2E2E2E2E2
310
E2E2E2E2E2E2E2E2E2E2E2E2E2E2E2E2E2E2E2E2E2E2E2E2E2E2E2E2E2E2E2E2E2E2E2E2E2E2E2E2E2E2E2E2E2E2E2E2E2E2E2E2E2E2E2E2E2E2E2E2E2E2E2E2E2E2E2E2E2E2E2E2E2E2E2E2E2E2E2E2E2E2E2E2E2E2E2E2E2E2E2E2E2E2E2E2E2E2E2E2E2E2E2E2E2E2E2E2E2E2E2E2E2E2E2E2E2E2E2E2E2E2E2E2E2E2E2
310
E2E2E2E2E2E2E2E2E2E2E2E2E2E2E2E2E2E2E2E2E2E2E2E2E2E2E2E2E2E2E2E2E2E2E2E2E2E2E2E2E2E2E2E2E2E2E2E2E2E2E2E2E2E2E2E2E2E2E2E2E2E2E2E2E2E2E2E2E2E2E2E2E2E2E2E2E2E2E2E2E2E2E2E2E2E2E2E2E2E2E2E2E2E2E2E2E2E2E2E2E2E2E2E2E2E2E2E2E2E2E2E2E2E2E2E2E2E2E2E2E2E2E2E2E2E2E2
310
E2E2E2E2E2E2E2E2E2E2E2E2E2E2E2E2E2E2E2E2E2E2E2E2E2E2E2E2E2E2E2E2E2E2E2E2E2E2E2E2E2E2E2E2E2E2E2E2E2E2E2E2E2E2E2E2E2E2E2E2E2E2E2E2E2E2E2E2E2E2E2E2E2E2E2E2E2E2E2E2E2E2E2E2E2E2E2E2E2E2E2E2E2E2E2E2E2E2E2E2E2E2E2E2E2E2E2E2E2E2E2E2E2E2E2E2E2E2E2E2E2E2E2E2E2E2E2
310
E2E2E2E2E2E2E2E2E2E2E2E2E2E2E2E2E2E2E2E2E2E2E2E2E2E2E2E2E2E2E2E2E2E2E2E2E2E2E2E2E2E2E2E2E2E2E2E2E2E2E2E2E2E2E2E2E2E2E2E2E2E2E2E2E2E2E2E2E2E2E2E2E2E2E2E2E2E2E2E2E2E2E2E2E2E2E2E2E2E2E2E2E2E2E2E2E2E2E2E2E2E2E2E2E2E2E2E2E2E2E2E2E2E2E2E2E2E2E2E2E2E2E2E2E2E2E2
310
E2E2E2E2E2E2E2E2E2E2E2E2E2E2E2E2E2E2E2E2E2E2E2E2E2E2E2E2E2E2E2E2E2E2E2E2E2E2E2E2E2E2E2E2E2E2E2E2E2E2E2E2E2E2E2E2E2E2E2E2E2E2E2E2E2E2E2E2E2E2E2E2E2E2E2E2E2E2E2E2E2E2E2E2E2E2E2E2E2E2E2E2E2E2E2E2E2E2E2E2E2E2E2E2E2E2E2E2E2E2E2E2E2E2E2E2E2E2E2E2E2E2E2E2E2E2E2
310
E2E2E2E2E2E2E2E2E2E2E2E2E2E2E2E2E2E2E2E2E2E2E2E2E2E2E2E2E2E2E2E2E2E2E2E2E2E2E2E2E2E2E2E2E2E2E2E2
  0
XRECORD
  5
135E
102
{ACAD_REACTORS
330
135D
102
}
330
135D
100
AcDbXrecord
280
     1
102
MATERIAL
148
0.0
149
0.0
149
0.0
 93
        0
 94
       63
282
     0
 72
     1
 77
     1
171
     1
175
     1
179
     1
273
     0
  0
ENDSEC
  0
EOF
