  0
SECTION
  2
HEADER
  9
$ACADVER
  1
AC1018
  9
$ACADMAINTVER
 70
    39
  9
$DWGCODEPAGE
  3
ANSI_950
  9
$CUSTOMPROPERTYTAG
  1
AmdtFileType
  9
$CUSTOMPROPERTY
  1
84
  9
$INSBASE
 10
0.0
 20
0.0
 30
0.0
  9
$EXTMIN
 10
1.000000000000000E+20
 20
1.000000000000000E+20
 30
1.000000000000000E+20
  9
$EXTMAX
 10
-1.000000000000000E+20
 20
-1.000000000000000E+20
 30
-1.000000000000000E+20
  9
$LIMMIN
 10
0.0
 20
0.0
  9
$LIMMAX
 10
420.0
 20
297.0
  9
$ORTHOMODE
 70
     1
  9
$REGENMODE
 70
     1
  9
$FILLMODE
 70
     1
  9
$QTEXTMODE
 70
     0
  9
$MIRRTEXT
 70
     1
  9
$LTSCALE
 40
1.0
  9
$ATTMODE
 70
     1
  9
$TEXTSIZE
 40
1.0
  9
$TRACEWID
 40
1.0
  9
$TEXTSTYLE
  7
STANDARD
  9
$CLAYER
  8
0
  9
$CELTYPE
  6
BYLAYER
  9
$CECOLOR
 62
   256
  9
$CELTSCALE
 40
1.0
  9
$DISPSILH
 70
     0
  9
$DIMSCALE
 40
1.0
  9
$DIMASZ
 40
3.0
  9
$DIMEXO
 40
1.0
  9
$DIMDLI
 40
8.0
  9
$DIMRND
 40
0.0
  9
$DIMDLE
 40
0.0
  9
$DIMEXE
 40
1.0
  9
$DIMTP
 40
0.1
  9
$DIMTM
 40
0.1
  9
$DIMTXT
 40
3.5
  9
$DIMCEN
 40
0.0
  9
$DIMTSZ
 40
0.0
  9
$DIMTOL
 70
     0
  9
$DIMLIM
 70
     0
  9
$DIMTIH
 70
     0
  9
$DIMTOH
 70
     0
  9
$DIMSE1
 70
     0
  9
$DIMSE2
 70
     0
  9
$DIMTAD
 70
     1
  9
$DIMZIN
 70
     8
  9
$DIMBLK
  1

  9
$DIMASO
 70
     1
  9
$DIMSHO
 70
     1
  9
$DIMPOST
  1

  9
$DIMAPOST
  1
"
  9
$DIMALT
 70
     0
  9
$DIMALTD
 70
     2
  9
$DIMALTF
 40
0.0393701
  9
$DIMLFAC
 40
1.0
  9
$DIMTOFL
 70
     1
  9
$DIMTVP
 40
0.0
  9
$DIMTIX
 70
     0
  9
$DIMSOXD
 70
     0
  9
$DIMSAH
 70
     0
  9
$DIMBLK1
  1

  9
$DIMBLK2
  1

  9
$DIMSTYLE
  2
AM_ISO
  9
$DIMCLRD
 70
   256
  9
$DIMCLRE
 70
   256
  9
$DIMCLRT
 70
   256
  9
$DIMTFAC
 40
0.71
  9
$DIMGAP
 40
1.0
  9
$DIMJUST
 70
     0
  9
$DIMSD1
 70
     0
  9
$DIMSD2
 70
     0
  9
$DIMTOLJ
 70
     0
  9
$DIMTZIN
 70
     8
  9
$DIMALTZ
 70
     8
  9
$DIMALTTZ
 70
     0
  9
$DIMUPT
 70
     0
  9
$DIMDEC
 70
     2
  9
$DIMTDEC
 70
     8
  9
$DIMALTU
 70
     2
  9
$DIMALTTD
 70
     2
  9
$DIMTXSTY
  7
STANDARD
  9
$DIMAUNIT
 70
     0
  9
$DIMADEC
 70
     0
  9
$DIMALTRND
 40
0.0
  9
$DIMAZIN
 70
     2
  9
$DIMDSEP
 70
    46
  9
$DIMATFIT
 70
     3
  9
$DIMFRAC
 70
     0
  9
$DIMLDRBLK
  1

  9
$DIMLUNIT
 70
     2
  9
$DIMLWD
 70
    -1
  9
$DIMLWE
 70
    -1
  9
$DIMTMOVE
 70
     0
  9
$LUNITS
 70
     2
  9
$LUPREC
 70
     2
  9
$SKETCHINC
 40
1.0
  9
$FILLETRAD
 40
2.5
  9
$AUNITS
 70
     0
  9
$AUPREC
 70
     0
  9
$MENU
  1
.
  9
$ELEVATION
 40
0.0
  9
$PELEVATION
 40
0.0
  9
$THICKNESS
 40
0.0
  9
$LIMCHECK
 70
     0
  9
$CHAMFERA
 40
2.5
  9
$CHAMFERB
 40
2.5
  9
$CHAMFERC
 40
20.0
  9
$CHAMFERD
 40
0.0
  9
$SKPOLY
 70
     0
  9
$TDCREATE
 40
2455098.657891898
  9
$TDUCREATE
 40
2455098.324558565
  9
$TDUPDATE
 40
2455117.711927257
  9
$TDUUPDATE
 40
2455117.378593924
  9
$TDINDWG
 40
0.0626029167
  9
$TDUSRTIMER
 40
0.0626027315
  9
$USRTIMER
 70
     1
  9
$ANGBASE
 50
0.0
  9
$ANGDIR
 70
     0
  9
$PDMODE
 70
     0
  9
$PDSIZE
 40
0.0
  9
$PLINEWID
 40
0.0
  9
$SPLFRAME
 70
     0
  9
$SPLINETYPE
 70
     6
  9
$SPLINESEGS
 70
     8
  9
$HANDSEED
  5
B4E
  9
$SURFTAB1
 70
     6
  9
$SURFTAB2
 70
     6
  9
$SURFTYPE
 70
     6
  9
$SURFU
 70
     6
  9
$SURFV
 70
     6
  9
$UCSBASE
  2

  9
$UCSNAME
  2

  9
$UCSORG
 10
0.0
 20
0.0
 30
0.0
  9
$UCSXDIR
 10
1.0
 20
0.0
 30
0.0
  9
$UCSYDIR
 10
0.0
 20
1.0
 30
0.0
  9
$UCSORTHOREF
  2

  9
$UCSORTHOVIEW
 70
     0
  9
$UCSORGTOP
 10
0.0
 20
0.0
 30
0.0
  9
$UCSORGBOTTOM
 10
0.0
 20
0.0
 30
0.0
  9
$UCSORGLEFT
 10
0.0
 20
0.0
 30
0.0
  9
$UCSORGRIGHT
 10
0.0
 20
0.0
 30
0.0
  9
$UCSORGFRONT
 10
0.0
 20
0.0
 30
0.0
  9
$UCSORGBACK
 10
0.0
 20
0.0
 30
0.0
  9
$PUCSBASE
  2

  9
$PUCSNAME
  2

  9
$PUCSORG
 10
0.0
 20
0.0
 30
0.0
  9
$PUCSXDIR
 10
1.0
 20
0.0
 30
0.0
  9
$PUCSYDIR
 10
0.0
 20
1.0
 30
0.0
  9
$PUCSORTHOREF
  2

  9
$PUCSORTHOVIEW
 70
     0
  9
$PUCSORGTOP
 10
0.0
 20
0.0
 30
0.0
  9
$PUCSORGBOTTOM
 10
0.0
 20
0.0
 30
0.0
  9
$PUCSORGLEFT
 10
0.0
 20
0.0
 30
0.0
  9
$PUCSORGRIGHT
 10
0.0
 20
0.0
 30
0.0
  9
$PUCSORGFRONT
 10
0.0
 20
0.0
 30
0.0
  9
$PUCSORGBACK
 10
0.0
 20
0.0
 30
0.0
  9
$USERI1
 70
     0
  9
$USERI2
 70
     0
  9
$USERI3
 70
     0
  9
$USERI4
 70
     0
  9
$USERI5
 70
     0
  9
$USERR1
 40
0.0
  9
$USERR2
 40
0.0
  9
$USERR3
 40
0.0
  9
$USERR4
 40
0.0
  9
$USERR5
 40
0.0
  9
$WORLDVIEW
 70
     1
  9
$SHADEDGE
 70
     3
  9
$SHADEDIF
 70
    70
  9
$TILEMODE
 70
     0
  9
$MAXACTVP
 70
    48
  9
$PINSBASE
 10
0.0
 20
0.0
 30
0.0
  9
$PLIMCHECK
 70
     0
  9
$PEXTMIN
 10
8.815044552509107
 20
3.73337283036443
 30
-0.0015234476054502
  9
$PEXTMAX
 10
266.732111097214
 20
181.7155937533084
 30
127.3972050562932
  9
$PLIMMIN
 10
-3.35137939453125
 20
-4.536722183227539
  9
$PLIMMAX
 10
276.6130574544271
 20
193.4139410654703
  9
$UNITMODE
 70
     0
  9
$VISRETAIN
 70
     1
  9
$PLINEGEN
 70
     0
  9
$PSLTSCALE
 70
     1
  9
$TREEDEPTH
 70
  3020
  9
$CMLSTYLE
  2
STANDARD
  9
$CMLJUST
 70
     0
  9
$CMLSCALE
 40
1.0
  9
$PROXYGRAPHICS
 70
     1
  9
$MEASUREMENT
 70
     1
  9
$CELWEIGHT
370
    -1
  9
$ENDCAPS
280
     0
  9
$JOINSTYLE
280
     0
  9
$LWDISPLAY
290
     0
  9
$INSUNITS
 70
     4
  9
$HYPERLINKBASE
  1

  9
$STYLESHEET
  1

  9
$XEDIT
290
     1
  9
$CEPSNTYPE
380
     0
  9
$PSTYLEMODE
290
     1
  9
$FINGERPRINTGUID
  2
{ABADBDDE-0E5B-4D34-AA65-B642EA43533B}
  9
$VERSIONGUID
  2
{30CFF7E0-8509-4363-9A7E-FFD0147419D6}
  9
$EXTNAMES
290
     1
  9
$PSVPSCALE
 40
0.0
  9
$OLESTARTUP
290
     0
  9
$SORTENTS
280
   127
  9
$INDEXCTL
280
     1
  9
$HIDETEXT
280
     1
  9
$XCLIPFRAME
290
     0
  9
$HALOGAP
280
     0
  9
$OBSCOLOR
 70
   257
  9
$OBSLTYPE
280
     0
  9
$INTERSECTIONDISPLAY
280
     0
  9
$INTERSECTIONCOLOR
 70
   257
  9
$DIMASSOC
280
     1
  9
$PROJECTNAME
  1

  0
ENDSEC
  0
SECTION
  2
CLASSES
  0
CLASS
  1
DICTIONARYVAR
  2
AcDbDictionaryVar
  3
ObjectDBX Classes
 90
        0
 91
        4
280
     0
281
     0
  0
CLASS
  1
ACMESTATEMGR
  2
AcMeStateMgr
  3
AcMeServices
 90
        0
 91
        1
280
     0
281
     0
  0
CLASS
  1
ACMESCOPE
  2
AcMeScope
  3
AcMeServices
 90
        0
 91
        1
280
     0
281
     0
  0
CLASS
  1
ACMECOMMANDHISTORY
  2
AcMeCommandHistory
  3
AcMeServices
 90
        0
 91
        1
280
     0
281
     0
  0
CLASS
  1
ACRFINSADJUSTERMGR
  2
AcRfInsAdjusterMgr
  3
AcMeServices
 90
        0
 91
        1
280
     0
281
     0
  0
CLASS
  1
ACMEDRAWINGMAN
  2
AcMeDrawingMan
  3
AcMeServices
 90
        0
 91
        1
280
     0
281
     0
  0
CLASS
  1
AMATTR
  2
AcMeAttribute
  3
AcMeServices
 90
        0
 91
        0
280
     0
281
     0
  0
CLASS
  1
ACMEBOMCOLUMN
  2
AcMeBOMColumn
  3
AcMeServices
 90
        0
 91
        0
280
     0
281
     0
  0
CLASS
  1
ACMEBOMCONF
  2
AcMeBOMConf
  3
AcMeServices
 90
        0
 91
        0
280
     0
281
     0
  0
CLASS
  1
ACMEBOMTABLE
  2
AcMeBOMTable
  3
AcMeServices
 90
        0
 91
        0
280
     0
281
     0
  0
CLASS
  1
ACMEBOMENTRY
  2
AcMeBOMEntry
  3
AcMeServices
 90
        0
 91
        0
280
     0
281
     0
  0
CLASS
  1
ACMEVIEW
  2
AcMeView
  3
AcMeServices
 90
        0
 91
        1
280
     0
281
     0
  0
CLASS
  1
ACGREFMASTER
  2
AcGrefMaster
  3
AcAttribServices
 90
        0
 91
        1
280
     0
281
     0
  0
CLASS
  1
AMIMASTER
  2
AmiMaster
  3
AmiServices
 90
        0
 91
        1
280
     0
281
     0
  0
CLASS
  1
ACASGREFMASTER
  2
AcAsGrefMaster
  3
AutoSurfResolverServices
 90
        0
 91
        1
280
     0
281
     0
  0
CLASS
  1
ADAPPL
  2
AcAdAppl
  3
DesignerServices
 90
        0
 91
        1
280
     0
281
     0
  0
CLASS
  1
DEPMGR
  2
AcAdDepMgr
  3
DesignerServices
 90
        0
 91
        1
280
     0
281
     0
  0
CLASS
  1
PARAMMGR
  2
AcAdParamMgr
  3
DesignerServices
 90
        0
 91
        1
280
     0
281
     0
  0
CLASS
  1
PARAMSCOPE
  2
AcAdParamScope
  3
DesignerServices
 90
        0
 91
        1
280
     0
281
     0
  0
CLASS
  1
ACIMSYSVARMAN
  2
AcImSysVarManager
  3
AcMeServices
 90
        0
 91
        6
280
     0
281
     0
  0
CLASS
  1
ACIMINTSYSVAR
  2
AcImIntSysVar
  3
AcMeServices
 90
        0
 91
       45
280
     0
281
     0
  0
CLASS
  1
ACIMREALSYSVAR
  2
AcImRealSysVar
  3
AcMeServices
 90
        0
 91
       16
280
     0
281
     0
  0
CLASS
  1
ACIMSTRSYSVAR
  2
AcImStrSysVar
  3
AcMeServices
 90
        0
 91
       11
280
     0
281
     0
  0
CLASS
  1
NAMEDAPPL
  2
AcAdNamedAppl
  3
DesignerServices
 90
        0
 91
        1
280
     0
281
     0
  0
CLASS
  1
ADHNTMPLT
  2
AdHoleNoteTemplateMgr
  3
DesignerServices
 90
        0
 91
        0
280
     0
281
     0
  0
CLASS
  1
AM_HNTEMPLATE_MGR_NAME
  2
AdHoleNoteTemplateMgrName
  3
DesignerServices
 90
        0
 91
        0
280
     0
281
     0
  0
CLASS
  1
ACADGREFMODULE
  2
AcAdGrefModule
  3
AdGrefServices
 90
        0
 91
        1
280
     0
281
     0
  0
CLASS
  1
AM_DRAWING_MGR
  2
AcDmDwgMgr
  3
AcMechDwgViewMgmt
 90
        0
 91
        1
280
     0
281
     0
  0
CLASS
  1
AM_DWG_DOCUMENT
  2
AcDmDwgDocument
  3
AcMechDwgViewMgmt
 90
        0
 91
        1
280
     0
281
     0
  0
CLASS
  1
AM_DWG_SHEET
  2
AcDmSheet
  3
AcMechDwgViewMgmt
 90
        0
 91
        1
280
     0
281
     0
  0
CLASS
  1
AM_VIEWDIMPARMAP
  2
AcDmViewDimParMap
  3
AcMechDwgViewMgmt
 90
        0
 91
        1
280
     0
281
     0
  0
CLASS
  1
AM_DWGMGR_NAME
  2
AcDmDwgMgrName
  3
AcMechDwgViewMgmt
 90
        0
 91
        1
280
     0
281
     0
  0
CLASS
  1
ACAMPROJECT
  2
AcAmProject
  3
DesignerAssemblies
 90
        0
 91
        1
280
     0
281
     0
  0
CLASS
  1
ACAMGRCOMPSET
  2
AcAmGrCompSet
  3
DesignerAssemblies
 90
        0
 91
        0
280
     1
281
     0
  0
CLASS
  1
ACAMGRCOMPDEFSET
  2
AcAmGrCompDefSet
  3
DesignerAssemblies
 90
        0
 91
        1
280
     0
281
     0
  0
CLASS
  1
ACAMGRCOMPDEF
  2
AcAmGrCompDef
  3
DesignerAssemblies
 90
        0
 91
        1
280
     0
281
     0
  0
CLASS
  1
ACCMCONTEXT
  2
AcCmContext
  3
DesignerAssemblies
 90
        0
 91
        1
280
     0
281
     0
  0
CLASS
  1
ACAMCOMPDEF
  2
AcAmCompDef
  3
DesignerAssemblies
 90
        0
 91
        1
280
     0
281
     0
  0
CLASS
  1
ACAMCOMPDEFMGR
  2
AcAmCompDefMgr
  3
DesignerAssemblies
 90
        0
 91
        1
280
     0
281
     0
  0
CLASS
  1
AMCONTEXTMGR
  2
AcAmContextMgr
  3
DesignerAssemblies
 90
        0
 91
        1
280
     0
281
     0
  0
CLASS
  1
ACAMCONTEXTMODELER
  2
AcAmContextModeler
  3
DesignerAssemblies
 90
        0
 91
        1
280
     0
281
     0
  0
CLASS
  1
ACDMVIEWGEOM
  2
AcDmViewGeometry
  3
AcMechDwgViewMgmt
 90
        0
 91
        0
280
     0
281
     1
  0
CLASS
  1
CBROWSERAPPOBJECT
  2
CBrowserAppObject
  3
McadcomServices
 90
        0
 91
        3
280
     0
281
     0
  0
CLASS
  1
IM_STATIC_MAN
  2
AcImStaticVarManager
  3
AcMeServices
 90
        0
 91
        1
280
     0
281
     0
  0
CLASS
  1
ASAPP
  2
AcAsAppObject
  3
AutoSurfServices
 90
        0
 91
        1
280
     0
281
     0
  0
CLASS
  1
ACIMDBLSTATICVAR
  2
AcImDblStaticVar
  3
AcMeServices
 90
        0
 91
       20
280
     0
281
     0
  0
CLASS
  1
ACIMSTRSTATICVAR
  2
AcImStrStaticVar
  3
AcMeServices
 90
        0
 91
       12
280
     0
281
     0
  0
CLASS
  1
ACIMINTSTATICVAR
  2
AcImIntStaticVar
  3
AcMeServices
 90
        0
 91
       17
280
     0
281
     0
  0
CLASS
  1
CATALOGSTATE
  2
AcAmCatalogState
  3
DesignerAssemblies
 90
        0
 91
        1
280
     0
281
     0
  0
CLASS
  1
DM_PLACEHOLDER
  2
AcDmSelsetPlaceholder
  3
AcMechDwgViewMgmt
 90
        0
 91
        1
280
     0
281
     0
  0
CLASS
  1
LAYER_INDEX
  2
AcDbLayerIndex
  3
ObjectDBX Classes
 90
        0
 91
        1
280
     0
281
     0
  0
CLASS
  1
IDBUFFER
  2
AcDbIdBuffer
  3
ObjectDBX Classes
 90
        0
 91
        7
280
     0
281
     0
  0
CLASS
  1
ACMSTANDARDJIS
  2
AcmStandardJIS
  3
"Amdt_StdImp|Product Description: AutoCAD Mechanical 2004 DX|Company: Autodesk"
 90
        0
 91
        0
280
     0
281
     0
  0
CLASS
  1
ACMSTANDARDANSI
  2
AcmStandardANSI
  3
"Amdt_StdImp|Product Description: AutoCAD Mechanical 2004 DX|Company: Autodesk"
 90
        0
 91
        0
280
     0
281
     0
  0
CLASS
  1
ACMSTANDARDBSI
  2
AcmStandardBSI
  3
"Amdt_StdImp|Product Description: AutoCAD Mechanical 2004 DX|Company: Autodesk"
 90
        0
 91
        0
280
     0
281
     0
  0
CLASS
  1
ACMSTANDARDDIN
  2
AcmStandardDIN
  3
"Amdt_StdImp|Product Description: AutoCAD Mechanical 2004 DX|Company: Autodesk"
 90
        0
 91
        0
280
     0
281
     0
  0
CLASS
  1
ACMSTANDARDISO
  2
AcmStandardISO
  3
"Amdt_StdImp|Product Description: AutoCAD Mechanical 2004 DX|Company: Autodesk"
 90
        0
 91
        1
280
     0
281
     0
  0
CLASS
  1
ACDBDICTIONARYWDFLT
  2
AcDbDictionaryWithDefault
  3
ObjectDBX Classes
 90
        0
 91
        1
280
     0
281
     0
  0
CLASS
  1
ACME_DOCUMENT
  2
AcMeDbDoc
  3
AcMeServices
 90
        0
 91
        2
280
     0
281
     0
  0
CLASS
  1
AMGSETTINGSOBJ
  2
AmgSettingsObj
  3
"AcadM|Product Description: AutoCAD Mechanical 2000|Company: Autodesk"
 90
        0
 91
        2
280
     0
281
     0
  0
CLASS
  1
AMGOBJPROPCFG
  2
AmgObjPropCfg
  3
"AmgLay|Product Description: AutoCAD Mechanical 2000|Company: Autodesk"
 90
        1
 91
        1
280
     0
281
     0
  0
CLASS
  1
ACDBENTITYCACHE
  2
AcMeEntityCache
  3
AcMeServices
 90
        0
 91
        1
280
     0
281
     0
  0
CLASS
  1
GSMANAGER
  2
AcMeGSManager
  3
AcMeServices
 90
        0
 91
        1
280
     0
281
     0
  0
CLASS
  1
AMDTINTERNALREACTOR
  2
AmdtInternalReactor
  3
AcMeServices
 90
        0
 91
        2
280
     0
281
     0
  0
CLASS
  1
ACME_DATABASE
  2
AcMeDbDatabase
  3
AcMeServices
 90
        0
 91
        1
280
     0
281
     0
  0
CLASS
  1
ACGREFACADMASTER
  2
AcGrefacadMaster
  3
AcGrefServices
 90
        0
 91
        1
280
     0
281
     0
  0
CLASS
  1
AMDTMENUSTATEMGR
  2
AmdtMenuStateMgr
  3
McadcomServices
 90
        0
 91
        1
280
     0
281
     0
  0
CLASS
  1
AMDTMCOMMENUSTATE
  2
AmdtMcomMenuState
  3
McadcomServices
 90
        0
 91
        1
280
     0
281
     0
  0
CLASS
  1
MAPIADMODULE
  2
MApiAdModule
  3
MApiAdServices
 90
        0
 91
        1
280
     0
281
     0
  0
CLASS
  1
AMDTDMMENUSTATE
  2
AmdtDmMenuState
  3
AcMechDwgViewMgmt
 90
        0
 91
        1
280
     0
281
     0
  0
CLASS
  1
AMDTADMENUSTATE
  2
AmdtAdMenuState
  3
DesignerServices
 90
        0
 91
        1
280
     0
281
     0
  0
CLASS
  1
AMDTAMMENUSTATE
  2
AmdtAmMenuState
  3
DesignerAssemblies
 90
        0
 91
        1
280
     0
281
     0
  0
CLASS
  1
ACMDATADICTIONARY
  2
AcmDataDictionary
  3
"AcmSymBB|Product Description: AutoCAD Mechanical 2004 DX|Company: Autodesk"
 90
        0
 91
        1
280
     0
281
     0
  0
CLASS
  1
ACMDATAENTRYBLOCK
  2
AcmDataEntryBlock
  3
"AcmSymBB|Product Description: AutoCAD Mechanical 2004 DX|Company: Autodesk"
 90
        0
 91
        1
280
     0
281
     0
  0
CLASS
  1
ACMSURFSTANDARDJIS
  2
AcmSurfTextStdJIS
  3
"Amdt_StdImp|Product Description: AutoCAD Mechanical 2004 DX|Company: Autodesk"
 90
        0
 91
        0
280
     0
281
     0
  0
CLASS
  1
ACMFCFSTANDARDJIS
  2
AcmFCFStdJIS
  3
"Amdt_StdImp|Product Description: AutoCAD Mechanical 2004 DX|Company: Autodesk"
 90
        0
 91
        0
280
     0
281
     0
  0
CLASS
  1
ACMWELDSTANDARDJIS
  2
AcmWeldingStdJIS
  3
"Amdt_StdImp|Product Description: AutoCAD Mechanical 2004 DX|Company: Autodesk"
 90
        0
 91
        0
280
     0
281
     0
  0
CLASS
  1
ACMIDSTANDARDJIS
  2
AcmIdStdJIS
  3
"Amdt_StdImp|Product Description: AutoCAD Mechanical 2004 DX|Company: Autodesk"
 90
        0
 91
        0
280
     0
281
     0
  0
CLASS
  1
ACMDATUMSTANDARDJIS
  2
AcmDatumStdJIS
  3
"Amdt_StdImp|Product Description: AutoCAD Mechanical 2004 DX|Company: Autodesk"
 90
        0
 91
        0
280
     0
281
     0
  0
CLASS
  1
ACMBOMSTANDARDJIS
  2
AcmBOMStdJIS
  3
"Amdt_StdImp|Product Description: AutoCAD Mechanical 2004 DX|Company: Autodesk"
 90
        0
 91
        0
280
     0
281
     0
  0
CLASS
  1
ACMSURFSTANDARDANSI
  2
AcmSurfTextStdANSI
  3
"Amdt_StdImp|Product Description: AutoCAD Mechanical 2004 DX|Company: Autodesk"
 90
        0
 91
        0
280
     0
281
     0
  0
CLASS
  1
ACMFCFSTANDARDANSI
  2
AcmFCFStdANSI
  3
"Amdt_StdImp|Product Description: AutoCAD Mechanical 2004 DX|Company: Autodesk"
 90
        0
 91
        0
280
     0
281
     0
  0
CLASS
  1
ACMWELDSTANDARDANSI
  2
AcmWeldingStdANSI
  3
"Amdt_StdImp|Product Description: AutoCAD Mechanical 2004 DX|Company: Autodesk"
 90
        0
 91
        0
280
     0
281
     0
  0
CLASS
  1
ACMIDSTANDARDANSI
  2
AcmIdStdANSI
  3
"Amdt_StdImp|Product Description: AutoCAD Mechanical 2004 DX|Company: Autodesk"
 90
        0
 91
        0
280
     0
281
     0
  0
CLASS
  1
ACMDATUMSTANDARDANSI
  2
AcmDatumStdANSI
  3
"Amdt_StdImp|Product Description: AutoCAD Mechanical 2004 DX|Company: Autodesk"
 90
        0
 91
        0
280
     0
281
     0
  0
CLASS
  1
ACMBOMSTANDARDANSI
  2
AcmBOMStdANSI
  3
"Amdt_StdImp|Product Description: AutoCAD Mechanical 2004 DX|Company: Autodesk"
 90
        0
 91
        0
280
     0
281
     0
  0
CLASS
  1
ACMSURFSTANDARDBSI
  2
AcmSurfTextStdBSI
  3
"Amdt_StdImp|Product Description: AutoCAD Mechanical 2004 DX|Company: Autodesk"
 90
        0
 91
        0
280
     0
281
     0
  0
CLASS
  1
ACMFCFSTANDARDBSI
  2
AcmFCFStdBSI
  3
"Amdt_StdImp|Product Description: AutoCAD Mechanical 2004 DX|Company: Autodesk"
 90
        0
 91
        0
280
     0
281
     0
  0
CLASS
  1
ACMWELDSTANDARDBSI
  2
AcmWeldingStdBSI
  3
"Amdt_StdImp|Product Description: AutoCAD Mechanical 2004 DX|Company: Autodesk"
 90
        0
 91
        0
280
     0
281
     0
  0
CLASS
  1
ACMIDSTANDARDBSI
  2
AcmIdStdBSI
  3
"Amdt_StdImp|Product Description: AutoCAD Mechanical 2004 DX|Company: Autodesk"
 90
        0
 91
        0
280
     0
281
     0
  0
CLASS
  1
ACMDATUMSTANDARDBSI
  2
AcmDatumStdBSI
  3
"Amdt_StdImp|Product Description: AutoCAD Mechanical 2004 DX|Company: Autodesk"
 90
        0
 91
        0
280
     0
281
     0
  0
CLASS
  1
ACMBOMSTANDARDBSI
  2
AcmBOMStdBSI
  3
"Amdt_StdImp|Product Description: AutoCAD Mechanical 2004 DX|Company: Autodesk"
 90
        0
 91
        0
280
     0
281
     0
  0
CLASS
  1
AMDTEDGESTANDARDDIN
  2
AmdtEdgeStdDIN
  3
"Amdt_StdImp|Product Description: AutoCAD Mechanical 2004 DX|Company: Autodesk"
 90
        0
 91
        0
280
     0
281
     0
  0
CLASS
  1
ACMSURFSTANDARDDIN
  2
AcmSurfTextStdDIN
  3
"Amdt_StdImp|Product Description: AutoCAD Mechanical 2004 DX|Company: Autodesk"
 90
        0
 91
        0
280
     0
281
     0
  0
CLASS
  1
ACMFCFSTANDARDDIN
  2
AcmFCFStdDIN
  3
"Amdt_StdImp|Product Description: AutoCAD Mechanical 2004 DX|Company: Autodesk"
 90
        0
 91
        0
280
     0
281
     0
  0
CLASS
  1
ACMWELDSTANDARDDIN
  2
AcmWeldingStdDIN
  3
"Amdt_StdImp|Product Description: AutoCAD Mechanical 2004 DX|Company: Autodesk"
 90
        0
 91
        0
280
     0
281
     0
  0
CLASS
  1
ACMIDSTANDARDDIN
  2
AcmIdStdDIN
  3
"Amdt_StdImp|Product Description: AutoCAD Mechanical 2004 DX|Company: Autodesk"
 90
        0
 91
        0
280
     0
281
     0
  0
CLASS
  1
ACMDATUMSTANDARDDIN
  2
AcmDatumStdDIN
  3
"Amdt_StdImp|Product Description: AutoCAD Mechanical 2004 DX|Company: Autodesk"
 90
        0
 91
        0
280
     0
281
     0
  0
CLASS
  1
ACMBOMSTANDARDDIN
  2
AcmBOMStdDIN
  3
"Amdt_StdImp|Product Description: AutoCAD Mechanical 2004 DX|Company: Autodesk"
 90
        0
 91
        0
280
     0
281
     0
  0
CLASS
  1
ACMSURFSTANDARDISO
  2
AcmSurfTextStdISO
  3
"Amdt_StdImp|Product Description: AutoCAD Mechanical 2004 DX|Company: Autodesk"
 90
        0
 91
        1
280
     0
281
     0
  0
CLASS
  1
ACMFCFSTANDARDISO
  2
AcmFCFStdISO
  3
"Amdt_StdImp|Product Description: AutoCAD Mechanical 2004 DX|Company: Autodesk"
 90
        0
 91
        1
280
     0
281
     0
  0
CLASS
  1
ACMWELDSTANDARDISO
  2
AcmWeldingStdISO
  3
"Amdt_StdImp|Product Description: AutoCAD Mechanical 2004 DX|Company: Autodesk"
 90
        0
 91
        1
280
     0
281
     0
  0
CLASS
  1
ACMIDSTANDARDISO
  2
AcmIdStdISO
  3
"Amdt_StdImp|Product Description: AutoCAD Mechanical 2004 DX|Company: Autodesk"
 90
        0
 91
        1
280
     0
281
     0
  0
CLASS
  1
ACMDATUMSTANDARDISO
  2
AcmDatumStdISO
  3
"Amdt_StdImp|Product Description: AutoCAD Mechanical 2004 DX|Company: Autodesk"
 90
        0
 91
        1
280
     0
281
     0
  0
CLASS
  1
ACMBOMSTANDARDISO
  2
AcmBOMStdISO
  3
"Amdt_StdImp|Product Description: AutoCAD Mechanical 2004 DX|Company: Autodesk"
 90
        0
 91
        1
280
     0
281
     0
  0
CLASS
  1
AMDTBROWSERDBTAB
  2
AmdtBrowserDbTab
  3
McadcomServices
 90
        0
 91
        1
280
     0
281
     0
  0
CLASS
  1
ACAMGFILTERDAT
  2
AcAmgFilterDat
  3
"AcadM|Product Description: AutoCAD Mechanical 2000|Company: Autodesk"
 90
        0
 91
        0
280
     0
281
     0
  0
CLASS
  1
MAPIAMMOUDLE
  2
MApiAmModule
  3
MApiAmServices
 90
        0
 91
        1
280
     0
281
     0
  0
CLASS
  1
AMDTMAPISURFMOUDULE
  2
AmdtMApiSurfModule
  3
MApiSurfServices
 90
        0
 91
        1
280
     0
281
     0
  0
CLASS
  1
ACAMGLAYSTD
  2
AcAmgLayStd
  3
"AcAmgLayStd|Product Description: AutoCAD Mechanical 2000|Company: Autodesk"
 90
        0
 91
        1
280
     0
281
     0
  0
CLASS
  1
ACAMGDIMSTD
  2
AcAmgDimStd
  3
"AcAmgDimStd|Product Description: AutoCAD Mechanical 2000|Company: Autodesk"
 90
        0
 91
        1
280
     0
281
     0
  0
CLASS
  1
ACAMGTITLESTD
  2
AcAmgTitleStd
  3
"TITLEAPP"
 90
        0
 91
        1
280
     0
281
     0
  0
CLASS
  1
ACMDETAILSTANDARDJIS
  2
AmdtDetailSymStdJIS
  3
"Amdt_StdImp|Product Description: AutoCAD Mechanical 2004 DX|Company: Autodesk"
 90
        0
 91
        0
280
     0
281
     0
  0
CLASS
  1
ACMSECTIONSTANDARDJIS
  2
AmdtSectionSymStdJIS
  3
"Amdt_StdImp|Product Description: AutoCAD Mechanical 2004 DX|Company: Autodesk"
 90
        0
 91
        0
280
     0
281
     0
  0
CLASS
  1
ACMCENTERLINESTANDARDJIS
  2
AmdtCenterLineStdJIS
  3
"Amdt_StdImp|Product Description: AutoCAD Mechanical 2004 DX|Company: Autodesk"
 90
        0
 91
        0
280
     0
281
     0
  0
CLASS
  1
ACMTHREADLINESTANDARDJIS
  2
AmdtThreadLineStdJIS
  3
"Amdt_StdImp|Product Description: AutoCAD Mechanical 2004 DX|Company: Autodesk"
 90
        0
 91
        0
280
     0
281
     0
  0
CLASS
  1
ACMDETAILSTANDARDANSI
  2
AmdtDetailSymStdANSI
  3
"Amdt_StdImp|Product Description: AutoCAD Mechanical 2004 DX|Company: Autodesk"
 90
        0
 91
        0
280
     0
281
     0
  0
CLASS
  1
ACMSECTIONSTANDARDANSI
  2
AmdtSectionSymStdANSI
  3
"Amdt_StdImp|Product Description: AutoCAD Mechanical 2004 DX|Company: Autodesk"
 90
        0
 91
        0
280
     0
281
     0
  0
CLASS
  1
ACMCENTERLINESTANDARDANSI
  2
AmdtCenterLineStdANSI
  3
"Amdt_StdImp|Product Description: AutoCAD Mechanical 2004 DX|Company: Autodesk"
 90
        0
 91
        0
280
     0
281
     0
  0
CLASS
  1
ACMTHREADLINESTANDARDANSI
  2
AmdtThreadLineStdANSI
  3
"Amdt_StdImp|Product Description: AutoCAD Mechanical 2004 DX|Company: Autodesk"
 90
        0
 91
        0
280
     0
281
     0
  0
CLASS
  1
ACMDETAILSTANDARDBSI
  2
AmdtDetailSymStdBSI
  3
"Amdt_StdImp|Product Description: AutoCAD Mechanical 2004 DX|Company: Autodesk"
 90
        0
 91
        0
280
     0
281
     0
  0
CLASS
  1
ACMSECTIONSTANDARDBSI
  2
AmdtSectionSymStdBSI
  3
"Amdt_StdImp|Product Description: AutoCAD Mechanical 2004 DX|Company: Autodesk"
 90
        0
 91
        0
280
     0
281
     0
  0
CLASS
  1
ACMCENTERLINESTANDARDBSI
  2
AmdtCenterLineStdBSI
  3
"Amdt_StdImp|Product Description: AutoCAD Mechanical 2004 DX|Company: Autodesk"
 90
        0
 91
        0
280
     0
281
     0
  0
CLASS
  1
ACMTHREADLINESTANDARDBSI
  2
AmdtThreadLineStdBSI
  3
"Amdt_StdImp|Product Description: AutoCAD Mechanical 2004 DX|Company: Autodesk"
 90
        0
 91
        0
280
     0
281
     0
  0
CLASS
  1
ACMDETAILSTANDARDDIN
  2
AmdtDetailSymStdDIN
  3
"Amdt_StdImp|Product Description: AutoCAD Mechanical 2004 DX|Company: Autodesk"
 90
        0
 91
        0
280
     0
281
     0
  0
CLASS
  1
ACMSECTIONSTANDARDDIN
  2
AmdtSectionSymStdDIN
  3
"Amdt_StdImp|Product Description: AutoCAD Mechanical 2004 DX|Company: Autodesk"
 90
        0
 91
        0
280
     0
281
     0
  0
CLASS
  1
ACMCENTERLINESTANDARDDIN
  2
AmdtCenterLineStdDIN
  3
"Amdt_StdImp|Product Description: AutoCAD Mechanical 2004 DX|Company: Autodesk"
 90
        0
 91
        0
280
     0
281
     0
  0
CLASS
  1
ACMTHREADLINESTANDARDDIN
  2
AmdtThreadLineStdDIN
  3
"Amdt_StdImp|Product Description: AutoCAD Mechanical 2004 DX|Company: Autodesk"
 90
        0
 91
        0
280
     0
281
     0
  0
CLASS
  1
AMDTEDGESTANDARDISO
  2
AmdtEdgeStdISO
  3
"Amdt_StdImp|Product Description: AutoCAD Mechanical 2004 DX|Company: Autodesk"
 90
        0
 91
        0
280
     0
281
     0
  0
CLASS
  1
ACMDETAILSTANDARDISO
  2
AmdtDetailSymStdISO
  3
"Amdt_StdImp|Product Description: AutoCAD Mechanical 2004 DX|Company: Autodesk"
 90
        0
 91
        1
280
     0
281
     0
  0
CLASS
  1
ACMSECTIONSTANDARDISO
  2
AmdtSectionSymStdISO
  3
"Amdt_StdImp|Product Description: AutoCAD Mechanical 2004 DX|Company: Autodesk"
 90
        0
 91
        1
280
     0
281
     0
  0
CLASS
  1
ACMCENTERLINESTANDARDISO
  2
AmdtCenterLineStdISO
  3
"Amdt_StdImp|Product Description: AutoCAD Mechanical 2004 DX|Company: Autodesk"
 90
        0
 91
        1
280
     0
281
     0
  0
CLASS
  1
ACMTHREADLINESTANDARDISO
  2
AmdtThreadLineStdISO
  3
"Amdt_StdImp|Product Description: AutoCAD Mechanical 2004 DX|Company: Autodesk"
 90
        0
 91
        1
280
     0
281
     0
  0
CLASS
  1
ACMNOTESTANDARDISO
  2
AmdtNoteStdISO
  3
"Amdt_StdImp|Product Description: AutoCAD Mechanical 2004 DX|Company: Autodesk"
 90
        0
 91
        1
280
     0
281
     0
  0
CLASS
  1
ACAMGHOLECHARTSTDISO
  2
AcAmgHoleChartStdISO
  3
ACMSYMBB_MODULE_NAME
 90
        0
 91
        1
280
     0
281
     0
  0
CLASS
  1
ACMNOTESTANDARDANSI
  2
AmdtNoteStdANSI
  3
"Amdt_StdImp|Product Description: AutoCAD Mechanical 2004 DX|Company: Autodesk"
 90
        0
 91
        0
280
     0
281
     0
  0
CLASS
  1
AMDTNOTETEMPLATEDB
  2
AmdtNoteTemplateDB
  3
AMDT_STDIMP_MODULE_NAME
 90
        0
 91
        5
280
     0
281
     0
  0
CLASS
  1
ACAMGHOLECHARTSTDANSI
  2
AcAmgHoleChartStdANSI
  3
ACMSYMBB_MODULE_NAME
 90
        0
 91
        0
280
     0
281
     0
  0
CLASS
  1
TABLESTYLE
  2
AcDbTableStyle
  3
ObjectDBX Classes
 90
     2047
 91
        1
280
     0
281
     0
  0
CLASS
  1
ACMBOM
  2
AcmBom
  3
"AcmSymBB|Product Description: AutoCAD Mechanical 2004 DX|Company: Autodesk"
 90
        0
 91
        0
280
     0
281
     0
  0
CLASS
  1
AMDTFORMULAUPDATEDISPATCHER
  2
AmdtFormulaUpdateDispatcher
  3
AcMeServices
 90
        0
 91
        0
280
     0
281
     0
  0
CLASS
  1
ACMPARTLIST
  2
AcmPartList
  3
"AcmSymBB|Product Description: AutoCAD Mechanical 2004 DX|Company: Autodesk"
 90
     1023
 91
        0
280
     0
281
     1
  0
CLASS
  1
VAACXREFPANELOBJECT
  2
VaAcXREFPanelObject
  3
VAAC_ADDIN
 90
        0
 91
        0
280
     1
281
     0
  0
CLASS
  1
VAACIMAGEINVENTORY
  2
VaAcImageInventory
  3
VAAC_ADDIN
 90
        0
 91
        0
280
     1
281
     0
  0
CLASS
  1
AMDTPERSON
  2
AmdtPerson
  3
AcAttribServices
 90
        0
 91
        0
280
     0
281
     0
  0
CLASS
  1
ACRFMCADAPIATTHOLDER
  2
AcRfMCADAPIAttHolder
  3
AcAttribServices
 90
        0
 91
        0
280
     0
281
     0
  0
CLASS
  1
AMDTORGANIZATION
  2
AmdtOrganization
  3
AcAttribServices
 90
        0
 91
        0
280
     0
281
     0
  0
CLASS
  1
AMDTPERSONANDORGANIZATION
  2
AmdtPersonAndOrganization
  3
AcAttribServices
 90
        0
 91
        0
280
     0
281
     0
  0
CLASS
  1
AMDTPROPERTYDEFINITION
  2
AmdtPropertyDefinition
  3
AcAttribServices
 90
        0
 91
        0
280
     0
281
     0
  0
CLASS
  1
AMDTAPPROVALPERSONORGANIZATION
  2
AmdtApprovalPersonOrganization
  3
AcAttribServices
 90
        0
 91
        0
280
     0
281
     0
  0
CLASS
  1
AMDTDATEANDTIME
  2
AmdtDateAndTime
  3
AcAttribServices
 90
        0
 91
        0
280
     0
281
     0
  0
CLASS
  1
AMDTPRODUCTCATEGORY
  2
AmdtProductCategory
  3
AcAttribServices
 90
        0
 91
        0
280
     0
281
     0
  0
CLASS
  1
AMDTPRODUCTCATEGORYRELATIONSHIP
  2
AmdtProductCategoryRelationship
  3
AcAttribServices
 90
        0
 91
        0
280
     0
281
     0
  0
CLASS
  1
AMDTAPPROVAL
  2
AmdtApproval
  3
AcAttribServices
 90
        0
 91
        0
280
     0
281
     0
  0
CLASS
  1
AMDTDATEANDTIMEASSIGNMENT
  2
AmdtDateAndTimeAssignment
  3
AcAttribServices
 90
        0
 91
        0
280
     0
281
     0
  0
CLASS
  1
AMDTPERSONANDORGANIZATIONASSIGNMENT
  2
AmdtPersonAndOrganizationAssignment
  3
AcAttribServices
 90
        0
 91
        0
280
     0
281
     0
  0
CLASS
  1
AMDTSECURITYCLASSIFICATION
  2
AmdtSecurityClassification
  3
AcAttribServices
 90
        0
 91
        0
280
     0
281
     0
  0
CLASS
  1
AMDTPRODUCTDEFINITION
  2
AmdtProductDefinition
  3
AcAttribServices
 90
        0
 91
        0
280
     0
281
     0
  0
CLASS
  1
AMDTPRODUCTDEFINITIONFORMATION
  2
AmdtProductDefinitionFormation
  3
AcAttribServices
 90
        0
 91
        0
280
     0
281
     0
  0
CLASS
  1
AMDTPRODUCT
  2
AmdtProduct
  3
AcAttribServices
 90
        0
 91
        0
280
     0
281
     0
  0
CLASS
  1
ADPART
  2
AcAdPart
  3
DesignerServices
 90
        0
 91
        0
280
     0
281
     1
  0
CLASS
  1
ADBASE
  2
AcAdBase
  3
DesignerServices
 90
        0
 91
        0
280
     0
281
     0
  0
CLASS
  1
BODYID
  2
AcAdBodyId
  3
DesignerServices
 90
        0
 91
        0
280
     0
281
     0
  0
CLASS
  1
WORKPLANEDISPLAYMGR
  2
AcAdDisplayMgr
  3
DesignerServices
 90
        0
 91
        0
280
     0
281
     0
  0
CLASS
  1
ACCMBODY
  2
AcCmBody
  3
DesignerAssemblies
 90
        0
 91
        0
280
     0
281
     0
  0
CLASS
  1
ACAMCOMPENT
  2
AcAmCompEnt
  3
DesignerAssemblies
 90
        0
 91
        0
280
     0
281
     1
  0
CLASS
  1
ACAMCOMPFEEDBACK
  2
AcAmCompFeedback
  3
DesignerAssemblies
 90
        0
 91
        0
280
     0
281
     0
  0
CLASS
  1
ACAMCOMP
  2
AcAmComp
  3
DesignerAssemblies
 90
        0
 91
        0
280
     0
281
     0
  0
CLASS
  1
ACAMCOMPENTCLONE
  2
AcAmCompEntClone
  3
DesignerAssemblies
 90
        0
 91
        0
280
     0
281
     1
  0
CLASS
  1
ACAMCLONEREACTOR
  2
AcAmGrCompCloneReactor
  3
DesignerAssemblies
 90
        0
 91
        0
280
     0
281
     0
  0
CLASS
  1
ACRFATTGENMGR
  2
AcRfAttGeneralMgr
  3
AcAttribServices
 90
        0
 91
        0
280
     0
281
     0
  0
CLASS
  1
ACRFOBJATTMGR
  2
AcRfObjAttGroupMgr
  3
AcAttribServices
 90
        0
 91
        0
280
     0
281
     0
  0
CLASS
  1
ACAMCLONECHILDREACTOR
  2
AcAmGrCloneChildReactor
  3
DesignerAssemblies
 90
        0
 91
        0
280
     0
281
     0
  0
CLASS
  1
ACAMVIEWREACTOR
  2
AcAmViewReactor
  3
DesignerAssemblies
 90
        0
 91
        0
280
     0
281
     0
  0
CLASS
  1
AMVIEW
  2
AcAmView
  3
DesignerAssemblies
 90
        0
 91
        0
280
     0
281
     0
  0
CLASS
  1
ACAMVIEWCONTEXT
  2
AcAmViewContext
  3
DesignerAssemblies
 90
        0
 91
        0
280
     0
281
     0
  0
CLASS
  1
ACAMCOMPENTVIEW
  2
AcAmCompEntView
  3
DesignerAssemblies
 90
        0
 91
        0
280
     0
281
     1
  0
CLASS
  1
ACAMCOMPVIEWREACTOR
  2
AcAmGrCompViewReactor
  3
DesignerAssemblies
 90
        0
 91
        0
280
     0
281
     0
  0
CLASS
  1
ACAMVIEWENTITYFILTER
  2
AcAmViewEntityFilter
  3
DesignerAssemblies
 90
        0
 91
        0
280
     0
281
     0
  0
CLASS
  1
FACEID
  2
AcAdFaceId
  3
DesignerServices
 90
        0
 91
        0
280
     0
281
     0
  0
CLASS
  1
ACADPARTPLANARFACERES
  2
AcAdPartPlanarFaceRes
  3
AdGrefServices
 90
        0
 91
        0
280
     0
281
     0
  0
CLASS
  1
ACRFINSADJ
  2
AcRfInsAdjuster
  3
AcMeServices
 90
        0
 91
        0
280
     0
281
     0
  0
CLASS
  1
AM_GREF_PLANE
  2
AcDmGrefPlnDef
  3
AcMechDwgViewMgmt
 90
        0
 91
        0
280
     0
281
     0
  0
CLASS
  1
AM_ABS_AXIS
  2
AcDmAbsAxisDef
  3
AcMechDwgViewMgmt
 90
        0
 91
        0
280
     0
281
     0
  0
CLASS
  1
AM_BASE_VIEW_ORIENT
  2
AcDmBaseViewOr
  3
AcMechDwgViewMgmt
 90
        0
 91
        0
280
     0
281
     0
  0
CLASS
  1
ACMELINEARARROW
  2
AcImLinearArrowDisplay
  3
AcMeServices
 90
        0
 91
        0
280
     0
281
     1
  0
CLASS
  1
AM_DWG_VIEWPORT
  2
AcDmViewport
  3
AcMechDwgViewMgmt
 90
        0
 91
        0
280
     0
281
     0
  0
CLASS
  1
AM_VIEW_DISPLAY
  2
AcDmDwgViewDisplay
  3
AcMechDwgViewMgmt
 90
        0
 91
        0
280
     0
281
     0
  0
CLASS
  1
AM_CLDFLTS
  2
AcDmClDflts
  3
AcMechDwgViewMgmt
 90
        0
 91
        0
280
     0
281
     0
  0
CLASS
  1
AM_BASE_VIEW
  2
AcDmBaseView
  3
AcMechDwgViewMgmt
 90
        0
 91
        0
280
     0
281
     0
  0
CLASS
  1
ACMEPLINE
  2
AcImPlineDisplay
  3
AcMeServices
 90
        0
 91
        0
280
     0
281
     1
  0
CLASS
  1
ACDMPARTVIEWDATA
  2
AcDmPartViewData
  3
AcMechDwgViewMgmt
 90
        0
 91
        0
280
     0
281
     0
  0
CLASS
  1
ACDMDISPLAYATTRIBS
  2
AcDmDisplayAttribs
  3
AcMechDwgViewMgmt
 90
        0
 91
        0
280
     0
281
     0
  0
CLASS
  1
ACDMBODYINSTANCEDATA
  2
AcDmBodyInstanceData
  3
AcMechDwgViewMgmt
 90
        0
 91
        0
280
     0
281
     0
  0
CLASS
  1
ACDMVWEDLINE
  2
AcDmViewEdgeLine
  3
AcMechDwgViewMgmt
 90
        0
 91
        0
280
     0
281
     1
  0
CLASS
  1
ACDMVWEDSPLINE
  2
AcDmViewEdgeSpline
  3
AcMechDwgViewMgmt
 90
        0
 91
        0
280
     0
281
     1
  0
CLASS
  1
ACDMVWEDARC
  2
AcDmViewEdgeArc
  3
AcMechDwgViewMgmt
 90
        0
 91
        0
280
     0
281
     1
  0
CLASS
  1
AM_ORTHO_VIEW_ORIENT
  2
AcDmOrthoViewOr
  3
AcMechDwgViewMgmt
 90
        0
 91
        0
280
     0
281
     0
  0
CLASS
  1
AM_ORTHO_VIEW
  2
AcDmOrthoView
  3
AcMechDwgViewMgmt
 90
        0
 91
        0
280
     0
281
     0
  0
CLASS
  1
AMDTEDGESTANDARDISO13715
  2
AmdtEdgeStdISO13715
  3
"Amdt_StdImp|Product Description: AutoCAD Mechanical 2004 DX|Company: Autodesk"
 90
        0
 91
        1
280
     0
281
     0
  0
CLASS
  1
SORTENTSTABLE
  2
AcDbSortentsTable
  3
ObjectDBX Classes
 90
        0
 91
        1
280
     0
281
     0
  0
ENDSEC
  0
SECTION
  2
TABLES
  0
TABLE
  2
VPORT
  5
1E
330
0
100
AcDbSymbolTable
 70
     1
  0
VPORT
  5
1F
330
1E
100
AcDbSymbolTableRecord
100
AcDbViewportTableRecord
  2
*Active
 70
     0
 10
0.0
 20
0.0
 11
1.0
 21
1.0
 12
0.0
 22
0.0
 13
0.0
 23
0.0
 14
2.5
 24
2.5
 15
10.0
 25
10.0
 16
0.0
 26
0.0
 36
1.0
 17
0.0
 27
0.0
 37
0.0
 40
2.000000000000000E+20
 41
1.0
 42
50.0
 43
0.0
 44
0.0
 50
0.0
 51
0.0
 71
     0
 72
   100
 73
     1
 74
     1
 75
     0
 76
     0
 77
     0
 78
     0
281
     0
 65
     0
110
0.0
120
0.0
130
0.0
111
1.0
121
0.0
131
0.0
112
0.0
122
1.0
132
0.0
 79
     0
146
0.0
  0
ENDTAB
  0
TABLE
  2
LTYPE
  5
19
330
0
100
AcDbSymbolTable
 70
    16
  0
LTYPE
  5
1A
330
19
100
AcDbSymbolTableRecord
100
AcDbLinetypeTableRecord
  2
BYBLOCK
 70
     0
  3

 72
    65
 73
     0
 40
0.0
  0
LTYPE
  5
1B
330
19
100
AcDbSymbolTableRecord
100
AcDbLinetypeTableRecord
  2
BYLAYER
 70
     0
  3

 72
    65
 73
     0
 40
0.0
  0
LTYPE
  5
9
330
19
100
AcDbSymbolTableRecord
100
AcDbLinetypeTableRecord
  2
CONTINUOUS
 70
     0
  3
Solid line
 72
    65
 73
     0
 40
0.0
  0
LTYPE
  5
1F7
330
19
100
AcDbSymbolTableRecord
100
AcDbLinetypeTableRecord
  2
HIDDEN
 70
     0
  3
Hidden __ __ __ __ __ __ __ __ __ __ __ __ __ _
 72
    65
 73
     2
 40
9.524999999999998
 49
6.349999999999999
 74
     0
 49
-3.174999999999999
 74
     0
  0
LTYPE
  5
1F8
330
19
100
AcDbSymbolTableRecord
100
AcDbLinetypeTableRecord
  2
PHANTOM2
 70
     0
  3
Phantom (.5x) ___ _ _ ___ _ _ ___ _ _ ___ _ _
 72
    65
 73
     6
 40
31.75
 49
15.875
 74
     0
 49
-3.174999999999999
 74
     0
 49
3.174999999999999
 74
     0
 49
-3.174999999999999
 74
     0
 49
3.174999999999999
 74
     0
 49
-3.174999999999999
 74
     0
  0
LTYPE
  5
1F9
330
19
100
AcDbSymbolTableRecord
100
AcDbLinetypeTableRecord
  2
CENTER
 70
     0
  3
Center ____ _ ____ _ ____ _ ____ _ ____ _ ____
 72
    65
 73
     4
 40
50.8
 49
31.75
 74
     0
 49
-6.349999999999999
 74
     0
 49
6.349999999999999
 74
     0
 49
-6.349999999999999
 74
     0
  0
LTYPE
  5
22D
330
19
100
AcDbSymbolTableRecord
100
AcDbLinetypeTableRecord
  2
AM_ISO02W050
 70
     0
  3
__ __ __ __ __ __ __ __ __ __ __ __ __ __ __
 72
    65
 73
     2
 40
7.5
 49
6.0
 74
     0
 49
-1.5
 74
     0
  0
LTYPE
  5
22E
330
19
100
AcDbSymbolTableRecord
100
AcDbLinetypeTableRecord
  2
AM_ISO08W050
 70
     0
  3
____ . ____ . ____ . ____ . ____ . ____ . ____
 72
    65
 73
     4
 40
18.0
 49
12.0
 74
     0
 49
-1.5
 74
     0
 49
3.0
 74
     0
 49
-1.5
 74
     0
  0
LTYPE
  5
22F
330
19
100
AcDbSymbolTableRecord
100
AcDbLinetypeTableRecord
  2
AM_ISO09W050
 70
     0
  3
_____ . . _____ . . _____ . . ____ .. ____
 72
    65
 73
     6
 40
22.5
 49
12.0
 74
     0
 49
-1.5
 74
     0
 49
3.0
 74
     0
 49
-1.5
 74
     0
 49
3.0
 74
     0
 49
-1.5
 74
     0
  0
LTYPE
  5
230
330
19
100
AcDbSymbolTableRecord
100
AcDbLinetypeTableRecord
  2
Amconstr
 70
     0
  3
_______________________
 72
    65
 73
     2
 40
9999.0
 49
9999.0
 74
     0
 49
0.0
 74
     0
  0
LTYPE
  5
231
330
19
100
AcDbSymbolTableRecord
100
AcDbLinetypeTableRecord
  2
AM_ISO08W050x2
 70
     0
  3
__ . __ . __ . __ . __ . __
 72
    65
 73
     4
 40
9.0
 49
6.0
 74
     0
 49
-0.75
 74
     0
 49
1.5
 74
     0
 49
-0.75
 74
     0
  0
LTYPE
  5
232
330
19
100
AcDbSymbolTableRecord
100
AcDbLinetypeTableRecord
  2
AM_ISO02W050x2
 70
     0
  3
 _ _ _ _ _ _ _ _ _ _ _ _
 72
    65
 73
     2
 40
3.75
 49
3.0
 74
     0
 49
-0.75
 74
     0
  0
LTYPE
  5
235
330
19
100
AcDbSymbolTableRecord
100
AcDbLinetypeTableRecord
  2
Amzigzag
 70
     0
  3
/\/-/\/-/\/-/\/-/\/-/\/
 72
    65
 73
     2
 40
11.0001
 49
0.0001
 74
     4
 75
   135
340
234
 46
0.04
 50
0.0
 44
0.0
 45
0.0
 49
-11.0
 74
     0
  0
LTYPE
  5
244
330
19
100
AcDbSymbolTableRecord
100
AcDbLinetypeTableRecord
  2
ACISOWELD
 70
     0
  3
_ _ _ _ _
 72
    65
 73
     2
 40
2.0
 49
2.0
 74
     0
 49
-1.0
 74
     0
  0
LTYPE
  5
245
330
19
100
AcDbSymbolTableRecord
100
AcDbLinetypeTableRecord
  2
ACISOTGB
 70
     0
  3
__ . . __ . .
 72
    65
 73
     6
 40
9.0
 49
4.0
 74
     0
 49
-1.0
 74
     0
 49
1.0
 74
     0
 49
-1.0
 74
     0
 49
1.0
 74
     0
 49
-1.0
 74
     0
  0
LTYPE
  5
246
330
19
100
AcDbSymbolTableRecord
100
AcDbLinetypeTableRecord
  2
ACISOTGL
 70
     0
  3
_ _ _ _ _
 72
    65
 73
     2
 40
3.0
 49
2.0
 74
     0
 49
-1.0
 74
     0
  0
LTYPE
  5
ACC
330
19
100
AcDbSymbolTableRecord
100
AcDbLinetypeTableRecord
  2
ASULTYPE
 70
     0
  3
實線
 72
    65
 73
     2
 40
3.0
 49
2.5
 74
     0
 49
0.5
 74
     0
  0
LTYPE
  5
ACD
330
19
100
AcDbSymbolTableRecord
100
AcDbLinetypeTableRecord
  2
ASVLTYPE
 70
     0
  3
__ __ __ __ __ __ __ __ __ __ __ __ __ __ __ __ __ __ __ __ __
 72
    65
 73
     2
 40
0.75
 49
0.5
 74
     0
 49
-0.25
 74
     0
  0
ENDTAB
  0
TABLE
  2
LAYER
  5
13
102
{ACAD_XDICTIONARY
360
14
102
}
330
0
100
AcDbSymbolTable
 70
     7
  0
LAYER
  5
5
330
13
100
AcDbSymbolTableRecord
100
AcDbLayerTableRecord
  2
0
 70
     0
 62
     7
  6
CONTINUOUS
370
    -3
390
6
  0
LAYER
  5
3E
330
13
100
AcDbSymbolTableRecord
100
AcDbLayerTableRecord
  2
AM_VIS
 70
     0
 62
     7
  6
CONTINUOUS
370
    50
390
6
  0
LAYER
  5
27A
330
13
100
AcDbSymbolTableRecord
100
AcDbLayerTableRecord
  2
LOGO
 70
     0
 62
     7
  6
CONTINUOUS
370
    -3
390
6
  0
LAYER
  5
36F
330
13
100
AcDbSymbolTableRecord
100
AcDbLayerTableRecord
  2
AM_5
 70
     0
 62
     5
  6
CONTINUOUS
370
    50
390
6
  0
LAYER
  5
371
330
13
100
AcDbSymbolTableRecord
100
AcDbLayerTableRecord
  2
Defpoints
 70
     0
 62
     7
  6
CONTINUOUS
290
     0
370
    -3
390
6
  0
LAYER
  5
4CB
330
13
100
AcDbSymbolTableRecord
100
AcDbLayerTableRecord
  2
AM_7
 70
     0
 62
     1
  6
AM_ISO08W050x2
370
    25
390
6
  0
LAYER
  5
556
330
13
100
AcDbSymbolTableRecord
100
AcDbLayerTableRecord
  2
HIDDEN
 70
     0
 62
     3
  6
AM_ISO02W050x2
370
    -3
390
6
1001
AcAecLayerStandard
1000

1000

  0
ENDTAB
  0
TABLE
  2
STYLE
  5
16
330
0
100
AcDbSymbolTable
 70
     5
  0
STYLE
  5
17
330
16
100
AcDbSymbolTableRecord
100
AcDbTextStyleTableRecord
  2
STANDARD
 70
     0
 40
0.0
 41
1.0
 50
0.0
 71
     0
 42
1.0
  3
ISOCP.SHX
  4
CHINESET.SHX
  0
STYLE
  5
234
330
16
100
AcDbSymbolTableRecord
100
AcDbTextStyleTableRecord
  2

 70
     1
 40
0.0
 41
1.0
 50
0.0
 71
     0
 42
1.0
  3
ltypeshp.shx
  4

  0
STYLE
  5
236
330
16
100
AcDbSymbolTableRecord
100
AcDbTextStyleTableRecord
  2
ACISOTS
 70
     0
 40
1.0
 41
1.0
 50
0.0
 71
     0
 42
1.0
  3
isocp.shx
  4
chineset.shx
  0
STYLE
  5
243
330
16
100
AcDbSymbolTableRecord
100
AcDbTextStyleTableRecord
  2
ACISOGDT
 70
     0
 40
0.0
 41
1.0
 50
0.0
 71
     0
 42
1.0
  3
amgdt.shx
  4

  0
STYLE
  5
27B
330
16
100
AcDbSymbolTableRecord
100
AcDbTextStyleTableRecord
  2
CHINESET
 70
     0
 40
0.0
 41
1.0
 50
0.0
 71
     0
 42
1.0
  3
simplex
  4
CHINESET.SHX
  0
ENDTAB
  0
TABLE
  2
VIEW
  5
1C
330
0
100
AcDbSymbolTable
 70
     0
  0
ENDTAB
  0
TABLE
  2
UCS
  5
1D
330
0
100
AcDbSymbolTable
 70
     0
  0
ENDTAB
  0
TABLE
  2
APPID
  5
20
330
0
100
AcDbSymbolTable
 70
    26
  0
APPID
  5
21
330
20
100
AcDbSymbolTableRecord
100
AcDbRegAppTableRecord
  2
ACAD
 70
     0
  0
APPID
  5
1CA
330
20
100
AcDbSymbolTableRecord
100
AcDbRegAppTableRecord
  2
MCAD_NO_VIS
 70
     0
  0
APPID
  5
1CB
330
20
100
AcDbSymbolTableRecord
100
AcDbRegAppTableRecord
  2
ACAD_TEMP_GRAPHIC
 70
     0
  0
APPID
  5
1FB
330
20
100
AcDbSymbolTableRecord
100
AcDbRegAppTableRecord
  2
AD_DRAW
 70
     0
  0
APPID
  5
1FE
330
20
100
AcDbSymbolTableRecord
100
AcDbRegAppTableRecord
  2
ACATTRIBSERVICES
 70
     0
  0
APPID
  5
21C
330
20
100
AcDbSymbolTableRecord
100
AcDbRegAppTableRecord
  2
DESIGNERASSEMBLIES
 70
     0
  0
APPID
  5
222
330
20
100
AcDbSymbolTableRecord
100
AcDbRegAppTableRecord
  2
ACADM_DIM_EDIT
 70
     0
  0
APPID
  5
223
330
20
100
AcDbSymbolTableRecord
100
AcDbRegAppTableRecord
  2
AMDT_DM_ADJ
 70
     0
  0
APPID
  5
265
330
20
100
AcDbSymbolTableRecord
100
AcDbRegAppTableRecord
  2
ACAD_PSEXT
 70
     0
  0
APPID
  5
27D
330
20
100
AcDbSymbolTableRecord
100
AcDbRegAppTableRecord
  2
GENIUS_GENOBJ-N-CRS_13
 70
     0
  0
APPID
  5
27E
330
20
100
AcDbSymbolTableRecord
100
AcDbRegAppTableRecord
  2
GENIUS_GENOLIS_13
 70
     0
  0
APPID
  5
27F
330
20
100
AcDbSymbolTableRecord
100
AcDbRegAppTableRecord
  2
GENIUS_GENOENT_13
 70
     0
  0
APPID
  5
280
330
20
100
AcDbSymbolTableRecord
100
AcDbRegAppTableRecord
  2
GENIUS_GENODEF_13
 70
     0
  0
APPID
  5
281
330
20
100
AcDbSymbolTableRecord
100
AcDbRegAppTableRecord
  2
GENIUS_GENOREF_13
 70
     0
  0
APPID
  5
282
330
20
100
AcDbSymbolTableRecord
100
AcDbRegAppTableRecord
  2
GENIUS_GENREC_14
 70
     0
  0
APPID
  5
283
330
20
100
AcDbSymbolTableRecord
100
AcDbRegAppTableRecord
  2
GENIUS_GENOBJ-N-REC_13
 70
     0
  0
APPID
  5
387
330
20
100
AcDbSymbolTableRecord
100
AcDbRegAppTableRecord
  2
ACAD_DSTYLE_DIMTEXT_FILL
 70
     0
  0
APPID
  5
4CD
330
20
100
AcDbSymbolTableRecord
100
AcDbRegAppTableRecord
  2
GENIUS_GENOBJ-N-CEN_13
 70
     0
  0
APPID
  5
4CE
330
20
100
AcDbSymbolTableRecord
100
AcDbRegAppTableRecord
  2
GENIUS_GENCEN_19
 70
     0
  0
APPID
  5
535
330
20
100
AcDbSymbolTableRecord
100
AcDbRegAppTableRecord
  2
GENIUS_GENDIMSH_14
 70
     0
  0
APPID
  5
551
330
20
100
AcDbSymbolTableRecord
100
AcDbRegAppTableRecord
  2
AcAecLayerStandard
 70
     0
  0
APPID
  5
573
330
20
100
AcDbSymbolTableRecord
100
AcDbRegAppTableRecord
  2
GENIUS_GENDTOL_13
 70
     0
  0
APPID
  5
A4F
330
20
100
AcDbSymbolTableRecord
100
AcDbRegAppTableRecord
  2
GENIUS_GENDIM_13
 70
     0
  0
APPID
  5
A50
330
20
100
AcDbSymbolTableRecord
100
AcDbRegAppTableRecord
  2
GENIUS_GE3DTOL_13
 70
     0
  0
APPID
  5
ACE
330
20
100
AcDbSymbolTableRecord
100
AcDbRegAppTableRecord
  2
ASURF_PCURVE_APPNAME
 70
     0
  0
APPID
  5
AD3
330
20
100
AcDbSymbolTableRecord
100
AcDbRegAppTableRecord
  2
AMG_3D2D_5.0
 70
     0
  0
ENDTAB
  0
TABLE
  2
DIMSTYLE
  5
22
330
0
100
AcDbSymbolTable
 70
     8
100
AcDbDimStyleTable
 71
     3
340
23
340
24
340
25
  0
DIMSTYLE
105
23
330
22
100
AcDbSymbolTableRecord
100
AcDbDimStyleTableRecord
  2
AM_ISO
 70
     0
  4
"
 41
3.0
 42
1.0
 43
8.0
 44
1.0
 47
0.1
 48
0.1
 73
     0
 74
     0
 77
     1
 78
     8
 79
     2
140
3.5
141
0.0
143
0.0393701
146
0.71
147
1.0
172
     1
176
   256
177
   256
178
   256
271
     2
272
     2
283
     0
284
     8
285
     8
340
17
371
    -1
372
    -1
  0
DIMSTYLE
105
24
330
22
100
AcDbSymbolTableRecord
100
AcDbDimStyleTableRecord
  2
AM_ISO$SF
 70
     0
  4
"
 41
2.5
 42
1.0
 43
10.0
 44
1.0
 47
0.1
 48
0.1
 73
     0
 74
     0
 75
     1
 76
     1
 77
     1
 78
     8
 79
     2
140
3.5
141
0.0
143
0.0393701
146
0.71
147
1.0
172
     1
176
   256
177
   256
178
   256
271
     2
272
     2
283
     0
284
     8
340
17
371
    -1
372
    -1
  0
DIMSTYLE
105
25
330
22
100
AcDbSymbolTableRecord
100
AcDbDimStyleTableRecord
  2
AM_ISO$SH
 70
     0
  4
"
 41
2.5
 42
1.0
 43
10.0
 44
1.0
 47
0.1
 48
0.1
 73
     0
 74
     0
 75
     1
 76
     1
 77
     1
 78
     8
 79
     2
140
3.5
141
0.0
143
0.0393701
144
2.0
146
0.71
147
1.0
172
     1
173
     1
176
   256
177
   256
178
   256
271
     2
272
     2
283
     0
284
     8
340
17
343
26
371
    -1
372
    -1
  0
DIMSTYLE
105
24F
102
{ACAD_REACTORS
330
822
102
}
330
22
100
AcDbSymbolTableRecord
100
AcDbDimStyleTableRecord
  2
AM_ISO$3
 70
     0
  4
"
 41
3.0
 42
1.0
 43
8.0
 44
1.0
 47
0.1
 48
0.1
 73
     0
 77
     1
 78
     8
 79
     2
140
3.5
141
0.0
143
0.0393701
146
0.71
147
1.0
176
   256
177
   256
178
   256
271
     2
272
     2
283
     0
284
     8
285
     8
288
     1
289
     0
340
17
371
    -1
372
    -1
  0
DIMSTYLE
105
250
102
{ACAD_REACTORS
330
689
330
6ED
102
}
330
22
100
AcDbSymbolTableRecord
100
AcDbDimStyleTableRecord
  2
AM_ISO$4
 70
     0
  4
"
 41
3.0
 42
1.0
 43
8.0
 44
1.0
 47
0.1
 48
0.1
 73
     0
 77
     1
 78
     8
 79
     2
140
3.5
141
0.0
143
0.0393701
146
0.71
147
1.0
176
   256
177
   256
178
   256
271
     2
272
     2
283
     0
284
     8
285
     8
288
     1
289
     0
340
17
371
    -1
372
    -1
  0
DIMSTYLE
105
251
330
22
100
AcDbSymbolTableRecord
100
AcDbDimStyleTableRecord
  2
AM_ISO$6
 70
     0
  4
"
 41
3.0
 42
1.0
 43
8.0
 44
1.0
 47
0.1
 48
0.1
 73
     0
 74
     0
 78
     8
 79
     2
140
3.5
141
0.0
143
0.0393701
146
0.71
147
1.0
172
     1
176
   256
177
   256
178
   256
271
     2
272
     2
283
     0
284
     8
285
     8
340
17
371
    -1
372
    -1
  0
DIMSTYLE
105
252
102
{ACAD_REACTORS
330
7DB
102
}
330
22
100
AcDbSymbolTableRecord
100
AcDbDimStyleTableRecord
  2
AM_ISO$7
 70
     0
  4
"
 41
3.0
 42
1.0
 43
8.0
 44
1.0
 47
0.1
 48
0.1
 73
     0
 74
     0
 77
     1
 78
     8
 79
     2
140
3.5
141
0.0
143
0.0393701
146
0.71
147
1.5
172
     1
176
   256
177
   256
178
   256
271
     2
272
     2
283
     0
284
     8
285
     8
340
17
371
    -1
372
    -1
  0
DIMSTYLE
105
27C
102
{ACAD_REACTORS
330
4B5
330
500
330
51F
330
536
330
55D
330
5A0
330
5B6
330
5E2
330
62B
330
709
330
728
102
}
330
22
100
AcDbSymbolTableRecord
100
AcDbDimStyleTableRecord
  2
AM_ISO$0
 70
     0
  4
"
 40
2.0
 41
3.0
 42
1.0
 43
10.0
 44
1.0
 47
0.1
 48
0.1
 73
     0
 74
     0
 77
     1
 78
     8
 79
     2
140
3.5
141
0.0
143
0.0393701
146
0.71
147
1.0
172
     1
176
   256
177
   256
178
   256
271
     2
272
     2
283
     0
284
     8
285
     8
340
17
371
    -1
372
    -1
  0
ENDTAB
  0
TABLE
  2
BLOCK_RECORD
  5
1
330
0
100
AcDbSymbolTable
 70
    16
  0
BLOCK_RECORD
  5
2
102
{ACAD_XDICTIONARY
360
3
102
}
330
1
100
AcDbSymbolTableRecord
100
AcDbBlockTableRecord
  2
*MODEL_SPACE
340
B
  0
BLOCK_RECORD
  5
D
102
{ACAD_XDICTIONARY
360
268
102
}
330
1
100
AcDbSymbolTableRecord
100
AcDbBlockTableRecord
  2
*PAPER_SPACE
340
10
  0
BLOCK_RECORD
  5
26
330
1
100
AcDbSymbolTableRecord
100
AcDbBlockTableRecord
  2
GENAXEH
340
0
  0
BLOCK_RECORD
  5
4B6
330
1
100
AcDbSymbolTableRecord
100
AcDbBlockTableRecord
  2
*D1
340
0
  0
BLOCK_RECORD
  5
501
330
1
100
AcDbSymbolTableRecord
100
AcDbBlockTableRecord
  2
*D2
340
0
  0
BLOCK_RECORD
  5
520
330
1
100
AcDbSymbolTableRecord
100
AcDbBlockTableRecord
  2
*D3
340
0
  0
BLOCK_RECORD
  5
537
330
1
100
AcDbSymbolTableRecord
100
AcDbBlockTableRecord
  2
*D4
340
0
  0
BLOCK_RECORD
  5
55E
330
1
100
AcDbSymbolTableRecord
100
AcDbBlockTableRecord
  2
*D5
340
0
  0
BLOCK_RECORD
  5
5A1
330
1
100
AcDbSymbolTableRecord
100
AcDbBlockTableRecord
  2
*D6
340
0
  0
BLOCK_RECORD
  5
5B7
330
1
100
AcDbSymbolTableRecord
100
AcDbBlockTableRecord
  2
*D7
340
0
  0
BLOCK_RECORD
  5
5E3
330
1
100
AcDbSymbolTableRecord
100
AcDbBlockTableRecord
  2
*D8
340
0
  0
BLOCK_RECORD
  5
62C
330
1
100
AcDbSymbolTableRecord
100
AcDbBlockTableRecord
  2
*D9
340
0
  0
BLOCK_RECORD
  5
68A
330
1
100
AcDbSymbolTableRecord
100
AcDbBlockTableRecord
  2
*D10
340
0
  0
BLOCK_RECORD
  5
6EE
330
1
100
AcDbSymbolTableRecord
100
AcDbBlockTableRecord
  2
*D11
340
0
  0
BLOCK_RECORD
  5
70A
330
1
100
AcDbSymbolTableRecord
100
AcDbBlockTableRecord
  2
*D12
340
0
  0
BLOCK_RECORD
  5
729
330
1
100
AcDbSymbolTableRecord
100
AcDbBlockTableRecord
  2
*D13
340
0
  0
BLOCK_RECORD
  5
823
330
1
100
AcDbSymbolTableRecord
100
AcDbBlockTableRecord
  2
*D14
340
0
  0
BLOCK_RECORD
  5
AF9
330
1
100
AcDbSymbolTableRecord
100
AcDbBlockTableRecord
  2
*U15
340
0
  0
ENDTAB
  0
ENDSEC
  0
SECTION
  2
BLOCKS
  0
BLOCK
  5
4
330
2
100
AcDbEntity
  8
0
100
AcDbBlockBegin
  2
*MODEL_SPACE
 70
     0
 10
0.0
 20
0.0
 30
0.0
  3
*MODEL_SPACE
  1

  0
ENDBLK
  5
A
330
2
100
AcDbEntity
  8
0
100
AcDbBlockEnd
  0
BLOCK
  5
E
330
D
100
AcDbEntity
 67
     1
  8
0
100
AcDbBlockBegin
  2
*PAPER_SPACE
 70
     0
 10
0.0
 20
0.0
 30
0.0
  3
*PAPER_SPACE
  1

  0
ENDBLK
  5
F
330
D
100
AcDbEntity
 67
     1
  8
0
100
AcDbBlockEnd
  0
BLOCK
  5
27
330
26
100
AcDbEntity
  8
0
100
AcDbBlockBegin
  2
GENAXEH
 70
     0
 10
0.0
 20
0.0
 30
0.0
  3
GENAXEH
  1

  0
LINE
  5
28
330
26
100
AcDbEntity
  8
0
100
AcDbLine
 10
-1.0
 20
0.0
 30
0.0
 11
1.0
 21
0.0
 31
0.0
  0
ENDBLK
  5
29
330
26
100
AcDbEntity
  8
0
100
AcDbBlockEnd
  0
BLOCK
  5
4C0
330
4B6
100
AcDbEntity
  8
0
100
AcDbBlockBegin
  2
*D1
 70
     1
 10
0.0
 20
0.0
 30
0.0
  3
*D1
  1

  0
LINE
  5
762
330
4B6
100
AcDbEntity
  8
AM_5
100
AcDbLine
 10
27.23404927665145
 20
82.657201860645
 30
0.0
 11
27.23404927665145
 21
67.5436751562852
 31
0.0
  0
LINE
  5
763
330
4B6
100
AcDbEntity
  8
AM_5
100
AcDbLine
 10
74.23404927665146
 20
82.65720186064505
 30
0.0
 11
74.23404927665146
 21
67.5436751562852
 31
0.0
  0
LINE
  5
764
330
4B6
100
AcDbEntity
  8
AM_5
100
AcDbLine
 10
29.23404927665145
 20
68.21034182295187
 30
0.0
 11
72.23404927665146
 21
68.21034182295187
 31
0.0
  0
SOLID
  5
765
330
4B6
100
AcDbEntity
  8
AM_5
100
AcDbTrace
 10
29.23404927665145
 20
68.54367515628521
 30
0.0
 11
29.23404927665145
 21
67.87700848961854
 31
0.0
 12
27.23404927665145
 22
68.21034182295187
 32
0.0
 13
27.23404927665145
 23
68.21034182295187
 33
0.0
  0
SOLID
  5
766
330
4B6
100
AcDbEntity
  8
AM_5
100
AcDbTrace
 10
72.23404927665146
 20
68.54367515628521
 30
0.0
 11
72.23404927665146
 21
67.87700848961854
 31
0.0
 12
74.23404927665146
 22
68.21034182295187
 32
0.0
 13
74.23404927665146
 23
68.21034182295187
 33
0.0
  0
MTEXT
  5
767
330
4B6
100
AcDbEntity
  8
AM_5
100
AcDbMText
 10
50.73404927665145
 20
70.0436751562852
 30
0.0
 40
2.333333333333333
 41
0.0
 71
     5
 72
     1
  1
{\Famgdt|c136;o}47
 73
     1
 44
1.0
  0
POINT
  5
768
330
4B6
100
AcDbEntity
  8
Defpoints
 62
     0
100
AcDbPoint
 10
27.23404927665145
 20
83.32386852731167
 30
0.0
  0
POINT
  5
769
330
4B6
100
AcDbEntity
  8
Defpoints
 62
     0
100
AcDbPoint
 10
74.23404927665146
 20
83.32386852731174
 30
0.0
  0
POINT
  5
76A
330
4B6
100
AcDbEntity
  8
Defpoints
 62
     0
100
AcDbPoint
 10
74.23404927665146
 20
68.21034182295187
 30
0.0
  0
ENDBLK
  5
4C1
330
4B6
100
AcDbEntity
  8
0
100
AcDbBlockEnd
  0
BLOCK
  5
50B
330
501
100
AcDbEntity
  8
0
100
AcDbBlockBegin
  2
*D2
 70
     1
 10
0.0
 20
0.0
 30
0.0
  3
*D2
  1

  0
LINE
  5
9F9
330
501
100
AcDbEntity
  8
AM_5
100
AcDbLine
 10
106.9004959791865
 20
90.12700848961852
 30
0.0
 11
106.9004959791865
 21
72.87700848961851
 31
0.0
  0
LINE
  5
9FA
330
501
100
AcDbEntity
  8
AM_5
100
AcDbLine
 10
114.4004959791865
 20
81.37700848961852
 30
0.0
 11
114.4004959791865
 21
72.87700848961851
 31
0.0
  0
LINE
  5
9FB
330
501
100
AcDbEntity
  8
AM_5
100
AcDbLine
 10
108.9004959791865
 20
73.54367515628519
 30
0.0
 11
112.4004959791865
 21
73.54367515628519
 31
0.0
  0
SOLID
  5
9FC
330
501
100
AcDbEntity
  8
AM_5
100
AcDbTrace
 10
108.9004959791865
 20
73.87700848961852
 30
0.0
 11
108.9004959791865
 21
73.21034182295186
 31
0.0
 12
106.9004959791865
 22
73.54367515628519
 32
0.0
 13
106.9004959791865
 23
73.54367515628519
 33
0.0
  0
SOLID
  5
9FD
330
501
100
AcDbEntity
  8
AM_5
100
AcDbTrace
 10
112.4004959791865
 20
73.87700848961852
 30
0.0
 11
112.4004959791865
 21
73.21034182295186
 31
0.0
 12
114.4004959791865
 22
73.54367515628519
 32
0.0
 13
114.4004959791865
 23
73.54367515628519
 33
0.0
  0
MTEXT
  5
9FE
330
501
100
AcDbEntity
  8
AM_5
100
AcDbMText
 10
110.6504959791865
 20
75.37700848961851
 30
0.0
 40
2.333333333333333
 41
0.0
 71
     5
 72
     1
  1
7.5
 73
     1
 44
1.0
  0
POINT
  5
9FF
330
501
100
AcDbEntity
  8
Defpoints
 62
     0
100
AcDbPoint
 10
106.9004959791865
 20
90.79367515628518
 30
0.0
  0
POINT
  5
A00
330
501
100
AcDbEntity
  8
Defpoints
 62
     0
100
AcDbPoint
 10
114.4004959791865
 20
82.04367515628518
 30
0.0
  0
POINT
  5
A01
330
501
100
AcDbEntity
  8
Defpoints
 62
     0
100
AcDbPoint
 10
114.4004959791865
 20
73.54367515628519
 30
0.0
  0
ENDBLK
  5
50C
330
501
100
AcDbEntity
  8
0
100
AcDbBlockEnd
  0
BLOCK
  5
52A
330
520
100
AcDbEntity
  8
0
100
AcDbBlockBegin
  2
*D3
 70
     1
 10
0.0
 20
0.0
 30
0.0
  3
*D3
  1

  0
LINE
  5
A02
330
520
100
AcDbEntity
  8
AM_5
100
AcDbLine
 10
114.4004959791865
 20
81.3770084896185
 30
0.0
 11
114.4004959791865
 21
72.87700848961851
 31
0.0
  0
LINE
  5
A03
330
520
100
AcDbEntity
  8
AM_5
100
AcDbLine
 10
174.4004959791866
 20
81.37700848961852
 30
0.0
 11
174.4004959791866
 21
72.87700848961851
 31
0.0
  0
LINE
  5
A04
330
520
100
AcDbEntity
  8
AM_5
100
AcDbLine
 10
116.4004959791865
 20
73.54367515628519
 30
0.0
 11
172.4004959791866
 21
73.54367515628519
 31
0.0
  0
SOLID
  5
A05
330
520
100
AcDbEntity
  8
AM_5
100
AcDbTrace
 10
116.4004959791865
 20
73.87700848961852
 30
0.0
 11
116.4004959791865
 21
73.21034182295186
 31
0.0
 12
114.4004959791865
 22
73.54367515628519
 32
0.0
 13
114.4004959791865
 23
73.54367515628519
 33
0.0
  0
SOLID
  5
A06
330
520
100
AcDbEntity
  8
AM_5
100
AcDbTrace
 10
172.4004959791866
 20
73.87700848961852
 30
0.0
 11
172.4004959791866
 21
73.21034182295186
 31
0.0
 12
174.4004959791866
 22
73.54367515628519
 32
0.0
 13
174.4004959791866
 23
73.54367515628519
 33
0.0
  0
MTEXT
  5
A07
330
520
100
AcDbEntity
  8
AM_5
100
AcDbMText
 10
144.4004959791865
 20
75.37700848961851
 30
0.0
 40
2.333333333333333
 41
0.0
 71
     5
 72
     1
  1
60
 73
     1
 44
1.0
  0
POINT
  5
A08
330
520
100
AcDbEntity
  8
Defpoints
 62
     0
100
AcDbPoint
 10
114.4004959791865
 20
82.04367515628517
 30
0.0
  0
POINT
  5
A09
330
520
100
AcDbEntity
  8
Defpoints
 62
     0
100
AcDbPoint
 10
174.4004959791866
 20
82.04367515628518
 30
0.0
  0
POINT
  5
A0A
330
520
100
AcDbEntity
  8
Defpoints
 62
     0
100
AcDbPoint
 10
174.4004959791866
 20
73.54367515628519
 30
0.0
  0
ENDBLK
  5
52B
330
520
100
AcDbEntity
  8
0
100
AcDbBlockEnd
  0
BLOCK
  5
541
330
537
100
AcDbEntity
  8
0
100
AcDbBlockBegin
  2
*D4
 70
     1
 10
0.0
 20
0.0
 30
0.0
  3
*D4
  1

  0
LINE
  5
A0B
330
537
100
AcDbEntity
  8
AM_5
100
AcDbLine
 10
106.9004959791865
 20
90.12700848961852
 30
0.0
 11
106.9004959791865
 21
67.5436751562853
 31
0.0
  0
LINE
  5
A0C
330
537
100
AcDbEntity
  8
AM_5
100
AcDbLine
 10
174.4004959791866
 20
81.37700848961852
 30
0.0
 11
174.4004959791866
 21
67.5436751562853
 31
0.0
  0
LINE
  5
A0D
330
537
100
AcDbEntity
  8
AM_5
100
AcDbLine
 10
108.9004959791865
 20
68.21034182295197
 30
0.0
 11
172.4004959791866
 21
68.21034182295197
 31
0.0
  0
SOLID
  5
A0E
330
537
100
AcDbEntity
  8
AM_5
100
AcDbTrace
 10
108.9004959791865
 20
68.5436751562853
 30
0.0
 11
108.9004959791865
 21
67.87700848961865
 31
0.0
 12
106.9004959791865
 22
68.21034182295197
 32
0.0
 13
106.9004959791865
 23
68.21034182295197
 33
0.0
  0
SOLID
  5
A0F
330
537
100
AcDbEntity
  8
AM_5
100
AcDbTrace
 10
172.4004959791866
 20
68.5436751562853
 30
0.0
 11
172.4004959791866
 21
67.87700848961865
 31
0.0
 12
174.4004959791866
 22
68.21034182295197
 32
0.0
 13
174.4004959791866
 23
68.21034182295197
 33
0.0
  0
MTEXT
  5
A10
330
537
100
AcDbEntity
  8
AM_5
100
AcDbMText
 10
140.6504959791866
 20
70.0436751562853
 30
0.0
 40
2.333333333333333
 41
0.0
 71
     5
 72
     1
  1
67.5
 73
     1
 44
1.0
  0
POINT
  5
A11
330
537
100
AcDbEntity
  8
Defpoints
 62
     0
100
AcDbPoint
 10
106.9004959791865
 20
90.79367515628518
 30
0.0
  0
POINT
  5
A12
330
537
100
AcDbEntity
  8
Defpoints
 62
     0
100
AcDbPoint
 10
174.4004959791866
 20
82.04367515628518
 30
0.0
  0
POINT
  5
A13
330
537
100
AcDbEntity
  8
Defpoints
 62
     0
100
AcDbPoint
 10
174.4004959791866
 20
68.21034182295197
 30
0.0
  0
ENDBLK
  5
542
330
537
100
AcDbEntity
  8
0
100
AcDbBlockEnd
  0
BLOCK
  5
568
330
55E
100
AcDbEntity
  8
0
100
AcDbBlockBegin
  2
*D5
 70
     1
 10
0.0
 20
0.0
 30
0.0
  3
*D5
  1

  0
LINE
  5
A14
330
55E
100
AcDbEntity
  8
AM_5
100
AcDbLine
 10
175.0671626458532
 20
89.79367515628519
 30
0.0
 11
188.1018181396005
 21
89.79367515628519
 31
0.0
  0
LINE
  5
A15
330
55E
100
AcDbEntity
  8
AM_5
100
AcDbLine
 10
175.0671626458532
 20
120.2936751562852
 30
0.0
 11
188.1018181396005
 21
120.2936751562852
 31
0.0
  0
LINE
  5
A16
330
55E
100
AcDbEntity
  8
AM_5
100
AcDbLine
 10
187.4351514729339
 20
91.79367515628518
 30
0.0
 11
187.4351514729339
 21
118.2936751562852
 31
0.0
  0
SOLID
  5
A17
330
55E
100
AcDbEntity
  8
AM_5
100
AcDbTrace
 10
187.1018181396005
 20
91.79367515628518
 30
0.0
 11
187.7684848062672
 21
91.79367515628518
 31
0.0
 12
187.4351514729339
 22
89.79367515628519
 32
0.0
 13
187.4351514729339
 23
89.79367515628519
 33
0.0
  0
SOLID
  5
A18
330
55E
100
AcDbEntity
  8
AM_5
100
AcDbTrace
 10
187.1018181396005
 20
118.2936751562852
 30
0.0
 11
187.7684848062672
 21
118.2936751562852
 31
0.0
 12
187.4351514729339
 22
120.2936751562852
 32
0.0
 13
187.4351514729339
 23
120.2936751562852
 33
0.0
  0
MTEXT
  5
A19
330
55E
100
AcDbEntity
  8
AM_5
100
AcDbMText
 10
185.6018181396005
 20
105.0436751562852
 30
0.0
 40
2.333333333333333
 41
0.0
 71
     5
 72
     1
  1
%%c30.5
 11
0.0000000000000001
 21
1.0
 31
0.0
 73
     1
 44
1.0
  0
POINT
  5
A1A
330
55E
100
AcDbEntity
  8
Defpoints
 62
     0
100
AcDbPoint
 10
174.4004959791866
 20
89.79367515628519
 30
0.0
  0
POINT
  5
A1B
330
55E
100
AcDbEntity
  8
Defpoints
 62
     0
100
AcDbPoint
 10
174.4004959791866
 20
120.2936751562852
 30
0.0
  0
POINT
  5
A1C
330
55E
100
AcDbEntity
  8
Defpoints
 62
     0
100
AcDbPoint
 10
187.4351514729339
 20
120.2936751562852
 30
0.0
  0
ENDBLK
  5
569
330
55E
100
AcDbEntity
  8
0
100
AcDbBlockEnd
  0
BLOCK
  5
5AB
330
5A1
100
AcDbEntity
  8
0
100
AcDbBlockBegin
  2
*D6
 70
     1
 10
0.0
 20
0.0
 30
0.0
  3
*D6
  1

  0
LINE
  5
A1D
330
5A1
100
AcDbEntity
  8
AM_5
100
AcDbLine
 10
174.4004959791866
 20
128.7103418229518
 30
0.0
 11
174.4004959791866
 21
137.2103418329518
 31
0.0
  0
LINE
  5
A1E
330
5A1
100
AcDbEntity
  8
AM_5
100
AcDbLine
 10
154.9004959791866
 20
118.4603418229518
 30
0.0
 11
154.9004959791866
 21
137.2103418329518
 31
0.0
  0
LINE
  5
A1F
330
5A1
100
AcDbEntity
  8
AM_5
100
AcDbLine
 10
172.4004959791866
 20
136.5436751662851
 30
0.0
 11
156.9004959791866
 21
136.5436751662851
 31
0.0
  0
SOLID
  5
A20
330
5A1
100
AcDbEntity
  8
AM_5
100
AcDbTrace
 10
172.4004959791866
 20
136.8770084996185
 30
0.0
 11
172.4004959791866
 21
136.2103418329518
 31
0.0
 12
174.4004959791866
 22
136.5436751662851
 32
0.0
 13
174.4004959791866
 23
136.5436751662851
 33
0.0
  0
SOLID
  5
A21
330
5A1
100
AcDbEntity
  8
AM_5
100
AcDbTrace
 10
156.9004959791866
 20
136.8770084996185
 30
0.0
 11
156.9004959791866
 21
136.2103418329518
 31
0.0
 12
154.9004959791866
 22
136.5436751662851
 32
0.0
 13
154.9004959791866
 23
136.5436751662851
 33
0.0
  0
MTEXT
  5
A22
330
5A1
100
AcDbEntity
  8
AM_5
100
AcDbMText
 10
164.6504959791866
 20
138.3770084996185
 30
0.0
 40
2.333333333333333
 41
0.0
 71
     5
 72
     1
  1
19.5
 73
     1
 44
1.0
  0
POINT
  5
A23
330
5A1
100
AcDbEntity
  8
Defpoints
 62
     0
100
AcDbPoint
 10
174.4004959791866
 20
128.0436751562852
 30
0.0
  0
POINT
  5
A24
330
5A1
100
AcDbEntity
  8
Defpoints
 62
     0
100
AcDbPoint
 10
154.9004959791866
 20
117.7936751562852
 30
0.0
  0
POINT
  5
A25
330
5A1
100
AcDbEntity
  8
Defpoints
 62
     0
100
AcDbPoint
 10
154.9004959791866
 20
136.5436751662851
 30
0.0
  0
ENDBLK
  5
5AC
330
5A1
100
AcDbEntity
  8
0
100
AcDbBlockEnd
  0
BLOCK
  5
5C1
330
5B7
100
AcDbEntity
  8
0
100
AcDbBlockBegin
  2
*D7
 70
     1
 10
0.0
 20
0.0
 30
0.0
  3
*D7
  1

  0
LINE
  5
798
330
5B7
100
AcDbEntity
  8
AM_5
100
AcDbLine
 10
212.531645576805
 20
88.12700848961851
 30
0.0
 11
212.531645576805
 21
73.3770084896185
 31
0.0
  0
LINE
  5
799
330
5B7
100
AcDbEntity
  8
AM_5
100
AcDbLine
 10
245.031645576805
 20
88.12700848961851
 30
0.0
 11
245.031645576805
 21
73.3770084896185
 31
0.0
  0
LINE
  5
79A
330
5B7
100
AcDbEntity
  8
AM_5
100
AcDbLine
 10
214.531645576805
 20
74.04367515628518
 30
0.0
 11
243.031645576805
 21
74.04367515628518
 31
0.0
  0
SOLID
  5
79B
330
5B7
100
AcDbEntity
  8
AM_5
100
AcDbTrace
 10
214.531645576805
 20
74.3770084896185
 30
0.0
 11
214.531645576805
 21
73.71034182295185
 31
0.0
 12
212.531645576805
 22
74.04367515628518
 32
0.0
 13
212.531645576805
 23
74.04367515628518
 33
0.0
  0
SOLID
  5
79C
330
5B7
100
AcDbEntity
  8
AM_5
100
AcDbTrace
 10
243.031645576805
 20
74.3770084896185
 30
0.0
 11
243.031645576805
 21
73.71034182295185
 31
0.0
 12
245.031645576805
 22
74.04367515628518
 32
0.0
 13
245.031645576805
 23
74.04367515628518
 33
0.0
  0
MTEXT
  5
79D
330
5B7
100
AcDbEntity
  8
AM_5
100
AcDbMText
 10
228.781645576805
 20
75.87723814841116
 30
0.0
 40
2.333333333333333
 41
0.0
 71
     5
 72
     1
  1
{\Famgdt|c136;o}32.5
 73
     1
 44
1.0
  0
POINT
  5
79E
330
5B7
100
AcDbEntity
  8
Defpoints
 62
     0
100
AcDbPoint
 10
212.531645576805
 20
88.79367515628519
 30
0.0
  0
POINT
  5
79F
330
5B7
100
AcDbEntity
  8
Defpoints
 62
     0
100
AcDbPoint
 10
245.031645576805
 20
88.79367515628519
 30
0.0
  0
POINT
  5
7A0
330
5B7
100
AcDbEntity
  8
Defpoints
 62
     0
100
AcDbPoint
 10
245.031645576805
 20
74.04367515628518
 30
0.0
  0
ENDBLK
  5
5C2
330
5B7
100
AcDbEntity
  8
0
100
AcDbBlockEnd
  0
BLOCK
  5
5ED
330
5E3
100
AcDbEntity
  8
0
100
AcDbBlockBegin
  2
*D8
 70
     1
 10
0.0
 20
0.0
 30
0.0
  3
*D8
  1

  0
LINE
  5
7A1
330
5E3
100
AcDbEntity
  8
AM_5
100
AcDbLine
 10
205.281645576805
 20
82.65720186064505
 30
0.0
 11
205.281645576805
 21
68.04367515628519
 31
0.0
  0
LINE
  5
7A2
330
5E3
100
AcDbEntity
  8
AM_5
100
AcDbLine
 10
252.2816455768051
 20
82.65720186064505
 30
0.0
 11
252.2816455768051
 21
68.04367515628519
 31
0.0
  0
LINE
  5
7A3
330
5E3
100
AcDbEntity
  8
AM_5
100
AcDbLine
 10
207.281645576805
 20
68.71034182295186
 30
0.0
 11
250.2816455768051
 21
68.71034182295186
 31
0.0
  0
SOLID
  5
7A4
330
5E3
100
AcDbEntity
  8
AM_5
100
AcDbTrace
 10
207.281645576805
 20
69.04367515628519
 30
0.0
 11
207.281645576805
 21
68.37700848961853
 31
0.0
 12
205.281645576805
 22
68.71034182295186
 32
0.0
 13
205.281645576805
 23
68.71034182295186
 33
0.0
  0
SOLID
  5
7A5
330
5E3
100
AcDbEntity
  8
AM_5
100
AcDbTrace
 10
250.2816455768051
 20
69.04367515628519
 30
0.0
 11
250.2816455768051
 21
68.37700848961853
 31
0.0
 12
252.2816455768051
 22
68.71034182295186
 32
0.0
 13
252.2816455768051
 23
68.71034182295186
 33
0.0
  0
MTEXT
  5
7A6
330
5E3
100
AcDbEntity
  8
AM_5
100
AcDbMText
 10
228.781645576805
 20
70.54367515628519
 30
0.0
 40
2.333333333333333
 41
0.0
 71
     5
 72
     1
  1
{\Famgdt|c136;o}47
 73
     1
 44
1.0
  0
POINT
  5
7A7
330
5E3
100
AcDbEntity
  8
Defpoints
 62
     0
100
AcDbPoint
 10
205.281645576805
 20
83.32386852731174
 30
0.0
  0
POINT
  5
7A8
330
5E3
100
AcDbEntity
  8
Defpoints
 62
     0
100
AcDbPoint
 10
252.2816455768051
 20
83.32386852731174
 30
0.0
  0
POINT
  5
7A9
330
5E3
100
AcDbEntity
  8
Defpoints
 62
     0
100
AcDbPoint
 10
252.2816455768051
 20
68.71034182295186
 30
0.0
  0
ENDBLK
  5
5EE
330
5E3
100
AcDbEntity
  8
0
100
AcDbBlockEnd
  0
BLOCK
  5
636
330
62C
100
AcDbEntity
  8
0
100
AcDbBlockBegin
  2
*D9
 70
     1
 10
0.0
 20
0.0
 30
0.0
  3
*D9
  1

  0
LINE
  5
7D1
330
62C
100
AcDbEntity
  8
AM_5
100
AcDbLine
 10
34.48404927665145
 20
82.90606576700993
 30
0.0
 11
34.48404927665145
 21
72.87700848961851
 31
0.0
  0
LINE
  5
7D2
330
62C
100
AcDbEntity
  8
AM_5
100
AcDbLine
 10
66.98404927665146
 20
82.90606576700993
 30
0.0
 11
66.98404927665146
 21
72.87700848961851
 31
0.0
  0
LINE
  5
7D3
330
62C
100
AcDbEntity
  8
AM_5
100
AcDbLine
 10
36.48404927665145
 20
73.54367515628519
 30
0.0
 11
64.98404927665146
 21
73.54367515628519
 31
0.0
  0
SOLID
  5
7D4
330
62C
100
AcDbEntity
  8
AM_5
100
AcDbTrace
 10
36.48404927665145
 20
73.87700848961852
 30
0.0
 11
36.48404927665145
 21
73.21034182295186
 31
0.0
 12
34.48404927665145
 22
73.54367515628519
 32
0.0
 13
34.48404927665145
 23
73.54367515628519
 33
0.0
  0
SOLID
  5
7D5
330
62C
100
AcDbEntity
  8
AM_5
100
AcDbTrace
 10
64.98404927665146
 20
73.87700848961852
 30
0.0
 11
64.98404927665146
 21
73.21034182295186
 31
0.0
 12
66.98404927665146
 22
73.54367515628519
 32
0.0
 13
66.98404927665146
 23
73.54367515628519
 33
0.0
  0
MTEXT
  5
7D6
330
62C
100
AcDbEntity
  8
AM_5
100
AcDbMText
 10
50.73404927665145
 20
75.37723814841118
 30
0.0
 40
2.333333333333333
 41
0.0
 71
     5
 72
     1
  1
{\Famgdt|c136;o}32.5
 73
     1
 44
1.0
  0
POINT
  5
7D7
330
62C
100
AcDbEntity
  8
Defpoints
 62
     0
100
AcDbPoint
 10
34.48404927665145
 20
83.57273243367661
 30
0.0
  0
POINT
  5
7D8
330
62C
100
AcDbEntity
  8
Defpoints
 62
     0
100
AcDbPoint
 10
66.98404927665146
 20
83.57273243367661
 30
0.0
  0
POINT
  5
7D9
330
62C
100
AcDbEntity
  8
Defpoints
 62
     0
100
AcDbPoint
 10
66.98404927665146
 20
73.54367515628519
 30
0.0
  0
ENDBLK
  5
637
330
62C
100
AcDbEntity
  8
0
100
AcDbBlockEnd
  0
BLOCK
  5
690
330
68A
100
AcDbEntity
  8
0
100
AcDbBlockBegin
  2
*D10
 70
     1
 10
0.0
 20
0.0
 30
0.0
  3
*D10
  1

  0
LINE
  5
7B3
330
68A
100
AcDbEntity
  8
AM_5
100
AcDbLine
 10
36.38992636300866
 20
125.872892614727
 30
0.0
 11
39.26156349798485
 21
132.7725248087036
 31
0.0
  0
LINE
  5
7B4
330
68A
100
AcDbEntity
  8
AM_5
100
AcDbLine
 10
39.26156349798485
 20
132.7725248087036
 30
0.0
 11
51.36156349798485
 21
132.7725248087036
 31
0.0
  0
SOLID
  5
7B5
330
68A
100
AcDbEntity
  8
AM_5
100
AcDbTrace
 10
36.08218325424241
 20
126.0009757522509
 30
0.0
 11
36.69766947177492
 21
125.7448094772029
 31
0.0
 12
35.62142753786462
 22
124.0264339621294
 32
0.0
 13
35.62142753786462
 23
124.0264339621294
 33
0.0
  0
MTEXT
  5
7B6
330
68A
100
AcDbEntity
  8
AM_5
100
AcDbMText
 10
45.64489683131816
 20
134.605858142037
 30
0.0
 40
2.333333333333333
 41
0.0
 71
     5
 72
     1
  1
4-M6*8L
 73
     1
 44
1.0
  0
POINT
  5
7B7
330
68A
100
AcDbEntity
  8
Defpoints
 62
     0
100
AcDbPoint
 10
35.62142753786462
 20
124.0264339621294
 30
0.0
  0
POINT
  5
7B8
330
68A
100
AcDbEntity
  8
Defpoints
 62
     0
100
AcDbPoint
 10
34.48404927665146
 20
121.2936751562851
 30
0.0
  0
ENDBLK
  5
691
330
68A
100
AcDbEntity
  8
0
100
AcDbBlockEnd
  0
BLOCK
  5
6F5
330
6EE
100
AcDbEntity
  8
0
100
AcDbBlockBegin
  2
*D11
 70
     1
 10
0.0
 20
0.0
 30
0.0
  3
*D11
  1

  0
LINE
  5
A26
330
6EE
100
AcDbEntity
  8
AM_5
100
AcDbLine
 10
143.878312044616
 20
125.177415331672
 30
0.0
 11
137.0329626963748
 21
135.4009145848006
 31
0.0
  0
LINE
  5
A27
330
6EE
100
AcDbEntity
  8
AM_5
100
AcDbLine
 10
137.0329626963748
 20
135.4009145848006
 30
0.0
 11
130.6454837406826
 21
135.4009145848006
 31
0.0
  0
SOLID
  5
A28
330
6EE
100
AcDbEntity
  8
AM_5
100
AcDbTrace
 10
144.1552904209871
 20
125.3628717689665
 30
0.0
 11
143.601333668245
 21
124.9919588943775
 31
0.0
 12
144.9910506683832
 22
123.5155450734458
 32
0.0
 13
144.9910506683832
 23
123.5155450734458
 33
0.0
  0
MTEXT
  5
A29
330
6EE
100
AcDbEntity
  8
AM_5
100
AcDbMText
 10
133.5058898851954
 20
137.2383935404928
 30
0.0
 40
2.333333333333333
 41
0.0
 71
     5
 72
     1
  1
G1/8
 73
     1
 44
1.0
  0
POINT
  5
A2A
330
6EE
100
AcDbEntity
  8
Defpoints
 62
     0
100
AcDbPoint
 10
144.9910506683832
 20
123.5155450734458
 30
0.0
  0
POINT
  5
A2B
330
6EE
100
AcDbEntity
  8
Defpoints
 62
     0
100
AcDbPoint
 10
147.6504959791865
 20
119.5436751562851
 30
0.0
  0
ENDBLK
  5
6F6
330
6EE
100
AcDbEntity
  8
0
100
AcDbBlockEnd
  0
BLOCK
  5
714
330
70A
100
AcDbEntity
  8
0
100
AcDbBlockBegin
  2
*D12
 70
     1
 10
0.0
 20
0.0
 30
0.0
  3
*D12
  1

  0
LINE
  5
A2C
330
70A
100
AcDbEntity
  8
AM_5
100
AcDbLine
 10
102.7143294981726
 20
99.0436751562852
 30
0.0
 11
96.82426723140643
 21
99.0436751562852
 31
0.0
  0
LINE
  5
A2D
330
70A
100
AcDbEntity
  8
AM_5
100
AcDbLine
 10
102.7143294981726
 20
111.0436751562852
 30
0.0
 11
96.82426723140643
 21
111.0436751562852
 31
0.0
  0
LINE
  5
A2E
330
70A
100
AcDbEntity
  8
AM_5
100
AcDbLine
 10
97.49093389807311
 20
101.0436751562852
 30
0.0
 11
97.49093389807311
 21
109.0436751562852
 31
0.0
  0
SOLID
  5
A2F
330
70A
100
AcDbEntity
  8
AM_5
100
AcDbTrace
 10
97.15760056473978
 20
101.0436751562852
 30
0.0
 11
97.82426723140645
 21
101.0436751562852
 31
0.0
 12
97.49093389807311
 22
99.0436751562852
 32
0.0
 13
97.49093389807311
 23
99.0436751562852
 33
0.0
  0
SOLID
  5
A30
330
70A
100
AcDbEntity
  8
AM_5
100
AcDbTrace
 10
97.15760056473978
 20
109.0436751562852
 30
0.0
 11
97.82426723140645
 21
109.0436751562852
 31
0.0
 12
97.49093389807311
 22
111.0436751562852
 32
0.0
 13
97.49093389807311
 23
111.0436751562852
 33
0.0
  0
MTEXT
  5
A31
330
70A
100
AcDbEntity
  8
AM_5
100
AcDbMText
 10
95.65737090594709
 20
105.0864142590474
 30
0.0
 40
2.333333333333333
 41
0.0
 71
     5
 72
     1
  1
%%c12
 11
0.0000000000000001
 21
1.0
 31
0.0
 73
     1
 44
1.0
  0
POINT
  5
A32
330
70A
100
AcDbEntity
  8
Defpoints
 62
     0
100
AcDbPoint
 10
103.3809961648393
 20
99.0436751562852
 30
0.0
  0
POINT
  5
A33
330
70A
100
AcDbEntity
  8
Defpoints
 62
     0
100
AcDbPoint
 10
103.3809961648393
 20
111.0436751562852
 30
0.0
  0
POINT
  5
A34
330
70A
100
AcDbEntity
  8
Defpoints
 62
     0
100
AcDbPoint
 10
97.49093389807311
 20
111.0436751562852
 30
0.0
  0
ENDBLK
  5
715
330
70A
100
AcDbEntity
  8
0
100
AcDbBlockEnd
  0
BLOCK
  5
733
330
729
100
AcDbEntity
  8
0
100
AcDbBlockBegin
  2
*D13
 70
     1
 10
0.0
 20
0.0
 30
0.0
  3
*D13
  1

  0
LINE
  5
A35
330
729
100
AcDbEntity
  8
AM_5
100
AcDbLine
 10
106.9838293125199
 20
90.04367515628519
 30
0.0
 11
92.098344885827
 21
90.04367515628521
 31
0.0
  0
LINE
  5
A36
330
729
100
AcDbEntity
  8
AM_5
100
AcDbLine
 10
106.9838293125199
 20
120.0436751562852
 30
0.0
 11
92.09834488582702
 21
120.0436751562852
 31
0.0
  0
LINE
  5
A37
330
729
100
AcDbEntity
  8
AM_5
100
AcDbLine
 10
92.76501155249368
 20
92.0436751562852
 30
0.0
 11
92.76501155249368
 21
118.0436751562852
 31
0.0
  0
SOLID
  5
A38
330
729
100
AcDbEntity
  8
AM_5
100
AcDbTrace
 10
92.43167821916035
 20
92.0436751562852
 30
0.0
 11
93.098344885827
 21
92.0436751562852
 31
0.0
 12
92.76501155249368
 22
90.04367515628521
 32
0.0
 13
92.76501155249368
 23
90.04367515628521
 33
0.0
  0
SOLID
  5
A39
330
729
100
AcDbEntity
  8
AM_5
100
AcDbTrace
 10
92.43167821916037
 20
118.0436751562852
 30
0.0
 11
93.09834488582701
 21
118.0436751562852
 31
0.0
 12
92.76501155249368
 22
120.0436751562852
 32
0.0
 13
92.76501155249368
 23
120.0436751562852
 33
0.0
  0
MTEXT
  5
A3A
330
729
100
AcDbEntity
  8
AM_5
100
AcDbMText
 10
90.93167821916033
 20
105.0089302304752
 30
0.0
 40
2.333333333333333
 41
0.0
 71
     5
 72
     1
  1
%%c30
 11
0.0000000000000001
 21
1.0
 31
0.0
 73
     1
 44
1.0
  0
POINT
  5
A3B
330
729
100
AcDbEntity
  8
Defpoints
 62
     0
100
AcDbPoint
 10
107.6504959791865
 20
90.04367515628519
 30
0.0
  0
POINT
  5
A3C
330
729
100
AcDbEntity
  8
Defpoints
 62
     0
100
AcDbPoint
 10
107.6504959791865
 20
120.0436751562852
 30
0.0
  0
POINT
  5
A3D
330
729
100
AcDbEntity
  8
Defpoints
 62
     0
100
AcDbPoint
 10
92.76501155249368
 20
120.0436751562852
 30
0.0
  0
ENDBLK
  5
734
330
729
100
AcDbEntity
  8
0
100
AcDbBlockEnd
  0
BLOCK
  5
829
330
823
100
AcDbEntity
  8
0
100
AcDbBlockBegin
  2
*D14
 70
     1
 10
0.0
 20
0.0
 30
0.0
  3
*D14
  1

  0
LINE
  5
837
330
823
100
AcDbEntity
  8
AM_5
100
AcDbLine
 10
214.6875530370348
 20
126.0805909716016
 30
0.0
 11
217.9925858548837
 21
133.4189921589208
 31
0.0
  0
LINE
  5
838
330
823
100
AcDbEntity
  8
AM_5
100
AcDbLine
 10
217.9925858548837
 20
133.4189921589208
 30
0.0
 11
227.6225690194373
 21
133.4189921589209
 31
0.0
  0
SOLID
  5
839
330
823
100
AcDbEntity
  8
AM_5
100
AcDbTrace
 10
214.3836218741575
 20
126.2174739849495
 30
0.0
 11
214.991484199912
 21
125.9437079582537
 31
0.0
 12
213.8662549569473
 22
124.2570039943382
 32
0.0
 13
213.8662549569473
 23
124.2570039943382
 33
0.0
  0
MTEXT
  5
83A
330
823
100
AcDbEntity
  8
AM_5
100
AcDbMText
 10
223.1409107704938
 20
135.2523254922542
 30
0.0
 40
2.333333333333333
 41
0.0
 71
     5
 72
     1
  1
4-\U+22056.5
 73
     1
 44
1.0
  0
POINT
  5
83B
330
823
100
AcDbEntity
  8
Defpoints
 62
     0
100
AcDbPoint
 10
213.8662549569473
 20
124.2570039943382
 30
0.0
  0
POINT
  5
83C
330
823
100
AcDbEntity
  8
Defpoints
 62
     0
100
AcDbPoint
 10
211.1970361966629
 20
118.3303463182322
 30
0.0
  0
ENDBLK
  5
82A
330
823
100
AcDbEntity
  8
0
100
AcDbBlockEnd
  0
BLOCK
  5
AFA
330
AF9
100
AcDbEntity
  8
0
100
AcDbBlockBegin
  2
*U15
 70
     1
 10
0.0
 20
0.0
 30
0.0
  3
*U15
  1

  0
ENDBLK
  5
AFB
330
AF9
100
AcDbEntity
  8
0
100
AcDbBlockEnd
  0
ENDSEC
  0
SECTION
  2
ENTITIES
  0
LINE
  5
3D
330
D
100
AcDbEntity
 67
     1
  8
AM_VIS
100
AcDbLine
 10
173.9004959791866
 20
128.5436751562852
 30
0.0
 11
174.4004959791866
 21
128.0436751562852
 31
0.0
  0
LINE
  5
3F
330
D
100
AcDbEntity
 67
     1
  8
AM_VIS
100
AcDbLine
 10
173.9004959791866
 20
81.5436751562852
 30
0.0
 11
174.4004959791866
 21
82.04367515628518
 31
0.0
  0
LINE
  5
40
330
D
100
AcDbEntity
 67
     1
  8
AM_VIS
100
AcDbLine
 10
173.9005465738017
 20
83.3237398289167
 30
0.0
 11
174.4005467955368
 21
83.52030264382802
 31
0.0
  0
LINE
  5
41
330
D
100
AcDbEntity
 67
     1
  8
AM_VIS
100
AcDbLine
 10
173.9005343532872
 20
126.763579406239
 30
0.0
 11
174.4005401410336
 21
126.5670307509113
 31
0.0
  0
LINE
  5
42
330
D
100
AcDbEntity
 67
     1
  8
AM_VIS
100
AcDbLine
 10
174.4004959791866
 20
83.52043190625431
 30
0.0
 11
174.4004959791866
 21
126.566918406316
 31
0.0
  0
LINE
  5
43
330
D
100
AcDbEntity
 67
     1
  8
AM_VIS
100
AcDbLine
 10
173.9004959791866
 20
81.5436751562852
 30
0.0
 11
168.9004959791866
 21
81.5436751562852
 31
0.0
  0
LINE
  5
44
330
D
100
AcDbEntity
 67
     1
  8
AM_VIS
100
AcDbLine
 10
173.9004959791866
 20
126.7634817852587
 30
0.0
 11
173.9004959791866
 21
83.32386852731174
 31
0.0
  0
LINE
  5
45
330
D
100
AcDbEntity
 67
     1
  8
AM_VIS
100
AcDbLine
 10
168.9004959791866
 20
83.32386852731174
 30
0.0
 11
173.9004959791866
 21
83.32386852731174
 31
0.0
  0
LINE
  5
46
330
D
100
AcDbEntity
 67
     1
  8
AM_VIS
100
AcDbLine
 10
168.9004959791866
 20
128.5436751562852
 30
0.0
 11
173.9004959791866
 21
128.5436751562852
 31
0.0
  0
LINE
  5
47
330
D
100
AcDbEntity
 67
     1
  8
AM_VIS
100
AcDbLine
 10
173.9004959791866
 20
126.7634817852587
 30
0.0
 11
168.9004959791866
 21
126.7634817852587
 31
0.0
  0
LINE
  5
48
330
D
100
AcDbEntity
 67
     1
  8
AM_VIS
100
AcDbLine
 10
168.4004959791866
 20
128.0436751562852
 30
0.0
 11
168.9004959791866
 21
128.5436751562852
 31
0.0
  0
LINE
  5
49
330
D
100
AcDbEntity
 67
     1
  8
AM_VIS
100
AcDbLine
 10
168.4004451628364
 20
126.5670476687423
 30
0.0
 11
168.9004453845714
 21
126.7636104836536
 31
0.0
  0
LINE
  5
4A
330
D
100
AcDbEntity
 67
     1
  8
AM_VIS
100
AcDbLine
 10
168.9004959791866
 20
83.32386852731174
 30
0.0
 11
168.9004959791866
 21
126.7634817852587
 31
0.0
  0
LINE
  5
4B
330
D
100
AcDbEntity
 67
     1
  8
AM_VIS
100
AcDbLine
 10
168.4004959791865
 20
128.0436751562851
 30
0.0
 11
168.4004959791866
 21
83.52043190625431
 31
0.0
  0
LINE
  5
4C
330
D
100
AcDbEntity
 67
     1
  8
AM_VIS
100
AcDbLine
 10
168.4004451628364
 20
83.52030264382802
 30
0.0
 11
168.9004453845714
 21
83.32373982891668
 31
0.0
  0
LINE
  5
4D
330
D
100
AcDbEntity
 67
     1
  8
AM_VIS
100
AcDbLine
 10
168.4004959791866
 20
82.04367515628518
 30
0.0
 11
168.9004959791866
 21
81.5436751562852
 31
0.0
  0
LINE
  5
4E
330
D
100
AcDbEntity
 67
     1
  8
AM_VIS
100
AcDbLine
 10
153.9004959791865
 20
81.5436751562852
 30
0.0
 11
114.9004959791865
 21
81.5436751562852
 31
0.0
  0
LINE
  5
4F
330
D
100
AcDbEntity
 67
     1
  8
AM_VIS
100
AcDbLine
 10
153.9004959791865
 20
81.5436751562852
 30
0.0
 11
154.4004959791866
 21
82.04367515628518
 31
0.0
  0
LINE
  5
50
330
D
100
AcDbEntity
 67
     1
  8
AM_VIS
100
AcDbLine
 10
153.9005465738017
 20
83.3237398289167
 30
0.0
 11
154.4005467955368
 21
83.52030264382802
 31
0.0
  0
LINE
  5
51
330
D
100
AcDbEntity
 67
     1
  8
AM_VIS
100
AcDbLine
 10
153.9005343532872
 20
126.763579406239
 30
0.0
 11
154.4005401410337
 21
126.5670307509113
 31
0.0
  0
LINE
  5
52
330
D
100
AcDbEntity
 67
     1
  8
AM_VIS
100
AcDbLine
 10
154.4004959791866
 20
83.52043190625431
 30
0.0
 11
154.4004959791866
 21
126.566918406316
 31
0.0
  0
LINE
  5
53
330
D
100
AcDbEntity
 67
     1
  8
AM_VIS
100
AcDbLine
 10
153.9004959791865
 20
128.5436751562852
 30
0.0
 11
154.4004959791866
 21
128.0436751562852
 31
0.0
  0
LINE
  5
54
330
D
100
AcDbEntity
 67
     1
  8
AM_VIS
100
AcDbLine
 10
153.9004959791865
 20
126.7634817852587
 30
0.0
 11
153.9004959791865
 21
83.32386852731174
 31
0.0
  0
LINE
  5
55
330
D
100
AcDbEntity
 67
     1
  8
AM_VIS
100
AcDbLine
 10
114.9004959791865
 20
83.32386852731174
 30
0.0
 11
153.9004959791865
 21
83.32386852731174
 31
0.0
  0
LINE
  5
56
330
D
100
AcDbEntity
 67
     1
  8
AM_VIS
100
AcDbLine
 10
153.9004959791865
 20
126.7634817852587
 30
0.0
 11
114.9004959791865
 21
126.7634817852587
 31
0.0
  0
LINE
  5
57
330
D
100
AcDbEntity
 67
     1
  8
AM_VIS
100
AcDbLine
 10
114.9004959791865
 20
128.5436751562852
 30
0.0
 11
153.9004959791865
 21
128.5436751562852
 31
0.0
  0
LINE
  5
58
330
D
100
AcDbEntity
 67
     1
  8
AM_VIS
100
AcDbLine
 10
114.4004959791865
 20
128.0436751562852
 30
0.0
 11
114.9004959791865
 21
128.5436751562852
 31
0.0
  0
LINE
  5
59
330
D
100
AcDbEntity
 67
     1
  8
AM_VIS
100
AcDbLine
 10
114.4004451628363
 20
126.5670476687423
 30
0.0
 11
114.9004453845714
 21
126.7636104836537
 31
0.0
  0
LINE
  5
5A
330
D
100
AcDbEntity
 67
     1
  8
AM_VIS
100
AcDbLine
 10
114.9004959791865
 20
83.32386852731174
 30
0.0
 11
114.9004959791865
 21
126.7634817852587
 31
0.0
  0
LINE
  5
5B
330
D
100
AcDbEntity
 67
     1
  8
AM_VIS
100
AcDbLine
 10
114.4004518173394
 20
83.52031956165905
 30
0.0
 11
114.9004576050859
 21
83.32377090633144
 31
0.0
  0
LINE
  5
5C
330
D
100
AcDbEntity
 67
     1
  8
AM_VIS
100
AcDbLine
 10
114.4004959791865
 20
126.566918406316
 30
0.0
 11
114.4004959791865
 21
83.52043190625431
 31
0.0
  0
LINE
  5
5D
330
D
100
AcDbEntity
 67
     1
  8
AM_VIS
100
AcDbLine
 10
114.4004959791865
 20
82.04367515628518
 30
0.0
 11
114.9004959791865
 21
81.5436751562852
 31
0.0
  0
LINE
  5
5E
330
D
100
AcDbEntity
 67
     1
  8
AM_VIS
100
AcDbLine
 10
154.8004959791866
 20
122.0436751562852
 30
0.0
 11
168.4004959791866
 21
122.0436751562852
 31
0.0
  0
LINE
  5
5F
330
D
100
AcDbEntity
 67
     1
  8
AM_VIS
100
AcDbLine
 10
154.8004959791866
 20
88.04367515628518
 30
0.0
 11
168.4004959791866
 21
88.04367515628518
 31
0.0
  0
LINE
  5
60
330
D
100
AcDbEntity
 67
     1
  8
AM_VIS
100
AcDbLine
 10
106.9004959791865
 20
90.79367515628518
 30
0.0
 11
107.6504959791865
 21
90.04367515628519
 31
0.0
  0
LINE
  5
61
330
D
100
AcDbEntity
 67
     1
  8
AM_VIS
100
AcDbLine
 10
106.9004959791865
 20
119.2936751562852
 30
0.0
 11
107.6504959791865
 21
120.0436751562852
 31
0.0
  0
LINE
  5
62
330
D
100
AcDbEntity
 67
     1
  8
AM_VIS
100
AcDbLine
 10
107.6504959791865
 20
120.0436751562852
 30
0.0
 11
114.4004959791865
 21
120.0436751562852
 31
0.0
  0
LINE
  5
63
330
D
100
AcDbEntity
 67
     1
  8
AM_VIS
100
AcDbLine
 10
107.6504959791865
 20
90.04367515628519
 30
0.0
 11
114.4004959791865
 21
90.04367515628519
 31
0.0
  0
ARC
  5
64
330
D
100
AcDbEntity
 67
     1
  8
AM_VIS
100
AcDbCircle
 10
154.8004959795286
 20
87.64367515594313
 30
0.0
 40
0.4000000003420397
100
AcDbArc
 50
90.00000000000103
 51
179.9999999020053
  0
ARC
  5
65
330
D
100
AcDbEntity
 67
     1
  8
AM_VIS
100
AcDbCircle
 10
154.8004959795288
 20
122.4436751566274
 30
0.0
 40
0.4000000003422244
100
AcDbArc
 50
180.0000000490243
 51
269.9999999509858
  0
LINE
  5
66
330
D
100
AcDbEntity
 67
     1
  8
AM_VIS
100
AcDbLine
 10
174.4004959791866
 20
83.52043190625431
 30
0.0
 11
174.4004959791866
 21
82.04367515628518
 31
0.0
  0
LINE
  5
67
330
D
100
AcDbEntity
 67
     1
  8
AM_VIS
100
AcDbLine
 10
174.4004959791866
 20
128.0436751562852
 30
0.0
 11
174.4004959791866
 21
126.566918406316
 31
0.0
  0
LINE
  5
68
330
D
100
AcDbEntity
 67
     1
  8
AM_VIS
100
AcDbLine
 10
173.9004959791866
 20
81.5436751562852
 30
0.0
 11
173.9004959791866
 21
83.32386852731174
 31
0.0
  0
LINE
  5
69
330
D
100
AcDbEntity
 67
     1
  8
AM_VIS
100
AcDbLine
 10
173.9004959791866
 20
126.7634817852586
 30
0.0
 11
173.9004959791866
 21
128.5436751562852
 31
0.0
  0
LINE
  5
6B
330
D
100
AcDbEntity
 67
     1
  8
AM_VIS
100
AcDbLine
 10
168.9004959791866
 20
128.5436751562852
 30
0.0
 11
168.9004959791866
 21
126.7634817852586
 31
0.0
  0
LINE
  5
6C
330
D
100
AcDbEntity
 67
     1
  8
AM_VIS
100
AcDbLine
 10
168.4004959791866
 20
82.04367515628518
 30
0.0
 11
168.4004959791866
 21
83.52043190625431
 31
0.0
  0
LINE
  5
6D
330
D
100
AcDbEntity
 67
     1
  8
AM_VIS
100
AcDbLine
 10
168.9004959791866
 20
83.32386852731174
 30
0.0
 11
168.9004959791866
 21
81.5436751562852
 31
0.0
  0
LINE
  5
6E
330
D
100
AcDbEntity
 67
     1
  8
AM_VIS
100
AcDbLine
 10
154.4004959791866
 20
128.0436751562852
 30
0.0
 11
154.4004959791866
 21
126.566918406316
 31
0.0
  0
LINE
  5
6F
330
D
100
AcDbEntity
 67
     1
  8
AM_VIS
100
AcDbLine
 10
154.4004959791866
 20
83.52043190625431
 30
0.0
 11
154.4004959791866
 21
82.04367515628518
 31
0.0
  0
LINE
  5
70
330
D
100
AcDbEntity
 67
     1
  8
AM_VIS
100
AcDbLine
 10
153.9004959791865
 20
81.5436751562852
 30
0.0
 11
153.9004959791865
 21
83.32386852731174
 31
0.0
  0
ARC
  5
72
330
D
100
AcDbEntity
 67
     1
  8
AM_VIS
100
AcDbCircle
 10
134.1504959791866
 20
105.0436751562852
 30
0.0
 40
13.5
100
AcDbArc
 50
10.93978848126729
 51
169.0602115187327
  0
ARC
  5
73
330
D
100
AcDbEntity
 67
     1
  8
AM_VIS
100
AcDbCircle
 10
119.1504959791865
 20
105.0436751562852
 30
0.0
 40
3.1
100
AcDbArc
 50
55.73573185377612
 51
304.2642681462238
  0
ARC
  5
74
330
D
100
AcDbEntity
 67
     1
  8
AM_VIS
100
AcDbCircle
 10
134.1504959791866
 20
105.0436751562852
 30
0.0
 40
13.5
100
AcDbArc
 50
190.9397884812674
 51
349.0602115187327
  0
ARC
  5
75
330
D
100
AcDbEntity
 67
     1
  8
AM_VIS
100
AcDbCircle
 10
149.1504959791866
 20
105.0436751562852
 30
0.0
 40
3.1
100
AcDbArc
 50
235.7357318537759
 51
124.2642681462241
  0
LINE
  5
76
330
D
100
AcDbEntity
 67
     1
  8
AM_VIS
100
AcDbLine
 10
153.9004959791865
 20
126.7634817852586
 30
0.0
 11
153.9004959791865
 21
128.5436751562852
 31
0.0
  0
LINE
  5
77
330
D
100
AcDbEntity
 67
     1
  8
AM_VIS
100
AcDbLine
 10
114.4004959791865
 20
82.04367515628518
 30
0.0
 11
114.4004959791865
 21
83.52043190625431
 31
0.0
  0
LINE
  5
78
330
D
100
AcDbEntity
 67
     1
  8
AM_VIS
100
AcDbLine
 10
114.9004959791866
 20
83.32386852731174
 30
0.0
 11
114.9004959791866
 21
81.5436751562852
 31
0.0
  0
LINE
  5
79
330
D
100
AcDbEntity
 67
     1
  8
AM_VIS
100
AcDbLine
 10
114.4004959791865
 20
126.566918406316
 30
0.0
 11
114.4004959791865
 21
128.0436751562852
 31
0.0
  0
LINE
  5
7A
330
D
100
AcDbEntity
 67
     1
  8
AM_VIS
100
AcDbLine
 10
114.9004959791866
 20
128.5436751562852
 30
0.0
 11
114.9004959791866
 21
126.7634817852586
 31
0.0
  0
LINE
  5
7E
330
D
100
AcDbEntity
 67
     1
  8
AM_VIS
100
AcDbLine
 10
107.6504959791865
 20
120.0436751562852
 30
0.0
 11
107.6504959791865
 21
90.04367515628519
 31
0.0
  0
LINE
  5
7F
330
D
100
AcDbEntity
 67
     1
  8
AM_VIS
100
AcDbLine
 10
106.9004959791865
 20
90.79367515628518
 30
0.0
 11
106.9004959791865
 21
119.2936751562852
 31
0.0
  0
LINE
  5
80
330
D
100
AcDbEntity
 67
     1
  8
AM_VIS
100
AcDbLine
 10
120.8260903297824
 20
107.2233689791597
 30
0.0
 11
120.9153256535059
 21
107.7122948777464
 31
0.0
  0
LINE
  5
81
330
D
100
AcDbEntity
 67
     1
  8
AM_VIS
100
AcDbLine
 10
120.8260903297825
 20
102.8639813334106
 30
0.0
 11
120.9153256535059
 21
102.375055434824
 31
0.0
  0
LINE
  5
82
330
D
100
AcDbEntity
 67
     1
  8
AM_VIS
100
AcDbLine
 10
147.3856663048673
 20
102.3750554348241
 30
0.0
 11
147.4749016285907
 21
102.8639813334106
 31
0.0
  0
LINE
  5
83
330
D
100
AcDbEntity
 67
     1
  8
AM_VIS
100
AcDbLine
 10
147.3856663048672
 20
107.7122948777464
 30
0.0
 11
147.4749016285907
 21
107.2233689791598
 31
0.0
  0
ARC
  5
84
330
D
100
AcDbEntity
 67
     1
  8
AM_VIS
100
AcDbCircle
 10
134.1504959791866
 20
105.0436751562852
 30
0.0
 40
13.5
100
AcDbArc
 50
11.39987526162631
 51
168.6001247383739
  0
ARC
  5
85
330
D
100
AcDbEntity
 67
     1
  8
AM_VIS
100
AcDbCircle
 10
119.1504959791866
 20
105.0436751562852
 30
0.0
 40
3.199999999999999
100
AcDbArc
 50
303.5028983033288
 51
56.49710169667118
  0
ARC
  5
86
330
D
100
AcDbEntity
 67
     1
  8
AM_VIS
100
AcDbCircle
 10
134.1504959791866
 20
105.0436751562852
 30
0.0
 40
13.5
100
AcDbArc
 50
191.3998752616261
 51
348.6001247383744
  0
ARC
  5
87
330
D
100
AcDbEntity
 67
     1
  8
AM_VIS
100
AcDbCircle
 10
149.1504959791866
 20
105.0436751562853
 30
0.0
 40
3.200000000000002
100
AcDbArc
 50
123.5028983033295
 51
236.4971016966714
  0
LINE
  5
8E
330
D
100
AcDbEntity
 67
     1
  8
AM_VIS
100
AcDbLine
 10
105.4004959791866
 20
98.04367515628541
 30
0.0
 11
106.9004959791865
 21
96.88177268601544
 31
0.0
  0
LINE
  5
8F
330
D
100
AcDbEntity
 67
     1
  8
AM_VIS
100
AcDbLine
 10
105.4004959791866
 20
112.0436751562849
 30
0.0
 11
106.9004959791865
 21
113.2055776265549
 31
0.0
  0
LINE
  5
90
330
D
100
AcDbEntity
 67
     1
  8
AM_VIS
100
AcDbLine
 10
105.4004959791865
 20
98.04367515628541
 30
0.0
 11
105.4004959791865
 21
105.0436751562852
 31
0.0
  0
LINE
  5
91
330
D
100
AcDbEntity
 67
     1
  8
AM_VIS
100
AcDbLine
 10
105.4004959791865
 20
105.0436751562852
 30
0.0
 11
105.4004959791865
 21
112.0436751562849
 31
0.0
  0
LINE
  5
92
330
D
100
AcDbEntity
 67
     1
  8
AM_VIS
100
AcDbLine
 10
118.7804959791866
 20
106.6436751562851
 30
0.0
 11
119.5204959791866
 21
106.6436751562851
 31
0.0
  0
LINE
  5
93
330
D
100
AcDbEntity
 67
     1
  8
AM_VIS
100
AcDbLine
 10
119.5204959791866
 20
106.6436751562851
 30
0.0
 11
119.5204959791866
 21
105.4136751562852
 31
0.0
  0
LINE
  5
95
330
D
100
AcDbEntity
 67
     1
  8
AM_VIS
100
AcDbLine
 10
119.5204959791866
 20
103.4436751562851
 30
0.0
 11
118.7804959791866
 21
103.4436751562851
 31
0.0
  0
LINE
  5
99
330
D
100
AcDbEntity
 67
     1
  8
AM_VIS
100
AcDbLine
 10
120.7504959791866
 20
105.4136751562852
 30
0.0
 11
120.7504959791866
 21
104.6736751562852
 31
0.0
  0
LINE
  5
9F
330
D
100
AcDbEntity
 67
     1
  8
AM_VIS
100
AcDbLine
 10
117.5504959791865
 20
104.6736751562853
 30
0.0
 11
117.5504959791865
 21
105.4136751562853
 31
0.0
  0
LINE
  5
A2
330
D
100
AcDbEntity
 67
     1
  8
AM_VIS
100
AcDbLine
 10
120.7504959791866
 20
104.6736751562852
 30
0.0
 11
119.5204959791866
 21
104.6736751562852
 31
0.0
  0
LINE
  5
A6
330
D
100
AcDbEntity
 67
     1
  8
AM_VIS
100
AcDbLine
 10
118.7804959791865
 20
103.4436751562851
 30
0.0
 11
118.7804959791865
 21
104.6736751562852
 31
0.0
  0
LINE
  5
A7
330
D
100
AcDbEntity
 67
     1
  8
AM_VIS
100
AcDbLine
 10
117.5504959791865
 20
105.4136751562852
 30
0.0
 11
118.7804959791865
 21
105.4136751562852
 31
0.0
  0
ARC
  5
BE
330
D
100
AcDbEntity
 67
     1
  8
AM_VIS
100
AcDbCircle
 10
119.1504959791866
 20
105.0436751562852
 30
0.0
 40
2.75
100
AcDbArc
 50
90.0
 51
270.0
  0
ARC
  5
BF
330
D
100
AcDbEntity
 67
     1
  8
AM_VIS
100
AcDbCircle
 10
119.1504959791866
 20
105.0436751562852
 30
0.0
 40
2.75
100
AcDbArc
 50
270.0
 51
90.0
  0
ARC
  5
130
330
D
100
AcDbEntity
 67
     1
  8
AM_VIS
100
AcDbCircle
 10
149.1504959791866
 20
105.0436751562852
 30
0.0
 40
2.75
100
AcDbArc
 50
180.0
 51
0.0
  0
ARC
  5
131
330
D
100
AcDbEntity
 67
     1
  8
AM_VIS
100
AcDbCircle
 10
149.1504959791866
 20
105.0436751562852
 30
0.0
 40
2.75
100
AcDbArc
 50
0.0
 51
180.0
  0
LINE
  5
132
330
D
100
AcDbEntity
 67
     1
  8
AM_VIS
100
AcDbLine
 10
27.23409987126661
 20
83.3237398289167
 30
0.0
 11
27.73410009300164
 21
83.52030264382802
 31
0.0
  0
LINE
  5
133
330
D
100
AcDbEntity
 67
     1
  8
AM_VIS
100
AcDbLine
 10
27.23404927665143
 20
126.7634817852586
 30
0.0
 11
27.23404927665143
 21
83.32386852731167
 31
0.0
  0
LINE
  5
134
330
D
100
AcDbEntity
 67
     1
  8
AM_VIS
100
AcDbLine
 10
27.73404927665144
 20
83.52043190625431
 30
0.0
 11
27.73404927665144
 21
126.5669184063161
 31
0.0
  0
LINE
  5
135
330
D
100
AcDbEntity
 67
     1
  8
AM_VIS
100
AcDbLine
 10
27.23409987126661
 20
126.7636104836537
 30
0.0
 11
27.73410009300164
 21
126.5670476687423
 31
0.0
  0
LINE
  5
136
330
D
100
AcDbEntity
 67
     1
  8
AM_VIS
100
AcDbLine
 10
29.01411394928294
 20
128.54362456167
 30
0.0
 11
29.21067676419426
 21
128.043624339935
 31
0.0
  0
LINE
  5
137
330
D
100
AcDbEntity
 67
     1
  8
AM_VIS
100
AcDbLine
 10
72.45385590562495
 20
128.5436751562852
 30
0.0
 11
29.01424264767797
 21
128.5436751562852
 31
0.0
  0
LINE
  5
138
330
D
100
AcDbEntity
 67
     1
  8
AM_VIS
100
AcDbLine
 10
29.21080602662056
 20
128.0436751562852
 30
0.0
 11
72.25729252668234
 21
128.0436751562852
 31
0.0
  0
LINE
  5
139
330
D
100
AcDbEntity
 67
     1
  8
AM_VIS
100
AcDbLine
 10
72.25742178910863
 20
128.043624339935
 30
0.0
 11
72.45398460401998
 21
128.54362456167
 31
0.0
  0
LINE
  5
13A
330
D
100
AcDbEntity
 67
     1
  8
AM_VIS
100
AcDbLine
 10
73.73399846030125
 20
126.5670476687423
 30
0.0
 11
74.23399868203628
 21
126.7636104836537
 31
0.0
  0
LINE
  5
13B
330
D
100
AcDbEntity
 67
     1
  8
AM_VIS
100
AcDbLine
 10
74.23404927665146
 20
83.32386852731174
 30
0.0
 11
74.23404927665146
 21
126.7634817852587
 31
0.0
  0
LINE
  5
13C
330
D
100
AcDbEntity
 67
     1
  8
AM_VIS
100
AcDbLine
 10
73.7340051148044
 20
83.52031956165905
 30
0.0
 11
74.23401090255083
 21
83.32377090633146
 31
0.0
  0
LINE
  5
13D
330
D
100
AcDbEntity
 67
     1
  8
AM_VIS
100
AcDbLine
 10
73.73404927665146
 20
126.566918406316
 30
0.0
 11
73.73404927665146
 21
83.52043190625431
 31
0.0
  0
LINE
  5
13E
330
D
100
AcDbEntity
 67
     1
  8
AM_VIS
100
AcDbLine
 10
72.2574217891086
 20
82.04372597263541
 30
0.0
 11
72.45398460401995
 21
81.54372575090034
 31
0.0
  0
LINE
  5
13F
330
D
100
AcDbEntity
 67
     1
  8
AM_VIS
100
AcDbLine
 10
29.01424264767797
 20
81.5436751562852
 30
0.0
 11
72.45385590562495
 21
81.5436751562852
 31
0.0
  0
LINE
  5
140
330
D
100
AcDbEntity
 67
     1
  8
AM_VIS
100
AcDbLine
 10
29.01414502669769
 20
81.54371353038579
 30
0.0
 11
29.21069368202529
 21
82.04371931813225
 31
0.0
  0
LINE
  5
141
330
D
100
AcDbEntity
 67
     1
  8
AM_VIS
100
AcDbLine
 10
72.25729252668234
 20
82.04367515628518
 30
0.0
 11
29.21080602662056
 21
82.04367515628518
 31
0.0
  0
ARC
  5
148
330
D
100
AcDbEntity
 67
     1
  8
AM_VIS
100
AcDbCircle
 10
50.73404927665143
 20
105.0436751562852
 30
0.0
 40
31.5
100
AcDbArc
 50
223.1002973870071
 51
226.899702612993
  0
ARC
  5
149
330
D
100
AcDbEntity
 67
     1
  8
AM_VIS
100
AcDbCircle
 10
50.73404927665143
 20
105.0436751562852
 30
0.0
 40
32.0
100
AcDbArc
 50
222.7455692246568
 51
227.2544307753431
  0
ARC
  5
14A
330
D
100
AcDbEntity
 67
     1
  8
AM_VIS
100
AcDbCircle
 10
50.73404927665143
 20
105.0436751562852
 30
0.0
 40
31.5
100
AcDbArc
 50
133.100297387007
 51
136.899702612993
  0
ARC
  5
14B
330
D
100
AcDbEntity
 67
     1
  8
AM_VIS
100
AcDbCircle
 10
50.73404927665143
 20
105.0436751562852
 30
0.0
 40
32.0
100
AcDbArc
 50
132.7455692246568
 51
137.2544307753432
  0
ARC
  5
14C
330
D
100
AcDbEntity
 67
     1
  8
AM_VIS
100
AcDbCircle
 10
50.73404927665143
 20
105.0436751562852
 30
0.0
 40
31.5
100
AcDbArc
 50
313.1002973870071
 51
316.8997026129929
  0
ARC
  5
14D
330
D
100
AcDbEntity
 67
     1
  8
AM_VIS
100
AcDbCircle
 10
50.73404927665143
 20
105.0436751562852
 30
0.0
 40
32.0
100
AcDbArc
 50
312.7455692246568
 51
317.2544307753432
  0
ARC
  5
14E
330
D
100
AcDbEntity
 67
     1
  8
AM_VIS
100
AcDbCircle
 10
50.73404927665143
 20
105.0436751562852
 30
0.0
 40
31.5
100
AcDbArc
 50
43.10029738700703
 51
46.89970261299293
  0
ARC
  5
14F
330
D
100
AcDbEntity
 67
     1
  8
AM_VIS
100
AcDbCircle
 10
50.73404927665143
 20
105.0436751562852
 30
0.0
 40
32.0
100
AcDbArc
 50
42.7455692246568
 51
47.25443077534321
  0
LINE
  5
16B
330
D
100
AcDbEntity
 67
     1
  8
AM_VIS
100
AcDbLine
 10
251.7815947604548
 20
126.5670476687423
 30
0.0
 11
252.2815949821898
 21
126.7636104836537
 31
0.0
  0
LINE
  5
16C
330
D
100
AcDbEntity
 67
     1
  8
AM_VIS
100
AcDbLine
 10
252.2816455768051
 20
83.32386852731174
 30
0.0
 11
252.2816455768051
 21
126.7634817852587
 31
0.0
  0
LINE
  5
16D
330
D
100
AcDbEntity
 67
     1
  8
AM_VIS
100
AcDbLine
 10
251.781601414958
 20
83.52031956165905
 30
0.0
 11
252.2816072027044
 21
83.32377090633146
 31
0.0
  0
LINE
  5
16E
330
D
100
AcDbEntity
 67
     1
  8
AM_VIS
100
AcDbLine
 10
251.781645576805
 20
126.566918406316
 30
0.0
 11
251.781645576805
 21
83.52043190625431
 31
0.0
  0
LINE
  5
16F
330
D
100
AcDbEntity
 67
     1
  8
AM_VIS
100
AcDbLine
 10
207.0617102494365
 20
128.54362456167
 30
0.0
 11
207.2582730643479
 21
128.043624339935
 31
0.0
  0
LINE
  5
170
330
D
100
AcDbEntity
 67
     1
  8
AM_VIS
100
AcDbLine
 10
250.5014522057785
 20
128.5436751562852
 30
0.0
 11
207.0618389478315
 21
128.5436751562852
 31
0.0
  0
LINE
  5
171
330
D
100
AcDbEntity
 67
     1
  8
AM_VIS
100
AcDbLine
 10
250.3050011714312
 20
128.0436309944381
 30
0.0
 11
250.5015498267588
 21
128.5436367821845
 31
0.0
  0
LINE
  5
172
330
D
100
AcDbEntity
 67
     1
  8
AM_VIS
100
AcDbLine
 10
207.2584023267741
 20
128.0436751562852
 30
0.0
 11
250.3048888268359
 21
128.0436751562852
 31
0.0
  0
LINE
  5
173
330
D
100
AcDbEntity
 67
     1
  8
AM_VIS
100
AcDbLine
 10
250.3050180892622
 20
82.04372597263541
 30
0.0
 11
250.5015809041735
 21
81.54372575090034
 31
0.0
  0
LINE
  5
174
330
D
100
AcDbEntity
 67
     1
  8
AM_VIS
100
AcDbLine
 10
207.0617413268513
 20
81.54371353038579
 30
0.0
 11
207.2582899821788
 21
82.04371931813225
 31
0.0
  0
LINE
  5
175
330
D
100
AcDbEntity
 67
     1
  8
AM_VIS
100
AcDbLine
 10
250.3048888268359
 20
82.04367515628518
 30
0.0
 11
207.2584023267741
 21
82.04367515628518
 31
0.0
  0
LINE
  5
176
330
D
100
AcDbEntity
 67
     1
  8
AM_VIS
100
AcDbLine
 10
205.2816961714202
 20
83.3237398289167
 30
0.0
 11
205.7816963931553
 21
83.52030264382802
 31
0.0
  0
LINE
  5
177
330
D
100
AcDbEntity
 67
     1
  8
AM_VIS
100
AcDbLine
 10
205.2816839509056
 20
126.763579406239
 30
0.0
 11
205.7816897386521
 21
126.5670307509113
 31
0.0
  0
LINE
  5
178
330
D
100
AcDbEntity
 67
     1
  8
AM_VIS
100
AcDbLine
 10
205.781645576805
 20
83.52043190625431
 30
0.0
 11
205.781645576805
 21
126.566918406316
 31
0.0
  0
LINE
  5
179
330
D
100
AcDbEntity
 67
     1
  8
AM_VIS
100
AcDbLine
 10
207.0618389478315
 20
81.5436751562852
 30
0.0
 11
250.5014522057785
 21
81.5436751562852
 31
0.0
  0
LINE
  5
17A
330
D
100
AcDbEntity
 67
     1
  8
AM_VIS
100
AcDbLine
 10
205.281645576805
 20
126.7634817852587
 30
0.0
 11
205.281645576805
 21
83.32386852731174
 31
0.0
  0
ARC
  5
186
330
D
100
AcDbEntity
 67
     1
  8
AM_VIS
100
AcDbCircle
 10
228.781645576805
 20
105.0436751562852
 30
0.0
 40
31.5
100
AcDbArc
 50
223.100297387007
 51
226.8997026129929
  0
ARC
  5
187
330
D
100
AcDbEntity
 67
     1
  8
AM_VIS
100
AcDbCircle
 10
228.781645576805
 20
105.0436751562852
 30
0.0
 40
31.5
100
AcDbArc
 50
133.100297387007
 51
136.899702612993
  0
ARC
  5
188
330
D
100
AcDbEntity
 67
     1
  8
AM_VIS
100
AcDbCircle
 10
228.781645576805
 20
105.0436751562852
 30
0.0
 40
31.5
100
AcDbArc
 50
313.1002973870071
 51
316.8997026129929
  0
ARC
  5
189
330
D
100
AcDbEntity
 67
     1
  8
AM_VIS
100
AcDbCircle
 10
228.781645576805
 20
105.0436751562852
 30
0.0
 40
32.0
100
AcDbArc
 50
312.7455692246568
 51
317.2544307753432
  0
ARC
  5
18A
330
D
100
AcDbEntity
 67
     1
  8
AM_VIS
100
AcDbCircle
 10
228.781645576805
 20
105.0436751562852
 30
0.0
 40
31.5
100
AcDbArc
 50
43.10029738700705
 51
46.89970261299295
  0
ARC
  5
18B
330
D
100
AcDbEntity
 67
     1
  8
AM_VIS
100
AcDbCircle
 10
228.781645576805
 20
105.0436751562852
 30
0.0
 40
32.0
100
AcDbArc
 50
42.74556922465677
 51
47.25443077534317
  0
ARC
  5
18C
330
D
100
AcDbEntity
 67
     1
  8
AM_VIS
100
AcDbCircle
 10
228.781645576805
 20
105.0436751562852
 30
0.0
 40
32.0
100
AcDbArc
 50
222.7455692246568
 51
227.2544307753432
  0
ARC
  5
18D
330
D
100
AcDbEntity
 67
     1
  8
AM_VIS
100
AcDbCircle
 10
228.781645576805
 20
105.0436751562852
 30
0.0
 40
32.0
100
AcDbArc
 50
132.7455692246568
 51
137.2544307753432
  0
VIEWPORT
  5
1C3
330
D
100
AcDbEntity
 67
     1
  8
0
100
AcDbViewport
 10
137.7735778248615
 20
92.72448329183642
 30
0.0
 40
259.5488654569004
 41
193.4968310586818
 68
     1
 69
     1
 12
137.7735778248615
 22
92.72448329183642
 13
0.0
 23
0.0
 14
1.0
 24
1.0
 15
0.0
 25
0.0
 16
0.0
 26
0.0
 36
1.0
 17
0.0
 27
0.0
 37
0.0
 42
50.0
 43
0.0
 44
0.0
 45
193.4968310586818
 50
0.0
 51
0.0
 72
  1000
 90
    32800
  1

281
     0
 71
     1
 74
     0
110
0.0
120
0.0
130
0.0
111
1.0
121
0.0
131
0.0
112
0.0
122
1.0
132
0.0
 79
     0
146
0.0
170
     0
  0
LINE
  5
267
330
D
100
AcDbEntity
 67
     1
  8
AM_VIS
100
AcDbLine
 10
119.5204959791866
 20
105.4136751562852
 30
0.0
 11
120.7504959791866
 21
105.4136751562852
 31
0.0
  0
LINE
  5
26A
330
D
100
AcDbEntity
 67
     1
  8
AM_VIS
100
AcDbLine
 10
118.7804959791865
 20
105.4136751562852
 30
0.0
 11
118.7804959791866
 21
106.6436751562851
 31
0.0
  0
LINE
  5
26B
330
D
100
AcDbEntity
 67
     1
  8
AM_VIS
100
AcDbLine
 10
118.7804959791865
 20
104.6736751562852
 30
0.0
 11
117.5504959791865
 21
104.6736751562852
 31
0.0
  0
LINE
  5
26C
330
D
100
AcDbEntity
 67
     1
  8
AM_VIS
100
AcDbLine
 10
119.5204959791866
 20
104.6736751562852
 30
0.0
 11
119.5204959791866
 21
103.4436751562851
 31
0.0
  0
LINE
  5
26D
330
D
100
AcDbEntity
 67
     1
  8
AM_VIS
100
AcDbLine
 10
148.7804959791866
 20
106.6436751562851
 30
0.0
 11
149.5204959791866
 21
106.6436751562851
 31
0.0
  0
LINE
  5
26E
330
D
100
AcDbEntity
 67
     1
  8
AM_VIS
100
AcDbLine
 10
149.5204959791866
 20
106.6436751562851
 30
0.0
 11
149.5204959791866
 21
105.4136751562852
 31
0.0
  0
LINE
  5
26F
330
D
100
AcDbEntity
 67
     1
  8
AM_VIS
100
AcDbLine
 10
149.5204959791866
 20
104.6736751562852
 30
0.0
 11
149.5204959791866
 21
103.4436751562851
 31
0.0
  0
LINE
  5
270
330
D
100
AcDbEntity
 67
     1
  8
AM_VIS
100
AcDbLine
 10
149.5204959791866
 20
103.4436751562851
 30
0.0
 11
148.7804959791866
 21
103.4436751562851
 31
0.0
  0
LINE
  5
271
330
D
100
AcDbEntity
 67
     1
  8
AM_VIS
100
AcDbLine
 10
150.7504959791866
 20
105.4136751562852
 30
0.0
 11
150.7504959791866
 21
104.6736751562852
 31
0.0
  0
LINE
  5
272
330
D
100
AcDbEntity
 67
     1
  8
AM_VIS
100
AcDbLine
 10
147.5504959791865
 20
104.6736751562853
 30
0.0
 11
147.5504959791865
 21
105.4136751562853
 31
0.0
  0
LINE
  5
273
330
D
100
AcDbEntity
 67
     1
  8
AM_VIS
100
AcDbLine
 10
150.7504959791866
 20
104.6736751562852
 30
0.0
 11
149.5204959791866
 21
104.6736751562852
 31
0.0
  0
LINE
  5
274
330
D
100
AcDbEntity
 67
     1
  8
AM_VIS
100
AcDbLine
 10
148.7804959791866
 20
104.6736751562852
 30
0.0
 11
147.5504959791865
 21
104.6736751562852
 31
0.0
  0
LINE
  5
275
330
D
100
AcDbEntity
 67
     1
  8
AM_VIS
100
AcDbLine
 10
148.7804959791865
 20
103.4436751562851
 30
0.0
 11
148.7804959791866
 21
104.6736751562852
 31
0.0
  0
LINE
  5
276
330
D
100
AcDbEntity
 67
     1
  8
AM_VIS
100
AcDbLine
 10
148.7804959791865
 20
105.4136751562852
 30
0.0
 11
148.7804959791866
 21
106.6436751562851
 31
0.0
  0
LINE
  5
277
330
D
100
AcDbEntity
 67
     1
  8
AM_VIS
100
AcDbLine
 10
147.5504959791865
 20
105.4136751562852
 30
0.0
 11
148.7804959791866
 21
105.4136751562852
 31
0.0
  0
LINE
  5
278
330
D
100
AcDbEntity
 67
     1
  8
AM_VIS
100
AcDbLine
 10
149.5204959791866
 20
105.4136751562852
 30
0.0
 11
150.7504959791866
 21
105.4136751562852
 31
0.0
  0
TEXT
  5
2FD
330
D
100
AcDbEntity
 67
     1
  8
LOGO
 62
     7
100
AcDbText
 10
53.18944200857607
 20
18.30989395457408
 30
0.0
 40
3.887714579822564
  1
訂購代號:
  7
CHINESET
100
AcDbText
  0
TEXT
  5
2FE
330
D
100
AcDbEntity
 67
     1
  8
LOGO
 62
     7
100
AcDbText
 10
52.72444991143493
 20
14.66116251003063
 30
0.0
 40
2.59180971988171
  1
Order example:
 41
0.8
  7
CHINESET
100
AcDbText
  0
LINE
  5
2FF
330
D
100
AcDbEntity
 67
     1
  8
LOGO
 62
     4
100
AcDbLine
 10
92.59014755165054
 20
5.358178697362589
 30
0.0
 11
79.6310989522421
 21
5.358178697362589
 31
0.0
  0
LINE
  5
300
330
D
100
AcDbEntity
 67
     1
  8
LOGO
 62
     4
100
AcDbLine
 10
92.59014755165054
 20
12.48565542703724
 30
0.0
 11
79.6310989522421
 21
12.48565542703724
 31
0.0
  0
LINE
  5
301
330
D
100
AcDbEntity
 67
     1
  8
LOGO
 62
     4
100
AcDbLine
 10
93.0807139128052
 20
15.40144136190417
 30
0.0
 11
78.70549857959679
 21
15.40144136190417
 31
0.0
  0
LINE
  5
302
330
D
100
AcDbEntity
 67
     1
  8
LOGO
 62
     4
100
AcDbLine
 10
93.0807139128052
 20
21.23301323163807
 30
0.0
 11
78.70549857959679
 21
21.23301323163807
 31
0.0
  0
TEXT
  5
303
330
D
100
AcDbEntity
 67
     1
  8
LOGO
  6
Continuous
 62
     7
100
AcDbText
 10
81.55952880334444
 20
16.69734622184506
 30
0.0
 40
3.239762149852137
  1
MCB
  7
CHINESET
 72
     1
 11
86.11062325194627
 21
18.31722729677114
 31
0.0
100
AcDbText
 73
     2
  0
LINE
  5
304
330
D
100
AcDbEntity
 67
     1
  8
LOGO
 62
     4
100
AcDbLine
 10
78.70549857959679
 20
21.23301323163807
 30
0.0
 11
78.70549857959679
 21
15.40144136190417
 31
0.0
  0
LINE
  5
305
330
D
100
AcDbEntity
 67
     1
  8
LOGO
 62
     4
100
AcDbLine
 10
79.6310989522421
 20
12.48565542703724
 30
0.0
 11
79.6310989522421
 21
5.358178697362589
 31
0.0
  0
TEXT
  5
306
330
D
100
AcDbEntity
 67
     1
  8
LOGO
100
AcDbText
 10
83.91816455232147
 20
6.356590385995648
 30
0.0
 40
1.289681588014585
  1
Model
 72
     4
 11
86.11062325194627
 21
6.978059772288631
 31
0.0
100
AcDbText
  0
TEXT
  5
307
330
D
100
AcDbEntity
 67
     1
  8
LOGO
100
AcDbText
 10
83.51881353206456
 20
8.988242901488227
 30
0.0
 40
2.59180971988171
  1
型式
 72
     4
 11
86.11062325194627
 21
10.21782192214077
 31
0.0
100
AcDbText
  0
LINE
  5
308
330
D
100
AcDbEntity
 67
     1
  8
LOGO
 62
     4
100
AcDbLine
 10
86.11062325194627
 20
15.40144136190417
 30
0.0
 11
86.11062325194627
 21
12.48565542703724
 31
0.0
  0
LINE
  5
309
330
D
100
AcDbEntity
 67
     1
  8
LOGO
 62
     4
100
AcDbLine
 10
93.0807139128052
 20
21.23301323163807
 30
0.0
 11
93.0807139128052
 21
15.40144136190417
 31
0.0
  0
LINE
  5
30A
330
D
100
AcDbEntity
 67
     1
  8
LOGO
 62
     4
100
AcDbLine
 10
92.59014755165067
 20
12.48565542703724
 30
0.0
 11
92.59014755165067
 21
5.358178697362589
 31
0.0
  0
LINE
  5
30B
330
D
100
AcDbEntity
 67
     1
  8
LOGO
 62
     4
100
AcDbLine
 10
108.0843570673013
 20
21.23301323163813
 30
0.0
 11
108.0843570673013
 21
15.40144136190425
 31
0.0
  0
LINE
  5
30C
330
D
100
AcDbEntity
 67
     1
  8
LOGO
 62
     4
100
AcDbLine
 10
97.68121902024489
 20
21.23301323163807
 30
0.0
 11
97.68121902024489
 21
15.40144136190425
 31
0.0
  0
LINE
  5
30D
330
D
100
AcDbEntity
 67
     1
  8
LOGO
 62
     4
100
AcDbLine
 10
108.0843570673013
 20
5.358178697362589
 30
0.0
 11
97.68121902024489
 21
5.358178697362589
 31
0.0
  0
LINE
  5
30E
330
D
100
AcDbEntity
 67
     1
  8
LOGO
 62
     4
100
AcDbLine
 10
108.0843570673013
 20
15.40144136190425
 30
0.0
 11
97.68121902024489
 21
15.40144136190425
 31
0.0
  0
LINE
  5
30F
330
D
100
AcDbEntity
 67
     1
  8
LOGO
 62
     4
100
AcDbLine
 10
108.0843570673013
 20
12.48565542703734
 30
0.0
 11
97.68121902024489
 21
12.48565542703734
 31
0.0
  0
LINE
  5
310
330
D
100
AcDbEntity
 67
     1
  8
LOGO
 62
     4
100
AcDbLine
 10
97.68121902024489
 20
12.48565542703734
 30
0.0
 11
97.68121902024489
 21
5.358178697362589
 31
0.0
  0
TEXT
  5
311
330
D
100
AcDbEntity
 67
     1
  8
LOGO
100
AcDbText
 10
101.0772338205526
 20
6.353251613465031
 30
0.0
 40
1.289681588014585
  1
Bore
 72
     4
 11
102.8827880437731
 21
6.978059772288631
 31
0.0
100
AcDbText
  0
TEXT
  5
312
330
D
100
AcDbEntity
 67
     1
  8
LOGO
100
AcDbText
 10
100.1289902163987
 20
8.921917062199916
 30
0.0
 40
2.59180971988171
  1
內徑
 72
     4
 11
102.8827880437731
 21
10.21782192214077
 31
0.0
100
AcDbText
  0
LINE
  5
313
330
D
100
AcDbEntity
 67
     1
  8
LOGO
 62
     4
100
AcDbLine
 10
102.8827878943652
 20
15.40144136190425
 30
0.0
 11
102.8827878943652
 21
12.48565542703734
 31
0.0
  0
LINE
  5
314
330
D
100
AcDbEntity
 67
     1
  8
LOGO
 62
     4
100
AcDbLine
 10
108.0843570673013
 20
12.48565542703734
 30
0.0
 11
108.0843570673013
 21
5.358178697362589
 31
0.0
  0
LINE
  5
315
330
D
100
AcDbEntity
 67
     1
  8
LOGO
 62
     4
100
AcDbLine
 10
108.0843570673013
 20
21.23301323163813
 30
0.0
 11
97.68121902024489
 21
21.23301323163807
 31
0.0
  0
LINE
  5
316
330
D
100
AcDbEntity
 67
     1
  8
LOGO
  6
Continuous
 62
     7
100
AcDbLine
 10
94.09772937794469
 20
18.29657094760239
 30
0.0
 11
96.6727387310167
 21
18.29657094760239
 31
0.0
  0
TEXT
  5
317
330
D
100
AcDbEntity
 67
     1
  8
LOGO
  6
Continuous
 62
     7
100
AcDbText
 10
100.5625013303768
 20
16.66060711491934
 30
0.0
 40
3.239762149852137
  1
32
  7
CHINESET
 72
     1
 11
103.1851659278761
 21
18.28048818984541
 31
0.0
100
AcDbText
 73
     2
  0
LINE
  5
318
330
D
100
AcDbEntity
 67
     1
  8
LOGO
 62
     4
100
AcDbLine
 10
51.59829979723321
 20
3.738297622436377
 30
0.0
 11
51.59829979723321
 21
23.17687052154969
 31
0.0
  0
TEXT
  5
319
330
D
100
AcDbEntity
 67
     1
  8
LOGO
  6
Continuous
100
AcDbText
 10
15.81586218262202
 20
7.556975933102805
 30
0.0
 40
2.915785934866948
  1
金器工業股份有限公司
  7
CHINESET
100
AcDbText
  0
TEXT
  5
31A
330
D
100
AcDbEntity
 67
     1
  8
LOGO
  6
Continuous
100
AcDbText
 10
10.46014028007084
 20
4.640618732799069
 30
0.0
 40
1.943857289911299
  1
MINDMAN INDUSTRIAL CO., LTD.
 41
0.85
  7
CHINESET
100
AcDbText
  0
LINE
  5
31B
330
D
100
AcDbEntity
 67
     1
  8
LOGO
 62
     4
100
AcDbLine
 10
51.59829979723321
 20
19.2891559417269
 30
0.0
 11
23.08839287853345
 21
19.2891559417269
 31
0.0
  0
LINE
  5
31C
330
D
100
AcDbEntity
 67
     1
  8
LOGO
 62
     4
100
AcDbLine
 10
51.59829979723321
 20
15.40144136190425
 30
0.0
 11
23.08839287853345
 21
15.40144136190425
 31
0.0
  0
LINE
  5
31D
330
D
100
AcDbEntity
 67
     1
  8
LOGO
 62
     4
100
AcDbLine
 10
51.59829979723321
 20
11.51372678208175
 30
0.0
 11
8.833439419184117
 21
11.51372678208175
 31
0.0
  0
LINE
  5
31E
330
D
100
AcDbEntity
 67
     1
  8
LOGO
 62
     4
100
AcDbLine
 10
23.08839287853345
 20
11.51372678208175
 30
0.0
 11
23.08839287853345
 21
23.17687052154969
 31
0.0
  0
TEXT
  5
31F
330
D
100
AcDbEntity
 67
     1
  8
LOGO
100
AcDbText
 10
42.57356861035487
 20
12.48565542703729
 30
0.0
 40
1.943857289911299
  1
mm
  7
CHINESET
 72
     1
 11
44.98024906453077
 21
13.45758407199294
 31
0.0
100
AcDbText
 73
     2
  0
TEXT
  5
320
330
D
100
AcDbEntity
 67
     1
  8
LOGO
100
AcDbText
 10
41.55535764897276
 20
20.26108458668248
 30
0.0
 40
1.943857289911299
  1
1 : 1
  7
CHINESET
 72
     1
 11
44.98024906453077
 21
21.23301323163813
 31
0.0
100
AcDbText
 73
     2
  0
LINE
  5
321
330
D
100
AcDbEntity
 67
     1
  8
LOGO
 62
     4
100
AcDbLine
 10
38.63925119782425
 20
11.51372678208175
 30
0.0
 11
38.63925119782425
 21
23.17687052154969
 31
0.0
  0
TEXT
  5
322
330
D
100
AcDbEntity
 67
     1
  8
LOGO
100
AcDbText
 10
24.69120734927777
 20
20.26204120936452
 30
127.3972044629742
 40
1.943857289911299
  1
比例 Scale:
 41
0.9
  7
CHINESET
 72
     4
 11
30.86382203817914
 21
21.23301323163813
 31
127.3972044629742
100
AcDbText
  0
TEXT
  5
323
330
D
100
AcDbEntity
 67
     1
  8
LOGO
100
AcDbText
 10
24.57926199642127
 20
16.40071347185499
 30
127.3972044629742
 40
1.943857289911299
  1
投影  View:
 41
0.9
  7
CHINESET
 72
     4
 11
30.86382203817914
 21
17.34529865181558
 31
127.3972044629742
100
AcDbText
  0
TEXT
  5
324
330
D
100
AcDbEntity
 67
     1
  8
LOGO
100
AcDbText
 10
24.76930875824742
 20
12.48565542703729
 30
127.3972044629742
 40
1.943857289911299
  1
單位  Unit:
 41
0.9
  7
CHINESET
 72
     4
 11
30.86382203817914
 21
13.45758407199294
 31
127.3972044629742
100
AcDbText
  0
SOLID
  5
325
330
D
100
AcDbEntity
 67
     1
  8
LOGO
 62
     5
100
AcDbTrace
 10
10.85022255400389
 20
14.74511284026205
 30
0.0
 11
11.69069543934614
 21
14.74511284026154
 31
0.0
 12
15.19749609887816
 22
22.71511433919821
 32
0.0
 13
16.0379689842207
 23
22.71511433919761
 33
0.0
  0
SOLID
  5
326
330
D
100
AcDbEntity
 67
     1
  8
LOGO
 62
     5
100
AcDbTrace
 10
12.0384773229369
 20
14.74511284026205
 30
0.0
 11
12.8789502082792
 21
14.74511284026205
 31
0.0
 12
16.0379689842207
 22
22.07751421928305
 32
0.0
 13
15.19749609887816
 23
18.99578030636104
 33
0.0
  0
SOLID
  5
327
330
D
100
AcDbEntity
 67
     1
  8
LOGO
 62
     2
100
AcDbTrace
 10
11.69069543934614
 20
14.74511284026154
 30
0.0
 11
12.0384773229369
 21
14.74511284026205
 31
0.0
 12
16.0379689842207
 22
22.71511433919761
 32
0.0
 13
16.38575086781111
 23
22.71511433919761
 33
0.0
  0
SOLID
  5
328
330
D
100
AcDbEntity
 67
     1
  8
LOGO
 62
     5
100
AcDbTrace
 10
9.502738409601477
 20
11.84693047701246
 30
0.0
 11
9.792556645926822
 21
11.84693047701246
 31
0.0
 12
10.6087073570664
 22
13.29602165863721
 32
0.0
 13
10.89852559339135
 23
13.29602165863721
 33
0.0
  0
SOLID
  5
329
330
D
100
AcDbEntity
 67
     1
  8
LOGO
 62
     5
100
AcDbTrace
 10
10.6087073570664
 20
13.29602165863721
 30
0.0
 11
10.89852559339135
 21
13.29602165863721
 31
0.0
 12
10.6087073570664
 22
11.84693047701246
 32
0.0
 13
10.89852559339135
 23
11.84693047701246
 33
0.0
  0
SOLID
  5
32A
330
D
100
AcDbEntity
 67
     1
  8
LOGO
 62
     5
100
AcDbTrace
 10
10.6087073570664
 20
11.84693047701246
 30
0.0
 11
10.89852559339135
 21
11.84693047701246
 31
0.0
 12
11.71467630453236
 22
13.29602165863721
 32
0.0
 13
12.00449454085714
 23
13.29602165863721
 33
0.0
  0
SOLID
  5
32B
330
D
100
AcDbEntity
 67
     1
  8
LOGO
 62
     5
100
AcDbTrace
 10
11.71467630453236
 20
13.29602165863721
 30
0.0
 11
12.00449454085714
 21
13.29602165863721
 31
0.0
 12
11.71467630453236
 22
11.84693047701246
 32
0.0
 13
12.00449454085714
 23
11.84693047701246
 33
0.0
  0
POLYLINE
  5
32C
330
D
100
AcDbEntity
 67
     1
  8
LOGO
 62
     5
100
AcDb2dPolyline
 66
     1
 10
0.0
 20
0.0
 30
0.0
 40
0.290282688626754
 41
0.290282688626754
  0
VERTEX
  5
32D
330
32C
100
AcDbEntity
 67
     1
  8
LOGO
 62
     5
100
AcDbVertex
100
AcDb2dVertex
 10
21.42928485831772
 20
12.71638518598704
 30
0.0
 42
1.0
  0
VERTEX
  5
32E
330
32C
100
AcDbEntity
 67
     1
  8
LOGO
 62
     5
100
AcDbVertex
100
AcDb2dVertex
 10
20.55843679243782
 20
12.71638518598704
 30
0.0
 42
1.0
  0
SEQEND
  5
32F
330
32C
100
AcDbEntity
 67
     1
  8
LOGO
 62
     5
  0
POLYLINE
  5
330
330
D
100
AcDbEntity
 67
     1
  8
LOGO
 62
     5
100
AcDb2dPolyline
 66
     1
 10
0.0
 20
0.0
 30
0.0
 70
     1
  0
VERTEX
  5
331
330
330
100
AcDbEntity
 67
     1
  8
LOGO
 62
     5
100
AcDbVertex
100
AcDb2dVertex
 10
18.91684945293093
 20
12.57147606782476
 30
0.0
 42
1.000000057330635
  0
VERTEX
  5
332
330
330
100
AcDbEntity
 67
     1
  8
LOGO
 62
     5
100
AcDbVertex
100
AcDb2dVertex
 10
19.78630416190538
 20
12.57147606782476
 30
0.0
 42
1.000000057330635
  0
SEQEND
  5
333
330
330
100
AcDbEntity
 67
     1
  8
LOGO
 62
     5
  0
CIRCLE
  5
334
330
D
100
AcDbEntity
 67
     1
  8
LOGO
 62
     5
100
AcDbCircle
 10
19.35157680741866
 20
12.57147606782476
 30
0.0
 40
0.4347273544874267
  0
POLYLINE
  5
335
330
D
100
AcDbEntity
 67
     1
  8
LOGO
 62
     5
100
AcDb2dPolyline
 66
     1
 10
0.0
 20
0.0
 30
0.0
 70
     1
 40
0.290282688626754
 41
0.290282688626754
  0
VERTEX
  5
336
330
335
100
AcDbEntity
 67
     1
  8
LOGO
 62
     5
100
AcDbVertex
100
AcDb2dVertex
 10
18.77101143016489
 20
12.57147606782476
 30
0.0
 42
1.0
  0
VERTEX
  5
337
330
335
100
AcDbEntity
 67
     1
  8
LOGO
 62
     5
100
AcDbVertex
100
AcDb2dVertex
 10
19.93214218467193
 20
12.57147606782476
 30
0.0
 42
1.0
  0
SEQEND
  5
338
330
335
100
AcDbEntity
 67
     1
  8
LOGO
 62
     5
  0
LINE
  5
339
330
D
100
AcDbEntity
 67
     1
  8
LOGO
100
AcDbLine
 10
21.57349729802684
 20
11.84693047701246
 30
0.0
 11
21.57349729802684
 21
12.71638518598704
 31
0.0
  0
SOLID
  5
33A
330
D
100
AcDbEntity
 67
     1
  8
LOGO
 62
     5
100
AcDbTrace
 10
19.78627518008301
 20
13.29602165863721
 30
0.0
 11
20.07609341640756
 21
13.29602165863721
 31
0.0
 12
19.78627518008301
 22
11.84693047701246
 32
0.0
 13
20.07609341640756
 23
11.84693047701246
 33
0.0
  0
SOLID
  5
33B
330
D
100
AcDbEntity
 67
     1
  8
LOGO
 62
     5
100
AcDbTrace
 10
20.41422435272733
 20
11.84693047701246
 30
0.0
 11
20.70404258905239
 21
11.84693047701246
 31
0.0
 12
20.41422435272733
 22
13.29602165863721
 32
0.0
 13
20.70404258905239
 23
13.29602165863721
 33
0.0
  0
SOLID
  5
33C
330
D
100
AcDbEntity
 67
     1
  8
LOGO
 62
     5
100
AcDbTrace
 10
21.28367906170268
 20
12.71638518598704
 30
0.0
 11
21.57349729802684
 21
12.71638518598704
 31
0.0
 12
21.28367906170268
 22
11.84693047701246
 32
0.0
 13
21.57349729802684
 23
11.84693047701246
 33
0.0
  0
SOLID
  5
33D
330
D
100
AcDbEntity
 67
     1
  8
LOGO
 62
     5
100
AcDbTrace
 10
20.38524252909474
 20
22.07751421928305
 30
0.0
 11
19.54476964375271
 21
18.99578030636104
 31
0.0
 12
20.38524252909474
 22
14.74511284026154
 32
0.0
 13
19.54476964375271
 23
14.74511284026154
 33
0.0
  0
SOLID
  5
33E
330
D
100
AcDbEntity
 67
     1
  8
LOGO
 62
     5
100
AcDbTrace
 10
20.73302441268487
 20
14.74511284026154
 30
0.0
 11
21.57349729802684
 21
14.74511284026154
 31
0.0
 12
20.73302441268487
 22
22.71511433919761
 32
0.0
 13
21.57349729802684
 23
22.71511433919821
 33
0.0
  0
SOLID
  5
33F
330
D
100
AcDbEntity
 67
     1
  8
LOGO
 62
     2
100
AcDbTrace
 10
20.38524252909474
 20
22.71511433919821
 30
0.0
 11
20.73302441268487
 21
22.71511433919761
 31
0.0
 12
20.38524252909474
 22
14.74511284026154
 32
0.0
 13
20.73302441268487
 23
14.74511284026154
 33
0.0
  0
POLYLINE
  5
340
330
D
100
AcDbEntity
 67
     1
  8
LOGO
 62
     5
100
AcDb2dPolyline
 66
     1
 10
0.0
 20
0.0
 30
0.0
 40
0.290282688626754
 41
0.290282688626754
  0
VERTEX
  5
341
330
340
100
AcDbEntity
 67
     1
  8
LOGO
 62
     5
100
AcDbVertex
100
AcDb2dVertex
 10
17.27520414977806
 20
12.71638518598704
 30
0.0
 42
1.0
  0
VERTEX
  5
342
330
340
100
AcDbEntity
 67
     1
  8
LOGO
 62
     5
100
AcDbVertex
100
AcDb2dVertex
 10
16.4043560838972
 20
12.71638518598704
 30
0.0
 42
1.0
  0
SEQEND
  5
343
330
340
100
AcDbEntity
 67
     1
  8
LOGO
 62
     5
  0
POLYLINE
  5
344
330
D
100
AcDbEntity
 67
     1
  8
LOGO
 62
     5
100
AcDb2dPolyline
 66
     1
 10
0.0
 20
0.0
 30
0.0
 40
0.290282688626754
 41
0.290282688626754
  0
VERTEX
  5
345
330
344
100
AcDbEntity
 67
     1
  8
LOGO
 62
     5
100
AcDbVertex
100
AcDb2dVertex
 10
18.1446588587525
 20
12.71638518598704
 30
0.0
 42
1.0
  0
VERTEX
  5
346
330
344
100
AcDbEntity
 67
     1
  8
LOGO
 62
     5
100
AcDbVertex
100
AcDb2dVertex
 10
17.27381079287215
 20
12.71638518598704
 30
0.0
 42
1.0
  0
SEQEND
  5
347
330
344
100
AcDbEntity
 67
     1
  8
LOGO
 62
     5
  0
POLYLINE
  5
348
330
D
100
AcDbEntity
 67
     1
  8
LOGO
 62
     5
100
AcDb2dPolyline
 66
     1
 10
0.0
 20
0.0
 30
0.0
 40
0.290282688626754
 41
0.290282688626754
  0
VERTEX
  5
349
330
348
100
AcDbEntity
 67
     1
  8
LOGO
 62
     5
100
AcDbVertex
100
AcDb2dVertex
 10
13.990578150212
 20
12.71638518598704
 30
0.0
 42
1.0
  0
VERTEX
  5
34A
330
348
100
AcDbEntity
 67
     1
  8
LOGO
 62
     5
100
AcDbVertex
100
AcDb2dVertex
 10
13.1197300843317
 20
12.71638518598704
 30
0.0
 42
1.0
  0
SEQEND
  5
34B
330
348
100
AcDbEntity
 67
     1
  8
LOGO
 62
     5
  0
SOLID
  5
34C
330
D
100
AcDbEntity
 67
     1
  8
LOGO
 62
     5
100
AcDbTrace
 10
12.97551764462207
 20
13.29602165863721
 30
0.0
 11
13.26533588094656
 21
13.29602165863721
 31
0.0
 12
12.97551764462207
 22
11.84693047701246
 32
0.0
 13
13.26533588094656
 23
11.84693047701246
 33
0.0
  0
SOLID
  5
34D
330
D
100
AcDbEntity
 67
     1
  8
LOGO
 62
     5
100
AcDbTrace
 10
13.84497235359731
 20
12.71638518598704
 30
0.0
 11
14.13479058992283
 21
12.71638518598704
 31
0.0
 12
13.84497235359731
 22
11.84693047701246
 32
0.0
 13
14.13479058992283
 23
11.84693047701246
 33
0.0
  0
POLYLINE
  5
34E
330
D
100
AcDbEntity
 67
     1
  8
LOGO
 62
     5
100
AcDb2dPolyline
 66
     1
 10
0.0
 20
0.0
 30
0.0
 70
     1
 40
0.290282688626754
 41
0.290282688626754
  0
VERTEX
  5
34F
330
34E
100
AcDbEntity
 67
     1
  8
LOGO
 62
     5
100
AcDbVertex
100
AcDb2dVertex
 10
14.61693072162461
 20
12.57147606782476
 30
0.0
 42
1.0
  0
VERTEX
  5
350
330
34E
100
AcDbEntity
 67
     1
  8
LOGO
 62
     5
100
AcDbVertex
100
AcDb2dVertex
 10
15.77806147613165
 20
12.57147606782476
 30
0.0
 42
1.0
  0
SEQEND
  5
351
330
34E
100
AcDbEntity
 67
     1
  8
LOGO
 62
     5
  0
SOLID
  5
352
330
D
100
AcDbEntity
 67
     1
  8
LOGO
 62
     5
100
AcDbTrace
 10
15.63219447154245
 20
13.73074901312478
 30
0.0
 11
15.92201270786745
 21
13.73074901312478
 31
0.0
 12
15.63219447154245
 22
11.84693047701246
 32
0.0
 13
15.92201270786745
 23
11.84693047701246
 33
0.0
  0
SOLID
  5
353
330
D
100
AcDbEntity
 67
     1
  8
LOGO
 62
     5
100
AcDbTrace
 10
16.26014364418836
 20
13.29602165863721
 30
0.0
 11
16.54996188051291
 21
13.29602165863721
 31
0.0
 12
16.26014364418836
 22
11.84693047701246
 32
0.0
 13
16.54996188051291
 23
11.84693047701246
 33
0.0
  0
SOLID
  5
354
330
D
100
AcDbEntity
 67
     1
  8
LOGO
 62
     5
100
AcDbTrace
 10
17.1295983531624
 20
12.71638518598704
 30
0.0
 11
17.41941658948747
 21
12.71638518598704
 31
0.0
 12
17.1295983531624
 22
11.84693047701246
 32
0.0
 13
17.41941658948747
 23
11.84693047701246
 33
0.0
  0
SOLID
  5
355
330
D
100
AcDbEntity
 67
     1
  8
LOGO
 62
     5
100
AcDbTrace
 10
17.99905306213685
 20
12.71638518598704
 30
0.0
 11
18.28887129846236
 21
12.71638518598704
 31
0.0
 12
17.99905306213685
 22
11.84693047701213
 32
0.0
 13
18.28887129846236
 23
11.84693047701213
 33
0.0
  0
SOLID
  5
356
330
D
100
AcDbEntity
 67
     1
  8
LOGO
 62
     5
100
AcDbTrace
 10
12.3475684719765
 20
13.49889442406459
 30
0.0
 11
12.63738670830292
 21
13.49889442406459
 31
0.0
 12
12.3475684719765
 22
13.73074901312478
 32
0.0
 13
12.63738670830292
 23
13.73074901312478
 33
0.0
  0
SOLID
  5
357
330
D
100
AcDbEntity
 67
     1
  8
LOGO
 62
     5
100
AcDbTrace
 10
12.3475684719765
 20
13.29602165863721
 30
0.0
 11
12.63738670830292
 21
13.29602165863721
 31
0.0
 12
12.3475684719765
 22
11.84693047701213
 32
0.0
 13
12.63738670830292
 23
11.84693047701246
 33
0.0
  0
SOLID
  5
358
330
D
100
AcDbEntity
 67
     1
  8
LOGO
 62
     5
100
AcDbTrace
 10
15.19749609887816
 20
14.74511284026205
 30
0.0
 11
16.0379689842207
 21
14.74511284026205
 31
0.0
 12
15.19749609887816
 22
18.99578030636104
 32
0.0
 13
16.0379689842207
 23
22.07751421928305
 33
0.0
  0
SOLID
  5
359
330
D
100
AcDbEntity
 67
     1
  8
LOGO
 62
     5
100
AcDbTrace
 10
16.38575086781111
 20
22.71511433919761
 30
0.0
 11
17.22622375315342
 21
22.71511433919821
 31
0.0
 12
16.38575086781111
 22
15.38271296017639
 32
0.0
 13
17.22622375315342
 23
18.46444687309864
 33
0.0
  0
SOLID
  5
35A
330
D
100
AcDbEntity
 67
     1
  8
LOGO
 62
     2
100
AcDbTrace
 10
16.0379689842207
 20
22.71511433919761
 30
0.0
 11
16.38575086781111
 21
22.71511433919761
 31
0.0
 12
16.0379689842207
 22
14.74511284026205
 32
0.0
 13
16.38575086781111
 23
14.74511284026205
 33
0.0
  0
SOLID
  5
35B
330
D
100
AcDbEntity
 67
     1
  8
LOGO
 62
     5
100
AcDbTrace
 10
16.38575086781111
 20
15.38271296017639
 30
0.0
 11
17.22622375315342
 21
18.46444687309864
 31
0.0
 12
20.38524252909474
 22
22.71511433919821
 32
0.0
 13
19.54476964375271
 23
22.71511433919821
 33
0.0
  0
SOLID
  5
35C
330
D
100
AcDbEntity
 67
     1
  8
LOGO
 62
     5
100
AcDbTrace
 10
16.38575086781111
 20
14.74511284026205
 30
0.0
 11
17.22622375315342
 21
14.74511284026205
 31
0.0
 12
20.38524252909474
 22
22.07751421928305
 32
0.0
 13
19.54476964375271
 23
18.99578030636104
 33
0.0
  0
SOLID
  5
35D
330
D
100
AcDbEntity
 67
     1
  8
LOGO
 62
     2
100
AcDbTrace
 10
16.0379689842207
 20
14.74511284026205
 30
0.0
 11
16.38575086781111
 21
14.74511284026205
 31
0.0
 12
20.38524252909474
 22
22.71511433919821
 32
0.0
 13
20.73302441268487
 23
22.71511433919761
 33
0.0
  0
LWPOLYLINE
  5
35E
330
D
100
AcDbEntity
 67
     1
  8
LOGO
 62
     4
100
AcDbPolyline
 90
        4
 70
     1
 43
0.0
 10
8.833439419184912
 20
23.17687052154933
 10
266.7164548019039
 20
23.1768705215493
 10
266.7164548019039
 20
3.738297622436242
 10
8.833439419184912
 20
3.738297622436263
1001
GENIUS_GENREC_14
1002
{
1000
PYDIR
1011
8.833439419184912
1021
3.738297622436263
1031
0.0
1002
}
1002
{
1000
PXDIR
1011
266.7164548019039
1021
23.1768705215493
1031
0.0
1002
}
1002
{
1000
PORI
1011
8.833439419184912
1021
23.17687052154933
1031
0.0
1002
}
1002
{
1000
PINS
1011
8.833439419184912
1021
23.17687052154933
1031
0.0
1002
}
1002
{
1000
PINS2
1011
266.7164548019039
1021
3.738297622436242
1031
0.0
1002
}
1002
{
1000
C
1070
     1
1002
}
1001
GENIUS_GENOBJ-N-REC_13
1002
{
1000
OWNER
1000
GEN
1002
}
1001
GENIUS_GENODEF_13
1002
{
1000
HIER
1070
     0
1002
}
1002
{
1000
MANEDIT
1070
     0
1002
}
1002
{
1000
NOSEL
1070
     0
1002
}
1002
{
1000
BEHIND
1070
     0
1002
}
1002
{
1000
OTHER
1070
     0
1002
}
1002
{
1000
REACTOR
1002
}
  0
TEXT
  5
35F
330
D
100
AcDbEntity
 67
     1
  8
LOGO
100
AcDbText
 10
52.23973818489671
 20
4.772422028387495
 30
0.0
 40
1.944138794171087
  1
00909240
 41
0.7
  7
CHINESET
 72
     1
 11
57.22969442326917
 21
4.772422028387495
 31
0.0
100
AcDbText
  0
LINE
  5
360
330
D
100
AcDbEntity
 67
     1
  8
LOGO
 62
     4
100
AcDbLine
 10
63.26313256225842
 20
7.626012202259474
 30
0.0
 11
63.26313256225978
 21
3.738297622436562
 31
0.0
  0
LINE
  5
361
330
D
100
AcDbEntity
 67
     1
  8
LOGO
 62
     4
100
AcDbLine
 10
63.26313256225842
 20
7.626012202259474
 30
0.0
 11
51.59829979723321
 21
7.626012202259474
 31
0.0
  0
CIRCLE
  5
362
330
D
100
AcDbEntity
 67
     1
  8
LOGO
  6
Continuous
100
AcDbCircle
 10
42.23854610392175
 20
17.34945657678342
 30
0.0
 40
1.128649295765504
  0
CIRCLE
  5
363
330
D
100
AcDbEntity
 67
     1
  8
LOGO
  6
Continuous
100
AcDbCircle
 10
42.23854610392175
 20
17.34945657678342
 30
0.0
 40
0.6612885736494123
  0
LINE
  5
364
330
D
100
AcDbEntity
 67
     1
  8
LOGO
100
AcDbLine
 10
49.33110924143784
 20
16.22080728101781
 30
0.0
 11
49.33110924143784
 21
18.47810587254915
 31
0.0
  0
LINE
  5
365
330
D
100
AcDbEntity
 67
     1
  8
LOGO
100
AcDbLine
 10
45.79285848677364
 20
16.68816800313411
 30
0.0
 11
45.79285848677364
 21
18.01074515043308
 31
0.0
  0
LINE
  5
366
330
D
100
AcDbEntity
 67
     1
  8
LOGO
  6
Continuous
100
AcDbLine
 10
45.79285848677364
 20
18.01074515043308
 30
0.0
 11
49.33110924143784
 21
18.47810587254915
 31
0.0
  0
LINE
  5
367
330
D
100
AcDbEntity
 67
     1
  8
LOGO
  6
Continuous
100
AcDbLine
 10
45.79285848677364
 20
16.68816800313411
 30
0.0
 11
49.33110924143784
 21
16.22080728101781
 31
0.0
  0
LINE
  5
368
330
D
100
AcDbEntity
 67
     1
  8
LOGO
  6
AM_ISO08W050x2
 48
0.3
100
AcDbLine
 10
40.68268614951603
 20
17.34945657678342
 30
0.0
 11
43.79440605832627
 21
17.34945657678342
 31
0.0
1001
GENIUS_GENOREF_13
1005
36E
  0
LINE
  5
369
330
D
100
AcDbEntity
 67
     1
  8
LOGO
  6
AM_ISO08W050x2
 48
0.3
100
AcDbLine
 10
42.23854610392175
 20
15.79359662237851
 30
0.0
 11
42.23854610392175
 21
18.9053165311887
 31
0.0
1001
GENIUS_GENOREF_13
1005
36D
  0
LINE
  5
36A
330
D
100
AcDbEntity
 67
     1
  8
LOGO
  6
CENTER
 48
0.5
100
AcDbLine
 10
45.50989677162028
 20
17.34945657678342
 30
0.0
 11
49.6873996385238
 21
17.34945657678342
 31
0.0
1001
GENIUS_GENOREF_13
1005
36C
  0
LWPOLYLINE
  5
36B
330
D
100
AcDbEntity
 67
     1
  8
LOGO
 62
     4
100
AcDbPolyline
 90
        4
 70
     1
 43
0.0
 10
8.833439419184912
 20
181.7149007911886
 10
266.7164548019039
 20
181.7149007911886
 10
266.7164548019039
 20
23.1768705215493
 10
8.833439419184912
 20
23.1768705215493
  0
POINT
  5
36C
330
D
100
AcDbEntity
 67
     1
  8
0
 60
     1
100
AcDbPoint
 10
2409.994341745536
 20
-545.9823802467393
 30
0.0
1001
GENIUS_GENOBJ-N-CRS_13
1002
{
1000
OWNER
1000
GEN
1002
}
1001
GENIUS_GENOLIS_13
1002
{
1000
ENT
1005
0
1005
0
1005
0
1005
36A
1002
}
1001
GENIUS_GENOENT_13
1002
{
1000
MYREF
1005
36C
1002
}
1002
{
1000
GRP
1005
0
1002
}
1001
GENIUS_GENODEF_13
1002
{
1000
HIER
1070
    10
1002
}
1002
{
1000
MANEDIT
1070
     1
1002
}
1002
{
1000
NOSEL
1070
     0
1002
}
1002
{
1000
BEHIND
1070
     0
1002
}
1002
{
1000
OTHER
1070
     0
1002
}
1002
{
1000
REACTOR
1002
}
  0
POINT
  5
36D
330
D
100
AcDbEntity
 67
     1
  8
0
 60
     1
100
AcDbPoint
 10
2398.669756522681
 20
-537.1067937681031
 30
0.0
1001
GENIUS_GENOBJ-N-CRS_13
1002
{
1000
OWNER
1000
GEN
1002
}
1001
GENIUS_GENOLIS_13
1002
{
1000
ENT
1005
0
1005
0
1005
0
1005
369
1002
}
1001
GENIUS_GENOENT_13
1002
{
1000
MYREF
1005
36D
1002
}
1002
{
1000
GRP
1005
0
1002
}
1001
GENIUS_GENODEF_13
1002
{
1000
HIER
1070
    10
1002
}
1002
{
1000
MANEDIT
1070
     1
1002
}
1002
{
1000
NOSEL
1070
     0
1002
}
1002
{
1000
BEHIND
1070
     0
1002
}
1002
{
1000
OTHER
1070
     0
1002
}
1002
{
1000
REACTOR
1002
}
  0
POINT
  5
36E
330
D
100
AcDbEntity
 67
     1
  8
0
 60
     1
100
AcDbPoint
 10
2405.028430220518
 20
-545.9823802467393
 30
0.0
1001
GENIUS_GENOBJ-N-CRS_13
1002
{
1000
OWNER
1000
GEN
1002
}
1001
GENIUS_GENOLIS_13
1002
{
1000
ENT
1005
0
1005
0
1005
0
1005
368
1002
}
1001
GENIUS_GENOENT_13
1002
{
1000
MYREF
1005
36E
1002
}
1002
{
1000
GRP
1005
0
1002
}
1001
GENIUS_GENODEF_13
1002
{
1000
HIER
1070
    10
1002
}
1002
{
1000
MANEDIT
1070
     1
1002
}
1002
{
1000
NOSEL
1070
     0
1002
}
1002
{
1000
BEHIND
1070
     0
1002
}
1002
{
1000
OTHER
1070
     0
1002
}
1002
{
1000
REACTOR
1002
}
  0
DIMENSION
  5
4B5
330
D
100
AcDbEntity
 67
     1
  8
AM_5
100
AcDbDimension
  2
*D1
 10
74.23404927665146
 20
68.21034182295187
 30
0.0
 11
50.73404927665145
 21
70.0436751562852
 31
0.0
 70
    32
  1
{\Famgdt;o}<>
 71
     5
 42
47.00000000000001
  3
AM_ISO$0
100
AcDbAlignedDimension
 13
27.23404927665145
 23
83.32386852731167
 33
0.0
 14
74.23404927665146
 24
83.32386852731174
 34
0.0
 50
0.0000000000001132
100
AcDbRotatedDimension
1001
ACAD
1000
DSTYLE
1002
{
1070
    40
1040
0.6666666666666666
1002
}
  0
LINE
  5
4CC
330
D
100
AcDbEntity
 67
     1
  8
AM_7
  6
AM_ISO08W050x2
100
AcDbLine
 10
29.66470034944268
 20
121.2936751562852
 30
0.0
 11
38.99095739372786
 21
121.2936751562852
 31
0.0
1001
GENIUS_GENODEF_13
1002
{
1000
HIER
1070
     0
1002
}
1002
{
1000
MANEDIT
1070
     0
1002
}
1002
{
1000
NOSEL
1070
     0
1002
}
1002
{
1000
BEHIND
1070
     0
1002
}
1002
{
1000
OTHER
1070
     0
1002
}
1002
{
1000
REACTOR
1002
}
1001
GENIUS_GENOBJ-N-CEN_13
1002
{
1000
OWNER
1000
GEN
1002
}
1001
GENIUS_GENCEN_19
1002
{
1040
2.0
1002
}
  0
LINE
  5
4CF
330
D
100
AcDbEntity
 67
     1
  8
AM_7
  6
AM_ISO08W050x2
100
AcDbLine
 10
34.48404927665143
 20
126.0379863590201
 30
0.0
 11
34.48404927665143
 21
116.0727324336766
 31
0.0
1001
GENIUS_GENODEF_13
1002
{
1000
HIER
1070
     0
1002
}
1002
{
1000
MANEDIT
1070
     0
1002
}
1002
{
1000
NOSEL
1070
     0
1002
}
1002
{
1000
BEHIND
1070
     0
1002
}
1002
{
1000
OTHER
1070
     0
1002
}
1002
{
1000
REACTOR
1002
}
1001
GENIUS_GENOBJ-N-CEN_13
1002
{
1000
OWNER
1000
GEN
1002
}
1001
GENIUS_GENCEN_19
1002
{
1040
2.0
1002
}
  0
CIRCLE
  5
4EF
330
D
100
AcDbEntity
 67
     1
  8
0
100
AcDbCircle
 10
34.48404927665143
 20
121.2936751562852
 30
0.0
 40
2.459999999999999
  0
ARC
  5
4F0
330
D
100
AcDbEntity
 67
     1
  8
0
100
AcDbCircle
 10
34.48404927665143
 20
121.2936751562852
 30
0.0
 40
2.959999999999999
100
AcDbArc
 50
246.7282868526565
 51
197.2542989092319
  0
LINE
  5
4F1
330
D
100
AcDbEntity
 67
     1
  8
AM_7
  6
AM_ISO08W050x2
100
AcDbLine
 10
62.16470034944268
 20
121.2936751562852
 30
0.0
 11
71.49095739372786
 21
121.2936751562852
 31
0.0
1001
GENIUS_GENODEF_13
1002
{
1000
HIER
1070
     0
1002
}
1002
{
1000
MANEDIT
1070
     0
1002
}
1002
{
1000
NOSEL
1070
     0
1002
}
1002
{
1000
BEHIND
1070
     0
1002
}
1002
{
1000
OTHER
1070
     0
1002
}
1002
{
1000
REACTOR
1002
}
1001
GENIUS_GENOBJ-N-CEN_13
1002
{
1000
OWNER
1000
GEN
1002
}
1001
GENIUS_GENCEN_19
1002
{
1040
2.0
1002
}
  0
LINE
  5
4F2
330
D
100
AcDbEntity
 67
     1
  8
AM_7
  6
AM_ISO08W050x2
100
AcDbLine
 10
66.98404927665146
 20
126.0379863590201
 30
0.0
 11
66.98404927665146
 21
116.0727324336766
 31
0.0
1001
GENIUS_GENODEF_13
1002
{
1000
HIER
1070
     0
1002
}
1002
{
1000
MANEDIT
1070
     0
1002
}
1002
{
1000
NOSEL
1070
     0
1002
}
1002
{
1000
BEHIND
1070
     0
1002
}
1002
{
1000
OTHER
1070
     0
1002
}
1002
{
1000
REACTOR
1002
}
1001
GENIUS_GENOBJ-N-CEN_13
1002
{
1000
OWNER
1000
GEN
1002
}
1001
GENIUS_GENCEN_19
1002
{
1040
2.0
1002
}
  0
LINE
  5
4F3
330
D
100
AcDbEntity
 67
     1
  8
AM_7
  6
AM_ISO08W050x2
100
AcDbLine
 10
34.19105719712684
 20
105.0436751562852
 30
0.0
 11
67.6698589133191
 21
105.0436751562852
 31
0.0
1001
GENIUS_GENODEF_13
1002
{
1000
HIER
1070
     0
1002
}
1002
{
1000
MANEDIT
1070
     0
1002
}
1002
{
1000
NOSEL
1070
     0
1002
}
1002
{
1000
BEHIND
1070
     0
1002
}
1002
{
1000
OTHER
1070
     0
1002
}
1002
{
1000
REACTOR
1002
}
1001
GENIUS_GENOBJ-N-CEN_13
1002
{
1000
OWNER
1000
GEN
1002
}
1001
GENIUS_GENCEN_19
1002
{
1040
2.0
1002
}
  0
LINE
  5
4F4
330
D
100
AcDbEntity
 67
     1
  8
AM_7
  6
AM_ISO08W050x2
100
AcDbLine
 10
50.73404927665146
 20
121.6185766120676
 30
0.0
 11
50.73404927665146
 21
88.34911709337189
 31
0.0
1001
GENIUS_GENODEF_13
1002
{
1000
HIER
1070
     0
1002
}
1002
{
1000
MANEDIT
1070
     0
1002
}
1002
{
1000
NOSEL
1070
     0
1002
}
1002
{
1000
BEHIND
1070
     0
1002
}
1002
{
1000
OTHER
1070
     0
1002
}
1002
{
1000
REACTOR
1002
}
1001
GENIUS_GENOBJ-N-CEN_13
1002
{
1000
OWNER
1000
GEN
1002
}
1001
GENIUS_GENCEN_19
1002
{
1040
2.0
1002
}
  0
LINE
  5
4F5
330
D
100
AcDbEntity
 67
     1
  8
AM_7
  6
AM_ISO08W050x2
100
AcDbLine
 10
62.16470034944268
 20
88.79367515628519
 30
0.0
 11
71.49095739372786
 21
88.79367515628519
 31
0.0
1001
GENIUS_GENODEF_13
1002
{
1000
HIER
1070
     0
1002
}
1002
{
1000
MANEDIT
1070
     0
1002
}
1002
{
1000
NOSEL
1070
     0
1002
}
1002
{
1000
BEHIND
1070
     0
1002
}
1002
{
1000
OTHER
1070
     0
1002
}
1002
{
1000
REACTOR
1002
}
1001
GENIUS_GENOBJ-N-CEN_13
1002
{
1000
OWNER
1000
GEN
1002
}
1001
GENIUS_GENCEN_19
1002
{
1040
2.0
1002
}
  0
LINE
  5
4F6
330
D
100
AcDbEntity
 67
     1
  8
AM_7
  6
AM_ISO08W050x2
100
AcDbLine
 10
66.98404927665146
 20
93.53798635902013
 30
0.0
 11
66.98404927665146
 21
83.57273243367661
 31
0.0
1001
GENIUS_GENODEF_13
1002
{
1000
HIER
1070
     0
1002
}
1002
{
1000
MANEDIT
1070
     0
1002
}
1002
{
1000
NOSEL
1070
     0
1002
}
1002
{
1000
BEHIND
1070
     0
1002
}
1002
{
1000
OTHER
1070
     0
1002
}
1002
{
1000
REACTOR
1002
}
1001
GENIUS_GENOBJ-N-CEN_13
1002
{
1000
OWNER
1000
GEN
1002
}
1001
GENIUS_GENCEN_19
1002
{
1040
2.0
1002
}
  0
LINE
  5
4F7
330
D
100
AcDbEntity
 67
     1
  8
AM_7
  6
AM_ISO08W050x2
100
AcDbLine
 10
29.66470034944268
 20
88.79367515628519
 30
0.0
 11
38.99095739372786
 21
88.79367515628519
 31
0.0
1001
GENIUS_GENODEF_13
1002
{
1000
HIER
1070
     0
1002
}
1002
{
1000
MANEDIT
1070
     0
1002
}
1002
{
1000
NOSEL
1070
     0
1002
}
1002
{
1000
BEHIND
1070
     0
1002
}
1002
{
1000
OTHER
1070
     0
1002
}
1002
{
1000
REACTOR
1002
}
1001
GENIUS_GENOBJ-N-CEN_13
1002
{
1000
OWNER
1000
GEN
1002
}
1001
GENIUS_GENCEN_19
1002
{
1040
2.0
1002
}
  0
LINE
  5
4F8
330
D
100
AcDbEntity
 67
     1
  8
AM_7
  6
AM_ISO08W050x2
100
AcDbLine
 10
34.48404927665143
 20
93.53798635902013
 30
0.0
 11
34.48404927665143
 21
83.57273243367661
 31
0.0
1001
GENIUS_GENODEF_13
1002
{
1000
HIER
1070
     0
1002
}
1002
{
1000
MANEDIT
1070
     0
1002
}
1002
{
1000
NOSEL
1070
     0
1002
}
1002
{
1000
BEHIND
1070
     0
1002
}
1002
{
1000
OTHER
1070
     0
1002
}
1002
{
1000
REACTOR
1002
}
1001
GENIUS_GENOBJ-N-CEN_13
1002
{
1000
OWNER
1000
GEN
1002
}
1001
GENIUS_GENCEN_19
1002
{
1040
2.0
1002
}
  0
CIRCLE
  5
4F9
330
D
100
AcDbEntity
 67
     1
  8
0
100
AcDbCircle
 10
34.48404927665143
 20
88.79367515628519
 30
0.0
 40
2.459999999999999
  0
ARC
  5
4FA
330
D
100
AcDbEntity
 67
     1
  8
0
100
AcDbCircle
 10
34.48404927665143
 20
88.79367515628519
 30
0.0
 40
2.959999999999999
100
AcDbArc
 50
246.7282868526565
 51
197.2542989092319
  0
CIRCLE
  5
4FB
330
D
100
AcDbEntity
 67
     1
  8
0
100
AcDbCircle
 10
66.98404927665146
 20
88.79367515628519
 30
0.0
 40
2.459999999999999
  0
ARC
  5
4FC
330
D
100
AcDbEntity
 67
     1
  8
0
100
AcDbCircle
 10
66.98404927665146
 20
88.79367515628519
 30
0.0
 40
2.959999999999999
100
AcDbArc
 50
246.7282868526565
 51
197.2542989092319
  0
CIRCLE
  5
4FD
330
D
100
AcDbEntity
 67
     1
  8
0
100
AcDbCircle
 10
66.98404927665146
 20
121.2936751562852
 30
0.0
 40
2.459999999999999
  0
ARC
  5
4FE
330
D
100
AcDbEntity
 67
     1
  8
0
100
AcDbCircle
 10
66.98404927665146
 20
121.2936751562852
 30
0.0
 40
2.959999999999999
100
AcDbArc
 50
246.7282868526565
 51
197.2542989092319
  0
LINE
  5
4FF
330
D
100
AcDbEntity
 67
     1
  8
AM_7
  6
AM_ISO08W050x2
100
AcDbLine
 10
98.90120565708423
 20
105.0436751562852
 30
0.0
 11
176.6259716587097
 21
105.0436751562852
 31
0.0
1001
GENIUS_GENODEF_13
1002
{
1000
HIER
1070
     0
1002
}
1002
{
1000
MANEDIT
1070
     0
1002
}
1002
{
1000
NOSEL
1070
     0
1002
}
1002
{
1000
BEHIND
1070
     0
1002
}
1002
{
1000
OTHER
1070
     0
1002
}
1002
{
1000
REACTOR
1002
}
1001
GENIUS_GENOBJ-N-CEN_13
1002
{
1000
OWNER
1000
GEN
1002
}
1001
GENIUS_GENCEN_19
1002
{
1040
2.0
1002
}
  0
DIMENSION
  5
500
330
D
100
AcDbEntity
 67
     1
  8
AM_5
100
AcDbDimension
  2
*D2
 10
114.4004959791865
 20
73.54367515628519
 30
0.0
 11
110.6504959791865
 21
75.37700848961851
 31
0.0
 70
    32
 71
     5
 42
7.5
  3
AM_ISO$0
100
AcDbAlignedDimension
 13
106.9004959791865
 23
90.79367515628518
 33
0.0
 14
114.4004959791865
 24
82.04367515628518
 34
0.0
 50
0.0000000000001132
100
AcDbRotatedDimension
1001
ACAD
1000
DSTYLE
1002
{
1070
    40
1040
0.6666666666666666
1070
   174
1070
     1
1002
}
  0
DIMENSION
  5
51F
330
D
100
AcDbEntity
 67
     1
  8
AM_5
100
AcDbDimension
  2
*D3
 10
174.4004959791866
 20
73.54367515628519
 30
0.0
 11
144.4004959791865
 21
75.37700848961851
 31
0.0
 70
    32
 71
     5
 42
60.00000000000004
  3
AM_ISO$0
100
AcDbAlignedDimension
 13
114.4004959791865
 23
82.04367515628517
 33
0.0
 14
174.4004959791866
 24
82.04367515628518
 34
0.0
100
AcDbRotatedDimension
1001
ACAD
1000
DSTYLE
1002
{
1070
   174
1070
     1
1070
    40
1040
0.6666666666666666
1002
}
  0
DIMENSION
  5
536
330
D
100
AcDbEntity
 67
     1
  8
AM_5
100
AcDbDimension
  2
*D4
 10
174.4004959791866
 20
68.21034182295197
 30
0.0
 11
140.6504959791866
 21
70.0436751562853
 31
0.0
 70
    32
 71
     5
 42
67.50000000000003
  3
AM_ISO$0
100
AcDbAlignedDimension
 13
106.9004959791865
 23
90.79367515628518
 33
0.0
 14
174.4004959791866
 24
82.04367515628518
 34
0.0
 50
0.0000000000001132
100
AcDbRotatedDimension
1001
ACAD
1000
DSTYLE
1002
{
1070
    40
1040
0.6666666666666666
1002
}
  0
LINE
  5
54C
330
D
100
AcDbEntity
 67
     1
  8
HIDDEN
100
AcDbLine
 10
174.4004959791866
 20
120.2936751562852
 30
0.0
 11
157.4004959791866
 21
120.2936751562852
 31
0.0
  0
LINE
  5
54E
330
D
100
AcDbEntity
 67
     1
  8
HIDDEN
100
AcDbLine
 10
174.4004959791866
 20
89.79367515628519
 30
0.0
 11
157.4004959791866
 21
89.79367515628519
 31
0.0
  0
LINE
  5
54F
330
D
100
AcDbEntity
 67
     1
  8
HIDDEN
100
AcDbLine
 10
154.9004959791866
 20
92.29367515628519
 30
0.0
 11
154.9004959791866
 21
117.7936751562852
 31
0.0
  0
ARC
  5
55B
330
D
100
AcDbEntity
 67
     1
  8
HIDDEN
100
AcDbCircle
 10
157.4004959791866
 20
117.7936751562852
 30
0.0
 40
2.5
100
AcDbArc
 50
90.0
 51
180.0
  0
ARC
  5
55C
330
D
100
AcDbEntity
 67
     1
  8
HIDDEN
100
AcDbCircle
 10
157.4004959791866
 20
92.29367515628519
 30
0.0
 40
2.5
100
AcDbArc
 50
180.0
 51
270.0
  0
DIMENSION
  5
55D
330
D
100
AcDbEntity
 67
     1
  8
AM_5
100
AcDbDimension
  2
*D5
 10
187.4351514729339
 20
120.2936751562852
 30
0.0
 11
187.4351514729338
 21
105.0436751562852
 31
0.0
 70
   160
  1
%%c<>
 71
     5
 42
30.5
  3
AM_ISO$0
100
AcDbAlignedDimension
 13
174.4004959791866
 23
89.79367515628519
 33
0.0
 14
174.4004959791866
 24
120.2936751562852
 34
0.0
 50
90.0
100
AcDbRotatedDimension
1001
ACAD
1000
DSTYLE
1002
{
1070
    40
1040
0.6666666666666666
1002
}
  0
DIMENSION
  5
5A0
330
D
100
AcDbEntity
 67
     1
  8
AM_5
100
AcDbDimension
  2
*D6
 10
154.9004959791866
 20
136.5436751662851
 30
0.0
 11
164.6504959791866
 21
138.3770084996185
 31
0.0
 70
    32
 71
     5
 42
19.5
  3
AM_ISO$0
100
AcDbAlignedDimension
 13
174.4004959791866
 23
128.0436751562852
 33
0.0
 14
154.9004959791866
 24
117.7936751562852
 34
0.0
100
AcDbRotatedDimension
1001
ACAD
1000
DSTYLE
1002
{
1070
    40
1040
0.6666666666666666
1002
}
  0
DIMENSION
  5
5B6
330
D
100
AcDbEntity
 67
     1
  8
AM_5
100
AcDbDimension
  2
*D7
 10
245.031645576805
 20
74.04367515628518
 30
0.0
 11
228.781645576805
 21
75.87723814841116
 31
0.0
 70
    32
  1
{\Famgdt;o}<>
 71
     5
 42
32.5
  3
AM_ISO$0
100
AcDbAlignedDimension
 13
212.531645576805
 23
88.79367515628519
 33
0.0
 14
245.031645576805
 24
88.79367515628519
 34
0.0
 50
0.0000000000001132
100
AcDbRotatedDimension
1001
ACAD
1000
DSTYLE
1002
{
1070
    40
1040
0.6666666666666666
1002
}
  0
DIMENSION
  5
5E2
330
D
100
AcDbEntity
 67
     1
  8
AM_5
100
AcDbDimension
  2
*D8
 10
252.2816455768051
 20
68.71034182295186
 30
0.0
 11
228.781645576805
 21
70.54367515628519
 31
0.0
 70
    32
  1
{\Famgdt;o}<>
 71
     5
 42
47.0
  3
AM_ISO$0
100
AcDbAlignedDimension
 13
205.281645576805
 23
83.32386852731174
 33
0.0
 14
252.2816455768051
 24
83.32386852731174
 34
0.0
 50
0.0000000000001132
100
AcDbRotatedDimension
1001
ACAD
1000
DSTYLE
1002
{
1070
    40
1040
0.6666666666666666
1002
}
  0
DIMENSION
  5
62B
330
D
100
AcDbEntity
 67
     1
  8
AM_5
100
AcDbDimension
  2
*D9
 10
66.98404927665146
 20
73.54367515628519
 30
0.0
 11
50.73404927665145
 21
75.37723814841118
 31
0.0
 70
    32
  1
{\Famgdt;o}<>
 71
     5
 42
32.50000000000002
  3
AM_ISO$0
100
AcDbAlignedDimension
 13
34.48404927665145
 23
83.57273243367661
 33
0.0
 14
66.98404927665146
 24
83.57273243367661
 34
0.0
 50
0.0000000000001132
100
AcDbRotatedDimension
1001
ACAD
1000
DSTYLE
1002
{
1070
    40
1040
0.6666666666666666
1002
}
  0
DIMENSION
  5
689
330
D
100
AcDbEntity
 67
     1
  8
AM_5
100
AcDbDimension
  2
*D10
 10
34.48404927665146
 20
121.2936751562851
 30
0.0
 11
45.64489683131816
 21
132.7725248087037
 31
0.0
 70
   164
  1
4-M6*8L
 71
     5
 42
2.959999999999979
  3
AM_ISO$4
100
AcDbRadialDimension
 15
35.62142753786462
 25
124.0264339621294
 35
0.0
 40
0.0
1001
ACAD
1000
DSTYLE
1002
{
1070
    40
1040
0.6666666666666666
1002
}
  0
LINE
  5
6B1
330
D
100
AcDbEntity
 67
     1
  8
AM_7
  6
AM_ISO08W050x2
100
AcDbLine
 10
103.9004959791866
 20
99.04367515628518
 30
0.0
 11
177.710854797942
 21
99.0436751562852
 31
0.0
  0
LINE
  5
6B2
330
D
100
AcDbEntity
 67
     1
  8
AM_7
  6
AM_ISO08W050x2
100
AcDbLine
 10
177.710854797942
 20
99.0436751562852
 30
0.0
 11
177.710854797942
 21
111.0436751562852
 31
0.0
  0
LINE
  5
6B3
330
D
100
AcDbEntity
 67
     1
  8
AM_7
  6
AM_ISO08W050x2
100
AcDbLine
 10
177.710854797942
 20
111.0436751562852
 30
0.0
 11
103.9004959791866
 21
111.0436751562852
 31
0.0
  0
LINE
  5
6BB
330
D
100
AcDbEntity
 67
     1
  8
AM_7
  6
AM_ISO08W050x2
100
AcDbLine
 10
142.3492121592569
 20
119.5436751562852
 30
0.0
 11
152.6080949079706
 21
119.5436751562852
 31
0.0
1001
GENIUS_GENODEF_13
1002
{
1000
HIER
1070
     0
1002
}
1002
{
1000
MANEDIT
1070
     0
1002
}
1002
{
1000
NOSEL
1070
     0
1002
}
1002
{
1000
BEHIND
1070
     0
1002
}
1002
{
1000
OTHER
1070
     0
1002
}
1002
{
1000
REACTOR
1002
}
1001
GENIUS_GENOBJ-N-CEN_13
1002
{
1000
OWNER
1000
GEN
1002
}
1001
GENIUS_GENCEN_19
1002
{
1040
2.0
1002
}
  0
LINE
  5
6BC
330
D
100
AcDbEntity
 67
     1
  8
AM_7
  6
AM_ISO08W050x2
100
AcDbLine
 10
147.6504959791865
 20
124.7624174792936
 30
0.0
 11
147.6504959791865
 21
113.8006381614157
 31
0.0
1001
GENIUS_GENODEF_13
1002
{
1000
HIER
1070
     0
1002
}
1002
{
1000
MANEDIT
1070
     0
1002
}
1002
{
1000
NOSEL
1070
     0
1002
}
1002
{
1000
BEHIND
1070
     0
1002
}
1002
{
1000
OTHER
1070
     0
1002
}
1002
{
1000
REACTOR
1002
}
1001
GENIUS_GENOBJ-N-CEN_13
1002
{
1000
OWNER
1000
GEN
1002
}
1001
GENIUS_GENCEN_19
1002
{
1040
2.0
1002
}
  0
CIRCLE
  5
6EB
330
D
100
AcDbEntity
 67
     1
  8
0
100
AcDbCircle
 10
147.6504959791865
 20
119.5436751562852
 30
0.0
 40
4.28
  0
ARC
  5
6EC
330
D
100
AcDbEntity
 67
     1
  8
0
100
AcDbCircle
 10
147.6504959791865
 20
119.5436751562852
 30
0.0
 40
4.78
100
AcDbArc
 50
249.0555950640872
 51
203.5428369037405
  0
DIMENSION
  5
6ED
330
D
100
AcDbEntity
 67
     1
  8
AM_5
100
AcDbDimension
  2
*D11
 10
147.6504959791865
 20
119.5436751562851
 30
0.0
 11
133.5058898851954
 21
135.4009145848006
 31
0.0
 70
   164
  1
G1/8
 71
     5
 42
4.779999999999958
  3
AM_ISO$4
100
AcDbRadialDimension
 15
144.9910506683832
 25
123.5155450734458
 35
0.0
 40
0.0
1001
ACAD
1000
DSTYLE
1002
{
1070
    40
1040
0.6666666666666666
1002
}
  0
DIMENSION
  5
709
330
D
100
AcDbEntity
 67
     1
  8
AM_5
100
AcDbDimension
  2
*D12
 10
97.49093389807311
 20
111.0436751562852
 30
0.0
 11
97.49093389807308
 21
105.0864142590474
 31
0.0
 70
   160
  1
%%c<>
 71
     5
 42
12.0
  3
AM_ISO$0
100
AcDbAlignedDimension
 13
103.3809961648393
 23
99.0436751562852
 33
0.0
 14
103.3809961648393
 24
111.0436751562852
 34
0.0
 50
90.0
100
AcDbRotatedDimension
1001
ACAD
1000
DSTYLE
1002
{
1070
    40
1040
0.6666666666666666
1002
}
  0
DIMENSION
  5
728
330
D
100
AcDbEntity
 67
     1
  8
AM_5
100
AcDbDimension
  2
*D13
 10
92.76501155249368
 20
120.0436751562852
 30
0.0
 11
92.76501155249366
 21
105.0089302304752
 31
0.0
 70
   160
  1
%%c<>
 71
     5
 42
30.0
  3
AM_ISO$0
100
AcDbAlignedDimension
 13
107.6504959791865
 23
90.04367515628519
 33
0.0
 14
107.6504959791865
 24
120.0436751562852
 34
0.0
 50
90.0
100
AcDbRotatedDimension
1001
ACAD
1000
DSTYLE
1002
{
1070
    40
1040
0.6666666666666666
1002
}
  0
LEADER
  5
7DB
330
D
100
AcDbEntity
 67
     1
  8
AM_5
100
AcDbLeader
  3
AM_ISO$7
 73
     0
 74
     0
 75
     1
 40
2.5
 41
13.3490157480315
 76
     3
 10
176.2019025317243
 20
111.0436751562852
 30
0.0
 10
181.171881179549
 20
135.2754160375322
 30
0.0
 10
183.171881179549
 20
135.2754160375322
 30
0.0
340
7DC
213
0.8186013206027666
223
-0.0320605867346728
233
0.0
1001
ACAD
1000
DSTYLE
1002
{
1070
    40
1040
0.6666666666666666
1070
    43
1040
10.0
1070
   147
1040
1.0
1002
}
  0
MTEXT
  5
7DC
102
{ACAD_REACTORS
330
7DB
102
}
330
D
100
AcDbEntity
 67
     1
  8
AM_5
100
AcDbMText
 10
183.0199465256129
 20
135.9741432909335
 30
0.0
 40
2.5
 41
0.0
 71
     7
 72
     1
  1
SUPPORT
 73
     1
 44
1.0
  0
CIRCLE
  5
80C
330
D
100
AcDbEntity
 67
     1
  8
0
100
AcDbCircle
 10
228.781645576805
 20
105.0436751562852
 30
0.0
 40
15.25
  0
CIRCLE
  5
815
330
D
100
AcDbEntity
 67
     1
  8
0
100
AcDbCircle
 10
212.531645576805
 20
121.2936751562852
 30
0.0
 40
3.25
  0
LINE
  5
816
330
D
100
AcDbEntity
 67
     1
  8
AM_7
  6
AM_ISO08W050x2
100
AcDbLine
 10
207.7122966495962
 20
121.2936751562852
 30
0.0
 11
217.0385536938814
 21
121.2936751562852
 31
0.0
1001
GENIUS_GENODEF_13
1002
{
1000
HIER
1070
     0
1002
}
1002
{
1000
MANEDIT
1070
     0
1002
}
1002
{
1000
NOSEL
1070
     0
1002
}
1002
{
1000
BEHIND
1070
     0
1002
}
1002
{
1000
OTHER
1070
     0
1002
}
1002
{
1000
REACTOR
1002
}
1001
GENIUS_GENOBJ-N-CEN_13
1002
{
1000
OWNER
1000
GEN
1002
}
1001
GENIUS_GENCEN_19
1002
{
1040
2.0
1002
}
  0
LINE
  5
817
330
D
100
AcDbEntity
 67
     1
  8
AM_7
  6
AM_ISO08W050x2
100
AcDbLine
 10
212.531645576805
 20
126.0379863590201
 30
0.0
 11
212.531645576805
 21
116.0727324336766
 31
0.0
1001
GENIUS_GENODEF_13
1002
{
1000
HIER
1070
     0
1002
}
1002
{
1000
MANEDIT
1070
     0
1002
}
1002
{
1000
NOSEL
1070
     0
1002
}
1002
{
1000
BEHIND
1070
     0
1002
}
1002
{
1000
OTHER
1070
     0
1002
}
1002
{
1000
REACTOR
1002
}
1001
GENIUS_GENOBJ-N-CEN_13
1002
{
1000
OWNER
1000
GEN
1002
}
1001
GENIUS_GENCEN_19
1002
{
1040
2.0
1002
}
  0
CIRCLE
  5
818
330
D
100
AcDbEntity
 67
     1
  8
0
100
AcDbCircle
 10
245.031645576805
 20
121.2936751562852
 30
0.0
 40
3.25
  0
LINE
  5
819
330
D
100
AcDbEntity
 67
     1
  8
AM_7
  6
AM_ISO08W050x2
100
AcDbLine
 10
240.2122966495963
 20
121.2936751562852
 30
0.0
 11
249.5385536938814
 21
121.2936751562852
 31
0.0
1001
GENIUS_GENODEF_13
1002
{
1000
HIER
1070
     0
1002
}
1002
{
1000
MANEDIT
1070
     0
1002
}
1002
{
1000
NOSEL
1070
     0
1002
}
1002
{
1000
BEHIND
1070
     0
1002
}
1002
{
1000
OTHER
1070
     0
1002
}
1002
{
1000
REACTOR
1002
}
1001
GENIUS_GENOBJ-N-CEN_13
1002
{
1000
OWNER
1000
GEN
1002
}
1001
GENIUS_GENCEN_19
1002
{
1040
2.0
1002
}
  0
LINE
  5
81A
330
D
100
AcDbEntity
 67
     1
  8
AM_7
  6
AM_ISO08W050x2
100
AcDbLine
 10
245.031645576805
 20
126.0379863590201
 30
0.0
 11
245.031645576805
 21
116.0727324336766
 31
0.0
1001
GENIUS_GENODEF_13
1002
{
1000
HIER
1070
     0
1002
}
1002
{
1000
MANEDIT
1070
     0
1002
}
1002
{
1000
NOSEL
1070
     0
1002
}
1002
{
1000
BEHIND
1070
     0
1002
}
1002
{
1000
OTHER
1070
     0
1002
}
1002
{
1000
REACTOR
1002
}
1001
GENIUS_GENOBJ-N-CEN_13
1002
{
1000
OWNER
1000
GEN
1002
}
1001
GENIUS_GENCEN_19
1002
{
1040
2.0
1002
}
  0
CIRCLE
  5
81B
330
D
100
AcDbEntity
 67
     1
  8
0
100
AcDbCircle
 10
245.031645576805
 20
88.79367515628519
 30
0.0
 40
3.25
  0
LINE
  5
81C
330
D
100
AcDbEntity
 67
     1
  8
AM_7
  6
AM_ISO08W050x2
100
AcDbLine
 10
240.2122966495963
 20
88.79367515628519
 30
0.0
 11
249.5385536938814
 21
88.79367515628519
 31
0.0
1001
GENIUS_GENODEF_13
1002
{
1000
HIER
1070
     0
1002
}
1002
{
1000
MANEDIT
1070
     0
1002
}
1002
{
1000
NOSEL
1070
     0
1002
}
1002
{
1000
BEHIND
1070
     0
1002
}
1002
{
1000
OTHER
1070
     0
1002
}
1002
{
1000
REACTOR
1002
}
1001
GENIUS_GENOBJ-N-CEN_13
1002
{
1000
OWNER
1000
GEN
1002
}
1001
GENIUS_GENCEN_19
1002
{
1040
2.0
1002
}
  0
LINE
  5
81D
330
D
100
AcDbEntity
 67
     1
  8
AM_7
  6
AM_ISO08W050x2
100
AcDbLine
 10
245.031645576805
 20
93.53798635902013
 30
0.0
 11
245.031645576805
 21
83.57273243367661
 31
0.0
1001
GENIUS_GENODEF_13
1002
{
1000
HIER
1070
     0
1002
}
1002
{
1000
MANEDIT
1070
     0
1002
}
1002
{
1000
NOSEL
1070
     0
1002
}
1002
{
1000
BEHIND
1070
     0
1002
}
1002
{
1000
OTHER
1070
     0
1002
}
1002
{
1000
REACTOR
1002
}
1001
GENIUS_GENOBJ-N-CEN_13
1002
{
1000
OWNER
1000
GEN
1002
}
1001
GENIUS_GENCEN_19
1002
{
1040
2.0
1002
}
  0
CIRCLE
  5
81E
330
D
100
AcDbEntity
 67
     1
  8
0
100
AcDbCircle
 10
212.531645576805
 20
88.79367515628519
 30
0.0
 40
3.25
  0
LINE
  5
81F
330
D
100
AcDbEntity
 67
     1
  8
AM_7
  6
AM_ISO08W050x2
100
AcDbLine
 10
207.7122966495962
 20
88.79367515628519
 30
0.0
 11
217.0385536938814
 21
88.79367515628519
 31
0.0
1001
GENIUS_GENODEF_13
1002
{
1000
HIER
1070
     0
1002
}
1002
{
1000
MANEDIT
1070
     0
1002
}
1002
{
1000
NOSEL
1070
     0
1002
}
1002
{
1000
BEHIND
1070
     0
1002
}
1002
{
1000
OTHER
1070
     0
1002
}
1002
{
1000
REACTOR
1002
}
1001
GENIUS_GENOBJ-N-CEN_13
1002
{
1000
OWNER
1000
GEN
1002
}
1001
GENIUS_GENCEN_19
1002
{
1040
2.0
1002
}
  0
LINE
  5
820
330
D
100
AcDbEntity
 67
     1
  8
AM_7
  6
AM_ISO08W050x2
100
AcDbLine
 10
212.531645576805
 20
93.53798635902013
 30
0.0
 11
212.531645576805
 21
83.57273243367661
 31
0.0
1001
GENIUS_GENODEF_13
1002
{
1000
HIER
1070
     0
1002
}
1002
{
1000
MANEDIT
1070
     0
1002
}
1002
{
1000
NOSEL
1070
     0
1002
}
1002
{
1000
BEHIND
1070
     0
1002
}
1002
{
1000
OTHER
1070
     0
1002
}
1002
{
1000
REACTOR
1002
}
1001
GENIUS_GENOBJ-N-CEN_13
1002
{
1000
OWNER
1000
GEN
1002
}
1001
GENIUS_GENCEN_19
1002
{
1040
2.0
1002
}
  0
CIRCLE
  5
821
330
D
100
AcDbEntity
 67
     1
  8
0
100
AcDbCircle
 10
228.781645576805
 20
105.0436751562852
 30
0.0
 40
6.0
  0
DIMENSION
  5
822
330
D
100
AcDbEntity
 67
     1
  8
AM_5
100
AcDbDimension
  2
*D14
 10
211.1970361966629
 20
118.3303463182322
 30
0.0
 11
223.1409107704938
 21
133.4189921589208
 31
0.0
 70
   163
  1
4-<>
 71
     5
 42
6.500000000000056
  3
AM_ISO$3
100
AcDbDiametricDimension
 15
213.8662549569473
 25
124.2570039943382
 35
0.0
 40
0.0
1001
ACAD
1000
DSTYLE
1002
{
1070
    40
1040
0.6666666666666666
1002
}
  0
CIRCLE
  5
83D
330
D
100
AcDbEntity
 67
     1
  8
0
100
AcDbCircle
 10
50.73404927665146
 20
105.0436751562852
 30
0.0
 40
6.0
  0
CIRCLE
  5
84C
330
D
100
AcDbEntity
 67
     1
  8
0
100
AcDbCircle
 10
50.73404927665146
 20
105.0436751562852
 30
0.0
 40
15.0
  0
LINE
  5
902
330
D
100
AcDbEntity
 67
     1
  8
AM_7
  6
AM_ISO08W050x2
100
AcDbLine
 10
103.9004959791866
 20
111.0436751562852
 30
0.0
 11
101.6504959791866
 21
110.2247421291862
 31
0.0
  0
LINE
  5
903
330
D
100
AcDbEntity
 67
     1
  8
AM_7
  6
AM_ISO08W050x2
100
AcDbLine
 10
103.9004959791866
 20
99.0436751562852
 30
0.0
 11
101.6504959791866
 21
99.86260818338417
 31
0.0
  0
LINE
  5
906
330
D
100
AcDbEntity
 67
     1
  8
AM_7
  6
AM_ISO08W050x2
100
AcDbLine
 10
101.6504959791866
 20
99.86260818338417
 30
0.0
 11
101.6504959791866
 21
110.2247421291862
 31
0.0
  0
LINE
  5
907
330
D
100
AcDbEntity
 67
     1
  8
AM_7
  6
AM_ISO08W050x2
100
AcDbLine
 10
103.9004959791866
 20
111.0436751562852
 30
0.0
 11
103.9004959791866
 21
99.0436751562852
 31
0.0
  0
LINE
  5
9EE
330
D
100
AcDbEntity
 67
     1
  8
AM_7
  6
AM_ISO08W050x2
100
AcDbLine
 10
246.744045550272
 20
105.0436751562852
 30
0.0
 11
210.8930431913465
 21
105.0436751562852
 31
0.0
1001
GENIUS_GENOREF_13
1005
9F0
  0
LINE
  5
9EF
330
D
100
AcDbEntity
 67
     1
  8
AM_7
  6
AM_ISO08W050x2
100
AcDbLine
 10
228.781645576805
 20
122.6091394821965
 30
0.0
 11
228.781645576805
 21
87.4070189292593
 31
0.0
1001
GENIUS_GENOREF_13
1005
9F0
  0
POINT
  5
9F0
330
D
100
AcDbEntity
 67
     1
  8
0
 60
     1
100
AcDbPoint
 10
-142.3686567971657
 20
87.87818024741994
 30
0.0
1001
GENIUS_GENOLIS_13
1002
{
1000
ENT
1005
9EF
1005
9EE
1005
0
1005
0
1002
}
1001
GENIUS_GENOENT_13
1002
{
1000
MYREF
1005
9F0
1002
}
1002
{
1000
GRP
1005
0
1002
}
1001
GENIUS_GENOBJ-N-CRS_13
1002
{
1000
OWNER
1000
GEN
1002
}
1001
GENIUS_GENODEF_13
1002
{
1000
HIER
1070
    10
1002
}
1002
{
1000
MANEDIT
1070
     1
1002
}
1002
{
1000
NOSEL
1070
     0
1002
}
1002
{
1000
BEHIND
1070
     0
1002
}
1002
{
1000
OTHER
1070
     0
1002
}
1002
{
1000
REACTOR
1002
}
  0
ENDSEC
  0
SECTION
  2
OBJECTS
  0
DICTIONARY
  5
8
330
0
100
AcDbDictionary
281
     1
  3
ACAD_COLOR
350
38
  3
ACAD_GROUP
350
34
  3
ACAD_LAYOUT
350
C
  3
ACAD_MATERIAL
350
37
  3
ACAD_MLINESTYLE
350
35
  3
ACAD_PLOTSETTINGS
350
36
  3
ACAD_PLOTSTYLENAME
350
7
  3
ACAD_TABLESTYLE
350
39
  3
AcadDim
350
7DA
  3
AcDbVariableDictionary
350
1B9
  3
AcmDictionary
350
21D
  3
AMG
350
1C5
  3
AMGSNAPSETTINGS
350
255
  3
MAPISURF_MODULE
350
AD1
  0
DICTIONARY
  5
14
330
13
100
AcDbDictionary
280
     1
281
     1
  3
ACAD_LAYERFILTERS
360
55A
  3
ACAD_LAYERSTATES
360
15
  3
ACLYDICTIONARY
360
559
  0
DICTIONARY
  5
3
330
2
100
AcDbDictionary
280
     1
281
     1
  3
ACAD_INDEX
360
B24
  0
DICTIONARY
  5
268
330
D
100
AcDbDictionary
280
     1
281
     1
  3
ACAD_SORTENTS
360
269
  0
DICTIONARY
  5
38
102
{ACAD_REACTORS
330
8
102
}
330
8
100
AcDbDictionary
281
     1
  0
DICTIONARY
  5
34
102
{ACAD_REACTORS
330
8
102
}
330
8
100
AcDbDictionary
281
     1
  0
DICTIONARY
  5
C
102
{ACAD_REACTORS
330
8
102
}
330
8
100
AcDbDictionary
281
     1
  3
Model
350
B
  3
配置1
350
10
  0
DICTIONARY
  5
37
102
{ACAD_REACTORS
330
8
102
}
330
8
100
AcDbDictionary
281
     1
  0
DICTIONARY
  5
35
102
{ACAD_REACTORS
330
8
102
}
330
8
100
AcDbDictionary
281
     1
  3
STANDARD
350
3A
  0
DICTIONARY
  5
36
102
{ACAD_REACTORS
330
8
102
}
330
8
100
AcDbDictionary
281
     1
  0
ACDBDICTIONARYWDFLT
  5
7
102
{ACAD_REACTORS
330
8
102
}
330
8
100
AcDbDictionary
281
     1
  3
Normal
350
6
100
AcDbDictionaryWithDefault
340
6
  0
DICTIONARY
  5
39
102
{ACAD_REACTORS
330
8
102
}
330
8
100
AcDbDictionary
281
     1
  3
Standard
350
3B
  0
XRECORD
  5
7DA
102
{ACAD_REACTORS
330
8
102
}
330
8
100
AcDbXrecord
280
     1
 90
   990106
  3

 60
     0
 61
     0
 62
     1
 63
     3
 64
     1
 65
     0
 66
     0
 67
     3
 68
     0
 69
     0
 70
     0
 71
     0
 72
     0
 40
0.0
170
     2
340
7DC
  0
DICTIONARY
  5
1B9
102
{ACAD_REACTORS
330
8
102
}
330
8
100
AcDbDictionary
281
     1
  3
CTABLESTYLE
350
1BA
  3
DIMASSOC
350
1BC
  3
HIDETEXT
350
1BB
  3
PROJECTNAME
350
1BD
  0
DICTIONARY
  5
21D
102
{ACAD_REACTORS
330
8
102
}
330
8
100
AcDbDictionary
281
     1
  3
AcmBOMDATA
350
B02
  3
AcmStdDictionary
350
22A
  3
AMDTSECTSYM_ARROWCOLOR
350
247
  0
DICTIONARY
  5
1C5
102
{ACAD_REACTORS
330
8
102
}
330
8
100
AcDbDictionary
281
     1
  3
AcMgSettings
350
A4D
  3
AMGLAYCFG
350
B0E
  0
DICTIONARY
  5
255
102
{ACAD_REACTORS
330
8
102
}
330
8
100
AcDbDictionary
281
     1
  0
DICTIONARY
  5
55A
102
{ACAD_REACTORS
330
14
102
}
330
14
100
AcDbDictionary
281
     1
  0
DICTIONARY
  5
15
102
{ACAD_REACTORS
330
14
102
}
330
14
100
AcDbDictionary
281
     1
  0
DICTIONARY
  5
559
102
{ACAD_REACTORS
330
14
102
}
330
14
100
AcDbDictionary
281
     1
1001
ACAD
1000
<All
  0
DICTIONARY
  5
B24
102
{ACAD_REACTORS
330
3
102
}
330
3
100
AcDbDictionary
281
     1
  3
*A1
350
B25
  0
SORTENTSTABLE
  5
269
102
{ACAD_REACTORS
330
268
102
}
330
268
100
AcDbSortentsTable
330
D
331
359
  5
359
331
18D
  5
191
331
13E
  5
142
331
7F
  5
7F
331
273
  5
273
331
322
  5
322
331
361
  5
361
331
87
  5
87
331
32A
  5
32A
331
4F0
  5
4F0
331
14E
  5
152
331
8F
  5
8F
331
369
  5
369
331
4F8
  5
4F8
331
500
  5
500
331
33A
  5
33A
331
16E
  5
172
331
44
  5
44
331
4C
  5
4C
331
54
  5
54
331
5C
  5
5C
331
6B3
  5
6B5
331
303
  5
303
331
176
  5
17A
331
9F
  5
A2
331
30B
  5
30B
331
A7
  5
C0
331
352
  5
352
331
186
  5
18A
331
BF
  5
C3
331
26C
  5
95
331
313
  5
313
331
137
  5
13B
331
31B
  5
31B
331
64
  5
64
331
6C
  5
6C
331
74
  5
74
331
3D
  5
3D
331
55D
  5
55D
331
78
  5
78
331
35A
  5
35A
331
274
  5
274
331
80
  5
80
331
13F
  5
143
331
323
  5
323
331
32B
  5
32B
331
362
  5
362
331
4F1
  5
4F1
331
14F
  5
153
331
90
  5
90
331
36A
  5
36A
331
4F9
  5
4F9
331
16F
  5
173
331
33B
  5
33B
331
45
  5
45
331
4D
  5
4D
331
55
  5
55
331
5D
  5
5D
331
536
  5
536
331
54E
  5
54F
331
177
  5
17B
331
304
  5
304
331
30C
  5
30C
331
314
  5
314
331
187
  5
18B
331
130
  5
134
331
26D
  5
26D
331
353
  5
353
331
31C
  5
31C
331
65
  5
65
331
6D
  5
6D
331
75
  5
75
331
79
  5
79
331
138
  5
13C
331
35B
  5
35B
331
140
  5
144
331
81
  5
81
331
275
  5
275
331
324
  5
324
331
363
  5
363
331
148
  5
14C
331
32C
  5
32C
331
4F2
  5
4F2
331
36B
  5
36B
331
91
  5
91
331
334
  5
334
331
4FA
  5
4FA
331
33C
  5
33C
331
2FD
  5
2FD
331
46
  5
46
331
4E
  5
4E
331
56
  5
56
331
5E
  5
5E
331
5B6
  5
5B6
331
54F
  5
55C
331
99
  5
9F
331
170
  5
174
331
305
  5
305
331
178
  5
17C
331
344
  5
344
331
30D
  5
30D
331
34C
  5
34C
331
354
  5
354
331
131
  5
135
331
26E
  5
26E
331
315
  5
315
331
31D
  5
31D
331
66
  5
66
331
6E
  5
6E
331
76
  5
76
331
3F
  5
3F
331
188
  5
18C
331
139
  5
13D
331
7A
  5
7A
331
276
  5
276
331
82
  5
82
331
141
  5
145
331
325
  5
325
331
35C
  5
35C
331
149
  5
14D
331
364
  5
364
331
4F3
  5
4F3
331
4FB
  5
4FB
331
92
  5
92
331
335
  5
335
331
33D
  5
33D
331
2FE
  5
2FE
331
47
  5
47
331
4F
  5
4F
331
57
  5
57
331
5F
  5
5F
331
171
  5
175
331
179
  5
17D
331
A2
  5
A6
331
306
  5
306
331
267
  5
C1
331
30E
  5
30E
331
34D
  5
34D
331
316
  5
316
331
132
  5
136
331
26F
  5
26F
331
355
  5
355
331
31E
  5
31E
331
4CC
  5
4CC
331
67
  5
67
331
6F
  5
6F
331
77
  5
77
331
189
  5
18D
331
13A
  5
13E
331
35D
  5
35D
331
277
  5
277
331
83
  5
83
331
326
  5
326
331
14A
  5
14E
331
365
  5
365
331
4F4
  5
4F4
331
4FC
  5
4FC
331
93
  5
93
331
40
  5
40
331
33E
  5
33E
331
2FF
  5
2FF
331
48
  5
48
331
50
  5
50
331
58
  5
58
331
5A0
  5
5A0
331
172
  5
176
331
307
  5
307
331
17A
  5
17E
331
34E
  5
34E
331
30F
  5
30F
331
4B5
  5
4B5
331
356
  5
356
331
133
  5
137
331
317
  5
317
331
60
  5
60
331
31F
  5
31F
331
68
  5
68
331
70
  5
70
331
18A
  5
18E
331
13B
  5
13F
331
270
  5
270
331
278
  5
278
331
84
  5
84
331
327
  5
327
331
35E
  5
35E
331
14B
  5
14F
331
366
  5
366
331
4F5
  5
4F5
331
16B
  5
16F
331
4FD
  5
4FD
331
41
  5
41
331
33F
  5
33F
331
49
  5
49
331
51
  5
51
331
59
  5
59
331
173
  5
177
331
300
  5
300
331
308
  5
308
331
310
  5
310
331
318
  5
318
331
134
  5
138
331
357
  5
357
331
61
  5
61
331
69
  5
69
331
18B
  5
18F
331
13C
  5
140
331
271
  5
271
331
320
  5
320
331
35F
  5
35F
331
85
  5
85
331
328
  5
328
331
367
  5
367
331
330
  5
330
331
14C
  5
150
331
1C3
  5
26C
331
4F6
  5
4F6
331
4FE
  5
4FE
331
95
  5
99
331
16C
  5
170
331
42
  5
42
331
4A
  5
4A
331
52
  5
52
331
5A
  5
5A
331
689
  5
689
331
6B1
  5
6B1
331
340
  5
340
331
301
  5
301
331
174
  5
178
331
309
  5
309
331
348
  5
348
331
26A
  5
BF
331
311
  5
311
331
135
  5
139
331
319
  5
319
331
62
  5
62
331
4CF
  5
4CF
331
72
  5
72
331
5E2
  5
5E2
331
55B
  5
54E
331
358
  5
358
331
272
  5
272
331
13D
  5
141
331
7E
  5
7E
331
18C
  5
190
331
321
  5
321
331
4EF
  5
4EF
331
86
  5
86
331
329
  5
329
331
360
  5
360
331
14D
  5
151
331
8E
  5
8E
331
368
  5
368
331
4F7
  5
4F7
331
4FF
  5
4FF
331
16D
  5
171
331
339
  5
339
331
43
  5
43
331
4B
  5
4B
331
53
  5
53
331
5B
  5
5B
331
6B2
  5
6B4
331
54C
  5
54C
331
175
  5
179
331
302
  5
302
331
A6
  5
BE
331
30A
  5
30A
331
26B
  5
A7
331
BE
  5
C2
331
312
  5
312
331
51F
  5
51F
331
31A
  5
31A
331
136
  5
13A
331
63
  5
63
331
6B
  5
6B
331
73
  5
73
331
55C
  5
55B
331
62B
  5
62B
  0
LAYOUT
  5
B
102
{ACAD_REACTORS
330
C
102
}
330
C
100
AcDbPlotSettings
  1

  2
\\NOVIBDC\HPLJ4-TPUB
  4

  6

 40
0.0
 41
0.0
 42
0.0
 43
0.0
 44
0.0
 45
0.0
 46
0.0
 47
0.0
 48
0.0
 49
0.0
140
0.0
141
0.0
142
1.0
143
1.0
 70
  1712
 72
     0
 73
     0
 74
     0
  7

 75
     0
147
1.0
 76
     0
 77
     2
 78
   300
148
0.0
149
0.0
100
AcDbLayout
  1
Model
 70
     1
 71
     0
 10
0.0
 20
0.0
 11
12.0
 21
9.0
 12
0.0
 22
0.0
 32
0.0
 14
0.0
 24
0.0
 34
0.0
 15
0.0
 25
0.0
 35
0.0
146
0.0
 13
0.0
 23
0.0
 33
0.0
 16
1.0
 26
0.0
 36
0.0
 17
0.0
 27
1.0
 37
0.0
 76
     0
330
2
  0
LAYOUT
  5
10
102
{ACAD_XDICTIONARY
360
11
102
}
102
{ACAD_REACTORS
330
C
102
}
330
C
100
AcDbPlotSettings
  1

  2
\\RDS1\iR3300影印機
  4
A3
  6

 40
6.805083274841308
 41
5.365738868713378
 42
7.228424072265625
 43
5.027069091796875
 44
296.9259948730469
 45
419.9466552734374
 46
0.0
 47
0.0
 48
0.0
 49
0.0
140
0.0
141
0.0
142
1.5
143
1.0
 70
   672
 72
     1
 73
     1
 74
     5
  7

 75
    16
147
1.0
 76
     0
 77
     2
 78
   300
148
0.0
149
0.0
100
AcDbLayout
  1
配置1
 70
     1
 71
     1
 10
-3.35137939453125
 20
-4.536722183227539
 11
276.6130574544271
 21
193.4139410654703
 12
0.0
 22
0.0
 32
0.0
 14
8.815044552509107
 24
3.73337283036443
 34
-0.0015234476054502
 15
266.732111097214
 25
181.7155937533084
 35
127.3972050562932
146
0.0
 13
0.0
 23
0.0
 33
0.0
 16
1.0
 26
0.0
 36
0.0
 17
0.0
 27
1.0
 37
0.0
 76
     0
330
D
331
1C3
1001
ACAD_PSEXT
1000
\\RDS1\iR3300影印機
1000
Canon iR2200-3300 PCL5e
1000
\\RDS1
1000

1070
     0
  0
MLINESTYLE
  5
3A
102
{ACAD_REACTORS
330
35
102
}
330
35
100
AcDbMlineStyle
  2
STANDARD
 70
     0
  3

 62
     0
 51
90.0
 52
90.0
 71
     2
 49
0.5
 62
   256
  6
BYLAYER
 49
-0.5
 62
   256
  6
BYLAYER
  0
ACDBPLACEHOLDER
  5
6
102
{ACAD_REACTORS
330
7
102
}
330
7
  0
TABLESTYLE
  5
3B
102
{ACAD_REACTORS
330
39
102
}
330
39
100
AcDbTableStyle
  3
Standard
 70
     0
 71
     0
 40
1.5
 41
1.5
280
     0
281
     0
  7
STANDARD
140
4.5
170
     2
 62
     0
 63
     7
283
     0
274
    -2
284
     1
 64
     0
275
    -2
285
     1
 65
     0
276
    -2
286
     1
 66
     0
277
    -2
287
     1
 67
     0
278
    -2
288
     1
 68
     0
279
    -2
289
     1
 69
     0
  7
STANDARD
140
6.0
170
     5
 62
     0
 63
     7
283
     0
274
    -2
284
     1
 64
     0
275
    -2
285
     1
 65
     0
276
    -2
286
     1
 66
     0
277
    -2
287
     1
 67
     0
278
    -2
288
     1
 68
     0
279
    -2
289
     1
 69
     0
  7
STANDARD
140
4.5
170
     5
 62
     0
 63
     7
283
     0
274
    -2
284
     1
 64
     0
275
    -2
285
     1
 65
     0
276
    -2
286
     1
 66
     0
277
    -2
287
     1
 67
     0
278
    -2
288
     1
 68
     0
279
    -2
289
     1
 69
     0
  0
DICTIONARYVAR
  5
1BA
102
{ACAD_REACTORS
330
1B9
102
}
330
1B9
100
DictionaryVariables
280
     0
  1
STANDARD
  0
DICTIONARYVAR
  5
1BC
102
{ACAD_REACTORS
330
1B9
102
}
330
1B9
100
DictionaryVariables
280
     0
  1
1
  0
DICTIONARYVAR
  5
1BB
102
{ACAD_REACTORS
330
1B9
102
}
330
1B9
100
DictionaryVariables
280
     0
  1
1
  0
DICTIONARYVAR
  5
1BD
102
{ACAD_REACTORS
330
1B9
102
}
330
1B9
100
DictionaryVariables
280
     0
  1

  0
ACMDATADICTIONARY
  5
B02
102
{ACAD_REACTORS
330
21D
102
}
330
21D
100
AcDbDictionary
281
     1
  3
*A1
350
B03
100
AcmDataDictionary
  0
DICTIONARY
  5
22A
102
{ACAD_REACTORS
330
21D
102
}
330
21D
100
AcDbDictionary
281
     1
  3
ISO
350
B0D
  0
XRECORD
  5
247
102
{ACAD_REACTORS
330
21D
102
}
330
21D
100
AcDbXrecord
280
     1
 90
-1023410169
  0
DICTIONARY
  5
A4D
102
{ACAD_REACTORS
330
1C5
102
}
330
1C5
100
AcDbDictionary
281
     1
  3
DWGSETTINGS
350
A4E
  3
TRANSSETTINGS
350
A51
  0
LAYER_INDEX
  5
B25
102
{ACAD_REACTORS
330
B24
102
}
330
B24
100
AcDbIndex
 40
2455117.711927257
100
AcDbLayerIndex
  8
0
360
B26
 90
        0
  8
AM_VIS
360
B27
 90
        0
  8
LOGO
360
B28
 90
        0
  8
AM_5
360
B29
 90
        0
  8
Defpoints
360
B2A
 90
        0
  8
AM_7
360
B2B
 90
        0
  8
HIDDEN
360
B2C
 90
        0
  0
DICTIONARY
  5
11
330
10
100
AcDbDictionary
280
     1
281
     1
  3
ADSK_XREC_LAYOUTTHUMBNAIL
360
12
  0
ACMDATAENTRYBLOCK
  5
B03
102
{ACAD_REACTORS
330
B02
102
}
330
B02
100
AcmDataEntry
100
AcmDataEntryBlock
  0
IDBUFFER
  5
B26
330
0
100
AcDbIdBuffer
  0
IDBUFFER
  5
B27
330
0
100
AcDbIdBuffer
  0
IDBUFFER
  5
B28
330
0
100
AcDbIdBuffer
  0
IDBUFFER
  5
B29
330
0
100
AcDbIdBuffer
  0
IDBUFFER
  5
B2A
330
0
100
AcDbIdBuffer
  0
IDBUFFER
  5
B2B
330
0
100
AcDbIdBuffer
  0
IDBUFFER
  5
B2C
330
0
100
AcDbIdBuffer
  0
XRECORD
  5
12
102
{ACAD_REACTORS
330
11
102
}
330
11
100
AcDbXrecord
280
     1
310
28000000B40000007F00000001000800000000004C590000000000000000000000010000000000000000000000000000FFFFFF000000000000000000000000000000000000000000000000000000000000000000330000006600000099000000CC000000FF00000000330000333300006633000099330000CC330000FF3300
310
0000660000336600006666000099660000CC660000FF66000000990000339900006699000099990000CC990000FF99000000CC000033CC000066CC000099CC0000CCCC0000FFCC000000FF000033FF000066FF000099FF0000CCFF0000FFFF000000003300330033006600330099003300CC003300FF003300003333003333
310
33006633330099333300CC333300FF33330000663300336633006666330099663300CC663300FF66330000993300339933006699330099993300CC993300FF99330000CC330033CC330066CC330099CC3300CCCC3300FFCC330000FF330033FF330066FF330099FF3300CCFF3300FFFF330000006600330066006600660099
310
006600CC006600FF00660000336600333366006633660099336600CC336600FF33660000666600336666006666660099666600CC666600FF66660000996600339966006699660099996600CC996600FF99660000CC660033CC660066CC660099CC6600CCCC6600FFCC660000FF660033FF660066FF660099FF6600CCFF6600
310
FFFF660000009900330099006600990099009900CC009900FF00990000339900333399006633990099339900CC339900FF33990000669900336699006666990099669900CC669900FF66990000999900339999006699990099999900CC999900FF99990000CC990033CC990066CC990099CC9900CCCC9900FFCC990000FF99
310
0033FF990066FF990099FF9900CCFF9900FFFF99000000CC003300CC006600CC009900CC00CC00CC00FF00CC000033CC003333CC006633CC009933CC00CC33CC00FF33CC000066CC003366CC006666CC009966CC00CC66CC00FF66CC000099CC003399CC006699CC009999CC00CC99CC00FF99CC0000CCCC0033CCCC0066CC
310
CC0099CCCC00CCCCCC00FFCCCC0000FFCC0033FFCC0066FFCC0099FFCC00CCFFCC00FFFFCC000000FF003300FF006600FF009900FF00CC00FF00FF00FF000033FF003333FF006633FF009933FF00CC33FF00FF33FF000066FF003366FF006666FF009966FF00CC66FF00FF66FF000099FF003399FF006699FF009999FF00CC
310
99FF00FF99FF0000CCFF0033CCFF0066CCFF0099CCFF00CCCCFF00FFCCFF0000FFFF0033FFFF0066FFFF0099FFFF00CCFFFF00FFFFFF00000000000D0D0D001A1A1A00282828003535350043434300505050005D5D5D006B6B6B00787878008686860093939300A1A1A100AEAEAE00BBBBBB00C9C9C900D6D6D600E4E4E400
310
F1F1F100FFFFFF0000000000000000000000000000000000000000000000000000000000000000000000000000000000E2E2E2E2E2E2E2E2E2E2E2E2E2E2E2E2E2E2E2E2E2E2E2E2E2E2E2E2E2E2E2E2E2E2E2E2E2E2E2E2E2E2E2E2E2E2E2E2E2E2E2E2E2E2E2E2E2E2E2E2E2E2E2E2E2E2E2E2E2E2E2E2E2E2E2E2E2E2E2
310
E2E2E2E2E2E2E2E2E2E2E2E2E2E2E2E2E2E2E2E2E2E2E2E2E2E2E2E2E2E2E2E2E2E2E2E2E2E2E2E2E2E2E2E2E2E2E2E2E2E2E2E2E2E2E2E2E2E2E2E2E2E2E2E2E2E2E2E2E2E2E2E2E2E2E2E2E2E2E2E2E2E2E2E2E2E2E2E2E2E2E2E2E2E2E2E2E2E2E2E2E2E2E2E2E2E2E2E2E2E2E2E2E2E2E2E2E2E2E2E2E2E2E2E2E2E2E2
310
E2E2E2E2E2E2E2E2E2E2E2E2E2E2E2E2E2E2E2E2E2E2E2E2E2E2E2E2E2E2E2E2E2E2E2E2E2E2E2E2E2E2E2E2E2E2E2E2E2E2E2E2E2E2E2E2E2E2E2E2E2E2E2E2E2E2E2E2E2E2E2E2E2E2E2E2E2E2E2E2E2E2E2E2E2E2E2E2E2E2E2E2E2E2E2E2E2E2E2E2E2E2E2E2E2E2E2E2E2E2E2E2E2E2E2E2E2E2E2E2E2E2E2E2E2E2E2
310
E2E2E2E2E2E2E2E2E2E2E2E2E2E2E2E2E2E2E2E2E2E2E2E2E2E2E2E2E2E2E2E2E2E2E2E2E2E2E2E2E2E2E2E2E2E2E2E2E2E2E2E2E2E2E2E2E2E2E2E2E2E2E2E2E2E2E2E2E2E2E2E2E2E2E2E2E2E2E2E2E2E2E2E2E2E2E2E2E2E2E2E2E2E2E2E2E2E2E2E2E2E2E2E2E2E2E2E2E2E2E2E2E2E2E2E2E2E2E2E2E2E2E2E2E2E2E2
310
E2E2E2E2E2E2E2E2E2E2E2E2E2E2E2E2E2E2E2E2E2E2E2E2E2E2E2E2E2E2E2E2E2E2E2E2E2E2E2E2E2E2E2E2E2E2E2E2E2E2E2E2E2E2E2E2E2E2E2E2E2E2E2E2E2E2E2E2E2E2E2E2E2E2E2E2E2E2E2E2E2E2E2E2E2E2E2E2E2E2E2E2E2E2E2E2E2E2E2E2E2E2E2E2E2E2E2E2E2E2E2E2E2E2E2E2E2E2E2E2E2E2E2E2E2E2E2
310
E2E2E2E2E2E2E2E2E2E2E2E2E2E2E2E2E2E2E2E2E2E2E2E2E2E2E2E2E2E2E2E2E2E2E2E2E2E2E2E2E2E2E2E2E2E2E2E2E2E2E2E2E2E2E2E2E2E2E2E2E2E2E2E2E2E2E2E2E2E2E2E2E2E2E2E2E2E2E2E2E2E2E2E2E2E2E2E2E2E2E2E2E2E2E2E2E2E2E2E2E2E2E2E2E2E2E2E2E2E2E2E2E2E2E2E2E2E2E2E2E2E2E2E2E2E2E2
310
E2E2E2E2E2E2E2E2E2E2E2E2E2E2E2E2E2E2E2E2E2E2E2E2E2E2E2E2E2E2E2E2E2E2E2E2E2E2E2E2E2E2E2E2E2E2E2E2E2E2E2E2E2E2E2E2E2E2E2E2E2E2E2E2E2E2E2E2E2E2E2E2E2E2E2E2E2E2E2E2E2E2E2E2E2E2E2E2E2E2E2E2E2E2E2E2E2E2E2E2E2E2E2E2E2E2E2E2E2E2E2E2E2E2E2E2E2E2E2E2E2E2E2E2E2E2E2
310
E2E2E2E2E2E2E2E2E2E2E2E2E2E2E2E2E2E2E2E2E2E2E2E2E2E2E2E2E2E2E2E2E2E2E2E2E2E2E2E2E2E2E2E2E2E2E2E2E2E2E2E2E2E2E2E2E2E2E2E2E2E2E2E2E2E2E2E2E2E2E2E2E2E2E2E2E2E2E2E2E2E2E2E2E2E2E2E2E2E2E2E2E2E2E2E2E2E2E2E2E2E2E2E2E2E2E2E2E2E2E2E2E2E2E2E2E2E2E2E2E2E2E2E2E2E2E2
310
E2E2E2E2E2E2E2E2E2E2E2E2E2E2E2E2E2E2E2E2E2E2E2E2E2E2E2E2E2E2E2E2E2E2E2E2E2E2E2E2E2E2E2E2E2E2E2E2E2E2E2E2E2E2E2E2E2E2E2E2E2E2E2E2E2E2E2E2E2E2E2E2E2E2E2E2E2E2E2E2E2E2E2E2E2E2E2E2E2E2E2E2E2E2E2E2E2E2E2E2E2E2E2E2E2E2E2E2E2E2E2E2E2E2E2E2E2E2E2E22D2D2D2D2D2D2D
310
2D2D2D2D2D2D2D2D2D2D2D2D2D2D2D2D2D2D2D2D2D2D2D2D2D2D2D2D2D2D2D2D2D2D2D2D2D2D2D2D2D2D2D2D2D2D2D2D2D2D2D2D2D2D2D2D2D2D2D2D2D2D2D2D2D2D2D2D2D2D2D2D2D2D2D2D2D2D2D2D2D2D2D2D2D2D2D2D2D2D2D2D2D2D2D2D2D2D2D2D2D2D2D2D2D2D2D2D2D2D2D2D2D2D2D2D2D2D2D2D2D2D2D2D2D2D2D
310
2D2D2D2D2D2D2D2D2D2D2D2D2D2D2D2D2D2D2D2D2D2D2D2D2D2D2D2D2D2DE2E2E2E2E2E2E2E2E2E2E2E2E2E2E2E22DF5F5F5F5F5F5F5F5F5F5F5F5F5F5F5F5F5F5F5F5F5F5F5F5F5F52DF5F5F5F5F5F5F52DE2E2E2E2E2E2E2E2E22D2D2D2D2D2D2D2D2DE2E22D2D2D2D2D2D2D2DE2E2E2E2E2E2E2E2E2E2E2E2E2E2E2E2E2
310
E2E2E2E2E2E2E2E2E2E2E2E2E2E2E2E2E2E2E2E2E2E2E2E2E2E2E2E2E2E2E2E2E2E2E2E2E2E2E2E2E2E2E2E2E2E2E2E2E2E2E2E2E2E2E2E2E2E2E2E2E2E2E2E2E2E2E2E2E2E2E2E2E2E2E2E2E2E2E2E2E2E22DE2E2E2E2E2E2E2E2E2E2E2E2E2E2E2E22DF5F5F5F5F5F5F5F5F5F5F5F5F5F5F5F5F5F5F5F5F5E2F5F5F5F52D
310
2D2D2D2D2D2D2D2DE2E2E2E2E2E2E2E2E22DE2E2F5F5F5E2E22DE2E22DE2E2F5F5F5E22DE2E2E2E2E2E2E2E2E2E2E2E2E2E2E2E2E2E2E2E2E2E2E2E2E2E2E2E2E2E2E2E2E2E2E2E2E2E2E2E2E2E2E2E2E2E2E2E2E2E2E2E2E2E2E2E2E2E2E2E2E2E2E2E2E2E2E2E2E2E2E2E2E2E2E2E2E2E2E2E2E2E2E2E2E2E2E2E2E2E2E2
310
E2E2E2E2E2E2E2E22DE2E2E2E2E2E2E2E2E2E2E2E2E2E2E2E22DE2E2E2E2F5F5F5F5F5F5F5F5F5F5F5F5F5F5F5F5F5F5F5E2E2E22DE2E2E2E2E2E2E2E2E2E2E2E2E2E2E2E2E22DE2E2F5F5E2F5E22DE2E22DE2F5F5F5F5E22DE2E2E2E2E2E2E2E2E2E2E2E2E2E2E2E2E2E2E2E2E2E2E2E2E2E2E2E2E2E2E2E2E2E2E2E2E2E2
310
E2E2E2E2E2E2E2E2E2E2E2E2E2E2E2E2E2E2E2E2E2E2E2E2E2E2E2E2E2E2E2E2E2E2E2E2E2E2E2E2E2E2E2E2E2E2E2E2E2E2E2E2E2E2E2E2E2E2E2E2E22DE2E2E2E2E2E2E2E2E2E2E2E2E2E2E2E22DE2E2E2E2F5F5F5F5F5F5F5F5F5F5F5F5F5F5F5F5F5F5F5E2E2E22DE2E2E2E2E2E2E2E2E2E2E2E2E2E2E2E2E22DE2E2F5
310
F5F5F5E22DE2E22DE2F5F5F5F5E22DE2E2E2E2E2E2E2E2E2E2E2E2E2E2E2E2E2E2E2E2E2E2E2E2E2E2E2E2E2E2E2E2E2E2E2E2E2E2E2E2E2E2E2E2E2E2E2E2E2E2E2E2E2E2E2E2E2E2E2E2E2E2E2E2E2E2E2E2E2E2E2E2E2E2E2E2E2E2E2E2E2E2E2E2E2E2E2E2E2E2E2E2E2E2E2E2E2E2E22DE2E2E2E2E2E2E2E2E2E2E2E2
310
E2E2E2E22D0F0F0F0F0F0F0F0F2D2D2D2D2D2D2D2D2D2D2D2D2D2D2D2D2D2D2DE2E2E2E2E2E2E2E2E2E2E2E2E2E2E2E2E22DE2E2F5F5F5F5E22DE2E22DE2F5F5F5F5E22DE2E2E2E2E2E2E2E2E2E2E2E2E2E2E2E2E2E2E2E2E2E2E2E2E2E2E2E2E2E2E2E2E2E2E2E2E2E2E2E2E2E2E2E2E2E2E2E2E2E2E2E2E2E2E2E2E2E2E2
310
E2E2E2E2E2E2E2E2E2E2E2E2E2E2E2E2E2E2E2E2E2E2E2E2E2E2E2E2E2E2E2E2E2E2E2E2E2E2E2E22DE2E2E2E2E2E2E2E2E2E2E2E2E2E2E2E22D0F0F0F0F0F0F0F0F2DF5F5F5E2F5F5F5F5F52DE2E2F5F5F5F5E22DE2E2E2E2E2E2E2E2E2E2E2E2F5E2E2E2E22D2D2D2D2D2D2D2D2DE2E22D2D2D2D2D2D2D2DE2E2E2E2E2E2
310
E2E2E2E2E2E2E2E2E2E2E2E2E2E2E2E2E2E2E2E2E2E2E2E2E2E2E2E2E2E2E2E2E2E2E2E2E2E2E2E2E2E2E2E2E2E2E2E2E2E2E2E2E2E2E2E2E2E2E2E2E2E2E2E2E2E2E2E2E2E2E2E2E2E2E2E2E2E2E2E2E2E2E2E2E2E2E2E2E2E2E2E2E22DE2E2E2E2E2E2E2E2E2E2E2E2E2E2E2E22D0FDC0F0FDCE2DCDC2DF5F5F52DF5F52D
310
F52D2D2D2D2D2D2D2D2D2DF5F5F5F5F5E2F5F5F5F5F5F5F5F5F5F52D2D2D2D2D2D2D2D2D2DE2E22D2D2D2D2D2D2D2DE2E2E2E2E2E2E2E2E2E2E2E2E2E2E2E2E2E2E2E2E2E2E2E2E2E2E2E2E2E2E2E2E2E2E2E2E2E2E2E2E2E2E2E2E2E2E2E2E2E2E2E2E2E2E2E2E2E2E2E2E2E2E2E2E2E2E2E2E2E2E2E2E2E2E2E2E2E2E2E2
310
E2E2E2E2E2E2E2E2E2E2E2E2E2E2E2E2E2E2E22DE2E2E2E2E2E2E2E2E2E2E2E2E2E2E2E22DE20FDC0FDCDCDCDC2DF5F5F5E2E2F5F5F5F52DE2F5F5E2F5F5F52DF5F5F5F5F5F5F5F5F5F5F5F5F5F5F5F52DE2F5F5F5F5F5F5F52DE2E22DE2F5F5F5F5F52DE2E2E2E2E2E2E2E2E2E2E2E2E2E2E2E2E2E2E2E2E2E2E2E2E2E2E2
310
E2E2E2E2E2E2E2E2E2E2E2E2E2E2E2E2E2E2E2E2E2E2E2E2E2E2E2E2E2E2E2E2E2E2E2E2E2E2E2E2E2E2E2E2E2E2E2E2E2E2E2E2E2E2E2E2E2E2E2E2E2E2E2E2E2E2E2E2E2E2E2E22DE2E2E2E2E2E2E2E2E2E2E2E2E2E2E2E22DE20FDC0F0FDCDCDC2DF5F5F5E2F5F5F5F5F52DF5F5F5F5F5F5F52DF5F5F5F5F5F5F5F5F5F5
310
F5E2E2F5E2E22DE2F5F5F5F5F5F5F52DF5F5F5E2F5F5F5F5E22DE2E2E2E2E2E2E2E2E2E2E2E2E2E2E2E2E2E2E2E2E2E2E2E2E2E2E2E2E2E2E2E2E2E2E2E2E2E2E2E2E2E2E2E2E2E2E2E2E2E2E2E2E2E2E2E2E2E2E2E2E2E2E2E2E2E2E2E2E2E2E2E2E2E2E2E2E2E2E2E2E2E2E2E2E2E2E2E2E2E2E2E2E2E2E2E2E2E2E22DE2
310
E2E2E2E2E2E2E2E2E2E2E2E2E2E2E22DE2E20F0FDCDCDCDC2D2D2D2D2DF5F5F5F5F52D2DF52DF52DF52D2DF5F5F5F5F5F5F5F5F5F5F5E2E2E2E2E22DE2F5E2F5F5F5F5F52DE2E22DE2F5F5F5F5E22DE2E2E2E2E2E2E2E2E2E2E2E2E2E2E2E2E2E2E2E2E2E2E2E2E2E2E2E2E2E2E2E2E2E2E2E2E2E2E2E2E2E2E2E2E2E2E2E2
310
E2E2E2E2E2E2E2E2E2E2E2E2E2E2E2E2E2E2E2E2E2E2E2E2E2E2E2E2E2E2E2E2E2E2E2E2E2E2E2E2E2E2E2E2E2E2E2E2E2E2E22DE2E2E2E2E2E2E2E2E2E2E2E2E2E2E2E22DE2E20FDCDC0FDCDC2DF5F5F5F5F5F5F5F5F52DE2F5E2F5E2F5E22DF5F5F5F5F5F5F5F5F5F5F5E2E2E2E2E22D2D2D2D2D2D2D2D2D2DE2E22D2D2D
310
2D2D2D2D2DE2E2E2E2E2E2E2E2E2E2E2E2E2E2E2E2E2E2E2E2E2E2E2E2E2E2E2E2E2E2E2E2E2E2E2E2E2E2E2E2E2E2E2E2E2E2E2E2E2E2E2E2E2E2E2E2E2E2E2E2E2E2E2E2E2E2E2E2E2E2E2E2E2E2E2E2E2E2E2E2E2E2E2E2E2E2E2E2E2E2E2E2E2E2E2E2E2E2E22DE2E2E2E2E2E2E2E2E2E2E2E2E2E2E2E22D2D2D2D2D2D
310
2D2D2D2D2D2D2D2D2D2D2D2D2D2D2D2D2D2D2D2D2D2D2D2D2D2D2D2D2D2D2D2D2D2D2D2D2D2D2D2D2D2D2D2D2D2D2D2D2D2D2D2D2D2D2D2D2D2D2D2D2D2D2D2D2D2D2D2D2D2D2D2D2D2D2D2D2D2D2D2D2D2D2D2D2D2D2D2D2D2D2D2D2D2D2D2D2D2D2D2D2D2D2D2D2D2D2D2D2D2D2D2D2D2D2D2D2D2D2D2D2D2D2D2D2D2D2D
310
2D2D2D2D2D2D2D2D2D2D2D2D2D2D2D2D2D2D2D2D2D2D2D2D2D2D2D2D2D2D2DE2E2E2E2E2E2E2E2E2E2E2E2E2E2E2E22DE2E2E2E2E2E2E2E2E2E2E2E2E2E2E2E2E2E2E2E2E2E2E2E2E2E2E2E2E2E2E2E2E2E2E2E2E2E2E2E2E2E2E2E2E2E2E2E2E2E2E2E2E2E2E2E2E2E2E2E2E2E2E2E2E2E2E2E2E2E2E2E2E2E2E2E2E2E2E2
310
E2E2E2E2E2E2E2E2E2E2E2E2E2E2E2E2E2E2E2E2E2E2E2E2E2E2E2E2E2E2E2E2E2E2E2E2E2E2E2E2E2E2E2E2E2E2E2E2E2E2E2E2E2E2E2E2E2E2E2E2E2E2E2E2E2E2E2E2E2E2E2E2E2E2E2E2E2E2E2E2E2E2E22DE2E2E2E2E2E2E2E2E2E2E2E2E2E2E2E22DE2E2E2E2E2E2E2E2E2E2E2E2E2E2E2E2E2E2E2E2E2E2E2E2E2E2
310
E2E2E2E2E2E2E2E2E2E2E2E2E2E2E2E2E2E2E2E2E2E2E2E2E2E2E2E2E2E2E2E2E2E2E2E2E2E2E2E2E2E2E2E2E2E2E2E2E2E2E2E2E2E2E2E2E2E2E2E2E2E2E2E2E2E2E2E2E2E2E2E2E2E2E2E2E2E2E2E2E2E2E2E2E2E2E2E2E2E2E2E2E2E2E2E2E2E2E2E2E2E2E2E2E2E2E2E2E2E2E2E2E2E2E2E2E2E2E2E2E2E2E2E2E2E2E2
310
E2E2E2E2E2E2E2E2E22DE2E2E2E2E2E2E2E2E2E2E2E2E2E2E2E22DE2E2E2E2E2E2E2E2E2E2E2E2E2E2E2E2E2E2E2E2E2E2E2E2E2E2E2E2E2E2E2E2E2E2E2E2E2E2E2E2E2E2E2E2E2E2E2E2E2E2E2E2E2E2E2E2E2E2E2E2E2E2E2E2E2E2E2E2E2E2E2E2E2E2E2E2E2E2E2E2E2E2E2E2E2E2E2E2E2E2E2E2E2E2E2E2E2E2E2E2
310
E2E2E2E2E2E2E2E2E2E2E2E2E2E2E2E2E2E2E2E2E2E2E2E2E2E2E2E2E2E2E2E2E2E2E2E2E2E2E2E2E2E2E2E2E2E2E2E2E2E2E2E2E2E2E2E2E2E2E2E2E2E22DE2E2E2E2E2E2E2E2E2E2E2E2E2E2E2E22DE2E2E2E2E2E2E2E2E2E2E2E2E2E2E2E2E2E2E2E2E2E2E2E2E2E2E2E2E2E2E2E2E2E2E2E2E2E2E2E2E2E2E2E2E2E2E2
310
E2E2E2E2E2E2E2E2E2E2E2E2E2E2E2E2E2E2E2E2E2E2E2E2E2E2E2E2E2E2E2E2E2E2E2E2E2E2E2E2E2E2E2E2E2E2E2E2E2E2E2E2E2E2E2E2E2E2E2E2E2E2E2E2E2E2E2E2E2E2E2E2E2E2E2E2E2E2E2E2E2E2E2E2E2E2E2E2E2E2E2E2E2E2E2E2E2E2E2E2E2E2E2E2E2E2E2E2E2E2E2E2E2E2E22DE2E2E2E2E2E2E2E2E2E2E2
310
E2E2E2E2E22DE2E2E2E2E2E2E2E2E2E2E2E2E2E2E2E2E2E2E2E2E2E2E2E2E2E2E2E2E2E2E2E2E2E2E2E2E2E2E2E2E2E2E2E2E2E2E2E2E2E2E2E2E2E2E2E2E2E2E2E2E2E2E2E2E2E2E2E2E2E2E2E2E2E2E2E2E2E2E2E2E2E2E2E2E2E2E2E2E2E2E2E2E2E2E2E2E2E2E2E2E2E2E2E2E2E2E2E2E2E2E2E2E2E2E2E2E2E2E2E2E2
310
E2E2E2E2E2E2E2E2E2E2E2E2E2E2E2E2E2E2E2E2E2E2E2E2E2E2E2E2E2E2E2E2E2E2E2E2E2E2E2E2E22DE2E2E2E2E2E2E2E2E2E2E2E2E2E2E2E22DE2E2E2E2E2E2E2E2E2E2E2E2E2E2E2E2E2E2E2E2E2E2E2E2E2E2E2E2E2E2E2E2E2E2E2E2E2E2E2E2E2E2E2E2E2E2E2E2E2E2E2E2E2E2E2E2E2E2E2E2E2E2E2E2E2E2E2E2
310
E2E2E2E2E2E2E2E2E2E2E2E2E2E2E2E2E2E2E2E2E2E2E2E2E2E2E2E2E2E2E2E2E2E2E2E2E2E2E2E2E2E2E2E2E2E2E2E2E2E2E2E2E2E2E2E2E2E2E2E2E2E2E2E2E2E2E2E2E2E2E2E2E2E2E2E2E2E2E2E2E2E2E2E2E2E2E2E2E2E2E2E2E2E22DE2E2E2E2E2E2E2E2E2E2E2E2E2E2E2E22DE2E2E2E2E2E2E2E2E2E2E2E2E2E2E2
310
E2E2E2E2E2E2E2E2E2E2E2E2E2E2E2E2E2E2E2E2E2E2E2E2E2E2E2E2E2E2E2E2E2E2E2E2E2E2E2E2E2E2E2E2E2E2E2E2E2E2E2E2E2E2E2E2E2E2E2E2E2E2E2E2E2E2E2E2E2E2E2E2E2E2E2E2E2E2E2E2E2E2E2E2E2E2E2E2E2E2E2E2E2E2E2E2E2E2E2E2E2E2E2E2E2E2E2E2E2E2E2E2E2E2E2E2E2E2E2E2E2E2E2E2E2E2E2
310
E2E2E2E2E2E2E2E2E2E2E2E2E2E2E2E2E2E2E2E22DE2E2E2E2E2E2E2E2E2E2E2E2E2E2E2E22DE2E2E2E2E2E2E2E2E2E2E2E2E2E2E2E2E2E2E2E2E2E2E2E2E2E2E2E2E2E2E2E2E2E2E2E2E2E2E2E2E2E2E2E2E2E2E2E2E2E2E2E2E2E2E2E2E2E2E2E2E2E2E2E2E2E2E2E2E2E2E2E2E2E2E2E2E2E2E2E2E2E2E2E2E2E2E2E2E2
310
E2E2E2E2E2E2E2E2E2E2E2E2E2E2E2E2E2E2E2E2E2E2E2E2E2E2E2E2E2E2E2E2E2E2E2E2E2E2E2E2E2E2E2E2E2E2E2E2E2E2E2E2E2E2E2E2E2E2E2E2E2E2E2E2E2E2E2E2E2E2E2E2E22DE2E2E2E2E2E2E2E2E2E2E2E2E2E2E2E22DE2E2E2E2E2E2E2E2E2E2E2E2E2E2E2E2E2E2E2E2E2E2E2E2E2E2E2E2E2E2E2E2E2E2E2E2
310
E2E2E2E2E2E2E2E2E2E2E2E2E2E2E2E2E2E2E2E2E2E2E2E2E2E2E2E2E2E2E2E2E2E2E2E2E2E2E2E2E2E2E2E2E2E2E2E2E2E2E2E2E2E2E2E2E2E2E2E2E2E2E2E2E2E2E2E2E2E2E2E2E2E2E2E2E2E2E2E2E2E2E2E2E2E2E2E2E2E2E2E2E2E2E2E2E2E2E2E2E2E2E2E2E2E2E2E2E2E2E2E2E2E2E2E2E2E2E2E2E2E2E2E2E2E22D
310
E2E2E2E2E2E2E2E2E2E2E2E2E2E2E2E22DE2E2E2E2E2E2E2E2E2E2E2E2E2E2E2E2E2E2E2E2E2E2E2E2E2E2E2E2E2E2E2E2E2E2E2E2E2E2E2E2E2E2E2E2E2E2E2E2E2E2E2E2E2E2E2E2E2E2E2E2E2E2E2E2E2E2E2E2E2E2E2E2E2E2E2E2E2E2E2E2E2E2E2E2E2E2E2E2E2E2E2E2E2E2E2E2E2E2E2E2E2E2E2E2E2E2E2E2E2E2
310
E2E2E2E2E2E2E2E2E2E2E2E2E2E2E2E2E2E2E2E2E2E2E2E2E2E2E2E2E2E2E2E2E2E2E2E2E2E2E2E2E2E2E2E2E2E2E2E2E2E2E2E22DE2E2E2E2E2E2E2E2E2E2E2E2E2E2E2E22DE2E2E2E2E2E2E2E2E2E2E2E2E2E2E2E2E2E2E2E2E2E2E2E2E2E2E2E2E2E2E2E2E2E2E2E2E2E2E2E2E2E2E2E2E2E2E2E2E2E2E2E2E2E2E2E2E2
310
E2E2E2E2E2E2E2E2E2E2E2E2E2E2E2E2E2E2E2E2E2E2E2E2E2E2E2E2E2E2E2E2E2E2E2E2E2E2E2E2E2E2E2E2E2E2E2E2E2E2E2E2E2E2E2E2E2E2E2E2E2E2E2E2E2E2E2E2E2E2E2E2E2E2E2E2E2E2E2E2E2E2E2E2E2E2E2E2E2E2E2E2E2E2E2E2E2E2E2E2E2E2E2E2E22DE2E2E2E2E2E2E2E2E2E2E2E2E2E2E2E22DE2E2E2E2
310
E2E2E2E2E2E2E2E2E2E2E2E2E2E2E2E2E2E2E2E2E2E2E2E2E2E2E2E2E2E2E2E2E2E2E2E2E2E2E2E2E2E2E2E2E2E2E2E2E2E2E2E2E2E2E2E2E2E2E2E2E2E2E2E2E2E2E2E2E2E2E2E2E2E2E2E2E2E2E2E2E2E2E2E2E2E2E2E2E2E2E2E2E2E2E2E2E2E2E2E2E2E2E2E2E2E2E2E2E2E2E2E2E2E2E2E2E2E2E2E2E2E2E2E2E2E2E2
310
E2E2E2E2E2E2E2E2E2E2E2E2E2E2E2E2E2E2E2E2E2E2E2E2E2E2E2E2E2E2E22DE2E2E2E2E2E2E2E2E2E2E2E2E2E2E2E22DE2E2E2E2E2E2E2E2E2E2E2E2E2E2E2E2E2E2E2E2E2E2E2E2E2E2E2E2E2E2E2E2E2E2E2E2E2E2E2E2E2E2E2E2E2E2E2E2E2E2E2E2E2E2E2E2E2E2E2E2E2E2E2E2E2E2E2E2E2E2E2E2E2E2E2E2E2E2
310
E2E2E2E2E2E2E2E2E2E2E2E2E2E2E2E2E2E2E2E2E2E2E2E2E2E2E2E2E2E2E2E2E2E2E2E2E2E2E2E2E2E2E2E2E2E2E2E2E2E2E2E2E2E2E2E2E2E2E2E2E2E2E2E2E2E2E2E2E2E2E2E2E2E2E2E2E2E2E2E2E2E2E2E22DE2E2E2E2E2E2E2E2E2E2E2E2E2E2E2E22DE2E2E2E2E2E2E2E2E2E2E2E2E2E2E2E2E2E2E2E2E2E2E2E2E2
310
E2E2E2E2E2E2E2E2E2E2E2E2E2E2E2E2E2E2E2E2E2E2E2E2E2E2E2E2E2E2E2E2E2E2E2E2E2E2E2E2E2E2E2E2E2E2E2E2E2E2E2E2E2E2E2E2E2E2E2E2E2E2E2E2E2E2E2E2E2E2E2E2E2E2E2E2E2E2E2E2E2E2E2E2E2E2E2E2E2E2E2E2E2E2E2E2E2E2E2E2E2E2E2E2E2E2E2E2E2E2E2E2E2E2E2E2E2E2E2E2E2E2E2E2E2E2E2
310
E2E2E2E2E2E2E2E2E2E22DE2E2E2E2E2E2E2E2E2E2E2E2E2E2E2E22DE2E2E2E2E2E2E2E2E2E2E2E2E2E2E2E2E2E2E2E2E2E2E2E2E2E2E2E2E2E2E2E2E2E2E2E2E2E2E2E2E2E2E2E2E2E2E2E2E2E2E2E2E2E2E2E2E2E2E2E2E2E2E2E2E2E2E2E2E2E2E2E2E2E2E2E2E2E2E2E2E2E2E2E2E2E2E2E2E2E2E2E2E2E2E2E2E2E2E2
310
E2E2E2E2E2E2E2E2E2E2E2E2E2E2E2E2E2E2E2E2E2E2E2E2E2E2E2E2E2E2E2E2E2E2E2E2E2E2E2E2E2E2E2E2E2E2E2E2E2E2E2E2E2E2E2E2E2E2E2E2E2E2E22DE2E2E2E2E2E2E2E2E2E2E2E2E2E2E2E22DE2E2E2E2E2E2E2E2E2E2E2E2E2E2E2E2E2E2E2E2E2E2E2E2E2E2E2E2E2E2E2E2E2E2E2E2E2E2E2E2E2E2E2E2E2E2
310
E2E2E2E2E2E2E2E2E2E2E2E2E2E2E2E2E2E2E2E2E2E2E2E2E2E2E2E2E2E2E2E2E2E2E2E2E2E2E2E2E2E2E2E2E2E2E2E2E2E2E2E2E2E2E2E2E2E2E2E2E2E2E2E2E2E2E2E2E2E2E2E2E2E2E2E2E2E2E2E2E2E2E2E2E2E2E2E2E2E2E2E2E2E2E2E2E2E2E2E2E2E2E2E2E2E2E2E2E2E2E2E2E2E2E2E22DE2E2E2E2E2E2E2E2E2E2
310
E2E2E2E2E2E22DE2E2E2E2E2E2E2E2E2E2E2E2E2E2E2E2E2E2E2E2E2E2E2E2E2E2E2E2E2E2E2E2E2E2E2E2E2E2E2E2E2E2E2E2E2E2E2E2E2E2E2E2E2E2E2E2E2E2E2E2E2E2E2E2E2E2E2E2E2E2E2E2E2E2E2E2E2E2E2E2E2E2E2E2E2E2E2E2E2E2E2E2E2E2E2E2E2E2E2E2E2E2E2E2E2E2E2E2E2E2E2E2E2E2E2E2E2E2E2E2
310
E2E2E2E2E2E2E2E2E2E2E2E2E2E2E2E2E2E2E2E2E2E2E2E2E2E2E2E2E2E2E2E2E2E2E2E2E2E2E2E2E2E22DE2E2E2E2E2E2E2E2E2E2E2E2E2E2E2E22DE2E2E2E2E2E2E2E2E2E2E2E2E2E2E2E2E2E2E2E2E2E2E2E2E2E2E2E2E2E2E2E2E2E2E2E2E2E2E2E2E2E2E2E2E2E2E2E2E2E2E2E2E2E2E2E2E2E2E2E2E2E2E2E2E2E2E2
310
E2E2E2E2E2E2E2E2E2E2E2E2E2E2E2E2E2E2E2E2E2E2E2E2E2E2E2E2E2E2E2E2E2E2E2E2E2E2E2E2E2E2E2E2E2E2E2E2E2E2E2E2E2E2E2E2E2E2E2E2E2E2E2E2E2E2E2E2E2E2E2E2E2E2E2E2E2E2E2E2E2E2E2E2E2E2E2E2E2E2E2E2E2E2E22DE2E2E2E2E2E2E2E2E2E2E2E2E2E2E2E22DE2E2E2E2E2E2E2E2E2E2E2E2E2E2
310
E2E2E2E2E2E2E2E2E2E2E2E2E2E2E2E2E2E2E2E2E2E2E2E2E2E2E2E2E2E2E2E2E2E2E2E2E2E2E2E2E2E2E2E2E2E2E2E2E2E2E2E2E2E2E2E2E2E2E2E2E2E2E2E2E2E2E2E2E2E2E2E2E2E2E2E2E2E2E2E2E2E2E2E2E2E2E2E2E2E2E2E2E2E2E2E2E2E2E2E2E2E2E2E2E2E2E2E2E2E2E2E2E2E2E2E2E2E2E2E2E2E2E2E2E2E2E2
310
E2E2E2E2E2E2E2E2E2E2E2E2E2E2E2E2E2E2E2E2E22DE2E2E2E2E2E2E2E2E2E2E2E2E2E2E2E22DE2E2E2E2E2E2E2E2E2E2E2E2E2E2E2E2E2E2E2E2E2E2E2E2E2E2E2E2E2E2E2E2E2E2E2E2E2E2E2E2E2E2E2E2E2E2E2E2E2E2E2E2E2E2E2E2E2E2E2E2E2E2E2E2E2E2E2E2E2E2E2E2E2E2E2E2E2E2E2E2E2E2E2E2E2E2E2E2
310
E2E2E2E2E2E2E2E2E2E2E2E2E2E2E2E2E2E2E2E2E2E2E2E2E2E2E2E2E2E2E2E2E2E2E2E2E2E2E2E2E2E2E2E2E2E2E2E2E2E2E2E2E2E2E2E2E2E2E2E2E2E2E2E2E2E2E2E2E2E2E2E2E2E22DE2E2E2E2E2E2E2E2E2E2E2E2E2E2E2E22DE2E2E2E2E2E2E2E2E2E2E2E2E2E2E2E2E2E2E2E2E2E2E2E2E2E2E2E2E2E2E2E2E2E2E2
310
E2E2E2E2E2E2E2E2E2E2E2E2E2E2E2E2E2E2E2E2E2E2E2E2E2E2E2E2E2E2E2E2E2E2E2E2E2E2E2E2E2E2E2E2E2E2E2E2E2E2E2E2E2E2E2E2E2E2E2E2E2E2E2E2E2E2E2E2E2E2E2E2E2E2E2E2E2E2E2E2E2E2E2E2E2E2E2E2E2E2E2E2E2E2E2E2E2E2E2E2E2E2E2E2E2E2E2E2E2E2E2E2E2E2E2E2E2E2E2E2E2E2E2E2E2E2E2
310
2DE2E2E2E2E2E2E2E2E2E2E2E2E2E2E2E22DE2E2E2E2E2E2E2E2E2E2E2E2E2E2E2E2E2E2E2E2E2E2E2E2E2E2E2E2E2E2E2E2E2E2E2E2E2E2E2E2E2E2E2E2E2E2E2E2E2E2E2E2E2E2E2E2E2E2E2E2E2E2E2E2E2E2E2E2E2E2E2E2E2E2E2E2E2E2E2E2E2E2E2E2E2E2E2E2E2E2E2E2E2E2E2E2E2E2E2E2E2E2E2E2E2E2E2E2E2
310
E2E2E2E2E2E2E2E2E2E2E2E2E2E2E2E2E2E2E2E2E2E2E2E2E2E2E2E2E2E2E2E2E2E2E2E2E2E2E2E2E2E2E2E2E2E2E2E2E2E2E2E2E22DE2E2E2E2E2E2E2E2E2E2E2E2E2E2E2E22DE2E2E2E2E2E2E2E2E2E2E2E2E2E2E2E2E2E2E2E2E2E2E2E2E2E2E2E2E2E2E2E2E2E2E2E2E2E2E2E2E2E2E2E2E2E2E2E2E2E2E2E2E2E2E2E2
310
E2E2E2E2E2E2E2E2E2E2E2E2E2E2E2E2E2E2E2E2E2E2E2E2E2E2E2E2E2E2E2E2E2E2E2E2E2E2E2E2E2E2E2E2E2E2E2E2E2E2E2E2E2E2E2E2E2E2E2E2E2E2E2E2E2E2E2E2E2E2E2E2E2E2E2E2E2E2E2E2E2E2E2E2E2E2E2E2E2E2E2E2E2E2E2E2E2E2E2E2E2E2E2E2E2E22DE2E2E2E2E2E2E2E2E2E2E2E2E2E2E2E22DE2E2E2
310
E2E2E2E2E2E2E2E2E2E2E2E2E2E2E2E2E2E2E2E2E2E2E2E2E2E2E2E2E2E2E2E2E2E2E2E2E2E2E2E2E2E2E2E2E2E2E2E2E2E2E2E2E2E2E2E2E2E2E2E2E2E2E2E2E2E2E2E2E2E2E2E2E2E2E2E2E2E2E2E2E2E2E2E2E2E2E2E2E2E2E2E2E2E2E2E2E2E2E2E2E2E2E2E2E2E2E2E2E2E2E2E2E2E2E2E2E2E2E2E2E2E2E2E2E2E2E2
310
E2E2E2E2E2E2E2E2E2E2E2E2E2E2E2E2E2E2E2E2E2E2E2E2E2E2E2E2E2E2E2E22DE2E2E2E2E2E2E2E2E2E2E2E2E2E2E2E22DE2E2E2E2E2E2E2E2E2E2E2E2E2E2E2E2E2E2E2E2E2E2E2E2E2E2E2E2E2E2E2E2E2E2E2E2E2E2E2E2E2E2E2E2E2E2E2E2E2E2E2E2E2E2E2E2E2E2E2E2E2E2E2E2E2E2E2E2E2E2E2E2E2E2E2E2E2
310
E2E2E2E2E2E2E2E2E2E2E2E2E2E2E2E2E2E2E2E2E2E2E2E2E2E2E2E2E2E2E2E2E2E2E2E2E2E2E2E2E2E2E2E2E2E2E2E2E2E2E2E2E2E2E2E2E2E2E2E2E2E2E2E2E2E2E2E2E2E2E2E2E2E2E2E2E2E2E2E2E2E2E2E2E22DE2E2E2E2E2E2E2E2E2E2E2E2E2E2E2E22DE2E2E2E2E2E2E2E2E2E2E2E2E2E2E2E2E2E2E2E2E2E2E2E2
310
E2E2E2E2E2E2E2E2E2E2E2E2E2E2E2E2E2E2E2E2E2E2E2E2E2E2E2E2E2E2E2E2E2E2E2E2E2E2E2E2E2E2E2E2E2E2E2E2E2E2E2E2E2E2E2E2E2E2E2E2E2E2E2E2E2E2E2E2E2E2E2E2E2E2E2E2E2E2E2E2E2E2E2E2E2E2E2E2E2E2E2E2E2E2E2E2E2E2E2E2E2E2E2E2E2E2E2E2E2E2E2E2E2E2E2E2E2E2E2E2E2E2E2E2E2E2E2
310
E2E2E2E2E2E2E2E2E2E2E22DE2E2E2E2E2E2E2E2E2E2E2E2E2E2E2E22DE2E2E2E2E2E2E2E2E2E2E2E2E2E2E2E2E2E2E2E2E2E2E2E2E2E2E2E2E2E2E2E2E2E2E2E2E2E2E2E2E2E2E2E2E2E2E2E2E2E2E2E2E2E2E2E2E2E2E2E2E2E2E2E2E2E2E2E2E2E2E2E2E2E2E2E2E2E2E2E2E2E2E2E2E2E2E2E2E2E2E2E2E2E2E2E2E2E2
310
E2E2E2E2E2E2E2E2E2E2E2E2E2E2E2E2E2E2E2E2E2E2E2E2E2E2E2E2E2E2E2E2E2E2E2E2E2E2E2E2E2E2E2E2E2E2E2E2E2E2E2E2E2E2E2E2E2E2E2E2E2E2E2E22DE2E2E2E2E2E2E2E2E2E2E2E2E2E2E2E22DE2E2E2E2E2E2E2E2E2E2E20FE2E2E2E2E2E2E2E2E2E2E2E2E2E2E2E2E2E2E2E2E2E2E2E2E2E2E2E2E20FE2E2E2
310
E2E2E2E2E2E2E2E2E2E2E2E2E2E2E2E20FE2E2E2E2E2E2E2E2E2E2E2E2E2E2E2E2E2E2E2E2E2E2E2E2E2E2E2E2E2E2E2E2E2E2E2E2E2E2E2E2E2E20FE2E2E2E2E2E2E2E2E2E2E2E2E2E2E2E2E2E2E2E2E2E2E2E2E2E2E2E2E2E2E2E2E2E2E2E2E2E2E2E2E2E2E2E2E2E2E2E2E2E2E2E2E2E2E2E2E22DE2E2E2E2E2E2E2E2E2
310
E2E2E2E2E2E2E22DE2E2E2E2E2E2E2E2E2E2E20F0F0F0F0F0F0F0F0F0F0F0F0F0F0F0F0F0F0F0F0F0F0F0F0F0F0F0F0F0F0FE2E2E2E2E2E2E2E2E2E2E2E2E2E2E2E2E2E2E20F0F0F0F0F0F0F0F0F0F0F0F0F0F0F0F0F0F0F0F0F0F0F0F0F0F0F0F0F0F0F0F0F0F0F0F0F0F0F0F0F0F0F0FE2E2E2E2E2E2E2E2E2E2E2E2E2E2
310
E2E2E2E20F0F0F0F0F0F0F0F0F0F0F0F0F0F0F0F0F0F0F0F0F0F0F0F0F0F0F0F0F0F0FE2E2E2E2E2E2E2E22DE2E2E2E2E2E2E2E2E2E2E2E2E2E2E2E22DE2E2E2E2E2E2E2E2E2E2E20FE2E2E2E2E2E2E2E2E2E2E2E20F0F0F0FE2E2E2E2E2E2E2E2E2E2E2E2E20FE2E2E2E2E2E2E2E2E2E2E2E2E2E2E2E2E2E2E20FE2E2E2E2
310
E2E2E2E2E2E2E2E2E2E2E2E2E2E2E20F0F0F0FE2E2E2E2E2E2E2E2E2E2E2E2E2E2E2E2E2E2E20FE2E2E2E2E2E2E2E2E2E2E2E2E2E2E2E2E2E20FE2E2E2E2E2E2E2E2E2E2E2E20F0F0F0F0FE2E2E2E2E2E2E2E2E2E2E2E20FE2E2E2E2E2E2E2E22DE2E2E2E2E2E2E2E2E2E2E2E2E2E2E2E22DE2E2E2E2E2E2E2E2E2E2E20FE2
310
E2E2E2E2E2E2E2E2E2E2E20F0F0F0FE2E2E2E2E2E2E2E2E2E2E2E2E20FE2E2E2E2E2E2E2E2E2E2E2E2E2E2E2E2E2E2E20FE2E2E2E2E2E2E2E2E2E2E2E2E2E2E2E2E2E2E20F0F0F0FE2E2E2E2E2E2E2E2E2E2E2E2E2E2E2E2E2E2E20FE2E2E2E2E2E2E2E2E2E2E2E2E2E2E2E2E2E20FE2E2E2E2E2E2E2E2E2E2E2E20F0F0F0F
310
0FE2E2E2E2E2E2E2E2E2E2E2E20FE2E2E2E2E2E2E2E22DE2E2E2E2E2E2E2E2E2E2E2E2E2E2E2E22DE2E2E2E2E2E2E2E2E2E2E20FE2E2E20F0F0F0F0F0F0F0F0F0F0F0F0F0F0F0F0F0F0F0F0F0FE2E2E2E20FE2E2E2E2E2E2E2E2E2E2E2E2E2E2E2E2E2E2E20F0F0F0F0F0F0F0F0F0F0F0F0F0F0F0F0F0F0F0F0F0F0F0F0F0F
310
0F0F0F0F0F0F0F0F0F0F0F0F0F0F0F0F0F0FE2E2E2E2E2E2E2E2E2E2E2E2E2E2E2E2E2E20FE2E2E2E20F0FE2E2E2E2E2E2E2E2E2E2E2E2E2E2E2E2E20FE20FE2E2E20FE2E2E2E2E2E2E2E22DE2E2E2E2E2E2E2E2E2E2E2E2E2E2E2E22DE2E2E2E2E2E2E2E2E2E2E20FE2E2E20FE2E2E2E2E2E2E20F0F0F0F0F0FE2E2E2E2E2
310
E2E20FE2E2E2E20FE2E2E2E2E2E2E2E2E2E2E2E2E2E2E2E2E2E2E20FE20F0F0F0FE2E2E2E2E2E2E2E2E2E2E2E2E2E2E2E2E20F0F0FE2E2E2E2E2E2E2E2E2E2E2E2E2E2E2E2E20FE2E2E2E2E2E2E2E2E2E2E2E2E2E2E2E2E2E20FE2E2E2E20F0F0F0F0F0F0F0F0F0F0F0F0F0F0F0F0F0F0F0F0F0FE2E2E20FE2E2E2E2E2E2E2
310
E22DE2E2E2E2E2E2E2E2E2E2E2E2E2E2E2E22DE2E2E2E2E2E2E2E2E2E2E20FE2E2E20FE2E2E2E2E2E2E20F0F0F0F0F0FE2E2E2E2E2E2E20FE2E2E2E20FE2E2E2E2E2E2E2E2E2E2E2E2E2E2E2E2E2E2E20FE20F0FE20FE2E2E2E2E2E2E2E2E2E2E2E2E2E2E2E2E20F0F0FE2E2E2E2E2E2E2E2E2E2E2E2E2E2E2E2E20FE2E2E2
310
E2E2E2E2E2E2E2E2E2E2E2E2E2E2E20FE2E2E2E20FE2E2E2E2E2E2E20F0F0F0F0F0FE2E2E2E2E2E2E20FE2E2E20FE2E2E2E2E2E2E2E22DE2E2E2E2E2E2E2E2E2E2E2E2E2E2E2E22DE2E2E2E2E2E2E2E2E2E2E20FE2E2E20FE2E2E2E2E2E2E2E2E2E2E2E2E2E2E2E2E2E2E2E20FE2E2E2E20FE2E2E2E2E2E2E2E2E2E2E2E2E2
310
E2E2E2E2E2E20FE2E2E2E20FE2E2E2E2E2E2E2E2E2E2E2E2E2E2E2E2E2E2E2E2E2E2E2E2E2E2E2E2E2E2E2E2E2E2E2E2E20FE2E2E2E2E2E2E2E2E2E2E2E2E2E2E2E2E2E20FE2E2E2E20FE2E2E2E2E2E2E2E2E2E2E2E2E2E2E2E2E2E2E2E20FE2E2E20FE2E2E2E2E2E2E2E22DE2E2E2E2E2E2E2E2E2E2E2E2E2E2E2E22DE2E2
310
E2E2E2E2E2E2E2E2E20FE2E2E20FE2E2E2E2E2E2E2E2E2E2E2E2E2E2E2E2E2E2E2E20FE2E2E2E20FE2E2E2E2E2E2E2E2E2E2E2E2E2E2E2E2E2E2E20FE2E2E2E20FE2E2E2E2E2E2E2E2E2E2E2E2E2E2E2E2E2E2E2E2E2E2E2E2E2E2E2E2E2E2E2E2E2E2E2E2E20FE2E2E2E2E2E2E2E2E2E2E2E2E2E2E2E2E2E20FE2E2E2E20F
310
E2E2E2E2E2E2E2E2E2E2E2E2E2E2E2E2E2E2E2E20FE2E2E20FE2E2E2E2E2E2E2E22DE2E2E2E2E2E2E2E2E2E2E2E2E2E2E2E22DE2E2E2E2E2E2E2E2E2E2E20FF5F5F50FF5F5F5F5F5F5F5F5F5F5F5F5F5F5F5F5F5F5F5F50FF5F5F5E20FE2E2E2E2E2E2E2E2E2E2E2E2E2E2E2E2E2E2E20FE2E2E2E20FF5F5F5F5F5F5F5F5F5
310
F5F5F5F5F5F5F5F5F5F5F5F5F5F5F5F5E2E2E2E2E2E2E2E2F5F5F5F50FE2E2E2E2E2E2E2E2E2E2E2E2E2E2E2E2E2E20FE2F5F5F50FF5F5F5F5F5F5F5F5F5F5F5F5F5F5F5F5F5F5F5F50FF5F5F50FE2E2E2E2E2E2E2E22DE2E2E2E2E2E2E2E2E2E2E2E2E2E2E2E22DE2E2E2E2E2E2E2E2E2E2E20FF5F5F50FF5F5F5F5F5F5F5
310
F5F5F5F5F5F5F5F5F5F5F5F5F50FF5F5F5F50FE2E2E2E2E2E2E2E2E2E2E2E2E2E2E2E2E2E2E20FE2E2E2E20FF5F5F5F5F5F5F5F5F5F5F5F5F5F5F5F5F5F5F5F5F5F5F5F5F5E2E2E2E2E2E2E2E2F5F5F5F50FE2E2E2E2E2E2E2E2E2E2E2E2E2E2E2E2E2E20FF5F5F5F50FF5F5F5F5F5F5F5F5F5F5F5F5F5F5F5F5F5F5F5F50F
310
F5F5F50FE2E2E2E2E2E2E2E22DE2E2E2E2E2E2E2E2E2E2E2E2E2E2E2E22DE2E2E2E2E2E2E2E2E2E2E2F5E2E2E20FE2E2E2E2E2E2E2E2E2E2E2E2E2E2E2E2E2E2E2E20FE2E2E2F5F5E2E2E2E2E2E2E2E2E2E2E2E2E2E2E2E2E2E2E20FE2E2E2E2F5E2E2E2E2E2E2E2E2E2E2E2E2E2E2E2E2E2E2E2E2E2E2E2E2F5E2E2E2E2E2
310
E2E2E2F5E2E2E2F5E2E2E2E2E2E2E2E2E2E2E2E2E2E2E2E2E2E2F5F5E2E2E2BEE2E2E2E2E2E2E2E2E2E2E2E2E2E2E2E2E2E2E2E2BEE2E2E2F5E2E2E2E2E2E2E2E22DE2E2E2E2E2E2E2E2E2E2E2E2E2E2E2E22DE2E2E2E2E2E2E2E2E2E2E2F5E2E2E2F5F5E2E2E2E2E2E2E2E2E2E2E2E2E2E2E2E2E2E2F5F5F5E2E2F5F5E2E2
310
E2E2E2E2E2E2E2E2E2E2E2E2E2E2E2E2E20FE2E2E2E2F5E2E2E2E2E2E2E2E2E2E2E2E2E2E2E2E2E2E2E2E2E2E2E2E2F5E2E2E2E2E2E2E2E2F5E2E2E2F5E2E2E2E2E2E2E2E2E2E2E2E2E2E2E2E2E2E2F5F5E2E2F5BEF5E2E2E2E2E2E2E2E2E2E2E2E2E2E2E2E2E2F5F5BEF5E2E2F5E2E2E2E2E2E2E2E22DE2E2E2E2E2E2E2E2
310
E2E2E2E2E2E2E2E22DE2E2E2E2E2E2E2E2E2E2E2F5E2E2F5F5F5F5E2E2E2E2E2E2E2E2E2E2E2E2E2E2E2E2F5F5BEF5F5E2F5F5E2E2E2E2E2E2E2E2E2E2E2E2E2E2E2E2E2E2E20FE2E2E2E2F5E2E2E2E2E2E2E2E2E2E2E2E2E2E2E2E2E2E2E2E2E2E2E2E2F5F5F5F5F5F5F5F5F5F5E2E2E2F5E2E2E2E2E2E2E2E2E2E2E2E2E2
310
E2E2E2E2E2F5F5E2F5E2BEE2F5E2E2E2E2E2E2E2BEE2E2E2E2E2E2E2E2F5E2BEF5F5E2F5E2E2E2E2E2E2E2E22DE2E2E2E2E2E2E2E2E2E2E2E2E2E2E2E22DE2E2E2E2E2E2E2E2E2E2E2F5BEBEF5BEBEF5BEE2E2E2E2E2E2E2BEE2E2E2E2E2E2BEF5BEBEF5F5BEF5F5E2E2E2E2E2E2E2E2E2E2E2E2E2E2E2E2E2E2E20FE2E2E2
310
E2F5E2E2E2E2E2E2E2E2E2E2E2E2E2E2E2E2E2E2E2E2E2E2E2E2F5E2E2E2E2E2E2E2E2F5E2E2E2F5E2E2E2E2E2E2E2E2E2E2E2E2E2E2E2E2E2E2F5F5BEBEBEBEBEBEBEE2E2E2E2E2E2BEE2E2E2E2E2E2E2BEBEBEBEBEBEE2F5E2E2E2E2E2E2E2E22DE2E2E2E2E2E2E2E2E2E2E2E2E2E2E2E22DE2E2E2E2E2E2E2E2E2E2E2F5
310
E2E2F5F5F5F5E2E2E2E2E2F5F5F5F5F5F5F5E2E2E2E2F5F5F5F5F5E2F5F5E2E2E2E2E2E2E2E2E2E20F0F0F0F0F0F0F0F0F0F0FF5F5F5F5E2E2E2E2E2E2E2E2E2E2E2E2E2E2E2E2E2E2E2E2E2E2E2E2F52828282828282828282828280F0F0F0F0F0F0F0F0F0FE2E2E2E2E2E2E2E2E2F5F5E2F5E2BEE2F5E2E2E2F5F5F5F5BE
310
F5F5F5F5E2E2E2E2F5E2BEF5E2E2F5E2E2E2E2E2E2E2E22DE2E2E2E2E2E2E2E2E2E2E2E2E2E2E2E22DE2E2E2E2E2E2E2E2E2E2E2F5E2E2F5F5F5E2E2E2E2F5F5E2E2E2BEE2E2E2F5E2E2E2E2F5F5F5E2E2F5F5E2E2E2E2E2E2E2E2E2E20FE2E2E2E2E2E2E2E2F5F5E2E2E2F5E2E2E2E2E2E2E2E2F5F5F5F5F5F5F5F5E2E2E2
310
E2E2E2E2E2F528E2E2E2E2E2E2E2F5E2E2E2F5E2E2E2E2E2E2E20FE2E2E2E2E2E2E2E2E2E2F5F5E2E2F5BEF5E2E2E2F5E2E2E2E2BEE2E2E2E2F5F5E2E2F5F5BEF5E2E2F5E2E2E2E2E2E2E2E22DE2E2E2E2E2E2E2E2E2E2E2E2E2E2E2E22DE2E2E2E2E2E2E2E2E2E2E2F5E2E2E2BEE2E2E2F5F5E2E2E2E2E2BEE2E2E2E2F5F5
310
E2E2E2BEE2E2E2F5F5E2E2E2E2E2E2E2E2E2E20FE2E2E2E2E2E2E2E2F5F5E2E2E2F5E2E2E2E2E2E2F5F5E2E2E2E2E2E2E2E2F5F5E2E2E2E2E2E2F528E2E2E2E2E2E2E2F5E2E2E2F5E2E2E2E2E2E2E20FE2E2E2E2E2E2E2E2E2E2F5F5E2E2E2BEE2E2E2F5E2E2E2E2E2BEE2E2E2E2E2E2F5E2E2E2BEE2E2E2F5E2E2E2E2E2E2
310
E2E22DE2E2E2E2E2E2E2E2E2E2E2E2E2E2E2E22DE2E2E2E2E2E2E2E2E2E2E2F5E2E2E2E2E2E2E2F5E2E2E2E2E2E2BEE2E2E2E2E2E2F5E2E2E2E2E2E2F5F5E2E2E2E2E2E2E2E2E2E20FE2E2E2E2E2E2E2E2F5F5E2E2E2F5E2E2E2E2E2E2F5E2E2E2E2E2E2E2E2E2E2F5E2E2E2E2E2E2F528E2E2E2E2E2E2E2F5E2E2E2F5E2E2
310
E2E2E2E2E20FE2E2E2E2E2E2E2E2E2E2F5F5E2E2E2E2E2E2F5E2E2E2E2E2E2BEE2E2E2E2E2E2F5E2E2E2E2E2E2E2F5E2E2E2E2E2E2E2E22DE2E2E2E2E2E2E2E2E2E2E2E2E2E2E2E22DE2E2E2E2E2E2E2E2E2E2E2F5E2E2E2E2E2F5F5E2E2E2E2E2E2E2BEE2E2E2E2E2E2F5F5E2E2E2E2E2F5F5E2E2E2E2E2E2E2E2E2E20FE2
310
E2E2E2E2E2E2E2F5F5E2E2E2F5E2E2E2E2F5F5E2E2E2E2E2E2E2E2E2E2E2E2F5E2E2E2E2E2F528E2E2E2E2E2E2E2F5E2E2E2F5E2E2E2E2E2E2E20FE2E2E2E2E2E2E2E2E2E2F5F5E2E2E2E2E2F5E2E2E2E2E2E2E2BEE2E2E2E2E2E2E2F5F5E2E2E2E2E2F5E2E2E2E2E2E2E2E22DE2E2E2E2E2E2E2E2E2E2E2E2E2E2E2E22DE2
310
E2E2E2E2E2E2E2E2E2E2F5E2E2E2E2E2F5E2E2E2E2E2E2E2F5F5E2E2E2E2E2E2E2F5E2E2E2E2E2F5F5E2E2E2E2E2E2E2E2E2E20FE2E20F0F0F0FBEBEBEBEBEBEBEBEBEBEBEBEBEBEBEBEBEBEBEBEBEBEBEBEBEBEBEBEBEBEBEBEBEBEBEBEBEBEBEBEBEBEBEBEBEBEBEBEE2E2E2E2E20FE2E2E2E2E2E2E2E2E2E2F5F5E2E2E2
310
E2F5E2E2E2E2E2E2E2E2BEF5E2E2E2E2E2E2E2F5E2E2E2E2E2F5E2E2E2E2E2E2E2E22DE2E2E2E2E2E2E2E2E2E2E2E2E2E2E2E22DE2E2E2E2E2E2E2E2E2E2E2F5E2E2E2E2E2F5E2E2E2E2E2F5F5E2BEF5F5E2E2E2E2E2E2F5E2E2E2E2F5F5E2E2E2E2E2E2E2E2E2E20FE2E20FE2E2BEBEF5F5F5E2E2E2F5E2E2E2E2F5E2E2E2
310
E2E2E2E2E2E2E2E2E2E2E2F5E2E2E2E2F528E2E2E2E2E2E2E2F5E2E2E2F5E2BEE2E2E2E2E20FE2E2E2E2E2E2E2E2E2E2F5F5E2E2E2E2F5E2E2E2E2E2E2F5F5BEF5F5F5E2E2E2E2E2F5E2E2E2E2E2F5E2E2E2E2E2E2E2E22DE2E2E2E2E2E2E2E2E2E2E2E2E2E2E2E22DE2E2E2E2E2E2E2E2E2E2E2F5E2E2E2E2F5E2E2E2E2E2
310
F5F5E2E2BEE2F5F5E2E2E2E2E2F5E2E2E2E2F5F5E2E2E2E2E2E2E2E2E2E20FE2E20FE2E2BEBEF5F5F5E2E2E2F5E2F5F5F5E2E2E2E2E2E2E2E2E2E2E2E2E2E2E2E2F5F5F5E2F528E2E2E2E2E2E2E2F5E2E2E2F5E2BEE2E2E2E20F0FE2E2E2E2E2E2E2E2E2E2F5F5E2E2E2E2F5E2E2E2E2E2F5F5E2BEE2E2F5F5E2E2E2E2E2F5
310
E2E2E2E2F5E2E2E2E2E2E2E2E22DE2E2E2E2E2E2E2E2E2E2E2E2E2E2E2E22DE2E2E2E2E2E2E2E2E2E2E2F5E2E2E2E2F5E2E2E2E2E2F5E2E2E2BEE2E2F5E2E2E2E2E2F5E2E2E2E2F5F5E2E2E2E2E2E2E2E20F0F0FE20F0FE2E2BEBEF5F5F5E2E2E2F5F5F5F5F5F5E2E2E2E2E2E2E2E2E2E2E2E2E2E2F5F5F5F5F5F528E2E2E2
310
E2E2E2E2F5E2E2E2F5E2BEE2E2E20F0F0FE2E2E2E2E2E2E2E2E2E2F5F5E2E2E2E2F5E2E2E2E2E2F5E2E2BEE2E2E2F5E2E2E2E2E2F5E2E2E2E2F5E2E2E2E2E2E2E2E22DE2E2E2E2E2E2E2E2E2E2E2E2E2E2E2E22DE2E2E2E2E2E2E2E2E2E2E2F5E2E2E2BEF5BEBEBEBEBEF5BEBEBEBEBEBEF5BEBEBEBEBEF5BEE2E2E2F5F5E2
310
E2E2E2E2E2E2E20F0F0F0F0F0FBEBEBEBEBEBEBEBEBEBEBEBEBEBEBEBEBEBEBEBEBEBEBEBEBEBEBEBEBEBEBEBEBEBEBEBE28BEBEBEBEBEBEBEBEBEBEBEBEBEBEE2E2E20F0F0FE2E2E2E2E2E2E2E2E2E2F5F5E2E2BEBEBEBEBEBEBEBEBEBEBEBEBEBEBEBEBEBEBEBEBEBEBEBEE2E2F5E2E2E2E2E2E2E2E22DE2E2E2E2E2E2E2
310
E2E2E2E2E2E2E2E2E22DE2E2E2E2E2E2E2E2E2E2E2F5E2E2E2E2F5E2E2E2E2E2F5E2E2E2BEE2E2F5E2E2E2E2E2F5E2E2E2E2F5F5E2E2E2E2E2E2E2E20F0F0F0F0F0FE2E2BEBEF5F5F5E2E2E2F5F5F5F5F5F5E2E2E2E2E2E2E2E2E2E2E2E2E2E2F5F5F5F5F5F528E2E2E2E2E2E2E2F5E2E2E2F5E2BEE2E2E20F0F0FE2E2E2E2
310
E2E2E2E2E2E2F5F5E2E2E2E2F5E2E2E2E2E2F5E2E2BEE2E2E2F5E2E2E2E2E2F5E2E2E2E2F5E2E2E2E2E2E2E2E22DE2E2E2E2E2E2E2E2E2E2E2E2E2E2E2E22DE2E2E2E2E2E2E2E2E2E2E2F5E2E2E2E2F5E2E2E2E2E2F5F5E2E2BEE2E2F5E2E2E2E2E2F5E2E2E2E2F5F5E2E2E2E2E2E2E2E2E20F0FE20F0FE2E2BEBEF5F5F5E2
310
E2E2F5E2F5F5F5E2E2E2E2E2E2E2E2E2E2E2E2E2E2E2F5F5F5F5E2F528E2E2E2E2E2E2E2F5E2E2E2F5E2BEE2E2E20F0F0FE2E2E2E2E2E2E2E2E2E2F5F5E2E2E2E2F5E2E2E2E2E2F5E2E2BEE2E2F5F5E2E2E2E2E2F5E2E2E2E2F5E2E2E2E2E2E2E2E22DE2E2E2E2E2E2E2E2E2E2E2E2E2E2E2E22DE2E2E2E2E2E2E2E2E2E2E2
310
F5E2E2E2E2E2F5E2E2E2E2E2F5E2E2BEE2F5E2E2E2E2E2E2F5E2E2E2E2F5F5E2E2E2E2E2E2E2E2E2E20FE2E20FE2E2BEBEF5F5F5E2E2E2F5E2E2E2F5E2E2E2E2E2E2E2E2E2E2E2E2E2E2E2E2F5E2E2E2F528E2E2E2E2E2E2E2F5E2E2E2F5E2BEE2E2E2E2E20FE2E2E2E2E2E2E2E2E2E2F5F5E2E2E2E2F5E2E2E2E2E2E2F5E2
310
BEE2E2F5E2E2E2E2E2F5E2E2E2E2E2F5E2E2E2E2E2E2E2E22DE2E2E2E2E2E2E2E2E2E2E2E2E2E2E2E22DE2E2E2E2E2E2E2E2E2E2E2F5E2E2E2E2E2F5E2E2E2E2E2E2F5F5F5F5E2E2E2E2E2E2F5E2E2E2E2E2F5F5E2E2E2E2E2E2E2E2E2E20FE2E20F0F0FBEBEBEBEBEBEBEBEBEBEBEBEBEBEBEBEBEBEBEBEBEBEBEBEBEBEBE
310
BEBEBEBEBEBEBEBEBEBEBEBEBEBEBEBEBEBEBEBE0FBEE2E2E2E2E20FE2E2E2E2E2E2E2E2E2E2F5F5E2E2E2E2F5E2E2E2E2E2E2E2F5BEF5F5E2E2E2E2E2E2F5E2E2E2E2E2F5E2E2E2E2E2E2E2E22DE2E2E2E2E2E2E2E2E2E2E2E2E2E2E2E22DE2E2E2E2E2E2E2E2E2E2E2F5E2E2E2E2E2F5E2E2E2E2E2E2E2E2BEE2E2E2E2E2
310
E2E2F5E2E2E2E2E2F5F5E2E2E2E2E2E2E2E2E2E20FE2E2E2E2E2E2E2F5F5F5E2E2E2F5E2E2E2E2F5E2E2E2E2E2E2E2E2E2E2E2E2E2F5E2E2E2E2E2F528E2E2E2E2E2E2E2F5E2E2E2F50FE2E2E2E2E2E20FE2E2E2E2E2E2E2E2E2E2F5F5E2E2E2E2E2F5E2E2E2E2E2E2E2BEE2E2E2E2E2E2E2E2F5E2E2E2E2E2F5E2E2E2E2E2
310
E2E2E22DE2E2E2E2E2E2E2E2E2E2E2E2E2E2E2E22DE2E2E2E2E2E2E2E2E2E2E2F5E2E2E2E2E2E2F5E2E2E2E2E2E2E2BEE2E2E2E2E2E2F5E2E2E2E2E2E2F5F5E2E2E2E2E2E2E2E2E2E20FE2E2E2E2E2E2E2E2F5F5E2E2E2F5E2E2E2E2E2F5E2E2E2E2E2E2E2E2E2E2E2E2F5F5F5E2E2E2F528E2E2E2E2E2E2E2F5E2E2E2F50F
310
E2E2E2E2E2E20FE2E2E2E2E2E2E2E2E2E2F5F5E2E2E2E2E2F5E2E2E2E2E2E2E2BEE2E2E2E2E2E2E2F5E2E2E2E2E2E2F5E2E2E2E2E2E2E2E22DE2E2E2E2E2E2E2E2E2E2E2E2E2E2E2E22DE2E2E2E2E2E2E2E2E2E2E2F5E2E2E2BEE2E2E2F5E2E2E2E2E2E2BEE2E2E2E2E2F5F5E2E2BEE2E2E2F5F5E2E2E2E2E2E2E2E2E2E20F
310
E2E2E2E2E2E2E2E2F5F5E2E2E2F5E2E2E2E2E2E2F5E2E2E2E2E2E2E2E2E2F5F5F5F5F5F5F5E2F528E2E2E2E2E2E2E2F5E2E2E2F50FE2E2E2E2E2E20FE2E2E2E2E2E2E2E2E2E2F5F5E2E2E2BEE2E2F5F5E2E2E2E2E2BEE2E2E2E2E2E2F5E2E2E2BEE2E2E2F5E2E2E2E2E2E2E2E22DE2E2E2E2E2E2E2E2E2E2E2E2E2E2E2E22D
310
E2E2E2E2E2E2E2E2E2E2E2F5E2E2E2BEE2E2E2E2F5F5E2E2E2E2BEE2E2E2F5F5E2E2E2E2BEE2E2E2F5F5E2E2E2E2E2E2E2E2E2E20FE2E2E2E2E2E2E2E2F5F5E2E2E2F5E2E2E2E2E2E2E2F5F5F5E2E2E2E2F5F5F5F5F5E2BEE2F5F5F50FE2E2E2E2E2E2E2F5E2E2E2F5E20FE2E2E2E2E20FE2E2E2E2E2E2E2E2E2E2F5F5E2E2
310
E2BEE2E2E2E2F5E2E2E2E2BEE2E2E2E2E2F5E2E2E2E2BEE2E2E2F5E2E2E2E2E2E2E2E22DE2E2E2E2E2E2E2E2E2E2E2E2E2E2E2E22DE2E2E2E2E2E2E2E2E2E2E2F5E2E2F5F5F5F5E2E2E2E2F5F5E2E2BEE2E2F5F5E2E2E2E2F5F5F5E2E2F5F5E2E2E2E2E2E2E2E2E2E20FE2E2E2E2E2E2E2E2F5F5E2E2E2F5E2E2E2E2E2E2E2
310
E2E2E2F5F5F5F5E2E2E2F5BEBE0FBEBEF5F50FE2E2E2E2E2E2E2F5E2E2E2F5E20FE2E2E2E2E20FE2E2E2E2E2E2E2E2E2E2F5F5E2F50FBEF5F5E2E2F5F5F5E2E2BEE2E2F5F5F5E2E2E2F5F5BEF5E2E2F5E2E2E2E2E2E2E2E22DE2E2E2E2E2E2E2E2E2E2E2E2E2E2E2E22DE2E2E2E2E2E2E2E2E2E2E2F5E2E2F5BEE2F5E2E2E2
310
E2E2E2F5F5F5F5F5E2E2E2E2E2F5F5BEF5F5E2F5F5E2E2E2E2E2E2E2E2E2E20F0F0F0F0F0F0F0F0F0F0FF5F5F5F5E2E2E2E2E2E2E2E2E2E2E2E2E2E2E2E2E2F5E2E2BEE2F5F5F50F28282828282828282828280F0F0F0F0F0F0F0F0F0FE2E2E2E2E2E2E2E2E2F5F5E2F5E2BEE2F5E2E2E2E2E2F5F5BEF5F5E2E2E2E2E2E2F5
310
E2BEF5F5E2F5E2E2E2E2E2E2E2E22DE2E2E2E2E2E2E2E2E2E2E2E2E2E2E2E22DE2E2E2E2E2E2E2E2E2E2E2F5BEBEF50FBEF5BEE2E2E2E2E2E2E2BEE2E2E2E2E2E2BEF5F5BEF5F5BEF5F5E2E2E2E2E2E2E2E2E2E2E2E2E2E2E2E2E2E2E2E2E2E2E2E2F5E2E2E2E2E2E2E2E2E2E2E2E2E2E2E2E2E2F5F5E2BEE2F5F5F50FF5F5
310
F5F5F5F5F5F5E2E2E2F5E20FE2E2E2E2E2E2E2E2E2E2E2E2E2E2E2E2F5F5BEBEBEBEBEBEBEE2E2E2E2E2E2BEE2E2E2E2E2E2E2BEBEBEBEBEBEE2F5E2E2E2E2E2E2E2E22DE2E2E2E2E2E2E2E2E2E2E2E2E2E2E2E22DE2E2E2E2E2E2E2E2E2E2E2F5E2E2F5F50FF5E2E2E2E2E2E2E2E2E2E2E2E2E2E2E2E2F5F5F5F5E2E2F5F5
310
E2E2E2E2E2E2E2E2E2E2E2E2E2E2E2E2E2E2E2E2E2E2E2E2F5E2E2E2E2E2E2E2E2E2E2E2E2E2E2E2E2E2E20FF5F5F5F5E2F50FE2E2E2E2E2E2E2F5E2E2E2F5E20FE2E2E2E2E2E2E2E2E2E2E2E2E2E2E2E2F5F5E2F5F5BE0FF5E2E2E2E2E2E2E2E2E2E2E2E2E2E2E2E2F5F5BEF5E2E2F5E2E2E2E2E2E2E2E22DE2E2E2E2E2E2
310
E2E2E2E2E2E2E2E2E2E22DE2E2E2E2E2E2E2E2E2E2E2F5E2E2E2BE0F0FE2E2E2E2E2E2E2E2E2E2E2E2E2E2E2E2E2E2BEE2E2E2F5F5E2E2E2E2E2E2E2E2E2E2E2E2E2E2E2E2E2E2E2E2E2E2E2E2F5E2E2E2E2E2E2E2E2E2E2E2E2E2E2E2E2E20F0FE2BEE2E2E2F50FE2E2E2E2E2E2E2F5E2E2E2F5E2E20FE2E2E2E2E2E2E2E2
310
E2E2E2E2E2E2E2F5F5E2E2E2BE0F0FE2E2E2E2E2E2E2E2E2E2E2E2E2E2E2E2E2F5BEE2E2E2F5E2E2E2E2E2E2E2E22DE2E2E2E2E2E2E2E2E2E2E2E2E2E2E2E22DE2E2E2E2E2E2E2E2E2E2E2F5E2E2E2BE0F0FE2E2E2E2E2E2E2E2E2E2E2E2E2E2E2E2E2E2BEE2E2E2F5F5E2E2E2E2E2E2E2E2E2E2E2E2E2E2E2E2E2E2E2E2E2
310
E2E2E2F5F5F5F5F5F5F5F5F5F5F5F5F5F5F5F5F5F50FF5F5F5F5F5F5F50FE2E2E2E2E2E2E2F5F5F5F5F5E2E20FE2E2E2E2E2E2E2E2E2E2E2E2E2E2E2F5F5E2E2E2BE0FE2E2E2E2E2E2E2E2E2E2E2E2E2E2E2E2E2E2E2BEE2E2E2F5E2E2E2E2E2E2E2E22DE2E2E2E2E2E2E2E2E2E2E2E2E2E2E2E22DE2E2E2E2E2E2E2E2E2E2
310
E2E2F5F5F5F5F50FF5F5F5F5F5F5F5F5F5F5F5F5F5F5F5F5F5F5F5F5F5F5F5E2E2E2E2E2E2E2E2E2E2E2E2E2E2E2E2E2E2E2E2E2E2E2E2E2F5F5F5F5F5F5F5F5F5F5F5F5F5F5F5F5F50FF5F5F5F5F5F5F5F50FE2E2E2E2E2E2E2F5F5F5F50FE2E20FE2E2E2E2E2E2E2E2E2E2E2E2E2E2E2E2F5F5F5F5F5F50FF5F5F5F5F5F5
310
F5F5F5F5F5F5F5F5F5F5F5F5F5F5F5F5E2E2E2E2E2E2E2E2E22DE2E2E2E2E2E2E2E2E2E2E2E2E2E2E2E22DE2E2E2E2E2E2E2E2E2E2E2E2E2E2E2E2E2E20FE2E2E2E2E2E2E2E2E2E2E2E2E2E2E2E2E2E2E2E2E2E2E2E2E2E2E2E2E2E2E2E2E2E2E2E2E2E2E2E2E2E2E2E2E2E2E2E2E2E2E2E2E2E2E2E2E2E2E2E2E2E2E2E20F
310
E2E2E2E2E2E2E2E20FE2E2E2E2E2E2E2E2E2E2E20FE2E20FE2E2E2E2E2E2E2E2E2E2E2E2E2E2E2E2E2E2E2E2E2E20FE2E2E2E2E2E2E2E2E2E2E2E2E2E2E2E2E2E2E2E2E2E2E2E2E2E2E2E2E2E2E22DE2E2E2E2E2E2E2E2E2E2E2E2E2E2E2E22DE2E2E2E2E2E2E2E2E2E2E2E2E2E2E2E2E2E20FE2E2E2E2E2E2E2E2E2E2E2E2
310
E2E2E2E2E2E2E2E2E2E2E2E2E2E2E2E2E2E2E2E2E2E2E2E2E2E2E2E2E2E2E2E2E2E2E2E2E2E2E2E2E2E2E2E2E2E2E2E2E2E2E20FE2E2E2E2E2E2E2E2E20FE2E2E2E2E2E2E2E2E2E2E20FE2E2E20FE2E2E2E2E2E2E2E2E2E2E2E2E2E2E2E2E2E2E2E2E2E20FE2E2E2E2E2E2E2E2E2E2E2E2E2E2E2E2E2E2E2E2E2E2E2E2E2E2
310
E2E2E2E22DE2E2E2E2E2E2E2E2E2E2E2E2E2E2E2E22DE2E2E2E2E2E2E2E2E2E2E2E2E2E2E2E2E2E20F0F0F0F0F0F0F0F0FE2E2E2E2E2E2E2E2E2E2E2E2E2E2E2E2E2E2E2E2E2E2E2E2E2E2E2E2E2E2E2E2E2E2E2E2E2E2E2E2E2E2E2E2E2E2E2E2E2E2E2E2E2E20FE2E2E2E2E2E2E2E2E2E20FE2E2E2E2E2E2E2E2E2E2E20F
310
E2E2E20FE2E2E2E2E2E2E2E2E2E2E2E2E2E2E2E2E2E2E2E2E2E20F0F0F0F0F0F0F0FE2E2E2E2E2E2E2E2E2E2E2E2E2E2E2E2E2E2E2E2E2E2E22DE2E2E2E2E2E2E2E2E2E2E2E2E2E2E2E22DE2E2E2E2E2E2E2E2E2E2E2E2E2E2E2E2E2E2E20F0F0F0F0F0F0FE2E2E2E2E2E2E2E2E2E2E2E2E2E2E2E2E2E2E2E2E2E2E2E2E2E2
310
E2E2E2E2E2E2E2E2E2E2E2E2E2E2E2E2E2E2E2E2E2E2E2E20F0F0F0F0FE2E2E2E2E2E2E2E2E2E2E20FE2E2E2E2E2E2E2E2E2E2E20FE2E2E20F0F0F0F0F0F0F0F0F0F0FE2E2E2E2E2E2E2E2E2E2E2E2E20F0F0F0F0F0FE2E2E2E2E2E2E2E2E2E2E2E2E2E2E2E2E2E2E2E2E2E2E2E22DE2E2E2E2E2E2E2E2E2E2E2E2E2E2E2E2
310
2DE2E2E2E2E2E2E2E2E2E2E2E2E2E2E2E2E2E2E20FE20F0F0FE20FE2E2E2E2E2E2E2E2E2E2E2E2E2E2E2E2E2E2E2E2E2E2E2E2E2E2E2E2E2E2E2E2E2E2E2E2E2E2E2E2E2E2E2E2E2E2E2E2E2E20F0F0F0F0FE2E2E2E2E2E2E2E2E2E2E20F0F0F0F0F0F0F0F0F0F0F0F0FE2E2E2E20F0F0F0F0F0F0F0F0FE2E2E2E2E2E2E2E2
310
E2E2E2E2E2E20FE20F0F0F0FE2E2E2E2E2E2E2E2E2E2E2E2E2E2E2E2E2E2E2E2E2E2E2E22DE2E2E2E2E2E2E2E2E2E2E2E2E2E2E2E22DE2E2E2E2E2E2E2E2E2E2E2E2E2E2E2E2E2E2E2E2E2E2E2E2E2E2E2E2E2E2E2E2E2E2E2E2E2E2E2E2E2E2E2E2E2E2E2E2E2E2E2E2E2E2E2E2E2E2E2E2E2E2E2E2E2E2E2E2E2E2E2E2E2
310
E2E2E20F0F0F0F0FE2E2E2E2E2E2E2E2E2E2E20FE2E2E2E20F0F0FE2E2E2E20FE2E2E2E20F0F0F0F0F0F0F0F0F0FE2E2E2E2E2E2E2E2E2E2E2E2E2E2E2E2E2E2E2E2E2E2E2E2E2E2E2E2E2E2E2E2E2E2E2E2E2E2E2E2E2E2E22DE2E2E2E2E2E2E2E2E2E2E2E2E2E2E2E22DE2E2E2E2E2E2E2E2E2E2E2E2E2E2E2E2E2E2E2E2
310
E2E2E2E2E2E2E2E2E2E2E2E2E2E2E2E2E2E2E2E2E2E2E2E2E2E2E2E2E2E2E2E2E2E2E2E2E2E2E2E2E2E2E2E2E2E2E2E2E2E2E2E2E2E2E2E2E2E2E2E2E2E2E2E2E2E2E2E2E2E2E2E2E2E2E2E20F0F0F0FE2E2E2E2E2E2E2E2E2E2E2E2E2E2E2E2E2E2E2E2E2E2E2E2E2E2E2E2E2E2E2E2E2E2E2E2E2E2E2E2E2E2E2E2E2E2E2
310
E2E2E2E2E2E2E2E2E2E2E2E2E2E2E22DE2E2E2E2E2E2E2E2E2E2E2E2E2E2E2E22DE2E2E2E2E2E2E2E2E2E2E2E2E2E2E2E2E2E2E2E2E2E2E2E2E2E2E2E2E2E2E2E2E2E2E2E2E2E2E2E2E2E2E2E2E2E2E2E2E2E2E2E2E2E2E2E2E2E2E2E2E2E2E2E2E2E2E2E2E2E2E2E2E2E2E2E2E2E2E2E2E2E2E2E2E2E2E2E2E2E2E2E2E2E2
310
E2E2E2E2E2E2E2E2E2E2E2E2E2E2E2E2E2E2E2E2E2E2E2E2E2E2E2E2E2E2E2E2E2E2E2E2E2E2E2E2E2E2E2E2E2E2E2E2E2E2E2E2E2E2E2E2E2E2E2E2E2E2E2E2E2E2E2E22DE2E2E2E2E2E2E2E2E2E2E2E2E2E2E2E22DE2E2E2E2E2E2E2E2E2E2E2E2E2E2E2E2E2E2E2E2E2E2E2E2E2E2E2E2E2E2E2E2E2E2E2E2E2E2E2E2E2
310
E2E2E2E2E2E2E2E2E2E2E2E2E2E2E2E2E2E2E2E2E2E2E2E2E2E2E2E2E2E2E2E2E2E2E2E2E2E2E2E2E2E2E2E2E2E2E2E2E2E2E2E2E2E2E2E2E2E2E2E2E2E2E2E2E2E2E2E2E2E2E2E2E2E2E2E2E2E2E2E2E2E2E2E2E2E2E2E2E2E2E2E2E2E2E2E2E2E2E2E2E2E2E2E2E2E2E2E2E2E2E2E2E2E2E2E2E2E2E2E2E22DE2E2E2E2E2
310
E2E2E2E2E2E2E2E2E2E2E22DE2E2E2E2E2E2E2E2E2E2E2E2E2E2E2E2E2E2E2E2E2E2E2E2E2E2E2E2E2E2E2E2E2E2E2E2E2E2E2E2E2E2E2E2E2E2E2E2E2E2E2E2E2E2E2E2E2E2E2E2E2E2E2E2E2E2E2E2E2E2E2E2E2E2E2E2E2E2E2E2E2E2E2E2E2E2E2E2E2E2E2E2E2E2E2E2E2E2E2E2E2E2E2E2E2E2E2E2E2E2E2E2E2E2E2
310
E2E2E2E2E2E2E2E2E2E2E2E2E2E2E2E2E2E2E2E2E2E2E2E2E2E2E2E2E2E2E2E2E2E2E2E2E2E2E2E2E2E2E2E2E2E2E22DE2E2E2E2E2E2E2E2E2E2E2E2E2E2E2E22DE2E2E2E2E2E2E2E2E2E2E2E2E2E2E2E2E2E2E2E2E2E2E2E2E2E2E2E2E2E2E2E2E2E2E2E2E2E2E2E2E2E2E2E2E2E2E2E2E2E2E2E2E2E2E2E2E2E2E2E2E2E2
310
E2E2E2E2E2E2E2E2E2E2E2E2E2E2E2E2E2E2E2E2E2E2E2E2E2E2E2E2E2E2E2E2E2E2E2E2E2E2E2E2E2E2E2E2E2E2E2E2E2E2E2E2E2E2E2E2E2E2E2E2E2E2E2E2E2E2E2E2E2E2E2E2E2E2E2E2E2E2E2E2E2E2E2E2E2E2E2E2E2E2E2E2E2E2E2E2E2E2E2E22DE2E2E2E2E2E2E2E2E2E2E2E2E2E2E2E22DE2E2E2E2E2E2E2E2E2
310
E2E2E2E2E2E2E2E2E2E2E2E2E2E2E2E2E2E2E2E2E2E2E2E2E2E2E2E2E2E2E2E2E2E2E2E2E2E2E2E2E2E2E2E2E2E2E2E2E2E2E2E2E2E2E2E2E2E2E2E2E2E2E2E2E2E2E2E2E2E2E2E2E2E2E2E2E2E2E2E2E2E2E2E2E2E2E2E2E2E2E2E2E2E2E2E2E2E2E2E2E2E2E2E2E2E2E2E2E2E2E2E2E2E2E2E2E2E2E2E2E2E2E2E2E2E2E2
310
E2E2E2E2E2E2E2E2E2E2E2E2E2E2E2E2E2E2E2E2E2E2E2E2E2E22DE2E2E2E2E2E2E2E2E2E2E2E2E2E2E2E22DE2E2E2E2E2E2E2E2E2E2E2E2E2E2E2E2E2E2E2E2E2E2E2E2E2E2E2E2E2E2E2E2E2E2E2E2E2E2E2E2E2E2E2E2E2E2E2E2E2E2E2E2E2E2E2E2E2E2E2E2E2E2E2E2E2E2E2E2E2E2E2E2E2E2E2E2E2E2E2E2E2E2E2
310
E2E2E2E2E2E2E2E2E2E2E2E2E2E2E2E2E2E2E2E2E2E2E2E2E2E2E2E2E2E2E2E2E2E2E2E2E2E2E2E2E2E2E2E2E2E2E2E2E2E2E2E2E2E2E2E2E2E2E2E2E2E2E2E2E2E2E2E2E2E2E2E2E2E2E2E2E2E2E22DE2E2E2E2E2E2E2E2E2E2E2E2E2E2E2E22DE2E2E2E2E2E2E2E2E2E2E2E2E2E2E2E2E2E2E2E2E2E2E2E2E2E2E2E2E2E2
310
E2E2E2E2E2E2E2E2E2E2E2E2E2E2E2E2E2E2E2E2E2E2E2E2E2E2E2E2E2E2E2E2E2E2E2E2E2E2E2E2E2E2E2E2E2E2E2E2E2E2E2E2E2E2E2E2E2E2E2E2E2E2E2E2E2E2E2E2E2E2E2E2E2E2E2E2E2E2E2E2E2E2E2E2E2E2E2E2E2E2E2E2E2E2E2E2E2E2E2E2E2E2E2E2E2E2E2E2E2E2E2E2E2E2E2E2E2E2E2E2E2E2E2E2E2E2E2
310
E2E2E2E2E22DE2E2E2E2E2E2E2E2E2E2E2E2E2E2E2E22DE2E2E2E2E2E2E2E2E2E2E2E2E2E2E2E2E2E2E2E2E2E2E2E2E2E2E2E2E2E2E2E2E2E2E2E2E2E2E2E2E2E2E2E2E2E2E2E2E2E2E2E2E2E2E2E2E2E2E2E2E2E2E2E2E2E2E2E2E2E2E2E2E2E2E2E2E2E2E2E2E2E2E2E2E2E2E2E2E2E2E2E2E2E2E2E2E2E2E2E2E2E2E2E2
310
E2E2E2E2E2E2E2E2E2E2E2E2E2E2E2E2E2E2E2E2E2E2E2E2E2E2E2E2E2E2E2E2E2E2E2E2E2E2E2E2E2E2E2E2E2E2E2E2E2E2E2E2E2E2E2E2E2E22DE2E2E2E2E2E2E2E2E2E2E2E2E2E2E2E22DE2E2E2E2E2E2E2E2E2E2E2E2E2E2E2E2E2E2E2E2E2E2E2E2E2E2E2E2E2E2E2E2E2E2E2E2E2E2E2E2E2E2E2E2E2E2E2E2E2E2E2
310
E2E2E2E2E2E2E2E2E2E2E2E2E2E2E2E2E2E2E2E2E2E2E2E2E2E2E2E2E2E2E2E2E2E2E2E2E2E2E2E2E2E2E2E2E2E2E2E2E2E2E2E2E2E2E2E2E2E2E2E2E2E2E2E2E2E2E2E2E2E2E2E2E2E2E2E2E2E2E2E2E2E2E2E2E2E2E2E2E2E2E2E2E2E2E2E2E2E2E2E2E2E2E2E2E2E2E2E2E2E2E22DE2E2E2E2E2E2E2E2E2E2E2E2E2E2E2
310
E22DE2E2E2E2E2E2E2E2E2E2E2E2E2E2E2E2E2E2E2E2E2E2E2E2E2E2E2E2E2E2E2E2E2E2E2E2E2E2E2E2E2E2E2E2E2E2E2E2E2E2E2E2E2E2E2E2E2E2E2E2E2E2E2E2E2E2E2E2E2E2E2E2E2E2E2E2E2E2E2E2E2E2E2E2E2E2E2E2E2E2E2E2E2E2E2E2E2E2E2E2E2E2E2E2E2E2E2E2E2E2E2E2E2E2E2E2E2E2E2E2E2E2E2E2E2
310
E2E2E2E2E2E2E2E2E2E2E2E2E2E2E2E2E2E2E2E2E2E2E2E2E2E2E2E2E2E2E2E2E2E2E2E2E22DE2E2E2E2E2E2E2E2E2E2E2E2E2E2E2E22DE2E2E2E2E2E2E2E2E2E2E2E2E2E2E2E2E2E2E2E2E2E2E2E2E2E2E2E2E2E2E2E2E2E2E2E2E2E2E2E2E2E2E2E2E2E2E2E2E2E2E2E2E2E2E2E2E2E2E2E2E2E2E2E2E2E2E2E2E2E2E2E2
310
E2E2E2E2E2E2E2E2E2E2E2E2E2E2E2E2E2E2E2E2E2E2E2E2E2E2E2E2E2E2E2E2E2E2E2E2E2E2E2E2E2E2E2E2E2E2E2E2E2E2E2E2E2E2E2E2E2E2E2E2E2E2E2E2E2E2E2E2E2E2E2E2E2E2E2E2E2E2E2E2E2E2E2E2E2E2E2E2E2E22DE2E2E2E2E2E2E2E2E2E2E2E2E2E2E2E22DE2E2E2E2E2E2E2E2E2E2E2E2E2E2E2E2E2E2E2
310
E2E2E2E2E2E2E2E2E2E2E2E2E2E2E2E2E2E2E2E2E2E2E2E2E2E2E2E2E2E2E2E2E2E2E2E2E2E2E2E2E2E2E2E2E2E2E2E2E2E2E2E2E2E2E2E2E2E2E2E2E2E2E2E2E2E2E2E2E2E2E2E2E2E2E2E2E2E2E2E2E2E2E2E2E2E2E2E2E2E2E2E2E2E2E2E2E2E2E2E2E2E2E2E2E2E2E2E2E2E2E2E2E2E2E2E2E2E2E2E2E2E2E2E2E2E2E2
310
E2E2E2E2E2E2E2E2E2E2E2E2E2E2E2E22DE2E2E2E2E2E2E2E2E2E2E2E2E2E2E2E22DE2E2E2E2E2E2E2E2E2E2E2E2E2E2E2E2E2E2E2E2E2E2E2E2E2E2E2E2E2E2E2E2E2E2E2E2E2E2E2E2E2E2E2E2E2E2E2E2E2E2E2E2E2E2E2E2E2E2E2E2E2E2E2E2E2E2E2E2E2E2E2E2E2E2E2E2E2E2E2E2E2E2E2E2E2E2E2E2E2E2E2E2E2
310
E2E2E2E2E2E2E2E2E2E2E2E2E2E2E2E2E2E2E2E2E2E2E2E2E2E2E2E2E2E2E2E2E2E2E2E2E2E2E2E2E2E2E2E2E2E2E2E2E2E2E2E2E2E2E2E2E2E2E2E2E2E2E2E2E2E2E2E2E22DE2E2E2E2E2E2E2E2E2E2E2E2E2E2E2E22DE2E2E2E2E2E2E2E2E2E2E2E2E2E2E2E2E2E2E2E2E2E2E2E2E2E2E2E2E2E2E2E2E2E2E2E2E2E2E2E2
310
E2E2E2E2E2E2E2E2E2E2E2E2E2E2E2E2E2E2E2E2E2E2E2E2E2E2E2E2E2E2E2E2E2E2E2E2E2E2E2E2E2E2E2E2E2E2E2E2E2E2E2E2E2E2E2E2E2E2E2E2E2E2E2E2E2E2E2E2E2E2E2E2E2E2E2E2E2E2E2E2E2E2E2E2E2E2E2E2E2E2E2E2E2E2E2E2E2E2E2E2E2E2E2E2E2E2E2E2E2E2E2E2E2E2E2E2E2E2E2E2E2E22DE2E2E2E2
310
E2E2E2E2E2E2E2E2E2E2E2E22DE2E2E2E2E2E2E2E2E2E2E2E2E2E2E2E2E2E2E2E2E2E2E2E2E2E2E2E2E2E2E2E2E2E2E2E2E2E2E2E2E2E2E2E2E2E2E2E2E2E2E2E2E2E2E2E2E2E2E2E2E2E2E2E2E2E2E2E2E2E2E2E2E2E2E2E2E2E2E2E2E2E2E2E2E2E2E2E2E2E2E2E2E2E2E2E2E2E2E2E2E2E2E2E2E2E2E2E2E2E2E2E2E2E2
310
E2E2E2E2E2E2E2E2E2E2E2E2E2E2E2E2E2E2E2E2E2E2E2E2E2E2E2E2E2E2E2E2E2E2E2E2E2E2E2E2E2E2E2E2E2E2E2E22DE2E2E2E2E2E2E2E2E2E2E2E2E2E2E2E22DE2E2E2E2E2E2E2E2E2E2E2E2E2E2E2E2E2E2E2E2E2E2E2E2E2E2E2E2E2E2E2E2E2E2E2E2E2E2E2E2E2E2E2E2E2E2E2E2E2E2E2E2E2E2E2E2E2E2E2E2E2
310
E2E2E2E2E2E2E2E2E2E2E2E2E2E2E2E2E2E2E2E2E2E2E2E2E2E2E2E2E2E2E2E2E2E2E2E2E2E2E2E2E2E2E2E2E2E2E2E2E2E2E2E2E2E2E2E2E2E2E2E2E2E2E2E2E2E2E2E2E2E2E2E2E2E2E2E2E2E2E2E2E2E2E2E2E2E2E2E2E2E2E2E2E2E2E2E2E2E2E2E2E22DE2E2E2E2E2E2E2E2E2E2E2E2E2E2E2E22DE2E2E2E2E2E2E2E2
310
E2E2E2E2E2E2E2E2E2E2E2E2E2E2E2E2E2E2E2E2E2E2E2E2E2E2E2E2E2E2E2E2E2E2E2E2E2E2E2E2E2E2E2E2E2E2E2E2E2E2E2E2E2E2E2E2E2E2E2E2E2E2E2E2E2E2E2E2E2E2E2E2E2E2E2E2E2E2E2E2E2E2E2E2E2E2E2E2E2E2E2E2E2E2E2E2E2E2E2E2E2E2E2E2E2E2E2E2E2E2E2E2E2E2E2E2E2E2E2E2E2E2E2E2E2E2E2
310
E2E2E2E2E2E2E2E2E2E2E2E2E2E2E2E2E2E2E2E2E2E2E2E2E2E2E22DE2E2E2E2E2E2E2E2E2E2E2E2E2E2E2E22DE2E2E2E2E2E2E2E2E2E2E2E2E2E2E2E2E2E2E2E2E2E2E2E2E2E2E2E2E2E2E2E2E2E2E2E2E2E2E2E2E2E2E2E2E2E2E2E2E2E2E2E2E2E2E2E2E2E2E2E2E2E2E2E2E2E2E2E2E2E2E2E2E2E2E2E2E2E2E2E2E2E2
310
E2E2E2E2E2E2E2E2E2E2E2E2E2E2E2E2E2E2E2E2E2E2E2E2E2E2E2E2E2E2E2E2E2E2E2E2E2E2E2E2E2E2E2E2E2E2E2E2E2E2E2E2E2E2E2E2E2E2E2E2E2E2E2E2E2E2E2E2E2E2E2E2E2E2E2E2E2E2E2E22DE2E2E2E2E2E2E2E2E2E2E2E2E2E2E2E22DE2E2E2E2E2E2E2E2E2E2E2E2E2E2E2E2E2E2E2E2E2E2E2E2E2E2E2E2E2
310
E2E2E2E2E2E2E2E2E2E2E2E2E2E2E2E2E2E2E2E2E2E2E2E2E2E2E2E2E2E2E2E2E2E2E2E2E2E2E2E2E2E2E2E2E2E2E2E2E2E2E2E2E2E2E2E2E2E2E2E2E2E2E2E2E2E2E2E2E2E2E2E2E2E2E2E2E2E2E2E2E2E2E2E2E2E2E2E2E2E2E2E2E2E2E2E2E2E2E2E2E2E2E2E2E2E2E2E2E2E2E2E2E2E2E2E2E2E2E2E2E2E2E2E2E2E2E2
310
E2E2E2E2E2E22DE2E2E2E2E2E2E2E2E2E2E2E2E2E2E2E22DE2E2E2E2E2E2E2E2E2E2E2E2E2E2E2E2E2E2E2E2E2E2E2E2E2E2E2E2E2E2E2E2E2E2E2E2E2E2E2E2E2E2E2E2E2E2E2E2E2E2E2E2E2E2E2E2E2E2E2E2E2E2E2E2E2E2E2E2E2E2E2E2E2E2E2E2E2E2E2E2E2E2E2E2E2E2E2E2E2E2E2E2E2E2E2E2E2E2E2E2E2E2E2
310
E2E2E2E2E2E2E2E2E2E2E2E2E2E2E2E2E2E2E2E2E2E2E2E2E2E2E2E2E2E2E2E2E2E2E2E2E2E2E2E2E2E2E2E2E2E2E2E2E2E2E2E2E2E2E2E2E2E2E22DE2E2E2E2E2E2E2E2E2E2E2E2E2E2E2E22DE2E2E2E2E2E2E2E2E2E2E2E2E2E2E2E2E2E2E2E2E2E2E2E2E2E2E2E2E2E2E2E2E2E2E2E2E2E2E2E2E2E2E2E2E2E2E2E2E2E2
310
E2E2E2E2E2E2E2E2E2E2E2E2E2E2E2E2E2E2E2E2E2E2E2E2E2E2E2E2E2E2E2E2E2E2E2E2E2E2E2E2E2E2E2E2E2E2E2E2E2E2E2E2E2E2E2E2E2E2E2E2E2E2E2E2E2E2E2E2E2E2E2E2E2E2E2E2E2E2E2E2E2E2E2E2E2E2E2E2E2E2E2E2E2E2E2E2E2E2E2E2E2E2E2E2E2E2E2E2E2E2E2E22DE2E2E2E2E2E2E2E2E2E2E2E2E2E2
310
E2E22DE2E2E2E2E2E2E2E2E2E2E2E2E2E2E2E2E2E2E2E2E2E2E2E2E2E2E2E2E2E2E2E2E2E2E2E2E2E2E2E2E2E2E2E2E2E2E2E2E2E2E2E2E2E2E2E2E2E2E2E2E2E2E2E2E2E2E2E2E2E2E2E2E2E2E2E2E2E2E2E2E2E2E2E2E2E2E2E2E2E2E2E2E2E2E2E2E2E2E2E2E2E2E2E2E2E2E2E2E2E2E2E2E2E2E2E2E2E2E2E2E2E2E2E2
310
E2E2E2E2E2E2E2E2E2E2E2E2E2E2E2E2E2E2E2E2E2E2E2E2E2E2E2E2E2E2E2E2E2E2E2E2E2E22DE2E2E2E2E2E2E2E2E2E2E2E2E2E2E2E22DE2E2E2E2E2E2E2E2E2E2E2E2E2E2E2E2E2E2E2E2E2E2E2E2E2E2E2E2E2E2E2E2E2E2E2E2E2E2E2E2E2E2E2E2E2E2E2E2E2E2E2E2E2E2E2E2E2E2E2E2E2E2E2E2E2E2E2E2E2E2E2
310
E2E2E2E2E2E2E2E2E2E2E2E2E2E2E2E2E2E2E2E2E2E2E2E2E2E2E2E2E2E2E2E2E2E2E2E2E2E2E2E2E2E2E2E2E2E2E2E2E2E2E2E2E2E2E2E2E2E2E2E2E2E2E2E2E2E2E2E2E2E2E2E2E2E2E2E2E2E2E2E2E2E2E2E2E2E2E2E2E2E2E22DE2E2E2E2E2E2E2E2E2E2E2E2E2E2E2E22DE2E2E2E2E2E2E2E2E2E2E2E2E2E2E2E2E2E2
310
E2E2E2E2E2E2E2E2E2E2E2E2E2E2E2E2E2E2E2E2E2E2E2E2E2E2E2E2E2E2E2E2E2E2E2E2E2E2E2E2E2E2E2E2E2E2E2E2E2E2E2E2E2E2E2E2E2E2E2E2E2E2E2E2E2E2E2E2E2E2E2E2E2E2E2E2E2E2E2E2E2E2E2E2E2E2E2E2E2E2E2E2E2E2E2E2E2E2E2E2E2E2E2E2E2E2E2E2E2E2E2E2E2E2E2E2E2E2E2E2E2E2E2E2E2E2E2
310
E2E2E2E2E2E2E2E2E2E2E2E2E2E2E2E2E22DE2E2E2E2E2E2E2E2E2E2E2E2E2E2E2E22DE2E2E2E2E2E2E2E2E2E2E2E2E2E2E2E2E2E2E2E2E2E2E2E2E2E2E2E2E2E2E2E2E2E2E2E2E2E2E2E2E2E2E2E2E2E2E2E2E2E2E2E2E2E2E2E2E2E2E2E2E2E2E2E2E2E2E2E2E2E2E2E2E2E2E2E2E2E2E2E2E2E2E2E2E2E2E2E2E2E2E2E2
310
E2E2E2E2E2E2E2E2E2E2E2E2E2E2E2E2E2E2E2E2E2E2E2E2E2E2E2E2E2E2E2E2E2E2E2E2E2E2E2E2E2E2E2E2E2E2E2E2E2E2E2E2E2E2E2E2E2E2E2E2E2E2E2E2E2E2E2E2E2E22DE2E2E2E2E2E2E2E2E2E2E2E2E2E2E2E22DE2E2E2E2E2E2E2E2E2E2E2E2E2E2E2E2E2E2E2E2E2E2E2E2E2E2E2E2E2E2E2E2E2E2E2E2E2E2E2
310
E2E2E2E2E2E2E2E2E2E2E2E2E2E2E2E2E2E2E2E2E2E2E2E2E2E2E2E2E2E2E2E2E2E2E2E2E2E2E2E2E2E2E2E2E2E2E2E2E2E2E2E2E2E2E2E2E2E2E2E2E2E2E2E2E2E2E2E2E2E2E2E2E2E2E2E2E2E2E2E2E2E2E2E2E2E2E2E2E2E2E2E2E2E2E2E2E2E2E2E2E2E2E2E2E2E2E2E2E2E2E2E2E2E2E2E2E2E2E2E2E2E2E22DE2E2E2
310
E2E2E2E2E2E2E2E2E2E2E2E2E22D2D2D2D2D2D2D2D2D2D2D2D2D2D2D2D2D2D2D2D2D2D2D2D2D2D2D2D2D2D2D2D2D2D2D2D2D2D2D2D2D2D2D2D2D2D2D2D2D2D2D2D2D2D2D2D2D2D2D2D2D2D2D2D2D2D2D2D2D2D2D2D2D2D2D2D2D2D2D2D2D2D2D2D2D2D2D2D2D2D2D2D2D2D2D2D2D2D2D2D2D2D2D2D2D2D2D2D2D2D2D2D2D2D
310
2D2D2D2D2D2D2D2D2D2D2D2D2D2D2D2D2D2D2D2D2D2D2D2D2D2D2D2D2D2D2D2D2D2D2D2D2D2D2D2D2D2D2D2D2D2D2D2D2D2DE2E2E2E2E2E2E2E2E2E2E2E2E2E2E2E2E2E2E2E2E2E2E2E2E2E2E2E2E2E2E2E2E2E2E2E2E2E2E2E2E2E2E2E2E2E2E2E2E2E2E2E2E2E2E2E2E2E2E2E2E2E2E2E2E2E2E2E2E2E2E2E2E2E2E2E2E2
310
E2E2E2E2E2E2E2E2E2E2E2E2E2E2E2E2E2E2E2E2E2E2E2E2E2E2E2E2E2E2E2E2E2E2E2E2E2E2E2E2E2E2E2E2E2E2E2E2E2E2E2E2E2E2E2E2E2E2E2E2E2E2E2E2E2E2E2E2E2E2E2E2E2E2E2E2E2E2E2E2E2E2E2E2E2E2E2E2E2E2E2E2E2E2E2E2E2E2E2E2E2E2E2E2E2E2E2E2E2E2E2E2E2E2E2E2E2E2E2E2E2E2E2E2E2E2E2
310
E2E2E2E2E2E2E2E2E2E2E2E2E2E2E2E2E2E2E2E2E2E2E2E2E2E2E2E2E2E2E2E2E2E2E2E2E2E2E2E2E2E2E2E2E2E2E2E2E2E2E2E2E2E2E2E2E2E2E2E2E2E2E2E2E2E2E2E2E2E2E2E2E2E2E2E2E2E2E2E2E2E2E2E2E2E2E2E2E2E2E2E2E2E2E2E2E2E2E2E2E2E2E2E2E2E2E2E2E2E2E2E2E2E2E2E2E2E2E2E2E2E2E2E2E2E2E2
310
E2E2E2E2E2E2E2E2E2E2E2E2E2E2E2E2E2E2E2E2E2E2E2E2E2E2E2E2E2E2E2E2E2E2E2E2E2E2E2E2E2E2E2E2E2E2E2E2E2E2E2E2E2E2E2E2E2E2E2E2E2E2E2E2E2E2E2E2E2E2E2E2E2E2E2E2E2E2E2E2E2E2E2E2E2E2E2E2E2E2E2E2E2E2E2E2E2E2E2E2E2E2E2E2E2E2E2E2E2E2E2E2E2E2E2E2E2E2E2E2E2E2E2E2E2E2E2
310
E2E2E2E2E2E2E2E2E2E2E2E2E2E2E2E2E2E2E2E2E2E2E2E2E2E2E2E2E2E2E2E2E2E2E2E2E2E2E2E2E2E2E2E2E2E2E2E2E2E2E2E2E2E2E2E2E2E2E2E2E2E2E2E2E2E2E2E2E2E2E2E2E2E2E2E2E2E2E2E2E2E2E2E2E2E2E2E2E2E2E2E2E2E2E2E2E2E2E2E2E2E2E2E2E2E2E2E2E2E2E2E2E2E2E2E2E2E2E2E2E2E2E2E2E2E2E2
310
E2E2E2E2E2E2E2E2E2E2E2E2E2E2E2E2E2E2E2E2E2E2E2E2E2E2E2E2E2E2E2E2E2E2E2E2E2E2E2E2E2E2E2E2E2E2E2E2E2E2E2E2E2E2E2E2E2E2E2E2E2E2E2E2E2E2E2E2E2E2E2E2E2E2E2E2E2E2E2E2E2E2E2E2E2E2E2E2E2E2E2E2E2E2E2E2E2E2E2E2E2E2E2E2E2E2E2E2E2E2E2E2E2E2E2E2E2E2E2E2E2E2E2E2E2E2E2
310
E2E2E2E2E2E2E2E2E2E2E2E2E2E2E2E2E2E2E2E2E2E2E2E2E2E2E2E2E2E2E2E2E2E2E2E2E2E2E2E2E2E2E2E2E2E2E2E2E2E2E2E2E2E2E2E2E2E2E2E2E2E2E2E2E2E2E2E2E2E2E2E2E2E2E2E2E2E2E2E2E2E2E2E2E2E2E2E2E2E2E2E2E2E2E2E2E2E2E2E2E2E2E2E2E2E2E2E2E2E2E2E2E2E2E2E2E2E2E2E2E2E2E2E2E2E2E2
310
E2E2E2E2E2E2E2E2E2E2E2E2E2E2E2E2E2E2E2E2E2E2E2E2E2E2E2E2E2E2E2E2E2E2E2E2E2E2E2E2E2E2E2E2E2E2E2E2E2E2E2E2E2E2E2E2E2E2E2E2E2E2E2E2E2E2E2E2E2E2E2E2E2E2E2E2E2E2E2E2E2E2E2E2E2E2E2E2E2E2E2E2E2E2E2E2E2E2E2E2E2E2E2E2E2E2E2E2E2E2E2E2E2E2E2E2E2E2E2E2E2E2E2E2E2E2E2
310
E2E2E2E2E2E2E2E2E2E2E2E2E2E2E2E2E2E2E2E2E2E2E2E2E2E2E2E2E2E2E2E2E2E2E2E2E2E2E2E2E2E2E2E2E2E2E2E2E2E2E2E2E2E2E2E2E2E2E2E2E2E2E2E2E2E2E2E2E2E2E2E2E2E2E2E2E2E2E2E2E2E2E2E2E2E2E2E2E2E2E2E2E2E2E2E2E2E2E2E2E2E2E2E2E2E2E2E2E2E2E2E2E2E2E2E2E2E2E2E2E2E2E2E2E2E2E2
310
E2E2E2E2E2E2E2E2E2E2E2E2E2E2E2E2E2E2E2E2E2E2E2E2E2E2E2E2E2E2E2E2E2E2E2E2E2E2E2E2E2E2E2E2E2E2E2E2E2E2E2E2E2E2E2E2E2E2E2E2E2E2E2E2E2E2E2E2E2E2E2E2E2E2E2E2E2E2E2E2E2E2E2E2E2E2E2E2E2E2E2E2E2E2E2E2E2E2E2E2E2E2E2E2E2E2E2E2E2E2E2E2E2E2E2E2E2E2E2E2E2E2E2E2E2E2E2
310
E2E2E2E2E2E2E2E2E2E2E2E2E2E2E2E2E2E2E2E2E2E2E2E2E2E2E2E2E2E2E2E2E2E2E2E2E2E2E2E2E2E2E2E2E2E2E2E2
  0
ENDSEC
  0
EOF
