  0
SECTION
  2
HEADER
  9
$ACADVER
  1
AC1015
  9
$ACADMAINTVER
 70
    20
  9
$DWGCODEPAGE
  3
ANSI_950
  9
$INSBASE
 10
0.0
 20
0.0
 30
0.0
  9
$EXTMIN
 10
1.000000000000000E+20
 20
1.000000000000000E+20
 30
1.000000000000000E+20
  9
$EXTMAX
 10
-1.000000000000000E+20
 20
-1.000000000000000E+20
 30
-1.000000000000000E+20
  9
$LIMMIN
 10
0.0
 20
0.0
  9
$LIMMAX
 10
420.0
 20
297.0
  9
$ORTHOMODE
 70
     1
  9
$REGENMODE
 70
     1
  9
$FILLMODE
 70
     1
  9
$QTEXTMODE
 70
     0
  9
$MIRRTEXT
 70
     1
  9
$LTSCALE
 40
1.0
  9
$ATTMODE
 70
     1
  9
$TEXTSIZE
 40
1.0
  9
$TRACEWID
 40
1.0
  9
$TEXTSTYLE
  7
STANDARD
  9
$CLAYER
  8
0
  9
$CELTYPE
  6
BYLAYER
  9
$CECOLOR
 62
   256
  9
$CELTSCALE
 40
1.0
  9
$DISPSILH
 70
     0
  9
$DIMSCALE
 40
1.0
  9
$DIMASZ
 40
3.0
  9
$DIMEXO
 40
1.0
  9
$DIMDLI
 40
10.0
  9
$DIMRND
 40
0.0
  9
$DIMDLE
 40
0.0
  9
$DIMEXE
 40
1.0
  9
$DIMTP
 40
0.1
  9
$DIMTM
 40
0.1
  9
$DIMTXT
 40
3.5
  9
$DIMCEN
 40
0.0
  9
$DIMTSZ
 40
0.0
  9
$DIMTOL
 70
     0
  9
$DIMLIM
 70
     0
  9
$DIMTIH
 70
     0
  9
$DIMTOH
 70
     0
  9
$DIMSE1
 70
     0
  9
$DIMSE2
 70
     0
  9
$DIMTAD
 70
     1
  9
$DIMZIN
 70
     8
  9
$DIMBLK
  1

  9
$DIMASO
 70
     1
  9
$DIMSHO
 70
     1
  9
$DIMPOST
  1

  9
$DIMAPOST
  1
"
  9
$DIMALT
 70
     0
  9
$DIMALTD
 70
     2
  9
$DIMALTF
 40
0.0393701
  9
$DIMLFAC
 40
1.0
  9
$DIMTOFL
 70
     1
  9
$DIMTVP
 40
0.0
  9
$DIMTIX
 70
     0
  9
$DIMSOXD
 70
     0
  9
$DIMSAH
 70
     0
  9
$DIMBLK1
  1

  9
$DIMBLK2
  1

  9
$DIMSTYLE
  2
AM_ISO
  9
$DIMCLRD
 70
   256
  9
$DIMCLRE
 70
   256
  9
$DIMCLRT
 70
   256
  9
$DIMTFAC
 40
0.71
  9
$DIMGAP
 40
1.0
  9
$DIMJUST
 70
     0
  9
$DIMSD1
 70
     0
  9
$DIMSD2
 70
     0
  9
$DIMTOLJ
 70
     0
  9
$DIMTZIN
 70
     8
  9
$DIMALTZ
 70
     8
  9
$DIMALTTZ
 70
     0
  9
$DIMUPT
 70
     0
  9
$DIMDEC
 70
     2
  9
$DIMTDEC
 70
     8
  9
$DIMALTU
 70
     2
  9
$DIMALTTD
 70
     2
  9
$DIMTXSTY
  7
STANDARD
  9
$DIMAUNIT
 70
     0
  9
$DIMADEC
 70
     0
  9
$DIMALTRND
 40
0.0
  9
$DIMAZIN
 70
     2
  9
$DIMDSEP
 70
    46
  9
$DIMATFIT
 70
     3
  9
$DIMFRAC
 70
     0
  9
$DIMLDRBLK
  1

  9
$DIMLUNIT
 70
     2
  9
$DIMLWD
 70
    -1
  9
$DIMLWE
 70
    -1
  9
$DIMTMOVE
 70
     0
  9
$LUNITS
 70
     2
  9
$LUPREC
 70
     2
  9
$SKETCHINC
 40
1.0
  9
$FILLETRAD
 40
1.0
  9
$AUNITS
 70
     0
  9
$AUPREC
 70
     0
  9
$MENU
  1
.
  9
$ELEVATION
 40
0.0
  9
$PELEVATION
 40
0.0
  9
$THICKNESS
 40
0.0
  9
$LIMCHECK
 70
     0
  9
$CHAMFERA
 40
2.5
  9
$CHAMFERB
 40
2.5
  9
$CHAMFERC
 40
20.0
  9
$CHAMFERD
 40
0.0
  9
$SKPOLY
 70
     0
  9
$TDCREATE
 40
2454816.659313322
  9
$TDUCREATE
 40
2454816.325979989
  9
$TDUPDATE
 40
2455117.713050591
  9
$TDUUPDATE
 40
2455117.379717257
  9
$TDINDWG
 40
0.3944190625
  9
$TDUSRTIMER
 40
0.3944181597
  9
$USRTIMER
 70
     1
  9
$ANGBASE
 50
0.0
  9
$ANGDIR
 70
     0
  9
$PDMODE
 70
     0
  9
$PDSIZE
 40
0.0
  9
$PLINEWID
 40
0.0
  9
$SPLFRAME
 70
     0
  9
$SPLINETYPE
 70
     6
  9
$SPLINESEGS
 70
     8
  9
$HANDSEED
  5
45A6
  9
$SURFTAB1
 70
     6
  9
$SURFTAB2
 70
     6
  9
$SURFTYPE
 70
     6
  9
$SURFU
 70
     6
  9
$SURFV
 70
     6
  9
$UCSBASE
  2

  9
$UCSNAME
  2

  9
$UCSORG
 10
0.0
 20
0.0
 30
0.0
  9
$UCSXDIR
 10
1.0
 20
0.0
 30
0.0
  9
$UCSYDIR
 10
0.0
 20
1.0
 30
0.0
  9
$UCSORTHOREF
  2

  9
$UCSORTHOVIEW
 70
     0
  9
$UCSORGTOP
 10
0.0
 20
0.0
 30
0.0
  9
$UCSORGBOTTOM
 10
0.0
 20
0.0
 30
0.0
  9
$UCSORGLEFT
 10
0.0
 20
0.0
 30
0.0
  9
$UCSORGRIGHT
 10
0.0
 20
0.0
 30
0.0
  9
$UCSORGFRONT
 10
0.0
 20
0.0
 30
0.0
  9
$UCSORGBACK
 10
0.0
 20
0.0
 30
0.0
  9
$PUCSBASE
  2

  9
$PUCSNAME
  2

  9
$PUCSORG
 10
0.0
 20
0.0
 30
0.0
  9
$PUCSXDIR
 10
1.0
 20
0.0
 30
0.0
  9
$PUCSYDIR
 10
0.0
 20
1.0
 30
0.0
  9
$PUCSORTHOREF
  2

  9
$PUCSORTHOVIEW
 70
     0
  9
$PUCSORGTOP
 10
0.0
 20
0.0
 30
0.0
  9
$PUCSORGBOTTOM
 10
0.0
 20
0.0
 30
0.0
  9
$PUCSORGLEFT
 10
0.0
 20
0.0
 30
0.0
  9
$PUCSORGRIGHT
 10
0.0
 20
0.0
 30
0.0
  9
$PUCSORGFRONT
 10
0.0
 20
0.0
 30
0.0
  9
$PUCSORGBACK
 10
0.0
 20
0.0
 30
0.0
  9
$USERI1
 70
     0
  9
$USERI2
 70
     0
  9
$USERI3
 70
     0
  9
$USERI4
 70
     0
  9
$USERI5
 70
     0
  9
$USERR1
 40
0.0
  9
$USERR2
 40
0.0
  9
$USERR3
 40
0.0
  9
$USERR4
 40
0.0
  9
$USERR5
 40
0.0
  9
$WORLDVIEW
 70
     1
  9
$SHADEDGE
 70
     3
  9
$SHADEDIF
 70
    70
  9
$TILEMODE
 70
     0
  9
$MAXACTVP
 70
    48
  9
$PINSBASE
 10
0.0
 20
0.0
 30
0.0
  9
$PLIMCHECK
 70
     0
  9
$PEXTMIN
 10
9.735123665299397
 20
4.034653855212013
 30
-0.0050168038263223
  9
$PEXTMAX
 10
182.9400505640392
 20
125.1750772230334
 30
79.62591375883604
  9
$PLIMMIN
 10
-2.513534545898437
 20
-3.402541637420654
  9
$PLIMMAX
 10
207.4597930908203
 20
145.0604557991028
  9
$UNITMODE
 70
     0
  9
$VISRETAIN
 70
     1
  9
$PLINEGEN
 70
     0
  9
$PSLTSCALE
 70
     1
  9
$TREEDEPTH
 70
  3020
  9
$CMLSTYLE
  2
STANDARD
  9
$CMLJUST
 70
     0
  9
$CMLSCALE
 40
1.0
  9
$PROXYGRAPHICS
 70
     1
  9
$MEASUREMENT
 70
     1
  9
$CELWEIGHT
370
    -1
  9
$ENDCAPS
280
     0
  9
$JOINSTYLE
280
     0
  9
$LWDISPLAY
290
     0
  9
$INSUNITS
 70
     4
  9
$HYPERLINKBASE
  1

  9
$STYLESHEET
  1

  9
$XEDIT
290
     1
  9
$CEPSNTYPE
380
     0
  9
$PSTYLEMODE
290
     1
  9
$FINGERPRINTGUID
  2
{CAC0B594-D082-4A08-878C-C7C0726FFACF}
  9
$VERSIONGUID
  2
{315F5743-3A8C-4021-80A8-27148CB37BCE}
  9
$EXTNAMES
290
     1
  9
$PSVPSCALE
 40
0.0
  9
$OLESTARTUP
290
     0
  0
ENDSEC
  0
SECTION
  2
CLASSES
  0
CLASS
  1
DICTIONARYVAR
  2
AcDbDictionaryVar
  3
ObjectDBX Classes
 90
        0
280
     0
281
     0
  0
CLASS
  1
ACMESTATEMGR
  2
AcMeStateMgr
  3
AcMeServices
 90
        0
280
     0
281
     0
  0
CLASS
  1
ACMESCOPE
  2
AcMeScope
  3
AcMeServices
 90
        0
280
     0
281
     0
  0
CLASS
  1
ACMECOMMANDHISTORY
  2
AcMeCommandHistory
  3
AcMeServices
 90
        0
280
     0
281
     0
  0
CLASS
  1
ACRFINSADJUSTERMGR
  2
AcRfInsAdjusterMgr
  3
AcMeServices
 90
        0
280
     0
281
     0
  0
CLASS
  1
ACMEDRAWINGMAN
  2
AcMeDrawingMan
  3
AcMeServices
 90
        0
280
     0
281
     0
  0
CLASS
  1
AMATTR
  2
AcMeAttribute
  3
AcMeServices
 90
    32768
280
     0
281
     0
  0
CLASS
  1
ACMEBOMCOLUMN
  2
AcMeBOMColumn
  3
AcMeServices
 90
    32768
280
     0
281
     0
  0
CLASS
  1
ACMEBOMCONF
  2
AcMeBOMConf
  3
AcMeServices
 90
    32768
280
     0
281
     0
  0
CLASS
  1
ACMEBOMTABLE
  2
AcMeBOMTable
  3
AcMeServices
 90
    32768
280
     0
281
     0
  0
CLASS
  1
ACMEBOMENTRY
  2
AcMeBOMEntry
  3
AcMeServices
 90
    32768
280
     0
281
     0
  0
CLASS
  1
ACMEVIEW
  2
AcMeView
  3
AcMeServices
 90
        0
280
     0
281
     0
  0
CLASS
  1
ACGREFMASTER
  2
AcGrefMaster
  3
AcAttribServices
 90
        0
280
     0
281
     0
  0
CLASS
  1
AMIMASTER
  2
AmiMaster
  3
AmiServices
 90
        0
280
     0
281
     0
  0
CLASS
  1
ACASGREFMASTER
  2
AcAsGrefMaster
  3
AutoSurfResolverServices
 90
        0
280
     0
281
     0
  0
CLASS
  1
ADAPPL
  2
AcAdAppl
  3
DesignerServices
 90
        0
280
     0
281
     0
  0
CLASS
  1
DEPMGR
  2
AcAdDepMgr
  3
DesignerServices
 90
        0
280
     0
281
     0
  0
CLASS
  1
PARAMMGR
  2
AcAdParamMgr
  3
DesignerServices
 90
        0
280
     0
281
     0
  0
CLASS
  1
PARAMSCOPE
  2
AcAdParamScope
  3
DesignerServices
 90
        0
280
     0
281
     0
  0
CLASS
  1
ACIMSYSVARMAN
  2
AcImSysVarManager
  3
AcMeServices
 90
        0
280
     0
281
     0
  0
CLASS
  1
ACIMINTSYSVAR
  2
AcImIntSysVar
  3
AcMeServices
 90
        0
280
     0
281
     0
  0
CLASS
  1
ACIMREALSYSVAR
  2
AcImRealSysVar
  3
AcMeServices
 90
        0
280
     0
281
     0
  0
CLASS
  1
ACIMSTRSYSVAR
  2
AcImStrSysVar
  3
AcMeServices
 90
        0
280
     0
281
     0
  0
CLASS
  1
NAMEDAPPL
  2
AcAdNamedAppl
  3
DesignerServices
 90
        0
280
     0
281
     0
  0
CLASS
  1
ADHNTMPLT
  2
AdHoleNoteTemplateMgr
  3
DesignerServices
 90
    32768
280
     0
281
     0
  0
CLASS
  1
AM_HNTEMPLATE_MGR_NAME
  2
AdHoleNoteTemplateMgrName
  3
DesignerServices
 90
    32768
280
     0
281
     0
  0
CLASS
  1
ACADGREFMODULE
  2
AcAdGrefModule
  3
AdGrefServices
 90
        0
280
     0
281
     0
  0
CLASS
  1
AM_DRAWING_MGR
  2
AcDmDwgMgr
  3
AcMechDwgViewMgmt
 90
        0
280
     0
281
     0
  0
CLASS
  1
AM_DWG_DOCUMENT
  2
AcDmDwgDocument
  3
AcMechDwgViewMgmt
 90
        0
280
     0
281
     0
  0
CLASS
  1
AM_DWG_SHEET
  2
AcDmSheet
  3
AcMechDwgViewMgmt
 90
        0
280
     0
281
     0
  0
CLASS
  1
AM_VIEWDIMPARMAP
  2
AcDmViewDimParMap
  3
AcMechDwgViewMgmt
 90
        0
280
     0
281
     0
  0
CLASS
  1
AM_DWGMGR_NAME
  2
AcDmDwgMgrName
  3
AcMechDwgViewMgmt
 90
        0
280
     0
281
     0
  0
CLASS
  1
ACAMPROJECT
  2
AcAmProject
  3
DesignerAssemblies
 90
        0
280
     0
281
     0
  0
CLASS
  1
ACAMGRCOMPSET
  2
AcAmGrCompSet
  3
DesignerAssemblies
 90
    32768
280
     1
281
     0
  0
CLASS
  1
ACAMGRCOMPDEFSET
  2
AcAmGrCompDefSet
  3
DesignerAssemblies
 90
        0
280
     0
281
     0
  0
CLASS
  1
ACAMGRCOMPDEF
  2
AcAmGrCompDef
  3
DesignerAssemblies
 90
        0
280
     0
281
     0
  0
CLASS
  1
ACCMCONTEXT
  2
AcCmContext
  3
DesignerAssemblies
 90
        0
280
     0
281
     0
  0
CLASS
  1
ACAMCOMPDEF
  2
AcAmCompDef
  3
DesignerAssemblies
 90
        0
280
     0
281
     0
  0
CLASS
  1
ACAMCOMPDEFMGR
  2
AcAmCompDefMgr
  3
DesignerAssemblies
 90
        0
280
     0
281
     0
  0
CLASS
  1
AMCONTEXTMGR
  2
AcAmContextMgr
  3
DesignerAssemblies
 90
        0
280
     0
281
     0
  0
CLASS
  1
ACAMCONTEXTMODELER
  2
AcAmContextModeler
  3
DesignerAssemblies
 90
        0
280
     0
281
     0
  0
CLASS
  1
ACDMVIEWGEOM
  2
AcDmViewGeometry
  3
AcMechDwgViewMgmt
 90
    32768
280
     0
281
     1
  0
CLASS
  1
CBROWSERAPPOBJECT
  2
CBrowserAppObject
  3
McadcomServices
 90
        0
280
     0
281
     0
  0
CLASS
  1
IM_STATIC_MAN
  2
AcImStaticVarManager
  3
AcMeServices
 90
        0
280
     0
281
     0
  0
CLASS
  1
ASAPP
  2
AcAsAppObject
  3
AutoSurfServices
 90
        0
280
     0
281
     0
  0
CLASS
  1
ACIMDBLSTATICVAR
  2
AcImDblStaticVar
  3
AcMeServices
 90
        0
280
     0
281
     0
  0
CLASS
  1
ACIMSTRSTATICVAR
  2
AcImStrStaticVar
  3
AcMeServices
 90
        0
280
     0
281
     0
  0
CLASS
  1
ACIMINTSTATICVAR
  2
AcImIntStaticVar
  3
AcMeServices
 90
        0
280
     0
281
     0
  0
CLASS
  1
CATALOGSTATE
  2
AcAmCatalogState
  3
DesignerAssemblies
 90
        0
280
     0
281
     0
  0
CLASS
  1
DM_PLACEHOLDER
  2
AcDmSelsetPlaceholder
  3
AcMechDwgViewMgmt
 90
        0
280
     0
281
     0
  0
CLASS
  1
LAYER_INDEX
  2
AcDbLayerIndex
  3
ObjectDBX Classes
 90
        0
280
     0
281
     0
  0
CLASS
  1
IDBUFFER
  2
AcDbIdBuffer
  3
ObjectDBX Classes
 90
        0
280
     0
281
     0
  0
CLASS
  1
ACMSTANDARDJIS
  2
AcmStandardJIS
  3
"Amdt_StdImp|Product Description: AutoCAD Mechanical 2004 DX|Company: Autodesk"
 90
    32768
280
     0
281
     0
  0
CLASS
  1
ACMSTANDARDANSI
  2
AcmStandardANSI
  3
"Amdt_StdImp|Product Description: AutoCAD Mechanical 2004 DX|Company: Autodesk"
 90
    32768
280
     0
281
     0
  0
CLASS
  1
ACMSTANDARDBSI
  2
AcmStandardBSI
  3
"Amdt_StdImp|Product Description: AutoCAD Mechanical 2004 DX|Company: Autodesk"
 90
    32768
280
     0
281
     0
  0
CLASS
  1
ACMSTANDARDDIN
  2
AcmStandardDIN
  3
"Amdt_StdImp|Product Description: AutoCAD Mechanical 2004 DX|Company: Autodesk"
 90
    32768
280
     0
281
     0
  0
CLASS
  1
ACMSTANDARDISO
  2
AcmStandardISO
  3
"Amdt_StdImp|Product Description: AutoCAD Mechanical 2004 DX|Company: Autodesk"
 90
        0
280
     0
281
     0
  0
CLASS
  1
ACDBDICTIONARYWDFLT
  2
AcDbDictionaryWithDefault
  3
ObjectDBX Classes
 90
        0
280
     0
281
     0
  0
CLASS
  1
ACDBPLACEHOLDER
  2
AcDbPlaceHolder
  3
ObjectDBX Classes
 90
        0
280
     0
281
     0
  0
CLASS
  1
LAYOUT
  2
AcDbLayout
  3
ObjectDBX Classes
 90
        0
280
     0
281
     0
  0
CLASS
  1
ACME_DOCUMENT
  2
AcMeDbDoc
  3
AcMeServices
 90
        0
280
     0
281
     0
  0
CLASS
  1
AMGSETTINGSOBJ
  2
AmgSettingsObj
  3
"AcadM|Product Description: AutoCAD Mechanical 2000|Company: Autodesk"
 90
        0
280
     0
281
     0
  0
CLASS
  1
AMGOBJPROPCFG
  2
AmgObjPropCfg
  3
"AmgLay|Product Description: AutoCAD Mechanical 2000|Company: Autodesk"
 90
        1
280
     0
281
     0
  0
CLASS
  1
ACDBENTITYCACHE
  2
AcMeEntityCache
  3
AcMeServices
 90
        0
280
     0
281
     0
  0
CLASS
  1
GSMANAGER
  2
AcMeGSManager
  3
AcMeServices
 90
        0
280
     0
281
     0
  0
CLASS
  1
AMDTINTERNALREACTOR
  2
AmdtInternalReactor
  3
AcMeServices
 90
        0
280
     0
281
     0
  0
CLASS
  1
ACME_DATABASE
  2
AcMeDbDatabase
  3
AcMeServices
 90
        0
280
     0
281
     0
  0
CLASS
  1
ACGREFACADMASTER
  2
AcGrefacadMaster
  3
AcGrefServices
 90
        0
280
     0
281
     0
  0
CLASS
  1
AMDTMENUSTATEMGR
  2
AmdtMenuStateMgr
  3
McadcomServices
 90
        0
280
     0
281
     0
  0
CLASS
  1
AMDTMCOMMENUSTATE
  2
AmdtMcomMenuState
  3
McadcomServices
 90
        0
280
     0
281
     0
  0
CLASS
  1
MAPIADMODULE
  2
MApiAdModule
  3
MApiAdServices
 90
        0
280
     0
281
     0
  0
CLASS
  1
AMDTDMMENUSTATE
  2
AmdtDmMenuState
  3
AcMechDwgViewMgmt
 90
        0
280
     0
281
     0
  0
CLASS
  1
AMDTADMENUSTATE
  2
AmdtAdMenuState
  3
DesignerServices
 90
        0
280
     0
281
     0
  0
CLASS
  1
AMDTAMMENUSTATE
  2
AmdtAmMenuState
  3
DesignerAssemblies
 90
        0
280
     0
281
     0
  0
CLASS
  1
ACMDATADICTIONARY
  2
AcmDataDictionary
  3
"AcmSymBB|Product Description: AutoCAD Mechanical 2004 DX|Company: Autodesk"
 90
        0
280
     0
281
     0
  0
CLASS
  1
ACMDATAENTRYBLOCK
  2
AcmDataEntryBlock
  3
"AcmSymBB|Product Description: AutoCAD Mechanical 2004 DX|Company: Autodesk"
 90
        0
280
     0
281
     0
  0
CLASS
  1
ACMSURFSTANDARDJIS
  2
AcmSurfTextStdJIS
  3
"Amdt_StdImp|Product Description: AutoCAD Mechanical 2004 DX|Company: Autodesk"
 90
    32768
280
     0
281
     0
  0
CLASS
  1
ACMFCFSTANDARDJIS
  2
AcmFCFStdJIS
  3
"Amdt_StdImp|Product Description: AutoCAD Mechanical 2004 DX|Company: Autodesk"
 90
    32768
280
     0
281
     0
  0
CLASS
  1
ACMWELDSTANDARDJIS
  2
AcmWeldingStdJIS
  3
"Amdt_StdImp|Product Description: AutoCAD Mechanical 2004 DX|Company: Autodesk"
 90
    32768
280
     0
281
     0
  0
CLASS
  1
ACMIDSTANDARDJIS
  2
AcmIdStdJIS
  3
"Amdt_StdImp|Product Description: AutoCAD Mechanical 2004 DX|Company: Autodesk"
 90
    32768
280
     0
281
     0
  0
CLASS
  1
ACMDATUMSTANDARDJIS
  2
AcmDatumStdJIS
  3
"Amdt_StdImp|Product Description: AutoCAD Mechanical 2004 DX|Company: Autodesk"
 90
    32768
280
     0
281
     0
  0
CLASS
  1
ACMBOMSTANDARDJIS
  2
AcmBOMStdJIS
  3
"Amdt_StdImp|Product Description: AutoCAD Mechanical 2004 DX|Company: Autodesk"
 90
    32768
280
     0
281
     0
  0
CLASS
  1
ACMSURFSTANDARDANSI
  2
AcmSurfTextStdANSI
  3
"Amdt_StdImp|Product Description: AutoCAD Mechanical 2004 DX|Company: Autodesk"
 90
    32768
280
     0
281
     0
  0
CLASS
  1
ACMFCFSTANDARDANSI
  2
AcmFCFStdANSI
  3
"Amdt_StdImp|Product Description: AutoCAD Mechanical 2004 DX|Company: Autodesk"
 90
    32768
280
     0
281
     0
  0
CLASS
  1
ACMWELDSTANDARDANSI
  2
AcmWeldingStdANSI
  3
"Amdt_StdImp|Product Description: AutoCAD Mechanical 2004 DX|Company: Autodesk"
 90
    32768
280
     0
281
     0
  0
CLASS
  1
ACMIDSTANDARDANSI
  2
AcmIdStdANSI
  3
"Amdt_StdImp|Product Description: AutoCAD Mechanical 2004 DX|Company: Autodesk"
 90
    32768
280
     0
281
     0
  0
CLASS
  1
ACMDATUMSTANDARDANSI
  2
AcmDatumStdANSI
  3
"Amdt_StdImp|Product Description: AutoCAD Mechanical 2004 DX|Company: Autodesk"
 90
    32768
280
     0
281
     0
  0
CLASS
  1
ACMBOMSTANDARDANSI
  2
AcmBOMStdANSI
  3
"Amdt_StdImp|Product Description: AutoCAD Mechanical 2004 DX|Company: Autodesk"
 90
    32768
280
     0
281
     0
  0
CLASS
  1
ACMSURFSTANDARDBSI
  2
AcmSurfTextStdBSI
  3
"Amdt_StdImp|Product Description: AutoCAD Mechanical 2004 DX|Company: Autodesk"
 90
    32768
280
     0
281
     0
  0
CLASS
  1
ACMFCFSTANDARDBSI
  2
AcmFCFStdBSI
  3
"Amdt_StdImp|Product Description: AutoCAD Mechanical 2004 DX|Company: Autodesk"
 90
    32768
280
     0
281
     0
  0
CLASS
  1
ACMWELDSTANDARDBSI
  2
AcmWeldingStdBSI
  3
"Amdt_StdImp|Product Description: AutoCAD Mechanical 2004 DX|Company: Autodesk"
 90
    32768
280
     0
281
     0
  0
CLASS
  1
ACMIDSTANDARDBSI
  2
AcmIdStdBSI
  3
"Amdt_StdImp|Product Description: AutoCAD Mechanical 2004 DX|Company: Autodesk"
 90
    32768
280
     0
281
     0
  0
CLASS
  1
ACMDATUMSTANDARDBSI
  2
AcmDatumStdBSI
  3
"Amdt_StdImp|Product Description: AutoCAD Mechanical 2004 DX|Company: Autodesk"
 90
    32768
280
     0
281
     0
  0
CLASS
  1
ACMBOMSTANDARDBSI
  2
AcmBOMStdBSI
  3
"Amdt_StdImp|Product Description: AutoCAD Mechanical 2004 DX|Company: Autodesk"
 90
    32768
280
     0
281
     0
  0
CLASS
  1
AMDTEDGESTANDARDDIN
  2
AmdtEdgeStdDIN
  3
"Amdt_StdImp|Product Description: AutoCAD Mechanical 2004 DX|Company: Autodesk"
 90
    32768
280
     0
281
     0
  0
CLASS
  1
ACMSURFSTANDARDDIN
  2
AcmSurfTextStdDIN
  3
"Amdt_StdImp|Product Description: AutoCAD Mechanical 2004 DX|Company: Autodesk"
 90
    32768
280
     0
281
     0
  0
CLASS
  1
ACMFCFSTANDARDDIN
  2
AcmFCFStdDIN
  3
"Amdt_StdImp|Product Description: AutoCAD Mechanical 2004 DX|Company: Autodesk"
 90
    32768
280
     0
281
     0
  0
CLASS
  1
ACMWELDSTANDARDDIN
  2
AcmWeldingStdDIN
  3
"Amdt_StdImp|Product Description: AutoCAD Mechanical 2004 DX|Company: Autodesk"
 90
    32768
280
     0
281
     0
  0
CLASS
  1
ACMIDSTANDARDDIN
  2
AcmIdStdDIN
  3
"Amdt_StdImp|Product Description: AutoCAD Mechanical 2004 DX|Company: Autodesk"
 90
    32768
280
     0
281
     0
  0
CLASS
  1
ACMDATUMSTANDARDDIN
  2
AcmDatumStdDIN
  3
"Amdt_StdImp|Product Description: AutoCAD Mechanical 2004 DX|Company: Autodesk"
 90
    32768
280
     0
281
     0
  0
CLASS
  1
ACMBOMSTANDARDDIN
  2
AcmBOMStdDIN
  3
"Amdt_StdImp|Product Description: AutoCAD Mechanical 2004 DX|Company: Autodesk"
 90
    32768
280
     0
281
     0
  0
CLASS
  1
ACMSURFSTANDARDISO
  2
AcmSurfTextStdISO
  3
"Amdt_StdImp|Product Description: AutoCAD Mechanical 2004 DX|Company: Autodesk"
 90
        0
280
     0
281
     0
  0
CLASS
  1
ACMFCFSTANDARDISO
  2
AcmFCFStdISO
  3
"Amdt_StdImp|Product Description: AutoCAD Mechanical 2004 DX|Company: Autodesk"
 90
        0
280
     0
281
     0
  0
CLASS
  1
ACMWELDSTANDARDISO
  2
AcmWeldingStdISO
  3
"Amdt_StdImp|Product Description: AutoCAD Mechanical 2004 DX|Company: Autodesk"
 90
        0
280
     0
281
     0
  0
CLASS
  1
ACMIDSTANDARDISO
  2
AcmIdStdISO
  3
"Amdt_StdImp|Product Description: AutoCAD Mechanical 2004 DX|Company: Autodesk"
 90
        0
280
     0
281
     0
  0
CLASS
  1
ACMDATUMSTANDARDISO
  2
AcmDatumStdISO
  3
"Amdt_StdImp|Product Description: AutoCAD Mechanical 2004 DX|Company: Autodesk"
 90
        0
280
     0
281
     0
  0
CLASS
  1
ACMBOMSTANDARDISO
  2
AcmBOMStdISO
  3
"Amdt_StdImp|Product Description: AutoCAD Mechanical 2004 DX|Company: Autodesk"
 90
        0
280
     0
281
     0
  0
CLASS
  1
AMDTBROWSERDBTAB
  2
AmdtBrowserDbTab
  3
McadcomServices
 90
        0
280
     0
281
     0
  0
CLASS
  1
ACAMGFILTERDAT
  2
AcAmgFilterDat
  3
"AcadM|Product Description: AutoCAD Mechanical 2000|Company: Autodesk"
 90
    32768
280
     0
281
     0
  0
CLASS
  1
MAPIAMMOUDLE
  2
MApiAmModule
  3
MApiAmServices
 90
        0
280
     0
281
     0
  0
CLASS
  1
AMDTMAPISURFMOUDULE
  2
AmdtMApiSurfModule
  3
MApiSurfServices
 90
        0
280
     0
281
     0
  0
CLASS
  1
ACAMGLAYSTD
  2
AcAmgLayStd
  3
"AcAmgLayStd|Product Description: AutoCAD Mechanical 2000|Company: Autodesk"
 90
        0
280
     0
281
     0
  0
CLASS
  1
ACAMGDIMSTD
  2
AcAmgDimStd
  3
"AcAmgDimStd|Product Description: AutoCAD Mechanical 2000|Company: Autodesk"
 90
        0
280
     0
281
     0
  0
CLASS
  1
ACAMGTITLESTD
  2
AcAmgTitleStd
  3
"TITLEAPP"
 90
        0
280
     0
281
     0
  0
CLASS
  1
ACMDETAILSTANDARDJIS
  2
AmdtDetailSymStdJIS
  3
"Amdt_StdImp|Product Description: AutoCAD Mechanical 2004 DX|Company: Autodesk"
 90
    32768
280
     0
281
     0
  0
CLASS
  1
ACMSECTIONSTANDARDJIS
  2
AmdtSectionSymStdJIS
  3
"Amdt_StdImp|Product Description: AutoCAD Mechanical 2004 DX|Company: Autodesk"
 90
    32768
280
     0
281
     0
  0
CLASS
  1
ACMCENTERLINESTANDARDJIS
  2
AmdtCenterLineStdJIS
  3
"Amdt_StdImp|Product Description: AutoCAD Mechanical 2004 DX|Company: Autodesk"
 90
    32768
280
     0
281
     0
  0
CLASS
  1
ACMTHREADLINESTANDARDJIS
  2
AmdtThreadLineStdJIS
  3
"Amdt_StdImp|Product Description: AutoCAD Mechanical 2004 DX|Company: Autodesk"
 90
    32768
280
     0
281
     0
  0
CLASS
  1
ACMDETAILSTANDARDANSI
  2
AmdtDetailSymStdANSI
  3
"Amdt_StdImp|Product Description: AutoCAD Mechanical 2004 DX|Company: Autodesk"
 90
    32768
280
     0
281
     0
  0
CLASS
  1
ACMSECTIONSTANDARDANSI
  2
AmdtSectionSymStdANSI
  3
"Amdt_StdImp|Product Description: AutoCAD Mechanical 2004 DX|Company: Autodesk"
 90
    32768
280
     0
281
     0
  0
CLASS
  1
ACMCENTERLINESTANDARDANSI
  2
AmdtCenterLineStdANSI
  3
"Amdt_StdImp|Product Description: AutoCAD Mechanical 2004 DX|Company: Autodesk"
 90
    32768
280
     0
281
     0
  0
CLASS
  1
ACMTHREADLINESTANDARDANSI
  2
AmdtThreadLineStdANSI
  3
"Amdt_StdImp|Product Description: AutoCAD Mechanical 2004 DX|Company: Autodesk"
 90
    32768
280
     0
281
     0
  0
CLASS
  1
ACMDETAILSTANDARDBSI
  2
AmdtDetailSymStdBSI
  3
"Amdt_StdImp|Product Description: AutoCAD Mechanical 2004 DX|Company: Autodesk"
 90
    32768
280
     0
281
     0
  0
CLASS
  1
ACMSECTIONSTANDARDBSI
  2
AmdtSectionSymStdBSI
  3
"Amdt_StdImp|Product Description: AutoCAD Mechanical 2004 DX|Company: Autodesk"
 90
    32768
280
     0
281
     0
  0
CLASS
  1
ACMCENTERLINESTANDARDBSI
  2
AmdtCenterLineStdBSI
  3
"Amdt_StdImp|Product Description: AutoCAD Mechanical 2004 DX|Company: Autodesk"
 90
    32768
280
     0
281
     0
  0
CLASS
  1
ACMTHREADLINESTANDARDBSI
  2
AmdtThreadLineStdBSI
  3
"Amdt_StdImp|Product Description: AutoCAD Mechanical 2004 DX|Company: Autodesk"
 90
    32768
280
     0
281
     0
  0
CLASS
  1
ACMDETAILSTANDARDDIN
  2
AmdtDetailSymStdDIN
  3
"Amdt_StdImp|Product Description: AutoCAD Mechanical 2004 DX|Company: Autodesk"
 90
    32768
280
     0
281
     0
  0
CLASS
  1
ACMSECTIONSTANDARDDIN
  2
AmdtSectionSymStdDIN
  3
"Amdt_StdImp|Product Description: AutoCAD Mechanical 2004 DX|Company: Autodesk"
 90
    32768
280
     0
281
     0
  0
CLASS
  1
ACMCENTERLINESTANDARDDIN
  2
AmdtCenterLineStdDIN
  3
"Amdt_StdImp|Product Description: AutoCAD Mechanical 2004 DX|Company: Autodesk"
 90
    32768
280
     0
281
     0
  0
CLASS
  1
ACMTHREADLINESTANDARDDIN
  2
AmdtThreadLineStdDIN
  3
"Amdt_StdImp|Product Description: AutoCAD Mechanical 2004 DX|Company: Autodesk"
 90
    32768
280
     0
281
     0
  0
CLASS
  1
AMDTEDGESTANDARDISO
  2
AmdtEdgeStdISO
  3
"Amdt_StdImp|Product Description: AutoCAD Mechanical 2004 DX|Company: Autodesk"
 90
    32768
280
     0
281
     0
  0
CLASS
  1
ACMDETAILSTANDARDISO
  2
AmdtDetailSymStdISO
  3
"Amdt_StdImp|Product Description: AutoCAD Mechanical 2004 DX|Company: Autodesk"
 90
        0
280
     0
281
     0
  0
CLASS
  1
ACMSECTIONSTANDARDISO
  2
AmdtSectionSymStdISO
  3
"Amdt_StdImp|Product Description: AutoCAD Mechanical 2004 DX|Company: Autodesk"
 90
        0
280
     0
281
     0
  0
CLASS
  1
ACMCENTERLINESTANDARDISO
  2
AmdtCenterLineStdISO
  3
"Amdt_StdImp|Product Description: AutoCAD Mechanical 2004 DX|Company: Autodesk"
 90
        0
280
     0
281
     0
  0
CLASS
  1
ACMTHREADLINESTANDARDISO
  2
AmdtThreadLineStdISO
  3
"Amdt_StdImp|Product Description: AutoCAD Mechanical 2004 DX|Company: Autodesk"
 90
        0
280
     0
281
     0
  0
CLASS
  1
ACMNOTESTANDARDISO
  2
AmdtNoteStdISO
  3
"Amdt_StdImp|Product Description: AutoCAD Mechanical 2004 DX|Company: Autodesk"
 90
        0
280
     0
281
     0
  0
CLASS
  1
ACAMGHOLECHARTSTDISO
  2
AcAmgHoleChartStdISO
  3
ACMSYMBB_MODULE_NAME
 90
        0
280
     0
281
     0
  0
CLASS
  1
ACMNOTESTANDARDANSI
  2
AmdtNoteStdANSI
  3
"Amdt_StdImp|Product Description: AutoCAD Mechanical 2004 DX|Company: Autodesk"
 90
    32768
280
     0
281
     0
  0
CLASS
  1
AMDTNOTETEMPLATEDB
  2
AmdtNoteTemplateDB
  3
AMDT_STDIMP_MODULE_NAME
 90
        0
280
     0
281
     0
  0
CLASS
  1
ACAMGHOLECHARTSTDANSI
  2
AcAmgHoleChartStdANSI
  3
ACMSYMBB_MODULE_NAME
 90
    32768
280
     0
281
     0
  0
CLASS
  1
TABLESTYLE
  2
AcDbTableStyle
  3
ObjectDBX Classes
 90
     2047
280
     0
281
     0
  0
CLASS
  1
ACMBOM
  2
AcmBom
  3
"AcmSymBB|Product Description: AutoCAD Mechanical 2004 DX|Company: Autodesk"
 90
    32768
280
     0
281
     0
  0
CLASS
  1
AMDTFORMULAUPDATEDISPATCHER
  2
AmdtFormulaUpdateDispatcher
  3
AcMeServices
 90
    32768
280
     0
281
     0
  0
CLASS
  1
ACMPARTLIST
  2
AcmPartList
  3
"AcmSymBB|Product Description: AutoCAD Mechanical 2004 DX|Company: Autodesk"
 90
    33791
280
     0
281
     1
  0
CLASS
  1
VAACXREFPANELOBJECT
  2
VaAcXREFPanelObject
  3
VAAC_ADDIN
 90
    32768
280
     1
281
     0
  0
CLASS
  1
VAACIMAGEINVENTORY
  2
VaAcImageInventory
  3
VAAC_ADDIN
 90
    32768
280
     1
281
     0
  0
CLASS
  1
ACAMEXTERNALCOMPDEF
  2
AcAmExternalCompDef
  3
DesignerAssemblies
 90
    32768
280
     0
281
     0
  0
CLASS
  1
ACCMBODY
  2
AcCmBody
  3
DesignerAssemblies
 90
    32768
280
     0
281
     0
  0
CLASS
  1
ACAMCOMPENT
  2
AcAmCompEnt
  3
DesignerAssemblies
 90
    32768
280
     0
281
     1
  0
CLASS
  1
ACAMCOMPFEEDBACK
  2
AcAmCompFeedback
  3
DesignerAssemblies
 90
    32768
280
     0
281
     0
  0
CLASS
  1
ACAMCOMP
  2
AcAmComp
  3
DesignerAssemblies
 90
    32768
280
     0
281
     0
  0
CLASS
  1
ACAMCOMPENTCLONE
  2
AcAmCompEntClone
  3
DesignerAssemblies
 90
    32768
280
     0
281
     1
  0
CLASS
  1
ACAMCLONEREACTOR
  2
AcAmGrCompCloneReactor
  3
DesignerAssemblies
 90
    32768
280
     0
281
     0
  0
CLASS
  1
ACAMXREFCONTEXTMODELER
  2
AcAmXrefContextModeler
  3
DesignerAssemblies
 90
    32768
280
     0
281
     0
  0
CLASS
  1
ADPART
  2
AcAdPart
  3
DesignerServices
 90
    32768
280
     0
281
     1
  0
CLASS
  1
WORKPLANEDISPLAYMGR
  2
AcAdDisplayMgr
  3
DesignerServices
 90
    32768
280
     0
281
     0
  0
CLASS
  1
ADBASE
  2
AcAdBase
  3
DesignerServices
 90
    32768
280
     0
281
     0
  0
CLASS
  1
ADDATUMPLANEABS
  2
AcAdDatumPlaneAbs
  3
DesignerServices
 90
    32768
280
     0
281
     0
  0
CLASS
  1
ADDATUMAXISABS
  2
AcAdDatumAxisAbs
  3
DesignerServices
 90
    32768
280
     0
281
     0
  0
CLASS
  1
PARAM
  2
AcAdParam
  3
DesignerServices
 90
    32768
280
     0
281
     0
  0
CLASS
  1
BODYID
  2
AcAdBodyId
  3
DesignerServices
 90
    32768
280
     0
281
     0
  0
CLASS
  1
ADDATUMORIENTEDPLANE
  2
AcAdDatumOrientedPlane
  3
DesignerServices
 90
    32768
280
     0
281
     0
  0
CLASS
  1
ACADCONSGROUP
  2
AcAdConstraintGroup
  3
DesignerServices
 90
    32768
280
     0
281
     0
  0
CLASS
  1
ACADREFLINEACAD
  2
AcAdVirtualReferenceLine
  3
DesignerServices
 90
    32768
280
     0
281
     0
  0
CLASS
  1
ACADCONSLINE
  2
AcAdConstrainedLine
  3
DesignerServices
 90
    32768
280
     0
281
     0
  0
CLASS
  1
ACADLINEACAD
  2
AcAdVirtualBoundedLineAcad
  3
DesignerServices
 90
    32768
280
     0
281
     0
  0
CLASS
  1
ACADCONSPOINT
  2
AcAdConstrainedPoint
  3
DesignerServices
 90
    32768
280
     0
281
     0
  0
CLASS
  1
ADPCURCNS
  2
AcAdPointCurveConstr
  3
DesignerServices
 90
    32768
280
     0
281
     0
  0
CLASS
  1
ADHORCNS
  2
AcAdHorizontalConstr
  3
DesignerServices
 90
    32768
280
     0
281
     0
  0
CLASS
  1
ADVERCNS
  2
AcAdVerticalConstr
  3
DesignerServices
 90
    32768
280
     0
281
     0
  0
CLASS
  1
ACAD_FIXCONSTRAINT
  2
AcAdFixedConstraint
  3
DesignerServices
 90
    32768
280
     0
281
     0
  0
CLASS
  1
ADHDISTCNS
  2
AcAdHorizontalDistanceConstr
  3
DesignerServices
 90
    32768
280
     0
281
     0
  0
CLASS
  1
ADVDISTCNS
  2
AcAdVerticalDistanceConstr
  3
DesignerServices
 90
    32768
280
     0
281
     0
  0
CLASS
  1
ACADIMPPTACAD
  2
AcAdVirtualImplicitPoint
  3
DesignerServices
 90
    32768
280
     0
281
     0
  0
CLASS
  1
ADCLPROF2D
  2
AcAdClosedProfile2d
  3
DesignerServices
 90
    32768
280
     0
281
     0
  0
CLASS
  1
DEPEDGEFEATUREORDERING
  2
AcAdDepEdgeFeatureOrdering
  3
DesignerServices
 90
    32768
280
     0
281
     0
  0
CLASS
  1
ACADVOLFEATWITHTRIM
  2
AcAdVolFeatWithTrim
  3
DesignerServices
 90
    32768
280
     0
281
     0
  0
CLASS
  1
ADPLANEID
  2
AcAdPlaneId
  3
DesignerServices
 90
    32768
280
     0
281
     0
  0
CLASS
  1
EDGEID
  2
AcAdEdgeId
  3
DesignerServices
 90
    32768
280
     0
281
     0
  0
CLASS
  1
CNRREFID
  2
AcAdCornerId
  3
DesignerServices
 90
    32768
280
     0
281
     0
  0
CLASS
  1
STREFID
  2
AcAdStraightRefId
  3
DesignerServices
 90
    32768
280
     0
281
     0
  0
CLASS
  1
ADDATUMPLANEFACE
  2
AcAdDatumPlaneFace
  3
DesignerServices
 90
    32768
280
     0
281
     0
  0
CLASS
  1
DATUMPLANEDISPLAY
  2
AcAdDatumPlaneDisplay
  3
DesignerServices
 90
    32768
280
     0
281
     1
  0
CLASS
  1
ADDATUMPLANEOFFSET
  2
AcAdDatumPlaneOffset
  3
DesignerServices
 90
    32768
280
     0
281
     0
  0
CLASS
  1
ADACADANGCNS
  2
AcAdAcadAngleConstr
  3
DesignerServices
 90
    32768
280
     0
281
     0
  0
CLASS
  1
ACADLINEDEPID
  2
AcAdVirtualLineDepId
  3
DesignerServices
 90
    32768
280
     0
281
     0
  0
CLASS
  1
ADCOLNCNS
  2
AcAdColinearConstr
  3
DesignerServices
 90
    32768
280
     0
281
     0
  0
CLASS
  1
ACADPOINTDEPID
  2
AcAdVirtualPointDepId
  3
DesignerServices
 90
    32768
280
     0
281
     0
  0
CLASS
  1
ACADCIRCLEACAD
  2
AcAdVirtualCircleAcad
  3
DesignerServices
 90
    32768
280
     0
281
     0
  0
CLASS
  1
ACADCONSCIRCLE
  2
AcAdConstrainedCircle
  3
DesignerServices
 90
    32768
280
     0
281
     0
  0
CLASS
  1
ADCTRPTCNS
  2
AcAdCenterPointConstr
  3
DesignerServices
 90
    32768
280
     0
281
     0
  0
CLASS
  1
ADACADDIACNS
  2
AcAdAcadDiameterConstr
  3
DesignerServices
 90
    32768
280
     0
281
     0
  0
CLASS
  1
ACADARCACAD
  2
AcAdVirtualArcAcad
  3
DesignerServices
 90
    32768
280
     0
281
     0
  0
CLASS
  1
ADTANCNS
  2
AcAdTangentConstr
  3
DesignerServices
 90
    32768
280
     0
281
     0
  0
CLASS
  1
ADPARCNS
  2
AcAdParallelConstr
  3
DesignerServices
 90
    32768
280
     0
281
     0
  0
CLASS
  1
ADCONCCNS
  2
AcAdConcentricConstr
  3
DesignerServices
 90
    32768
280
     0
281
     0
  0
CLASS
  1
ADEQRADCNS
  2
AcAdEqualRadiusConstr
  3
DesignerServices
 90
    32768
280
     0
281
     0
  0
CLASS
  1
ADACADRADCNS
  2
AcAdAcadRadiusConstr
  3
DesignerServices
 90
    32768
280
     0
281
     0
  0
CLASS
  1
CIRREFID
  2
AcAdCircleRefId
  3
DesignerServices
 90
    32768
280
     0
281
     0
  0
CLASS
  1
ACADCIRCDEPID
  2
AcAdVirtualCircleDepId
  3
DesignerServices
 90
    32768
280
     0
281
     0
  0
CLASS
  1
ADFILLET
  2
AcAdFillet
  3
DesignerServices
 90
    32768
280
     0
281
     0
  0
CLASS
  1
ADSURFGEOMID
  2
AcAdSurfGeomId
  3
DesignerServices
 90
    32768
280
     0
281
     0
  0
CLASS
  1
DATUMAXISDISPLAY
  2
AcAdDatumAxisDisplay
  3
DesignerServices
 90
    32768
280
     0
281
     1
  0
CLASS
  1
ADDATUMAXISCENTER
  2
AcAdDatumAxisCenter
  3
DesignerServices
 90
    32768
280
     0
281
     0
  0
CLASS
  1
DEPEDGESECONDARYDEPID
  2
AcAdDepEdgeSecondaryDepId
  3
DesignerServices
 90
    32768
280
     0
281
     0
  0
CLASS
  1
ADDATUMPOINTAXISPLANE
  2
AcAdDatumPointAxisPlane
  3
DesignerServices
 90
    32768
280
     0
281
     0
  0
CLASS
  1
ADHOLEFEAT
  2
AcAdHoleFeat
  3
DesignerServices
 90
    32768
280
     0
281
     0
  0
CLASS
  1
ADDATUMPLANEAXISPLANE
  2
AcAdDatumPlaneAxisPlane
  3
DesignerServices
 90
    32768
280
     0
281
     0
  0
CLASS
  1
ACADBOUNDEDLINEDATUMID
  2
AcAdVirtualBoundedLineDatumId
  3
DesignerServices
 90
    32768
280
     0
281
     0
  0
CLASS
  1
OSTREFID
  2
AcAdOrientedStraightRefId
  3
DesignerServices
 90
    32768
280
     0
281
     0
  0
CLASS
  1
ADDATUMPOINT2EDGES
  2
AcAdDatumPoint2Edges
  3
DesignerServices
 90
    32768
280
     0
281
     0
  0
CLASS
  1
DEPEDGEPATTERNFEATURE
  2
AcAdDepEdgePatternFeature
  3
DesignerServices
 90
    32768
280
     0
281
     0
  0
CLASS
  1
ACADPATTNFEAT
  2
AcAdPatternFeat
  3
DesignerServices
 90
    32768
280
     0
281
     0
  0
CLASS
  1
SORTENTSTABLE
  2
AcDbSortentsTable
  3
ObjectDBX Classes
 90
        0
280
     0
281
     0
  0
CLASS
  1
ACAMGROUNDEDBASECOMP
  2
AcAmGroundedBaseComp
  3
DesignerAssemblies
 90
    32768
280
     0
281
     0
  0
CLASS
  1
ADPROJCNS
  2
AcAdProjectionConstr
  3
DesignerServices
 90
    32768
280
     0
281
     0
  0
CLASS
  1
ADPDISTCNS
  2
AcAdParallelDistanceConstr
  3
DesignerServices
 90
    32768
280
     0
281
     0
  0
CLASS
  1
DEPEDGEPATTERNINSTANCE
  2
AcAdDepEdgePatternInstance
  3
DesignerServices
 90
    32768
280
     0
281
     0
  0
CLASS
  1
ADPCOICNS
  2
AcAdPointCoincidenceConstr
  3
DesignerServices
 90
    32768
280
     0
281
     0
  0
CLASS
  1
ACADPARTLINEDGRES
  2
AcAdPartLinEdgRes
  3
AdGrefServices
 90
    32768
280
     0
281
     0
  0
CLASS
  1
ACRFINSADJ
  2
AcRfInsAdjuster
  3
AcMeServices
 90
    32768
280
     0
281
     0
  0
CLASS
  1
ACMEAXIS
  2
AcImAxisDisplay
  3
AcMeServices
 90
    32768
280
     0
281
     1
  0
CLASS
  1
FACEID
  2
AcAdFaceId
  3
DesignerServices
 90
    32768
280
     0
281
     0
  0
CLASS
  1
ACADPARTPLANARFACERES
  2
AcAdPartPlanarFaceRes
  3
AdGrefServices
 90
    32768
280
     0
281
     0
  0
CLASS
  1
ACMELINEARARROW
  2
AcImLinearArrowDisplay
  3
AcMeServices
 90
    32768
280
     0
281
     1
  0
CLASS
  1
ACADPARTCIRCEDGRES
  2
AcAdPartCircEdgRes
  3
AdGrefServices
 90
    32768
280
     0
281
     0
  0
CLASS
  1
ACADPARTCYLINDERFACERES
  2
AcAdPartCylinderFaceRes
  3
AdGrefServices
 90
    32768
280
     0
281
     0
  0
CLASS
  1
ACAMEXPR
  2
AcAmExpr
  3
DesignerAssemblies
 90
    32768
280
     0
281
     0
  0
CLASS
  1
ACCMDISTPLPL
  2
AcCmDistPlPl
  3
DesignerAssemblies
 90
    32768
280
     0
281
     0
  0
CLASS
  1
ACCMCONSTREACTOR
  2
AcCmConstraintReactor
  3
DesignerAssemblies
 90
    32768
280
     0
281
     0
  0
CLASS
  1
ACCMDISTLNLN
  2
AcCmDistLnLn
  3
DesignerAssemblies
 90
    32768
280
     0
281
     0
  0
CLASS
  1
ACCMANGVECVEC
  2
AcCmAngVecVec
  3
DesignerAssemblies
 90
    32768
280
     0
281
     0
  0
CLASS
  1
ACAMBLANKBODYCOMP
  2
AcAmBlankBodyComp
  3
DesignerAssemblies
 90
    32768
280
     0
281
     0
  0
CLASS
  1
ACAMTOOLBODYCOMP
  2
AcAmToolBodyComp
  3
DesignerAssemblies
 90
    32768
280
     0
281
     0
  0
CLASS
  1
ADPARAMETRICBOOLEAN
  2
AcAdParametricBoolean
  3
DesignerServices
 90
    32768
280
     0
281
     0
  0
CLASS
  1
DEPEDGEPARAMETRCBOOLORDERING
  2
AcAdDepEdgeParametricBooleanOrdering
  3
DesignerServices
 90
    32768
280
     0
281
     0
  0
CLASS
  1
AMACTIVEPARTSELECTFILTER
  2
AcDmActivePartViewEntFilter
  3
DesignerServices
 90
    32768
280
     0
281
     0
  0
CLASS
  1
AM_GREF_PLANE
  2
AcDmGrefPlnDef
  3
AcMechDwgViewMgmt
 90
    32768
280
     0
281
     0
  0
CLASS
  1
AM_ABS_AXIS
  2
AcDmAbsAxisDef
  3
AcMechDwgViewMgmt
 90
    32768
280
     0
281
     0
  0
CLASS
  1
AM_BASE_VIEW_ORIENT
  2
AcDmBaseViewOr
  3
AcMechDwgViewMgmt
 90
    32768
280
     0
281
     0
  0
CLASS
  1
AM_DWG_VIEWPORT
  2
AcDmViewport
  3
AcMechDwgViewMgmt
 90
    32768
280
     0
281
     0
  0
CLASS
  1
AM_VIEW_DISPLAY
  2
AcDmDwgViewDisplay
  3
AcMechDwgViewMgmt
 90
    32768
280
     0
281
     0
  0
CLASS
  1
AM_CLDFLTS
  2
AcDmClDflts
  3
AcMechDwgViewMgmt
 90
    32768
280
     0
281
     0
  0
CLASS
  1
AM_BASE_VIEW
  2
AcDmBaseView
  3
AcMechDwgViewMgmt
 90
    32768
280
     0
281
     0
  0
CLASS
  1
ACMEPLINE
  2
AcImPlineDisplay
  3
AcMeServices
 90
    32768
280
     0
281
     1
  0
CLASS
  1
ACDMPARTVIEWDATA
  2
AcDmPartViewData
  3
AcMechDwgViewMgmt
 90
    32768
280
     0
281
     0
  0
CLASS
  1
ACDMDISPLAYATTRIBS
  2
AcDmDisplayAttribs
  3
AcMechDwgViewMgmt
 90
    32768
280
     0
281
     0
  0
CLASS
  1
ACDMBODYINSTANCEDATA
  2
AcDmBodyInstanceData
  3
AcMechDwgViewMgmt
 90
    32768
280
     0
281
     0
  0
CLASS
  1
ACDMVWEDLINE
  2
AcDmViewEdgeLine
  3
AcMechDwgViewMgmt
 90
    32768
280
     0
281
     1
  0
CLASS
  1
ACDMVWEDELLIPSE
  2
AcDmViewEdgeEllipse
  3
AcMechDwgViewMgmt
 90
    32768
280
     0
281
     1
  0
CLASS
  1
ACDMVWEDSPLINE
  2
AcDmViewEdgeSpline
  3
AcMechDwgViewMgmt
 90
    32768
280
     0
281
     1
  0
CLASS
  1
ACDMVWEDARC
  2
AcDmViewEdgeArc
  3
AcMechDwgViewMgmt
 90
    32768
280
     0
281
     1
  0
CLASS
  1
ACDMVWEDCIRC
  2
AcDmViewEdgeCircle
  3
AcMechDwgViewMgmt
 90
    32768
280
     0
281
     1
  0
CLASS
  1
ACADPARTPOINTRES
  2
AcAdPartPointRes
  3
AdGrefServices
 90
    32768
280
     0
281
     0
  0
CLASS
  1
ACADPARTSKETCHPLANEAXISRES
  2
AcAdPartSketchPlaneAxisRes
  3
DesignerServices
 90
    32768
280
     0
281
     0
  0
CLASS
  1
AM_VIEWDIMPARALLEL
  2
AcDmViewDimParallel
  3
AcMechDwgViewMgmt
 90
    32768
280
     0
281
     0
  0
CLASS
  1
AMDTDMPARMAPDATA
  2
AmdtDmDimParMapData
  3
AcMechDwgViewMgmt
 90
    32768
280
     0
281
     0
  0
CLASS
  1
ACADPARTPBPOINTRES
  2
AcAdPartPBPointRes
  3
AdGrefServices
 90
    32768
280
     0
281
     0
  0
CLASS
  1
ACADSKETCHPOINTRES
  2
AcAdSketchPointRes
  3
DesignerServices
 90
    32768
280
     0
281
     0
  0
CLASS
  1
AM_VIEWDIMLINEAR
  2
AcDmViewDimLinear
  3
AcMechDwgViewMgmt
 90
    32768
280
     0
281
     0
  0
CLASS
  1
ACADSKETCHCIRCARCRES
  2
AcAdSketchCircArcRes
  3
DesignerServices
 90
    32768
280
     0
281
     0
  0
CLASS
  1
AM_VIEWDIMDIAMETER
  2
AcDmViewDimDiameter
  3
AcMechDwgViewMgmt
 90
    32768
280
     0
281
     0
  0
CLASS
  1
ACADSKETCHLINERES
  2
AcAdSketchLineRes
  3
DesignerServices
 90
    32768
280
     0
281
     0
  0
CLASS
  1
AM_VIEWDIMANGULAR
  2
AcDmViewDimAngular
  3
AcMechDwgViewMgmt
 90
    32768
280
     0
281
     0
  0
CLASS
  1
AM_ADLINCTRLINE
  2
AcAdLineCl
  3
DesignerServices
 90
    32768
280
     0
281
     0
  0
CLASS
  1
AM_ADCIRCTRLINE
  2
AcAdBullsEyeCl
  3
DesignerServices
 90
    32768
280
     0
281
     0
  0
CLASS
  1
ACDBLINERES
  2
AcDbLineRes
  3
AcGrefServices
 90
    32768
280
     0
281
     0
  0
CLASS
  1
ACRFDMINSADJ
  2
AcRfDMInsAdjuster
  3
AcMechDwgViewMgmt
 90
    32768
280
     0
281
     0
  0
CLASS
  1
AM_ORTHO_VIEW_ORIENT
  2
AcDmOrthoViewOr
  3
AcMechDwgViewMgmt
 90
    32768
280
     0
281
     0
  0
CLASS
  1
AM_ORTHO_VIEW
  2
AcDmOrthoView
  3
AcMechDwgViewMgmt
 90
    32768
280
     0
281
     0
  0
CLASS
  1
AMDT_RADIAL_DIM
  2
AmdtRadialDimension
  3
AcMeServices
 90
    32768
280
     0
281
     1
  0
CLASS
  1
AM_VIEWDIMRADIUS
  2
AcDmViewDimRadius
  3
AcMechDwgViewMgmt
 90
    32768
280
     0
281
     0
  0
CLASS
  1
ACADPARTDATUMPOINTRES
  2
AcAdPartDatumPointRes
  3
AdGrefServices
 90
    32768
280
     0
281
     0
  0
CLASS
  1
AMDTEDGESTANDARDISO13715
  2
AmdtEdgeStdISO13715
  3
"Amdt_StdImp|Product Description: AutoCAD Mechanical 2004 DX|Company: Autodesk"
 90
        0
280
     0
281
     0
  0
CLASS
  1
DIMASSOC
  2
AcDbDimAssoc
  3
"AcDbDimAssoc|Product Desc:     AcDim ARX App For Dimension|Company:          Autodesk, Inc.|WEB Address:      www.autodesk.com"
 90
    32768
280
     0
281
     0
  0
CLASS
  1
MATERIAL
  2
AcDbMaterial
  3
ObjectDBX Classes
 90
        0
280
     0
281
     0
  0
CLASS
  1
ACRFATTGENMGR
  2
AcRfAttGeneralMgr
  3
AcAttribServices
 90
    32768
280
     0
281
     0
  0
ENDSEC
  0
SECTION
  2
TABLES
  0
TABLE
  2
VPORT
  5
1F
330
0
100
AcDbSymbolTable
 70
     1
  0
VPORT
  5
3773
330
1F
100
AcDbSymbolTableRecord
100
AcDbViewportTableRecord
  2
*Active
 70
     0
 10
0.0
 20
0.0
 11
1.0
 21
1.0
 12
-16384.0
 22
9.971098265895944E+18
 13
0.0
 23
0.0
 14
2.5
 24
2.5
 15
10.0
 25
10.0
 16
0.0
 26
0.0
 36
1.0
 17
0.0
 27
0.0
 37
0.0
 40
2.199421965317919E+20
 41
0.9093298291721419
 42
50.0
 43
0.0
 44
0.0
 50
0.0
 51
0.0
 71
     0
 72
   100
 73
     1
 74
     1
 75
     0
 76
     0
 77
     0
 78
     0
281
     0
 65
     1
110
0.0
120
0.0
130
0.0
111
1.0
121
0.0
131
0.0
112
0.0
122
1.0
132
0.0
 79
     0
146
0.0
  0
ENDTAB
  0
TABLE
  2
LTYPE
  5
1A
330
0
100
AcDbSymbolTable
 70
    16
  0
LTYPE
  5
1B
330
1A
100
AcDbSymbolTableRecord
100
AcDbLinetypeTableRecord
  2
BYBLOCK
 70
     0
  3

 72
    65
 73
     0
 40
0.0
  0
LTYPE
  5
1C
330
1A
100
AcDbSymbolTableRecord
100
AcDbLinetypeTableRecord
  2
BYLAYER
 70
     0
  3

 72
    65
 73
     0
 40
0.0
  0
LTYPE
  5
9
330
1A
100
AcDbSymbolTableRecord
100
AcDbLinetypeTableRecord
  2
CONTINUOUS
 70
     0
  3
Solid line
 72
    65
 73
     0
 40
0.0
  0
LTYPE
  5
38
330
1A
100
AcDbSymbolTableRecord
100
AcDbLinetypeTableRecord
  2
AM_ISO08W050x2
 70
     0
  3
__ . __ . __ . __ . __ . __
 72
    65
 73
     4
 40
9.0
 49
6.0
 74
     0
 49
-0.75
 74
     0
 49
1.5
 74
     0
 49
-0.75
 74
     0
  0
LTYPE
  5
264
330
1A
100
AcDbSymbolTableRecord
100
AcDbLinetypeTableRecord
  2
HIDDEN
 70
     0
  3
Hidden __ __ __ __ __ __ __ __ __ __ __ __ __ _
 72
    65
 73
     2
 40
9.524999999999996
 49
6.349999999999998
 74
     0
 49
-3.174999999999998
 74
     0
  0
LTYPE
  5
265
330
1A
100
AcDbSymbolTableRecord
100
AcDbLinetypeTableRecord
  2
PHANTOM2
 70
     0
  3
Phantom (.5x) ___ _ _ ___ _ _ ___ _ _ ___ _ _
 72
    65
 73
     6
 40
31.75
 49
15.875
 74
     0
 49
-3.174999999999998
 74
     0
 49
3.174999999999998
 74
     0
 49
-3.174999999999998
 74
     0
 49
3.174999999999998
 74
     0
 49
-3.174999999999998
 74
     0
  0
LTYPE
  5
266
330
1A
100
AcDbSymbolTableRecord
100
AcDbLinetypeTableRecord
  2
CENTER
 70
     0
  3
Center ____ _ ____ _ ____ _ ____ _ ____ _ ____
 72
    65
 73
     4
 40
50.8
 49
31.75
 74
     0
 49
-6.349999999999998
 74
     0
 49
6.349999999999998
 74
     0
 49
-6.349999999999998
 74
     0
  0
LTYPE
  5
29A
330
1A
100
AcDbSymbolTableRecord
100
AcDbLinetypeTableRecord
  2
AM_ISO02W050
 70
     0
  3
__ __ __ __ __ __ __ __ __ __ __ __ __ __ __
 72
    65
 73
     2
 40
7.5
 49
6.0
 74
     0
 49
-1.5
 74
     0
  0
LTYPE
  5
29B
330
1A
100
AcDbSymbolTableRecord
100
AcDbLinetypeTableRecord
  2
AM_ISO08W050
 70
     0
  3
____ . ____ . ____ . ____ . ____ . ____ . ____
 72
    65
 73
     4
 40
18.0
 49
12.0
 74
     0
 49
-1.5
 74
     0
 49
3.0
 74
     0
 49
-1.5
 74
     0
  0
LTYPE
  5
29C
330
1A
100
AcDbSymbolTableRecord
100
AcDbLinetypeTableRecord
  2
AM_ISO09W050
 70
     0
  3
_____ . . _____ . . _____ . . ____ .. ____
 72
    65
 73
     6
 40
22.5
 49
12.0
 74
     0
 49
-1.5
 74
     0
 49
3.0
 74
     0
 49
-1.5
 74
     0
 49
3.0
 74
     0
 49
-1.5
 74
     0
  0
LTYPE
  5
29D
330
1A
100
AcDbSymbolTableRecord
100
AcDbLinetypeTableRecord
  2
Amconstr
 70
     0
  3
_______________________
 72
    65
 73
     2
 40
9999.0
 49
9999.0
 74
     0
 49
0.0
 74
     0
  0
LTYPE
  5
29E
330
1A
100
AcDbSymbolTableRecord
100
AcDbLinetypeTableRecord
  2
AM_ISO02W050x2
 70
     0
  3
 _ _ _ _ _ _ _ _ _ _ _ _
 72
    65
 73
     2
 40
3.75
 49
3.0
 74
     0
 49
-0.75
 74
     0
  0
LTYPE
  5
2A1
330
1A
100
AcDbSymbolTableRecord
100
AcDbLinetypeTableRecord
  2
Amzigzag
 70
     0
  3
/\/-/\/-/\/-/\/-/\/-/\/
 72
    65
 73
     2
 40
11.0001
 49
0.0001
 74
     4
 75
   135
340
2A0
 46
0.04
 50
0.0
 44
0.0
 45
0.0
 49
-11.0
 74
     0
  0
LTYPE
  5
2B0
330
1A
100
AcDbSymbolTableRecord
100
AcDbLinetypeTableRecord
  2
ACISOWELD
 70
     0
  3
_ _ _ _ _
 72
    65
 73
     2
 40
2.0
 49
2.0
 74
     0
 49
-1.0
 74
     0
  0
LTYPE
  5
2B1
330
1A
100
AcDbSymbolTableRecord
100
AcDbLinetypeTableRecord
  2
ACISOTGB
 70
     0
  3
__ . . __ . .
 72
    65
 73
     6
 40
9.0
 49
4.0
 74
     0
 49
-1.0
 74
     0
 49
1.0
 74
     0
 49
-1.0
 74
     0
 49
1.0
 74
     0
 49
-1.0
 74
     0
  0
LTYPE
  5
2B2
330
1A
100
AcDbSymbolTableRecord
100
AcDbLinetypeTableRecord
  2
ACISOTGL
 70
     0
  3
_ _ _ _ _
 72
    65
 73
     2
 40
3.0
 49
2.0
 74
     0
 49
-1.0
 74
     0
  0
LTYPE
  5
44D1
330
1A
100
AcDbSymbolTableRecord
100
AcDbLinetypeTableRecord
  2
ASULTYPE
 70
     0
  3
實線
 72
    65
 73
     2
 40
3.0
 49
2.5
 74
     0
 49
0.5
 74
     0
  0
LTYPE
  5
44D2
330
1A
100
AcDbSymbolTableRecord
100
AcDbLinetypeTableRecord
  2
ASVLTYPE
 70
     0
  3
__ __ __ __ __ __ __ __ __ __ __ __ __ __ __ __ __ __ __ __ __
 72
    65
 73
     2
 40
0.75
 49
0.5
 74
     0
 49
-0.25
 74
     0
  0
ENDTAB
  0
TABLE
  2
LAYER
  5
14
102
{ACAD_XDICTIONARY
360
15
102
}
330
0
100
AcDbSymbolTable
 70
     7
  0
LAYER
  5
5
330
14
100
AcDbSymbolTableRecord
100
AcDbLayerTableRecord
  2
0
 70
     0
 62
     7
  6
CONTINUOUS
370
    -3
390
6
  0
LAYER
  5
2D6
330
14
100
AcDbSymbolTableRecord
100
AcDbLayerTableRecord
  2
LOGO
 70
     0
 62
     7
  6
CONTINUOUS
370
    -3
390
6
  0
LAYER
  5
2D7
330
14
100
AcDbSymbolTableRecord
100
AcDbLayerTableRecord
  2
Defpoints
 70
     0
 62
     7
  6
CONTINUOUS
290
     0
370
    -3
390
6
  0
LAYER
  5
3000
330
14
100
AcDbSymbolTableRecord
100
AcDbLayerTableRecord
  2
AM_VIS
 70
     0
 62
     7
  6
CONTINUOUS
370
    50
390
6
  0
LAYER
  5
349B
330
14
100
AcDbSymbolTableRecord
100
AcDbLayerTableRecord
  2
AM_5
 70
     0
 62
     5
  6
CONTINUOUS
370
    50
390
6
  0
LAYER
  5
3517
330
14
100
AcDbSymbolTableRecord
100
AcDbLayerTableRecord
  2
AM_7
 70
     0
 62
     1
  6
AM_ISO08W050
370
    25
390
6
  0
LAYER
  5
378E
330
14
100
AcDbSymbolTableRecord
100
AcDbLayerTableRecord
  2
圖層1
 70
     0
 62
     3
  6
AM_ISO02W050x2
370
    -3
390
6
1001
AcAecLayerStandard
1000

1000

  0
ENDTAB
  0
TABLE
  2
STYLE
  5
17
330
0
100
AcDbSymbolTable
 70
     5
  0
STYLE
  5
18
330
17
100
AcDbSymbolTableRecord
100
AcDbTextStyleTableRecord
  2
STANDARD
 70
     0
 40
0.0
 41
1.0
 50
0.0
 71
     0
 42
1.0
  3
ISOCP.SHX
  4
CHINESET.SHX
  0
STYLE
  5
2A0
330
17
100
AcDbSymbolTableRecord
100
AcDbTextStyleTableRecord
  2

 70
     1
 40
0.0
 41
1.0
 50
0.0
 71
     0
 42
1.0
  3
ltypeshp.shx
  4

  0
STYLE
  5
2A2
330
17
100
AcDbSymbolTableRecord
100
AcDbTextStyleTableRecord
  2
ACISOTS
 70
     0
 40
1.0
 41
1.0
 50
0.0
 71
     0
 42
1.0
  3
isocp.shx
  4
chineset.shx
  0
STYLE
  5
2AF
330
17
100
AcDbSymbolTableRecord
100
AcDbTextStyleTableRecord
  2
ACISOGDT
 70
     0
 40
0.0
 41
1.0
 50
0.0
 71
     0
 42
1.0
  3
amgdt.shx
  4

  0
STYLE
  5
2D9
330
17
100
AcDbSymbolTableRecord
100
AcDbTextStyleTableRecord
  2
CHINESET
 70
     0
 40
0.0
 41
1.0
 50
0.0
 71
     0
 42
1.0
  3
simplex
  4
CHINESET.SHX
  0
ENDTAB
  0
TABLE
  2
VIEW
  5
1D
330
0
100
AcDbSymbolTable
 70
     0
  0
ENDTAB
  0
TABLE
  2
UCS
  5
1E
330
0
100
AcDbSymbolTable
 70
     0
  0
ENDTAB
  0
TABLE
  2
APPID
  5
21
330
0
100
AcDbSymbolTable
 70
    24
  0
APPID
  5
22
330
21
100
AcDbSymbolTableRecord
100
AcDbRegAppTableRecord
  2
ACAD
 70
     0
  0
APPID
  5
13
330
21
100
AcDbSymbolTableRecord
100
AcDbRegAppTableRecord
  2
ACAD_PSEXT
 70
     0
  0
APPID
  5
237
330
21
100
AcDbSymbolTableRecord
100
AcDbRegAppTableRecord
  2
MCAD_NO_VIS
 70
     0
  0
APPID
  5
238
330
21
100
AcDbSymbolTableRecord
100
AcDbRegAppTableRecord
  2
ACAD_TEMP_GRAPHIC
 70
     0
  0
APPID
  5
268
330
21
100
AcDbSymbolTableRecord
100
AcDbRegAppTableRecord
  2
AD_DRAW
 70
     0
  0
APPID
  5
26B
330
21
100
AcDbSymbolTableRecord
100
AcDbRegAppTableRecord
  2
ACATTRIBSERVICES
 70
     0
  0
APPID
  5
289
330
21
100
AcDbSymbolTableRecord
100
AcDbRegAppTableRecord
  2
DESIGNERASSEMBLIES
 70
     0
  0
APPID
  5
28F
330
21
100
AcDbSymbolTableRecord
100
AcDbRegAppTableRecord
  2
ACADM_DIM_EDIT
 70
     0
  0
APPID
  5
290
330
21
100
AcDbSymbolTableRecord
100
AcDbRegAppTableRecord
  2
AMDT_DM_ADJ
 70
     0
  0
APPID
  5
2DB
330
21
100
AcDbSymbolTableRecord
100
AcDbRegAppTableRecord
  2
GENIUS_GENOBJ-N-CRS_13
 70
     0
  0
APPID
  5
2DC
330
21
100
AcDbSymbolTableRecord
100
AcDbRegAppTableRecord
  2
GENIUS_GENOLIS_13
 70
     0
  0
APPID
  5
2DD
330
21
100
AcDbSymbolTableRecord
100
AcDbRegAppTableRecord
  2
GENIUS_GENOENT_13
 70
     0
  0
APPID
  5
2DE
330
21
100
AcDbSymbolTableRecord
100
AcDbRegAppTableRecord
  2
GENIUS_GENODEF_13
 70
     0
  0
APPID
  5
2DF
330
21
100
AcDbSymbolTableRecord
100
AcDbRegAppTableRecord
  2
GENIUS_GENOREF_13
 70
     0
  0
APPID
  5
2E0
330
21
100
AcDbSymbolTableRecord
100
AcDbRegAppTableRecord
  2
GENIUS_GENREC_14
 70
     0
  0
APPID
  5
2E1
330
21
100
AcDbSymbolTableRecord
100
AcDbRegAppTableRecord
  2
GENIUS_GENOBJ-N-REC_13
 70
     0
  0
APPID
  5
DE2
330
21
100
AcDbSymbolTableRecord
100
AcDbRegAppTableRecord
  2
ACAD_DSTYLE_DIMTEXT_FILL
 70
     0
  0
APPID
  5
E2A
330
21
100
AcDbSymbolTableRecord
100
AcDbRegAppTableRecord
  2
GENIUS_GENDIMSH_14
 70
     0
  0
APPID
  5
F24
330
21
100
AcDbSymbolTableRecord
100
AcDbRegAppTableRecord
  2
GENIUS_GENDTOL_13
 70
     0
  0
APPID
  5
11BF
330
21
100
AcDbSymbolTableRecord
100
AcDbRegAppTableRecord
  2
AcAecLayerStandard
 70
     0
  0
APPID
  5
3E2F
330
21
100
AcDbSymbolTableRecord
100
AcDbRegAppTableRecord
  2
GENIUS_GENDIM_13
 70
     0
  0
APPID
  5
3E30
330
21
100
AcDbSymbolTableRecord
100
AcDbRegAppTableRecord
  2
GENIUS_GE3DTOL_13
 70
     0
  0
APPID
  5
3EAE
330
21
100
AcDbSymbolTableRecord
100
AcDbRegAppTableRecord
  2
ASURF_PCURVE_APPNAME
 70
     0
  0
APPID
  5
3EB3
330
21
100
AcDbSymbolTableRecord
100
AcDbRegAppTableRecord
  2
AMG_3D2D_5.0
 70
     0
  0
ENDTAB
  0
TABLE
  2
DIMSTYLE
  5
23
330
0
100
AcDbSymbolTable
 70
     9
100
AcDbDimStyleTable
 71
     3
340
24
340
25
340
26
  0
DIMSTYLE
105
24
330
23
100
AcDbSymbolTableRecord
100
AcDbDimStyleTableRecord
  2
AM_ISO
 70
     0
  4
"
 41
3.0
 42
1.0
 43
10.0
 44
1.0
 47
0.1
 48
0.1
 73
     0
 74
     0
 77
     1
 78
     8
 79
     2
140
3.5
141
0.0
143
0.0393701
146
0.71
147
1.0
172
     1
176
   256
177
   256
178
   256
271
     2
272
     2
283
     0
284
     8
285
     8
340
18
371
    -1
372
    -1
  0
DIMSTYLE
105
25
330
23
100
AcDbSymbolTableRecord
100
AcDbDimStyleTableRecord
  2
AM_ISO$SF
 70
     0
  4
"
 41
2.5
 42
1.0
 43
10.0
 44
1.0
 47
0.1
 48
0.1
 73
     0
 74
     0
 75
     1
 76
     1
 77
     1
 78
     8
 79
     2
140
3.5
141
0.0
143
0.0393701
146
0.71
147
1.0
172
     1
176
   256
177
   256
178
   256
271
     2
272
     2
283
     0
284
     8
340
18
371
    -1
372
    -1
  0
DIMSTYLE
105
26
330
23
100
AcDbSymbolTableRecord
100
AcDbDimStyleTableRecord
  2
AM_ISO$SH
 70
     0
  4
"
 41
2.5
 42
1.0
 43
10.0
 44
1.0
 47
0.1
 48
0.1
 73
     0
 74
     0
 75
     1
 76
     1
 77
     1
 78
     8
 79
     2
140
3.5
141
0.0
143
0.0393701
144
2.0
146
0.71
147
1.0
172
     1
173
     1
176
   256
177
   256
178
   256
271
     2
272
     2
283
     0
284
     8
340
18
343
27
371
    -1
372
    -1
  0
DIMSTYLE
105
2BB
330
23
100
AcDbSymbolTableRecord
100
AcDbDimStyleTableRecord
  2
AM_ISO$3
 70
     0
  4
"
 41
3.0
 42
1.0
 43
10.0
 44
1.0
 47
0.1
 48
0.1
 73
     0
 77
     1
 78
     8
 79
     2
140
3.5
141
0.0
143
0.0393701
146
0.71
147
1.0
176
   256
177
   256
178
   256
271
     2
272
     2
283
     0
284
     8
285
     8
288
     1
289
     0
340
18
371
    -1
372
    -1
  0
DIMSTYLE
105
2BC
102
{ACAD_REACTORS
330
440F
102
}
330
23
100
AcDbSymbolTableRecord
100
AcDbDimStyleTableRecord
  2
AM_ISO$4
 70
     0
  4
"
 41
3.0
 42
1.0
 43
10.0
 44
1.0
 47
0.1
 48
0.1
 73
     0
 77
     1
 78
     8
 79
     2
140
3.5
141
0.0
143
0.0393701
146
0.71
147
1.0
176
   256
177
   256
178
   256
271
     2
272
     2
283
     0
284
     8
285
     8
288
     1
289
     0
340
18
371
    -1
372
    -1
  0
DIMSTYLE
105
2BD
330
23
100
AcDbSymbolTableRecord
100
AcDbDimStyleTableRecord
  2
AM_ISO$6
 70
     0
  4
"
 41
3.0
 42
1.0
 43
10.0
 44
1.0
 47
0.1
 48
0.1
 73
     0
 74
     0
 78
     8
 79
     2
140
3.5
141
0.0
143
0.0393701
146
0.71
147
1.0
172
     1
176
   256
177
   256
178
   256
271
     2
272
     2
283
     0
284
     8
285
     8
340
18
371
    -1
372
    -1
  0
DIMSTYLE
105
2BE
102
{ACAD_REACTORS
330
3F05
330
3F10
102
}
330
23
100
AcDbSymbolTableRecord
100
AcDbDimStyleTableRecord
  2
AM_ISO$7
 70
     0
  4
"
 41
3.0
 42
1.0
 43
10.0
 44
1.0
 47
0.1
 48
0.1
 73
     0
 74
     0
 77
     1
 78
     8
 79
     2
140
3.5
141
0.0
143
0.0393701
146
0.71
147
1.5
172
     1
176
   256
177
   256
178
   256
271
     2
272
     2
283
     0
284
     8
285
     8
340
18
371
    -1
372
    -1
  0
DIMSTYLE
105
2DA
102
{ACAD_REACTORS
330
3C04
330
43BD
330
3DDC
330
3D0A
330
3CF4
330
3D97
330
3D66
102
}
330
23
100
AcDbSymbolTableRecord
100
AcDbDimStyleTableRecord
  2
AM_ISO$0
 70
     0
  4
"
 40
2.0
 41
3.0
 42
1.0
 43
10.0
 44
1.0
 47
0.1
 48
0.1
 73
     0
 74
     0
 77
     1
 78
     8
 79
     2
140
3.5
141
0.0
143
0.0393701
146
0.71
147
1.0
172
     1
176
   256
177
   256
178
   256
271
     2
272
     2
283
     0
284
     8
285
     8
340
18
371
    -1
372
    -1
  0
DIMSTYLE
105
1356
330
23
100
AcDbSymbolTableRecord
100
AcDbDimStyleTableRecord
  2
STANDARD
 70
     0
340
18
  0
ENDTAB
  0
TABLE
  2
BLOCK_RECORD
  5
1
330
0
100
AcDbSymbolTable
 70
    10
  0
BLOCK_RECORD
  5
2
102
{ACAD_XDICTIONARY
360
3
102
}
330
1
100
AcDbSymbolTableRecord
100
AcDbBlockTableRecord
  2
*MODEL_SPACE
340
B
  0
BLOCK_RECORD
  5
D
102
{ACAD_XDICTIONARY
360
1AC0
102
}
330
1
100
AcDbSymbolTableRecord
100
AcDbBlockTableRecord
  2
*PAPER_SPACE
340
10
  0
BLOCK_RECORD
  5
27
330
1
100
AcDbSymbolTableRecord
100
AcDbBlockTableRecord
  2
GENAXEH
340
0
  0
BLOCK_RECORD
  5
3C05
330
1
100
AcDbSymbolTableRecord
100
AcDbBlockTableRecord
  2
*D1
340
0
  0
BLOCK_RECORD
  5
3CF5
330
1
100
AcDbSymbolTableRecord
100
AcDbBlockTableRecord
  2
*D2
340
0
  0
BLOCK_RECORD
  5
3D0B
330
1
100
AcDbSymbolTableRecord
100
AcDbBlockTableRecord
  2
*D3
340
0
  0
BLOCK_RECORD
  5
3D67
330
1
100
AcDbSymbolTableRecord
100
AcDbBlockTableRecord
  2
*D4
340
0
  0
BLOCK_RECORD
  5
3D98
330
1
100
AcDbSymbolTableRecord
100
AcDbBlockTableRecord
  2
*D5
340
0
  0
BLOCK_RECORD
  5
3DDD
330
1
100
AcDbSymbolTableRecord
100
AcDbBlockTableRecord
  2
*D6
340
0
  0
BLOCK_RECORD
  5
43BE
330
1
100
AcDbSymbolTableRecord
100
AcDbBlockTableRecord
  2
*D7
340
0
  0
BLOCK_RECORD
  5
4410
330
1
100
AcDbSymbolTableRecord
100
AcDbBlockTableRecord
  2
*D8
340
0
  0
ENDTAB
  0
ENDSEC
  0
SECTION
  2
BLOCKS
  0
BLOCK
  5
4
330
2
100
AcDbEntity
  8
0
100
AcDbBlockBegin
  2
*MODEL_SPACE
 70
     0
 10
0.0
 20
0.0
 30
0.0
  3
*MODEL_SPACE
  1

  0
ENDBLK
  5
A
330
2
100
AcDbEntity
  8
0
100
AcDbBlockEnd
  0
BLOCK
  5
E
330
D
100
AcDbEntity
 67
     1
  8
0
100
AcDbBlockBegin
  2
*PAPER_SPACE
 70
     0
 10
0.0
 20
0.0
 30
0.0
  3
*PAPER_SPACE
  1

  0
ENDBLK
  5
F
330
D
100
AcDbEntity
 67
     1
  8
0
100
AcDbBlockEnd
  0
BLOCK
  5
28
330
27
100
AcDbEntity
  8
0
100
AcDbBlockBegin
  2
GENAXEH
 70
     0
 10
0.0
 20
0.0
 30
0.0
  3
GENAXEH
  1

  0
LINE
  5
29
330
27
100
AcDbEntity
  8
0
100
AcDbLine
 10
-1.0
 20
0.0
 30
0.0
 11
1.0
 21
0.0
 31
0.0
  0
ENDBLK
  5
2A
330
27
100
AcDbEntity
  8
0
100
AcDbBlockEnd
  0
BLOCK
  5
3C0F
330
3C05
100
AcDbEntity
  8
0
100
AcDbBlockBegin
  2
*D1
 70
     1
 10
0.0
 20
0.0
 30
0.0
  3
*D1
  1

  0
LINE
  5
4527
330
3C05
100
AcDbEntity
  8
AM_5
100
AcDbLine
 10
31.18770792686524
 20
50.41640879533131
 30
0.0
 11
31.18770792686524
 21
38.41640879533132
 31
0.0
  0
LINE
  5
4528
330
3C05
100
AcDbEntity
  8
AM_5
100
AcDbLine
 10
65.18770792686523
 20
50.41640879533134
 30
0.0
 11
65.18770792686523
 21
38.41640879533132
 31
0.0
  0
LINE
  5
4529
330
3C05
100
AcDbEntity
  8
AM_5
100
AcDbLine
 10
34.18770792686525
 20
39.41640879533132
 30
0.0
 11
62.18770792686523
 21
39.41640879533132
 31
0.0
  0
SOLID
  5
452A
330
3C05
100
AcDbEntity
  8
AM_5
100
AcDbTrace
 10
34.18770792686525
 20
39.91640879533132
 30
0.0
 11
34.18770792686525
 21
38.91640879533132
 31
0.0
 12
31.18770792686524
 22
39.41640879533132
 32
0.0
 13
31.18770792686524
 23
39.41640879533132
 33
0.0
  0
SOLID
  5
452B
330
3C05
100
AcDbEntity
  8
AM_5
100
AcDbTrace
 10
62.18770792686523
 20
39.91640879533132
 30
0.0
 11
62.18770792686523
 21
38.91640879533132
 31
0.0
 12
65.18770792686523
 22
39.41640879533132
 32
0.0
 13
65.18770792686523
 23
39.41640879533132
 33
0.0
  0
MTEXT
  5
452C
330
3C05
100
AcDbEntity
  8
AM_5
100
AcDbMText
 10
48.18770792686524
 20
42.16640879533132
 30
0.0
 40
3.5
 41
0.0
 71
     5
 72
     1
  1
34
 73
     1
 44
1.0
1001
ACAD
1000
MTEXTBEGIN
1070
    73
1070
     1
1070
    44
1040
1.0
1070
    74
1070
     0
1000
MTEXTEND
  0
POINT
  5
452D
330
3C05
100
AcDbEntity
  8
Defpoints
 62
     0
100
AcDbPoint
 10
31.18770792686524
 20
51.41640879533131
 30
0.0
  0
POINT
  5
452E
330
3C05
100
AcDbEntity
  8
Defpoints
 62
     0
100
AcDbPoint
 10
65.18770792686523
 20
51.41640879533134
 30
0.0
  0
POINT
  5
452F
330
3C05
100
AcDbEntity
  8
Defpoints
 62
     0
100
AcDbPoint
 10
65.18770792686523
 20
39.41640879533132
 30
0.0
  0
ENDBLK
  5
3C10
330
3C05
100
AcDbEntity
  8
0
100
AcDbBlockEnd
  0
BLOCK
  5
3CFF
330
3CF5
100
AcDbEntity
  8
0
100
AcDbBlockBegin
  2
*D2
 70
     1
 10
0.0
 20
0.0
 30
0.0
  3
*D2
  1

  0
LINE
  5
454D
330
3CF5
100
AcDbEntity
  8
AM_5
100
AcDbLine
 10
93.06136257010434
 20
77.64138953491928
 30
0.0
 11
93.06136257010434
 21
92.14138953491929
 31
0.0
  0
LINE
  5
454E
330
3CF5
100
AcDbEntity
  8
AM_5
100
AcDbLine
 10
115.0613625701043
 20
86.14138953491929
 30
0.0
 11
115.0613625701043
 21
92.14138953491929
 31
0.0
  0
LINE
  5
454F
330
3CF5
100
AcDbEntity
  8
AM_5
100
AcDbLine
 10
96.06136257010435
 20
91.14138953491929
 30
0.0
 11
112.0613625701043
 21
91.14138953491929
 31
0.0
  0
SOLID
  5
4550
330
3CF5
100
AcDbEntity
  8
AM_5
100
AcDbTrace
 10
96.06136257010435
 20
91.64138953491928
 30
0.0
 11
96.06136257010435
 21
90.64138953491928
 31
0.0
 12
93.06136257010434
 22
91.14138953491929
 32
0.0
 13
93.06136257010434
 23
91.14138953491929
 33
0.0
  0
SOLID
  5
4551
330
3CF5
100
AcDbEntity
  8
AM_5
100
AcDbTrace
 10
112.0613625701043
 20
91.64138953491928
 30
0.0
 11
112.0613625701043
 21
90.64138953491928
 31
0.0
 12
115.0613625701043
 22
91.14138953491929
 32
0.0
 13
115.0613625701043
 23
91.14138953491929
 33
0.0
  0
MTEXT
  5
4552
330
3CF5
100
AcDbEntity
  8
AM_5
100
AcDbMText
 10
104.0613625701043
 20
93.89173402310825
 30
0.0
 40
3.5
 41
0.0
 71
     5
 72
     1
  1
22
 73
     1
 44
1.0
1001
ACAD
1000
MTEXTBEGIN
1070
    73
1070
     1
1070
    44
1040
1.0
1070
    74
1070
     0
1000
MTEXTEND
  0
POINT
  5
4553
330
3CF5
100
AcDbEntity
  8
Defpoints
 62
     0
100
AcDbPoint
 10
93.06136257010434
 20
76.64138953491928
 30
0.0
  0
POINT
  5
4554
330
3CF5
100
AcDbEntity
  8
Defpoints
 62
     0
100
AcDbPoint
 10
115.0613625701043
 20
85.14138953491928
 30
0.0
  0
POINT
  5
4555
330
3CF5
100
AcDbEntity
  8
Defpoints
 62
     0
100
AcDbPoint
 10
115.0613625701043
 20
91.14138953491929
 30
0.0
  0
ENDBLK
  5
3D00
330
3CF5
100
AcDbEntity
  8
0
100
AcDbBlockEnd
  0
BLOCK
  5
3D15
330
3D0B
100
AcDbEntity
  8
0
100
AcDbBlockBegin
  2
*D3
 70
     1
 10
0.0
 20
0.0
 30
0.0
  3
*D3
  1

  0
LINE
  5
4568
330
3D0B
100
AcDbEntity
  8
AM_5
100
AcDbLine
 10
93.06136257010434
 20
77.64138953491928
 30
0.0
 11
93.06136257010434
 21
99.89138953491929
 31
0.0
  0
LINE
  5
4569
330
3D0B
100
AcDbEntity
  8
AM_5
100
AcDbLine
 10
147.0613625701043
 20
86.14138953491929
 30
0.0
 11
147.0613625701043
 21
99.89138953491929
 31
0.0
  0
LINE
  5
456A
330
3D0B
100
AcDbEntity
  8
AM_5
100
AcDbLine
 10
96.06136257010435
 20
98.89138953491929
 30
0.0
 11
144.0613625701043
 21
98.89138953491929
 31
0.0
  0
SOLID
  5
456B
330
3D0B
100
AcDbEntity
  8
AM_5
100
AcDbTrace
 10
96.06136257010435
 20
99.39138953491928
 30
0.0
 11
96.06136257010435
 21
98.39138953491929
 31
0.0
 12
93.06136257010434
 22
98.89138953491929
 32
0.0
 13
93.06136257010434
 23
98.89138953491929
 33
0.0
  0
SOLID
  5
456C
330
3D0B
100
AcDbEntity
  8
AM_5
100
AcDbTrace
 10
144.0613625701043
 20
99.39138953491928
 30
0.0
 11
144.0613625701043
 21
98.39138953491929
 31
0.0
 12
147.0613625701043
 22
98.89138953491929
 32
0.0
 13
147.0613625701043
 23
98.89138953491929
 33
0.0
  0
MTEXT
  5
456D
330
3D0B
100
AcDbEntity
  8
AM_5
100
AcDbMText
 10
120.0613625701043
 20
101.6413895349193
 30
0.0
 40
3.5
 41
0.0
 71
     5
 72
     1
  1
54
 73
     1
 44
1.0
1001
ACAD
1000
MTEXTBEGIN
1070
    73
1070
     1
1070
    44
1040
1.0
1070
    74
1070
     0
1000
MTEXTEND
  0
POINT
  5
456E
330
3D0B
100
AcDbEntity
  8
Defpoints
 62
     0
100
AcDbPoint
 10
93.06136257010434
 20
76.64138953491928
 30
0.0
  0
POINT
  5
456F
330
3D0B
100
AcDbEntity
  8
Defpoints
 62
     0
100
AcDbPoint
 10
147.0613625701043
 20
85.14138953491928
 30
0.0
  0
POINT
  5
4570
330
3D0B
100
AcDbEntity
  8
Defpoints
 62
     0
100
AcDbPoint
 10
147.0613625701043
 20
98.89138953491929
 30
0.0
  0
ENDBLK
  5
3D16
330
3D0B
100
AcDbEntity
  8
0
100
AcDbBlockEnd
  0
BLOCK
  5
3D71
330
3D67
100
AcDbEntity
  8
0
100
AcDbBlockBegin
  2
*D4
 70
     1
 10
0.0
 20
0.0
 30
0.0
  3
*D4
  1

  0
LINE
  5
455F
330
3D67
100
AcDbEntity
  8
AM_5
100
AcDbLine
 10
148.0613625701043
 20
78.64138953491925
 30
0.0
 11
162.9397588614946
 21
78.64138953491924
 31
0.0
  0
LINE
  5
4560
330
3D67
100
AcDbEntity
  8
AM_5
100
AcDbLine
 10
148.0613625701043
 20
56.64138953491925
 30
0.0
 11
162.9397588614946
 21
56.64138953491925
 31
0.0
  0
LINE
  5
4561
330
3D67
100
AcDbEntity
  8
AM_5
100
AcDbLine
 10
161.9397588614946
 20
75.64138953491924
 30
0.0
 11
161.9397588614946
 21
59.64138953491925
 31
0.0
  0
SOLID
  5
4562
330
3D67
100
AcDbEntity
  8
AM_5
100
AcDbTrace
 10
161.4397588614946
 20
75.64138953491924
 30
0.0
 11
162.4397588614946
 21
75.64138953491924
 31
0.0
 12
161.9397588614946
 22
78.64138953491924
 32
0.0
 13
161.9397588614946
 23
78.64138953491924
 33
0.0
  0
SOLID
  5
4563
330
3D67
100
AcDbEntity
  8
AM_5
100
AcDbTrace
 10
161.4397588614946
 20
59.64138953491925
 30
0.0
 11
162.4397588614946
 21
59.64138953491925
 31
0.0
 12
161.9397588614946
 22
56.64138953491925
 32
0.0
 13
161.9397588614946
 23
56.64138953491925
 33
0.0
  0
MTEXT
  5
4564
330
3D67
100
AcDbEntity
  8
AM_5
100
AcDbMText
 10
159.1894143733056
 20
68.01345876804612
 30
0.0
 40
3.5
 41
0.0
 71
     5
 72
     1
  1
M22*1.5
 11
0.0000000000000001
 21
1.0
 31
0.0
 73
     1
 44
1.0
1001
ACAD
1000
MTEXTBEGIN
1070
    73
1070
     1
1070
    44
1040
1.0
1070
    74
1070
     0
1000
MTEXTEND
  0
POINT
  5
4565
330
3D67
100
AcDbEntity
  8
Defpoints
 62
     0
100
AcDbPoint
 10
147.0613625701043
 20
78.64138953491925
 30
0.0
  0
POINT
  5
4566
330
3D67
100
AcDbEntity
  8
Defpoints
 62
     0
100
AcDbPoint
 10
147.0613625701043
 20
56.64138953491925
 30
0.0
  0
POINT
  5
4567
330
3D67
100
AcDbEntity
  8
Defpoints
 62
     0
100
AcDbPoint
 10
161.9397588614946
 20
56.64138953491925
 30
0.0
  0
ENDBLK
  5
3D72
330
3D67
100
AcDbEntity
  8
0
100
AcDbBlockEnd
  0
BLOCK
  5
3DA2
330
3D98
100
AcDbEntity
  8
0
100
AcDbBlockBegin
  2
*D5
 70
     1
 10
0.0
 20
0.0
 30
0.0
  3
*D5
  1

  0
LINE
  5
4556
330
3D98
100
AcDbEntity
  8
AM_5
100
AcDbLine
 10
147.0613625701043
 20
86.14138953491929
 30
0.0
 11
147.0613625701043
 21
92.14138953491929
 31
0.0
  0
LINE
  5
4557
330
3D98
100
AcDbEntity
  8
AM_5
100
AcDbLine
 10
136.0613625701043
 20
77.64138953491926
 30
0.0
 11
136.0613625701043
 21
92.14138953491929
 31
0.0
  0
LINE
  5
4558
330
3D98
100
AcDbEntity
  8
AM_5
100
AcDbLine
 10
144.0613625701043
 20
91.14138953491929
 30
0.0
 11
139.0613625701043
 21
91.14138953491929
 31
0.0
  0
SOLID
  5
4559
330
3D98
100
AcDbEntity
  8
AM_5
100
AcDbTrace
 10
144.0613625701043
 20
91.64138953491928
 30
0.0
 11
144.0613625701043
 21
90.64138953491928
 31
0.0
 12
147.0613625701043
 22
91.14138953491929
 32
0.0
 13
147.0613625701043
 23
91.14138953491929
 33
0.0
  0
SOLID
  5
455A
330
3D98
100
AcDbEntity
  8
AM_5
100
AcDbTrace
 10
139.0613625701043
 20
91.64138953491928
 30
0.0
 11
139.0613625701043
 21
90.64138953491928
 31
0.0
 12
136.0613625701043
 22
91.14138953491929
 32
0.0
 13
136.0613625701043
 23
91.14138953491929
 33
0.0
  0
MTEXT
  5
455B
330
3D98
100
AcDbEntity
  8
AM_5
100
AcDbMText
 10
141.5613625701043
 20
93.89138953491928
 30
0.0
 40
3.5
 41
0.0
 71
     5
 72
     1
  1
11
 73
     1
 44
1.0
1001
ACAD
1000
MTEXTBEGIN
1070
    73
1070
     1
1070
    44
1040
1.0
1070
    74
1070
     0
1000
MTEXTEND
  0
POINT
  5
455C
330
3D98
100
AcDbEntity
  8
Defpoints
 62
     0
100
AcDbPoint
 10
147.0613625701043
 20
85.14138953491928
 30
0.0
  0
POINT
  5
455D
330
3D98
100
AcDbEntity
  8
Defpoints
 62
     0
100
AcDbPoint
 10
136.0613625701043
 20
76.64138953491925
 30
0.0
  0
POINT
  5
455E
330
3D98
100
AcDbEntity
  8
Defpoints
 62
     0
100
AcDbPoint
 10
136.0613625701043
 20
91.14138953491929
 30
0.0
  0
ENDBLK
  5
3DA3
330
3D98
100
AcDbEntity
  8
0
100
AcDbBlockEnd
  0
BLOCK
  5
3DE9
330
3DDD
100
AcDbEntity
  8
0
100
AcDbBlockBegin
  2
*D6
 70
     1
 10
0.0
 20
0.0
 30
0.0
  3
*D6
  1

  0
LINE
  5
4539
330
3DDD
100
AcDbEntity
  8
AM_5
100
AcDbLine
 10
88.57779253482226
 20
63.64138953491925
 30
0.0
 11
81.7770526916308
 21
63.64138953491925
 31
0.0
  0
LINE
  5
453A
330
3DDD
100
AcDbEntity
  8
AM_5
100
AcDbLine
 10
88.5777925348222
 20
71.64138953491923
 30
0.0
 11
81.7770526916308
 21
71.64138953491923
 31
0.0
  0
LINE
  5
453B
330
3DDD
100
AcDbEntity
  8
AM_5
100
AcDbLine
 10
82.7770526916308
 20
60.64138953491926
 30
0.0
 11
82.7770526916308
 21
57.64138953491926
 31
0.0
  0
LINE
  5
453C
330
3DDD
100
AcDbEntity
  8
AM_5
100
AcDbLine
 10
82.7770526916308
 20
74.64138953491922
 30
0.0
 11
82.7770526916308
 21
77.64138953491922
 31
0.0
  0
LINE
  5
453D
330
3DDD
100
AcDbEntity
  8
AM_5
100
AcDbLine
 10
82.7770526916308
 20
63.64138953491925
 30
0.0
 11
82.7770526916308
 21
71.64138953491923
 31
0.0
  0
SOLID
  5
453E
330
3DDD
100
AcDbEntity
  8
AM_5
100
AcDbTrace
 10
82.27705269163079
 20
60.64138953491926
 30
0.0
 11
83.27705269163081
 21
60.64138953491926
 31
0.0
 12
82.7770526916308
 22
63.64138953491925
 32
0.0
 13
82.7770526916308
 23
63.64138953491925
 33
0.0
  0
SOLID
  5
453F
330
3DDD
100
AcDbEntity
  8
AM_5
100
AcDbTrace
 10
82.27705269163079
 20
74.64138953491922
 30
0.0
 11
83.27705269163081
 21
74.64138953491922
 31
0.0
 12
82.7770526916308
 22
71.64138953491923
 32
0.0
 13
82.7770526916308
 23
71.64138953491923
 33
0.0
  0
MTEXT
  5
4540
330
3DDD
100
AcDbEntity
  8
AM_5
100
AcDbMText
 10
80.02705269163078
 20
67.64138953491926
 30
0.0
 40
3.5
 41
0.0
 71
     5
 72
     1
  1
%%c8
 11
0.0000000000000001
 21
1.0
 31
0.0
 73
     1
 44
1.0
1001
ACAD
1000
MTEXTBEGIN
1070
    73
1070
     1
1070
    44
1040
1.0
1070
    74
1070
     0
1000
MTEXTEND
  0
POINT
  5
4541
330
3DDD
100
AcDbEntity
  8
Defpoints
 62
     0
100
AcDbPoint
 10
89.57779253482227
 20
63.64138953491925
 30
0.0
  0
POINT
  5
4542
330
3DDD
100
AcDbEntity
  8
Defpoints
 62
     0
100
AcDbPoint
 10
89.5777925348222
 20
71.64138953491923
 30
0.0
  0
POINT
  5
4543
330
3DDD
100
AcDbEntity
  8
Defpoints
 62
     0
100
AcDbPoint
 10
82.7770526916308
 20
71.64138953491923
 30
0.0
  0
ENDBLK
  5
3DEA
330
3DDD
100
AcDbEntity
  8
0
100
AcDbBlockEnd
  0
BLOCK
  5
43C8
330
43BE
100
AcDbEntity
  8
0
100
AcDbBlockBegin
  2
*D7
 70
     1
 10
0.0
 20
0.0
 30
0.0
  3
*D7
  1

  0
LINE
  5
4530
330
43BE
100
AcDbEntity
  8
AM_5
100
AcDbLine
 10
31.50332078550718
 20
50.14138953491921
 30
0.0
 11
25.5033207855071
 21
50.14138953491921
 31
0.0
  0
LINE
  5
4531
330
43BE
100
AcDbEntity
  8
AM_5
100
AcDbLine
 10
31.5033207855071
 20
85.14138953491929
 30
0.0
 11
25.50332078550711
 21
85.14138953491929
 31
0.0
  0
LINE
  5
4532
330
43BE
100
AcDbEntity
  8
AM_5
100
AcDbLine
 10
26.5033207855071
 20
53.14138953491921
 30
0.0
 11
26.50332078550711
 21
82.1413895349193
 31
0.0
  0
SOLID
  5
4533
330
43BE
100
AcDbEntity
  8
AM_5
100
AcDbTrace
 10
26.0033207855071
 20
53.14138953491921
 30
0.0
 11
27.0033207855071
 21
53.14138953491921
 31
0.0
 12
26.5033207855071
 22
50.14138953491921
 32
0.0
 13
26.5033207855071
 23
50.14138953491921
 33
0.0
  0
SOLID
  5
4534
330
43BE
100
AcDbEntity
  8
AM_5
100
AcDbTrace
 10
26.00332078550711
 20
82.1413895349193
 30
0.0
 11
27.00332078550711
 21
82.1413895349193
 31
0.0
 12
26.50332078550711
 22
85.14138953491929
 32
0.0
 13
26.50332078550711
 23
85.14138953491929
 33
0.0
  0
MTEXT
  5
4535
330
43BE
100
AcDbEntity
  8
AM_5
100
AcDbMText
 10
23.75332078550709
 20
67.64138953491926
 30
0.0
 40
3.5
 41
0.0
 71
     5
 72
     1
  1
35
 11
0.0000000000000001
 21
1.0
 31
0.0
 73
     1
 44
1.0
1001
ACAD
1000
MTEXTBEGIN
1070
    73
1070
     1
1070
    44
1040
1.0
1070
    74
1070
     0
1000
MTEXTEND
  0
POINT
  5
4536
330
43BE
100
AcDbEntity
  8
Defpoints
 62
     0
100
AcDbPoint
 10
32.50332078550719
 20
50.14138953491921
 30
0.0
  0
POINT
  5
4537
330
43BE
100
AcDbEntity
  8
Defpoints
 62
     0
100
AcDbPoint
 10
32.5033207855071
 20
85.14138953491928
 30
0.0
  0
POINT
  5
4538
330
43BE
100
AcDbEntity
  8
Defpoints
 62
     0
100
AcDbPoint
 10
26.50332078550711
 20
85.14138953491929
 30
0.0
  0
ENDBLK
  5
43C9
330
43BE
100
AcDbEntity
  8
0
100
AcDbBlockEnd
  0
BLOCK
  5
4417
330
4410
100
AcDbEntity
  8
0
100
AcDbBlockBegin
  2
*D8
 70
     1
 10
0.0
 20
0.0
 30
0.0
  3
*D8
  1

  0
LINE
  5
4571
330
4410
100
AcDbEntity
  8
AM_5
100
AcDbLine
 10
145.3677226649725
 20
84.33160981945141
 30
0.0
 11
152.0168944694357
 21
92.75824629309054
 31
0.0
  0
LINE
  5
4572
330
4410
100
AcDbEntity
  8
AM_5
100
AcDbLine
 10
152.0168944694357
 20
92.75824629309054
 30
0.0
 11
157.7118692162663
 21
92.75824629309052
 31
0.0
  0
SOLID
  5
4573
330
4410
100
AcDbEntity
  8
AM_5
100
AcDbTrace
 10
144.9752034552407
 20
84.64133335745184
 30
0.0
 11
145.7602418747043
 21
84.02188628145097
 31
0.0
 12
143.5093814369699
 22
81.97649456106049
 32
0.0
 13
143.5093814369699
 23
81.97649456106049
 33
0.0
  0
MTEXT
  5
4574
330
4410
100
AcDbEntity
  8
AM_5
100
AcDbMText
 10
155.3643818428511
 20
95.50824629309046
 30
0.0
 40
3.5
 41
0.0
 71
     5
 72
     1
  1
M5
 73
     1
 44
1.0
1001
ACAD
1000
MTEXTBEGIN
1070
    73
1070
     1
1070
    44
1040
1.0
1070
    74
1070
     0
1000
MTEXTEND
  0
POINT
  5
4575
330
4410
100
AcDbEntity
  8
Defpoints
 62
     0
100
AcDbPoint
 10
143.5093814369699
 20
81.97649456106049
 30
0.0
  0
POINT
  5
4576
330
4410
100
AcDbEntity
  8
Defpoints
 62
     0
100
AcDbPoint
 10
142.0613625701043
 20
80.14138953491922
 30
0.0
  0
ENDBLK
  5
4418
330
4410
100
AcDbEntity
  8
0
100
AcDbBlockEnd
  0
ENDSEC
  0
SECTION
  2
ENTITIES
  0
VIEWPORT
  5
230
102
{ACAD_XDICTIONARY
360
45A4
102
}
330
D
100
AcDbEntity
 67
     1
  8
0
100
AcDbViewport
 10
96.33758711466931
 20
64.60486553912272
 30
0.0
 40
174.3007660189916
 41
129.9433377079282
 68
     1
 69
     1
 12
96.33758711466931
 22
64.60486553912272
 13
0.0
 23
0.0
 14
1.0
 24
1.0
 15
0.0
 25
0.0
 16
0.0
 26
0.0
 36
1.0
 17
0.0
 27
0.0
 37
0.0
 42
50.0
 43
0.0
 44
0.0
 45
129.9433377079282
 50
0.0
 51
0.0
 72
  1000
 90
    32800
  1

281
     0
 71
     0
 74
     0
110
0.0
120
0.0
130
0.0
111
1.0
121
0.0
131
0.0
112
0.0
122
1.0
132
0.0
 79
     0
146
0.0
  0
TEXT
  5
D17
330
D
100
AcDbEntity
 67
     1
  8
LOGO
 62
     7
100
AcDbText
 10
37.46461063430803
 20
13.15070985044298
 30
0.0
 40
2.429821612389102
  1
訂購代號:
  7
CHINESET
100
AcDbText
  0
TEXT
  5
D18
330
D
100
AcDbEntity
 67
     1
  8
LOGO
 62
     7
100
AcDbText
 10
37.17399057359484
 20
10.87025269760333
 30
0.0
 40
1.619881074926069
  1
Order example:
 41
0.8
  7
CHINESET
100
AcDbText
  0
LINE
  5
D19
330
D
100
AcDbEntity
 67
     1
  8
LOGO
 62
     4
100
AcDbLine
 10
62.09005159872962
 20
5.055887814685803
 30
0.0
 11
53.99064622409929
 21
5.055887814685803
 31
0.0
  0
LINE
  5
D1A
330
D
100
AcDbEntity
 67
     1
  8
LOGO
 62
     4
100
AcDbLine
 10
62.09005159872962
 20
9.510560770732467
 30
0.0
 11
53.99064622409929
 21
9.510560770732467
 31
0.0
  0
LINE
  5
D1B
330
D
100
AcDbEntity
 67
     1
  8
LOGO
 62
     4
100
AcDbLine
 10
62.39665557445126
 20
11.3329269800243
 30
0.0
 11
53.41214599119601
 21
11.3329269800243
 31
0.0
  0
LINE
  5
D1C
330
D
100
AcDbEntity
 67
     1
  8
LOGO
 62
     4
100
AcDbLine
 10
62.39665557445126
 20
14.97765939860798
 30
0.0
 11
53.41214599119601
 21
14.97765939860798
 31
0.0
  0
TEXT
  5
D1D
330
D
100
AcDbEntity
 67
     1
  8
LOGO
  6
Continuous
 62
     7
100
AcDbText
 10
55.19591488103831
 20
12.14286751748736
 30
0.0
 40
2.024851343657585
  1
MCB
  7
CHINESET
 72
     1
 11
58.04034891141444
 21
13.15529318931615
 31
0.0
100
AcDbText
 73
     2
  0
LINE
  5
D1E
330
D
100
AcDbEntity
 67
     1
  8
LOGO
 62
     4
100
AcDbLine
 10
53.41214599119601
 20
14.97765939860798
 30
0.0
 11
53.41214599119601
 21
11.3329269800243
 31
0.0
  0
LINE
  5
D1F
330
D
100
AcDbEntity
 67
     1
  8
LOGO
 62
     4
100
AcDbLine
 10
53.99064622409929
 20
9.510560770732467
 30
0.0
 11
53.99064622409929
 21
5.055887814685803
 31
0.0
  0
TEXT
  5
D20
330
D
100
AcDbEntity
 67
     1
  8
LOGO
100
AcDbText
 10
56.67006222414894
 20
5.679895120081469
 30
0.0
 40
0.8060509925091158
  1
Model
 72
     4
 11
58.04034891141444
 21
6.068313486514583
 31
0.0
100
AcDbText
  0
TEXT
  5
D21
330
D
100
AcDbEntity
 67
     1
  8
LOGO
100
AcDbText
 10
56.42046783648837
 20
7.324677942264331
 30
0.0
 40
1.619881074926069
  1
型式
 72
     4
 11
58.04034891141444
 21
8.09316483017217
 31
0.0
100
AcDbText
  0
LINE
  5
D22
330
D
100
AcDbEntity
 67
     1
  8
LOGO
 62
     4
100
AcDbLine
 10
58.04034891141444
 20
11.3329269800243
 30
0.0
 11
58.04034891141444
 21
9.510560770732467
 31
0.0
  0
LINE
  5
D23
330
D
100
AcDbEntity
 67
     1
  8
LOGO
 62
     4
100
AcDbLine
 10
62.39665557445126
 20
14.97765939860798
 30
0.0
 11
62.39665557445126
 21
11.3329269800243
 31
0.0
  0
LINE
  5
D2B
330
D
100
AcDbEntity
 67
     1
  8
LOGO
 62
     4
100
AcDbLine
 10
62.09005159872964
 20
9.510560770732467
 30
0.0
 11
62.09005159872964
 21
5.055887814685803
 31
0.0
  0
LINE
  5
D39
330
D
100
AcDbEntity
 67
     1
  8
LOGO
 62
     4
100
AcDbLine
 10
71.77393254601131
 20
14.97765939860801
 30
0.0
 11
71.77393254601131
 21
11.33292698002434
 31
0.0
  0
LINE
  5
D3A
330
D
100
AcDbEntity
 67
     1
  8
LOGO
 62
     4
100
AcDbLine
 10
65.27197126660104
 20
14.97765939860798
 30
0.0
 11
65.27197126660104
 21
11.33292698002434
 31
0.0
  0
LINE
  5
D3C
330
D
100
AcDbEntity
 67
     1
  8
LOGO
 62
     4
100
AcDbLine
 10
71.77393254601131
 20
5.055887814685803
 30
0.0
 11
65.27197126660104
 21
5.055887814685803
 31
0.0
  0
LINE
  5
D3D
330
D
100
AcDbEntity
 67
     1
  8
LOGO
 62
     4
100
AcDbLine
 10
71.77393254601131
 20
11.33292698002434
 30
0.0
 11
65.27197126660104
 21
11.33292698002434
 31
0.0
  0
LINE
  5
D3E
330
D
100
AcDbEntity
 67
     1
  8
LOGO
 62
     4
100
AcDbLine
 10
71.77393254601131
 20
9.510560770732524
 30
0.0
 11
65.27197126660104
 21
9.510560770732524
 31
0.0
  0
LINE
  5
D3F
330
D
100
AcDbEntity
 67
     1
  8
LOGO
 62
     4
100
AcDbLine
 10
65.27197126660104
 20
9.510560770732524
 30
0.0
 11
65.27197126660104
 21
5.055887814685803
 31
0.0
  0
TEXT
  5
D40
330
D
100
AcDbEntity
 67
     1
  8
LOGO
100
AcDbText
 10
67.39448051679342
 20
5.677808387249833
 30
0.0
 40
0.8060509925091158
  1
Bore
 72
     4
 11
68.52295190630619
 21
6.068313486514583
 31
0.0
100
AcDbText
  0
TEXT
  5
D41
330
D
100
AcDbEntity
 67
     1
  8
LOGO
100
AcDbText
 10
66.80182826419724
 20
7.283224292709136
 30
0.0
 40
1.619881074926069
  1
內徑
 72
     4
 11
68.52295190630619
 21
8.09316483017217
 31
0.0
100
AcDbText
  0
LINE
  5
D42
330
D
100
AcDbEntity
 67
     1
  8
LOGO
 62
     4
100
AcDbLine
 10
68.52295181292629
 20
11.33292698002434
 30
0.0
 11
68.52295181292629
 21
9.510560770732524
 31
0.0
  0
LINE
  5
D43
330
D
100
AcDbEntity
 67
     1
  8
LOGO
 62
     4
100
AcDbLine
 10
71.77393254601131
 20
9.510560770732524
 30
0.0
 11
71.77393254601131
 21
5.055887814685803
 31
0.0
  0
LINE
  5
D45
330
D
100
AcDbEntity
 67
     1
  8
LOGO
 62
     4
100
AcDbLine
 10
71.77393254601131
 20
14.97765939860801
 30
0.0
 11
65.27197126660104
 21
14.97765939860798
 31
0.0
  0
LINE
  5
D46
330
D
100
AcDbEntity
 67
     1
  8
LOGO
  6
Continuous
 62
     7
100
AcDbLine
 10
63.03229024016343
 20
13.14238297108568
 30
0.0
 11
64.64167108583345
 21
13.14238297108568
 31
0.0
  0
TEXT
  5
D47
330
D
100
AcDbEntity
 67
     1
  8
LOGO
  6
Continuous
 62
     7
100
AcDbText
 10
67.07277271043347
 20
12.11990557565878
 30
0.0
 40
2.024851343657585
  1
20
  7
CHINESET
 72
     1
 11
68.71193808387056
 21
13.13233124748757
 31
0.0
100
AcDbText
 73
     2
  0
LINE
  5
D60
330
D
100
AcDbEntity
 67
     1
  8
LOGO
 62
     4
100
AcDbLine
 10
36.47014675221874
 20
4.043462142856924
 30
0.0
 11
36.47014675221874
 21
16.19257020480273
 31
0.0
  0
TEXT
  5
D61
330
D
100
AcDbEntity
 67
     1
  8
LOGO
  6
Continuous
100
AcDbText
 10
14.10612324308675
 20
6.430136087023441
 30
0.0
 40
1.822366209291842
  1
金器工業股份有限公司
  7
CHINESET
100
AcDbText
  0
TEXT
  5
D62
330
D
100
AcDbEntity
 67
     1
  8
LOGO
  6
Continuous
100
AcDbText
 10
10.75879705399228
 20
4.607412836833603
 30
0.0
 40
1.214910806194561
  1
MINDMAN INDUSTRIAL CO., LTD.
 41
0.85
  7
CHINESET
100
AcDbText
  0
LINE
  5
D63
330
D
100
AcDbEntity
 67
     1
  8
LOGO
 62
     4
100
AcDbLine
 10
36.47014675221874
 20
13.76274859241351
 30
0.0
 11
18.6514549280314
 21
13.76274859241351
 31
0.0
  0
LINE
  5
D64
330
D
100
AcDbEntity
 67
     1
  8
LOGO
 62
     4
100
AcDbLine
 10
36.47014675221874
 20
11.33292698002434
 30
0.0
 11
18.6514549280314
 21
11.33292698002434
 31
0.0
  0
LINE
  5
D65
330
D
100
AcDbEntity
 67
     1
  8
LOGO
 62
     4
100
AcDbLine
 10
36.47014675221874
 20
8.903105367635276
 30
0.0
 11
9.742109015938069
 21
8.903105367635276
 31
0.0
  0
LINE
  5
D66
330
D
100
AcDbEntity
 67
     1
  8
LOGO
 62
     4
100
AcDbLine
 10
18.6514549280314
 20
8.903105367635276
 30
0.0
 11
18.6514549280314
 21
16.19257020480273
 31
0.0
  0
TEXT
  5
D67
330
D
100
AcDbEntity
 67
     1
  8
LOGO
100
AcDbText
 10
30.82968976041976
 20
9.510560770732491
 30
0.0
 40
1.214910806194561
  1
mm
  7
CHINESET
 72
     1
 11
32.33386504427969
 21
10.11801617382977
 31
0.0
100
AcDbText
 73
     2
  0
TEXT
  5
D68
330
D
100
AcDbEntity
 67
     1
  8
LOGO
100
AcDbText
 10
30.19330790955594
 20
14.37020399551073
 30
0.0
 40
1.214910806194561
  1
1 : 1
  7
CHINESET
 72
     1
 11
32.33386504427969
 21
14.97765939860801
 31
0.0
100
AcDbText
 73
     2
  0
LINE
  5
D69
330
D
100
AcDbEntity
 67
     1
  8
LOGO
 62
     4
100
AcDbLine
 10
28.37074137758816
 20
8.903105367635276
 30
0.0
 11
28.37074137758816
 21
16.19257020480273
 31
0.0
  0
TEXT
  5
D6A
330
D
100
AcDbEntity
 67
     1
  8
LOGO
100
AcDbText
 10
19.65321397224662
 20
14.37080188468701
 30
79.62325278935887
 40
1.214910806194561
  1
比例 Scale:
 41
0.9
  7
CHINESET
 72
     4
 11
23.51109815280998
 21
14.97765939860801
 31
79.62325278935887
100
AcDbText
  0
TEXT
  5
D6B
330
D
100
AcDbEntity
 67
     1
  8
LOGO
100
AcDbText
 10
19.58324812671131
 20
11.95747204874356
 30
79.62325278935887
 40
1.214910806194561
  1
投影  View:
 41
0.9
  7
CHINESET
 72
     4
 11
23.51109815280998
 21
12.54783778621893
 31
79.62325278935887
100
AcDbText
  0
TEXT
  5
D6C
330
D
100
AcDbEntity
 67
     1
  8
LOGO
100
AcDbText
 10
19.70202735285265
 20
9.510560770732491
 30
79.62325278935887
 40
1.214910806194561
  1
單位  Unit:
 41
0.9
  7
CHINESET
 72
     4
 11
23.51109815280998
 21
10.11801617382977
 31
79.62325278935887
100
AcDbText
  0
SOLID
  5
D6D
330
D
100
AcDbEntity
 67
     1
  8
LOGO
 62
     5
100
AcDbTrace
 10
11.00259847520041
 20
10.92272165399797
 30
0.0
 11
11.52789402853932
 21
10.92272165399765
 31
0.0
 12
13.7196444407468
 22
15.90397259083306
 32
0.0
 13
14.24493999408591
 23
15.90397259083269
 33
0.0
  0
SOLID
  5
D6E
330
D
100
AcDbEntity
 67
     1
  8
LOGO
 62
     5
100
AcDbTrace
 10
11.74525770578356
 20
10.92272165399797
 30
0.0
 11
12.27055325912249
 21
10.92272165399797
 31
0.0
 12
14.24493999408591
 22
15.5054725158861
 32
0.0
 13
13.7196444407468
 23
13.57938882030984
 33
0.0
  0
SOLID
  5
D6F
330
D
100
AcDbEntity
 67
     1
  8
LOGO
 62
     2
100
AcDbTrace
 10
11.52789402853932
 20
10.92272165399765
 30
0.0
 11
11.74525770578356
 21
10.92272165399797
 31
0.0
 12
14.24493999408591
 22
15.90397259083269
 32
0.0
 13
14.46230367132995
 23
15.90397259083269
 33
0.0
  0
SOLID
  5
D70
330
D
100
AcDbEntity
 67
     1
  8
LOGO
 62
     5
100
AcDbTrace
 10
10.1604208849489
 20
9.111357676966974
 30
0.0
 11
10.34155728265227
 21
9.111357676966974
 31
0.0
 12
10.8516514771145
 22
10.01703966548245
 32
0.0
 13
11.03278787481756
 23
10.01703966548245
 33
0.0
  0
SOLID
  5
D71
330
D
100
AcDbEntity
 67
     1
  8
LOGO
 62
     5
100
AcDbTrace
 10
10.8516514771145
 20
10.01703966548245
 30
0.0
 11
11.03278787481756
 21
10.01703966548245
 31
0.0
 12
10.8516514771145
 22
9.111357676966974
 32
0.0
 13
11.03278787481756
 23
9.111357676966974
 33
0.0
  0
SOLID
  5
D72
330
D
100
AcDbEntity
 67
     1
  8
LOGO
 62
     5
100
AcDbTrace
 10
10.8516514771145
 20
9.111357676966974
 30
0.0
 11
11.03278787481756
 21
9.111357676966974
 31
0.0
 12
11.54288206928072
 22
10.01703966548245
 32
0.0
 13
11.72401846698366
 23
10.01703966548245
 33
0.0
  0
SOLID
  5
D73
330
D
100
AcDbEntity
 67
     1
  8
LOGO
 62
     5
100
AcDbTrace
 10
11.54288206928072
 20
10.01703966548245
 30
0.0
 11
11.72401846698366
 21
10.01703966548245
 31
0.0
 12
11.54288206928072
 22
9.111357676966974
 32
0.0
 13
11.72401846698366
 23
9.111357676966974
 33
0.0
  0
POLYLINE
  5
D74
330
D
100
AcDbEntity
 67
     1
  8
LOGO
 62
     5
100
AcDb2dPolyline
 66
     1
 10
0.0
 20
0.0
 30
0.0
 40
0.1814266803917212
 41
0.1814266803917212
  0
VERTEX
  5
D75
330
D74
100
AcDbEntity
 67
     1
  8
LOGO
 62
     5
100
AcDbVertex
100
AcDb2dVertex
 10
17.61451241539657
 20
9.654766870076088
 30
0.0
 42
1.0
  0
VERTEX
  5
D76
330
D74
100
AcDbEntity
 67
     1
  8
LOGO
 62
     5
100
AcDbVertex
100
AcDb2dVertex
 10
17.07023237422163
 20
9.654766870076088
 30
0.0
 42
1.0
  0
SEQEND
  5
D77
330
D74
100
AcDbEntity
 67
     1
  8
LOGO
 62
     5
  0
POLYLINE
  5
D78
330
D
100
AcDbEntity
 67
     1
  8
LOGO
 62
     5
100
AcDb2dPolyline
 66
     1
 10
0.0
 20
0.0
 30
0.0
 70
     1
  0
VERTEX
  5
D79
330
D78
100
AcDbEntity
 67
     1
  8
LOGO
 62
     5
100
AcDbVertex
100
AcDb2dVertex
 10
16.04424028702982
 20
9.564198671224659
 30
0.0
 42
1.000000057330635
  0
VERTEX
  5
D7A
330
D78
100
AcDbEntity
 67
     1
  8
LOGO
 62
     5
100
AcDbVertex
100
AcDb2dVertex
 10
16.58764948013885
 20
9.564198671224659
 30
0.0
 42
1.000000057330635
  0
SEQEND
  5
D7B
330
D78
100
AcDbEntity
 67
     1
  8
LOGO
 62
     5
  0
CIRCLE
  5
D7C
330
D
100
AcDbEntity
 67
     1
  8
LOGO
 62
     5
100
AcDbCircle
 10
16.31594488358468
 20
9.564198671224659
 30
0.0
 40
0.2717045965546417
  0
POLYLINE
  5
D7D
330
D
100
AcDbEntity
 67
     1
  8
LOGO
 62
     5
100
AcDb2dPolyline
 66
     1
 10
0.0
 20
0.0
 30
0.0
 70
     1
 40
0.1814266803917212
 41
0.1814266803917212
  0
VERTEX
  5
D7E
330
D7D
100
AcDbEntity
 67
     1
  8
LOGO
 62
     5
100
AcDbVertex
100
AcDb2dVertex
 10
15.95309152280106
 20
9.564198671224659
 30
0.0
 42
1.0
  0
VERTEX
  5
D7F
330
D7D
100
AcDbEntity
 67
     1
  8
LOGO
 62
     5
100
AcDbVertex
100
AcDb2dVertex
 10
16.67879824436795
 20
9.564198671224659
 30
0.0
 42
1.0
  0
SEQEND
  5
D80
330
D7D
100
AcDbEntity
 67
     1
  8
LOGO
 62
     5
  0
LINE
  5
D81
330
D
100
AcDbEntity
 67
     1
  8
LOGO
100
AcDbLine
 10
17.70464519021476
 20
9.111357676966974
 30
0.0
 11
17.70464519021476
 21
9.654766870076088
 31
0.0
  0
SOLID
  5
D82
330
D
100
AcDbEntity
 67
     1
  8
LOGO
 62
     5
100
AcDbTrace
 10
16.58763136649986
 20
10.01703966548245
 30
0.0
 11
16.76876776420272
 21
10.01703966548245
 31
0.0
 12
16.58763136649986
 22
9.111357676966974
 32
0.0
 13
16.76876776420272
 23
9.111357676966974
 33
0.0
  0
SOLID
  5
D83
330
D
100
AcDbEntity
 67
     1
  8
LOGO
 62
     5
100
AcDbTrace
 10
16.98009959940262
 20
9.111357676966974
 30
0.0
 11
17.16123599710573
 21
9.111357676966974
 31
0.0
 12
16.98009959940262
 22
10.01703966548245
 32
0.0
 13
17.16123599710573
 23
10.01703966548245
 33
0.0
  0
SOLID
  5
D84
330
D
100
AcDbEntity
 67
     1
  8
LOGO
 62
     5
100
AcDbTrace
 10
17.52350879251219
 20
9.654766870076088
 30
0.0
 11
17.70464519021476
 21
9.654766870076088
 31
0.0
 12
17.52350879251219
 22
9.111357676966974
 32
0.0
 13
17.70464519021476
 23
9.111357676966974
 33
0.0
  0
SOLID
  5
D85
330
D
100
AcDbEntity
 67
     1
  8
LOGO
 62
     5
100
AcDbTrace
 10
16.96198595963221
 20
15.5054725158861
 30
0.0
 11
16.43669040629345
 21
13.57938882030984
 31
0.0
 12
16.96198595963221
 22
10.92272165399765
 32
0.0
 13
16.43669040629345
 23
10.92272165399765
 33
0.0
  0
SOLID
  5
D86
330
D
100
AcDbEntity
 67
     1
  8
LOGO
 62
     5
100
AcDbTrace
 10
17.17934963687605
 20
10.92272165399765
 30
0.0
 11
17.70464519021476
 21
10.92272165399765
 31
0.0
 12
17.17934963687605
 22
15.90397259083269
 32
0.0
 13
17.70464519021476
 23
15.90397259083306
 33
0.0
  0
SOLID
  5
D87
330
D
100
AcDbEntity
 67
     1
  8
LOGO
 62
     2
100
AcDbTrace
 10
16.96198595963221
 20
15.90397259083306
 30
0.0
 11
17.17934963687605
 21
15.90397259083269
 31
0.0
 12
16.96198595963221
 22
10.92272165399765
 32
0.0
 13
17.17934963687605
 23
10.92272165399765
 33
0.0
  0
POLYLINE
  5
D88
330
D
100
AcDbEntity
 67
     1
  8
LOGO
 62
     5
100
AcDb2dPolyline
 66
     1
 10
0.0
 20
0.0
 30
0.0
 40
0.1814266803917212
 41
0.1814266803917212
  0
VERTEX
  5
D89
330
D88
100
AcDbEntity
 67
     1
  8
LOGO
 62
     5
100
AcDbVertex
100
AcDb2dVertex
 10
15.0182119725593
 20
9.654766870076088
 30
0.0
 42
1.0
  0
VERTEX
  5
D8A
330
D88
100
AcDbEntity
 67
     1
  8
LOGO
 62
     5
100
AcDbVertex
100
AcDb2dVertex
 10
14.47393193138376
 20
9.654766870076088
 30
0.0
 42
1.0
  0
SEQEND
  5
D8B
330
D88
100
AcDbEntity
 67
     1
  8
LOGO
 62
     5
  0
POLYLINE
  5
D8C
330
D
100
AcDbEntity
 67
     1
  8
LOGO
 62
     5
100
AcDb2dPolyline
 66
     1
 10
0.0
 20
0.0
 30
0.0
 40
0.1814266803917212
 41
0.1814266803917212
  0
VERTEX
  5
D8D
330
D8C
100
AcDbEntity
 67
     1
  8
LOGO
 62
     5
100
AcDbVertex
100
AcDb2dVertex
 10
15.56162116566833
 20
9.654766870076088
 30
0.0
 42
1.0
  0
VERTEX
  5
D8E
330
D8C
100
AcDbEntity
 67
     1
  8
LOGO
 62
     5
100
AcDbVertex
100
AcDb2dVertex
 10
15.0173411244931
 20
9.654766870076088
 30
0.0
 42
1.0
  0
SEQEND
  5
D8F
330
D8C
100
AcDbEntity
 67
     1
  8
LOGO
 62
     5
  0
POLYLINE
  5
D90
330
D
100
AcDbEntity
 67
     1
  8
LOGO
 62
     5
100
AcDb2dPolyline
 66
     1
 10
0.0
 20
0.0
 30
0.0
 40
0.1814266803917212
 41
0.1814266803917212
  0
VERTEX
  5
D91
330
D90
100
AcDbEntity
 67
     1
  8
LOGO
 62
     5
100
AcDbVertex
100
AcDb2dVertex
 10
12.96532072283045
 20
9.654766870076088
 30
0.0
 42
1.0
  0
VERTEX
  5
D92
330
D90
100
AcDbEntity
 67
     1
  8
LOGO
 62
     5
100
AcDbVertex
100
AcDb2dVertex
 10
12.42104068165531
 20
9.654766870076088
 30
0.0
 42
1.0
  0
SEQEND
  5
D93
330
D90
100
AcDbEntity
 67
     1
  8
LOGO
 62
     5
  0
SOLID
  5
D94
330
D
100
AcDbEntity
 67
     1
  8
LOGO
 62
     5
100
AcDbTrace
 10
12.33090790683678
 20
10.01703966548245
 30
0.0
 11
12.51204430453958
 21
10.01703966548245
 31
0.0
 12
12.33090790683678
 22
9.111357676966974
 32
0.0
 13
12.51204430453958
 23
9.111357676966974
 33
0.0
  0
SOLID
  5
D95
330
D
100
AcDbEntity
 67
     1
  8
LOGO
 62
     5
100
AcDbTrace
 10
12.87431709994629
 20
9.654766870076088
 30
0.0
 11
13.05545349764975
 21
9.654766870076088
 31
0.0
 12
12.87431709994629
 22
9.111357676966974
 32
0.0
 13
13.05545349764975
 23
9.111357676966974
 33
0.0
  0
POLYLINE
  5
D96
330
D
100
AcDbEntity
 67
     1
  8
LOGO
 62
     5
100
AcDb2dPolyline
 66
     1
 10
0.0
 20
0.0
 30
0.0
 70
     1
 40
0.1814266803917212
 41
0.1814266803917212
  0
VERTEX
  5
D97
330
D96
100
AcDbEntity
 67
     1
  8
LOGO
 62
     5
100
AcDbVertex
100
AcDb2dVertex
 10
13.35679107996339
 20
9.564198671224659
 30
0.0
 42
1.0
  0
VERTEX
  5
D98
330
D96
100
AcDbEntity
 67
     1
  8
LOGO
 62
     5
100
AcDbVertex
100
AcDb2dVertex
 10
14.08249780153025
 20
9.564198671224659
 30
0.0
 42
1.0
  0
SEQEND
  5
D99
330
D96
100
AcDbEntity
 67
     1
  8
LOGO
 62
     5
  0
SOLID
  5
D9A
330
D
100
AcDbEntity
 67
     1
  8
LOGO
 62
     5
100
AcDbTrace
 10
13.99133092366202
 20
10.28874426203717
 30
0.0
 11
14.17246732136516
 21
10.28874426203717
 31
0.0
 12
13.99133092366202
 22
9.111357676966974
 32
0.0
 13
14.17246732136516
 23
9.111357676966974
 33
0.0
  0
SOLID
  5
D9B
330
D
100
AcDbEntity
 67
     1
  8
LOGO
 62
     5
100
AcDbTrace
 10
14.38379915656571
 20
10.01703966548245
 30
0.0
 11
14.56493555426854
 21
10.01703966548245
 31
0.0
 12
14.38379915656571
 22
9.111357676966974
 32
0.0
 13
14.56493555426854
 23
9.111357676966974
 33
0.0
  0
SOLID
  5
D9C
330
D
100
AcDbEntity
 67
     1
  8
LOGO
 62
     5
100
AcDbTrace
 10
14.92720834967449
 20
9.654766870076088
 30
0.0
 11
15.10834474737765
 21
9.654766870076088
 31
0.0
 12
14.92720834967449
 22
9.111357676966974
 32
0.0
 13
15.10834474737765
 23
9.111357676966974
 33
0.0
  0
SOLID
  5
D9D
330
D
100
AcDbEntity
 67
     1
  8
LOGO
 62
     5
100
AcDbTrace
 10
15.47061754278354
 20
9.654766870076088
 30
0.0
 11
15.65175394048697
 21
9.654766870076088
 31
0.0
 12
15.47061754278354
 22
9.111357676966775
 32
0.0
 13
15.65175394048697
 23
9.111357676966775
 33
0.0
  0
SOLID
  5
D9E
330
D
100
AcDbEntity
 67
     1
  8
LOGO
 62
     5
100
AcDbTrace
 10
11.93843967393334
 20
10.14383514387455
 30
0.0
 11
12.11957607163731
 21
10.14383514387455
 31
0.0
 12
11.93843967393334
 22
10.28874426203717
 32
0.0
 13
12.11957607163731
 23
10.28874426203717
 33
0.0
  0
SOLID
  5
D9F
330
D
100
AcDbEntity
 67
     1
  8
LOGO
 62
     5
100
AcDbTrace
 10
11.93843967393334
 20
10.01703966548245
 30
0.0
 11
12.11957607163731
 21
10.01703966548245
 31
0.0
 12
11.93843967393334
 22
9.111357676966775
 32
0.0
 13
12.11957607163731
 23
9.111357676966974
 33
0.0
  0
SOLID
  5
DA0
330
D
100
AcDbEntity
 67
     1
  8
LOGO
 62
     5
100
AcDbTrace
 10
13.7196444407468
 20
10.92272165399797
 30
0.0
 11
14.24493999408591
 21
10.92272165399797
 31
0.0
 12
13.7196444407468
 22
13.57938882030984
 32
0.0
 13
14.24493999408591
 23
15.5054725158861
 33
0.0
  0
SOLID
  5
DA1
330
D
100
AcDbEntity
 67
     1
  8
LOGO
 62
     5
100
AcDbTrace
 10
14.46230367132995
 20
15.90397259083269
 30
0.0
 11
14.98759922466888
 21
15.90397259083306
 31
0.0
 12
14.46230367132995
 22
11.32122172894443
 32
0.0
 13
14.98759922466888
 23
13.24730542452083
 33
0.0
  0
SOLID
  5
DA2
330
D
100
AcDbEntity
 67
     1
  8
LOGO
 62
     2
100
AcDbTrace
 10
14.24493999408591
 20
15.90397259083269
 30
0.0
 11
14.46230367132995
 21
15.90397259083269
 31
0.0
 12
14.24493999408591
 22
10.92272165399797
 32
0.0
 13
14.46230367132995
 23
10.92272165399797
 33
0.0
  0
SOLID
  5
DA3
330
D
100
AcDbEntity
 67
     1
  8
LOGO
 62
     5
100
AcDbTrace
 10
14.46230367132995
 20
11.32122172894443
 30
0.0
 11
14.98759922466888
 21
13.24730542452083
 31
0.0
 12
16.96198595963221
 22
15.90397259083306
 32
0.0
 13
16.43669040629345
 23
15.90397259083306
 33
0.0
  0
SOLID
  5
DA4
330
D
100
AcDbEntity
 67
     1
  8
LOGO
 62
     5
100
AcDbTrace
 10
14.46230367132995
 20
10.92272165399797
 30
0.0
 11
14.98759922466888
 21
10.92272165399797
 31
0.0
 12
16.96198595963221
 22
15.5054725158861
 32
0.0
 13
16.43669040629345
 23
13.57938882030984
 33
0.0
  0
SOLID
  5
DA5
330
D
100
AcDbEntity
 67
     1
  8
LOGO
 62
     2
100
AcDbTrace
 10
14.24493999408591
 20
10.92272165399797
 30
0.0
 11
14.46230367132995
 21
10.92272165399797
 31
0.0
 12
16.96198595963221
 22
15.90397259083306
 32
0.0
 13
17.17934963687605
 23
15.90397259083269
 33
0.0
  0
LWPOLYLINE
  5
DA6
330
D
100
AcDbEntity
 67
     1
  8
LOGO
 62
     4
100
AcDbPolyline
 90
        4
 70
     1
 43
0.0
 10
9.742109015938552
 20
16.19257020480252
 10
182.9339165710926
 20
16.1925702048025
 10
182.9339165710926
 20
4.043462142856839
 10
9.742109015938552
 20
4.043462142856853
1001
GENIUS_GENREC_14
1002
{
1000
PYDIR
1011
9.742109015938552
1021
4.043462142856853
1031
0.0
1002
}
1002
{
1000
PXDIR
1011
182.9339165710926
1021
16.1925702048025
1031
0.0
1002
}
1002
{
1000
PORI
1011
9.742109015938552
1021
16.19257020480252
1031
0.0
1002
}
1002
{
1000
PINS
1011
9.742109015938552
1021
16.19257020480252
1031
0.0
1002
}
1002
{
1000
PINS2
1011
182.9339165710926
1021
4.043462142856839
1031
0.0
1002
}
1002
{
1000
C
1070
     1
1002
}
1001
GENIUS_GENOBJ-N-REC_13
1002
{
1000
OWNER
1000
GEN
1002
}
1001
GENIUS_GENODEF_13
1002
{
1000
HIER
1070
     0
1002
}
1002
{
1000
MANEDIT
1070
     0
1002
}
1002
{
1000
NOSEL
1070
     0
1002
}
1002
{
1000
BEHIND
1070
     0
1002
}
1002
{
1000
OTHER
1070
     0
1002
}
1002
{
1000
REACTOR
1002
}
  0
TEXT
  5
DA7
330
D
100
AcDbEntity
 67
     1
  8
LOGO
100
AcDbText
 10
36.87104574450839
 20
4.689789896576371
 30
0.0
 40
1.215086746356929
  1
00909240
 41
0.7
  7
CHINESET
 72
     1
 11
39.98976839349118
 21
4.689789896576371
 31
0.0
100
AcDbText
  0
LINE
  5
DA8
330
D
100
AcDbEntity
 67
     1
  8
LOGO
 62
     4
100
AcDbLine
 10
43.7606672303595
 20
6.473283755246356
 30
0.0
 11
43.76066723036035
 21
4.043462142857038
 31
0.0
  0
LINE
  5
DA9
330
D
100
AcDbEntity
 67
     1
  8
LOGO
 62
     4
100
AcDbLine
 10
43.7606672303595
 20
6.473283755246356
 30
0.0
 11
36.47014675221874
 21
6.473283755246356
 31
0.0
  0
CIRCLE
  5
DAA
330
D
100
AcDbEntity
 67
     1
  8
LOGO
  6
Continuous
100
AcDbCircle
 10
30.62030069389908
 20
12.55043648932383
 30
0.0
 40
0.7054058098534406
  0
CIRCLE
  5
DAB
330
D
100
AcDbEntity
 67
     1
  8
LOGO
  6
Continuous
100
AcDbCircle
 10
30.62030069389908
 20
12.55043648932383
 30
0.0
 40
0.4133053585308827
  0
LINE
  5
DAC
330
D
100
AcDbEntity
 67
     1
  8
LOGO
100
AcDbLine
 10
35.05315265484666
 20
11.84503067947032
 30
0.0
 11
35.05315265484666
 21
13.2558422991774
 31
0.0
  0
LINE
  5
DAD
330
D
100
AcDbEntity
 67
     1
  8
LOGO
100
AcDbLine
 10
32.8417459331815
 20
12.13713113079301
 30
0.0
 11
32.8417459331815
 21
12.96374184785486
 31
0.0
  0
LINE
  5
DAE
330
D
100
AcDbEntity
 67
     1
  8
LOGO
  6
Continuous
100
AcDbLine
 10
32.8417459331815
 20
12.96374184785486
 30
0.0
 11
35.05315265484666
 21
13.2558422991774
 31
0.0
  0
LINE
  5
DAF
330
D
100
AcDbEntity
 67
     1
  8
LOGO
  6
Continuous
100
AcDbLine
 10
32.8417459331815
 20
12.13713113079301
 30
0.0
 11
35.05315265484666
 21
11.84503067947032
 31
0.0
  0
LINE
  5
DB0
330
D
100
AcDbEntity
 67
     1
  8
LOGO
  6
AM_ISO08W050x2
 48
0.3
100
AcDbLine
 10
29.6478882223955
 20
12.55043648932383
 30
0.0
 11
31.5927131654019
 21
12.55043648932383
 31
0.0
1001
GENIUS_GENOREF_13
1005
DBB
  0
LINE
  5
DB1
330
D
100
AcDbEntity
 67
     1
  8
LOGO
  6
AM_ISO08W050x2
 48
0.3
100
AcDbLine
 10
30.62030069389908
 20
11.57802401782076
 30
0.0
 11
30.62030069389908
 21
13.52284896082713
 31
0.0
1001
GENIUS_GENOREF_13
1005
DBA
  0
LINE
  5
DB2
330
D
100
AcDbEntity
 67
     1
  8
LOGO
  6
CENTER
 48
0.5
100
AcDbLine
 10
32.66489486121069
 20
12.55043648932383
 30
0.0
 11
35.27583415302536
 21
12.55043648932383
 31
0.0
1001
GENIUS_GENOREF_13
1005
DB9
  0
POINT
  5
DB9
330
D
100
AcDbEntity
 67
     1
  8
0
 60
     1
100
AcDbPoint
 10
2113.309964340805
 20
-560.586859288516
 30
0.0
1001
GENIUS_GENOBJ-N-CRS_13
1002
{
1000
OWNER
1000
GEN
1002
}
1001
GENIUS_GENOLIS_13
1002
{
1000
ENT
1005
0
1005
0
1005
0
1005
DB2
1002
}
1001
GENIUS_GENOENT_13
1002
{
1000
MYREF
1005
DB9
1002
}
1002
{
1000
GRP
1005
0
1002
}
1001
GENIUS_GENODEF_13
1002
{
1000
HIER
1070
    10
1002
}
1002
{
1000
MANEDIT
1070
     1
1002
}
1002
{
1000
NOSEL
1070
     0
1002
}
1002
{
1000
BEHIND
1070
     0
1002
}
1002
{
1000
OTHER
1070
     0
1002
}
1002
{
1000
REACTOR
1002
}
  0
POINT
  5
DBA
330
D
100
AcDbEntity
 67
     1
  8
0
 60
     1
100
AcDbPoint
 10
2101.98537911795
 20
-551.7112728098798
 30
0.0
1001
GENIUS_GENOBJ-N-CRS_13
1002
{
1000
OWNER
1000
GEN
1002
}
1001
GENIUS_GENOLIS_13
1002
{
1000
ENT
1005
0
1005
0
1005
0
1005
DB1
1002
}
1001
GENIUS_GENOENT_13
1002
{
1000
MYREF
1005
DBA
1002
}
1002
{
1000
GRP
1005
0
1002
}
1001
GENIUS_GENODEF_13
1002
{
1000
HIER
1070
    10
1002
}
1002
{
1000
MANEDIT
1070
     1
1002
}
1002
{
1000
NOSEL
1070
     0
1002
}
1002
{
1000
BEHIND
1070
     0
1002
}
1002
{
1000
OTHER
1070
     0
1002
}
1002
{
1000
REACTOR
1002
}
  0
POINT
  5
DBB
330
D
100
AcDbEntity
 67
     1
  8
0
 60
     1
100
AcDbPoint
 10
2108.344052815787
 20
-560.586859288516
 30
0.0
1001
GENIUS_GENOBJ-N-CRS_13
1002
{
1000
OWNER
1000
GEN
1002
}
1001
GENIUS_GENOLIS_13
1002
{
1000
ENT
1005
0
1005
0
1005
0
1005
DB0
1002
}
1001
GENIUS_GENOENT_13
1002
{
1000
MYREF
1005
DBB
1002
}
1002
{
1000
GRP
1005
0
1002
}
1001
GENIUS_GENODEF_13
1002
{
1000
HIER
1070
    10
1002
}
1002
{
1000
MANEDIT
1070
     1
1002
}
1002
{
1000
NOSEL
1070
     0
1002
}
1002
{
1000
BEHIND
1070
     0
1002
}
1002
{
1000
OTHER
1070
     0
1002
}
1002
{
1000
REACTOR
1002
}
  0
LWPOLYLINE
  5
2552
330
D
100
AcDbEntity
 67
     1
  8
LOGO
 62
     4
100
AcDbPolyline
 90
        4
 70
     1
 43
0.0
 10
9.742109015938581
 20
125.1684522150207
 10
182.9339165710926
 20
125.1684522150207
 10
182.9339165710926
 20
16.1925702048025
 10
9.742109015938581
 20
16.1925702048025
  0
LINE
  5
3A88
330
D
100
AcDbEntity
 67
     1
  8
AM_VIS
100
AcDbLine
 10
115.0613625701043
 20
67.00107711117595
 30
0.0
 11
115.0613625701043
 21
50.14138953491921
 31
0.0
  0
LINE
  5
3A89
330
D
100
AcDbEntity
 67
     1
  8
AM_VIS
100
AcDbLine
 10
115.0613625701043
 20
85.14138953491928
 30
0.0
 11
115.0613625701043
 21
68.28170195866261
 31
0.0
  0
LINE
  5
3A8A
330
D
100
AcDbEntity
 67
     1
  8
AM_VIS
100
AcDbLine
 10
115.0613625701043
 20
68.28170195866263
 30
0.0
 11
115.0613625701043
 21
67.00107711117593
 31
0.0
  0
LINE
  5
3A8B
330
D
100
AcDbEntity
 67
     1
  8
AM_VIS
100
AcDbLine
 10
147.0613625701043
 20
51.41640879533131
 30
0.0
 11
147.0613625701043
 21
83.86637027450726
 31
0.0
  0
LINE
  5
3A8E
330
D
100
AcDbEntity
 67
     1
  8
AM_VIS
100
AcDbLine
 10
115.0613625701043
 20
85.14138953491926
 30
0.0
 11
124.4452831726887
 21
85.14138953491928
 31
0.0
  0
LINE
  5
3A8F
330
D
100
AcDbEntity
 67
     1
  8
AM_VIS
100
AcDbLine
 10
129.6774419675198
 20
85.14138953491928
 30
0.0
 11
147.0613625701043
 21
85.14138953491928
 31
0.0
  0
LINE
  5
3A90
330
D
100
AcDbEntity
 67
     1
  8
AM_VIS
100
AcDbLine
 10
147.0613625701043
 20
83.86637027450726
 30
0.0
 11
115.0613625701043
 21
83.86637027450726
 31
0.0
  0
LINE
  5
3A91
330
D
100
AcDbEntity
 67
     1
  8
AM_VIS
100
AcDbLine
 10
147.0613625701043
 20
50.1413895349192
 30
0.0
 11
129.6774420526585
 21
50.1413895349192
 31
0.0
  0
LINE
  5
3A92
330
D
100
AcDbEntity
 67
     1
  8
AM_VIS
100
AcDbLine
 10
124.4452830755943
 20
50.1413895349192
 30
0.0
 11
115.0613625701042
 21
50.1413895349192
 31
0.0
  0
LINE
  5
3A95
330
D
100
AcDbEntity
 67
     1
  8
AM_VIS
100
AcDbLine
 10
115.0613625701043
 20
51.41640879533134
 30
0.0
 11
147.0613625701043
 21
51.41640879533134
 31
0.0
  0
ARC
  5
3A96
330
D
100
AcDbEntity
 67
     1
  8
AM_VIS
100
AcDbCircle
 10
142.0612262929013
 20
80.14095292340824
 30
0.0
 40
2.067423914002478
100
AcDbArc
 50
55.33488912175847
 51
89.99622326677869
  0
LINE
  5
3A97
330
D
100
AcDbEntity
 67
     1
  8
AM_VIS
100
AcDbLine
 10
94.06136257010436
 20
57.64138953491928
 30
0.0
 11
94.56136257010435
 21
57.64138953491928
 31
0.0
  0
LINE
  5
3A98
330
D
100
AcDbEntity
 67
     1
  8
AM_VIS
100
AcDbLine
 10
94.06136257010436
 20
77.64138953491928
 30
0.0
 11
94.56136257010435
 21
77.64138953491928
 31
0.0
  0
LINE
  5
3A99
330
D
100
AcDbEntity
 67
     1
  8
AM_VIS
100
AcDbLine
 10
95.13871283929393
 20
56.64138953491928
 30
0.0
 11
94.56136257010435
 21
57.64138953491928
 31
0.0
  0
LINE
  5
3A9A
330
D
100
AcDbEntity
 67
     1
  8
AM_VIS
100
AcDbLine
 10
95.13871283929393
 20
78.64138953491928
 30
0.0
 11
94.56136257010435
 21
77.64138953491928
 31
0.0
  0
LINE
  5
3A9B
330
D
100
AcDbEntity
 67
     1
  8
AM_VIS
100
AcDbLine
 10
95.13871283929393
 20
56.64138953491928
 30
0.0
 11
98.06136257010436
 21
56.64138953491928
 31
0.0
  0
LINE
  5
3A9C
330
D
100
AcDbEntity
 67
     1
  8
AM_VIS
100
AcDbLine
 10
108.0613625701043
 20
56.64138953491928
 30
0.0
 11
110.4840123009147
 21
56.64138953491928
 31
0.0
  0
LINE
  5
3A9D
330
D
100
AcDbEntity
 67
     1
  8
AM_VIS
100
AcDbLine
 10
95.13871283929393
 20
78.64138953491928
 30
0.0
 11
98.06136257010436
 21
78.64138953491928
 31
0.0
  0
LINE
  5
3A9E
330
D
100
AcDbEntity
 67
     1
  8
AM_VIS
100
AcDbLine
 10
108.0613625701043
 20
78.64138953491928
 30
0.0
 11
110.4840123009147
 21
78.64138953491928
 31
0.0
  0
LINE
  5
3A9F
330
D
100
AcDbEntity
 67
     1
  8
AM_VIS
100
AcDbLine
 10
111.2923026777801
 20
57.64138953491931
 30
0.0
 11
112.6613625701043
 21
57.64138953491931
 31
0.0
  0
LINE
  5
3AA0
330
D
100
AcDbEntity
 67
     1
  8
AM_VIS
100
AcDbLine
 10
111.2923026777801
 20
77.64138953491928
 30
0.0
 11
112.6613625701043
 21
77.64138953491928
 31
0.0
  0
LINE
  5
3AA1
330
D
100
AcDbEntity
 67
     1
  8
AM_VIS
100
AcDbLine
 10
110.4840123009147
 20
56.64138953491928
 30
0.0
 11
110.9458925162664
 21
57.4413895349193
 31
0.0
  0
LINE
  5
3AA2
330
D
100
AcDbEntity
 67
     1
  8
AM_VIS
100
AcDbLine
 10
110.4840123009147
 20
78.64138953491928
 30
0.0
 11
110.9458925162664
 21
77.84138953491925
 31
0.0
  0
LINE
  5
3AA3
330
D
100
AcDbEntity
 67
     1
  8
AM_VIS
100
AcDbLine
 10
113.0613625701043
 20
56.64138953491928
 30
0.0
 11
115.0613625701043
 21
56.64138953491928
 31
0.0
  0
LINE
  5
3AA4
330
D
100
AcDbEntity
 67
     1
  8
AM_VIS
100
AcDbLine
 10
113.0613625701043
 20
78.64138953491928
 30
0.0
 11
115.0613625701043
 21
78.64138953491928
 31
0.0
  0
ARC
  5
3AA5
330
D
100
AcDbEntity
 67
     1
  8
AM_VIS
100
AcDbCircle
 10
111.2923031750819
 20
57.24138867356749
 30
0.0
 40
0.4000008613521439
100
AcDbArc
 50
90.00007122744506
 51
149.99992876131
  0
ARC
  5
3AA6
330
D
100
AcDbEntity
 67
     1
  8
AM_VIS
100
AcDbCircle
 10
112.6613625697622
 20
57.24138953457717
 30
0.0
 40
0.4000000003421055
100
AcDbArc
 50
0.0000000490129074
 51
89.99999995099846
  0
ARC
  5
3AA7
330
D
100
AcDbEntity
 67
     1
  8
AM_VIS
100
AcDbCircle
 10
112.6613625697622
 20
78.04138953526138
 30
0.0
 40
0.4000000003420931
100
AcDbArc
 50
270.0
 51
359.9999999019986
  0
ARC
  5
3AA8
330
D
100
AcDbEntity
 67
     1
  8
AM_VIS
100
AcDbCircle
 10
111.2923031750817
 20
78.04139039627083
 30
0.0
 40
0.4000008613518287
100
AcDbArc
 50
210.0000712330504
 51
269.9999287669563
  0
LINE
  5
3AA9
330
D
100
AcDbEntity
 67
     1
  8
AM_VIS
100
AcDbLine
 10
93.06136257010434
 20
67.64138953491928
 30
0.0
 11
93.06136257010434
 21
76.64138953491928
 31
0.0
  0
ARC
  5
3AAA
330
D
100
AcDbEntity
 67
     1
  8
AM_VIS
100
AcDbCircle
 10
137.0613625701043
 20
67.64138953491928
 30
0.0
 40
2.1
100
AcDbArc
 50
263.9728334398679
 51
96.02716656013043
  0
ARC
  5
3AAB
330
D
100
AcDbEntity
 67
     1
  8
AM_VIS
100
AcDbCircle
 10
117.0613625701043
 20
67.64138953491928
 30
0.0
 40
2.1
100
AcDbArc
 50
197.7527901619473
 51
276.0271665601305
  0
ARC
  5
3AAC
330
D
100
AcDbEntity
 67
     1
  8
AM_VIS
100
AcDbCircle
 10
117.0613625701043
 20
67.64138953491928
 30
0.0
 40
2.1
100
AcDbArc
 50
83.97283343986956
 51
162.2472098380527
  0
ARC
  5
3AAD
330
D
100
AcDbEntity
 67
     1
  8
AM_VIS
100
AcDbCircle
 10
127.0613625701043
 20
67.64138953491928
 30
0.0
 40
10.0
100
AcDbArc
 50
192.0543331202619
 51
347.945666879738
  0
ARC
  5
3AAE
330
D
100
AcDbEntity
 67
     1
  8
AM_VIS
100
AcDbCircle
 10
127.0613625701043
 20
67.64138953491928
 30
0.0
 40
10.0
100
AcDbArc
 50
12.05433312026201
 51
167.945666879738
  0
LINE
  5
3AB0
330
D
100
AcDbEntity
 67
     1
  8
AM_VIS
100
AcDbLine
 10
147.0613625701043
 20
83.86637027450726
 30
0.0
 11
147.0613625701043
 21
85.14138953491928
 31
0.0
  0
LINE
  5
3AB1
330
D
100
AcDbEntity
 67
     1
  8
AM_VIS
100
AcDbLine
 10
147.0613625701043
 20
50.1413895349192
 30
0.0
 11
147.0613625701043
 21
51.41640879533131
 31
0.0
  0
ARC
  5
3AB3
330
D
100
AcDbEntity
 67
     1
  8
AM_VIS
100
AcDbCircle
 10
142.0613625701043
 20
80.14138953491926
 30
0.0
 40
2.066987297999999
100
AcDbArc
 50
180.0
 51
0.0
  0
ARC
  5
3AB4
330
D
100
AcDbEntity
 67
     1
  8
AM_VIS
100
AcDbCircle
 10
142.0613625701043
 20
80.14138953491926
 30
0.0
 40
2.066987297999999
100
AcDbArc
 50
0.0
 51
180.0
  0
LINE
  5
3AB5
330
D
100
AcDbEntity
 67
     1
  8
AM_VIS
100
AcDbLine
 10
93.06136257010434
 20
58.64138953491928
 30
0.0
 11
93.06136257010434
 21
67.64138953491928
 31
0.0
  0
LINE
  5
3AB6
330
D
100
AcDbEntity
 67
     1
  8
AM_VIS
100
AcDbLine
 10
94.56136257010435
 20
57.64138953491928
 30
0.0
 11
94.56136257010435
 21
77.64138953491928
 31
0.0
  0
LINE
  5
3AB7
330
D
100
AcDbEntity
 67
     1
  8
AM_VIS
100
AcDbLine
 10
95.13871283929393
 20
78.64138953491928
 30
0.0
 11
95.13871283929393
 21
56.64138953491928
 31
0.0
  0
LINE
  5
3AB8
330
D
100
AcDbEntity
 67
     1
  8
AM_VIS
100
AcDbLine
 10
110.4840123009147
 20
56.64138953491928
 30
0.0
 11
110.4840123009147
 21
78.64138953491928
 31
0.0
  0
LINE
  5
3AB9
330
D
100
AcDbEntity
 67
     1
  8
AM_VIS
100
AcDbLine
 10
113.0613625701043
 20
56.64138953491928
 30
0.0
 11
113.0613625701043
 21
78.64138953491928
 31
0.0
  0
ARC
  5
3ABA
330
D
100
AcDbEntity
 67
     1
  8
AM_VIS
100
AcDbCircle
 10
94.06136257010436
 20
76.64138953491928
 30
0.0
 40
1.0
100
AcDbArc
 50
90.0
 51
180.0
  0
ARC
  5
3ABB
330
D
100
AcDbEntity
 67
     1
  8
AM_VIS
100
AcDbCircle
 10
94.06136257010436
 20
58.64138953491928
 30
0.0
 40
1.0
100
AcDbArc
 50
180.0
 51
270.0
  0
LINE
  5
3ABC
330
D
100
AcDbEntity
 67
     1
  8
AM_VIS
100
AcDbLine
 10
124.4452831726887
 20
85.14138953491928
 30
0.0
 11
129.6774419675198
 21
85.14138953491928
 31
0.0
  0
LINE
  5
3ABD
330
D
100
AcDbEntity
 67
     1
  8
AM_VIS
100
AcDbLine
 10
136.8800813079716
 20
65.74593040898512
 30
0.0
 11
136.8808626810427
 21
65.74998269253399
 31
0.0
  0
LINE
  5
3ABE
330
D
100
AcDbEntity
 67
     1
  8
AM_VIS
100
AcDbLine
 10
117.241862434016
 20
65.74998269060903
 30
0.0
 11
117.2426438371368
 21
65.74593040992877
 31
0.0
  0
LINE
  5
3ABF
330
D
100
AcDbEntity
 67
     1
  8
AM_VIS
100
AcDbLine
 10
136.8800813030718
 20
69.53684865990968
 30
0.0
 11
136.8808627061925
 21
69.53279637922952
 31
0.0
  0
LINE
  5
3AC0
330
D
100
AcDbEntity
 67
     1
  8
AM_VIS
100
AcDbLine
 10
117.2418624591659
 20
69.53279637730452
 30
0.0
 11
117.242643832237
 21
69.53684866085335
 31
0.0
  0
ARC
  5
3AC2
330
D
100
AcDbEntity
 67
     1
  8
AM_VIS
100
AcDbCircle
 10
127.0613625701043
 20
67.64138953491926
 30
0.0
 40
10.0
100
AcDbArc
 50
190.9262852069917
 51
349.0737147930083
  0
ARC
  5
3AC4
330
D
100
AcDbEntity
 67
     1
  8
AM_VIS
100
AcDbCircle
 10
127.0613625701043
 20
67.64138953491926
 30
0.0
 40
10.0
100
AcDbArc
 50
10.92628520699171
 51
169.0737147930083
  0
LINE
  5
3AC5
330
D
100
AcDbEntity
 67
     1
  8
AM_VIS
100
AcDbLine
 10
129.6774420526585
 20
50.14138967861462
 30
0.0
 11
124.4452830755943
 21
50.14138969879351
 31
0.0
  0
LINE
  5
3AC6
330
D
100
AcDbEntity
 67
     1
  8
AM_VIS
100
AcDbLine
 10
99.49319123769443
 20
86.12138953491927
 30
0.0
 11
106.629533902514
 21
86.12138953491927
 31
0.0
  0
SPLINE
  5
3AC7
330
D
100
AcDbEntity
 67
     1
  8
AM_VIS
100
AcDbSpline
210
0.0
220
0.0
230
1.0
 70
    12
 71
     2
 72
     6
 73
     3
 74
     0
 42
0.0000000001
 43
0.0000000001
 40
0.0
 40
0.0
 40
0.0
 40
18.69982659052647
 40
18.69982659052647
 40
18.69982659052647
 10
106.629533902514
 20
86.12138953491919
 30
0.0
 41
1.0
 10
109.29689214617
 20
81.5013895349193
 30
0.0
 41
1.154700538379234
 10
106.629533902514
 20
76.88138953491947
 30
0.0
 41
1.0
  0
SPLINE
  5
3AC8
330
D
100
AcDbEntity
 67
     1
  8
AM_VIS
100
AcDbSpline
210
0.0
220
0.0
230
1.0
 70
    12
 71
     2
 72
     6
 73
     3
 74
     0
 42
0.0000000001
 43
0.0000000001
 40
0.0
 40
0.0
 40
0.0
 40
18.69982659052641
 40
18.69982659052641
 40
18.69982659052641
 10
99.49319123769443
 20
76.88138953491947
 30
0.0
 41
1.0
 10
96.82583299403864
 20
81.5013895349193
 30
-0.0000000000000142
 41
1.154700538379244
 10
99.49319123769443
 20
86.12138953491919
 30
0.0
 41
1.0
  0
SPLINE
  5
3AC9
330
D
100
AcDbEntity
 67
     1
  8
AM_VIS
100
AcDbSpline
210
0.0
220
0.0
230
1.0
 70
    12
 71
     2
 72
     6
 73
     3
 74
     0
 42
0.0000000001
 43
0.0000000001
 40
9.349913295263499
 40
9.349913295263499
 40
9.349913295263499
 40
18.699826590527
 40
18.699826590527
 40
18.699826590527
 10
98.06375826307025
 20
67.64138953491924
 30
0.0
 41
1.077350269189617
 10
98.06375826307025
 20
71.92968845879217
 30
0.0
 41
1.077350269189617
 10
99.49319123769443
 20
76.88138953491938
 30
0.0
 41
1.0
  0
LINE
  5
3ACA
330
D
100
AcDbEntity
 67
     1
  8
AM_VIS
100
AcDbLine
 10
99.49319123769443
 20
76.8813895349194
 30
0.0
 11
106.629533902514
 21
76.8813895349194
 31
0.0
  0
SPLINE
  5
3ACB
330
D
100
AcDbEntity
 67
     1
  8
AM_VIS
100
AcDbSpline
210
-0.0000000000000363
220
-0.0000000000000073
230
1.0
 70
    12
 71
     2
 72
     6
 73
     3
 74
     0
 42
0.0000000001
 43
0.0000000001
 40
0.0
 40
0.0
 40
0.0
 40
9.349913295263522
 40
9.349913295263522
 40
9.349913295263522
 10
106.629533902514
 20
76.88138953491938
 30
0.0
 41
1.0
 10
108.0589668771383
 20
71.92968845879216
 30
-0.0000000000000142
 41
1.077350269189624
 10
108.0589668771383
 20
67.64138953491928
 30
-0.0000000000000142
 41
1.077350269189624
  0
LINE
  5
3ACC
330
D
100
AcDbEntity
 67
     1
  8
AM_VIS
100
AcDbLine
 10
106.629533902514
 20
58.40138953491905
 30
0.0
 11
99.49319123769443
 21
58.40138953491905
 31
0.0
  0
LINE
  5
3ACD
330
D
100
AcDbEntity
 67
     1
  8
AM_VIS
100
AcDbLine
 10
99.49319123769443
 20
49.16138953491927
 30
0.0
 11
106.629533902514
 21
49.16138953491927
 31
0.0
  0
SPLINE
  5
3ACE
330
D
100
AcDbEntity
 67
     1
  8
AM_VIS
100
AcDbSpline
210
0.0
220
0.0
230
1.0
 70
    12
 71
     2
 72
     6
 73
     3
 74
     0
 42
0.0000000001
 43
0.0000000001
 40
0.0
 40
0.0
 40
0.0
 40
18.69982659052639
 40
18.69982659052639
 40
18.69982659052639
 10
106.629533902514
 20
58.401389534919
 30
0.0
 41
1.0
 10
109.29689214617
 20
53.78138953491915
 30
-0.0000000000000142
 41
1.154700538379259
 10
106.629533902514
 20
49.16138953491929
 30
0.0
 41
1.0
  0
SPLINE
  5
3ACF
330
D
100
AcDbEntity
 67
     1
  8
AM_VIS
100
AcDbSpline
210
-0.0000000000000363
220
0.0000000000000073
230
1.0
 70
    12
 71
     2
 72
     6
 73
     3
 74
     0
 42
0.0000000001
 43
0.0000000001
 40
9.349913295263522
 40
9.349913295263522
 40
9.349913295263522
 40
18.69982659052704
 40
18.69982659052704
 40
18.69982659052704
 10
108.0589668771383
 20
67.64138953491928
 30
-0.0000000000000142
 41
1.077350269189624
 10
108.0589668771383
 20
63.35309061104634
 30
-0.0000000000000142
 41
1.077350269189624
 10
106.629533902514
 20
58.40138953491912
 30
0.0
 41
1.0
  0
SPLINE
  5
3AD0
330
D
100
AcDbEntity
 67
     1
  8
AM_VIS
100
AcDbSpline
210
0.0
220
0.0
230
1.0
 70
    12
 71
     2
 72
     6
 73
     3
 74
     0
 42
0.0000000001
 43
0.0000000001
 40
0.0
 40
0.0
 40
0.0
 40
9.349913295263499
 40
9.349913295263499
 40
9.349913295263499
 10
99.49319123769443
 20
58.40138953491912
 30
0.0
 41
1.0
 10
98.06375826307025
 20
63.35309061104632
 30
0.0
 41
1.077350269189617
 10
98.06375826307025
 20
67.64138953491924
 30
0.0
 41
1.077350269189617
  0
SPLINE
  5
3AD1
330
D
100
AcDbEntity
 67
     1
  8
AM_VIS
100
AcDbSpline
210
0.0
220
0.0
230
1.0
 70
    12
 71
     2
 72
     6
 73
     3
 74
     0
 42
0.0000000001
 43
0.0000000001
 40
0.0
 40
0.0
 40
0.0
 40
18.69982659052641
 40
18.69982659052641
 40
18.69982659052641
 10
99.49319123769443
 20
49.16138953491929
 30
0.0
 41
1.0
 10
96.82583299403864
 20
53.78138953491911
 30
-0.0000000000000142
 41
1.154700538379244
 10
99.49319123769443
 20
58.40138953491901
 30
0.0
 41
1.0
  0
LINE
  5
3AD2
330
D
100
AcDbEntity
 67
     1
  8
AM_VIS
100
AcDbLine
 10
98.06136257010436
 20
83.64138953491929
 30
0.0
 11
99.49319123769456
 21
86.12138953491925
 31
0.0
  0
LINE
  5
3AD3
330
D
100
AcDbEntity
 67
     1
  8
AM_VIS
100
AcDbLine
 10
108.0613625701043
 20
83.64138953491925
 30
0.0
 11
106.629533902514
 21
86.12138953491927
 31
0.0
  0
LINE
  5
3AD4
330
D
100
AcDbEntity
 67
     1
  8
AM_VIS
100
AcDbLine
 10
108.0613625701043
 20
51.64138953491925
 30
0.0
 11
106.629533902514
 21
49.16138953491922
 31
0.0
  0
LINE
  5
3AD5
330
D
100
AcDbEntity
 67
     1
  8
AM_VIS
100
AcDbLine
 10
98.06136257010436
 20
51.64138953491923
 30
0.0
 11
99.49319123769456
 21
49.16138953491927
 31
0.0
  0
LINE
  5
3AD6
330
D
100
AcDbEntity
 67
     1
  8
AM_VIS
100
AcDbLine
 10
98.06136257010436
 20
83.64138953491929
 30
0.0
 11
98.06136257010436
 21
67.64138953491926
 31
0.0
  0
LINE
  5
3AD7
330
D
100
AcDbEntity
 67
     1
  8
AM_VIS
100
AcDbLine
 10
108.0613625701043
 20
83.64138953491925
 30
0.0
 11
108.0613625701043
 21
67.64138953491926
 31
0.0
  0
LINE
  5
3AD8
330
D
100
AcDbEntity
 67
     1
  8
AM_VIS
100
AcDbLine
 10
108.0613625701043
 20
67.64138953491926
 30
0.0
 11
108.0613625701043
 21
51.64138953491925
 31
0.0
  0
LINE
  5
3AD9
330
D
100
AcDbEntity
 67
     1
  8
AM_VIS
100
AcDbLine
 10
98.06136257010436
 20
67.64138953491926
 30
0.0
 11
98.06136257010436
 21
51.64138953491923
 31
0.0
  0
LINE
  5
3ADE
330
D
100
AcDbEntity
 67
     1
  8
AM_VIS
100
AcDbLine
 10
138.0113625701043
 20
67.48638953491925
 30
0.0
 11
137.2163625701043
 21
67.48638953491925
 31
0.0
  0
LINE
  5
3ADF
330
D
100
AcDbEntity
 67
     1
  8
AM_VIS
100
AcDbLine
 10
136.9063625701043
 20
67.48638953491925
 30
0.0
 11
136.1113625701043
 21
67.48638953491925
 31
0.0
  0
LINE
  5
3AE0
330
D
100
AcDbEntity
 67
     1
  8
AM_VIS
100
AcDbLine
 10
136.1113625701043
 20
67.48638953491925
 30
0.0
 11
136.1113625701043
 21
67.79638953491925
 31
0.0
  0
LINE
  5
3AE2
330
D
100
AcDbEntity
 67
     1
  8
AM_VIS
100
AcDbLine
 10
138.0113625701043
 20
67.79638953491925
 30
0.0
 11
138.0113625701043
 21
67.48638953491925
 31
0.0
  0
LINE
  5
3AE4
330
D
100
AcDbEntity
 67
     1
  8
AM_VIS
100
AcDbLine
 10
137.2163625701043
 20
67.79638953491925
 30
0.0
 11
138.0113625701043
 21
67.79638953491925
 31
0.0
  0
LINE
  5
3AE5
330
D
100
AcDbEntity
 67
     1
  8
AM_VIS
100
AcDbLine
 10
136.1113625701043
 20
67.79638953491925
 30
0.0
 11
136.9063625701043
 21
67.79638953491925
 31
0.0
  0
LINE
  5
3AE6
330
D
100
AcDbEntity
 67
     1
  8
AM_VIS
100
AcDbLine
 10
136.9063625701043
 20
67.79638953491925
 30
0.0
 11
136.9063625701043
 21
68.59138953491927
 31
0.0
  0
LINE
  5
3AE8
330
D
100
AcDbEntity
 67
     1
  8
AM_VIS
100
AcDbLine
 10
136.9063625701043
 20
66.69138953491922
 30
0.0
 11
136.9063625701043
 21
67.48638953491925
 31
0.0
  0
LINE
  5
3AEB
330
D
100
AcDbEntity
 67
     1
  8
AM_VIS
100
AcDbLine
 10
137.2163625701043
 20
66.69138953491922
 30
0.0
 11
136.9063625701043
 21
66.69138953491922
 31
0.0
  0
LINE
  5
3AEF
330
D
100
AcDbEntity
 67
     1
  8
AM_VIS
100
AcDbLine
 10
136.9063625701043
 20
68.59138953491927
 30
0.0
 11
137.2163625701043
 21
68.59138953491927
 31
0.0
  0
LINE
  5
3AF3
330
D
100
AcDbEntity
 67
     1
  8
AM_VIS
100
AcDbLine
 10
137.2163625701043
 20
68.59138953491927
 30
0.0
 11
137.2163625701043
 21
67.79638953491925
 31
0.0
  0
LINE
  5
3AF4
330
D
100
AcDbEntity
 67
     1
  8
AM_VIS
100
AcDbLine
 10
137.2163625701043
 20
67.48638953491925
 30
0.0
 11
137.2163625701043
 21
66.69138953491922
 31
0.0
  0
ARC
  5
3AF6
330
D
100
AcDbEntity
 67
     1
  8
AM_VIS
100
AcDbCircle
 10
137.0613625701043
 20
67.64138953491926
 30
0.0
 40
1.899999999999976
100
AcDbArc
 50
0.0
 51
180.0
  0
ARC
  5
3AF7
330
D
100
AcDbEntity
 67
     1
  8
AM_VIS
100
AcDbCircle
 10
137.0613625701043
 20
67.64138953491926
 30
0.0
 40
1.899999999999976
100
AcDbArc
 50
180.0
 51
0.0
  0
LINE
  5
3AF8
330
D
100
AcDbEntity
 67
     1
  8
AM_VIS
100
AcDbLine
 10
117.2163625701043
 20
68.59138953491933
 30
0.0
 11
117.2163625701043
 21
67.79638953491931
 31
0.0
  0
LINE
  5
3AF9
330
D
100
AcDbEntity
 67
     1
  8
AM_VIS
100
AcDbLine
 10
117.2163625701043
 20
67.48638953491931
 30
0.0
 11
117.2163625701043
 21
66.69138953491932
 31
0.0
  0
LINE
  5
3AFA
330
D
100
AcDbEntity
 67
     1
  8
AM_VIS
100
AcDbLine
 10
117.2163625701043
 20
66.6913895349193
 30
0.0
 11
116.9063625701043
 21
66.6913895349193
 31
0.0
  0
LINE
  5
3AFC
330
D
100
AcDbEntity
 67
     1
  8
AM_VIS
100
AcDbLine
 10
116.9063625701043
 20
68.59138953491933
 30
0.0
 11
117.2163625701043
 21
68.59138953491933
 31
0.0
  0
LINE
  5
3AFE
330
D
100
AcDbEntity
 67
     1
  8
AM_VIS
100
AcDbLine
 10
116.9063625701043
 20
67.79638953491931
 30
0.0
 11
116.9063625701043
 21
68.59138953491933
 31
0.0
  0
LINE
  5
3AFF
330
D
100
AcDbEntity
 67
     1
  8
AM_VIS
100
AcDbLine
 10
116.9063625701043
 20
66.6913895349193
 30
0.0
 11
116.9063625701043
 21
67.48638953491928
 31
0.0
  0
LINE
  5
3B00
330
D
100
AcDbEntity
 67
     1
  8
AM_VIS
100
AcDbLine
 10
116.9063625701043
 20
67.48638953491931
 30
0.0
 11
116.1113625701043
 21
67.48638953491931
 31
0.0
  0
LINE
  5
3B02
330
D
100
AcDbEntity
 67
     1
  8
AM_VIS
100
AcDbLine
 10
118.0113625701043
 20
67.48638953491931
 30
0.0
 11
117.2163625701043
 21
67.48638953491931
 31
0.0
  0
LINE
  5
3B05
330
D
100
AcDbEntity
 67
     1
  8
AM_VIS
100
AcDbLine
 10
118.0113625701043
 20
67.79638953491931
 30
0.0
 11
118.0113625701043
 21
67.48638953491931
 31
0.0
  0
LINE
  5
3B09
330
D
100
AcDbEntity
 67
     1
  8
AM_VIS
100
AcDbLine
 10
116.1113625701043
 20
67.48638953491931
 30
0.0
 11
116.1113625701043
 21
67.79638953491931
 31
0.0
  0
LINE
  5
3B0D
330
D
100
AcDbEntity
 67
     1
  8
AM_VIS
100
AcDbLine
 10
116.1113625701043
 20
67.79638953491931
 30
0.0
 11
116.9063625701043
 21
67.79638953491931
 31
0.0
  0
LINE
  5
3B0E
330
D
100
AcDbEntity
 67
     1
  8
AM_VIS
100
AcDbLine
 10
117.2163625701043
 20
67.79638953491931
 30
0.0
 11
118.0113625701043
 21
67.79638953491931
 31
0.0
  0
ARC
  5
3B10
330
D
100
AcDbEntity
 67
     1
  8
AM_VIS
100
AcDbCircle
 10
117.0613625701043
 20
67.64138953491928
 30
0.0
 40
1.899999999999976
100
AcDbArc
 50
90.0
 51
270.0
  0
ARC
  5
3B11
330
D
100
AcDbEntity
 67
     1
  8
AM_VIS
100
AcDbCircle
 10
117.0613625701043
 20
67.64138953491928
 30
0.0
 40
1.899999999999976
100
AcDbArc
 50
270.0
 51
90.0
  0
LINE
  5
3B12
330
D
100
AcDbEntity
 67
     1
  8
AM_VIS
100
AcDbLine
 10
91.56136257010436
 20
62.14138953491911
 30
0.0
 11
93.06136257010313
 21
60.59218624122514
 31
0.0
  0
LINE
  5
3B13
330
D
100
AcDbEntity
 67
     1
  8
AM_VIS
100
AcDbLine
 10
91.56136257010436
 20
73.14138953491941
 30
0.0
 11
93.06136257010319
 21
74.69059282861337
 31
0.0
  0
LINE
  5
3B14
330
D
100
AcDbEntity
 67
     1
  8
AM_VIS
100
AcDbLine
 10
91.56136257010436
 20
62.14138953491911
 30
0.0
 11
91.56136257010436
 21
67.64138953491926
 31
0.0
  0
LINE
  5
3B15
330
D
100
AcDbEntity
 67
     1
  8
AM_VIS
100
AcDbLine
 10
91.56136257010436
 20
67.64138953491926
 30
0.0
 11
91.56136257010436
 21
73.14138953491941
 31
0.0
  0
LINE
  5
3B16
330
D
100
AcDbEntity
 67
     1
  8
AM_VIS
100
AcDbLine
 10
65.18770792686523
 20
67.00107711117595
 30
0.0
 11
65.18770792686523
 21
51.41640879533134
 31
0.0
  0
LINE
  5
3B17
330
D
100
AcDbEntity
 67
     1
  8
AM_VIS
100
AcDbLine
 10
65.18770792686523
 20
83.86637027450726
 30
0.0
 11
65.18770792686523
 21
68.28170195866261
 31
0.0
  0
SPLINE
  5
3B18
330
D
100
AcDbEntity
 67
     1
  8
AM_VIS
100
AcDbSpline
210
0.0
220
0.0
230
1.0
 70
    12
 71
     2
 72
     6
 73
     3
 74
     0
 42
0.0000000001
 43
0.0000000001
 40
0.0
 40
0.0
 40
0.0
 40
1.296148139681687
 40
1.296148139681687
 40
1.296148139681687
 10
65.18770792686523
 20
67.00107711117593
 30
0.0
 41
1.0
 10
64.99246983162713
 20
67.64138953491928
 30
0.0
 41
1.049999999999972
 10
65.18770792686523
 20
68.28170195866263
 30
0.0
 41
1.0
  0
LINE
  5
3B19
330
D
100
AcDbEntity
 67
     1
  8
AM_VIS
100
AcDbLine
 10
63.87209506822329
 20
50.14138953491921
 30
0.0
 11
49.88511771828274
 21
50.14138953491921
 31
0.0
  0
LINE
  5
3B1A
330
D
100
AcDbEntity
 67
     1
  8
AM_VIS
100
AcDbLine
 10
46.4902981354478
 20
50.14138953491921
 30
0.0
 11
32.50332078550719
 21
50.14138953491921
 31
0.0
  0
LINE
  5
3B1B
330
D
100
AcDbEntity
 67
     1
  8
AM_VIS
100
AcDbLine
 10
32.5033207855071
 20
85.14138953491928
 30
0.0
 11
46.4902981354478
 21
85.14138953491928
 31
0.0
  0
LINE
  5
3B1C
330
D
100
AcDbEntity
 67
     1
  8
AM_VIS
100
AcDbLine
 10
49.88511771828274
 20
85.14138953491928
 30
0.0
 11
63.87209506822337
 21
85.14138953491928
 31
0.0
  0
LINE
  5
3B1D
330
D
100
AcDbEntity
 67
     1
  8
AM_VIS
100
AcDbLine
 10
31.18770792686524
 20
51.41640879533131
 30
0.0
 11
31.18770792686524
 21
83.86637027450722
 31
0.0
  0
ARC
  5
3B1E
330
D
100
AcDbEntity
 67
     1
  8
AM_VIS
100
AcDbCircle
 10
48.18770792686525
 20
67.64138953491928
 30
0.0
 40
8.5
100
AcDbArc
 50
180.0
 51
0.0
  0
ARC
  5
3B1F
330
D
100
AcDbEntity
 67
     1
  8
AM_VIS
100
AcDbCircle
 10
48.18770792686525
 20
67.64138953491928
 30
0.0
 40
10.0
100
AcDbArc
 50
90.0
 51
180.0
  0
ARC
  5
3B20
330
D
100
AcDbEntity
 67
     1
  8
AM_VIS
100
AcDbCircle
 10
48.18770792686525
 20
67.64138953491928
 30
0.0
 40
23.50000000000001
100
AcDbArc
 50
131.8683062262925
 51
136.3362620638006
  0
ARC
  5
3B21
330
D
100
AcDbEntity
 67
     1
  8
AM_VIS
100
AcDbCircle
 10
48.18770792686525
 20
67.64138953491928
 30
0.0
 40
23.50000000000001
100
AcDbArc
 50
223.6637379361993
 51
228.1316937737075
  0
ARC
  5
3B22
330
D
100
AcDbEntity
 67
     1
  8
AM_VIS
100
AcDbCircle
 10
48.18770792686525
 20
67.64138953491928
 30
0.0
 40
23.50000000000001
100
AcDbArc
 50
43.66373793619934
 51
48.1316937737075
  0
ARC
  5
3B23
330
D
100
AcDbEntity
 67
     1
  8
AM_VIS
100
AcDbCircle
 10
48.18770792686525
 20
67.64138953491928
 30
0.0
 40
23.50000000000001
100
AcDbArc
 50
311.8683062262925
 51
316.3362620638006
  0
ARC
  5
3B24
330
D
100
AcDbEntity
 67
     1
  8
AM_VIS
100
AcDbCircle
 10
48.18770792686525
 20
67.64138953491928
 30
0.0
 40
10.0
100
AcDbArc
 50
180.0
 51
270.0
  0
ARC
  5
3B25
330
D
100
AcDbEntity
 67
     1
  8
AM_VIS
100
AcDbCircle
 10
48.18770792686525
 20
67.64138953491928
 30
0.0
 40
10.0
100
AcDbArc
 50
270.0
 51
0.0
  0
ARC
  5
3B26
330
D
100
AcDbEntity
 67
     1
  8
AM_VIS
100
AcDbCircle
 10
48.18770792686525
 20
67.64138953491928
 30
0.0
 40
10.0
100
AcDbArc
 50
0.0
 51
90.0
  0
ARC
  5
3B27
330
D
100
AcDbEntity
 67
     1
  8
AM_VIS
100
AcDbCircle
 10
48.18770792686525
 20
67.64138953491928
 30
0.0
 40
11.0
100
AcDbArc
 50
90.0
 51
270.0
  0
ARC
  5
3B28
330
D
100
AcDbEntity
 67
     1
  8
AM_VIS
100
AcDbCircle
 10
48.18770792686525
 20
67.64138953491928
 30
0.0
 40
11.0
100
AcDbArc
 50
270.0
 51
90.0
  0
ARC
  5
3B29
330
D
100
AcDbEntity
 67
     1
  8
AM_VIS
100
AcDbCircle
 10
48.18770792686525
 20
67.64138953491928
 30
0.0
 40
8.0
100
AcDbArc
 50
0.0
 51
180.0
  0
ARC
  5
3B2A
330
D
100
AcDbEntity
 67
     1
  8
AM_VIS
100
AcDbCircle
 10
48.18770792686525
 20
67.64138953491928
 30
0.0
 40
8.5
100
AcDbArc
 50
0.0
 51
180.0
  0
ARC
  5
3B2B
330
D
100
AcDbEntity
 67
     1
  8
AM_VIS
100
AcDbCircle
 10
48.18770792686525
 20
67.64138953491928
 30
0.0
 40
8.0
100
AcDbArc
 50
180.0
 51
0.0
  0
LINE
  5
3B2C
330
D
100
AcDbEntity
 67
     1
  8
AM_VIS
100
AcDbLine
 10
64.1877079268653
 20
84.85330401297776
 30
0.0
 11
64.1877079268653
 21
85.14138953491928
 31
0.0
  0
LINE
  5
3B2D
330
D
100
AcDbEntity
 67
     1
  8
AM_VIS
100
AcDbLine
 10
63.87209506822337
 20
85.14138953491928
 30
0.0
 11
64.1877079268653
 21
85.14138953491928
 31
0.0
  0
LINE
  5
3B2E
330
D
100
AcDbEntity
 67
     1
  8
AM_VIS
100
AcDbLine
 10
64.18770794502861
 20
50.42947507374524
 30
0.0
 11
64.18770794917517
 21
50.14138969324682
 31
0.0
  0
LINE
  5
3B2F
330
D
100
AcDbEntity
 67
     1
  8
AM_VIS
100
AcDbLine
 10
64.18770794917517
 20
50.14138969324682
 30
0.0
 11
63.87209506822329
 21
50.14138969879351
 31
0.0
  0
LINE
  5
3B30
330
D
100
AcDbEntity
 67
     1
  8
AM_VIS
100
AcDbLine
 10
32.18355846492892
 20
76.88138953491938
 30
0.0
 11
32.18355846492892
 21
67.64138953491926
 31
0.0
  0
LINE
  5
3B31
330
D
100
AcDbEntity
 67
     1
  8
AM_VIS
100
AcDbLine
 10
32.18355846492898
 20
76.88138953491947
 30
0.0
 11
48.18770792686525
 21
86.12138953491925
 31
0.0
  0
LINE
  5
3B32
330
D
100
AcDbEntity
 67
     1
  8
AM_VIS
100
AcDbLine
 10
48.18770792686535
 20
86.12138953491919
 30
0.0
 11
64.19185738880154
 21
76.88138953491947
 31
0.0
  0
LINE
  5
3B33
330
D
100
AcDbEntity
 67
     1
  8
AM_VIS
100
AcDbLine
 10
64.19185738880159
 20
76.88138953491938
 30
0.0
 11
64.19185738880159
 21
67.64138953491926
 31
0.0
  0
LINE
  5
3B34
330
D
100
AcDbEntity
 67
     1
  8
AM_VIS
100
AcDbLine
 10
64.19185738880159
 20
67.64138953491926
 30
0.0
 11
64.19185738880159
 21
58.40138953491913
 31
0.0
  0
LINE
  5
3B35
330
D
100
AcDbEntity
 67
     1
  8
AM_VIS
100
AcDbLine
 10
48.18770792686533
 20
49.16138953491929
 30
0.0
 11
64.19185738880152
 21
58.40138953491901
 31
0.0
  0
LINE
  5
3B36
330
D
100
AcDbEntity
 67
     1
  8
AM_VIS
100
AcDbLine
 10
32.18355846492898
 20
58.40138953491905
 30
0.0
 11
48.18770792686517
 21
49.16138953491929
 31
0.0
  0
LINE
  5
3B37
330
D
100
AcDbEntity
 67
     1
  8
AM_VIS
100
AcDbLine
 10
32.18355846492892
 20
67.64138953491926
 30
0.0
 11
32.18355846492892
 21
58.40138953491913
 31
0.0
  0
ARC
  5
3B38
330
D
100
AcDbEntity
 67
     1
  8
AM_VIS
100
AcDbCircle
 10
48.18770792686525
 20
67.64138953491926
 30
0.0
 40
16.00000000000003
100
AcDbArc
 50
0.0
 51
180.0
  0
ARC
  5
3B39
330
D
100
AcDbEntity
 67
     1
  8
AM_VIS
100
AcDbCircle
 10
48.18770792686525
 20
67.64138953491926
 30
0.0
 40
16.00000000000003
100
AcDbArc
 50
180.0
 51
0.0
  0
LINE
  5
3B3A
330
D
100
AcDbEntity
 67
     1
  8
AM_VIS
100
AcDbLine
 10
65.18770792686526
 20
68.28170195866261
 30
0.0
 11
65.18770792686526
 21
67.00107711117595
 31
0.0
  0
ARC
  5
3B3B
330
D
100
AcDbEntity
 67
     1
  8
AM_VIS
100
AcDbCircle
 10
48.18770792686525
 20
67.64138953491926
 30
0.0
 40
8.000000000000827
100
AcDbArc
 50
180.0
 51
0.0
  0
ARC
  5
3B3C
330
D
100
AcDbEntity
 67
     1
  8
AM_VIS
100
AcDbCircle
 10
48.18770792686525
 20
67.64138953491926
 30
0.0
 40
7.049203293694121
100
AcDbArc
 50
180.0
 51
0.0
  0
ARC
  5
3B3D
330
D
100
AcDbEntity
 67
     1
  8
AM_VIS
100
AcDbCircle
 10
48.18770792686525
 20
67.64138953491926
 30
0.0
 40
5.500000000000142
100
AcDbArc
 50
180.0
 51
0.0
  0
ARC
  5
3B3E
330
D
100
AcDbEntity
 67
     1
  8
AM_VIS
100
AcDbCircle
 10
48.18770792686525
 20
67.64138953491926
 30
0.0
 40
4.999999999999917
100
AcDbArc
 50
0.0
 51
180.0
  0
ARC
  5
3B3F
330
D
100
AcDbEntity
 67
     1
  8
AM_VIS
100
AcDbCircle
 10
48.18770792686525
 20
67.64138953491926
 30
0.0
 40
4.999999999999917
100
AcDbArc
 50
180.0
 51
0.0
  0
ARC
  5
3B40
330
D
100
AcDbEntity
 67
     1
  8
AM_VIS
100
AcDbCircle
 10
48.18770792686525
 20
67.64138953491926
 30
0.0
 40
5.500000000000142
100
AcDbArc
 50
0.0
 51
180.0
  0
ARC
  5
3B41
330
D
100
AcDbEntity
 67
     1
  8
AM_VIS
100
AcDbCircle
 10
48.18770792686525
 20
67.64138953491926
 30
0.0
 40
7.049203293694121
100
AcDbArc
 50
0.0
 51
180.0
  0
ARC
  5
3B42
330
D
100
AcDbEntity
 67
     1
  8
AM_VIS
100
AcDbCircle
 10
48.18770792686525
 20
67.64138953491926
 30
0.0
 40
8.000000000000827
100
AcDbArc
 50
0.0
 51
180.0
  0
LINE
  5
3B43
330
D
100
AcDbEntity
 67
     1
  8
AM_7
  6
AM_ISO08W050x2
100
AcDbLine
 10
67.84539301053872
 20
67.64138953491926
 30
0.0
 11
28.75442453138123
 21
67.64138953491926
 31
0.0
1001
GENIUS_GENOREF_13
1005
3B45
  0
LINE
  5
3B44
330
D
100
AcDbEntity
 67
     1
  8
AM_7
  6
AM_ISO08W050x2
100
AcDbLine
 10
48.18770792686525
 20
89.25608081667013
 30
0.0
 11
48.18770792686525
 21
46.33017739435802
 31
0.0
1001
GENIUS_GENOREF_13
1005
3B45
  0
POINT
  5
3B45
330
D
100
AcDbEntity
 67
     1
  8
0
 60
     1
100
AcDbPoint
 10
-143.3728074025439
 20
-249.7063577102086
 30
0.0
1001
GENIUS_GENOLIS_13
1002
{
1000
ENT
1005
3B44
1005
3B43
1005
0
1005
0
1002
}
1001
GENIUS_GENOENT_13
1002
{
1000
MYREF
1005
3B45
1002
}
1002
{
1000
GRP
1005
0
1002
}
1001
GENIUS_GENOBJ-N-CRS_13
1002
{
1000
OWNER
1000
GEN
1002
}
1001
GENIUS_GENODEF_13
1002
{
1000
HIER
1070
    10
1002
}
1002
{
1000
MANEDIT
1070
     1
1002
}
1002
{
1000
NOSEL
1070
     0
1002
}
1002
{
1000
BEHIND
1070
     0
1002
}
1002
{
1000
OTHER
1070
     0
1002
}
1002
{
1000
REACTOR
1002
}
  0
LINE
  5
3B46
330
D
100
AcDbEntity
 67
     1
  8
AM_7
  6
AM_ISO08W050x2
100
AcDbLine
 10
153.3557059620265
 20
67.64138953491926
 30
0.0
 11
85.49312999066968
 21
67.64138953491926
 31
0.0
  0
DIMENSION
  5
3C04
330
D
100
AcDbEntity
 67
     1
  8
AM_5
100
AcDbDimension
  2
*D1
 10
65.18770792686523
 20
39.41640879533132
 30
0.0
 11
48.18770792686524
 21
42.16640879533132
 31
0.0
 70
    32
 71
     5
 42
33.99999999999999
  3
AM_ISO$0
100
AcDbAlignedDimension
 13
31.18770792686524
 23
51.41640879533131
 33
0.0
 14
65.18770792686523
 24
51.41640879533134
 34
0.0
 50
0.0000000000001132
100
AcDbRotatedDimension
1001
ACAD
1000
DSTYLE
1002
{
1070
    40
1040
1.0
1002
}
  0
DIMENSION
  5
3CF4
330
D
100
AcDbEntity
 67
     1
  8
AM_5
100
AcDbDimension
  2
*D2
 10
115.0613625701043
 20
91.14138953491929
 30
0.0
 11
104.0613625701043
 21
93.89173402310825
 31
0.0
 70
    32
 71
     5
 42
22.0
  3
AM_ISO$0
100
AcDbAlignedDimension
 13
93.06136257010434
 23
76.64138953491928
 33
0.0
 14
115.0613625701043
 24
85.14138953491928
 34
0.0
100
AcDbRotatedDimension
1001
ACAD
1000
DSTYLE
1002
{
1070
    40
1040
1.0
1002
}
  0
DIMENSION
  5
3D0A
330
D
100
AcDbEntity
 67
     1
  8
AM_5
100
AcDbDimension
  2
*D3
 10
147.0613625701043
 20
98.89138953491929
 30
0.0
 11
120.0613625701043
 21
98.89138953491929
 31
0.0
 70
   160
 71
     5
 42
53.99999999999998
  3
AM_ISO$0
100
AcDbAlignedDimension
 13
93.06136257010434
 23
76.64138953491928
 33
0.0
 14
147.0613625701043
 24
85.14138953491928
 34
0.0
100
AcDbRotatedDimension
1001
ACAD
1000
DSTYLE
1002
{
1070
    40
1040
1.0
1002
}
  0
LINE
  5
3D5F
330
D
100
AcDbEntity
 67
     1
  8
圖層1
100
AcDbLine
 10
136.0613625701043
 20
58.64138953491924
 30
0.0
 11
136.0613625701043
 21
76.64138953491925
 31
0.0
  0
LINE
  5
3D61
330
D
100
AcDbEntity
 67
     1
  8
圖層1
100
AcDbLine
 10
147.0613625701043
 20
78.64138953491925
 30
0.0
 11
138.0613625701043
 21
78.64138953491925
 31
0.0
  0
ARC
  5
3D62
330
D
100
AcDbEntity
 67
     1
  8
圖層1
100
AcDbCircle
 10
138.0613625701043
 20
76.64138953491925
 30
0.0
 40
2.0
100
AcDbArc
 50
90.0
 51
180.0
  0
LINE
  5
3D63
330
D
100
AcDbEntity
 67
     1
  8
圖層1
100
AcDbLine
 10
147.0613625701043
 20
56.64138953491925
 30
0.0
 11
138.0613625701043
 21
56.64138953491924
 31
0.0
  0
ARC
  5
3D64
330
D
100
AcDbEntity
 67
     1
  8
圖層1
100
AcDbCircle
 10
138.0613625701043
 20
58.64138953491924
 30
0.0
 40
2.0
100
AcDbArc
 50
180.0
 51
270.0
  0
DIMENSION
  5
3D66
330
D
100
AcDbEntity
 67
     1
  8
AM_5
100
AcDbDimension
  2
*D4
 10
161.9397588614946
 20
56.64138953491925
 30
0.0
 11
161.9397588614946
 21
68.01345876804612
 31
0.0
 70
   160
  1
M22*1.5
 71
     5
 42
21.99999999999999
  3
AM_ISO$0
100
AcDbAlignedDimension
 13
147.0613625701043
 23
78.64138953491925
 33
0.0
 14
147.0613625701043
 24
56.64138953491925
 34
0.0
 50
89.99999999999984
100
AcDbRotatedDimension
1001
ACAD
1000
DSTYLE
1002
{
1070
    40
1040
1.0
1002
}
  0
DIMENSION
  5
3D97
330
D
100
AcDbEntity
 67
     1
  8
AM_5
100
AcDbDimension
  2
*D5
 10
136.0613625701043
 20
91.14138953491929
 30
0.0
 11
141.5613625701043
 21
93.89138953491928
 31
0.0
 70
    32
 71
     5
 42
11.0
  3
AM_ISO$0
100
AcDbAlignedDimension
 13
147.0613625701043
 23
85.14138953491928
 33
0.0
 14
136.0613625701043
 24
76.64138953491925
 34
0.0
100
AcDbRotatedDimension
1001
ACAD
1000
DSTYLE
1002
{
1070
    40
1040
1.0
1002
}
  0
LINE
  5
3DD3
330
D
100
AcDbEntity
 67
     1
  8
AM_7
  6
AM_ISO08W050x2
100
AcDbLine
 10
149.2710434178739
 20
71.64138953491925
 30
0.0
 11
89.5777925348222
 21
71.64138953491923
 31
0.0
  0
LINE
  5
3DD4
330
D
100
AcDbEntity
 67
     1
  8
AM_7
  6
AM_ISO08W050x2
100
AcDbLine
 10
149.2710434178739
 20
63.64138953491925
 30
0.0
 11
89.57779253482227
 21
63.64138953491925
 31
0.0
  0
LINE
  5
3DD5
330
D
100
AcDbEntity
 67
     1
  8
AM_7
  6
AM_ISO08W050x2
100
AcDbLine
 10
88.57779253482224
 20
70.64138953491923
 30
0.0
 11
88.57779253482226
 21
64.64138953491925
 31
0.0
  0
LINE
  5
3DD6
330
D
100
AcDbEntity
 67
     1
  8
AM_7
  6
AM_ISO08W050x2
100
AcDbLine
 10
150.2710434178739
 20
64.64138953491925
 30
0.0
 11
150.2710434178739
 21
70.64138953491926
 31
0.0
  0
ARC
  5
3DD8
330
D
100
AcDbEntity
 67
     1
  8
AM_7
  6
AM_ISO08W050x2
100
AcDbCircle
 10
89.5777925348222
 20
70.64138953491923
 30
0.0
 40
1.0
100
AcDbArc
 50
90.00000000000005
 51
180.0000000000001
  0
ARC
  5
3DD9
330
D
100
AcDbEntity
 67
     1
  8
AM_7
  6
AM_ISO08W050x2
100
AcDbCircle
 10
89.57779253482227
 20
64.64138953491925
 30
0.0
 40
1.0
100
AcDbArc
 50
180.0000000000002
 51
270.0
  0
ARC
  5
3DDA
330
D
100
AcDbEntity
 67
     1
  8
AM_7
  6
AM_ISO08W050x2
100
AcDbCircle
 10
149.2710434178739
 20
70.64138953491926
 30
0.0
 40
1.0
100
AcDbArc
 50
0.0
 51
90.0
  0
ARC
  5
3DDB
330
D
100
AcDbEntity
 67
     1
  8
AM_7
  6
AM_ISO08W050x2
100
AcDbCircle
 10
149.2710434178739
 20
64.64138953491925
 30
0.0
 40
1.0
100
AcDbArc
 50
270.0
 51
0.0
  0
DIMENSION
  5
3DDC
330
D
100
AcDbEntity
 67
     1
  8
AM_5
100
AcDbDimension
  2
*D6
 10
82.7770526916308
 20
71.64138953491923
 30
0.0
 11
82.77705269163078
 21
67.64138953491926
 31
0.0
 70
   160
  1
%%c<>
 71
     5
 42
7.999999999999964
  3
AM_ISO$0
100
AcDbAlignedDimension
 13
89.57779253482227
 23
63.64138953491925
 33
0.0
 14
89.5777925348222
 24
71.64138953491923
 34
0.0
 50
90.00000000000005
100
AcDbRotatedDimension
1001
ACAD
1000
DSTYLE
1002
{
1070
    40
1040
1.0
1002
}
  0
ARC
  5
3E19
330
D
100
AcDbEntity
 67
     1
  8
0
100
AcDbCircle
 10
142.0613625701043
 20
80.14138953491926
 30
0.0
 40
2.337599002345692
100
AcDbArc
 50
256.110938425453
 51
187.3733605290478
  0
LINE
  5
3E1A
330
D
100
AcDbEntity
 67
     1
  8
AM_7
  6
AM_ISO08W050x2
100
AcDbLine
 10
145.5997458851655
 20
80.14138953491926
 30
0.0
 11
138.5633715589172
 21
80.14138953491926
 31
0.0
1001
GENIUS_GENOREF_13
1005
3E1C
  0
LINE
  5
3E1B
330
D
100
AcDbEntity
 67
     1
  8
AM_7
  6
AM_ISO08W050x2
100
AcDbLine
 10
142.0613625701043
 20
84.03203396563439
 30
0.0
 11
142.0613625701043
 21
76.30537134961824
 31
0.0
1001
GENIUS_GENOREF_13
1005
3E1C
  0
POINT
  5
3E1C
330
D
100
AcDbEntity
 67
     1
  8
0
 60
     1
100
AcDbPoint
 10
-54.08774565319614
 20
-237.2063577102086
 30
0.0
1001
GENIUS_GENOLIS_13
1002
{
1000
ENT
1005
3E1B
1005
3E1A
1005
0
1005
0
1002
}
1001
GENIUS_GENOENT_13
1002
{
1000
MYREF
1005
3E1C
1002
}
1002
{
1000
GRP
1005
0
1002
}
1001
GENIUS_GENOBJ-N-CRS_13
1002
{
1000
OWNER
1000
GEN
1002
}
1001
GENIUS_GENODEF_13
1002
{
1000
HIER
1070
    10
1002
}
1002
{
1000
MANEDIT
1070
     1
1002
}
1002
{
1000
NOSEL
1070
     0
1002
}
1002
{
1000
BEHIND
1070
     0
1002
}
1002
{
1000
OTHER
1070
     0
1002
}
1002
{
1000
REACTOR
1002
}
  0
LEADER
  5
3F05
330
D
100
AcDbEntity
 67
     1
  8
AM_5
100
AcDbLeader
  3
AM_ISO$7
 73
     0
 75
     1
 40
3.500688976377952
 41
14.84497474683058
 76
     3
 10
96.68924339028135
 20
78.64138953491928
 30
0.0
 10
88.86837024896701
 20
90.0163481840485
 30
0.0
 10
85.868370248967
 20
90.0163481840485
 30
0.0
340
3F06
213
-1.959704025291556
223
0.4558729226301921
233
0.0
1001
ACAD
1000
DSTYLE
1002
{
1070
   147
1040
1.0
1002
}
  0
MTEXT
  5
3F06
102
{ACAD_REACTORS
330
3F05
102
}
330
D
100
AcDbEntity
 67
     1
  8
AM_5
100
AcDbMText
 10
86.82807427425855
 20
90.5604752614183
 30
0.0
 40
3.5
 41
0.0
 71
     9
 72
     1
  1
M22*1.5
 73
     1
 44
1.0
1001
ACAD
1000
MTEXTBEGIN
1070
    73
1070
     1
1070
    44
1040
1.0
1070
    74
1070
     0
1000
MTEXTEND
  0
LEADER
  5
3F10
330
D
100
AcDbEntity
 67
     1
  8
AM_5
100
AcDbLeader
  3
AM_ISO$7
 73
     0
 74
     0
 75
     1
 40
4.375
 41
15.88862204724409
 76
     3
 10
148.0985844436019
 20
71.64138953491925
 30
0.0
 10
153.2648577184861
 20
83.74961907460198
 30
0.0
 10
156.2648577184861
 20
83.74961907460198
 30
0.0
340
3F11
213
1.75991551539431
223
0.5452319214656997
233
0.0
1001
ACAD
1000
DSTYLE
1002
{
1070
   147
1040
1.0
1002
}
  0
MTEXT
  5
3F11
102
{ACAD_REACTORS
330
3F10
102
}
330
D
100
AcDbEntity
 67
     1
  8
AM_5
100
AcDbMText
 10
155.5049422030918
 20
84.20438715313627
 30
0.0
 40
3.5
 41
0.0
 71
     7
 72
     1
  1
Support
 73
     1
 44
1.0
1001
ACAD
1000
MTEXTBEGIN
1070
    73
1070
     1
1070
    44
1040
1.0
1070
    74
1070
     0
1000
MTEXTEND
  0
DIMENSION
  5
43BD
330
D
100
AcDbEntity
 67
     1
  8
AM_5
100
AcDbDimension
  2
*D7
 10
26.50332078550711
 20
85.14138953491929
 30
0.0
 11
23.75332078550709
 21
67.64138953491926
 31
0.0
 70
    32
 71
     5
 42
35.00000000000008
  3
AM_ISO$0
100
AcDbAlignedDimension
 13
32.50332078550719
 23
50.14138953491921
 33
0.0
 14
32.5033207855071
 24
85.14138953491928
 34
0.0
 50
90.00000000000003
100
AcDbRotatedDimension
1001
ACAD
1000
DSTYLE
1002
{
1070
    40
1040
1.0
1002
}
  0
DIMENSION
  5
440F
330
D
100
AcDbEntity
 67
     1
  8
AM_5
100
AcDbDimension
  2
*D8
 10
142.0613625701043
 20
80.14138953491922
 30
0.0
 11
155.3643818428511
 21
92.75824629309045
 31
0.0
 70
   164
  1
M5
 71
     5
 42
2.337599002345712
  3
AM_ISO$4
100
AcDbRadialDimension
 15
143.5093814369699
 25
81.97649456106049
 35
0.0
 40
0.0
1001
ACAD
1000
DSTYLE
1002
{
1070
    40
1040
1.0
1002
}
  0
ENDSEC
  0
SECTION
  2
OBJECTS
  0
DICTIONARY
  5
8
330
0
100
AcDbDictionary
281
     1
  3
ACAD_COLOR
350
31
  3
ACAD_GROUP
350
2D
  3
ACAD_LAYOUT
350
C
  3
ACAD_MATERIAL
350
30
  3
ACAD_MLINESTYLE
350
2E
  3
ACAD_PLOTSETTINGS
350
2F
  3
ACAD_PLOTSTYLENAME
350
7
  3
ACAD_TABLESTYLE
350
32
  3
AcadDim
350
3F04
  3
ACDBHEADERROUNDTRIPXREC
350
45A0
  3
AcDbVariableDictionary
350
226
  3
AcmDictionary
350
28A
  3
AMG
350
232
  3
AMGSNAPSETTINGS
350
2C1
  3
DWGPROPS
350
459F
  3
MAPISURF_MODULE
350
44D5
  0
DICTIONARY
  5
15
330
14
100
AcDbDictionary
280
     1
281
     1
  3
ACAD_LAYERFILTERS
360
3E18
  3
ACAD_LAYERSTATES
360
16
  3
ACLYDICTIONARY
360
3E17
  3
AMLAYER_GROUPCOLORS
360
13C8
  0
DICTIONARY
  5
3
330
2
100
AcDbDictionary
280
     1
281
     1
  3
ACAD_INDEX
360
3F6D
  0
DICTIONARY
  5
1AC0
330
D
100
AcDbDictionary
280
     1
281
     1
  3
ACAD_SORTENTS
360
1AC1
  0
DICTIONARY
  5
45A4
330
230
100
AcDbDictionary
280
     1
281
     1
  3
ACAD_XREC_ROUNDTRIP
360
45A5
  0
DICTIONARY
  5
31
102
{ACAD_REACTORS
330
8
102
}
330
8
100
AcDbDictionary
281
     1
  0
DICTIONARY
  5
2D
102
{ACAD_REACTORS
330
8
102
}
330
8
100
AcDbDictionary
281
     1
  0
DICTIONARY
  5
C
102
{ACAD_REACTORS
330
8
102
}
330
8
100
AcDbDictionary
281
     1
  3
Model
350
B
  3
配置1
350
10
  0
DICTIONARY
  5
30
102
{ACAD_REACTORS
330
8
102
}
330
8
100
AcDbDictionary
281
     1
  3
Global
350
135C
  0
DICTIONARY
  5
2E
102
{ACAD_REACTORS
330
8
102
}
330
8
100
AcDbDictionary
281
     1
  3
STANDARD
350
33
  0
DICTIONARY
  5
2F
102
{ACAD_REACTORS
330
8
102
}
330
8
100
AcDbDictionary
281
     1
  0
ACDBDICTIONARYWDFLT
  5
7
102
{ACAD_REACTORS
330
8
102
}
330
8
100
AcDbDictionary
281
     1
  3
Normal
350
6
100
AcDbDictionaryWithDefault
340
6
  0
DICTIONARY
  5
32
102
{ACAD_REACTORS
330
8
102
}
330
8
100
AcDbDictionary
281
     1
  3
Standard
350
34
  0
XRECORD
  5
3F04
102
{ACAD_REACTORS
330
8
102
}
330
8
100
AcDbXrecord
280
     1
 90
   990106
  3

 60
     0
 61
     0
 62
     4
 63
     4
 64
     1
 65
     0
 66
     0
 67
     3
 68
     0
 69
     0
 70
     0
 71
     0
 72
     0
 40
0.0
170
     0
340
3F11
  0
DICTIONARY
  5
45A0
102
{ACAD_REACTORS
330
8
102
}
330
8
100
AcDbDictionary
281
     1
  0
DICTIONARY
  5
226
102
{ACAD_REACTORS
330
8
102
}
330
8
100
AcDbDictionary
281
     1
  3
CTABLESTYLE
350
227
  3
DIMASSOC
350
229
  3
HIDETEXT
350
228
  3
INDEXCTL
350
404E
  3
PROJECTNAME
350
22A
  0
DICTIONARY
  5
28A
102
{ACAD_REACTORS
330
8
102
}
330
8
100
AcDbDictionary
281
     1
  3
AcmStdDictionary
350
297
  3
AMDTSECTSYM_ARROWCOLOR
350
2B3
  0
DICTIONARY
  5
232
102
{ACAD_REACTORS
330
8
102
}
330
8
100
AcDbDictionary
281
     1
  3
AcMgSettings
350
4454
  0
DICTIONARY
  5
2C1
102
{ACAD_REACTORS
330
8
102
}
330
8
100
AcDbDictionary
281
     1
  0
XRECORD
  5
459F
102
{ACAD_REACTORS
330
8
102
}
330
8
100
AcDbXrecord
280
     1
  1
DWGPROPS COOKIE
  2

  3

  4

  6

  7

  8

  9

300
AmdtFileType=84
301
=
302
=
303
=
304
=
305
=
306
=
307
=
308
=
309
=
 40
0.3944186921296296
 41
2454816.659313322
 42
2455117.713050591
  1

 90
        1
  0
DICTIONARY
  5
3E18
102
{ACAD_REACTORS
330
15
102
}
330
15
100
AcDbDictionary
281
     1
  0
DICTIONARY
  5
16
102
{ACAD_REACTORS
330
15
102
}
330
15
100
AcDbDictionary
281
     1
  0
DICTIONARY
  5
3E17
102
{ACAD_REACTORS
330
15
102
}
330
15
100
AcDbDictionary
281
     1
1001
ACAD
1000
<All
  0
DICTIONARY
  5
13C8
102
{ACAD_REACTORS
330
15
102
}
330
15
100
AcDbDictionary
280
     1
281
     1
  0
DICTIONARY
  5
3F6D
102
{ACAD_REACTORS
330
3
102
}
330
3
100
AcDbDictionary
281
     1
  3
*A1
350
3F6E
  0
SORTENTSTABLE
  5
1AC1
102
{ACAD_REACTORS
330
1AC0
102
}
330
1AC0
100
AcDbSortentsTable
330
D
331
3B1D
  5
3B1D
331
3D63
  5
3D63
331
3B25
  5
3B25
331
3CF4
  5
3CF4
331
3B2D
  5
3B2D
331
3B35
  5
3B35
331
D9A
  5
D9A
331
D43
  5
D43
331
3AE6
  5
3AE6
331
DA2
  5
DA2
331
D63
  5
D63
331
3AA7
  5
3AA7
331
DAA
  5
DAA
331
D6B
  5
D6B
331
3AF6
  5
3AF6
331
DB2
  5
DB2
331
D1C
  5
D1C
331
D73
  5
D73
331
3AB7
  5
3AB7
331
3AFE
  5
3AFE
331
3ABF
  5
3ABF
331
3B3D
  5
3B3D
331
3DD3
  5
3DD3
331
3DDB
  5
3DD7
331
3A88
  5
3A88
331
D83
  5
D83
331
3A90
  5
3A90
331
3AC7
  5
3AC7
331
3B0E
  5
3B0E
331
D3C
  5
D3C
331
3A98
  5
3A98
331
3ACF
  5
3ACF
331
3B16
  5
3B16
331
3AD7
  5
3AD7
331
3ADF
  5
3ADF
331
3B1E
  5
3B1E
331
3D64
  5
3D64
331
3B26
  5
3B26
331
3B2E
  5
3B2E
331
3B36
  5
3B36
331
D9B
  5
D9B
331
3AA0
  5
3AA0
331
DA3
  5
DA3
331
D64
  5
D64
331
3AA8
  5
3AA8
331
3AEF
  5
3AEF
331
3AB0
  5
3AB0
331
D6C
  5
D6C
331
DAB
  5
DAB
331
3AF7
  5
3AF7
331
3AB8
  5
3AB8
331
D1D
  5
D1D
331
D74
  5
D74
331
3AFF
  5
3AFF
331
3B3E
  5
3B3E
331
3B46
  5
3B46
331
3DD4
  5
3DD6
331
3A89
  5
3A89
331
D7C
  5
D7C
331
3AC0
  5
3AC0
331
3A91
  5
3A91
331
D84
  5
D84
331
3AC8
  5
3AC8
331
2552
  5
2552
331
D3D
  5
D3D
331
D8C
  5
D8C
331
3A99
  5
3A99
331
3AD0
  5
3AD0
331
3B17
  5
3B17
331
3AD8
  5
3AD8
331
D94
  5
D94
331
3B1F
  5
3B1F
331
3B27
  5
3B27
331
3B2F
  5
3B2F
331
3B37
  5
3B37
331
3AE0
  5
3AE0
331
3AA1
  5
3AA1
331
D9C
  5
D9C
331
D45
  5
D45
331
3AE8
  5
3AE8
331
3AA9
  5
3AA9
331
DA4
  5
DA4
331
D65
  5
D65
331
3AB1
  5
3AB1
331
DAC
  5
DAC
331
D6D
  5
D6D
331
3AF8
  5
3AF8
331
3AB9
  5
3AB9
331
D1E
  5
D1E
331
3B3F
  5
3B3F
331
3DD5
  5
3DD9
331
3B00
  5
3B00
331
3A8A
  5
3A8A
331
D7D
  5
D7D
331
3A92
  5
3A92
331
D85
  5
D85
331
3AC9
  5
3AC9
331
3B10
  5
3B10
331
3A9A
  5
3A9A
331
D3E
  5
D3E
331
3AD1
  5
3AD1
331
3AD9
  5
3AD9
331
D95
  5
D95
331
3B18
  5
3B18
331
3B20
  5
3B20
331
3D66
  5
3D66
331
3B28
  5
3B28
331
3B30
  5
3B30
331
3AA2
  5
3AA2
331
D46
  5
D46
331
D9D
  5
D9D
331
DA5
  5
DA5
331
D66
  5
D66
331
3AAA
  5
3AAA
331
DAD
  5
DAD
331
D17
  5
D17
331
D6E
  5
D6E
331
3AF9
  5
3AF9
331
D1F
  5
D1F
331
3ABA
  5
3ABA
331
3B38
  5
3B38
331
3B40
  5
3B40
331
3DD6
  5
3DDA
331
3D5F
  5
3D5F
331
3A8B
  5
3A8B
331
3AC2
  5
3AC2
331
3B09
  5
3B09
331
D86
  5
D86
331
3ACA
  5
3ACA
331
3B11
  5
3B11
331
D3F
  5
D3F
331
3A9B
  5
3A9B
331
3AD2
  5
3AD2
331
D96
  5
D96
331
3B19
  5
3B19
331
3B21
  5
3B21
331
3B29
  5
3B29
331
3B31
  5
3B31
331
3D97
  5
3D97
331
3AE2
  5
3AE2
331
D9E
  5
D9E
331
D47
  5
D47
331
3AA3
  5
3AA3
331
DA6
  5
DA6
331
D67
  5
D67
331
3AAB
  5
3AAB
331
DAE
  5
DAE
331
D18
  5
D18
331
D6F
  5
D6F
331
3AB3
  5
3AB3
331
3AFA
  5
3AFA
331
3ABB
  5
3ABB
331
3B39
  5
3B39
331
3B41
  5
3B41
331
D20
  5
D20
331
3B02
  5
3B02
331
D87
  5
D87
331
3ACB
  5
3ACB
331
3B12
  5
3B12
331
3A9C
  5
3A9C
331
3AD3
  5
3AD3
331
3B1A
  5
3B1A
331
3B22
  5
3B22
331
3B2A
  5
3B2A
331
3B32
  5
3B32
331
D40
  5
D40
331
D60
  5
D60
331
D9F
  5
D9F
331
3AA4
  5
3AA4
331
3AEB
  5
3AEB
331
DA7
  5
DA7
331
D68
  5
D68
331
3AAC
  5
3AAC
331
3AF3
  5
3AF3
331
DAF
  5
DAF
331
D19
  5
D19
331
D70
  5
D70
331
3AB4
  5
3AB4
331
3ABC
  5
3ABC
331
3B3A
  5
3B3A
331
3B42
  5
3B42
331
3DD8
  5
3DD5
331
D21
  5
D21
331
D78
  5
D78
331
3AC4
  5
3AC4
331
D39
  5
D39
331
D88
  5
D88
331
3A95
  5
3A95
331
3ACC
  5
3ACC
331
3B13
  5
3B13
331
D90
  5
D90
331
3A9D
  5
3A9D
331
3AD4
  5
3AD4
331
3B1B
  5
3B1B
331
3D61
  5
3D61
331
3B23
  5
3B23
331
3B2B
  5
3B2B
331
3B33
  5
3B33
331
D41
  5
D41
331
3AE4
  5
3AE4
331
DA0
  5
DA0
331
D61
  5
D61
331
3AA5
  5
3AA5
331
DA8
  5
DA8
331
D69
  5
D69
331
3AAD
  5
3AAD
331
3AF4
  5
3AF4
331
DB0
  5
DB0
331
D1A
  5
D1A
331
D71
  5
D71
331
3AB5
  5
3AB5
331
3AFC
  5
3AFC
331
3ABD
  5
3ABD
331
230
  5
230
331
3B3B
  5
3B3B
331
3D0A
  5
3D0A
331
3B43
  5
3B43
331
3DD9
  5
3DD8
331
D22
  5
D22
331
D81
  5
D81
331
3A8E
  5
3A8E
331
3AC5
  5
3AC5
331
D3A
  5
D3A
331
3A96
  5
3A96
331
3ACD
  5
3ACD
331
3B14
  5
3B14
331
3A9E
  5
3A9E
331
3AD5
  5
3AD5
331
3B1C
  5
3B1C
331
3D62
  5
3D62
331
3B24
  5
3B24
331
3B2C
  5
3B2C
331
3B34
  5
3B34
331
D42
  5
D42
331
3AE5
  5
3AE5
331
D62
  5
D62
331
DA1
  5
DA1
331
3AA6
  5
3AA6
331
DA9
  5
DA9
331
D6A
  5
D6A
331
3AAE
  5
3AAE
331
DB1
  5
DB1
331
D1B
  5
D1B
331
D72
  5
D72
331
3AB6
  5
3AB6
331
3ABE
  5
3ABE
331
3B3C
  5
3B3C
331
3B44
  5
3B44
331
3C04
  5
3C04
331
3DDA
  5
3DDB
331
D23
  5
D23
331
3B05
  5
3B05
331
D2B
  5
D2B
331
D82
  5
D82
331
3A8F
  5
3A8F
331
3AC6
  5
3AC6
331
3B0D
  5
3B0D
331
3A97
  5
3A97
331
3ACE
  5
3ACE
331
3B15
  5
3B15
331
3A9F
  5
3A9F
331
3AD6
  5
3AD6
331
3ADE
  5
3ADE
  0
XRECORD
  5
45A5
102
{ACAD_REACTORS
330
45A4
102
}
330
45A4
100
AcDbXrecord
280
     1
102
SHADEPLOT
 70
     0
  0
LAYOUT
  5
B
102
{ACAD_XDICTIONARY
360
45A1
102
}
102
{ACAD_REACTORS
330
C
102
}
330
C
100
AcDbPlotSettings
  1

  2
\\NOVIBDC\HPLJ4-TPUB
  4

  6

 40
0.0
 41
0.0
 42
0.0
 43
0.0
 44
0.0
 45
0.0
 46
0.0
 47
0.0
 48
0.0
 49
0.0
140
0.0
141
0.0
142
1.0
143
1.0
 70
  1712
 72
     0
 73
     0
 74
     0
  7

 75
     0
147
1.0
148
0.0
149
0.0
100
AcDbLayout
  1
Model
 70
     1
 71
     0
 10
0.0
 20
0.0
 11
12.0
 21
9.0
 12
0.0
 22
0.0
 32
0.0
 14
0.0
 24
0.0
 34
0.0
 15
0.0
 25
0.0
 35
0.0
146
0.0
 13
0.0
 23
0.0
 33
0.0
 16
1.0
 26
0.0
 36
0.0
 17
0.0
 27
1.0
 37
0.0
 76
     0
330
2
  0
LAYOUT
  5
10
102
{ACAD_XDICTIONARY
360
11
102
}
102
{ACAD_REACTORS
330
C
102
}
330
C
100
AcDbPlotSettings
  1

  2
\\RDS1\iR3300影印機
  4
A3
  6

 40
6.805083274841308
 41
5.365738868713378
 42
7.228424072265625
 43
5.027069091796875
 44
296.9259948730469
 45
419.9466552734374
 46
0.0
 47
0.0
 48
0.0
 49
0.0
140
0.0
141
0.0
142
1.0
143
0.5
 70
   688
 72
     1
 73
     1
 74
     5
  7

 75
    27
147
2.0
148
0.0
149
0.0
100
AcDbLayout
  1
配置1
 70
     1
 71
     1
 10
-2.513534545898437
 20
-3.402541637420654
 11
207.4597930908203
 21
145.0604557991028
 12
0.0
 22
0.0
 32
0.0
 14
9.735123665299397
 24
4.034653855212013
 34
-0.0050168038263223
 15
182.9400505640392
 25
125.1750772230334
 35
79.62591375883604
146
0.0
 13
0.0
 23
0.0
 33
0.0
 16
1.0
 26
0.0
 36
0.0
 17
0.0
 27
1.0
 37
0.0
 76
     0
330
D
331
230
1001
ACAD_PSEXT
1000
\\RDS1\iR3300影印機
1000
Canon iR2200-3300 PCL5e
1000
\\RDS1
1000

1070
     0
  0
MATERIAL
  5
135C
102
{ACAD_XDICTIONARY
360
135D
102
}
102
{ACAD_REACTORS
330
30
102
}
330
30
100
AcDbMaterial
  1
Global
  0
MLINESTYLE
  5
33
102
{ACAD_REACTORS
330
2E
102
}
330
2E
100
AcDbMlineStyle
  2
STANDARD
 70
     0
  3

 62
     0
 51
90.0
 52
90.0
 71
     2
 49
0.5
 62
   256
  6
BYLAYER
 49
-0.5
 62
   256
  6
BYLAYER
  0
ACDBPLACEHOLDER
  5
6
102
{ACAD_REACTORS
330
7
102
}
330
7
  0
TABLESTYLE
  5
34
102
{ACAD_REACTORS
330
32
102
}
330
32
100
AcDbTableStyle
  3
Standard
 70
     0
 71
     0
 40
1.5
 41
1.5
280
     0
281
     0
  7
STANDARD
140
4.5
170
     2
 62
     0
 63
     7
283
     0
274
    -2
284
     1
 64
     0
275
    -2
285
     1
 65
     0
276
    -2
286
     1
 66
     0
277
    -2
287
     1
 67
     0
278
    -2
288
     1
 68
     0
279
    -2
289
     1
 69
     0
  7
STANDARD
140
6.0
170
     5
 62
     0
 63
     7
283
     0
274
    -2
284
     1
 64
     0
275
    -2
285
     1
 65
     0
276
    -2
286
     1
 66
     0
277
    -2
287
     1
 67
     0
278
    -2
288
     1
 68
     0
279
    -2
289
     1
 69
     0
  7
STANDARD
140
4.5
170
     5
 62
     0
 63
     7
283
     0
274
    -2
284
     1
 64
     0
275
    -2
285
     1
 65
     0
276
    -2
286
     1
 66
     0
277
    -2
287
     1
 67
     0
278
    -2
288
     1
 68
     0
279
    -2
289
     1
 69
     0
  0
DICTIONARYVAR
  5
227
102
{ACAD_REACTORS
330
226
102
}
330
226
100
DictionaryVariables
280
     0
  1
STANDARD
  0
DICTIONARYVAR
  5
229
102
{ACAD_REACTORS
330
226
102
}
330
226
100
DictionaryVariables
280
     0
  1
1
  0
DICTIONARYVAR
  5
228
102
{ACAD_REACTORS
330
226
102
}
330
226
100
DictionaryVariables
280
     0
  1
1
  0
DICTIONARYVAR
  5
404E
102
{ACAD_REACTORS
330
226
102
}
330
226
100
DictionaryVariables
280
     0
  1
1
  0
DICTIONARYVAR
  5
22A
102
{ACAD_REACTORS
330
226
102
}
330
226
100
DictionaryVariables
280
     0
  1

  0
DICTIONARY
  5
297
102
{ACAD_REACTORS
330
28A
102
}
330
28A
100
AcDbDictionary
281
     1
  0
XRECORD
  5
2B3
102
{ACAD_REACTORS
330
28A
102
}
330
28A
100
AcDbXrecord
280
     1
 90
-1023410169
  0
DICTIONARY
  5
4454
102
{ACAD_REACTORS
330
232
102
}
330
232
100
AcDbDictionary
281
     1
  3
DWGSETTINGS
350
4455
  3
TRANSSETTINGS
350
4456
  0
LAYER_INDEX
  5
3F6E
102
{ACAD_REACTORS
330
3F6D
102
}
330
3F6D
100
AcDbIndex
 40
2455117.713050591
100
AcDbLayerIndex
  8
0
360
3F6F
 90
        0
  8
LOGO
360
3F70
 90
        0
  8
Defpoints
360
3F71
 90
        0
  8
AM_VIS
360
3F72
 90
        0
  8
AM_5
360
3F73
 90
        0
  8
AM_7
360
3F74
 90
        0
  8
圖層1
360
3F75
 90
        0
  0
DICTIONARY
  5
45A1
330
B
100
AcDbDictionary
280
     1
281
     1
  3
ACAD_XREC_ROUNDTRIP
360
45A2
  0
DICTIONARY
  5
11
330
10
100
AcDbDictionary
280
     1
281
     1
  3
ACAD_XREC_ROUNDTRIP
360
45A3
  3
ADSK_XREC_LAYOUTTHUMBNAIL
360
12
  0
DICTIONARY
  5
135D
330
135C
100
AcDbDictionary
280
     1
281
     1
  3
ACAD_XREC_ROUNDTRIP
360
135E
  0
IDBUFFER
  5
3F6F
330
0
100
AcDbIdBuffer
  0
IDBUFFER
  5
3F70
330
0
100
AcDbIdBuffer
  0
IDBUFFER
  5
3F71
330
0
100
AcDbIdBuffer
  0
IDBUFFER
  5
3F72
330
0
100
AcDbIdBuffer
  0
IDBUFFER
  5
3F73
330
0
100
AcDbIdBuffer
  0
IDBUFFER
  5
3F74
330
0
100
AcDbIdBuffer
  0
IDBUFFER
  5
3F75
330
0
100
AcDbIdBuffer
  0
XRECORD
  5
45A2
102
{ACAD_REACTORS
330
45A1
102
}
330
45A1
100
AcDbXrecord
280
     1
102
SHADEPLOT
 70
     0
102
SHADEPLOTRESLEVEL
 70
     2
102
SHADEPLOTCUSTOMDPI
 70
   300
  0
XRECORD
  5
45A3
102
{ACAD_REACTORS
330
11
102
}
330
11
100
AcDbXrecord
280
     1
102
SHADEPLOT
 70
     0
102
SHADEPLOTRESLEVEL
 70
     2
102
SHADEPLOTCUSTOMDPI
 70
   300
  0
XRECORD
  5
12
102
{ACAD_REACTORS
330
11
102
}
330
11
100
AcDbXrecord
280
     1
310
28000000B40000007F00000001000800000000004C590000000000000000000000010000000000000000000000000000FFFFFF000000000000000000000000000000000000000000000000000000000000000000330000006600000099000000CC000000FF00000000330000333300006633000099330000CC330000FF3300
310
0000660000336600006666000099660000CC660000FF66000000990000339900006699000099990000CC990000FF99000000CC000033CC000066CC000099CC0000CCCC0000FFCC000000FF000033FF000066FF000099FF0000CCFF0000FFFF000000003300330033006600330099003300CC003300FF003300003333003333
310
33006633330099333300CC333300FF33330000663300336633006666330099663300CC663300FF66330000993300339933006699330099993300CC993300FF99330000CC330033CC330066CC330099CC3300CCCC3300FFCC330000FF330033FF330066FF330099FF3300CCFF3300FFFF330000006600330066006600660099
310
006600CC006600FF00660000336600333366006633660099336600CC336600FF33660000666600336666006666660099666600CC666600FF66660000996600339966006699660099996600CC996600FF99660000CC660033CC660066CC660099CC6600CCCC6600FFCC660000FF660033FF660066FF660099FF6600CCFF6600
310
FFFF660000009900330099006600990099009900CC009900FF00990000339900333399006633990099339900CC339900FF33990000669900336699006666990099669900CC669900FF66990000999900339999006699990099999900CC999900FF99990000CC990033CC990066CC990099CC9900CCCC9900FFCC990000FF99
310
0033FF990066FF990099FF9900CCFF9900FFFF99000000CC003300CC006600CC009900CC00CC00CC00FF00CC000033CC003333CC006633CC009933CC00CC33CC00FF33CC000066CC003366CC006666CC009966CC00CC66CC00FF66CC000099CC003399CC006699CC009999CC00CC99CC00FF99CC0000CCCC0033CCCC0066CC
310
CC0099CCCC00CCCCCC00FFCCCC0000FFCC0033FFCC0066FFCC0099FFCC00CCFFCC00FFFFCC000000FF003300FF006600FF009900FF00CC00FF00FF00FF000033FF003333FF006633FF009933FF00CC33FF00FF33FF000066FF003366FF006666FF009966FF00CC66FF00FF66FF000099FF003399FF006699FF009999FF00CC
310
99FF00FF99FF0000CCFF0033CCFF0066CCFF0099CCFF00CCCCFF00FFCCFF0000FFFF0033FFFF0066FFFF0099FFFF00CCFFFF00FFFFFF00000000000D0D0D001A1A1A00282828003535350043434300505050005D5D5D006B6B6B00787878008686860093939300A1A1A100AEAEAE00BBBBBB00C9C9C900D6D6D600E4E4E400
310
F1F1F100FFFFFF0000000000000000000000000000000000000000000000000000000000000000000000000000000000E2E2E2E2E2E2E2E2E2E2E2E2E2E2E2E2E2E2E2E2E2E2E2E2E2E2E2E2E2E2E2E2E2E2E2E2E2E2E2E2E2E2E2E2E2E2E2E2E2E2E2E2E2E2E2E2E2E2E2E2E2E2E2E2E2E2E2E2E2E2E2E2E2E2E2E2E2E2E2
310
E2E2E2E2E2E2E2E2E2E2E2E2E2E2E2E2E2E2E2E2E2E2E2E2E2E2E2E2E2E2E2E2E2E2E2E2E2E2E2E2E2E2E2E2E2E2E2E2E2E2E2E2E2E2E2E2E2E2E2E2E2E2E2E2E2E2E2E2E2E2E2E2E2E2E2E2E2E2E2E2E2E2E2E2E2E2E2E2E2E2E2E2E2E2E2E2E2E2E2E2E2E2E2E2E2E2E2E2E2E2E2E2E2E2E2E2E2E2E2E2E2E2E2E2E2E2E2
310
E2E2E2E2E2E2E2E2E2E2E2E2E2E2E2E2E2E2E2E2E2E2E2E2E2E2E2E2E2E2E2E2E2E2E2E2E2E2E2E2E2E2E2E2E2E2E2E2E2E2E2E2E2E2E2E2E2E2E2E2E2E2E2E2E2E2E2E2E2E2E2E2E2E2E2E2E2E2E2E2E2E2E2E2E2E2E2E2E2E2E2E2E2E2E2E2E2E2E2E2E2E2E2E2E2E2E2E2E2E2E2E2E2E2E2E2E2E2E2E2E2E2E2E2E2E2E2
310
E2E2E2E2E2E2E2E2E2E2E2E2E2E2E2E2E2E2E2E2E2E2E2E2E2E2E2E2E2E2E2E2E2E2E2E2E2E2E2E2E2E2E2E2E2E2E2E2E2E2E2E2E2E2E2E2E2E2E2E2E2E2E2E2E2E2E2E2E2E2E2E2E2E2E2E2E2E2E2E2E2E2E2E2E2E2E2E2E2E2E2E2E2E2E2E2E2E2E2E2E2E2E2E2E2E2E2E2E2E2E2E2E2E2E2E2E2E2E2E2E2E2E2E2E2E2E2
310
E2E2E2E2E2E2E2E2E2E2E2E2E2E2E2E2E2E2E2E2E2E2E2E2E2E2E2E2E2E2E2E2E2E2E2E2E2E2E2E2E2E2E2E2E2E2E2E2E2E2E2E2E2E2E2E2E2E2E2E2E2E2E2E2E2E2E2E2E2E2E2E2E2E2E2E2E2E2E2E2E2E2E2E2E2E2E2E2E2E2E2E2E2E2E2E2E2E2E2E2E2E2E2E2E2E2E2E2E2E2E2E2E2E2E2E2E2E2E2E2E2E2E2E2E2E2E2
310
E2E2E2E2E2E2E2E2E2E2E2E2E2E2E2E2E2E2E2E2E2E2E2E2E2E2E2E2E2E2E2E2E2E2E2E2E2E2E2E2E2E2E2E2E2E2E2E2E2E2E2E2E2E2E2E2E2E2E2E2E2E2E2E2E2E2E2E2E2E2E2E2E2E2E2E2E2E2E2E2E2E2E2E2E2E2E2E2E2E2E2E2E2E2E2E2E2E2E2E2E2E2E2E2E2E2E2E2E2E2E2E2E2E2E2E2E2E2E2E2E2E2E2E2E2E2E2
310
E2E2E2E2E2E2E2E2E2E2E2E2E2E2E2E2E2E2E2E2E2E2E2E2E2E2E2E2E2E2E2E2E2E2E2E2E2E2E2E2E2E2E2E2E2E2E2E2E2E2E2E2E2E2E2E2E2E2E2E2E2E2E2E2E2E2E2E2E2E2E2E2E2E2E2E2E2E2E2E2E2E2E2E2E2E2E2E2E2E2E2E2E2E2E2E2E2E2E2E2E2E2E2E2E2E2E2E2E2E2E2E2E2E2E2E2E2E2E2E2E2E2E2E2E2E2E2
310
E2E2E2E2E2E2E2E2E2E2E2E2E2E2E2E2E2E2E2E2E2E2E2E2E2E2E2E2E2E2E2E2E2E2E2E2E2E2E2E2E2E2E2E2E2E2E2E2E2E2E2E2E2E2E2E2E2E2E2E2E2E2E2E2E2E2E2E2E2E2E2E2E2E2E2E2E2E2E2E2E2E2E2E2E2E2E2E2E2E2E2E2E2E2E2E2E2E2E2E2E2E2E2E2E2E2E2E2E2E2E2E2E2E2E2E2E2E2E2E2E2E2E2E2E2E2E2
310
E2E2E2E2E2E2E2E2E2E2E2E2E2E2E2E2E2E2E2E2E2E2E2E2E2E2E2E2E2E2E2E2E2E2E2E2E2E2E2E2E2E2E2E2E2E2E2E2E2E2E2E2E2E2E2E2E2E2E2E2E2E2E2E2E2E2E2E2E2E2E2E2E2E2E2E2E2E2E2E2E2E2E2E2E2E2E2E2E2E2E2E2E2E2E2E2E2E2E2E2E2E2E2E2E2E2E2E2E2E2E2E2E2E2E2E2E2E2E2E2E2E2E2E2E2E2E2
310
E2E2E2E2E2E2E2E2E2E2E2E2E2E2E2E2E2E2E2E2E2E2E2E2E2E2E2E2E2E2E2E2E2E2E2E2E2E2E2E2E2E2E2E2E2E2E2E2E2E2E2E2E2E2E2E2E2E2E2E2E2E2E2E2E2E2E2E2E2E2E2E2E2E2E2E2E2E2E2E2E2E2E2E2E2E2E2E2E2E2E2E2E2E2E2E2E2E2E2E2E2E2E2E2E2E2E2E2E2E2E2E2E2E2E2E2E2E2E2E2E2E2E2E2E2E2E2
310
E2E2E2E2E2E2E2E2E2E2E2E2E2E2E2E2E2E2E2E2E2E2E2E2E2E2E2E2E2E2E2E2E2E2E2E2E2E2E2E2E2E2E2E2E2E2E2E2E22D2D2D2D2D2D2D2D2D2D2D2D2D2D2D2D2D2D2D2D2D2D2D2D2D2D2D2D2D2D2D2D2D2D2D2D2D2D2D2D2D2D2D2D2D2D2D2D2D2D2D2D2D2D2D2D2D2D2D2D2D2D2D2D2D2D2D2D2D2D2D2D2D2D2D2D2D2D
310
2D2D2D2D2D2D2D2D2D2D2D2D2D2D2D2D2D2D2D2D2D2D2D2D2D2D2D2D2D2D2D2D2D2D2D2D2D2D2D2D2D2D2D2D2D2D2D2D2D2D2D2D2D2D2D2D2D2D2D2D2D2D2D2D2D2D2D2D2DE2E2E2E2E2E2E2E2E2E2E2E2E2E2E2E2E2E2E2E2E2E2E2E2E2E2E2E2E2E2E2E2E22DF5F5F5F5F5F5F5F5F5F5F5F5F5F5F5F5F5F5F5F5F52DF5F5
310
F5F5F52DE2E2E2E2E2E2E2E22D2DF5F5F5F52D2DE2E22D2DF5F52D2DE2E2E2E2E2E2E2E2E2E2E2E2E2E2E2E2E2E2E2E2E2E2E2E2E2E2E2E2E2E2E2E2E2E2E2E2E2E2E2E2E2E2E2E2E2E2E2E2E2E2E2E2E2E2E2E2E2E2E2E2E2E2E2E2E2E2E2E2E2E2E2E2E2E2E2E2E2E2E2E2E2E2E2E2E2E2E2E2E2E2E2E2E22DE2E2E2E2E2
310
E2E2E2E2E2E2E2E2E2E2E2E2E2E2E2E2E2E2E2E2E2E2E2E2E2E2E2E22DF5F5F5F5F5F5F5F5F5F5F5F5F5F5F5F5F5F5F5F5F52D2D2D2D2D2D2DE2E2E2E2E2E2E2E22DE2F5F5F5F5E22DE2E22DE2F5F5E22DE2E2E2E2E2E2E2E2E2E2E2E2E2E2E2E2E2E2E2E2E2E2E2E2E2E2E2E2E2E2E2E2E2E2E2E2E2E2E2E2E2E2E2E2E2E2
310
E2E2E2E2E2E2E2E2E2E2E2E2E2E2E2E2E2E2E2E2E2E2E2E2E2E2E2E2E2E2E2E2E2E2E2E2E2E2E2E2E2E2E2E2E2E2E22DE2E2E2E2E2E2E2E2E2E2E2E2E2E2E2E2E2E2E2E2E2E2E2E2E2E2E2E2E2E2E2E2E22DE2E2E2F5F5F5F5F5F5F5F5F5F5F5F5F5F5F5F5E2E22DE2E2E2E2E2E2E2E2E2E2E2E2E2E22DE2F5F5F5F5E22DE2
310
E22DF5F5F5F52DE2E2E2E2E2E2E2E2E2E2E2E2E2E2E2E2E2E2E2E2E2E2E2E2E2E2E2E2E2E2E2E2E2E2E2E2E2E2E2E2E2E2E2E2E2E2E2E2E2E2E2E2E2E2E2E2E2E2E2E2E2E2E2E2E2E2E2E2E2E2E2E2E2E2E2E2E2E2E2E2E2E2E2E2E2E2E2E2E2E2E2E2E22DE2E2E2E2E2E2E2E2E2E2E2E2E2E2E2E2E2E2E2E2E2E2E2E2E2E2
310
E2E2E2E2E2E2E22D0F0F0F0F0F0F0F2D2D2D2D2D2D2D2D2D2D2D2D2D2D2DE2E2E2E2E2E2E2E2E2E2E2E2E2E22DE2F5F5F5F5E22DE2E22DF5F5F5F52DE2E2E2E2E2E2E2E2E2E2E2E2E2E2E2E2E2E2E2E2E2E2E2E2E2E2E2E2E2E2E2E2E2E2E2E2E2E2E2E2E2E2E2E2E2E2E2E2E2E2E2E2E2E2E2E2E2E2E2E2E2E2E2E2E2E2E2
310
E2E2E2E2E2E2E2E2E2E2E2E2E2E2E2E2E2E2E2E2E2E2E2E2E2E22DE2E2E2E2E2E2E2E2E2E2E2E2E2E2E2E2E2E2E2E2E2E2E2E2E2E2E2E2E2E2E2E2E22D0F0F0F0F0F0F0FF5F5F5E2F5F5F5F52DE2F5F5F5E22DE2E2E2E2E2E2E2E2E2E2F5E2E2E22D2D2D2D2D2D2D2DE2E22D2D2D2D2D2DE2E2E2E2E2E2E2E2E2E2E2E2E2E2
310
E2E2E2E2E2E2E2E2E2E2E2E2E2E2E2E2E2E2E2E2E2E2E2E2E2E2E2E2E2E2E2E2E2E2E2E2E2E2E2E2E2E2E2E2E2E2E2E2E2E2E2E2E2E2E2E2E2E2E2E2E2E2E2E2E2E2E2E2E2E2E2E2E2E2E2E2E2E2E22DE2E2E2E2E2E2E2E2E2E2E2E2E2E2E2E2E2E2E2E2E2E2E2E2E2E2E2E2E2E2E2E2E22DDC0F0FDC0FDC0FF5F5F52DF52D
310
F52D2DF52D2D2D2D2DF5F5F5F5F5F5F5F5F5F5F5F5F5E22D2D2D2D2D2D2D2DE2E22D2D2D2D2D2DE2E2E2E2E2E2E2E2E2E2E2E2E2E2E2E2E2E2E2E2E2E2E2E2E2E2E2E2E2E2E2E2E2E2E2E2E2E2E2E2E2E2E2E2E2E2E2E2E2E2E2E2E2E2E2E2E2E2E2E2E2E2E2E2E2E2E2E2E2E2E2E2E2E2E2E2E2E2E2E2E2E2E2E2E2E2E2E2
310
E2E2E2E2E22DE2E2E2E2E2E2E2E2E2E2E2E2E2E2E2E2E2E2E2E2E2E2E2E2E2E2E2E2E2E2E2E2E22DE2DC0F0FDCDC0FF5F5F5E2F5F5F5F52DF5F5F5F5F52DF5F5F5F5F5F5F5F5F5F5F5F5F5E22DF5F5F5F5F5F52DE2E22DF5F5F5F52DE2E2E2E2E2E2E2E2E2E2E2E2E2E2E2E2E2E2E2E2E2E2E2E2E2E2E2E2E2E2E2E2E2E2E2
310
E2E2E2E2E2E2E2E2E2E2E2E2E2E2E2E2E2E2E2E2E2E2E2E2E2E2E2E2E2E2E2E2E2E2E2E2E2E2E2E2E2E2E2E2E2E2E2E2E2E2E2E2E2E2E2E2E2E22DE2E2E2E2E2E2E2E2E2E2E2E2E2E2E2E2E2E2E2E2E2E2E2E2E2E2E2E2E2E2E2E2E22DE20F0F0FDCDC0FF5F5F52DF5F52D2D2DF5F5F5F5F52DF5F5F5F5F5F5F5F5F5F5E2E2
310
E2E22DF5F5F5F5F5F52DF5F52DF5F5F5F52DE2E2E2E2E2E2E2E2E2E2E2E2E2E2E2E2E2E2E2E2E2E2E2E2E2E2E2E2E2E2E2E2E2E2E2E2E2E2E2E2E2E2E2E2E2E2E2E2E2E2E2E2E2E2E2E2E2E2E2E2E2E2E2E2E2E2E2E2E2E2E2E2E2E2E2E2E2E2E2E2E2E2E2E2E2E2E2E2E2E2E2E2E22DE2E2E2E2E2E2E2E2E2E2E2E2E2E2E2
310
E2E2E2E2E2E2E2E2E2E2E2E2E2E2E2E2E2E22DE2E2DCDC0FDC0FF5F5F5F5F5F5F5F52DF5E2F5E2F52DF5F5F5F5F5F5F5F5F5F5E2E2E2E22DF5F5F5F5F5F52DE2E22D2DF5F52D2DE2E2E2E2E2E2E2E2E2E2E2E2E2E2E2E2E2E2E2E2E2E2E2E2E2E2E2E2E2E2E2E2E2E2E2E2E2E2E2E2E2E2E2E2E2E2E2E2E2E2E2E2E2E2E2E2
310
E2E2E2E2E2E2E2E2E2E2E2E2E2E2E2E2E2E2E2E2E2E2E2E2E2E2E2E2E2E2E2E2E2E2E2E2E22DE2E2E2E2E2E2E2E2E2E2E2E2E2E2E2E2E2E2E2E2E2E2E2E2E2E2E2E2E2E2E2E2E22D2D2D2D2D2D2D2D2D2D2D2D2D2D2D2D2D2D2D2D2D2D2D2D2D2D2D2D2D2D2D2D2D2D2D2D2D2D2D2D2D2D2D2D2D2D2D2D2D2D2D2D2D2D2D2D
310
2D2D2D2D2D2D2D2D2D2D2D2D2D2D2D2D2D2D2D2D2D2D2D2D2D2D2D2D2D2D2D2D2D2D2D2D2D2D2D2D2D2D2D2D2D2D2D2D2D2D2D2D2D2D2D2D2D2D2D2D2D2D2D2D2D2D2D2D2D2D2D2D2D2D2D2D2D2D2D2D2D2D2D2D2D2D2D2D2D2D2DE2E2E2E2E2E2E2E2E2E2E2E2E2E2E2E2E2E2E2E2E2E2E2E2E2E2E2E2E2E2E2E2E22DE2E2
310
E2E2E2E2E2E2E2E2E2E2E2E2E2E2E2E2E2E2E2E2E2E2E2E2E2E2E2E2E2E2E2E2E2E2E2E2E2E2E2E2E2E2E2E2E2E2E2E2E2E2E2E2E2E2E2E2E2E2E2E2E2E2E2E2E2E2E2E2E2E2E2E2E2E2E2E2E2E2E2E2E2E2E2E2E2E2E2E2E2E2E2E2E2E2E2E2E2E2E2E2E2E2E2E2E2E2E2E2E2E2E2E2E2E2E2E2E2E2E2E2E2E2E2E2E2E2E2
310
E2E2E2E2E2E2E2E2E2E2E2E2E2E2E2E22DE2E2E2E2E2E2E2E2E2E2E2E2E2E2E2E2E2E2E2E2E2E2E2E2E2E2E2E2E2E2E2E2E22DE2E2E2E2E2E2E2E2E2E2E2E2E2E2E2E2E2E2E2E2E2E2E2E2E2E2E2E2E2E2E2E2E2E2E2E2E2E2E2E2E2E2E2E2E2E2E2E2E2E2E2E2E2E2E2E2E2E2E2E2E2E2E2E2E2E2E2E2E2E2E2E2E2E2E2E2
310
E2E2E2E2E2E2E2E2E2E2E2E2E2E2E2E2E2E2E2E2E2E2E2E2E2E2E2E2E2E2E2E2E2E2E2E2E2E2E2E2E2E2E2E2E2E2E2E2E2E2E2E2E2E2E2E2E2E2E2E2E2E2E2E2E2E2E2E2E22DE2E2E2E2E2E2E2E2E2E2E2E2E2E2E2E2E2E2E2E2E2E2E2E2E2E2E2E2E2E2E2E2E22DE2E2E2E2E2E2E2E2E2E2E2E2E2E2E2E2E2E2E2E2E2E2E2
310
E2E2E2E2E2E2E2E2E2E2E2E2E2E2E2E2E2E2E2E2E2E2E2E2E2E2E2E2E2E2E2E2E2E2E2E2E2E2E2E2E2E2E2E2E2E2E2E2E2E2E2E2E2E2E2E2E2E2E2E2E2E2E2E2E2E2E2E2E2E2E2E2E2E2E2E2E2E2E2E2E2E2E2E2E2E2E2E2E2E2E2E2E2E2E2E2E2E2E2E2E2E2E2E2E2E2E2E2E2E2E2E2E2E2E2E2E2E2E2E2E2E22DE2E2E2E2
310
E2E2E2E2E2E2E2E2E2E2E2E2E2E2E2E2E2E2E2E2E2E2E2E2E2E2E2E2E22DE2E2E2E2E2E2E2E2E2E2E2E2E2E2E2E2E2E2E2E2E2E2E2E2E2E2E2E2E2E2E2E2E2E2E2E2E2E2E2E2E2E2E2E2E2E2E2E2E2E2E2E2E2E2E2E2E2E2E2E2E2E2E2E2E2E2E2E2E2E2E2E2E2E2E2E2E2E2E2E2E2E2E2E2E2E2E2E2E2E2E2E2E2E2E2E2E2
310
E2E2E2E2E2E2E2E2E2E2E2E2E2E2E2E2E2E2E2E2E2E2E2E2E2E2E2E2E2E2E2E2E2E2E2E2E2E2E2E2E2E2E2E2E2E2E2E22DE2E2E2E2E2E2E2E2E2E2E2E2E2E2E2E2E2E2E2E2E2E2E2E2E2E2E2E2E2E2E2E2E22DE2E2E2E2E2E2E2E2E2E2E2E2E2E2E2E2E2E2E2E2E2E2E2E2E2E2E2E2E2E2E2E2E2E2E2E2E2E2E2E2E2E2E2E2
310
E2E2E2E2E2E2E2E2E2E2E2E2E2E2E2E2E2E2E2E2E2E2E2E2E2E2E2E2E2E2E2E2E2E2E2E2E2E2E2E2E2E2E2E2E2E2E2E2E2E2E2E2E2E2E2E2E2E2E2E2E2E2E2E2E2E2E2E2E2E2E2E2E2E2E2E2E2E2E2E2E2E2E2E2E2E2E2E2E2E2E2E2E2E2E2E2E2E2E2E2E22DE2E2E2E2E2E2E2E2E2E2E2E2E2E2E2E2E2E2E2E2E2E2E2E2E2
310
E2E2E2E2E2E2E2E22DE2E2E2E2E2E2E2E2E2E2E2E2E2E2E2E2E2E2E2E2E2E2E2E2E2E2E2E2E2E2E2E2E2E2E2E2E2E2E2E2E2E2E2E2E2E2E2E2E2E2E2E2E2E2E2E2E2E2E2E2E2E2E2E2E2E2E2E2E2E2E2E2E2E2E2E2E2E2E2E2E2E2E2E2E2E2E2E2E2E2E2E2E2E2E2E2E2E2E2E2E2E2E2E2E2E2E2E2E2E2E2E2E2E2E2E2E2E2
310
E2E2E2E2E2E2E2E2E2E2E2E2E2E2E2E2E2E2E2E2E2E2E2E2E2E2E22DE2E2E2E2E2E2E2E2E2E2E2E2E2E2E2E2E2E2E2E2E2E2E2E2E2E2E2E2E2E2E2E2E22DE2E2E2E2E2E2E2E2E2E2E2E2E2E2E2E2E2E2E2E2E2E2E2E2E2E2E2E2E2E2E2E2E2E2E2E2E2E2E2E2E2E2E2E2E2E2E2E2E2E2E2E2E2E2E2E2E2E2E2E2E2E2E2E2E2
310
E2E2E2E2E2E2E2E2E2E2E2E2E2E2E2E2E2E2E2E2E2E2E2E2E2E2E2E2E2E2E2E2E2E2E2E2E2E2E2E2E2E2E2E2E2E2E2E2E2E2E2E2E2E2E2E2E2E2E2E2E2E2E2E2E2E2E2E2E2E2E2E2E2E2E2E2E2E2E2E22DE2E2E2E2E2E2E2E2E2E2E2E2E2E2E2E2E2E2E2E2E2E2E2E2E2E2E2E2E2E2E2E2E22DE2E2E2E2E2E2E2E2E2E2E2E2
310
E2E2E2E2E2E2E2E2E2E2E2E2E2E2E2E2E2E2E2E2E2E2E2E2E2E2E2E2E2E2E2E2E2E2E2E2E2E2E2E2E2E2E2E2E2E2E2E2E2E2E2E2E2E2E2E2E2E2E2E2E2E2E2E2E2E2E2E2E2E2E2E2E2E2E2E2E2E2E2E2E2E2E2E2E2E2E2E2E2E2E2E2E2E2E2E2E2E2E2E2E2E2E2E2E2E2E2E2E2E2E2E2E2E2E2E2E2E2E2E2E2E2E2E2E2E2E2
310
E2E2E2E2E2E22DE2E2E2E2E2E2E2E2E2E2E2E2E2E2E2E2E2E2E2E2E2E2E2E2E2E2E2E2E2E2E2E2E22DE2E2E2E2E2E2E2E2E2E2E2E2E2E2E2E2E2E2E2E2E2E2E2E2E2E2E2E2E2E2E2E2E2E2E2E2E2E2E2E2E2E2E2E2E2E2E2E2E2E2E2E2E2E2E2E2E2E2E2E2E2E2E2E2E2E2E2E2E2E2E2E2E2E2E2E2E2E2E2E2E2E2E2E2E2E2
310
E2E2E2E2E2E2E2E2E2E2E2E2E2E2E2E2E2E2E2E2E2E2E2E2E2E2E2E2E2E2E2E2E2E2E2E2E2E2E2E2E2E2E2E2E2E2E2E2E2E2E2E2E2E2E2E2E2E2E22DE2E2E2E2E2E2E2E2E2E2E2E2E2E2E2E2E2E2E2E2E2E2E2E2E2E2E2E2E2E2E2E2E22DE2E2E2E2E2E2E2E2E2E2E2E2E2E2E2E2E2E2E2E2E2E2E2E2E2E2E2E2E2E2E2E2E2
310
E2E2E2E2E2E2E2E2E2E2E2E2E2E2E2E2E2E2E2E2E2E2E2E2E2E2E2E2E2E2E2E2E2E2E2E2E2E2E2E2E2E2E2E2E2E2E2E2E2E2E2E2E2E2E2E2E2E2E2E2E2E2E2E2E2E2E2E2E2E2E2E2E2E2E2E2E2E2E2E2E2E2E2E2E2E2E2E2E2E2E2E2E2E2E2E2E2E2E2E2E2E2E2E2E2E2E2E2E2E2E2E22DE2E2E2E2E2E2E2E2E2E2E2E2E2E2
310
E2E2E2E2E2E2E2E2E2E2E2E2E2E2E2E2E2E2E22DE2E2E2E2E2E2E2E2E2E2E2E2E2E2E2E2E2E2E2E2E2E2E2E2E2E2E2E2E2E2E2E2E2E2E2E2E2E2E2E2E2E2E2E2E2E2E2E2E2E2E2E2E2E2E2E2E2E2E2E2E2E2E2E2E2E2E2E2E2E2E2E2E2E2E2E2E2E2E2E2E2E2E2E2E2E2E2E2E2E2E2E2E2E2E2E2E2E2E2E2E2E2E2E2E2E2E2
310
E2E2E2E2E2E2E2E2E2E2E2E2E2E2E2E2E2E2E2E2E2E2E2E2E2E2E2E2E2E2E2E2E2E2E2E2E2E22DE2E2E2E2E2E2E2E2E2E2E2E2E2E2E2E2E2E2E2E2E2E2E2E2E2E2E2E2E2E2E2E2E22DE2E2E2E2E2E2E2E2E2E2E2E2E2E2E2E2E2E2E2E2E2E2E2E2E2E2E2E2E2E2E2E2E2E2E2E2E2E2E2E2E2E2E2E2E2E2E2E2E2E2E2E2E2E2
310
E2E2E2E2E2E2E2E2E2E2E2E2E2E2E2E2E2E2E2E2E2E2E2E2E2E2E2E2E2E2E2E2E2E2E2E2E2E2E2E2E2E2E2E2E2E2E2E2E2E2E2E2E2E2E2E2E2E2E2E2E2E2E2E2E2E2E2E2E2E2E2E2E2E2E2E2E2E2E2E2E2E2E2E2E2E2E2E2E2E2E22DE2E2E2E2E2E2E2E2E2E2E2E2E2E2E2E2E2E2E2E2E2E2E2E2E2E2E2E2E2E2E2E2E22DE2
310
E2E2E2E2E2E2E2E2E2E2E2E2E2E2E2E2E2E2E2E2E2E2E2E2E2E2E2E2E2E2E2E2E2E2E2E2E2E2E2E2E2E2E2E2E2E2E2E2E2E2E2E2E2E2E2E2E2E2E2E2E2E2E2E2E2E2E2E2E2E2E2E2E2E2E2E2E2E2E2E2E2E2E2E2E2E2E2E2E2E2E2E2E2E2E2E2E2E2E2E2E2E2E2E2E2E2E2E2E2E2E2E2E2E2E2E2E2E2E2E2E2E2E2E2E2E2E2
310
E2E2E2E2E2E2E2E2E2E2E2E2E2E2E2E2E22DE2E2E2E2E2E2E2E2E2E2E2E2E2E2E2E2E2E2E2E2E2E2E2E2E2E2E2E2E2E2E2E2E22DE2E2E2E2E2E2E2E2E2E2E2E2E2E2E2E2E2E2E2E2E2E2E2E2E2E2E2E2E2E2E2E2E2E2E2E2E2E2E2E2E2E2E2E2E2E2E2E2E2E2E2E2E2E2E2E2E2E2E2E2E2E2E2E2E2E2E2E2E2E2E2E2E2E2E2
310
E2E2E2E2E2E2E2E2E2E2E2E2E2E2E2E2E2E2E2E2E2E2E2E2E2E2E2E2E2E2E2E2E2E2E2E2E2E2E2E2E2E2E2E2E2E2E2E2E2E2E2E2E2E2E2E2E2E2E2E2E2E2E2E2E2E2E2E2E2E22DE2E2E2E2E2E2E2E2E2E2E2E2E2E2E2E2E2E2E2E2E2E2E2E2E2E2E2E2E2E2E2E2E22DE2E2E2E2E2E2E2E2E2E2E2E2E2E2E2E2E2E2E2E2E2E2
310
E2E2E2E2E2E2E2E2E2E2E2E2E2E2E2E2E2E2E2E2E2E2E2E2E2E2E2E2E2E2E2E2E2E2E2E2E2E2E2E2E2E2E2E2E2E2E2E2E2E2E2E2E2E2E2E2E2E2E2E2E2E2E2E2E2E2E2E2E2E2E2E2E2E2E2E2E2E2E2E2E2E2E2E2E2E2E2E2E2E2E2E2E2E2E2E2E2E2E2E2E2E2E2E2E2E2E2E2E2E2E2E2E2E2E2E2E2E2E2E2E2E2E22DE2E2E2
310
E2E2E2E2E2E2E2E2E2E2E2E2E2E2E2E2E2E2E2E2E2E2E2E2E2E2E2E2E2E22DE2E2E2E2E2E2E2E2E2E2E2E2E2E2E2E2E2E2E2E2E2E2E2E2E2E2E2E2E2E2E2E2E2E2E2E2E2E2E2E2E2E2E2E2E2E2E2E2E2E2E2E2E2E2E2E2E2E2E2E2E2E2E2E2E2E2E2E2E2E2E2E2E2E2E2E2E2E2E2E2E2E2E2E2E2E2E2E2E2E2E2E2E2E2E2E2
310
E2E2E2E2E2E2E2E2E2E2E2E2E2E2E2E2E2E2E2E2E2E2E2E2E2E2E2E2E2E2E2E2E2E2E2E2E2E2E2E2E2E2E2E2E2E2E2E2E22DE2E2E2E2E2E2E2E2E2E2E2E2E2E2E2E2E2E2E2E2E2E2E2E2E2E2E2E2E2E2E2E2E22DE2E2E2E2E2E2E2E2E2E2E2E2E2E2E2E2E2E2E2E2E2E2E2E2E2E2E2E2E2E2E2E2E2E2E2E2E2E2E2E2E2E2E2
310
E2E2E2E2E2E2E2E2E2E2E2E2E2E2E2E2E2E2E2E2E2E2E2E2E2E2E2E2E2E2E2E2E2E2E2E2E2E2E2E2E2E2E2E2E2E2E2E2E2E2E2E2E2E2E2E2E2E2E2E2E2E2E2E2E2E2E2E2E2E2E2E2E2E2E2E2E2E2E2E2E2E2E2E2E2E2E2E2E2E2E2E2E2E2E2E2E2E2E2E2E2E22DE2E2E2E2E2E2E2E2E2E2E2E2E2E2E2E2E2E2E2E2E2E2E2E2
310
E2E2E2E2E2E2E2E2E22DE2E2E2E2E2E2E2E2E2E2E2E2E2E2E2E2E2E2E2E2E2E2E2E2E2E2E2E2E2E2E2E2E2E2E2E2E2E2E2E2E2E2E2E2E2E2E2E2E2E2E2E2E2E2E2E2E2E2E2E2E2E2E2E2E2E2E2E2E2E2E2E2E2E2E2E2E2E2E2E2E2E2E2E2E2E2E2E2E2E2E2E2E2E2E2E2E2E2E2E2E2E2E2E2E2E2E2E2E2E2E2E2E2E2E2E2E2
310
E2E2E2E2E2E2E2E2E2E2E2E2E2E2E2E2E2E2E2E2E2E2E2E2E2E2E2E22DE2E2E2E2E2E2E2E2E2E2E2E2E2E2E2E2E2E2E2E2E2E2E2E2E2E2E2E2E2E2E2E2E22DE2E2E2E2E2E2E2E2E2E2E2E2E2E2E2E2E20FE2E2E2E2E2E2E2E2E2E2E2E2E2E2E2E2E2E2E2E2E2E2E2E2E2E2E2E20FE2E2E2E2E2E2E2E2E2E2E2E2E2E2E2E2E2
310
E2E2E2E2E2E2E2E2E2E2E2E2E2E2E2E2E2E2E2E2E2E2E2E2E2E2E2E2E2E2E2E2E2E2E2E2E2E2E2E2E2E2E2E2E2E2E2E2E2E2E2E2E2E2E2E2E2E2E2E2E2E2E2E2E2E2E2E2E2E2E2E2E2E2E2E2E2E2E2E2E22DE2E2E2E2E2E2E2E2E2E2E2E2E2E2E2E2E2E2E2E2E2E2E2E2E2E2E2E2E2E2E2E2E22DE2E2E2E2E2E2E2E2E2E2E2
310
E2E2E2E2E2E20F0F0F0F0F0F0F0F0F0F0F0F0F0F0F0F0F0F0F0F0F0F0F0F0F0F0F0F0F0FE2E2E2E2E2E2E2E2E2E2E2E2E2E2E2E2E2E2E2E2E2E2E2E2E2E2E2E2E2E2E2E2E2E2E2E2E2E2E2E2E2E2E2E2E2E2E2E2E2E2E2E2E2E2E2E2E2E2E2E2E2E2E2E2E2E2E2E2E2E2E2E2E2E2E2E2E2E2E2E2E2E2E2E2E2E2E2E2E2E2E2
310
E2E2E2E2E2E2E22DE2E2E2E2E2E2E2E2E2E2E2E2E2E2E2E2E2E2E2E2E2E2E2E2E2E2E2E2E2E2E2E2E22DE2E2E2E2E2E2E2E2E2E2E2E2E2E2E2E2E20FE2E2E2E2E2E2E2E2E2E2E20F0F0FE20FE2E2E2E2E2E2E2E2E2E2E2E20FE2E2E2E2E2E2E2E2E2E2E2E2E2E2E2E2E2E2E2E2E2E2E2E2E2E2E2E2E2E2E2E2E2E2E2E2E2E2
310
E2E2E2E2E2E2E2E2E2E2E2E2E2E2E2E2E2E2E2E2E2E2E2E2E2E2E2E2E2E2E2E2E2E2E2E2E2E2E2E2E2E2E2E2E2E2E2E2E2E2E2E2E2E2E2E2E2E2E2E22DE2E2E2E2E2E2E2E2E2E2E2E2E2E2E2E2E2E2E2E2E2E2E2E2E2E2E2E2E2E2E2E2E22DE2E2E2E2E2E2E2E2E2E2E2E2E2E2E2E2E20FE2E2E2E2E2E2E2E2E2E2E2E20F0F
310
0F0FE2E2E2E2E2E2E2E2E2E2E2E20FE2E2E2E2E2E2E2E2E2E2E2E2E2E2E2E2E2E2E2E2E2E2E2E2E2E2E2E2E2E2E2E2E2E2E2E2E2E2E2E2E2E2E2E2E2E2E2E2E2E2E2E2E2E2E2E2E2E2E2E2E2E2E2E2E2E2E2E2E2E2E2E2E2E2E2E2E2E2E2E2E2E2E2E2E2E2E2E2E2E2E2E2E2E2E2E2E2E22DE2E2E2E2E2E2E2E2E2E2E2E2E2
310
E2E2E2E2E2E2E2E2E2E2E2E2E2E2E2E2E2E2E2E22DE2E2E2E2E2E2E2E2E2E2E2E2E2E2E2E2E20FE2E2E2E2E2E2E2E2E2E2E2E20F0F0FE2E2E2E2E2E2E2E2E2E2E2E2E20FE2E2E2E2E2E2E2E2E2E2E2E2E2E2E2E2E2E2E2E2E2E2E2E2E2E2E2E2E2E2E2E2E2E2E2E2E2E2E2E2E2E2E2E2E2E2E2E2E2E2E2E2E2E2E2E2E2E2E2
310
E2E2E2E2E2E2E2E2E2E2E2E2E2E2E2E2E2E2E2E2E2E2E2E2E2E2E2E2E2E2E2E2E2E2E2E2E2E2E22DE2E2E2E2E2E2E2E2E2E2E2E2E2E2E2E2E2E2E2E2E2E2E2E2E2E2E2E2E2E2E2E2E22DE2E2E2E2E2E2E2E2E2E2E2E2E2E2E2E2E20FE2E2E2E2E2E2E2E2E2E2E20F0FE20FE2E2E2E2E2E2E2E2E2E2E2E2E20FE2E2E2E2E2E2
310
E2E2E2E2E2E2E2E2E2E2E2E2E2E2E2E2E2E2E2E2E2E2E2E2E2E2E2E2E2E2E2E2E2E2E2E2E2E2E2E2E2E2E2E2E2E2E2E2E2E2E2E2E2E2E2E2E2E2E2E2E2E2E2E2E2E2E2E2E2E2E2E2E2E2E2E2E2E2E2E2E2E2E2E2E2E2E2E2E2E2E2E22DE2E2E2E2E2E2E2E2E2E2E2E2E2E2E2E2E2E2E2E2E2E2E2E2E2E2E2E2E2E2E2E2E22D
310
E2E2E2E2E2E2E2E2E2E2E2E2E2E2E2E2E20FE2E2E2E2E2E2E2E2E2E2E2E2E2E2E2E2E2E2E2E2E2E2E2E2E2E2E2E20FE2E2E2E2E2E2E2E2E2E2E2E2E2E2E2E2E2E2E2E2E2E2E2E2E2E2E2E2E2E2E2E2E2E2E2E2E2E2E2E2E2E2E2E2E2E2E2E2E2E2E2E2E2E2E2E2E2E2E2E2E2E2E2E2E2E2E2E2E2E2E2E2E2E2E2E2E2E2E2E2
310
E2E2E2E2E2E2E2E2E2E2E2E2E2E2E2E2E2E22DE2E2E2E2E2E2E2E2E2E2E2E2E2E2E2E2E2E2E2E2E2E2E2E2E2E2E2E2E2E2E2E2E22DE2E2E2E2E2E2E2E2E2E2E2E2E2E2E2E2E20FE2E2E2E2E2E2E2E2E2E2E2E2E2BEE2E2E2E2E2E2E2E2E2E2E2E2E2E20FE2E2E2E2E2E2E2E2E2E2E2E2E2E2E2E2E2E2E2E2E2E2E2E2E2E2E2
310
E2E2E2E2E2E2E2E2E2E2E2E2E2E2E2E2E2E2E2E2E2E2E2E2E2E2E2E2E2E2E2E2E2E2E2E2E2E2E2E2E2E2E2E2E2E2E2E2E2E2E2E2E2E2E2E2E2E2E2E2E2E2E2E2E2E2E2E2E2E2E22DE2E2E2E2E2E2E2E2E2E2E2E2E2E2E2E2E2E2E2E2E2E2E2E2E2E2E2E2E2E2E2E2E22DE2E2E2E2E2E2E2E2E2E2E2E2E2E2E2E2E20FE2E2E2
310
E2E2E2E2E2E2E2E2E2E2BEE2E2E2E2E2E2E2E2E2E2E2E2E2E20FE2E2E2E2E2E2E2E2E2E2E2E2E2E2E2E2E2E2E2E2E2E2E2E2E2E2E2E2E2E2E2E2E2E2E2E2E2E2E2E2E2E2E2E2E2E2E2E2E2E2E2E2E2E2E2E2E2E2E2E2E2E2E2E2E2E2E2E2E2E2E2E2E2E2E2E2E2E2E2E2E2E2E2E2E2E2E2E2E2E2E2E2E2E2E2E2E2E22DE2E2
310
E2E2E2E2E2E2E2E2E2E2E2E2E2E2E2E2E2E2E2E2E2E2E2E2E2E2E2E2E2E2E22DE2E2E2E2E2E2E2E2E2E2E2E2E2E2E2E2E20FE2E2E2E2E2E2E2E2E2E2E2E2E2BEE2E2E2E2E2E2E2E2E2E2E2E2E2E20FE2E2E2E2E2E2E2E2E2E2E2E2E2E2E2E2E2E2E2E2E2E2E2E2E2E2E2F5F5F5F5F5F5F5F5E2E2E2E2E2E2E2E2E2E2E2E2E2
310
E2E2E2E2E2E2E2E2E2E2E2E2E2E2E2E2E2E2E2E2E2E2E2E2E2E2E2E2E2E2E2E2E2E2E2E2E2E2E2E2E2E2E2E2E2E2E2E2E2E22DE2E2E2E2E2E2E2E2E2E2E2E2E2E2E2E2E2E2E2E2E2E2E2E2E2E2E2E2E2E2E2E2E22DE2E2E2E2E2E2E2E2E2E2E2E20F0F0F0F0F0F0FF5F5F5F5F5F5F5F5F5F5F5F5BEF5F5F5F5F5F5F5F5F5F5
310
F5F5F5F50FE2E2E2E2E2E2E2E2E2E2E2E2E2E2E2E2E2E2E2E2E2E2E2E2E2E2E2F5E2E2E2E2E2E2F5F5E2E2E2E2E2F5F5F5F5F5F5F5F5F5F5F5F5F5F5F5F5F5F5F5F5F5F5F5F5F5F5F5F5E2E2E2E2E2E2E2E2E2E2E2E2E2E2E2E2E2E2E2E2E2E2E2E2E2E2E2E2E22DE2E2E2E2E2E2E2E2E2E2E2E2E2E2E2E2E2E2E2E2E2E2E2
310
E2E2E2E2E2E2E2E2E2E22DE2E2E2E2E2E2E2E2E2E2E2E2E20FE2E2E20FE2E2E2E2E2E2E2E2E2F5F5F5F5BEF5F5F5F5E2E2E2E2E2E2E2E2E2F50FE2E2E2E2E2E2E2E2E2E2E2E2E2E2E2E2E2E2E2E2E2E2E2E2E2E2F5F5E2E2E2E2E2E2F5F5E2E2E2E2E2F5F5F5F5F5F5F5F5F5F5F5F5F5F5F5F5F5F5F5F5F5F5F5F5F5F5F5F5
310
E2E2E2E2E2E2E2E2E2E2E2E2E2E2E2E2E2E2E2E2E2E2E2E2E2E2E2E2E22DE2E2E2E2E2E2E2E2E2E2E2E2E2E2E2E2E2E2E2E2E2E2E2E2E2E2E2E2E2E2E2E2E22DE2E2E2E2E2E2E2E2E2E2E2E2E20FE2E2E2F5E2E2E2E2E2E2E2E2F5F5F5E2E2BEE2E2F5F5F5F5E2E2E2E2E2E2E2E2F5E2E2E2E2E2E2E2E2E2E2E2E2E2E2E2E2
310
E2E2E2E2E2E2E2E2E2E2F5E2E2E2E2E2E2E2E2F5E2E2E2E2E2F5E2E2E2E2E2E2E2E2E2E2E2E2E2E2E2E2E2E2E2E2E2E2E2E2E2E2F5E2E2E2E2E2E2E2E2E2E2E2E2E2E2E2E2E2E2E2E2E2E2E2E2E2E2E2E2E22DE2E2E2E2E2E2E2E2E2E2E2E2E2E2E2E2E2E2E2E2E2E2E2E2E2E2E2E2E2E2E2E2E22DE2E2E2E2E2E2E2E2E2E2
310
E2E2E20FE2E2E2F5E2E2E2E2E2E2F5F5E2E2E2E2E2BEE2E2E2E2E2E2F5F5E2E2E2E2E2E2F5E2E2E2E2E2E2E2E2E2E2E2E2E2E2E2E2E2E2E2E2E2E2E2E2E2E2F5E2E2E2E2E2E2E2E2F5E2E2E2E2E2F5E2E2E2E2E2E2E2E2E2E2E2E2E2E2E2E2E2E2E2E2E2E2E2E2E2E2F5E2E2E2E2E2E2E2E2E2E2E2E2E2E2E2E2E2E2E2E2E2
310
E2E2E2E2E2E2E2E22DE2E2E2E2E2E2E2E2E2E2E2E2E2E2E2E2E2E2E2E2E2E2E2E2E2E2E2E2E2E2E2E2E22DE2E2E2E2E2E2E2E2E2E2E2E2E20FE2E2E2F5E2E2E2E2E2F5E2E2E2E2E2E2E2BEE2E2E2E2E2E2E2F5F5E2E2E2E2E2F5E2E2E2E2E2E2E2E2E2E2E2E2E2E2E2E2E2E2E2E2E2E2E2E2E2E2F5E2E2E2E2E2E2E2E2F5E2
310
E2E2E2E2F5E2E2E2E2E2E2E2E2E2E2E2E2E2E2E2E2E2E2E2E2E2E2E2E2E2E2F5E2E2E2E2E2E2E2E2E2E2E2E2E2E2E2E2E2E2E2E2E2E2E2E2E2E2E2E2E22DE2E2E2E2E2E2E2E2E2E2E2E2E2E2E2E2E2E2E2E2E2E2E2E2E2E2E2E2E2E2E2E2E22DE2E2E2E2E2E2E2E2E2E2E2E2E20FE2E2E2F5E2E2E2F5F5E2E2E2E2E2E2E2E2
310
BEE2E2E2E2E2E2E2E2F5F5F5E2E2E2F5E2E2E2E2E2E2E2E2E2E2E2E2E2E2E2E2E2E2E2E2E2E2E2E2E2E2F5F5E2E2E2E2E2E2F5F5E2E2E2E2E2F5E2E2E2E2E2E2E2E2E2E2E2E2E2E2E2E2E2E2E2E2E2E2E2E2E2E2F5E2E2E2E2E2E2E2E2E2E2E2E2E2E2E2E2E2E2E2E2E2E2E2E2E2E2E2E2E22DE2E2E2E2E2E2E2E2E2E2E2E2
310
E2E2E2E2E2E2E2E2E2E2E2E2E2E2E2E2E2E2E2E2E22DE2E2E2E2E2E2E2E2E2E2E2E2E20FE2E2E2F5E2F5F5F5E2E2E2E2E2E2F5F5F5BEF5F5F5F5E2E2E2E2E2F5F5F5F5E2F5E2E2E2E2E2E2E2E2E2E2E2E2E20FE2E2E2E2E2E2E2E2E2F5F5F5F5F5E2E2E2E2E2E2F5F5F5F5F5F5F5F5E2E2E2E2E2E2E2E2F5F5F5E2E2E2E2E2
310
282828282828282828280F0F0F0F0F0F0F0F0F0F0F0F0F0FE2E2E2E2E2E2E2E2E2E2E2E2E2E2E2E22DE2E2E2E2E2E2E2E2E2E2E2E2E2E2E2E2E2E2E2E2E2E2E2E2E2E2E2E2E2E2E2E2E22DE2E2E2E2E2E2E2E2E2E2E2E2E20FE2E2E2F5F5E2F5E2E2E2E2E2F5F5F5F5E2BEE2F5F5F5F5E2E2E2E2E2E2F5E2F5F5E2E2E2E2E2
310
E2E2E2E2E2E2E2E20FE2E2E2E2E2E2E2E2F5F5F5E2F5F5F5F5F5F5F5F5F5F5E2F5E2F5E2F5E2E2E2E2E2F5F5F5E2E2F5F5F5F5E2E228E2E2E2E2E2E2E2E2E2F5E2E2E2E2E2E2E2E2E2E2E20F0FE2E2E2E2E2E2E2E2E2E2E2E2E2E2E2E22DE2E2E2E2E2E2E2E2E2E2E2E2E2E2E2E2E2E2E2E2E2E2E2E2E2E2E2E2E2E2E2E2E2
310
2DE2E2E2E2E2E2E2E2E2E2E2E2E20FE2E2E2F5F5F5E2E2E2E2E2F5F5E2F5F5F5BEF5F5F5E2F5F5F5E2E2E2E2F5E2F5F5E2E2E2E2E2E2E2E2E2E2E2E2E20FE2E2E2E2E2E2E2E2F5F5F5E2F5F5E2E2E2E2E2E2F5F5E2F5E2F5E2F5E2E2E2E2F5E2E2E2E2E2E2E2E2F5F5E228E2E2E2E2E2E2E2E2E2F5E2E2E2E2E2E2E2E2E2E2
310
E20F0FE2E2E2E2E2E2E2E2E2E2E2E2E2E2E2E22DE2E2E2E2E2E2E2E2E2E2E2E2E2E2E2E2E2E2E2E2E2E2E2E2E2E2E2E2E2E2E2E2E22DE2E2E2E2E2E2E2E2E2E2E2E2E20FE2E2E2F5F5F5E2E2E2E2F5F5F5F5F5F5F5BEF5F5F5F5F5F5F5E2E2E2E2E2F5F5F5E2E2E2E2E2E2E2E2E2E2E2E2E20F0FE2E2E2E2E2E2E2F5F5F5E2
310
F5F5E2E2E2E2E2E2F5F5E2F5E2F5E2F5E2E2F5F5E2E2E2E2E2E2E2E2E2E2F5F528E2E2E2E2E2E2E2E2E2F5E2E2E2E2E2E2E2E20F0F0F0FE2E2E2E2E2E2E2E2E2E2E2E2E2E2E2E2E22DE2E2E2E2E2E2E2E2E2E2E2E2E2E2E2E2E2E2E2E2E2E2E2E2E2E2E2E2E2E2E2E2E22DE2E2E2E2E2E2E2E2E2E2E2E2E20FE2E2E2F5F5E2
310
E2E2E2F5F5E2F5F5F5E2F5BEF5F5F5F5F5F5F5F5E2E2E2E2F5F5F5E2E2E2E2E2E2E2E2E2E2E2E2E20F0FE2E2E2E2E2E2F5F5F5F5E2F5F5E2E2E2E2E2E2F5F5E2F5E2F5E2F5E2E2F5E2E2E2E2E2E2E2E2E2E2E2E2E228E2E2E2E2E2E2E2E2E2F5E2E2E2E2E2E2E2E2E20FE20FE2E2E2E2E2E2E2E2E2E2E2E2E2E2E2E2E22DE2
310
E2E2E2E2E2E2E2E2E2E2E2E2E2E2E2E2E2E2E2E2E2E2E2E2E2E2E2E2E2E2E2E22DE2E2E2E2E2E2E2E2E2E2E2E2E20FE2E2E2F5F5E2E2E2E2F5F5F5F5F5F5F5F5BEF5F5F5E2F5F5E2F5F5E2E2E2F5F5F5E2E2E2E2E2E2E2E2E2E2E2E2E20F0F0F0F0F0F0FBEBEBEBEBEBEBEBEBEBEBEBEBEBEBEBEBEBEBEBEBEBEBEBEBEBEBE
310
BEBEBEBEBEBEBEBEBEBEBEBEBEBEBEBEBEBEBEBEBEBEBEBEE2E2E2E2E2E20F0F0F0FE2E2E2E2E2E2E2E2E2E2E2E2E2E2E2E2E22DE2E2E2E2E2E2E2E2E2E2E2E2E2E2E2E2E2E2E2E2E2E2E2E2E2E2E2E2E2E2E2E2E22DE2E2E2E2E2E2E2E2E2E2E2E2E20FE2E2E2F5F5E2E2E2F5F5F5F5F5F5F5E2E2BEE2E2F5F5F5F5F5F5F5
310
E2E2E2E2F5F5E2E2E2E2E2E2E2E2E2E2E2E2E20FE2E2E2E2BEBEE2F5F5F5F5E2F5E2E2E2E2E2E2E2E2F5E2F5E2F5E2F5E2F5E2E2E2E2E2E2E2E2E2E2E2E2E2E228F5E2E2E2E2E2E2E2E2F5E2BEE2E2E2E2E2E20FE20F0FE2E2E2E2E2E2E2E2E2E2E2E2E2E2E2E2E22DE2E2E2E2E2E2E2E2E2E2E2E2E2E2E2E2E2E2E2E2E2E2
310
E2E2E2E2E2E2E2E2E2E2E22DE2E2E2E2E2E2E2E2E20F0FE20F0FE2E2E2F5F5E2E2E2F5F5F5F5F5F5F5E2E2BEE2E2E2F5F5F5F5F5F5E2E2E2E2F5F5E2E2E2E2E2E2E2E2E2E20F0F0F0FE2E2E2E2BEE2E2F5F5F5F5E2F5E2E2E2E2E2E2E2E2F5E2F5E2F5E2F5F5F5E2E2E2E2E2E2E2E2E2E2E2E2E2E228F5F5E2E2E2E2E2E2E2
310
F5E2BEE2E2E2E2E2E20F0F0F0FE2E2E2E2E2E2E2E2E2E2E2E2E2E2E2E2E22DE2E2E2E2E2E2E2E2E2E2E2E2E2E2E2E2E2E2E2E2E2E2E2E2E2E2E2E2E2E2E2E2E22DE2E2E2E2E2E2E2E2E20F0F0F0F0FE2E2E2F5F5E2E2E2F5F5F5F5E2F5E2E2E2BEE2E2E2F5F5F5F5E2F5E2E2E2E2F5F5E2E2E2E2E2E2E2E2E2E20F0F0F0FE2
310
E2E2E2BEE2E2F5F5F5F5E2F5E2E2E2E2E2E2E2E2F5E2F5E2F5E2F5F5F5F5E2E2E2E2E2E2E2E2E2E2E2E2E228F5F5F5E2E2E2E2E2E2F5E2BEE2E2E2E2E2E20FE20F0FE2E2E2E2E2E2E2E2E2E2E2E2E2E2E2E2E22DE2E2E2E2E2E2E2E2E2E2E2E2E2E2E2E2E2E2E2E2E2E2E2E2E2E2E2E2E2E2E2E2E22DE2E2E2E2E2E2E2E2E2
310
0F0FE20F0FE2BEBEBEBEBEBEBEBEBEBEBEBEBEBEBEBEBEBEBEBEBEBEBEBEBEBEBEBEBEBEBEBEBEBEE2E2E2E2E2E2E2E2E20F0F0FE2E2BEBEBEBEBEBEBEBEBEBEBEBEBEBEBEBEBEBEBEBEBEBEBEBEBEBEBEBEBEBEBEBEBEBEBEBEBEBEBEBEBEBE28BEBEBEBEBEBEBEBEBEBEBEBEBEBEBEE2E2E20F0F0F0FE2E2E2E2E2E2E2E2
310
E2E2E2E2E2E2E2E2E22DE2E2E2E2E2E2E2E2E2E2E2E2E2E2E2E2E2E2E2E2E2E2E2E2E2E2E2E2E2E2E2E2E22DE2E2E2E2E2E2E2E2E20F0F0F0F0FE2E2E2F5F5E2E2E2F5F5F5F5E2F5E2E2E2BEE2E2E2F5F5F5F5E2F5E2E2E2E2F5F5E2E2E2E2E2E2E2E2E2E20F0F0F0FE2E2E2E2BEE2E2F5F5F5F5E2F5E2E2E2E2E2E2E2E2F5
310
E2F5E2F5E2F5F5F5F5E2E2E2E2E2E2E2E2E2E2E2E2E228F5F5F5E2E2E2E2E2E2F5E2BEE2E2E2E2E2E2E20F0F0FE2E2E2E2E2E2E2E2E2E2E2E2E2E2E2E2E22DE2E2E2E2E2E2E2E2E2E2E2E2E2E2E2E2E2E2E2E2E2E2E2E2E2E2E2E2E2E2E2E2E22DE2E2E2E2E2E2E2E2E2E2E2E2E20FE2E2E2F5F5E2E2E2F5F5F5F5F5F5F5E2
310
E2BEE2E2E2F5E2F5F5F5F5E2E2E2E2F5F5E2E2E2E2E2E2E2E2E2E20F0F0F0FE2E2E2E2BEE2E2F5F5F5F5E2F5E2E2E2E2E2E2E2E2F5E2F5E2F5E2F5F5F5E2E2E2E2E2E2E2E2E2E2E2E2E2E228F5E2E2E2E2E2E2E2E2F5E2BEE2E2E2E2E2E2E20F0F0FE2E2E2E2E2E2E2E2E2E2E2E2E2E2E2E2E22DE2E2E2E2E2E2E2E2E2E2E2
310
E2E2E2E2E2E2E2E2E2E2E2E2E2E2E2E2E2E2E2E2E2E22DE2E2E2E2E2E2E2E2E2E2E2E2E20FE2E2E2F5F5E2E2E2F5F5F5F5F5E2F5F5E2BEE2F5F5F5F5F5F5F5F5E2E2E2F5F5F5E2E2E2E2E2E2E2E2E2E2E2E2E20F0F0F0F0F0F0FBEBEBEBEBEBEBEBEBEBEBEBEBEBEBEBEBEBEBEBEBEBEBEBEBEBEBEBEBEBEBEBEBEBEBEBEBE
310
BEBEBEBEBEBEBEBEBEBEBE0FBEBEE2E2E2E2E2E20F0F0F0FE2E2E2E2E2E2E2E2E2E2E2E2E2E2E2E2E22DE2E2E2E2E2E2E2E2E2E2E2E2E2E2E2E2E2E2E2E2E2E2E2E2E2E2E2E2E2E2E2E2E22DE2E2E2E2E2E2E2E2E2E2E2E2E20FE2E2E2F5F5E2E2E2E2F5F5F5F5F5E2F5F5BEF5F5F5F5F5F5E2F5E2E2E2E2F5F5F5E2E2E2E2
310
E2E2E2E2E2E2E2E2E20FE2E2E2E2E2E2E2F5F5F5F5E2F5F5E2E2E2E2E2E2F5F5E2F5E2F5E2F5E2F5E2E2E2E2E2E2E2E2E2E2E2E2E2E228E2E2E2E2E2E2E2E2E20F0FE2E2E2E2E2E2E2E2E20F0FE2E2E2E2E2E2E2E2E2E2E2E2E2E2E2E2E22DE2E2E2E2E2E2E2E2E2E2E2E2E2E2E2E2E2E2E2E2E2E2E2E2E2E2E2E2E2E2E2E2
310
E22DE2E2E2E2E2E2E2E2E2E2E2E2E20FE2E2E2F5F5F5E2E2E2E2F5F5F5F5F5F5E2BEE2F5F5F5F5F5F5F5E2E2E2E2F5F5F5E2E2E2E2E2E2E2E2E2E2E2E2E20F0FE2E2E2E2E2E2E2F5F5F5E2F5F5E2E2E2E2E2E2F5F5E2F5E2F5E2F5E2E2F5E2E2E2E2E2E2E2E2E2E2E2E2F528E2E2E2E2E2E2E2E2E2F50F0FE2E2E2E2E2E20F
310
0F0F0FE2E2E2E2E2E2E2E2E2E2E2E2E2E2E2E2E22DE2E2E2E2E2E2E2E2E2E2E2E2E2E2E2E2E2E2E2E2E2E2E2E2E2E2E2E2E2E2E2E2E22DE2E2E2E2E2E2E2E2E2E2E2E2E20FE2E2E2F5F5F5E2E2E2E2F5F5F5F5F5F5F5BEF5F5F5F5E2F5F5E2E2E2E2F5E2F5F5E2E2E2E2E2E2E2E2E2E2E2E2E20F0FE2E2E2E2E2E2E2F5F5F5
310
E2F5F5E2E2E2E2E2E2F5F5E2F5E2F5E2F5E2E2E2F5E2E2E2E2E2E2E2E2E2E2F5E228E2E2E2E2E2E2E2E2E2F50FE2E2E2E2E2E2E20F0F0F0FE2E2E2E2E2E2E2E2E2E2E2E2E2E2E2E2E22DE2E2E2E2E2E2E2E2E2E2E2E2E2E2E2E2E2E2E2E2E2E2E2E2E2E2E2E2E2E2E2E2E22DE2E2E2E2E2E2E2E2E2E2E2E2E20FE2E2E2F5F5
310
E2F5E2E2E2E2F5F5F5E2F5F5BEF5F5F5F5F5F5E2E2E2E2E2F5E2F5F5E2E2E2E2E2E2E2E2E2E2E2E2E20FE2E2E2E2E2E2E2E20FF5F5E2F5F5E2E2E2E2E2E2F5F5E2F5E2F5E2F5E2E2E2E2F5F5E2E2E2E2E2E2E2F5F5E20FE2E2E2E2BEE2E2E2E2F5E20FE2E2E2E2E2E2E2E2E20F0FE2E2E2E2E2E2E2E2E2E2E2E2E2E2E2E22D
310
E2E2E2E2E2E2E2E2E2E2E2E2E2E2E2E2E2E2E2E2E2E2E2E2E2E2E2E2E2E2E2E2E22DE2E2E2E2E2E2E2E2E2E2E2E2E20FE2E2E2F5F5E2E2F5E2E2E2E2F5F5F5F5F5BEF5F5F5F5F5E2E2E2E2E2F5E2E2F5F5E2E2E2E2E2E2E2E2E2E2E2E2E20FE2E2E2E2E2E2E2E20FF5F5E2F5F5F5F5F5F5F5F5F5F5E2F5F5F5E2F5E2E2E2E2
310
E2F5F5F5F5F5F5F5F5E2E2E20F28E2E2E2BEF5E2E2E2F5E20FE2E2E2E2E2E2E2E2E20F0FE2E2E2E2E2E2E2E2E2E2E2E2E2E2E2E22DE2E2E2E2E2E2E2E2E2E2E2E2E2E2E2E2E2E2E2E2E2E2E2E2E2E2E2E2E2E2E2E2E22DE2E2E2E2E2E2E2E2E2E2E2E2E20FE2E2E2F5E2F5F5F5E2E2E2E2E2E2E2F5F5BEF5F5F5E2E2E2E2E2
310
E2F5E2F5F5E2F5E2E2E2E2E2E2E2E2E2E2E2E2E2E2E2E2E2E2E2E2E2E20FE2F50FF5F5E2E2E2E2E2E2F5F5F5F5E2F5F5F5E2E2E2E2E2E2E2E2E2E2E2E2E2E2E2E20F28282828BEF5F528280F0F0F0F0F0F0F0F0F0F0F0F0F0FE2E2E2E2E2E2E2E2E2E2E2E2E2E2E2E22DE2E2E2E2E2E2E2E2E2E2E2E2E2E2E2E2E2E2E2E2E2
310
E2E2E2E2E2E2E2E2E2E2E2E22DE2E2E2E2E2E2E2E2E2E2E2E2E20FE2E2E2F5E2E2E2F5F5F5E2E2E2E2E2E2E2BEE2E2E2E2E2E2E2E2F5F5F5E2E2E2F5E2E2E2E2E2E2E2E2E2E2E2E2E2E2E2E2E2E2E2E2E2E20FE20F0FF5F5E2E2E2E2E2E2F5F5E2E2E2E2E2F5E2E2E2E2E2E2E2E2E2E2E2E2E2E2E2E20FE2BEBEBE0FBEBEBE
310
E2F5E2E20FE2E2E2E2E2E2E2E2E2E2E2E2E2E2E2E2E2E2E2E2E2E2E2E2E2E22DE2E2E2E2E2E2E2E2E2E2E2E2E2E2E2E2E2E2E2E2E2E2E2E2E2E2E2E2E2E2E2E2E22DE2E2E2E2E2E2E2E2E2E2E2E2E20FE2E2E2F5E2E2E2E2E2F5F5E2E2E2E2E2E2BEE2E2E2E2E2E2E2F5F5E2E2E2E2E2F5E2E2E2E2E2E2E2E2E2E2E2E2E2E2
310
E2E2E2E2E2E2E2E20F0F0FE2F5E2E2E2E2E2E2E2E2F5E2E2E2E2E2F5E2E2E2E2E2E2E2E2E2E2E2E2E2E2E2E20FE2E2F5F5BEE2F5E2E2F5E2E2E20FE2E2E2E2E2E2E2E2E2E2E2E2E2E2E2E2E2E2E2E2E2E2E2E2E22DE2E2E2E2E2E2E2E2E2E2E2E2E2E2E2E2E2E2E2E2E2E2E2E2E2E2E2E2E2E2E2E2E22DE2E2E2E2E2E2E2E2
310
E2E2E2E2E20FE2E2E2F5E2E2E2E2E2E2E2F5F5E2E2E2E2BEE2E2E2E2E2F5F5E2E2E2E2E2E2E2F5E2E2E2E2E2E2E2E2E2E2E2E2E2E2E2E2E2E2E2E2E2E20F0FE2E2F5E2E2E2E2E2E2E2E2F5E2E2E2E2E2F5E2E2E2E2E2E2E2E2E2E2E2E2E2E2E2E20FE2E2E2F5BEF50FE2E2F5E2E2E20FE2E2E2E2E2E2E2E2E2E2E2E2E2E2E2
310
E2E2E2E2E2E2E2E2E2E22DE2E2E2E2E2E2E2E2E2E2E2E2E2E2E2E2E2E2E2E2E2E2E2E2E2E2E2E2E2E2E2E2E22DE2E2E2E2E2E2E2E2E2E2E2E2E20FE2E2E2F5E2E2E2E2E2E2E2E2E2F5F5F5F5BEF5F5F5F5F5E2E2E2E2E2E2E2E2E2F5E2E2E2E2E2E2E2E2E2E2E2E2E2E2E2E2E2E2E2E2E2E20F0FE2E2F5F5E2E2E2E2E2E2F5
310
F5E2E2E2E2E2F5E2E2E2E2E2E2E2E2E2E2E2E2E2E2E2E20FE2E2E2E2BEE2E20FE2F5E2E2E2E20F0F0F0F0F0F0F0F0F0F0F0F0F0F0F0F0F0FE2E2E2E2E2E2E22DE2E2E2E2E2E2E2E2E2E2E2E2E2E2E2E2E2E2E2E2E2E2E2E2E2E2E2E2E2E2E2E2E22DE2E2E2E2E2E2E2E2E2E2E2E2E20FE2E2E2F5E2E2E2E2E2E2E2E2E2E2E2
310
F5F5BEE2F5F5E2E2E2E2E2E2E2E2E2E2F5F5E2E2E2E2E2E2E2E2E2E2E2E2E2E2E2E2E2E2E2E2E2E20FE2E2E2E2F5E2E2E2E2E2E2F5F5E2E2E2E2E2F5F5F5F5F5F5F5F5F5F5F5F5F5F5F5F5F50FF5F5F5F5BEF5F50F0FF5E2E2E2E2E2E2E2E2E2E20FE20FE2E2E2E2E2E2E2E2E2E2E2E2E2E2E2E22DE2E2E2E2E2E2E2E2E2E2
310
E2E2E2E2E2E2E2E2E2E2E2E2E2E2E2E2E2E2E2E2E2E2E22DE2E2E2E2E2E2E2E2E2E2E2E20F0F0F0F0F0F0FF5F5F5F5F5F5F5F5F5F5F5F5BEF5F5F5F5F5F5F5F5F5F5F5F5F5F5E2E2E2E2E2E2E2E2E2E2E2E2E2E2E2E2E2E2E2E2E2E2E20FE2E2E2E2F5F5F5F5F5F5F5F5E2E2E2E2E2E20FF5F5F5F5F5F5F5F5F5F5F5F5F5F5
310
F5F50FF5F5F5F5F5F5F5F50F0FE2E2E2E2E2E20F0F0F0F0F0F0F0F0F0F0FE2E20FE2E2E2E2E2E2E2E2E22DE2E2E2E2E2E2E2E2E2E2E2E2E2E2E2E2E2E2E2E2E2E2E2E2E2E2E2E2E2E2E2E2E22DE2E2E2E2E2E2E2E2E2E2E2E2E2E2E2E2E2E2E2E2E2E2E2E2E2E2E2E2E2E2E2BEE2E2E2E2E2E2E2E2E2E2E2E2E2E2E2E2E2E2
310
E2E2E2E2E2E2E2E2E2E2E2E2E2E2E2E2E2E20F0FE2E2E2E2E2E2E2E2E2E2E2E2E2E2E2E2E2E20FE2E2E2E2E2E2E2E2E2E2E2E2E2E2E2E20FE2E2E2E2E2E2E2E2E20FE2E2E2E2E2E20F0F0F0F0F0F0F0F0F0F0F0F0F0FE2E2E2E2E2E2E2E2E22DE2E2E2E2E2E2E2E2E2E2E2E2E2E2E2E2E2E2E2E2E2E2E2E2E2E2E2E2E2E2E2
310
E2E22DE2E2E2E2E2E2E2E2E2E2E2E2E2E2E2E2E2E2E2E2E2E2E2E2E2E2E2E2E2E2E2BEE2E2E2E2E2E2E2E2E2E2E2E2E2E2E2E2E2E2E2E2E2E2E2E2E2E2E2E2E2E2E2E2E2E2E20FE20FE2E2E2E2E2E2E2E2E2E2E2E2E2E2E2E2E2E20FE2E2E2E2E2E2E2E2E2E2E2E2E2E2E2E20FE2E2E2E2E2E2E2E2E20F0FE2E2E2E2E20F0F
310
E2E2E2E2E2E2E2E2E2E2E20FE2E2E2E2E2E2E2E2E22DE2E2E2E2E2E2E2E2E2E2E2E2E2E2E2E2E2E2E2E2E2E2E2E2E2E2E2E2E2E2E2E2E22DE2E2E2E2E2E2E2E2E2E2E2E2E2E2E2E2E2E2E2E2E2E2E2E2E2E2E2E2E2E2E2BEE2E2E2E2E2E2E2E2E2E2E2E2E2E2E2E2E2E2E2E2E2E2E2E2E2E2E2E2E2E2E2E2E2E2E20FE20FE2
310
E2E2E2E2E2E2E2E2E2E2E2E2E2E2E2E2E20FE2E2E2E2E2E2E2E2E2E2E2E2E2E2E2E20FE2E2E2E2E2E2E2E2E20F0FE2E2E2E2E2E2E2E2E2E2E2E2E2E2E2E2E2E2E2E2E2E2E2E2E2E2E2E22DE2E2E2E2E2E2E2E2E2E2E2E2E2E2E2E2E2E2E2E2E2E2E2E2E2E2E2E2E2E2E2E2E22DE2E2E2E2E2E2E2E2E2E2E2E2E2E2E2E2E2E2
310
E2E2E2E2E2E2E2E2E2E2E2E2E2E2E2E2E2E2E2E2E2E2E2E2E2E2E2E2E2E2E2E20F0F0F0F0F0F0F0F0F0F0F0F0F0F0F0F0FE2E20FE20F0FE2E2E2E2E2E2E2E2E2E2E2E20F0FE20FE2E2E2E2E2E2E2E2E2E2E2E2E2E2E2E20FE20F0FE2E2E20F0FE20FE20FE2E2E2E2E2E2E2E2E2E2E2E2E2E2E2E2E2E2E2E2E2E2E2E2E2E2E2
310
2DE2E2E2E2E2E2E2E2E2E2E2E2E2E2E2E2E2E2E2E2E2E2E2E2E2E2E2E2E2E2E2E2E22DE2E2E2E2E2E2E2E2E2E2E2E2E2E2E2E2E2E2E2E2E2E2E2E2E2E2E2E2E2E2E2E2E2E2E2E2E2E2E2E2E2E2E2E2E2E2E2E2E2E2E20FE20FE20FE20F0F0FE20FE2E20FE2E2E2E20F0F0F0F0F0F0F0F0F0F0F0F0F0F0F0F0F0F0F0FE2E2E2
310
E2E2E2E2E2E2E2E2E2E2E2E2E20F0F0F0F0F0F0F0F0F0F0FE2E20FE2E2E2E2E2E2E2E2E2E2E2E2E2E2E2E2E2E2E2E2E2E2E2E2E2E22DE2E2E2E2E2E2E2E2E2E2E2E2E2E2E2E2E2E2E2E2E2E2E2E2E2E2E2E2E2E2E2E2E22DE2E2E2E2E2E2E2E2E2E2E2E2E2E2E2E2E2E2E2E2E2E2E2E2E2E2E2E2E2E2E2E2E2E2E2E2E2E2E2
310
E2E2E2E2E2E2E2E2E2E2E2E20F0F0FE20FE20F0F0F0F0FE20F0FE2E2E2E20FE2E2E2E2E2E2E20F0F0F0FE2E2E2E2E2E2E20FE2E2E2E2E2E2E2E2E2E2E2E2E2E2E2E20FE2E2E2E20F0FE2E2E20FE2E2E20F0F0F0F0F0FE2E2E2E2E2E2E2E2E2E2E2E2E2E2E2E2E2E2E2E22DE2E2E2E2E2E2E2E2E2E2E2E2E2E2E2E2E2E2E2E2
310
E2E2E2E2E2E2E2E2E2E2E2E2E22DE2E2E2E2E2E2E2E2E2E2E2E2E2E2E2E2E2E2E2E2E2E2E2E2E2E2E2E2E2E2E2E2E2E2E2E2E2E2E2E2E2E2E2E2E2E2E2E2E2E2E20FE20F0F0F0F0FE2E2E20FE20F0FE2E2E2E20FE2E2E2E2E2E2E2E20FE20FE2E2E2E2E2E2E2E2E2E2E2E2E2E2E2E2E2E2E2E2E2E2E2E2E2E2E2E2E20F0FE2
310
E2E20FE2E2E2E20F0F0F0FE2E2E2E2E2E2E2E2E2E2E2E2E2E2E2E2E2E2E2E2E22DE2E2E2E2E2E2E2E2E2E2E2E2E2E2E2E2E2E2E2E2E2E2E2E2E2E2E2E2E2E2E2E2E22DE2E2E2E2E2E2E2E2E2E2E2E2E2E2E2E2E2E2E2E2E2E2E2E2E2E2E2E2E2E2E2E2E2E2E2E2E2E2E2E2E2E2E2E2E2E2E2E2E2E2E2E2E2E2E2E2E2E2E2E2
310
E2E2E2E2E2E2E2E2E20FE2E2E2E2E2E2E20F0F0F0FE2E2E2E2E2E2E2E2E2E2E2E2E2E2E2E2E2E2E2E2E2E2E2E2E2E2E2E20F0F0FE2E2E20FE2E2E2E20F0FE20FE2E2E2E2E2E2E2E2E2E2E2E2E2E2E2E2E2E2E2E2E22DE2E2E2E2E2E2E2E2E2E2E2E2E2E2E2E2E2E2E2E2E2E2E2E2E2E2E2E2E2E2E2E2E22DE2E2E2E2E2E2E2
310
E2E2E2E2E2E2E2E2E2E2E2E2E2E2E2E2E2E2E2E2E2E2E2E2E2E2E2E2E2E2E2E2E2E2E2E2E2E2E2E2E2E2E2E2E2E2E2E2E2E2E2E2E2E2E2E2E2E2E2E2E2E20FE2E2E2E2E2E2E2E2E2E2E2E2E2E2E2E2E2E2E2E2E2E2E2E2E2E2E2E2E2E2E2E2E2E2E2E2E2E2E2E2E2E2E2E2E20FE2E2E2E20F0F0F0FE2E2E2E2E2E2E2E2E2E2
310
E2E2E2E2E2E2E2E2E2E2E22DE2E2E2E2E2E2E2E2E2E2E2E2E2E2E2E2E2E2E2E2E2E2E2E2E2E2E2E2E2E2E2E2E22DE2E2E2E2E2E2E2E2E2E2E2E2E2E2E2E2E2E2E2E2E2E2E2E2E2E2E2E2E2E2E2E2E2E2E2E2E2E2E2E2E2E2E2E2E2E2E2E2E2E2E2E2E2E2E2E2E2E2E2E2E2E2E2E2E2E2E2E2E20FE2E2E2E2E2E2E2E2E2E2E2
310
E2E2E2E2E2E2E2E2E2E2E2E2E2E2E2E2E2E2E2E2E2E2E2E2E2E2E2E2E2E2E2E2E2E20FE2E2E2E20F0F0F0FE2E2E2E2E2E2E2E2E2E2E2E2E2E2E2E2E2E2E2E2E22DE2E2E2E2E2E2E2E2E2E2E2E2E2E2E2E2E2E2E2E2E2E2E2E2E2E2E2E2E2E2E2E2E22DE2E2E2E2E2E2E2E2E2E2E2E2E2E2E2E2E2E2E2E2E2E2E2E2E2E2E2E2
310
E2E2E2E2E2E2E2E2E2E2E2E2E2E2E2E2E2E2E2E2E2E2E2E2E2E2E2E2E2E2E2E2E2E2E2E2E2E2E2E2E20F0F0F0F0F0F0F0F0F0F0F0F0F0F0F0F0F0F0F0F0F0F0F0F0F0F0F0F0F0F0F0F0F0F0F0F0F0F0F0F0F0F0F0F0F0F0FE2E2E2E2E2E2E2E2E2E2E2E2E2E2E2E2E2E2E2E2E2E2E2E2E2E2E2E2E22DE2E2E2E2E2E2E2E2E2
310
E2E2E2E2E2E2E2E2E2E2E2E2E2E2E2E2E2E2E2E2E2E2E2E22DE2E2E2E2E2E2E2E2E2E2E2E2E2E2E2E2E2E2E2E2E2E2E2E2E2E2E2E2E2E2E2E2E2E2E2E2E2E2E2E2E2E2E2E2E2E2E2E2E2E2E2E2E2E2E2E2E2E2E2E2E2E2E2E2E2E2E2E2E20FE20F0FE2E2E2E2E2E2E2E2E2E2E2E2E2E2E2E2E20F0FE20FE2E2E2E2E2E2E2E2
310
E2E2E2E2E2E2E2E2E2E20F0FE20FE2E2E2E2E2E2E2E2E2E2E2E2E2E2E2E2E2E2E2E2E2E2E2E2E2E2E2E2E22DE2E2E2E2E2E2E2E2E2E2E2E2E2E2E2E2E2E2E2E2E2E2E2E2E2E2E2E2E2E2E2E2E22DE2E2E2E2E2E2E2E2E2E2E2E2E2E2E2E2E2E2E2E2E2E2E2E2E2E2E2E2E2E2E2E2E2E2E2E2E2E2E2E2E2E2E2E2E2E2E2E2E2
310
E2E2E2E2E2E2E2E2E2E2E2E2E2E2E2E2E2E2E2E2E2E2E2E2E2E2E2E2E2E2E2E2E2E2E2E2E2E2E2E2E2E20F0F0F0FE2E2E2E2E2E2E2E2E2E2E2E2E2E2E2E2E2E2E2E2E2E2E2E2E2E2E2E2E2E2E2E2E2E2E2E2E2E2E2E2E2E2E2E2E2E2E2E2E2E22DE2E2E2E2E2E2E2E2E2E2E2E2E2E2E2E2E2E2E2E2E2E2E2E2E2E2E2E2E2E2
310
E2E2E22DE2E2E2E2E2E2E2E2E2E2E2E2E2E2E2E2E2E2E2E2E2E2E2E2E2E2E2E2E2E2E2E2E2E2E2E2E2E2E2E2E2E2E2E2E2E2E2E2E2E2E2E2E2E2E2E2E2E2E2E2E2E2E2E2E2E2E2E2E2E2E2E2E2E2E2E2E2E2E2E2E2E2E2E2E2E2E2E2E2E20F0FE20FE2E2E2E2E2E2E2E2E2E2E2E2E2E2E2E2E2E2E2E2E2E2E2E2E2E2E2E2E2
310
E2E2E2E2E2E2E2E2E2E2E2E2E2E2E2E2E2E2E2E2E2E22DE2E2E2E2E2E2E2E2E2E2E2E2E2E2E2E2E2E2E2E2E2E2E2E2E2E2E2E2E2E2E2E2E22DE2E2E2E2E2E2E2E2E2E2E2E2E2E2E2E2E2E2E2E2E2E2E2E2E2E2E2E2E2E2E2E2E2E2E2E2E2E2E2E2E2E2E2E2E2E2E2E2E2E2E2E2E2E2E2E2E2E2E2E2E2E2E2E2E2E2E2E2E2E2
310
E2E2E2E2E2E2E2E2E2E2E2E2E2E2E2E2E2E2E2E20F0FE20FE2E2E2E2E2E2E2E2E2E2E2E2E2E2E2E2E2E2E2E2E2E2E2E2E2E2E2E2E2E2E2E2E2E2E2E2E2E2E2E2E2E2E2E2E2E2E2E2E2E2E22DE2E2E2E2E2E2E2E2E2E2E2E2E2E2E2E2E2E2E2E2E2E2E2E2E2E2E2E2E2E2E2E2E22DE2E2E2E2E2E2E2E2E2E2E2E2E2E2E2E2E2
310
E2E2E2E2E2E2E2E2E2E2E2E2E2E2E2E2E2E2E2E2E2E2E2E2E2E2E2E2E2E2E2E2E2E2E2E2E2E2E2E2E2E2E2E2E2E2E2E2E2E2E2E2E2E2E2E2E2E2E2E2E2E2E2E2E2E2E2E2E2E2E2E2E2E2E2E2E2E2E2E2E2E2E2E2E2E2E2E2E2E2E2E2E2E2E2E2E2E2E2E2E2E2E2E2E2E2E2E2E2E2E2E2E2E2E2E2E2E2E2E2E2E2E2E2E2E2E2
310
E22DE2E2E2E2E2E2E2E2E2E2E2E2E2E2E2E2E2E2E2E2E2E2E2E2E2E2E2E2E2E2E2E2E22DE2E2E2E2E2E2E2E2E2E2E2E2E2E2E2E2E2E2E2E2E2E2E2E2E2E2E2E2E2E2E2E2E2E2E2E2E2E2E2E2E2E2E2E2E2E2E2E2E2E2E2E2E2E2E2E2E2E2E2E2E2E2E2E2E2E2E2E2E2E2E2E2E2E2E2E2E2E2E2E2E2E2E2E2E2E2E2E2E2E2E2
310
E2E2E2E2E2E2E2E2E2E2E2E2E2E2E2E2E2E2E2E2E2E2E2E2E2E2E2E2E2E2E2E2E2E2E2E2E2E2E2E2E2E2E2E2E2E2E2E2E2E2E2E2E2E22DE2E2E2E2E2E2E2E2E2E2E2E2E2E2E2E2E2E2E2E2E2E2E2E2E2E2E2E2E2E2E2E2E22DE2E2E2E2E2E2E2E2E2E2E2E2E2E2E2E2E2E2E2E2E2E2E2E2E2E2E2E2E2E2E2E2E2E2E2E2E2E2
310
E2E2E2E2E2E2E2E2E2E2E2E2E2E2E2E2E2E2E2E2E2E2E2E2E2E2E2E2E2E2E2E2E2E2E2E2E2E2E2E2E2E2E2E2E2E2E2E2E2E2E2E2E2E2E2E2E2E2E2E2E2E2E2E2E2E2E2E2E2E2E2E2E2E2E2E2E2E2E2E2E2E2E2E2E2E2E2E2E2E2E2E2E2E2E2E2E2E2E2E2E2E2E2E2E2E2E22DE2E2E2E2E2E2E2E2E2E2E2E2E2E2E2E2E2E2E2
310
E2E2E2E2E2E2E2E2E2E2E2E2E2E22DE2E2E2E2E2E2E2E2E2E2E2E2E2E2E2E2E2E2E2E2E2E2E2E2E2E2E2E2E2E2E2E2E2E2E2E2E2E2E2E2E2E2E2E2E2E2E2E2E2E2E2E2E2E2E2E2E2E2E2E2E2E2E2E2E2E2E2E2E2E2E2E2E2E2E2E2E2E2E2E2E2E2E2E2E2E2E2E2E2E2E2E2E2E2E2E2E2E2E2E2E2E2E2E2E2E2E2E2E2E2E2E2
310
E2E2E2E2E2E2E2E2E2E2E2E2E2E2E2E2E2E2E2E2E2E2E2E2E2E2E2E2E2E2E2E2E22DE2E2E2E2E2E2E2E2E2E2E2E2E2E2E2E2E2E2E2E2E2E2E2E2E2E2E2E2E2E2E2E2E22DE2E2E2E2E2E2E2E2E2E2E2E2E2E2E2E2E2E2E2E2E2E2E2E2E2E2E2E2E2E2E2E2E2E2E2E2E2E2E2E2E2E2E2E2E2E2E2E2E2E2E2E2E2E2E2E2E2E2E2
310
E2E2E2E2E2E2E2E2E2E2E2E2E2E2E2E2E2E2E2E2E2E2E2E2E2E2E2E2E2E2E2E2E2E2E2E2E2E2E2E2E2E2E2E2E2E2E2E2E2E2E2E2E2E2E2E2E2E2E2E2E2E2E2E2E2E2E2E2E2E2E2E2E2E2E2E2E2E2E2E2E2E2E2E2E2E22DE2E2E2E2E2E2E2E2E2E2E2E2E2E2E2E2E2E2E2E2E2E2E2E2E2E2E2E2E2E2E2E2E22DE2E2E2E2E2E2
310
E2E2E2E2E2E2E2E2E2E2E2E2E2E2E2E2E2E2E2E2E2E2E2E2E2E2E2E2E2E2E2E2E2E2E2E2E2E2E2E2E2E2E2E2E2E2E2E2E2E2E2E2E2E2E2E2E2E2E2E2E2E2E2E2E2E2E2E2E2E2E2E2E2E2E2E2E2E2E2E2E2E2E2E2E2E2E2E2E2E2E2E2E2E2E2E2E2E2E2E2E2E2E2E2E2E2E2E2E2E2E2E2E2E2E2E2E2E2E2E2E2E2E2E2E2E2E2
310
E2E2E2E2E2E2E2E2E2E2E2E22DE2E2E2E2E2E2E2E2E2E2E2E2E2E2E2E2E2E2E2E2E2E2E2E2E2E2E2E2E2E2E2E2E22DE2E2E2E2E2E2E2E2E2E2E2E2E2E2E2E2E2E2E2E2E2E2E2E2E2E2E2E2E2E2E2E2E2E2E2E2E2E2E2E2E2E2E2E2E2E2E2E2E2E2E2E2E2E2E2E2E2E2E2E2E2E2E2E2E2E2E2E2E2E2E2E2E2E2E2E2E2E2E2E2
310
E2E2E2E2E2E2E2E2E2E2E2E2E2E2E2E2E2E2E2E2E2E2E2E2E2E2E2E2E2E2E2E2E2E2E2E2E2E2E2E2E2E2E2E2E2E2E2E2E2E2E2E2E2E2E2E2E2E2E2E2E2E2E2E2E22DE2E2E2E2E2E2E2E2E2E2E2E2E2E2E2E2E2E2E2E2E2E2E2E2E2E2E2E2E2E2E2E2E22DE2E2E2E2E2E2E2E2E2E2E2E2E2E2E2E2E2E2E2E2E2E2E2E2E2E2E2
310
E2E2E2E2E2E2E2E2E2E2E2E2E2E2E2E2E2E2E2E2E2E2E2E2E2E2E2E2E2E2E2E2E2E2E2E2E2E2E2E2E2E2E2E2E2E2E2E2E2E2E2E2E2E2E2E2E2E2E2E2E2E2E2E2E2E2E2E2E2E2E2E2E2E2E2E2E2E2E2E2E2E2E2E2E2E2E2E2E2E2E2E2E2E2E2E2E2E2E2E2E2E2E2E2E2E2E2E2E2E2E2E2E2E2E2E2E2E22DE2E2E2E2E2E2E2E2
310
E2E2E2E2E2E2E2E2E2E2E2E2E2E2E2E2E2E2E2E2E2E2E2E2E22DE2E2E2E2E2E2E2E2E2E2E2E2E2E2E2E2E2E2E2E2E2E2E2E2E2E2E2E2E2E2E2E2E2E2E2E2E2E2E2E2E2E2E2E2E2E2E2E2E2E2E2E2E2E2E2E2E2E2E2E2E2E2E2E2E2E2E2E2E2E2E2E2E2E2E2E2E2E2E2E2E2E2E2E2E2E2E2E2E2E2E2E2E2E2E2E2E2E2E2E2E2
310
E2E2E2E2E2E2E2E2E2E2E2E2E2E2E2E2E2E2E2E2E2E2E2E2E2E2E2E2E2E2E2E2E2E2E2E2E2E2E2E2E2E2E2E22DE2E2E2E2E2E2E2E2E2E2E2E2E2E2E2E2E2E2E2E2E2E2E2E2E2E2E2E2E2E2E2E2E22DE2E2E2E2E2E2E2E2E2E2E2E2E2E2E2E2E2E2E2E2E2E2E2E2E2E2E2E2E2E2E2E2E2E2E2E2E2E2E2E2E2E2E2E2E2E2E2E2
310
E2E2E2E2E2E2E2E2E2E2E2E2E2E2E2E2E2E2E2E2E2E2E2E2E2E2E2E2E2E2E2E2E2E2E2E2E2E2E2E2E2E2E2E2E2E2E2E2E2E2E2E2E2E2E2E2E2E2E2E2E2E2E2E2E2E2E2E2E2E2E2E2E2E2E2E2E2E2E2E2E2E2E2E2E2E2E2E2E2E2E2E2E2E2E2E2E22DE2E2E2E2E2E2E2E2E2E2E2E2E2E2E2E2E2E2E2E2E2E2E2E2E2E2E2E2E2
310
E2E2E2E22DE2E2E2E2E2E2E2E2E2E2E2E2E2E2E2E2E2E2E2E2E2E2E2E2E2E2E2E2E2E2E2E2E2E2E2E2E2E2E2E2E2E2E2E2E2E2E2E2E2E2E2E2E2E2E2E2E2E2E2E2E2E2E2E2E2E2E2E2E2E2E2E2E2E2E2E2E2E2E2E2E2E2E2E2E2E2E2E2E2E2E2E2E2E2E2E2E2E2E2E2E2E2E2E2E2E2E2E2E2E2E2E2E2E2E2E2E2E2E2E2E2E2
310
E2E2E2E2E2E2E2E2E2E2E2E2E2E2E2E2E2E2E2E2E2E2E22DE2E2E2E2E2E2E2E2E2E2E2E2E2E2E2E2E2E2E2E2E2E2E2E2E2E2E2E2E2E2E2E2E22DE2E2E2E2E2E2E2E2E2E2E2E2E2E2E2E2E2E2E2E2E2E2E2E2E2E2E2E2E2E2E2E2E2E2E2E2E2E2E2E2E2E2E2E2E2E2E2E2E2E2E2E2E2E2E2E2E2E2E2E2E2E2E2E2E2E2E2E2E2
310
E2E2E2E2E2E2E2E2E2E2E2E2E2E2E2E2E2E2E2E2E2E2E2E2E2E2E2E2E2E2E2E2E2E2E2E2E2E2E2E2E2E2E2E2E2E2E2E2E2E2E2E2E2E2E2E2E2E2E2E2E2E2E2E2E2E2E2E2E2E2E2E2E2E2E2E22DE2E2E2E2E2E2E2E2E2E2E2E2E2E2E2E2E2E2E2E2E2E2E2E2E2E2E2E2E2E2E2E2E22DE2E2E2E2E2E2E2E2E2E2E2E2E2E2E2E2
310
E2E2E2E2E2E2E2E2E2E2E2E2E2E2E2E2E2E2E2E2E2E2E2E2E2E2E2E2E2E2E2E2E2E2E2E2E2E2E2E2E2E2E2E2E2E2E2E2E2E2E2E2E2E2E2E2E2E2E2E2E2E2E2E2E2E2E2E2E2E2E2E2E2E2E2E2E2E2E2E2E2E2E2E2E2E2E2E2E2E2E2E2E2E2E2E2E2E2E2E2E2E2E2E2E2E2E2E2E2E2E2E2E2E2E2E2E2E2E2E2E2E2E2E2E2E2E2
310
E2E22DE2E2E2E2E2E2E2E2E2E2E2E2E2E2E2E2E2E2E2E2E2E2E2E2E2E2E2E2E2E2E2E2E22DE2E2E2E2E2E2E2E2E2E2E2E2E2E2E2E2E2E2E2E2E2E2E2E2E2E2E2E2E2E2E2E2E2E2E2E2E2E2E2E2E2E2E2E2E2E2E2E2E2E2E2E2E2E2E2E2E2E2E2E2E2E2E2E2E2E2E2E2E2E2E2E2E2E2E2E2E2E2E2E2E2E2E2E2E2E2E2E2E2E2
310
E2E2E2E2E2E2E2E2E2E2E2E2E2E2E2E2E2E2E2E2E2E2E2E2E2E2E2E2E2E2E2E2E2E2E2E2E2E2E2E2E2E2E2E2E2E2E2E2E2E2E2E2E2E2E22DE2E2E2E2E2E2E2E2E2E2E2E2E2E2E2E2E2E2E2E2E2E2E2E2E2E2E2E2E2E2E2E2E22DE2E2E2E2E2E2E2E2E2E2E2E2E2E2E2E2E2E2E2E2E2E2E2E2E2E2E2E2E2E2E2E2E2E2E2E2E2
310
E2E2E2E2E2E2E2E2E2E2E2E2E2E2E2E2E2E2E2E2E2E2E2E2E2E2E2E2E2E2E2E2E2E2E2E2E2E2E2E2E2E2E2E2E2E2E2E2E2E2E2E2E2E2E2E2E2E2E2E2E2E2E2E2E2E2E2E2E2E2E2E2E2E2E2E2E2E2E2E2E2E2E2E2E2E2E2E2E2E2E2E2E2E2E2E2E2E2E2E2E2E2E2E2E2E2E2E22DE2E2E2E2E2E2E2E2E2E2E2E2E2E2E2E2E2E2
310
E2E2E2E2E2E2E2E2E2E2E2E2E2E2E22DE2E2E2E2E2E2E2E2E2E2E2E2E2E2E2E2E2E2E2E2E2E2E2E2E2E2E2E2E2E2E2E2E2E2E2E2E2E2E2E2E2E2E2E2E2E2E2E2E2E2E2E2E2E2E2E2E2E2E2E2E2E2E2E2E2E2E2E2E2E2E2E2E2E2E2E2E2E2E2E2E2E2E2E2E2E2E2E2E2E2E2E2E2E2E2E2E2E2E2E2E2E2E2E2E2E2E2E2E2E2E2
310
E2E2E2E2E2E2E2E2E2E2E2E2E2E2E2E2E2E2E2E2E2E2E2E2E2E2E2E2E2E2E2E2E2E22DE2E2E2E2E2E2E2E2E2E2E2E2E2E2E2E2E2E2E2E2E2E2E2E2E2E2E2E2E2E2E2E2E22DE2E2E2E2E2E2E2E2E2E2E2E2E2E2E2E2E2E2E2E2E2E2E2E2E2E2E2E2E2E2E2E2E2E2E2E2E2E2E2E2E2E2E2E2E2E2E2E2E2E2E2E2E2E2E2E2E2E2
310
E2E2E2E2E2E2E2E2E2E2E2E2E2E2E2E2E2E2E2E2E2E2E2E2E2E2E2E2E2E2E2E2E2E2E2E2E2E2E2E2E2E2E2E2E2E2E2E2E2E2E2E2E2E2E2E2E2E2E2E2E2E2E2E2E2E2E2E2E2E2E2E2E2E2E2E2E2E2E2E2E2E2E2E2E2E2E22DE2E2E2E2E2E2E2E2E2E2E2E2E2E2E2E2E2E2E2E2E2E2E2E2E2E2E2E2E2E2E2E2E22D2D2D2D2D2D
310
2D2D2D2D2D2D2D2D2D2D2D2D2D2D2D2D2D2D2D2D2D2D2D2D2D2D2D2D2D2D2D2D2D2D2D2D2D2D2D2D2D2D2D2D2D2D2D2D2D2D2D2D2D2D2D2D2D2D2D2D2D2D2D2D2D2D2D2D2D2D2D2D2D2D2D2D2D2D2D2D2D2D2D2D2D2D2D2D2D2D2D2D2D2D2D2D2D2D2D2D2D2D2D2D2D2D2D2D2D2D2D2D2D2D2D2D2D2D2D2D2D2D2D2D2D2D2D
310
2D2D2D2D2D2D2D2D2D2D2D2D2D2DE2E2E2E2E2E2E2E2E2E2E2E2E2E2E2E2E2E2E2E2E2E2E2E2E2E2E2E2E2E2E2E2E2E2E2E2E2E2E2E2E2E2E2E2E2E2E2E2E2E2E2E2E2E2E2E2E2E2E2E2E2E2E2E2E2E2E2E2E2E2E2E2E2E2E2E2E2E2E2E2E2E2E2E2E2E2E2E2E2E2E2E2E2E2E2E2E2E2E2E2E2E2E2E2E2E2E2E2E2E2E2E2E2
310
E2E2E2E2E2E2E2E2E2E2E2E2E2E2E2E2E2E2E2E2E2E2E2E2E2E2E2E2E2E2E2E2E2E2E2E2E2E2E2E2E2E2E2E2E2E2E2E2E2E2E2E2E2E2E2E2E2E2E2E2E2E2E2E2E2E2E2E2E2E2E2E2E2E2E2E2E2E2E2E2E2E2E2E2E2E2E2E2E2E2E2E2E2E2E2E2E2E2E2E2E2E2E2E2E2E2E2E2E2E2E2E2E2E2E2E2E2E2E2E2E2E2E2E2E2E2E2
310
E2E2E2E2E2E2E2E2E2E2E2E2E2E2E2E2E2E2E2E2E2E2E2E2E2E2E2E2E2E2E2E2E2E2E2E2E2E2E2E2E2E2E2E2E2E2E2E2E2E2E2E2E2E2E2E2E2E2E2E2E2E2E2E2E2E2E2E2E2E2E2E2E2E2E2E2E2E2E2E2E2E2E2E2E2E2E2E2E2E2E2E2E2E2E2E2E2E2E2E2E2E2E2E2E2E2E2E2E2E2E2E2E2E2E2E2E2E2E2E2E2E2E2E2E2E2E2
310
E2E2E2E2E2E2E2E2E2E2E2E2E2E2E2E2E2E2E2E2E2E2E2E2E2E2E2E2E2E2E2E2E2E2E2E2E2E2E2E2E2E2E2E2E2E2E2E2E2E2E2E2E2E2E2E2E2E2E2E2E2E2E2E2E2E2E2E2E2E2E2E2E2E2E2E2E2E2E2E2E2E2E2E2E2E2E2E2E2E2E2E2E2E2E2E2E2E2E2E2E2E2E2E2E2E2E2E2E2E2E2E2E2E2E2E2E2E2E2E2E2E2E2E2E2E2E2
310
E2E2E2E2E2E2E2E2E2E2E2E2E2E2E2E2E2E2E2E2E2E2E2E2E2E2E2E2E2E2E2E2E2E2E2E2E2E2E2E2E2E2E2E2E2E2E2E2E2E2E2E2E2E2E2E2E2E2E2E2E2E2E2E2E2E2E2E2E2E2E2E2E2E2E2E2E2E2E2E2E2E2E2E2E2E2E2E2E2E2E2E2E2E2E2E2E2E2E2E2E2E2E2E2E2E2E2E2E2E2E2E2E2E2E2E2E2E2E2E2E2E2E2E2E2E2E2
310
E2E2E2E2E2E2E2E2E2E2E2E2E2E2E2E2E2E2E2E2E2E2E2E2E2E2E2E2E2E2E2E2E2E2E2E2E2E2E2E2E2E2E2E2E2E2E2E2E2E2E2E2E2E2E2E2E2E2E2E2E2E2E2E2E2E2E2E2E2E2E2E2E2E2E2E2E2E2E2E2E2E2E2E2E2E2E2E2E2E2E2E2E2E2E2E2E2E2E2E2E2E2E2E2E2E2E2E2E2E2E2E2E2E2E2E2E2E2E2E2E2E2E2E2E2E2E2
310
E2E2E2E2E2E2E2E2E2E2E2E2E2E2E2E2E2E2E2E2E2E2E2E2E2E2E2E2E2E2E2E2E2E2E2E2E2E2E2E2E2E2E2E2E2E2E2E2E2E2E2E2E2E2E2E2E2E2E2E2E2E2E2E2E2E2E2E2E2E2E2E2E2E2E2E2E2E2E2E2E2E2E2E2E2E2E2E2E2E2E2E2E2E2E2E2E2E2E2E2E2E2E2E2E2E2E2E2E2E2E2E2E2E2E2E2E2E2E2E2E2E2E2E2E2E2E2
310
E2E2E2E2E2E2E2E2E2E2E2E2E2E2E2E2E2E2E2E2E2E2E2E2E2E2E2E2E2E2E2E2E2E2E2E2E2E2E2E2E2E2E2E2E2E2E2E2E2E2E2E2E2E2E2E2E2E2E2E2E2E2E2E2E2E2E2E2E2E2E2E2E2E2E2E2E2E2E2E2E2E2E2E2E2E2E2E2E2E2E2E2E2E2E2E2E2E2E2E2E2E2E2E2E2E2E2E2E2E2E2E2E2E2E2E2E2E2E2E2E2E2E2E2E2E2E2
310
E2E2E2E2E2E2E2E2E2E2E2E2E2E2E2E2E2E2E2E2E2E2E2E2E2E2E2E2E2E2E2E2E2E2E2E2E2E2E2E2E2E2E2E2E2E2E2E2E2E2E2E2E2E2E2E2E2E2E2E2E2E2E2E2E2E2E2E2E2E2E2E2E2E2E2E2E2E2E2E2E2E2E2E2E2E2E2E2E2E2E2E2E2E2E2E2E2E2E2E2E2E2E2E2E2E2E2E2E2E2E2E2E2E2E2E2E2E2E2E2E2E2E2E2E2E2E2
310
E2E2E2E2E2E2E2E2E2E2E2E2E2E2E2E2E2E2E2E2E2E2E2E2E2E2E2E2E2E2E2E2E2E2E2E2E2E2E2E2E2E2E2E2E2E2E2E2E2E2E2E2E2E2E2E2E2E2E2E2E2E2E2E2E2E2E2E2E2E2E2E2E2E2E2E2E2E2E2E2E2E2E2E2E2E2E2E2E2E2E2E2E2E2E2E2E2E2E2E2E2E2E2E2E2E2E2E2E2E2E2E2E2E2E2E2E2E2E2E2E2E2E2E2E2E2E2
310
E2E2E2E2E2E2E2E2E2E2E2E2E2E2E2E2E2E2E2E2E2E2E2E2E2E2E2E2E2E2E2E2E2E2E2E2E2E2E2E2E2E2E2E2E2E2E2E2E2E2E2E2E2E2E2E2E2E2E2E2E2E2E2E2E2E2E2E2E2E2E2E2E2E2E2E2E2E2E2E2E2E2E2E2E2E2E2E2E2E2E2E2E2E2E2E2E2E2E2E2E2E2E2E2E2E2E2E2E2E2E2E2E2E2E2E2E2E2E2E2E2E2E2E2E2E2E2
310
E2E2E2E2E2E2E2E2E2E2E2E2E2E2E2E2E2E2E2E2E2E2E2E2E2E2E2E2E2E2E2E2E2E2E2E2E2E2E2E2E2E2E2E2E2E2E2E2E2E2E2E2E2E2E2E2E2E2E2E2E2E2E2E2E2E2E2E2E2E2E2E2E2E2E2E2E2E2E2E2E2E2E2E2E2E2E2E2E2E2E2E2E2E2E2E2E2E2E2E2E2E2E2E2E2E2E2E2E2E2E2E2E2E2E2E2E2E2E2E2E2E2E2E2E2E2E2
310
E2E2E2E2E2E2E2E2E2E2E2E2E2E2E2E2E2E2E2E2E2E2E2E2E2E2E2E2E2E2E2E2E2E2E2E2E2E2E2E2E2E2E2E2E2E2E2E2E2E2E2E2E2E2E2E2E2E2E2E2E2E2E2E2E2E2E2E2E2E2E2E2E2E2E2E2E2E2E2E2E2E2E2E2E2E2E2E2E2E2E2E2E2E2E2E2E2E2E2E2E2E2E2E2E2E2E2E2E2E2E2E2E2E2E2E2E2E2E2E2E2E2E2E2E2E2E2
310
E2E2E2E2E2E2E2E2E2E2E2E2E2E2E2E2E2E2E2E2E2E2E2E2E2E2E2E2E2E2E2E2E2E2E2E2E2E2E2E2E2E2E2E2E2E2E2E2E2E2E2E2E2E2E2E2E2E2E2E2E2E2E2E2E2E2E2E2E2E2E2E2E2E2E2E2E2E2E2E2E2E2E2E2E2E2E2E2E2E2E2E2E2E2E2E2E2E2E2E2E2E2E2E2E2E2E2E2E2E2E2E2E2E2E2E2E2E2E2E2E2E2E2E2E2E2E2
310
E2E2E2E2E2E2E2E2E2E2E2E2E2E2E2E2E2E2E2E2E2E2E2E2E2E2E2E2E2E2E2E2E2E2E2E2E2E2E2E2E2E2E2E2E2E2E2E2E2E2E2E2E2E2E2E2E2E2E2E2E2E2E2E2E2E2E2E2E2E2E2E2E2E2E2E2E2E2E2E2E2E2E2E2E2E2E2E2E2E2E2E2E2E2E2E2E2E2E2E2E2E2E2E2E2E2E2E2E2E2E2E2E2E2E2E2E2E2E2E2E2E2E2E2E2E2E2
310
E2E2E2E2E2E2E2E2E2E2E2E2E2E2E2E2E2E2E2E2E2E2E2E2E2E2E2E2E2E2E2E2E2E2E2E2E2E2E2E2E2E2E2E2E2E2E2E2E2E2E2E2E2E2E2E2E2E2E2E2E2E2E2E2E2E2E2E2E2E2E2E2E2E2E2E2E2E2E2E2E2E2E2E2E2E2E2E2E2E2E2E2E2E2E2E2E2E2E2E2E2E2E2E2E2E2E2E2E2E2E2E2E2E2E2E2E2E2E2E2E2E2E2E2E2E2E2
310
E2E2E2E2E2E2E2E2E2E2E2E2E2E2E2E2E2E2E2E2E2E2E2E2E2E2E2E2E2E2E2E2E2E2E2E2E2E2E2E2E2E2E2E2E2E2E2E2E2E2E2E2E2E2E2E2E2E2E2E2E2E2E2E2E2E2E2E2E2E2E2E2E2E2E2E2E2E2E2E2E2E2E2E2E2E2E2E2E2E2E2E2E2E2E2E2E2E2E2E2E2E2E2E2E2E2E2E2E2E2E2E2E2E2E2E2E2E2E2E2E2E2E2E2E2E2E2
310
E2E2E2E2E2E2E2E2E2E2E2E2E2E2E2E2E2E2E2E2E2E2E2E2E2E2E2E2E2E2E2E2E2E2E2E2E2E2E2E2E2E2E2E2E2E2E2E2E2E2E2E2E2E2E2E2E2E2E2E2E2E2E2E2E2E2E2E2E2E2E2E2E2E2E2E2E2E2E2E2E2E2E2E2E2E2E2E2E2E2E2E2E2E2E2E2E2E2E2E2E2E2E2E2E2E2E2E2E2E2E2E2E2E2E2E2E2E2E2E2E2E2E2E2E2E2E2
310
E2E2E2E2E2E2E2E2E2E2E2E2E2E2E2E2E2E2E2E2E2E2E2E2E2E2E2E2E2E2E2E2E2E2E2E2E2E2E2E2E2E2E2E2E2E2E2E2E2E2E2E2E2E2E2E2E2E2E2E2E2E2E2E2E2E2E2E2E2E2E2E2E2E2E2E2E2E2E2E2E2E2E2E2E2E2E2E2E2E2E2E2E2E2E2E2E2E2E2E2E2E2E2E2E2E2E2E2E2E2E2E2E2E2E2E2E2E2E2E2E2E2E2E2E2E2E2
310
E2E2E2E2E2E2E2E2E2E2E2E2E2E2E2E2E2E2E2E2E2E2E2E2E2E2E2E2E2E2E2E2E2E2E2E2E2E2E2E2E2E2E2E2E2E2E2E2E2E2E2E2E2E2E2E2E2E2E2E2E2E2E2E2E2E2E2E2E2E2E2E2E2E2E2E2E2E2E2E2E2E2E2E2E2E2E2E2E2E2E2E2E2E2E2E2E2E2E2E2E2E2E2E2E2E2E2E2E2E2E2E2E2E2E2E2E2E2E2E2E2E2E2E2E2E2E2
310
E2E2E2E2E2E2E2E2E2E2E2E2E2E2E2E2E2E2E2E2E2E2E2E2E2E2E2E2E2E2E2E2E2E2E2E2E2E2E2E2E2E2E2E2E2E2E2E2E2E2E2E2E2E2E2E2E2E2E2E2E2E2E2E2E2E2E2E2E2E2E2E2E2E2E2E2E2E2E2E2E2E2E2E2E2E2E2E2E2E2E2E2E2E2E2E2E2E2E2E2E2E2E2E2E2E2E2E2E2E2E2E2E2E2E2E2E2E2E2E2E2E2E2E2E2E2E2
310
E2E2E2E2E2E2E2E2E2E2E2E2E2E2E2E2E2E2E2E2E2E2E2E2E2E2E2E2E2E2E2E2E2E2E2E2E2E2E2E2E2E2E2E2E2E2E2E2E2E2E2E2E2E2E2E2E2E2E2E2E2E2E2E2E2E2E2E2E2E2E2E2E2E2E2E2E2E2E2E2E2E2E2E2E2E2E2E2E2E2E2E2E2E2E2E2E2E2E2E2E2E2E2E2E2E2E2E2E2E2E2E2E2E2E2E2E2E2E2E2E2E2E2E2E2E2E2
310
E2E2E2E2E2E2E2E2E2E2E2E2E2E2E2E2E2E2E2E2E2E2E2E2E2E2E2E2E2E2E2E2E2E2E2E2E2E2E2E2E2E2E2E2E2E2E2E2E2E2E2E2E2E2E2E2E2E2E2E2E2E2E2E2E2E2E2E2E2E2E2E2E2E2E2E2E2E2E2E2E2E2E2E2E2E2E2E2E2E2E2E2E2E2E2E2E2E2E2E2E2E2E2E2E2E2E2E2E2E2E2E2E2E2E2E2E2E2E2E2E2E2E2E2E2E2E2
310
E2E2E2E2E2E2E2E2E2E2E2E2E2E2E2E2E2E2E2E2E2E2E2E2E2E2E2E2E2E2E2E2E2E2E2E2E2E2E2E2E2E2E2E2E2E2E2E2E2E2E2E2E2E2E2E2E2E2E2E2E2E2E2E2E2E2E2E2E2E2E2E2E2E2E2E2E2E2E2E2E2E2E2E2E2E2E2E2E2E2E2E2E2E2E2E2E2E2E2E2E2E2E2E2E2E2E2E2E2E2E2E2E2E2E2E2E2E2E2E2E2E2E2E2E2E2E2
310
E2E2E2E2E2E2E2E2E2E2E2E2E2E2E2E2E2E2E2E2E2E2E2E2E2E2E2E2E2E2E2E2E2E2E2E2E2E2E2E2E2E2E2E2E2E2E2E2
  0
XRECORD
  5
135E
102
{ACAD_REACTORS
330
135D
102
}
330
135D
100
AcDbXrecord
280
     1
102
MATERIAL
148
0.0
149
0.0
149
0.0
 93
        0
 94
       63
282
     0
 72
     1
 77
     1
171
     1
175
     1
179
     1
273
     0
  0
ENDSEC
  0
EOF
