  0
SECTION
  2
HEADER
  9
$ACADVER
  1
AC1012
  9
$DWGCODEPAGE
  3
big5
  9
$INSBASE
 10
0.0
 20
0.0
 30
0.0
  9
$EXTMIN
 10
658.3047458983492
 20
-173.5064433839575
 30
-0.0000000000000059
  9
$EXTMAX
 10
978.4021231009202
 20
267.0032677348772
 30
0.0000000000000093
  9
$LIMMIN
 10
0.0
 20
0.0
  9
$LIMMAX
 10
420.0
 20
297.0
  9
$ORTHOMODE
 70
     1
  9
$REGENMODE
 70
     1
  9
$FILLMODE
 70
     1
  9
$QTEXTMODE
 70
     0
  9
$MIRRTEXT
 70
     1
  9
$DRAGMODE
 70
     2
  9
$LTSCALE
 40
10.0
  9
$OSMODE
 70
    55
  9
$ATTMODE
 70
     1
  9
$TEXTSIZE
 40
5.25
  9
$TRACEWID
 40
1.0
  9
$TEXTSTYLE
  7
DAYUS
  9
$CLAYER
  8
0
  9
$CELTYPE
  6
BYLAYER
  9
$CECOLOR
 62
   256
  9
$CELTSCALE
 40
1.0
  9
$DELOBJ
 70
     1
  9
$DISPSILH
 70
     0
  9
$DIMSCALE
 40
1.0
  9
$DIMASZ
 40
3.0
  9
$DIMEXO
 40
2.0
  9
$DIMDLI
 40
10.5
  9
$DIMRND
 40
0.0
  9
$DIMDLE
 40
0.0
  9
$DIMEXE
 40
1.0
  9
$DIMTP
 40
0.01
  9
$DIMTM
 40
0.01
  9
$DIMTXT
 40
3.5
  9
$DIMCEN
 40
3.0
  9
$DIMTSZ
 40
0.0
  9
$DIMTOL
 70
     0
  9
$DIMLIM
 70
     0
  9
$DIMTIH
 70
     0
  9
$DIMTOH
 70
     0
  9
$DIMSE1
 70
     0
  9
$DIMSE2
 70
     0
  9
$DIMTAD
 70
     1
  9
$DIMZIN
 70
     8
  9
$DIMBLK
  1

  9
$DIMASO
 70
     1
  9
$DIMSHO
 70
     1
  9
$DIMPOST
  1

  9
$DIMAPOST
  1

  9
$DIMALT
 70
     0
  9
$DIMALTD
 70
     2
  9
$DIMALTF
 40
25.4
  9
$DIMLFAC
 40
1.0
  9
$DIMTOFL
 70
     1
  9
$DIMTVP
 40
0.0
  9
$DIMTIX
 70
     0
  9
$DIMSOXD
 70
     0
  9
$DIMSAH
 70
     0
  9
$DIMBLK1
  1

  9
$DIMBLK2
  1

  9
$DIMSTYLE
  2
STANDARD
  9
$DIMCLRD
 70
   256
  9
$DIMCLRE
 70
   256
  9
$DIMCLRT
 70
   256
  9
$DIMTFAC
 40
0.6
  9
$DIMGAP
 40
0.8
  9
$DIMJUST
 70
     0
  9
$DIMSD1
 70
     0
  9
$DIMSD2
 70
     0
  9
$DIMTOLJ
 70
     0
  9
$DIMTZIN
 70
     8
  9
$DIMALTZ
 70
     0
  9
$DIMALTTZ
 70
     0
  9
$DIMFIT
 70
     3
  9
$DIMUPT
 70
     0
  9
$DIMUNIT
 70
     2
  9
$DIMDEC
 70
     1
  9
$DIMTDEC
 70
     8
  9
$DIMALTU
 70
     2
  9
$DIMALTTD
 70
     2
  9
$DIMTXSTY
  7
STANDARD
  9
$DIMAUNIT
 70
     0
  9
$LUNITS
 70
     2
  9
$LUPREC
 70
     2
  9
$SKETCHINC
 40
1.0
  9
$FILLETRAD
 40
0.5
  9
$AUNITS
 70
     0
  9
$AUPREC
 70
     0
  9
$MENU
  1
.
  9
$ELEVATION
 40
0.0
  9
$PELEVATION
 40
0.0
  9
$THICKNESS
 40
0.0
  9
$LIMCHECK
 70
     0
  9
$BLIPMODE
 70
     0
  9
$CHAMFERA
 40
2.5
  9
$CHAMFERB
 40
2.5
  9
$CHAMFERC
 40
20.0
  9
$CHAMFERD
 40
0.0
  9
$SKPOLY
 70
     0
  9
$TDCREATE
 40
2452292.457678333
  9
$TDUPDATE
 40
2453346.610085023
  9
$TDINDWG
 40
3.3643565972
  9
$TDUSRTIMER
 40
3.3643564815
  9
$USRTIMER
 70
     1
  9
$ANGBASE
 50
0.0
  9
$ANGDIR
 70
     0
  9
$PDMODE
 70
     0
  9
$PDSIZE
 40
0.0
  9
$PLINEWID
 40
0.0
  9
$COORDS
 70
     1
  9
$SPLFRAME
 70
     0
  9
$SPLINETYPE
 70
     6
  9
$SPLINESEGS
 70
     8
  9
$ATTDIA
 70
     1
  9
$ATTREQ
 70
     1
  9
$HANDLING
 70
 22529
  9
$HANDSEED
  5
120C0
  9
$SURFTAB1
 70
     6
  9
$SURFTAB2
 70
     6
  9
$SURFTYPE
 70
     6
  9
$SURFU
 70
     6
  9
$SURFV
 70
     6
  9
$UCSNAME
  2

  9
$UCSORG
 10
0.0
 20
0.0
 30
0.0
  9
$UCSXDIR
 10
1.0
 20
0.0
 30
0.0
  9
$UCSYDIR
 10
0.0
 20
1.0
 30
0.0
  9
$PUCSNAME
  2

  9
$PUCSORG
 10
0.0
 20
0.0
 30
0.0
  9
$PUCSXDIR
 10
1.0
 20
0.0
 30
0.0
  9
$PUCSYDIR
 10
0.0
 20
1.0
 30
0.0
  9
$USERI1
 70
     0
  9
$USERI2
 70
     0
  9
$USERI3
 70
     0
  9
$USERI4
 70
     0
  9
$USERI5
 70
     0
  9
$USERR1
 40
0.0
  9
$USERR2
 40
0.0
  9
$USERR3
 40
0.0
  9
$USERR4
 40
0.0
  9
$USERR5
 40
0.0
  9
$WORLDVIEW
 70
     1
  9
$SHADEDGE
 70
     3
  9
$SHADEDIF
 70
    70
  9
$TILEMODE
 70
     1
  9
$MAXACTVP
 70
    64
  9
$PINSBASE
 10
0.0
 20
0.0
 30
0.0
  9
$PLIMCHECK
 70
     0
  9
$PEXTMIN
 10
1.000000000000000E+20
 20
1.000000000000000E+20
 30
1.000000000000000E+20
  9
$PEXTMAX
 10
-1.000000000000000E+20
 20
-1.000000000000000E+20
 30
-1.000000000000000E+20
  9
$PLIMMIN
 10
0.0
 20
0.0
  9
$PLIMMAX
 10
420.0
 20
297.0
  9
$UNITMODE
 70
     0
  9
$VISRETAIN
 70
     1
  9
$PLINEGEN
 70
     0
  9
$PSLTSCALE
 70
     1
  9
$TREEDEPTH
 70
  3020
  9
$PICKSTYLE
 70
     1
  9
$CMLSTYLE
  2
STANDARD
  9
$CMLJUST
 70
     0
  9
$CMLSCALE
 40
20.0
  9
$SAVEIMAGES
 70
     1
  0
ENDSEC
  0
SECTION
  2
CLASSES
  0
CLASS
  1
ACDBDICTIONARYWDFLT
  2
AcDbDictionaryWithDefault
  3
AutoCAD 2000
 90
    32768
280
     0
281
     0
  0
CLASS
  1
ACDBPLACEHOLDER
  2
AcDbPlaceHolder
  3
AutoCAD 2000
 90
    32768
280
     0
281
     0
  0
CLASS
  1
LAYOUT
  2
AcDbLayout
  3
AutoCAD 2000
 90
    32768
280
     0
281
     0
  0
CLASS
  1
AMGSETTINGSOBJ
  2
AmgSettingsObj
  3
"AcadM|Product Description: AutoCAD Mechanical 2000|Company: Autodesk"
 90
    32768
280
     0
281
     0
  0
CLASS
  1
ACME_DOCUMENT
  2
AcMeDbDoc
  3
AcMeServices
 90
    32768
280
     0
281
     0
  0
CLASS
  1
ACMESCOPE
  2
AcMeScope
  3
AcMeServices
 90
    32768
280
     0
281
     0
  0
CLASS
  1
ACMECOMMANDHISTORY
  2
AcMeCommandHistory
  3
AcMeServices
 90
    32768
280
     0
281
     0
  0
CLASS
  1
DICTIONARYVAR
  2
AcDbDictionaryVar
  3
AutoCAD 2000
 90
    32768
280
     0
281
     0
  0
CLASS
  1
ACIMSYSVARMAN
  2
AcImSysVarManager
  3
AcMeServices
 90
    32768
280
     0
281
     0
  0
CLASS
  1
ACIMREALSYSVAR
  2
AcImRealSysVar
  3
AcMeServices
 90
    32768
280
     0
281
     0
  0
CLASS
  1
ACIMINTSYSVAR
  2
AcImIntSysVar
  3
AcMeServices
 90
    32768
280
     0
281
     0
  0
CLASS
  1
ACMEDRAWINGMAN
  2
AcMeDrawingMan
  3
AcMeServices
 90
    32768
280
     0
281
     0
  0
CLASS
  1
ACMEVIEW
  2
AcMeView
  3
AcMeServices
 90
    32768
280
     0
281
     0
  0
CLASS
  1
ACDBENTITYCACHE
  2
AcMeEntityCache
  3
AcMeServices
 90
    32768
280
     0
281
     0
  0
CLASS
  1
GSMANAGER
  2
AcMeGSManager
  3
AcMeServices
 90
    32768
280
     0
281
     0
  0
CLASS
  1
AMDTINTERNALREACTOR
  2
AmdtInternalReactor
  3
AcMeServices
 90
    32768
280
     0
281
     0
  0
CLASS
  1
ACMESTATEMGR
  2
AcMeStateMgr
  3
AcMeServices
 90
    32768
280
     0
281
     0
  0
CLASS
  1
ACME_DATABASE
  2
AcMeDbDatabase
  3
AcMeServices
 90
    32768
280
     0
281
     0
  0
CLASS
  1
ACRFINSADJUSTERMGR
  2
AcRfInsAdjusterMgr
  3
AcMeServices
 90
    32768
280
     0
281
     0
  0
CLASS
  1
ACMDATADICTIONARY
  2
AcmDataDictionary
  3
"AcmSymBB|Product Description: AutoCAD Mechanical 2000|Company: Autodesk"
 90
    32768
280
     0
281
     0
  0
CLASS
  1
ACMDATAENTRYBLOCK
  2
AcmDataEntryBlock
  3
"AcmSymBB|Product Description: AutoCAD Mechanical 2000|Company: Autodesk"
 90
    32768
280
     0
281
     0
  0
CLASS
  1
AMGOBJPROPCFG
  2
AmgObjPropCfg
  3
"AmgLay|Product Description: AutoCAD Mechanical 2000|Company: Autodesk"
 90
    32769
280
     0
281
     0
  0
CLASS
  1
ACAMGFILTERDAT
  2
AcAmgFilterDat
  3
"AcadM|Product Description: AutoCAD Mechanical 2000|Company: Autodesk"
 90
    32768
280
     0
281
     0
  0
CLASS
  1
LAYER_INDEX
  2
AcDbLayerIndex
  3
AutoCAD 2000
 90
    32768
280
     0
281
     0
  0
CLASS
  1
IDBUFFER
  2
AcDbIdBuffer
  3
AutoCAD 2000
 90
    32768
280
     0
281
     0
  0
CLASS
  1
ACIMSTRSYSVAR
  2
AcImStrSysVar
  3
AcMeServices
 90
    32768
280
     0
281
     0
  0
CLASS
  1
ACMSTANDARDISO
  2
AcmStandardISO
  3
"Amdt_StdImp|Product Description: AutoCAD Mechanical 2000|Company: Autodesk"
 90
    32768
280
     0
281
     0
  0
CLASS
  1
AMDTEDGESTANDARDISO
  2
AmdtEdgeStdISO
  3
"Amdt_StdImp|Product Description: AutoCAD Mechanical 2000|Company: Autodesk"
 90
    32768
280
     0
281
     0
  0
CLASS
  1
ACMSURFSTANDARDISO
  2
AcmSurfTextStdISO
  3
"Amdt_StdImp|Product Description: AutoCAD Mechanical 2000|Company: Autodesk"
 90
    32768
280
     0
281
     0
  0
CLASS
  1
ACMFCFSTANDARDISO
  2
AcmFCFStdISO
  3
"Amdt_StdImp|Product Description: AutoCAD Mechanical 2000|Company: Autodesk"
 90
    32768
280
     0
281
     0
  0
CLASS
  1
ACMWELDSTANDARDISO
  2
AcmWeldingStdISO
  3
"Amdt_StdImp|Product Description: AutoCAD Mechanical 2000|Company: Autodesk"
 90
    32768
280
     0
281
     0
  0
CLASS
  1
ACMIDSTANDARDISO
  2
AcmIdStdISO
  3
"Amdt_StdImp|Product Description: AutoCAD Mechanical 2000|Company: Autodesk"
 90
    32768
280
     0
281
     0
  0
CLASS
  1
ACMDATUMSTANDARDISO
  2
AcmDatumStdISO
  3
"Amdt_StdImp|Product Description: AutoCAD Mechanical 2000|Company: Autodesk"
 90
    32768
280
     0
281
     0
  0
CLASS
  1
ACMBOMSTANDARDISO
  2
AcmBOMStdISO
  3
"Amdt_StdImp|Product Description: AutoCAD Mechanical 2000|Company: Autodesk"
 90
    32768
280
     0
281
     0
  0
CLASS
  1
AMDTNOTE
  2
AmdtNote
  3
"AcmSymBB|Product Description: AutoCAD Mechanical 2000|Company: Autodesk"
 90
    33791
280
     0
281
     1
  0
CLASS
  1
ACGREFMASTER
  2
AcGrefMaster
  3
AcAttribServices
 90
    32768
280
     0
281
     0
  0
CLASS
  1
ACGREFACADMASTER
  2
AcGrefacadMaster
  3
AcGrefServices
 90
    32768
280
     0
281
     0
  0
CLASS
  1
AMIMASTER
  2
AmiMaster
  3
AmiServices
 90
    32768
280
     0
281
     0
  0
CLASS
  1
ACAMGTITLESTD
  2
AcAmgTitleStd
  3
"TITLEAPP"
 90
    32768
280
     0
281
     0
  0
CLASS
  1
ACMDETAILSTANDARDISO
  2
AmdtDetailSymStdISO
  3
"Amdt_StdImp|Product Description: AutoCAD Mechanical 2000|Company: Autodesk"
 90
    32768
280
     0
281
     0
  0
CLASS
  1
ACMSECTIONSTANDARDISO
  2
AmdtSectionSymStdISO
  3
"Amdt_StdImp|Product Description: AutoCAD Mechanical 2000|Company: Autodesk"
 90
    32768
280
     0
281
     0
  0
CLASS
  1
ACMCENTERLINESTANDARDISO
  2
AmdtCenterLineStdISO
  3
"Amdt_StdImp|Product Description: AutoCAD Mechanical 2000|Company: Autodesk"
 90
    32768
280
     0
281
     0
  0
CLASS
  1
ACMNOTESTANDARDISO
  2
AmdtNoteStdISO
  3
"Amdt_StdImp|Product Description: AutoCAD Mechanical 2000|Company: Autodesk"
 90
    32768
280
     0
281
     0
  0
CLASS
  1
ACAMGLAYSTD
  2
AcAmgLayStd
  3
"AcAmgLayStd|Product Description: AutoCAD Mechanical 2000|Company: Autodesk"
 90
    32768
280
     0
281
     0
  0
CLASS
  1
ACAMGDIMSTD
  2
AcAmgDimStd
  3
"AcAmgDimStd|Product Description: AutoCAD Mechanical 2000|Company: Autodesk"
 90
    32768
280
     0
281
     0
  0
CLASS
  1
ACAMGHOLECHARTSTDISO
  2
AcAmgHoleChartStdISO
  3
ACMSYMBB_MODULE_NAME
 90
    32768
280
     0
281
     0
  0
CLASS
  1
AMDTFORMULAUPDATEDISPATCHER
  2
AmdtFormulaUpdateDispatcher
  3
AcMeServices
 90
    32768
280
     0
281
     0
  0
CLASS
  1
ACMSTANDARDANSI
  2
AcmStandardANSI
  3
"Amdt_StdImp|Product Description: AutoCAD Mechanical 2000|Company: Autodesk"
 90
    32768
280
     0
281
     0
  0
CLASS
  1
ACMSURFSTANDARDANSI
  2
AcmSurfTextStdANSI
  3
"Amdt_StdImp|Product Description: AutoCAD Mechanical 2000|Company: Autodesk"
 90
    32768
280
     0
281
     0
  0
CLASS
  1
ACMFCFSTANDARDANSI
  2
AcmFCFStdANSI
  3
"Amdt_StdImp|Product Description: AutoCAD Mechanical 2000|Company: Autodesk"
 90
    32768
280
     0
281
     0
  0
CLASS
  1
ACMWELDSTANDARDANSI
  2
AcmWeldingStdANSI
  3
"Amdt_StdImp|Product Description: AutoCAD Mechanical 2000|Company: Autodesk"
 90
    32768
280
     0
281
     0
  0
CLASS
  1
ACMIDSTANDARDANSI
  2
AcmIdStdANSI
  3
"Amdt_StdImp|Product Description: AutoCAD Mechanical 2000|Company: Autodesk"
 90
    32768
280
     0
281
     0
  0
CLASS
  1
ACMDATUMSTANDARDANSI
  2
AcmDatumStdANSI
  3
"Amdt_StdImp|Product Description: AutoCAD Mechanical 2000|Company: Autodesk"
 90
    32768
280
     0
281
     0
  0
CLASS
  1
ACMBOMSTANDARDANSI
  2
AcmBOMStdANSI
  3
"Amdt_StdImp|Product Description: AutoCAD Mechanical 2000|Company: Autodesk"
 90
    32768
280
     0
281
     0
  0
CLASS
  1
ACMDETAILSTANDARDANSI
  2
AmdtDetailSymStdANSI
  3
"Amdt_StdImp|Product Description: AutoCAD Mechanical 2000|Company: Autodesk"
 90
    32768
280
     0
281
     0
  0
CLASS
  1
ACMSECTIONSTANDARDANSI
  2
AmdtSectionSymStdANSI
  3
"Amdt_StdImp|Product Description: AutoCAD Mechanical 2000|Company: Autodesk"
 90
    32768
280
     0
281
     0
  0
CLASS
  1
ACMCENTERLINESTANDARDANSI
  2
AmdtCenterLineStdANSI
  3
"Amdt_StdImp|Product Description: AutoCAD Mechanical 2000|Company: Autodesk"
 90
    32768
280
     0
281
     0
  0
CLASS
  1
ACMNOTESTANDARDANSI
  2
AmdtNoteStdANSI
  3
"Amdt_StdImp|Product Description: AutoCAD Mechanical 2000|Company: Autodesk"
 90
    32768
280
     0
281
     0
  0
CLASS
  1
ACAMGHOLECHARTSTDANSI
  2
AcAmgHoleChartStdANSI
  3
ACMSYMBB_MODULE_NAME
 90
    32768
280
     0
281
     0
  0
CLASS
  1
STDPART2D
  2
AmgStdPart
  3
"AmgStdPart|Product Description: AutoCAD Mechanical 2000|Company: Autodesk"
 90
    33791
280
     0
281
     1
  0
CLASS
  1
ACMDATAENTRYPART
  2
AcmDataEntryPart
  3
"AcmSymBB|Product Description: AutoCAD Mechanical 2000|Company: Autodesk"
 90
    32768
280
     0
281
     0
  0
CLASS
  1
ACMPARTREF
  2
AcmPartRef
  3
"AcmSymBB|Product Description: AutoCAD Mechanical 2000|Company: Autodesk"
 90
    33791
280
     0
281
     1
  0
CLASS
  1
ACDBSTDPARTRES_LINE
  2
AcDbStdPartRes_Line
  3
"AcDbStdPartRes_Line|Product Description: AutoCAD Mechanical 2000|Company: Autodesk"
 90
    32768
280
     0
281
     0
  0
CLASS
  1
RASTERVARIABLES
  2
AcDbRasterVariables
  3
ISM
 90
    32768
280
     0
281
     0
  0
CLASS
  1
IMAGEDEF
  2
AcDbRasterImageDef
  3
ISM
 90
    32768
280
     0
281
     0
  0
CLASS
  1
IMAGEDEF_REACTOR
  2
AcDbRasterImageDefReactor
  3
ISM
 90
    32769
280
     0
281
     0
  0
CLASS
  1
IMAGE
  2
AcDbRasterImage
  3
ISM
 90
    32895
280
     0
281
     1
  0
CLASS
  1
DIMASSOC
  2
AcDbDimAssoc
  3
"AcDbDimAssoc|Product Desc:     AcDim ARX App For Dimension|Company:          Autodesk, Inc.|WEB Address:      www.autodesk.com"
 90
    32768
280
     0
281
     0
  0
CLASS
  1
LONG_TRANSACTION
  2
AcDbLongTransaction
  3
AutoCAD 2000
 90
    32768
280
     0
281
     0
  0
CLASS
  1
LWPOLYLINE
  2
AcDbPolyline
  3
AutoCAD 2000
 90
    32768
280
     0
281
     1
  0
CLASS
  1
HATCH
  2
AcDbHatch
  3
AutoCAD 2000
 90
    32768
280
     0
281
     1
  0
CLASS
  1
XRECORD
  2
AcDbXrecord
  3
AutoCAD 2000
 90
    32768
280
     0
281
     0
  0
ENDSEC
  0
SECTION
  2
TABLES
  0
TABLE
  2
VPORT
  5
8
330
0
100
AcDbSymbolTable
 70
     4
  0
VPORT
  5
1209D
330
8
100
AcDbSymbolTableRecord
100
AcDbViewportTableRecord
  2
*ACTIVE
 70
     0
 10
0.0
 20
0.0
 11
1.0
 21
1.0
 12
818.4003345109305
 22
46.74361391862555
 13
0.0
 23
0.0
 14
2.5
 24
2.5
 15
10.0
 25
10.0
 16
0.0
 26
0.0
 36
1.0
 17
0.0
 27
0.0
 37
0.0
 40
445.4838662646708
 41
1.756554307116104
 42
50.0
 43
0.0
 44
0.0
 50
0.0
 51
0.0
 71
     0
 72
   100
 73
     1
 74
     3
 75
     0
 76
     0
 77
     0
 78
     0
  0
ENDTAB
  0
TABLE
  2
LTYPE
  5
5
330
0
100
AcDbSymbolTable
 70
    16
  0
LTYPE
  5
14
330
5
100
AcDbSymbolTableRecord
100
AcDbLinetypeTableRecord
  2
BYBLOCK
 70
     0
  3

 72
    65
 73
     0
 40
0.0
  0
LTYPE
  5
15
330
5
100
AcDbSymbolTableRecord
100
AcDbLinetypeTableRecord
  2
BYLAYER
 70
     0
  3

 72
    65
 73
     0
 40
0.0
  0
LTYPE
  5
16
330
5
100
AcDbSymbolTableRecord
100
AcDbLinetypeTableRecord
  2
CONTINUOUS
 70
     0
  3
Solid line
 72
    65
 73
     0
 40
0.0
  0
LTYPE
  5
4B
330
5
100
AcDbSymbolTableRecord
100
AcDbLinetypeTableRecord
  2
AM_ISO02W050
 70
     0
  3
__ __ __ __ __ __ __ __ __ __ __ __ __ __ __
 72
    65
 73
     2
 40
7.5
 49
6.0
 74
     0
 49
-1.5
 74
     0
  0
LTYPE
  5
4C
330
5
100
AcDbSymbolTableRecord
100
AcDbLinetypeTableRecord
  2
AM_ISO08W050
 70
     0
  3
____ . ____ . ____ . ____ . ____ . ____ . ____
 72
    65
 73
     4
 40
18.0
 49
12.0
 74
     0
 49
-1.5
 74
     0
 49
3.0
 74
     0
 49
-1.5
 74
     0
  0
LTYPE
  5
4D
330
5
100
AcDbSymbolTableRecord
100
AcDbLinetypeTableRecord
  2
AM_ISO09W050
 70
     0
  3
_____ . . _____ . . _____ . . ____ .. ____
 72
    65
 73
     6
 40
22.5
 49
12.0
 74
     0
 49
-1.5
 74
     0
 49
3.0
 74
     0
 49
-1.5
 74
     0
 49
3.0
 74
     0
 49
-1.5
 74
     0
  0
LTYPE
  5
4E
330
5
100
AcDbSymbolTableRecord
100
AcDbLinetypeTableRecord
  2
AMCONSTR
 70
     0
  3
_______________________
 72
    65
 73
     2
 40
9999.0
 49
9999.0
 74
     0
 49
0.0
 74
     0
  0
LTYPE
  5
4F
330
5
100
AcDbSymbolTableRecord
100
AcDbLinetypeTableRecord
  2
AM_ISO02W050X2
 70
     0
  3
 _ _ _ _ _ _ _ _ _ _ _ _
 72
    65
 73
     2
 40
3.75
 49
3.0
 74
     0
 49
-0.75
 74
     0
  0
LTYPE
  5
50
330
5
100
AcDbSymbolTableRecord
100
AcDbLinetypeTableRecord
  2
AM_ISO08W050X2
 70
     0
  3
__ . __ . __ . __ . __ . __
 72
    65
 73
     4
 40
9.0
 49
6.0
 74
     0
 49
-0.75
 74
     0
 49
1.5
 74
     0
 49
-0.75
 74
     0
  0
LTYPE
  5
53
330
5
100
AcDbSymbolTableRecord
100
AcDbLinetypeTableRecord
  2
AMZIGZAG
 70
     0
  3
/\/-/\/-/\/-/\/-/\/-/\/
 72
    65
 73
     2
 40
11.00009999999999
 49
0.0001
 74
     4
 75
   135
340
52
 46
0.04
 50
0.0
 44
0.0
 45
0.0
 49
-11.0
 74
     0
  0
LTYPE
  5
144B
330
5
100
AcDbSymbolTableRecord
100
AcDbLinetypeTableRecord
  2
ACISOWELD
 70
     0
  3
_ _ _ _ _
 72
    65
 73
     2
 40
2.0
 49
2.0
 74
     0
 49
-1.0
 74
     0
  0
LTYPE
  5
144C
330
5
100
AcDbSymbolTableRecord
100
AcDbLinetypeTableRecord
  2
ACISOTGB
 70
     0
  3
__ . . __ . .
 72
    65
 73
     6
 40
9.0
 49
4.0
 74
     0
 49
-1.0
 74
     0
 49
1.0
 74
     0
 49
-1.0
 74
     0
 49
1.0
 74
     0
 49
-1.0
 74
     0
  0
LTYPE
  5
144D
330
5
100
AcDbSymbolTableRecord
100
AcDbLinetypeTableRecord
  2
ACISOTGL
 70
     0
  3
_ _ _ _ _
 72
    65
 73
     2
 40
3.0
 49
2.0
 74
     0
 49
-1.0
 74
     0
  0
LTYPE
  5
1C35
330
5
100
AcDbSymbolTableRecord
100
AcDbLinetypeTableRecord
  2
CENTER
 70
     0
  3
Center ____ _ ____ _ ____ _ ____ _ ____ _ ____
 72
    65
 73
     4
 40
2.0
 49
1.25
 74
     0
 49
-0.25
 74
     0
 49
0.25
 74
     0
 49
-0.25
 74
     0
  0
LTYPE
  5
B899
330
5
100
AcDbSymbolTableRecord
100
AcDbLinetypeTableRecord
  2
PHANTOM2
 70
     0
  3
Phantom (.5x) ___ _ _ ___ _ _ ___ _ _ ___ _ _
 72
    65
 73
     6
 40
31.75
 49
15.875
 74
     0
 49
-3.174999999999999
 74
     0
 49
3.174999999999999
 74
     0
 49
-3.174999999999999
 74
     0
 49
3.174999999999999
 74
     0
 49
-3.174999999999999
 74
     0
  0
LTYPE
  5
BE5A
330
5
100
AcDbSymbolTableRecord
100
AcDbLinetypeTableRecord
  2
ACANSTGB
 70
     0
  3
__ . . __ . .
 72
    65
 73
     6
 40
0.35433070866
 49
0.15748031496
 74
     0
 49
-0.03937007874
 74
     0
 49
0.03937007874
 74
     0
 49
-0.03937007874
 74
     0
 49
0.03937007874
 74
     0
 49
-0.03937007874
 74
     0
  0
LTYPE
  5
BE5B
330
5
100
AcDbSymbolTableRecord
100
AcDbLinetypeTableRecord
  2
ACANSTGL
 70
     0
  3
_ _ _ _ _
 72
    65
 73
     2
 40
0.11811023622
 49
0.07874015748
 74
     0
 49
-0.03937007874
 74
     0
  0
LTYPE
  5
E4EC
330
5
100
AcDbSymbolTableRecord
100
AcDbLinetypeTableRecord
  2
PHANTOM
 70
     0
  3
______  __  __  ______  __  __  ______  __  __ 
 72
    65
 73
     6
 40
2.5
 49
1.25
 74
     0
 49
-0.25
 74
     0
 49
0.25
 74
     0
 49
-0.25
 74
     0
 49
0.25
 74
     0
 49
-0.25
 74
     0
  0
ENDTAB
  0
TABLE
  2
LAYER
  5
2
330
0
100
AcDbSymbolTable
 70
    10
  0
LAYER
  5
10
330
2
100
AcDbSymbolTableRecord
100
AcDbLayerTableRecord
  2
0
 70
     0
 62
     7
  6
CONTINUOUS
  0
LAYER
  5
CF
330
2
100
AcDbSymbolTableRecord
100
AcDbLayerTableRecord
  2
圖層1
 70
     0
 62
     7
  6
CONTINUOUS
  0
LAYER
  5
D0
330
2
100
AcDbSymbolTableRecord
100
AcDbLayerTableRecord
  2
圖層2
 70
     0
 62
     3
  6
CONTINUOUS
  0
LAYER
  5
450
330
2
100
AcDbSymbolTableRecord
100
AcDbLayerTableRecord
  2
DEFPOINTS
 70
     0
 62
    -7
  6
CONTINUOUS
  0
LAYER
  5
989
330
2
100
AcDbSymbolTableRecord
100
AcDbLayerTableRecord
  2
AM_5
 70
     0
 62
     5
  6
CONTINUOUS
  0
LAYER
  5
1C3A
330
2
100
AcDbSymbolTableRecord
100
AcDbLayerTableRecord
  2
AM_REFDIM
 70
     0
 62
     5
  6
CONTINUOUS
  0
LAYER
  5
DF31
330
2
100
AcDbSymbolTableRecord
100
AcDbLayerTableRecord
  2
AM_7
 70
     0
 62
     1
  6
AM_ISO08W050
  0
LAYER
  5
F3A3
330
2
100
AcDbSymbolTableRecord
100
AcDbLayerTableRecord
  2
MAIN
 70
     0
 62
     7
  6
CONTINUOUS
  0
LAYER
  5
10BC2
330
2
100
AcDbSymbolTableRecord
100
AcDbLayerTableRecord
  2
圖層5
 70
     0
 62
     7
  6
CONTINUOUS
  0
LAYER
  5
11F25
330
2
100
AcDbSymbolTableRecord
100
AcDbLayerTableRecord
  2
LOGO
 70
     0
 62
     7
  6
CONTINUOUS
  0
ENDTAB
  0
TABLE
  2
STYLE
  5
3
330
0
100
AcDbSymbolTable
 70
    10
  0
STYLE
  5
11
330
3
100
AcDbSymbolTableRecord
100
AcDbTextStyleTableRecord
  2
STANDARD
 70
     0
 40
0.0
 41
1.0
 50
0.0
 71
     0
 42
3.0
  3
ISOCP.SHX
  4
CHINESET.SHX
  0
STYLE
  5
52
330
3
100
AcDbSymbolTableRecord
100
AcDbTextStyleTableRecord
  2

 70
     1
 40
0.0
 41
1.0
 50
0.0
 71
     0
 42
2.5
  3
ltypeshp.shx
  4

  0
STYLE
  5
D3
330
3
100
AcDbSymbolTableRecord
100
AcDbTextStyleTableRecord
  2
ROMAND
 70
     0
 40
0.0
 41
1.0
 50
0.0
 71
     0
 42
6.0
  3
romand.shx
  4
chineset.shx
  0
STYLE
  5
1442
330
3
100
AcDbSymbolTableRecord
100
AcDbTextStyleTableRecord
  2
ACISOTS
 70
     0
 40
1.0
 41
1.0
 50
0.0
 71
     0
 42
1.0
  3
isocp.shx
  4
chineset.shx
  0
STYLE
  5
144A
330
3
100
AcDbSymbolTableRecord
100
AcDbTextStyleTableRecord
  2
ACISOGDT
 70
     0
 40
0.0
 41
1.0
 50
0.0
 71
     0
 42
2.5
  3
amgdt.shx
  4

  0
STYLE
  5
167B
330
3
100
AcDbSymbolTableRecord
100
AcDbTextStyleTableRecord
  2
DAYUS
 70
     0
 40
0.0
 41
1.0
 50
0.0
 71
     0
 42
5.25
  3
simplex
  4
dayus
  0
STYLE
  5
BE5E
330
3
100
AcDbSymbolTableRecord
100
AcDbTextStyleTableRecord
  2
ACANSTS
 70
     0
 40
1.0
 41
1.0
 50
0.0
 71
     0
 42
1.5
  3
romans.shx
  4
chineset.shx
  0
STYLE
  5
BE5F
330
3
100
AcDbSymbolTableRecord
100
AcDbTextStyleTableRecord
  2
ACANSGDT
 70
     0
 40
0.0
 41
1.0
 50
0.0
 71
     0
 42
1.5
  3
amgdtans.shx
  4

  0
STYLE
  5
11F26
330
3
100
AcDbSymbolTableRecord
100
AcDbTextStyleTableRecord
  2
CHINESET
 70
     0
 40
0.0
 41
1.0
 50
0.0
 71
     0
 42
25.0
  3
simplex.shx
  4
chineset.shx
  0
STYLE
  5
11F27
330
3
100
AcDbSymbolTableRecord
100
AcDbTextStyleTableRecord
  2
LOGO
 70
     0
 40
0.0
 41
1.0
 50
0.0
 71
     0
 42
5.0
  3
LEI00DP.TTF
  4

1001
ACAD
1000
文鼎中粗隸
1071
    34865
  0
ENDTAB
  0
TABLE
  2
VIEW
  5
6
330
0
100
AcDbSymbolTable
 70
     0
  0
ENDTAB
  0
TABLE
  2
UCS
  5
7
330
0
100
AcDbSymbolTable
 70
     0
  0
ENDTAB
  0
TABLE
  2
APPID
  5
9
330
0
100
AcDbSymbolTable
 70
    18
  0
APPID
  5
12
330
9
100
AcDbSymbolTableRecord
100
AcDbRegAppTableRecord
  2
ACAD
 70
     0
  0
APPID
  5
30
330
9
100
AcDbSymbolTableRecord
100
AcDbRegAppTableRecord
  2
MCAD_NO_VIS
 70
     0
  0
APPID
  5
31
330
9
100
AcDbSymbolTableRecord
100
AcDbRegAppTableRecord
  2
ACAD_TEMP_GRAPHIC
 70
     0
  0
APPID
  5
455
330
9
100
AcDbSymbolTableRecord
100
AcDbRegAppTableRecord
  2
GENIUS_GENDTOL_13
 70
     0
  0
APPID
  5
6B34
330
9
100
AcDbSymbolTableRecord
100
AcDbRegAppTableRecord
  2
ACATTRIBSERVICES
 70
     0
  0
APPID
  5
DF34
330
9
100
AcDbSymbolTableRecord
100
AcDbRegAppTableRecord
  2
GENIUS_GENOREF_13
 70
     0
  0
APPID
  5
E304
330
9
100
AcDbSymbolTableRecord
100
AcDbRegAppTableRecord
  2
GENIUS_GENREC_14
 70
     0
  0
APPID
  5
E305
330
9
100
AcDbSymbolTableRecord
100
AcDbRegAppTableRecord
  2
GENIUS_GENODEF_13
 70
     0
  0
APPID
  5
E306
330
9
100
AcDbSymbolTableRecord
100
AcDbRegAppTableRecord
  2
GENIUS_GENOBJ-N-REC_13
 70
     0
  0
APPID
  5
E7E4
330
9
100
AcDbSymbolTableRecord
100
AcDbRegAppTableRecord
  2
GEVID1067829771
 70
     0
  0
APPID
  5
E7E5
330
9
100
AcDbSymbolTableRecord
100
AcDbRegAppTableRecord
  2
GEVDC
 70
     0
  0
APPID
  5
E7E6
330
9
100
AcDbSymbolTableRecord
100
AcDbRegAppTableRecord
  2
GEVRADREF
 70
     0
  0
APPID
  5
E7E9
330
9
100
AcDbSymbolTableRecord
100
AcDbRegAppTableRecord
  2
GENIUS_GENBH_13
 70
     0
  0
APPID
  5
E7EC
330
9
100
AcDbSymbolTableRecord
100
AcDbRegAppTableRecord
  2
GENIUS_GENOBJ-NBEHI-BHF_13
 70
     0
  0
APPID
  5
E7ED
330
9
100
AcDbSymbolTableRecord
100
AcDbRegAppTableRecord
  2
GENIUS_GENOENT_13
 70
     0
  0
APPID
  5
E7EE
330
9
100
AcDbSymbolTableRecord
100
AcDbRegAppTableRecord
  2
GENIUS_GENOLIS_13
 70
     0
  0
APPID
  5
E7F0
330
9
100
AcDbSymbolTableRecord
100
AcDbRegAppTableRecord
  2
GENIUS_GENOBJ-NBEHI-BHB_13
 70
     0
  0
APPID
  5
E805
330
9
100
AcDbSymbolTableRecord
100
AcDbRegAppTableRecord
  2
GEVID1067829772
 70
     0
  0
ENDTAB
  0
TABLE
  2
DIMSTYLE
  5
A
330
0
100
AcDbSymbolTable
 70
    14
  0
DIMSTYLE
105
98A
330
A
100
AcDbSymbolTableRecord
100
AcDbDimStyleTableRecord
  2
AM_ISO
 70
     0
  3

  4
"
  5

  6

  7

 40
0.6
 41
3.0
 42
2.0
 43
10.0
 44
1.5
 45
0.0
 46
0.0
 47
0.1
 48
0.1
140
3.0
141
0.0
142
0.0
143
0.0393701
144
1.0
145
0.0
146
0.71
147
0.8
 71
     0
 72
     0
 73
     0
 74
     0
 75
     0
 76
     0
 77
     1
 78
     8
170
     0
171
     2
172
     1
173
     0
174
     0
175
     0
176
     5
177
   256
178
     5
270
     2
271
     2
272
     2
273
     2
274
     2
340
11
275
     0
280
     0
281
     0
282
     0
283
     0
284
     0
285
     0
286
     0
287
     3
288
     0
  0
DIMSTYLE
105
98B
330
A
100
AcDbSymbolTableRecord
100
AcDbDimStyleTableRecord
  2
AM_ISO$3
 70
     0
  3

  4
"
  5

  6

  7

 40
0.6
 41
3.0
 42
2.0
 43
10.0
 44
1.5
 45
0.0
 46
0.0
 47
0.1
 48
0.1
140
3.0
141
0.0
142
0.0
143
0.0393701
144
1.0
145
0.0
146
0.71
147
0.8
 71
     0
 72
     0
 73
     0
 74
     1
 75
     0
 76
     0
 77
     1
 78
     8
170
     0
171
     2
172
     0
173
     0
174
     0
175
     0
176
     5
177
   256
178
     5
270
     2
271
     2
272
     2
273
     2
274
     2
340
11
275
     0
280
     0
281
     0
282
     0
283
     0
284
     0
285
     0
286
     0
287
     0
288
     1
  0
DIMSTYLE
105
98C
330
A
100
AcDbSymbolTableRecord
100
AcDbDimStyleTableRecord
  2
AM_ISO$4
 70
     0
  3

  4
"
  5

  6

  7

 40
0.6
 41
3.0
 42
2.0
 43
10.0
 44
1.5
 45
0.0
 46
0.0
 47
0.1
 48
0.1
140
3.0
141
0.0
142
0.0
143
0.0393701
144
1.0
145
0.0
146
0.71
147
0.8
 71
     0
 72
     0
 73
     0
 74
     1
 75
     0
 76
     0
 77
     1
 78
     8
170
     0
171
     2
172
     0
173
     0
174
     0
175
     0
176
     5
177
   256
178
     5
270
     2
271
     2
272
     2
273
     2
274
     2
340
11
275
     0
280
     0
281
     0
282
     0
283
     0
284
     0
285
     0
286
     0
287
     0
288
     1
  0
DIMSTYLE
105
98D
330
A
100
AcDbSymbolTableRecord
100
AcDbDimStyleTableRecord
  2
AM_ISO$6
 70
     0
  3

  4
"
  5

  6

  7

 40
0.6
 41
3.0
 42
2.0
 43
10.0
 44
1.5
 45
0.0
 46
0.0
 47
0.1
 48
0.1
140
3.0
141
0.0
142
0.0
143
0.0393701
144
1.0
145
0.0
146
0.71
147
0.8
 71
     0
 72
     0
 73
     0
 74
     0
 75
     0
 76
     0
 77
     0
 78
     8
170
     0
171
     2
172
     1
173
     0
174
     0
175
     0
176
     5
177
   256
178
     5
270
     2
271
     2
272
     2
273
     2
274
     2
340
11
275
     0
280
     0
281
     0
282
     0
283
     0
284
     0
285
     0
286
     0
287
     3
288
     0
  0
DIMSTYLE
105
98E
330
A
100
AcDbSymbolTableRecord
100
AcDbDimStyleTableRecord
  2
AM_ISO$7
 70
     0
  3

  4
"
  5

  6

  7

 40
0.6
 41
3.0
 42
2.0
 43
10.0
 44
1.5
 45
0.0
 46
0.0
 47
0.1
 48
0.1
140
5.0
141
0.0
142
0.0
143
0.0393701
144
1.0
145
0.0
146
0.71
147
0.8
 71
     0
 72
     0
 73
     0
 74
     0
 75
     0
 76
     0
 77
     1
 78
     8
170
     0
171
     2
172
     1
173
     0
174
     0
175
     0
176
     5
177
   256
178
     5
270
     2
271
     2
272
     2
273
     2
274
     2
340
11
275
     0
280
     0
281
     0
282
     0
283
     0
284
     0
285
     0
286
     0
287
     3
288
     0
  0
DIMSTYLE
105
98F
330
A
100
AcDbSymbolTableRecord
100
AcDbDimStyleTableRecord
  2
AM_ISO$SF
 70
     0
  3

  4
"
  5

  6

  7

 40
0.5
 41
2.5
 42
1.0
 43
10.0
 44
1.0
 45
0.0
 46
0.0
 47
0.1
 48
0.1
140
3.5
141
0.0
142
0.0
143
0.0393701
144
1.0
145
0.0
146
0.71
147
1.5
 71
     0
 72
     0
 73
     0
 74
     0
 75
     1
 76
     1
 77
     1
 78
     8
170
     0
171
     2
172
     1
173
     0
174
     0
175
     0
176
   256
177
   256
178
     2
270
     2
271
     2
272
     2
273
     2
274
     2
340
11
275
     0
280
     0
281
     0
282
     0
283
     0
284
     0
285
     0
286
     0
287
     3
288
     0
  0
DIMSTYLE
105
994
330
A
100
AcDbSymbolTableRecord
100
AcDbDimStyleTableRecord
  2
AM_ISO$SH
 70
     0
  3

  4
"
  5

  6
GENAXEH
  7

 40
0.5
 41
2.5
 42
1.0
 43
10.0
 44
1.0
 45
0.0
 46
0.0
 47
0.1
 48
0.1
140
3.5
141
0.0
142
0.0
143
0.0393701
144
2.0
145
0.0
146
0.71
147
1.5
 71
     0
 72
     0
 73
     0
 74
     0
 75
     1
 76
     1
 77
     1
 78
     8
170
     0
171
     2
172
     1
173
     1
174
     0
175
     0
176
   256
177
   256
178
     2
270
     2
271
     2
272
     2
273
     2
274
     2
340
11
275
     0
280
     0
281
     0
282
     0
283
     0
284
     0
285
     0
286
     0
287
     3
288
     0
  0
DIMSTYLE
105
6E5D
330
A
100
AcDbSymbolTableRecord
100
AcDbDimStyleTableRecord
  2
AM_ANSI
 70
     0
  3

  4
"
  5

  6

  7

 40
0.8
 41
3.0
 42
1.5
 43
5.0
 44
2.0
 45
0.0
 46
0.0
 47
0.1
 48
0.1
140
3.0
141
-1.5
142
0.0
143
0.0393701
144
0.833333333
145
0.0
146
0.6
147
0.8
 71
     0
 72
     0
 73
     0
 74
     0
 75
     0
 76
     0
 77
     1
 78
     8
170
     0
171
     2
172
     1
173
     0
174
     0
175
     0
176
   256
177
   256
178
   256
270
     2
271
     2
272
     2
273
     2
274
     2
340
167B
275
     0
280
     0
281
     0
282
     0
283
     1
284
     8
285
     0
286
     0
287
     3
288
     0
  0
DIMSTYLE
105
6E5E
330
A
100
AcDbSymbolTableRecord
100
AcDbDimStyleTableRecord
  2
AM_ANSI$3
 70
     0
  3

  4
"
  5

  6

  7

 40
0.8
 41
3.0
 42
1.5
 43
5.0
 44
2.0
 45
0.0
 46
0.0
 47
0.1
 48
0.1
140
3.0
141
-1.5
142
0.0
143
0.0393701
144
0.833333333
145
0.0
146
0.6
147
0.8
 71
     0
 72
     0
 73
     0
 74
     0
 75
     0
 76
     0
 77
     1
 78
     8
170
     0
171
     2
172
     1
173
     0
174
     0
175
     0
176
   256
177
   256
178
   256
270
     2
271
     2
272
     2
273
     2
274
     2
340
167B
275
     0
280
     0
281
     0
282
     0
283
     1
284
     8
285
     0
286
     0
287
     0
288
     1
  0
DIMSTYLE
105
6E5F
330
A
100
AcDbSymbolTableRecord
100
AcDbDimStyleTableRecord
  2
AM_ANSI$7
 70
     0
  3

  4
"
  5

  6

  7

 40
0.8
 41
3.0
 42
1.5
 43
5.0
 44
2.0
 45
0.0
 46
0.0
 47
0.1
 48
0.1
140
5.0
141
-1.5
142
0.0
143
0.0393701
144
0.833333333
145
0.0
146
0.6
147
0.8
 71
     0
 72
     0
 73
     0
 74
     0
 75
     0
 76
     0
 77
     1
 78
     8
170
     0
171
     2
172
     1
173
     0
174
     0
175
     0
176
   256
177
   256
178
   256
270
     2
271
     2
272
     2
273
     2
274
     2
340
167B
275
     0
280
     0
281
     0
282
     0
283
     1
284
     8
285
     0
286
     0
287
     3
288
     0
  0
DIMSTYLE
105
B991
102
{ACAD_REACTORS
330
10B9B
330
10B53
330
10B2F
330
10C67
330
10B0B
330
10C2D
330
11392
330
114B3
102
}
330
A
100
AcDbSymbolTableRecord
100
AcDbDimStyleTableRecord
  2
STANDARD
 70
     0
  3

  4

  5

  6

  7

 40
1.0
 41
3.0
 42
2.0
 43
10.5
 44
1.0
 45
0.0
 46
0.0
 47
0.01
 48
0.01
140
3.5
141
3.0
142
0.0
143
25.4
144
1.0
145
0.0
146
0.6
147
0.8
 71
     0
 72
     0
 73
     0
 74
     0
 75
     0
 76
     0
 77
     1
 78
     8
170
     0
171
     2
172
     1
173
     0
174
     0
175
     0
176
   256
177
   256
178
   256
270
     2
271
     2
272
     2
273
     2
274
     2
340
11
275
     0
280
     0
281
     0
282
     0
283
     0
284
     8
285
     0
286
     0
287
     3
288
     0
  0
DIMSTYLE
105
BE61
330
A
100
AcDbSymbolTableRecord
100
AcDbDimStyleTableRecord
  2
AM_ANSI$4
 70
     0
  3

  4
mm
  5

  6

  7

 40
1.0
 41
0.1
 42
0.05
 43
0.5
 44
0.1
 45
0.0
 46
0.0
 47
0.1
 48
0.1
140
0.12
141
0.0
142
0.0
143
25.4
144
1.0
145
0.0
146
0.71
147
0.06
 71
     0
 72
     0
 73
     1
 74
     1
 75
     0
 76
     0
 77
     0
 78
     7
170
     0
171
     2
172
     0
173
     0
174
     0
175
     0
176
   256
177
   256
178
     2
270
     2
271
     4
272
     4
273
     2
274
     4
340
11
275
     0
280
     0
281
     0
282
     0
283
     1
284
     7
285
     0
286
     0
287
     0
288
     1
  0
DIMSTYLE
105
BE62
330
A
100
AcDbSymbolTableRecord
100
AcDbDimStyleTableRecord
  2
AM_ANSI$SF
 70
     0
  3

  4
mm
  5

  6

  7

 40
1.0
 41
0.1
 42
0.05
 43
0.5
 44
0.1
 45
0.0
 46
0.0
 47
0.1
 48
0.1
140
0.12
141
0.0
142
0.0
143
25.4
144
1.0
145
0.0
146
0.71
147
0.06
 71
     0
 72
     0
 73
     1
 74
     1
 75
     1
 76
     1
 77
     0
 78
     7
170
     0
171
     2
172
     0
173
     0
174
     0
175
     0
176
   256
177
   256
178
     2
270
     2
271
     4
272
     4
273
     2
274
     4
340
11
275
     0
280
     0
281
     0
282
     0
283
     1
284
     7
285
     0
286
     0
287
     3
288
     0
  0
DIMSTYLE
105
BE63
330
A
100
AcDbSymbolTableRecord
100
AcDbDimStyleTableRecord
  2
AM_ANSI$SH
 70
     0
  3

  4
mm
  5

  6
GENAXEH
  7

 40
1.0
 41
0.1
 42
0.05
 43
0.5
 44
0.1
 45
0.0
 46
0.0
 47
0.1
 48
0.1
140
0.12
141
0.0
142
0.0
143
25.4
144
1.0
145
0.0
146
0.71
147
0.06
 71
     0
 72
     0
 73
     1
 74
     1
 75
     1
 76
     1
 77
     0
 78
     7
170
     0
171
     2
172
     0
173
     1
174
     0
175
     0
176
   256
177
   256
178
     2
270
     2
271
     4
272
     4
273
     2
274
     4
340
11
275
     0
280
     0
281
     0
282
     0
283
     1
284
     7
285
     0
286
     0
287
     3
288
     0
  0
ENDTAB
  0
TABLE
  2
BLOCK_RECORD
  5
1
330
0
100
AcDbSymbolTable
 70
    15
  0
BLOCK_RECORD
  5
1F
102
{ACAD_XDICTIONARY
360
3A4
102
}
330
1
100
AcDbSymbolTableRecord
100
AcDbBlockTableRecord
  2
*MODEL_SPACE
  0
BLOCK_RECORD
  5
1B
102
{ACAD_XDICTIONARY
360
1209E
102
}
330
1
100
AcDbSymbolTableRecord
100
AcDbBlockTableRecord
  2
*PAPER_SPACE
  0
BLOCK_RECORD
  5
990
330
1
100
AcDbSymbolTableRecord
100
AcDbBlockTableRecord
  2
GENAXEH
  0
BLOCK_RECORD
  5
10B0C
330
1
100
AcDbSymbolTableRecord
100
AcDbBlockTableRecord
  2
*D2
  0
BLOCK_RECORD
  5
10B30
330
1
100
AcDbSymbolTableRecord
100
AcDbBlockTableRecord
  2
*D3
  0
BLOCK_RECORD
  5
10B54
330
1
100
AcDbSymbolTableRecord
100
AcDbBlockTableRecord
  2
*D4
  0
BLOCK_RECORD
  5
10B9C
330
1
100
AcDbSymbolTableRecord
100
AcDbBlockTableRecord
  2
*D5
  0
BLOCK_RECORD
  5
10BC3
330
1
100
AcDbSymbolTableRecord
100
AcDbBlockTableRecord
  2
A$C6E5F38A8
  0
BLOCK_RECORD
  5
10BD8
330
1
100
AcDbSymbolTableRecord
100
AcDbBlockTableRecord
  2
A$C453F5956
  0
BLOCK_RECORD
  5
10C2E
330
1
100
AcDbSymbolTableRecord
100
AcDbBlockTableRecord
  2
*D8
  0
BLOCK_RECORD
  5
10C68
330
1
100
AcDbSymbolTableRecord
100
AcDbBlockTableRecord
  2
*D9
  0
BLOCK_RECORD
  5
11393
330
1
100
AcDbSymbolTableRecord
100
AcDbBlockTableRecord
  2
*D10
  0
BLOCK_RECORD
  5
114B4
330
1
100
AcDbSymbolTableRecord
100
AcDbBlockTableRecord
  2
*D11
  0
BLOCK_RECORD
  5
120A3
330
1
100
AcDbSymbolTableRecord
100
AcDbBlockTableRecord
  2
*U12
  0
BLOCK_RECORD
  5
120B0
330
1
100
AcDbSymbolTableRecord
100
AcDbBlockTableRecord
  2
*U13
  0
BLOCK_RECORD
  5
120B7
330
1
100
AcDbSymbolTableRecord
100
AcDbBlockTableRecord
  2
*S14
  0
ENDTAB
  0
ENDSEC
  0
SECTION
  2
BLOCKS
  0
BLOCK
  5
20
330
1F
100
AcDbEntity
  8
0
100
AcDbBlockBegin
  2
*MODEL_SPACE
 70
     0
 10
0.0
 20
0.0
 30
0.0
  3
*MODEL_SPACE
  1

  0
ENDBLK
  5
21
330
1F
100
AcDbEntity
  8
0
100
AcDbBlockEnd
  0
BLOCK
  5
1C
330
1B
100
AcDbEntity
 67
     1
  8
0
100
AcDbBlockBegin
  2
*PAPER_SPACE
 70
     0
 10
0.0
 20
0.0
 30
0.0
  3
*PAPER_SPACE
  1

  0
ENDBLK
  5
1D
330
1B
100
AcDbEntity
 67
     1
  8
0
100
AcDbBlockEnd
  0
BLOCK
  5
992
330
990
100
AcDbEntity
  8
0
100
AcDbBlockBegin
  2
GENAXEH
 70
     0
 10
0.0
 20
0.0
 30
0.0
  3
GENAXEH
  1

  0
LINE
  5
991
330
990
100
AcDbEntity
  8
0
100
AcDbLine
 10
-1.0
 20
0.0
 30
0.0
 11
1.0
 21
0.0
 31
0.0
  0
ENDBLK
  5
993
330
990
100
AcDbEntity
  8
0
100
AcDbBlockEnd
  0
BLOCK
  5
10B16
330
10B0C
100
AcDbEntity
  8
0
100
AcDbBlockBegin
  2
*D2
 70
     1
 10
0.0
 20
0.0
 30
0.0
  3
*D2
  1

  0
LINE
  5
11EFD
330
10B0C
100
AcDbEntity
  8
AM_5
100
AcDbLine
 10
856.0357931411017
 20
222.1500223431311
 30
0.0
 11
891.6642710106243
 21
222.1500223431311
 31
0.0
  0
LINE
  5
11EFE
330
10B0C
100
AcDbEntity
  8
AM_5
100
AcDbLine
 10
856.0357931411017
 20
155.0630023431315
 30
0.0
 11
891.6642710106243
 21
155.0630023431315
 31
0.0
  0
LINE
  5
11EFF
330
10B0C
100
AcDbEntity
  8
AM_5
100
AcDbLine
 10
888.6642710106244
 20
217.6500223431311
 30
0.0
 11
888.6642710106244
 21
159.5630023431315
 31
0.0
  0
SOLID
  5
11F00
330
10B0C
100
AcDbEntity
  8
AM_5
100
AcDbTrace
 10
887.9142710106243
 20
217.6500223431311
 30
0.0
 11
889.4142710106244
 21
217.6500223431311
 31
0.0
 12
888.6642710106244
 22
222.1500223431311
 32
0.0
 13
888.6642710106244
 23
222.1500223431311
 33
0.0
  0
SOLID
  5
11F01
330
10B0C
100
AcDbEntity
  8
AM_5
100
AcDbTrace
 10
887.9142710106243
 20
159.5630023431315
 30
0.0
 11
889.4142710106244
 21
159.5630023431315
 31
0.0
 12
888.6642710106244
 22
155.0630023431315
 32
0.0
 13
888.6642710106244
 23
155.0630023431315
 33
0.0
  0
MTEXT
  5
11F02
330
10B0C
100
AcDbEntity
  8
AM_5
100
AcDbMText
 10
884.8392710106242
 20
188.6065123431315
 30
0.0
 40
5.25
 41
0.0
 71
     5
 72
     1
  1
67
 11
0.0000000000000001
 21
1.0
 31
0.0
1001
ACAD
1000
MTEXTBEGIN
1070
    73
1070
     1
1070
    44
1040
1.0
1070
    74
1070
     0
1000
MTEXTEND
  0
POINT
  5
11F03
330
10B0C
100
AcDbEntity
  8
DEFPOINTS
 62
     0
100
AcDbPoint
 10
853.0357931411018
 20
222.1500223431311
 30
0.0
  0
POINT
  5
11F04
330
10B0C
100
AcDbEntity
  8
DEFPOINTS
 62
     0
100
AcDbPoint
 10
853.0357931411018
 20
155.0630023431315
 30
0.0
  0
POINT
  5
11F05
330
10B0C
100
AcDbEntity
  8
DEFPOINTS
 62
     0
100
AcDbPoint
 10
888.6642710106244
 20
155.0630023431315
 30
0.0
  0
ENDBLK
  5
10B17
330
10B0C
100
AcDbEntity
  8
0
100
AcDbBlockEnd
  0
BLOCK
  5
10B3A
330
10B30
100
AcDbEntity
  8
0
100
AcDbBlockBegin
  2
*D3
 70
     1
 10
0.0
 20
0.0
 30
0.0
  3
*D3
  1

  0
LINE
  5
113D8
330
10B30
100
AcDbEntity
  8
AM_5
100
AcDbLine
 10
841.3965020896421
 20
-97.72214718397373
 30
0.0
 11
891.6642710106243
 21
-97.72214718397375
 31
0.0
  0
LINE
  5
113D9
330
10B30
100
AcDbEntity
  8
AM_5
100
AcDbLine
 10
875.617316305259
 20
-37.59522793803092
 30
0.0
 11
891.6642710106243
 21
-37.59522793803093
 31
0.0
  0
LINE
  5
113DA
330
10B30
100
AcDbEntity
  8
AM_5
100
AcDbLine
 10
888.6642710106244
 20
-93.22214718397374
 30
0.0
 11
888.6642710106244
 21
-42.09522793803093
 31
0.0
  0
SOLID
  5
113DB
330
10B30
100
AcDbEntity
  8
AM_5
100
AcDbTrace
 10
887.9142710106243
 20
-93.22214718397374
 30
0.0
 11
889.4142710106244
 21
-93.22214718397374
 31
0.0
 12
888.6642710106244
 22
-97.72214718397375
 32
0.0
 13
888.6642710106244
 23
-97.72214718397375
 33
0.0
  0
SOLID
  5
113DC
330
10B30
100
AcDbEntity
  8
AM_5
100
AcDbTrace
 10
887.9142710106243
 20
-42.09522793803093
 30
0.0
 11
889.4142710106244
 21
-42.09522793803093
 31
0.0
 12
888.6642710106244
 22
-37.59522793803093
 32
0.0
 13
888.6642710106244
 23
-37.59522793803093
 33
0.0
  0
MTEXT
  5
113DD
330
10B30
100
AcDbEntity
  8
AM_5
100
AcDbMText
 10
884.8392710106242
 20
-67.65868756100219
 30
0.0
 40
5.25
 41
0.0
 71
     5
 72
     1
  1
60
 11
0.0000000000000001
 21
1.0
 31
0.0
1001
ACAD
1000
MTEXTBEGIN
1070
    73
1070
     1
1070
    44
1040
1.0
1070
    74
1070
     0
1000
MTEXTEND
  0
POINT
  5
113DE
330
10B30
100
AcDbEntity
  8
DEFPOINTS
 62
     0
100
AcDbPoint
 10
838.3965020896422
 20
-97.72214718397373
 30
0.0
  0
POINT
  5
113DF
330
10B30
100
AcDbEntity
  8
DEFPOINTS
 62
     0
100
AcDbPoint
 10
872.6173163052591
 20
-37.59522793803092
 30
0.0
  0
POINT
  5
113E0
330
10B30
100
AcDbEntity
  8
DEFPOINTS
 62
     0
100
AcDbPoint
 10
888.6642710106244
 20
-37.59522793803093
 30
0.0
  0
ENDBLK
  5
10B3B
330
10B30
100
AcDbEntity
  8
0
100
AcDbBlockEnd
  0
BLOCK
  5
10B5E
330
10B54
100
AcDbEntity
  8
0
100
AcDbBlockBegin
  2
*D4
 70
     1
 10
0.0
 20
0.0
 30
0.0
  3
*D4
  1

  0
LINE
  5
113C6
330
10B54
100
AcDbEntity
  8
AM_5
100
AcDbLine
 10
841.3965020896421
 20
-97.72214718397373
 30
0.0
 11
909.0470636562743
 21
-97.72214718397375
 31
0.0
  0
LINE
  5
113C7
330
10B54
100
AcDbEntity
  8
AM_5
100
AcDbLine
 10
834.3288732561516
 20
98.72742052548986
 30
0.0
 11
909.0470636562743
 21
98.72742052548984
 31
0.0
  0
LINE
  5
113C8
330
10B54
100
AcDbEntity
  8
AM_5
100
AcDbLine
 10
906.0470636562742
 20
-93.22214718397374
 30
0.0
 11
906.0470636562742
 21
94.22742052548983
 31
0.0
  0
SOLID
  5
113C9
330
10B54
100
AcDbEntity
  8
AM_5
100
AcDbTrace
 10
905.2970636562744
 20
-93.22214718397374
 30
0.0
 11
906.7970636562742
 21
-93.22214718397374
 31
0.0
 12
906.0470636562742
 22
-97.72214718397375
 32
0.0
 13
906.0470636562742
 23
-97.72214718397375
 33
0.0
  0
SOLID
  5
113CA
330
10B54
100
AcDbEntity
  8
AM_5
100
AcDbTrace
 10
905.2970636562744
 20
94.22742052548983
 30
0.0
 11
906.7970636562742
 21
94.22742052548983
 31
0.0
 12
906.0470636562742
 22
98.72742052548984
 32
0.0
 13
906.0470636562742
 23
98.72742052548984
 33
0.0
  0
MTEXT
  5
113CB
330
10B54
100
AcDbEntity
  8
AM_5
100
AcDbMText
 10
902.2220636562742
 20
0.5026366707581876
 30
0.0
 40
5.25
 41
0.0
 71
     5
 72
     1
  1
196
 11
0.0000000000000001
 21
1.0
 31
0.0
1001
ACAD
1000
MTEXTBEGIN
1070
    73
1070
     1
1070
    44
1040
1.0
1070
    74
1070
     0
1000
MTEXTEND
  0
POINT
  5
113CC
330
10B54
100
AcDbEntity
  8
DEFPOINTS
 62
     0
100
AcDbPoint
 10
838.3965020896422
 20
-97.72214718397373
 30
0.0
  0
POINT
  5
113CD
330
10B54
100
AcDbEntity
  8
DEFPOINTS
 62
     0
100
AcDbPoint
 10
831.3288732561515
 20
98.72742052548986
 30
0.0
  0
POINT
  5
113CE
330
10B54
100
AcDbEntity
  8
DEFPOINTS
 62
     0
100
AcDbPoint
 10
906.0470636562742
 20
98.72742052548984
 30
0.0
  0
ENDBLK
  5
10B5F
330
10B54
100
AcDbEntity
  8
0
100
AcDbBlockEnd
  0
BLOCK
  5
10BA6
330
10B9C
100
AcDbEntity
  8
0
100
AcDbBlockBegin
  2
*D5
 70
     1
 10
0.0
 20
0.0
 30
0.0
  3
*D5
  1

  0
LINE
  5
113CF
330
10B9C
100
AcDbEntity
  8
AM_5
100
AcDbLine
 10
834.3288732561516
 20
98.72742052548986
 30
0.0
 11
891.6642710106243
 21
98.72742052548984
 31
0.0
  0
LINE
  5
113D0
330
10B9C
100
AcDbEntity
  8
AM_5
100
AcDbLine
 10
875.617316305259
 20
-37.59522793803092
 30
0.0
 11
891.6642710106243
 21
-37.59522793803093
 31
0.0
  0
LINE
  5
113D1
330
10B9C
100
AcDbEntity
  8
AM_5
100
AcDbLine
 10
888.6642710106244
 20
94.22742052548983
 30
0.0
 11
888.6642710106244
 21
-33.09522793803093
 31
0.0
  0
SOLID
  5
113D2
330
10B9C
100
AcDbEntity
  8
AM_5
100
AcDbTrace
 10
887.9142710106243
 20
94.22742052548983
 30
0.0
 11
889.4142710106244
 21
94.22742052548983
 31
0.0
 12
888.6642710106244
 22
98.72742052548984
 32
0.0
 13
888.6642710106244
 23
98.72742052548984
 33
0.0
  0
SOLID
  5
113D3
330
10B9C
100
AcDbEntity
  8
AM_5
100
AcDbTrace
 10
887.9142710106243
 20
-33.09522793803093
 30
0.0
 11
889.4142710106244
 21
-33.09522793803093
 31
0.0
 12
888.6642710106244
 22
-37.59522793803093
 32
0.0
 13
888.6642710106244
 23
-37.59522793803093
 33
0.0
  0
MTEXT
  5
113D4
330
10B9C
100
AcDbEntity
  8
AM_5
100
AcDbMText
 10
884.8392710106242
 20
30.56609629372959
 30
0.0
 40
5.25
 41
0.0
 71
     5
 72
     1
  1
136
 11
0.0000000000000001
 21
1.0
 31
0.0
1001
ACAD
1000
MTEXTBEGIN
1070
    73
1070
     1
1070
    44
1040
1.0
1070
    74
1070
     0
1000
MTEXTEND
  0
POINT
  5
113D5
330
10B9C
100
AcDbEntity
  8
DEFPOINTS
 62
     0
100
AcDbPoint
 10
831.3288732561515
 20
98.72742052548986
 30
0.0
  0
POINT
  5
113D6
330
10B9C
100
AcDbEntity
  8
DEFPOINTS
 62
     0
100
AcDbPoint
 10
872.6173163052591
 20
-37.59522793803092
 30
0.0
  0
POINT
  5
113D7
330
10B9C
100
AcDbEntity
  8
DEFPOINTS
 62
     0
100
AcDbPoint
 10
888.6642710106244
 20
-37.59522793803093
 30
0.0
  0
ENDBLK
  5
10BA7
330
10B9C
100
AcDbEntity
  8
0
100
AcDbBlockEnd
  0
BLOCK
  5
10BD2
330
10BC3
100
AcDbEntity
  8
0
100
AcDbBlockBegin
  2
A$C6E5F38A8
 70
     0
 10
0.0
 20
0.0
 30
0.0
  3
A$C6E5F38A8
  1

  0
CIRCLE
  5
10BC4
330
10BC3
100
AcDbEntity
  8
圖層1
  6
PHANTOM
 62
     2
 48
0.5
100
AcDbCircle
 10
-0.0027688737727658
 20
0.0000000000000284
 30
0.0
 40
23.0
  0
CIRCLE
  5
10BC5
330
10BC3
100
AcDbEntity
  8
圖層1
  6
PHANTOM
 62
     2
 48
0.5
100
AcDbCircle
 10
-0.0027688737727658
 20
0.0000000000000284
 30
0.0
 40
26.5
  0
ARC
  5
10BC6
330
10BC3
100
AcDbEntity
  8
圖層1
  6
PHANTOM
 62
     2
 48
0.5
100
AcDbCircle
 10
-0.0027688737727658
 20
0.0000000000000284
 30
0.0
 40
17.52365489726105
100
AcDbArc
 50
324.2347735551979
 51
215.765226444802
  0
LINE
  5
10BC7
330
10BC3
100
AcDbEntity
  8
圖層1
  6
PHANTOM
 62
     2
 48
0.5
100
AcDbLine
 10
7.997231126227234
 20
6.000000000000028
 30
0.0
 11
7.138923384838108
 21
6.293769193957956
 31
0.0
  0
LINE
  5
10BC8
330
10BC3
100
AcDbEntity
  8
圖層1
  6
PHANTOM
 62
     2
 48
0.5
100
AcDbLine
 10
7.997231126227234
 20
6.000000000000028
 30
0.0
 11
8.038923384838199
 21
5.093769193957911
 31
0.0
  0
LINE
  5
10BC9
330
10BC3
100
AcDbEntity
  8
圖層1
  6
PHANTOM
 62
     2
 48
0.5
100
AcDbLine
 10
2.73017164400835
 20
1.237350446022702
 30
0.0
 11
8.038923384838199
 21
5.093769193957911
 31
0.0
  0
LINE
  5
10BCA
330
10BC3
100
AcDbEntity
  8
圖層1
  6
PHANTOM
 62
     2
 48
0.5
100
AcDbLine
 10
1.950310899387659
 20
2.277164772183169
 30
0.0
 11
7.138923384838108
 21
6.293769193957956
 31
0.0
  0
CIRCLE
  5
10BCB
330
10BC3
100
AcDbEntity
  8
圖層1
  6
PHANTOM
 62
     2
 48
0.5
100
AcDbCircle
 10
-0.0027688737727658
 20
0.0000000000000284
 30
0.0
 40
3.0
  0
CIRCLE
  5
10BCC
330
10BC3
100
AcDbEntity
  8
圖層1
  6
PHANTOM
 62
     2
 48
0.5
100
AcDbCircle
 10
-0.0027688737727658
 20
0.0000000000000284
 30
0.0
 40
2.0
  0
ARC
  5
10BCD
330
10BC3
100
AcDbEntity
  8
圖層5
  6
CONTINUOUS
 62
     3
100
AcDbCircle
 10
-0.0000000000001137
 20
-0.0000000000000426
 30
0.0
 40
6.5785
100
AcDbArc
 50
279.9758843526894
 51
190.0000000000002
  0
CIRCLE
  5
10BCE
330
10BC3
100
AcDbEntity
  8
圖層5
  6
CONTINUOUS
100
AcDbCircle
 10
0.0
 20
0.0
 30
0.0
 40
5.7225
  0
LINE
  5
10BCF
330
10BC3
100
AcDbEntity
  8
圖層1
  6
PHANTOM
 62
     2
 48
0.5
100
AcDbLine
 10
-15.8246206604731
 20
-12.24134518721101
 30
0.0
 11
-2.024420396422101
 21
-2.216511926647257
 31
0.0
  0
LINE
  5
10BD0
330
10BC3
100
AcDbEntity
  8
圖層1
  6
PHANTOM
 62
     2
 48
0.5
100
AcDbLine
 10
-16.18457875377134
 20
-11.76140106281317
 30
0.0
 11
-2.69668274969581
 21
-1.320162122282084
 31
0.0
  0
ARC
  5
10BD1
330
10BC3
100
AcDbEntity
  8
圖層1
  6
PHANTOM
 62
     2
 48
0.5
100
AcDbCircle
 10
-16.00093782727708
 20
-11.99862671512832
 30
0.0
 40
0.3
100
AcDbArc
 50
127.7441409864535
 51
305.9956543052364
  0
ENDBLK
  5
10BD3
330
10BC3
100
AcDbEntity
  8
0
100
AcDbBlockEnd
  0
BLOCK
  5
10BE9
330
10BD8
100
AcDbEntity
  8
0
100
AcDbBlockBegin
  2
A$C453F5956
 70
     0
 10
0.0
 20
0.0
 30
0.0
  3
A$C453F5956
  1

  0
LINE
  5
10BD9
330
10BD8
100
AcDbEntity
  8
圖層1
  6
PHANTOM
 62
     2
 48
0.5
100
AcDbLine
 10
7.371834609193228
 20
51.99999995046352
 30
0.0
 11
7.371834609193228
 21
-0.0000000495364816
 31
0.0
  0
LINE
  5
10BDA
330
10BD8
100
AcDbEntity
  8
圖層1
  6
PHANTOM
 62
     2
 48
0.5
100
AcDbLine
 10
0.0000012872083062
 20
50.99999995046355
 30
0.0
 11
0.0000012872083062
 21
0.9999999504635184
 31
0.0
  0
LINE
  5
10BDB
330
10BD8
100
AcDbEntity
  8
圖層1
  6
PHANTOM
 62
     2
 48
0.5
100
AcDbLine
 10
26.0000012872083
 20
50.99999995046355
 30
0.0
 11
26.0000012872083
 21
0.9999999504635184
 31
0.0
  0
LINE
  5
10BDC
330
10BD8
100
AcDbEntity
  8
圖層1
  6
PHANTOM
 62
     2
 48
0.5
100
AcDbLine
 10
1.000001287208306
 20
-0.0000000495364816
 30
0.0
 11
25.0000012872083
 21
-0.0000000495364816
 31
0.0
  0
ARC
  5
10BDD
330
10BD8
100
AcDbEntity
  8
圖層1
  6
PHANTOM
 62
     2
 48
0.5
100
AcDbCircle
 10
1.000001287208306
 20
0.9999999504635184
 30
0.0
 40
1.0
100
AcDbArc
 50
180.0
 51
270.0
  0
ARC
  5
10BDE
330
10BD8
100
AcDbEntity
  8
圖層1
  6
PHANTOM
 62
     2
 48
0.5
100
AcDbCircle
 10
25.0000012872083
 20
0.9999999504635184
 30
0.0
 40
1.0
100
AcDbArc
 50
270.0
 51
0.0
  0
LINE
  5
10BDF
330
10BD8
100
AcDbEntity
  8
圖層1
  6
PHANTOM
 62
     2
 48
0.5
100
AcDbLine
 10
1.000001287208306
 20
51.99999995046354
 30
0.0
 11
25.0000012872083
 21
51.99999995046354
 31
0.0
  0
ARC
  5
10BE0
330
10BD8
100
AcDbEntity
  8
圖層1
  6
PHANTOM
 62
     2
 48
0.5
100
AcDbCircle
 10
1.000001287208306
 20
50.99999995046355
 30
0.0
 40
1.0
100
AcDbArc
 50
90.0
 51
180.0
  0
ARC
  5
10BE1
330
10BD8
100
AcDbEntity
  8
圖層1
  6
PHANTOM
 62
     2
 48
0.5
100
AcDbCircle
 10
25.0000012872083
 20
50.99999995046355
 30
0.0
 40
1.0
100
AcDbArc
 50
0.0
 51
90.0
  0
LINE
  5
10BE2
330
10BD8
100
AcDbEntity
  8
圖層1
  6
PHANTOM
 62
     2
 48
0.5
100
AcDbLine
 10
26.0000012872083
 20
16.99999995046349
 30
0.0
 11
33.09267009418681
 21
34.99999995046351
 31
0.0
  0
LINE
  5
10BE3
330
10BD8
100
AcDbEntity
  8
圖層1
  6
PHANTOM
 62
     2
 48
0.5
100
AcDbLine
 10
26.0000012872083
 20
34.99999995046349
 30
0.0
 11
33.09267009418681
 21
16.99999995046352
 31
0.0
  0
LINE
  5
10BE4
330
10BD8
100
AcDbEntity
  8
圖層1
  6
PHANTOM
 62
     2
 48
0.5
100
AcDbLine
 10
33.09267009418681
 20
34.99999995046351
 30
0.0
 11
33.09267009418681
 21
16.99999995046349
 31
0.0
  0
LINE
  5
10BE5
330
10BD8
100
AcDbEntity
  8
圖層1
  6
PHANTOM
 62
     2
 48
0.5
100
AcDbLine
 10
33.09267009418681
 20
19.59999995046348
 30
0.0
 11
38.50000128720819
 21
19.5999999504635
 31
0.0
  0
LINE
  5
10BE6
330
10BD8
100
AcDbEntity
  8
圖層1
  6
PHANTOM
 62
     2
 48
0.5
100
AcDbLine
 10
26.0000012872083
 20
16.99999995046349
 30
0.0
 11
33.09267009418681
 21
16.99999995046352
 31
0.0
  0
LINE
  5
10BE7
330
10BD8
100
AcDbEntity
  8
圖層1
  6
PHANTOM
 62
     2
 48
0.5
100
AcDbLine
 10
33.09267009418681
 20
32.39999995046352
 30
0.0
 11
38.50000128720819
 21
32.39999995046352
 31
0.0
  0
LINE
  5
10BE8
330
10BD8
100
AcDbEntity
  8
圖層1
  6
PHANTOM
 62
     2
 48
0.5
100
AcDbLine
 10
26.0000012872083
 20
34.99999995046349
 30
0.0
 11
33.09267009418681
 21
34.99999995046351
 31
0.0
  0
ENDBLK
  5
10BEA
330
10BD8
100
AcDbEntity
  8
0
100
AcDbBlockEnd
  0
BLOCK
  5
10C38
330
10C2E
100
AcDbEntity
  8
0
100
AcDbBlockBegin
  2
*D8
 70
     1
 10
0.0
 20
0.0
 30
0.0
  3
*D8
  1

  0
LINE
  5
11458
330
10C2E
100
AcDbEntity
  8
AM_5
100
AcDbLine
 10
760.7495404646117
 20
219.3547298431308
 30
0.0
 11
742.573071714606
 21
219.3547298431308
 31
0.0
  0
LINE
  5
11459
330
10C2E
100
AcDbEntity
  8
AM_5
100
AcDbLine
 10
760.7495404646002
 20
157.8582948431318
 30
0.0
 11
742.573071714606
 21
157.8582948431318
 31
0.0
  0
LINE
  5
1145A
330
10C2E
100
AcDbEntity
  8
AM_5
100
AcDbLine
 10
745.573071714606
 20
214.8547298431307
 30
0.0
 11
745.573071714606
 21
162.3582948431318
 31
0.0
  0
SOLID
  5
1145B
330
10C2E
100
AcDbEntity
  8
AM_5
100
AcDbTrace
 10
744.823071714606
 20
214.8547298431307
 30
0.0
 11
746.3230717146061
 21
214.8547298431307
 31
0.0
 12
745.573071714606
 22
219.3547298431308
 32
0.0
 13
745.573071714606
 23
219.3547298431308
 33
0.0
  0
SOLID
  5
1145C
330
10C2E
100
AcDbEntity
  8
AM_5
100
AcDbTrace
 10
744.823071714606
 20
162.3582948431318
 30
0.0
 11
746.3230717146061
 21
162.3582948431318
 31
0.0
 12
745.573071714606
 22
157.8582948431318
 32
0.0
 13
745.573071714606
 23
157.8582948431318
 33
0.0
  0
MTEXT
  5
1145D
330
10C2E
100
AcDbEntity
  8
AM_5
100
AcDbMText
 10
741.748071714606
 20
188.6065123431314
 30
0.0
 40
5.25
 41
0.0
 71
     5
 72
     1
  1
61
 11
0.0000000000000001
 21
1.0
 31
0.0
1001
ACAD
1000
MTEXTBEGIN
1070
    73
1070
     1
1070
    44
1040
1.0
1070
    74
1070
     0
1000
MTEXTEND
  0
POINT
  5
1145E
330
10C2E
100
AcDbEntity
  8
DEFPOINTS
 62
     0
100
AcDbPoint
 10
763.7495404646117
 20
219.3547298431308
 30
0.0
  0
POINT
  5
1145F
330
10C2E
100
AcDbEntity
  8
DEFPOINTS
 62
     0
100
AcDbPoint
 10
763.7495404646001
 20
157.8582948431318
 30
0.0
  0
POINT
  5
11460
330
10C2E
100
AcDbEntity
  8
DEFPOINTS
 62
     0
100
AcDbPoint
 10
745.573071714606
 20
157.8582948431318
 30
0.0
  0
ENDBLK
  5
10C39
330
10C2E
100
AcDbEntity
  8
0
100
AcDbBlockEnd
  0
BLOCK
  5
10C72
330
10C68
100
AcDbEntity
  8
0
100
AcDbBlockBegin
  2
*D9
 70
     1
 10
0.0
 20
0.0
 30
0.0
  3
*D9
  1

  0
LINE
  5
11EEB
330
10C68
100
AcDbEntity
  8
AM_5
100
AcDbLine
 10
856.0357931411017
 20
222.1500223431311
 30
0.0
 11
909.0470636562743
 21
222.1500223431311
 31
0.0
  0
LINE
  5
11EEC
330
10C68
100
AcDbEntity
  8
AM_5
100
AcDbLine
 10
871.7965717145983
 20
114.4665123431314
 30
0.0
 11
909.0470636562743
 21
114.4665123431314
 31
0.0
  0
LINE
  5
11EED
330
10C68
100
AcDbEntity
  8
AM_5
100
AcDbLine
 10
906.0470636562742
 20
217.6500223431311
 30
0.0
 11
906.0470636562742
 21
118.9665123431314
 31
0.0
  0
SOLID
  5
11EEE
330
10C68
100
AcDbEntity
  8
AM_5
100
AcDbTrace
 10
905.2970636562744
 20
217.6500223431311
 30
0.0
 11
906.7970636562742
 21
217.6500223431311
 31
0.0
 12
906.0470636562742
 22
222.1500223431311
 32
0.0
 13
906.0470636562742
 23
222.1500223431311
 33
0.0
  0
SOLID
  5
11EEF
330
10C68
100
AcDbEntity
  8
AM_5
100
AcDbTrace
 10
905.2970636562744
 20
118.9665123431314
 30
0.0
 11
906.7970636562742
 21
118.9665123431314
 31
0.0
 12
906.0470636562742
 22
114.4665123431314
 32
0.0
 13
906.0470636562742
 23
114.4665123431314
 33
0.0
  0
MTEXT
  5
11EF0
330
10C68
100
AcDbEntity
  8
AM_5
100
AcDbMText
 10
902.2220636562742
 20
168.3082673431314
 30
0.0
 40
5.25
 41
0.0
 71
     5
 72
     1
  1
108
 11
0.0000000000000001
 21
1.0
 31
0.0
1001
ACAD
1000
MTEXTBEGIN
1070
    73
1070
     1
1070
    44
1040
1.0
1070
    74
1070
     0
1000
MTEXTEND
  0
POINT
  5
11EF1
330
10C68
100
AcDbEntity
  8
DEFPOINTS
 62
     0
100
AcDbPoint
 10
853.0357931411018
 20
222.1500223431311
 30
0.0
  0
POINT
  5
11EF2
330
10C68
100
AcDbEntity
  8
DEFPOINTS
 62
     0
100
AcDbPoint
 10
868.7965717145983
 20
114.4665123431314
 30
0.0
  0
POINT
  5
11EF3
330
10C68
100
AcDbEntity
  8
DEFPOINTS
 62
     0
100
AcDbPoint
 10
906.0470636562742
 20
114.4665123431314
 30
0.0
  0
ENDBLK
  5
10C73
330
10C68
100
AcDbEntity
  8
0
100
AcDbBlockEnd
  0
BLOCK
  5
1139D
330
11393
100
AcDbEntity
  8
0
100
AcDbBlockBegin
  2
*D10
 70
     1
 10
0.0
 20
0.0
 30
0.0
  3
*D10
  1

  0
LINE
  5
114E8
330
11393
100
AcDbEntity
  8
AM_5
100
AcDbLine
 10
760.5730717146117
 20
219.1782610931308
 30
0.0
 11
760.5730717146117
 21
247.9089494989373
 31
0.0
  0
LINE
  5
114E9
330
11393
100
AcDbEntity
  8
AM_5
100
AcDbLine
 10
868.5730092146002
 20
219.1782610931322
 30
0.0
 11
868.5730092146002
 21
247.9089494989373
 31
0.0
  0
LINE
  5
114EA
330
11393
100
AcDbEntity
  8
AM_5
100
AcDbLine
 10
765.0730717146117
 20
244.9089494989373
 30
0.0
 11
864.0730092146002
 21
244.9089494989373
 31
0.0
  0
SOLID
  5
114EB
330
11393
100
AcDbEntity
  8
AM_5
100
AcDbTrace
 10
765.0730717146117
 20
245.6589494989373
 30
0.0
 11
765.0730717146117
 21
244.1589494989373
 31
0.0
 12
760.5730717146117
 22
244.9089494989373
 32
0.0
 13
760.5730717146117
 23
244.9089494989373
 33
0.0
  0
SOLID
  5
114EC
330
11393
100
AcDbEntity
  8
AM_5
100
AcDbTrace
 10
864.0730092146002
 20
245.6589494989373
 30
0.0
 11
864.0730092146002
 21
244.1589494989373
 31
0.0
 12
868.5730092146002
 22
244.9089494989373
 32
0.0
 13
868.5730092146002
 23
244.9089494989373
 33
0.0
  0
MTEXT
  5
114ED
330
11393
100
AcDbEntity
  8
AM_5
100
AcDbMText
 10
814.5730404646061
 20
248.7339494989373
 30
0.0
 40
5.25
 41
0.0
 71
     5
 72
     1
  1
108
1001
ACAD
1000
MTEXTBEGIN
1070
    73
1070
     1
1070
    44
1040
1.0
1070
    74
1070
     0
1000
MTEXTEND
  0
POINT
  5
114EE
330
11393
100
AcDbEntity
  8
DEFPOINTS
 62
     0
100
AcDbPoint
 10
760.5730717146117
 20
216.1782610931307
 30
0.0
  0
POINT
  5
114EF
330
11393
100
AcDbEntity
  8
DEFPOINTS
 62
     0
100
AcDbPoint
 10
868.5730092146002
 20
216.1782610931322
 30
0.0
  0
POINT
  5
114F0
330
11393
100
AcDbEntity
  8
DEFPOINTS
 62
     0
100
AcDbPoint
 10
868.5730092146002
 20
244.9089494989373
 30
0.0
  0
ENDBLK
  5
1139E
330
11393
100
AcDbEntity
  8
0
100
AcDbBlockEnd
  0
BLOCK
  5
114BE
330
114B4
100
AcDbEntity
  8
0
100
AcDbBlockBegin
  2
*D11
 70
     1
 10
0.0
 20
0.0
 30
0.0
  3
*D11
  1

  0
LINE
  5
114F1
330
114B4
100
AcDbEntity
  8
AM_5
100
AcDbLine
 10
760.5730717146117
 20
219.1782610931308
 30
0.0
 11
760.5730717146117
 21
237.3547308531307
 31
0.0
  0
LINE
  5
114F2
330
114B4
100
AcDbEntity
  8
AM_5
100
AcDbLine
 10
811.3965717146001
 20
228.2589047473386
 30
0.0
 11
811.3965717146001
 21
237.3547308531307
 31
0.0
  0
LINE
  5
114F3
330
114B4
100
AcDbEntity
  8
AM_5
100
AcDbLine
 10
765.0730717146117
 20
234.3547308531307
 30
0.0
 11
806.8965717146001
 21
234.3547308531307
 31
0.0
  0
SOLID
  5
114F4
330
114B4
100
AcDbEntity
  8
AM_5
100
AcDbTrace
 10
765.0730717146117
 20
235.1047308531307
 30
0.0
 11
765.0730717146117
 21
233.6047308531307
 31
0.0
 12
760.5730717146117
 22
234.3547308531307
 32
0.0
 13
760.5730717146117
 23
234.3547308531307
 33
0.0
  0
SOLID
  5
114F5
330
114B4
100
AcDbEntity
  8
AM_5
100
AcDbTrace
 10
806.8965717146001
 20
235.1047308531307
 30
0.0
 11
806.8965717146001
 21
233.6047308531307
 31
0.0
 12
811.3965717146001
 22
234.3547308531307
 32
0.0
 13
811.3965717146001
 23
234.3547308531307
 33
0.0
  0
MTEXT
  5
114F6
330
114B4
100
AcDbEntity
  8
AM_5
100
AcDbMText
 10
785.9848217146059
 20
238.1797308531307
 30
0.0
 40
5.25
 41
0.0
 71
     5
 72
     1
  1
51
1001
ACAD
1000
MTEXTBEGIN
1070
    73
1070
     1
1070
    44
1040
1.0
1070
    74
1070
     0
1000
MTEXTEND
  0
POINT
  5
114F7
330
114B4
100
AcDbEntity
  8
DEFPOINTS
 62
     0
100
AcDbPoint
 10
760.5730717146117
 20
216.1782610931307
 30
0.0
  0
POINT
  5
114F8
330
114B4
100
AcDbEntity
  8
DEFPOINTS
 62
     0
100
AcDbPoint
 10
811.3965717146001
 20
225.2589047473386
 30
0.0
  0
POINT
  5
114F9
330
114B4
100
AcDbEntity
  8
DEFPOINTS
 62
     0
100
AcDbPoint
 10
811.3965717146001
 20
234.3547308531307
 30
0.0
  0
ENDBLK
  5
114BF
330
114B4
100
AcDbEntity
  8
0
100
AcDbBlockEnd
  0
BLOCK
  5
120AE
330
120A3
100
AcDbEntity
  8
0
100
AcDbBlockBegin
  2
*U12
 70
     1
 10
0.0
 20
0.0
 30
0.0
  3
*U12
  1

  0
SOLID
  5
120A4
330
120A3
100
AcDbEntity
  8
MAIN
  6
CONTINUOUS
100
AcDbTrace
 10
796.5875547512624
 20
192.3416662736476
 30
0.0
 11
795.9200281854427
 21
191.5888886557682
 31
0.0
 12
796.3546445457504
 22
191.4724335530358
 32
0.0
 13
796.3546445457504
 23
191.4724335530358
 33
0.0
210
0.0
220
0.0
230
1.0
  0
SOLID
  5
120A5
330
120A3
100
AcDbEntity
  8
MAIN
  6
CONTINUOUS
100
AcDbTrace
 10
796.1529383909546
 20
192.4581213763799
 30
0.0
 11
795.9200281854427
 21
191.5888886557682
 31
0.0
 12
796.5875547512624
 22
192.3416662736476
 32
0.0
 13
796.5875547512624
 23
192.3416662736476
 33
0.0
210
0.0
220
0.0
230
1.0
  0
SOLID
  5
120A6
330
120A3
100
AcDbEntity
  8
MAIN
  6
CONTINUOUS
100
AcDbTrace
 10
797.5732425746646
 20
192.5433724283962
 30
0.0
 11
796.1529383909546
 21
192.4581213763799
 31
0.0
 12
796.5875547512624
 22
192.3416662736476
 32
0.0
 13
796.5875547512624
 23
192.3416662736476
 33
0.0
210
0.0
220
0.0
230
1.0
  0
SOLID
  5
120A7
330
120A3
100
AcDbEntity
  8
MAIN
  6
CONTINUOUS
100
AcDbTrace
 10
797.5732425746646
 20
192.5433724283962
 30
0.0
 11
796.5875547512624
 21
192.3416662736476
 31
0.0
 12
797.4567874718741
 22
192.1087560680903
 32
0.0
 13
797.4567874718741
 23
192.1087560680903
 33
0.0
210
0.0
220
0.0
230
1.0
  0
SOLID
  5
120A8
330
120A3
100
AcDbEntity
  8
MAIN
  6
CONTINUOUS
100
AcDbTrace
 10
795.2837056703684
 20
192.6910315819136
 30
0.0
 11
796.1529383909546
 21
192.4581213763799
 31
0.0
 12
797.5732425746646
 22
192.5433724283962
 32
0.0
 13
797.5732425746646
 23
192.5433724283962
 33
0.0
210
0.0
220
0.0
230
1.0
  0
SOLID
  5
120A9
330
120A3
100
AcDbEntity
  8
MAIN
  6
CONTINUOUS
100
AcDbTrace
 10
796.7040098540419
 20
192.7762826339535
 30
0.0
 11
795.2837056703684
 21
192.6910315819136
 31
0.0
 12
797.5732425746646
 22
192.5433724283962
 32
0.0
 13
797.5732425746646
 23
192.5433724283962
 33
0.0
210
0.0
220
0.0
230
1.0
  0
SOLID
  5
120AA
330
120A3
100
AcDbEntity
  8
MAIN
  6
CONTINUOUS
100
AcDbTrace
 10
796.2693934937342
 20
192.8927377366858
 30
0.0
 11
795.2837056703684
 21
192.6910315819136
 31
0.0
 12
796.7040098540419
 22
192.7762826339535
 32
0.0
 13
796.7040098540419
 23
192.7762826339535
 33
0.0
210
0.0
220
0.0
230
1.0
  0
SOLID
  5
120AB
330
120A3
100
AcDbEntity
  8
MAIN
  6
CONTINUOUS
100
AcDbTrace
 10
795.4001607731225
 20
193.1256479422195
 30
0.0
 11
795.2837056703684
 21
192.6910315819136
 31
0.0
 12
796.2693934937342
 22
192.8927377366858
 32
0.0
 13
796.2693934937342
 23
192.8927377366858
 33
0.0
210
0.0
220
0.0
230
1.0
  0
SOLID
  5
120AC
330
120A3
100
AcDbEntity
  8
MAIN
  6
CONTINUOUS
100
AcDbTrace
 10
796.9369200595502
 20
193.6455153545653
 30
0.0
 11
796.2693934937342
 21
192.8927377366858
 31
0.0
 12
796.7040098540419
 22
192.7762826339535
 32
0.0
 13
796.7040098540419
 23
192.7762826339535
 33
0.0
  0
SOLID
  5
120AD
330
120A3
100
AcDbEntity
  8
MAIN
  6
CONTINUOUS
100
AcDbTrace
 10
796.5023036992461
 20
193.7619704572975
 30
0.0
 11
796.2693934937342
 21
192.8927377366858
 31
0.0
 12
796.9369200595502
 22
193.6455153545653
 32
0.0
 13
796.9369200595502
 23
193.6455153545653
 33
0.0
210
0.0
220
0.0
230
1.0
  0
ENDBLK
  5
120AF
330
120A3
100
AcDbEntity
  8
0
100
AcDbBlockEnd
  0
BLOCK
  5
120B5
330
120B0
100
AcDbEntity
  8
0
100
AcDbBlockBegin
  2
*U13
 70
     1
 10
0.0
 20
0.0
 30
0.0
  3
*U13
  1

  0
SOLID
  5
120B1
330
120B0
100
AcDbEntity
  8
MAIN
  6
CONTINUOUS
100
AcDbTrace
 10
825.2199008545467
 20
192.5433724283962
 30
0.0
 11
825.3363559573262
 21
192.1087560680903
 31
0.0
 12
826.6402050382458
 22
192.4581213763799
 32
0.0
 13
826.6402050382458
 23
192.4581213763799
 33
0.0
210
0.0
220
0.0
230
1.0
  0
SOLID
  5
120B2
330
120B0
100
AcDbEntity
  8
MAIN
  6
CONTINUOUS
100
AcDbTrace
 10
827.5094377588574
 20
192.6910315819136
 30
0.0
 11
825.2199008545467
 21
192.5433724283962
 31
0.0
 12
826.6402050382458
 22
192.4581213763799
 32
0.0
 13
826.6402050382458
 23
192.4581213763799
 33
0.0
210
0.0
220
0.0
230
1.0
  0
SOLID
  5
120B3
330
120B0
100
AcDbEntity
  8
MAIN
  6
CONTINUOUS
100
AcDbTrace
 10
826.5237499354771
 20
192.8927377366858
 30
0.0
 11
825.2199008545467
 21
192.5433724283962
 31
0.0
 12
827.5094377588574
 22
192.6910315819136
 32
0.0
 13
827.5094377588574
 23
192.6910315819136
 33
0.0
210
0.0
220
0.0
230
1.0
  0
SOLID
  5
120B4
330
120B0
100
AcDbEntity
  8
MAIN
  6
CONTINUOUS
100
AcDbTrace
 10
827.3929826560779
 20
193.1256479422195
 30
0.0
 11
826.5237499354771
 21
192.8927377366858
 31
0.0
 12
827.5094377588574
 22
192.6910315819136
 32
0.0
 13
827.5094377588574
 23
192.6910315819136
 33
0.0
210
0.0
220
0.0
230
1.0
  0
ENDBLK
  5
120B6
330
120B0
100
AcDbEntity
  8
0
100
AcDbBlockEnd
  0
BLOCK
  5
120BC
330
120B7
100
AcDbEntity
  8
0
100
AcDbBlockBegin
  2
*S14
 70
     1
 10
0.0
 20
0.0
 30
0.0
  3
*S14
  1

  0
LINE
  5
120B8
330
120B7
100
AcDbEntity
  8
AM_5
100
AcDbLine
 10
712.7955451545099
 20
-54.70992105202455
 30
0.0
 11
748.7622489052691
 21
-54.70992105202455
 31
0.0
  0
LINE
  5
120B9
330
120B7
100
AcDbEntity
  8
AM_5
100
AcDbLine
 10
748.7622489052691
 20
-54.70992105202455
 30
0.0
 11
757.506062618212
 21
-42.03964372526492
 31
0.0
  0
TRACE
  5
120BA
330
120B7
100
AcDbEntity
  8
AM_5
100
AcDbTrace
 10
758.0911810543076
 20
-42.44343651316411
 30
0.0
 11
756.9209441821165
 21
-41.63585093736573
 31
0.0
 12
760.5731733612706
 22
-37.59522793803094
 32
0.0
 13
760.5731733612706
 23
-37.59522793803094
 33
0.0
  0
MTEXT
  5
120BB
330
120B7
100
AcDbEntity
  8
AM_5
 62
     2
100
AcDbMText
 10
712.7955451545099
 20
-58.65395470914015
 30
0.0
 40
10.5
 41
0.0
 71
     7
 72
     1
  1

  7
ACISOTS
210
0.0
220
0.0
230
-1.0
 11
-1.0
 21
0.0
 31
0.0
  0
ENDBLK
  5
120BD
330
120B7
100
AcDbEntity
  8
0
100
AcDbBlockEnd
  0
ENDSEC
  0
SECTION
  2
ENTITIES
  0
MTEXT
  5
20A1
330
1F
100
AcDbEntity
  8
AM_REFDIM
100
AcDbMText
 10
561.1885018225272
 20
211.9777653808241
 30
0.0
 40
5.0
 41
0.0
 71
     9
 72
     1
  1

  7
DAYUS
1001
ACAD
1000
MTEXTBEGIN
1070
    73
1070
     1
1070
    44
1040
1.0
1070
    74
1070
     0
1000
MTEXTEND
  0
MTEXT
  5
21E1
330
1F
100
AcDbEntity
  8
AM_REFDIM
100
AcDbMText
 10
755.6608394056113
 20
277.1617022919267
 30
0.0
 40
5.0
 41
0.0
 71
     9
 72
     1
  1

  7
DAYUS
1001
ACAD
1000
MTEXTBEGIN
1070
    73
1070
     1
1070
    44
1040
1.0
1070
    74
1070
     0
1000
MTEXTEND
  0
MTEXT
  5
21E8
330
1F
100
AcDbEntity
  8
AM_REFDIM
100
AcDbMText
 10
749.57448324194
 20
209.4269307825009
 30
0.0
 40
5.0
 41
0.0
 71
     9
 72
     1
  1

  7
DAYUS
1001
ACAD
1000
MTEXTBEGIN
1070
    73
1070
     1
1070
    44
1040
1.0
1070
    74
1070
     0
1000
MTEXTEND
  0
MTEXT
  5
950E
330
1F
100
AcDbEntity
  8
AM_REFDIM
100
AcDbMText
 10
883.1481342807478
 20
-16.56429920726827
 30
0.0
 40
5.0
 41
0.0
 71
     9
 72
     1
  1

  7
DAYUS
1001
ACAD
1000
MTEXTBEGIN
1070
    73
1070
     1
1070
    44
1040
1.0
1070
    74
1070
     0
1000
MTEXTEND
  0
MTEXT
  5
9515
330
1F
100
AcDbEntity
  8
AM_REFDIM
100
AcDbMText
 10
877.0617781170765
 20
-84.29907071669413
 30
0.0
 40
5.0
 41
0.0
 71
     9
 72
     1
  1

  7
DAYUS
1001
ACAD
1000
MTEXTBEGIN
1070
    73
1070
     1
1070
    44
1040
1.0
1070
    74
1070
     0
1000
MTEXTEND
  0
MTEXT
  5
9538
330
1F
100
AcDbEntity
  8
AM_REFDIM
100
AcDbMText
 10
688.6757966976639
 20
-81.74823611837087
 30
0.0
 40
5.0
 41
0.0
 71
     9
 72
     1
  1

  7
DAYUS
1001
ACAD
1000
MTEXTBEGIN
1070
    73
1070
     1
1070
    44
1040
1.0
1070
    74
1070
     0
1000
MTEXTEND
  0
MTEXT
  5
D169
330
1F
100
AcDbEntity
  8
圖層2
100
AcDbMText
 10
715.61673495723
 20
206.7204113137814
 30
0.0
 40
2.4
 41
0.0
 71
     1
 72
     1
  1

  7
DAYUS
1001
ACAD
1000
MTEXTBEGIN
1070
    73
1070
     1
1070
    44
1040
1.0
1070
    74
1070
     0
1000
MTEXTEND
  0
MTEXT
  5
D16D
330
1F
100
AcDbEntity
  8
圖層2
100
AcDbMText
 10
487.3356342227076
 20
201.008806919202
 30
0.0
 40
2.4
 41
0.0
 71
     9
 72
     1
  1

  7
DAYUS
1001
ACAD
1000
MTEXTBEGIN
1070
    73
1070
     1
1070
    44
1040
1.0
1070
    74
1070
     0
1000
MTEXTEND
  0
MTEXT
  5
D622
330
1F
100
AcDbEntity
  8
AM_5
 62
     2
100
AcDbMText
 10
364.1980009625231
 20
217.5933376591914
 30
0.0
 40
3.5
 41
0.0
 71
     7
 72
     1
  1

  7
ACISOTS
1001
ACAD
1000
MTEXTBEGIN
1070
    73
1070
     1
1070
    44
1040
1.0
1070
    74
1070
     0
1000
MTEXTEND
  0
MTEXT
  5
D62D
330
1F
100
AcDbEntity
  8
AM_5
 62
     2
100
AcDbMText
 10
375.2854589832454
 20
224.3263974052412
 30
0.0
 40
3.5
 41
0.0
 71
     9
 72
     1
  1

  7
ACISOTS
1001
ACAD
1000
MTEXTBEGIN
1070
    73
1070
     1
1070
    44
1040
1.0
1070
    74
1070
     0
1000
MTEXTEND
  0
MTEXT
  5
DBAB
330
1F
100
AcDbEntity
  8
圖層2
100
AcDbMText
 10
403.5453401996071
 20
241.6457643110565
 30
0.0
 40
6.0
 41
29.7
 71
     1
 72
     1
  1

  7
ROMAND
1001
ACAD
1000
MTEXTBEGIN
1070
    73
1070
     1
1070
    44
1040
1.0
1070
    74
1070
     0
1000
MTEXTEND
  0
MTEXT
  5
DBAC
330
1F
100
AcDbEntity
  8
圖層2
100
AcDbMText
 10
405.9710179574619
 20
231.7492930806483
 30
0.0
 40
4.3125
 41
25.28999999999999
 71
     1
 72
     1
  1
{\FARIAL.TTF;}
  7
ROMAND
1001
ACAD
1000
MTEXTBEGIN
1070
    73
1070
     1
1070
    44
1040
1.0
1070
    74
1070
     0
1000
MTEXTEND
  0
DIMENSION
  5
10B0B
330
1F
100
AcDbEntity
  8
AM_5
100
AcDbDimension
  2
*D2
 10
888.6642710106244
 20
155.0630023431315
 30
0.0
 11
884.8392710106242
 21
188.6065123431315
 31
0.0
 70
    32
  3
STANDARD
100
AcDbAlignedDimension
 13
853.0357931411018
 23
222.1500223431311
 33
0.0
 14
853.0357931411018
 24
155.0630023431315
 34
0.0
 50
90.0
100
AcDbRotatedDimension
1001
ACAD
1000
DSTYLE
1002
{
1070
    40
1040
1.5
1070
    44
1040
2.0
1070
   271
1070
     0
1002
}
  0
DIMENSION
  5
10B2F
330
1F
100
AcDbEntity
  8
AM_5
100
AcDbDimension
  2
*D3
 10
888.6642710106244
 20
-37.59522793803093
 30
0.0
 11
884.8392710106242
 21
-67.65868756100219
 31
0.0
 70
    32
  1
<>
  3
STANDARD
100
AcDbAlignedDimension
 13
838.3965020896422
 23
-97.72214718397373
 33
0.0
 14
872.6173163052591
 24
-37.59522793803092
 34
0.0
 50
90.0
100
AcDbRotatedDimension
1001
ACAD
1000
DSTYLE
1002
{
1070
    40
1040
1.5
1070
    44
1040
2.0
1070
   271
1070
     0
1002
}
  0
DIMENSION
  5
10B53
330
1F
100
AcDbEntity
  8
AM_5
100
AcDbDimension
  2
*D4
 10
906.0470636562742
 20
98.72742052548984
 30
0.0
 11
902.2220636562742
 21
0.5026366707581876
 31
0.0
 70
    32
  1
<>
  3
STANDARD
100
AcDbAlignedDimension
 13
838.3965020896422
 23
-97.72214718397373
 33
0.0
 14
831.3288732561515
 24
98.72742052548986
 34
0.0
 50
90.0
100
AcDbRotatedDimension
1001
ACAD
1000
DSTYLE
1002
{
1070
    40
1040
1.5
1070
    44
1040
2.0
1070
   271
1070
     0
1002
}
  0
DIMENSION
  5
10B9B
330
1F
100
AcDbEntity
  8
AM_5
100
AcDbDimension
  2
*D5
 10
888.6642710106244
 20
-37.59522793803093
 30
0.0
 11
884.8392710106242
 21
30.56609629372959
 31
0.0
 70
    32
  1
<>
  3
STANDARD
100
AcDbAlignedDimension
 13
831.3288732561515
 23
98.72742052548986
 33
0.0
 14
872.6173163052591
 24
-37.59522793803092
 34
0.0
 50
90.0
100
AcDbRotatedDimension
1001
ACAD
1000
DSTYLE
1002
{
1070
    40
1040
1.5
1070
    44
1040
2.0
1070
   271
1070
     0
1002
}
  0
DIMENSION
  5
10C2D
330
1F
100
AcDbEntity
  8
AM_5
100
AcDbDimension
  2
*D8
 10
745.573071714606
 20
157.8582948431318
 30
0.0
 11
741.748071714606
 21
188.6065123431314
 31
0.0
 70
    32
  3
STANDARD
100
AcDbAlignedDimension
 13
763.7495404646117
 23
219.3547298431308
 33
0.0
 14
763.7495404646001
 24
157.8582948431318
 34
0.0
 50
90.0
100
AcDbRotatedDimension
1001
ACAD
1000
DSTYLE
1002
{
1070
    40
1040
1.5
1070
    44
1040
2.0
1070
   271
1070
     0
1002
}
  0
DIMENSION
  5
10C67
330
1F
100
AcDbEntity
  8
AM_5
100
AcDbDimension
  2
*D9
 10
906.0470636562742
 20
114.4665123431314
 30
0.0
 11
902.2220636562742
 21
168.3082673431314
 31
0.0
 70
    32
  3
STANDARD
100
AcDbAlignedDimension
 13
853.0357931411018
 23
222.1500223431311
 33
0.0
 14
868.7965717145983
 24
114.4665123431314
 34
0.0
 50
90.0
100
AcDbRotatedDimension
1001
ACAD
1000
DSTYLE
1002
{
1070
    40
1040
1.5
1070
    44
1040
2.0
1070
   271
1070
     0
1002
}
  0
LINE
  5
11055
330
1F
100
AcDbEntity
  8
MAIN
100
AcDbLine
 10
789.0222352492823
 20
46.12520323014189
 30
0.0
 11
796.8592626645677
 21
46.12520323014189
 31
0.0
  0
ARC
  5
11056
330
1F
100
AcDbEntity
  8
MAIN
100
AcDbCircle
 10
801.1957708598631
 20
6.810679433283041
 30
0.0
 40
20.00921195
100
AcDbArc
 50
238.7722679020955
 51
258.4855825741566
  0
ARC
  5
11057
330
1F
100
AcDbEntity
  8
MAIN
100
AcDbCircle
 10
810.2959064991276
 20
-95.94184009317842
 30
0.0
 40
34.90964674404182
100
AcDbArc
 50
88.19322363939372
 51
127.4903986231062
  0
LINE
  5
11058
330
1F
100
AcDbEntity
  8
MAIN
100
AcDbLine
 10
784.3966413395758
 20
-97.72214718397373
 30
0.0
 11
811.3965717146061
 21
-97.72214718397373
 31
0.0
  0
LINE
  5
11059
330
1F
100
AcDbEntity
  8
MAIN
100
AcDbLine
 10
795.338021854643
 20
188.6065123431081
 30
0.0
 11
794.7755868978486
 21
188.6065123431081
 31
0.0
  0
LINE
  5
1105A
330
1F
100
AcDbEntity
  8
MAIN
100
AcDbLine
 10
796.1358776164067
 20
191.2973844569875
 30
0.0
 11
794.7755868978486
 21
188.6065123431081
 31
0.0
  0
ARC
  5
1105B
330
1F
100
AcDbEntity
  8
MAIN
100
AcDbCircle
 10
811.3965717146001
 20
188.6065123431313
 30
0.0
 40
16.05854985995927
100
AcDbArc
 50
180.0000000001172
 51
210.0000000000151
  0
CIRCLE
  5
1105C
330
1F
100
AcDbEntity
  8
MAIN
100
AcDbCircle
 10
811.3965717146001
 20
188.6065123431313
 30
0.0
 40
17.57271779035969
  0
LINE
  5
1105D
330
1F
100
AcDbEntity
  8
MAIN
100
AcDbLine
 10
831.3288732561515
 20
98.72742052548984
 30
0.0
 11
791.4642701730547
 21
98.72742052548984
 31
0.0
  0
LINE
  5
1105E
330
1F
100
AcDbEntity
  8
MAIN
100
AcDbLine
 10
811.3965717146001
 20
87.54627288784041
 30
0.0
 11
784.7142875792956
 21
87.54627288783462
 31
0.0
  0
LINE
  5
11060
330
1F
100
AcDbEntity
  8
MAIN
100
AcDbLine
 10
868.5730092146002
 20
-14.14090679218776
 30
0.0
 11
760.5731733616001
 21
-14.14090679218776
 31
0.0
  0
LINE
  5
11061
330
1F
100
AcDbEntity
  8
AM_7
  6
CENTER
100
AcDbLine
 10
756.9009014396647
 20
-37.59522793803094
 30
0.0
 11
871.6002399188411
 21
-37.59522793803091
 31
0.0
  0
LINE
  5
11062
330
1F
100
AcDbEntity
  8
MAIN
100
AcDbLine
 10
868.5730092146002
 20
-61.04954908387412
 30
0.0
 11
760.5731733609413
 21
-61.04954908387412
 31
0.0
  0
LINE
  5
11063
330
1F
100
AcDbEntity
  8
MAIN
100
AcDbLine
 10
788.7833359099145
 20
44.09226729602119
 30
0.0
 11
834.0098075192917
 21
44.09226729602119
 31
0.0
  0
LINE
  5
11064
330
1F
100
AcDbEntity
  8
MAIN
100
AcDbLine
 10
788.7833359099145
 20
41.79092028935338
 30
0.0
 11
834.0098075192917
 21
41.79092028935338
 31
0.0
  0
LINE
  5
11065
330
1F
100
AcDbEntity
  8
MAIN
100
AcDbLine
 10
784.9938162702017
 20
44.09226729601835
 30
0.0
 11
837.7993271590046
 21
44.09226729602409
 31
0.0
  0
LINE
  5
11066
330
1F
100
AcDbEntity
  8
MAIN
100
AcDbLine
 10
840.4929672717068
 20
12.97405342320206
 30
0.0
 11
782.3001761575458
 21
12.97405342320206
 31
0.0
  0
LINE
  5
11067
330
1F
100
AcDbEntity
  8
MAIN
100
AcDbLine
 10
838.3965020896422
 20
-88.31981848867195
 30
0.0
 11
784.3966413395698
 21
-88.31981848867195
 31
0.0
  0
LINE
  5
11068
330
1F
100
AcDbEntity
  8
MAIN
100
AcDbLine
 10
838.8412068252209
 20
-88.31981848867195
 30
0.0
 11
783.9519366039851
 21
-88.31981848867195
 31
0.0
  0
LINE
  5
11069
330
1F
100
AcDbEntity
  8
MAIN
100
AcDbLine
 10
838.8412068252209
 20
-88.31981848867195
 30
0.0
 11
783.9519366039851
 21
-88.31981848867195
 31
0.0
  0
LINE
  5
1106A
330
1F
100
AcDbEntity
  8
MAIN
100
AcDbLine
 10
840.5373832135889
 20
-86.62364210033013
 30
0.0
 11
782.2557602156578
 21
-86.6236421003099
 31
0.0
  0
LINE
  5
1106B
330
1F
100
AcDbEntity
  8
MAIN
100
AcDbLine
 10
763.7495404646117
 20
219.3547298431308
 30
0.0
 11
865.3965404646003
 21
219.3547298431322
 31
0.0
  0
LINE
  5
1106C
330
1F
100
AcDbEntity
  8
AM_7
  6
CENTER
100
AcDbLine
 10
755.6288471145092
 20
188.6065123431313
 30
0.0
 11
874.3364911175831
 21
188.6065123431313
 31
0.0
  0
CIRCLE
  5
1106D
330
1F
100
AcDbEntity
  8
MAIN
100
AcDbCircle
 10
811.3965717146001
 20
188.6065123431313
 30
0.0
 40
20.05261737540119
  0
LINE
  5
1106E
330
1F
100
AcDbEntity
  8
MAIN
100
AcDbLine
 10
763.7495404646001
 20
157.8582948431318
 30
0.0
 11
841.8906717146015
 21
157.8582948431318
 31
0.0
  0
CIRCLE
  5
1106F
330
1F
100
AcDbEntity
  8
MAIN
100
AcDbCircle
 10
811.3965717146001
 20
188.6065123431313
 30
0.0
 40
29.09645374999954
  0
CIRCLE
  5
11070
330
1F
100
AcDbEntity
  8
MAIN
100
AcDbCircle
 10
811.3965717146001
 20
188.6065123431313
 30
0.0
 40
24.26822124999815
  0
CIRCLE
  5
11071
330
1F
100
AcDbEntity
  8
MAIN
100
AcDbCircle
 10
811.3965717146001
 20
188.6065123431313
 30
0.0
 40
27.44469
  0
LINE
  5
11072
330
1F
100
AcDbEntity
  8
MAIN
100
AcDbLine
 10
784.7142875792956
 20
87.54627288784041
 30
0.0
 11
838.0788558499107
 21
87.54627288783462
 31
0.0
  0
ARC
  5
11073
330
1F
100
AcDbEntity
  8
MAIN
100
AcDbCircle
 10
764.5750157516424
 20
-11.3571483079954
 30
0.0
 40
4.00184239
100
AcDbArc
 50
90.0
 51
179.9999999991988
  0
ARC
  5
11074
330
1F
100
AcDbEntity
  8
MAIN
100
AcDbCircle
 10
764.5750157509028
 20
-63.83330756806646
 30
0.0
 40
4.00184239
100
AcDbArc
 50
179.9999999991988
 51
270.0
  0
LINE
  5
11075
330
1F
100
AcDbEntity
  8
MAIN
100
AcDbLine
 10
760.5731733609009
 20
-63.83330756801161
 30
0.0
 11
760.5731733616403
 21
-11.35714830794049
 31
0.0
  0
LINE
  5
11076
330
1F
100
AcDbEntity
  8
MAIN
100
AcDbLine
 10
781.767833148273
 20
-7.355305917999203
 30
0.0
 11
782.3001761575458
 21
12.97405342320206
 31
0.0
  0
LINE
  5
11077
330
1F
100
AcDbEntity
  8
MAIN
100
AcDbLine
 10
781.7678331482556
 20
-7.355305917996304
 30
0.0
 11
764.5750157516424
 21
-7.355305917996304
 31
0.0
  0
ARC
  5
11078
330
1F
100
AcDbEntity
  8
MAIN
100
AcDbCircle
 10
778.0224595028555
 20
-71.83699234806756
 30
0.0
 40
4.00184239
100
AcDbArc
 50
1.500000000103751
 51
90.0
  0
LINE
  5
11079
330
1F
100
AcDbEntity
  8
MAIN
100
AcDbLine
 10
778.0224595028555
 20
-67.83514995806848
 30
0.0
 11
764.5750157509028
 21
-67.83514995806848
 31
0.0
  0
ARC
  5
1107A
330
1F
100
AcDbEntity
  8
MAIN
100
AcDbCircle
 10
784.398564065377
 20
-62.5731488363001
 30
0.0
 40
7.332683734847983
100
AcDbArc
 50
240.7432643284867
 51
309.3601637312597
  0
LINE
  5
1107B
330
1F
100
AcDbEntity
  8
MAIN
100
AcDbLine
 10
784.3966413395758
 20
-88.31981848867195
 30
0.0
 11
784.3966413395758
 21
-97.72214718397373
 31
0.0
  0
LINE
  5
1107C
330
1F
100
AcDbEntity
  8
MAIN
100
AcDbLine
 10
783.9519366039851
 20
-88.31981848867195
 30
0.0
 11
782.2557602156578
 21
-86.62364210032434
 31
0.0
  0
LINE
  5
1107D
330
1F
100
AcDbEntity
  8
MAIN
100
AcDbLine
 10
782.0229305614161
 20
-71.73223632668032
 30
0.0
 11
782.2557602156578
 21
-86.6236421003099
 31
0.0
  0
LINE
  5
1107E
330
1F
100
AcDbEntity
  8
MAIN
100
AcDbLine
 10
784.3966413395758
 20
-88.31981848867195
 30
0.0
 11
786.0484017860499
 21
-88.31981848867195
 31
0.0
  0
LINE
  5
1107F
330
1F
100
AcDbEntity
  8
MAIN
100
AcDbLine
 10
793.2406506564559
 20
-97.72214718397373
 30
0.0
 11
793.2406506564559
 21
-88.31981848867195
 31
0.0
  0
ARC
  5
11080
330
1F
100
AcDbEntity
  8
MAIN
100
AcDbCircle
 10
780.0261366698984
 20
-28.10638896732294
 30
0.0
 40
20.82404750145224
100
AcDbArc
 50
58.77226790218692
 51
85.20225003921268
  0
LINE
  5
11081
330
1F
100
AcDbEntity
  8
MAIN
100
AcDbLine
 10
790.1437598239883
 20
87.54627288784041
 30
0.0
 11
790.1437598239883
 21
46.12520323014189
 31
0.0
  0
LINE
  5
11082
330
1F
100
AcDbEntity
  8
MAIN
100
AcDbLine
 10
789.0222352492823
 20
87.54627288783462
 30
0.0
 11
789.0222352492823
 21
46.12520323014769
 31
0.0
  0
LINE
  5
11084
330
1F
100
AcDbEntity
  8
MAIN
100
AcDbLine
 10
785.5721863884209
 20
87.54627288783462
 30
0.0
 11
785.5721863884209
 21
46.12520323014189
 31
0.0
  0
LINE
  5
11085
330
1F
100
AcDbEntity
  8
MAIN
100
AcDbLine
 10
787.9202361460993
 20
87.54627288784041
 30
0.0
 11
787.9202361460993
 21
46.12520323014189
 31
0.0
  0
LINE
  5
11086
330
1F
100
AcDbEntity
  8
MAIN
100
AcDbLine
 10
784.7142875792956
 20
44.37179598695911
 30
0.0
 11
784.7142875792956
 21
87.54627288784041
 31
0.0
  0
LINE
  5
11087
330
1F
100
AcDbEntity
  8
MAIN
100
AcDbLine
 10
784.7142875792956
 20
46.12520323014189
 30
0.0
 11
787.9202361460993
 21
46.12520323014189
 31
0.0
  0
ARC
  5
11088
330
1F
100
AcDbEntity
  8
MAIN
100
AcDbCircle
 10
785.6948445444002
 20
16.24156705531294
 30
0.0
 40
1.33411420676625
100
AcDbArc
 50
314.9999999998652
 51
358.5000000000102
  0
ARC
  5
11089
330
1F
100
AcDbEntity
  8
MAIN
100
AcDbCircle
 10
785.6948445444002
 20
16.24156705531294
 30
0.0
 40
1.33411420676625
100
AcDbArc
 50
314.9999999998652
 51
358.5000000000102
  0
LINE
  5
1108A
330
1F
100
AcDbEntity
  8
MAIN
100
AcDbLine
 10
786.6382057468738
 20
15.29820585282209
 30
0.0
 11
784.314053317245
 21
12.97405342320206
 31
0.0
  0
LINE
  5
1108B
330
1F
100
AcDbEntity
  8
MAIN
100
AcDbLine
 10
786.6382057468738
 20
15.29820585282209
 30
0.0
 11
784.314053317245
 21
12.97405342320206
 31
0.0
  0
LINE
  5
1108C
330
1F
100
AcDbEntity
  8
MAIN
100
AcDbLine
 10
785.6481675240165
 20
14.30816762995053
 30
0.0
 11
785.6481675240165
 21
12.97405342320206
 31
0.0
  0
ARC
  5
1108D
330
1F
100
AcDbEntity
  8
MAIN
100
AcDbCircle
 10
784.9938162702017
 20
44.37179598695911
 30
0.0
 40
0.2795286909415001
100
AcDbArc
 50
180.0
 51
270.0
  0
LINE
  5
1108E
330
1F
100
AcDbEntity
  8
MAIN
100
AcDbLine
 10
788.7833359099145
 20
44.09226729602119
 30
0.0
 11
788.7833359099145
 21
41.79092028935338
 31
0.0
  0
LINE
  5
1108F
330
1F
100
AcDbEntity
  8
MAIN
100
AcDbLine
 10
787.6984494354242
 20
41.79092028935338
 30
0.0
 11
788.7833359099145
 21
41.79092028935338
 31
0.0
  0
LINE
  5
11090
330
1F
100
AcDbEntity
  8
MAIN
100
AcDbLine
 10
787.6984494354242
 20
41.79092028935338
 30
0.0
 11
787.0285015835434
 21
16.20664401666482
 31
0.0
  0
LINE
  5
11091
330
1F
100
AcDbEntity
  8
MAIN
100
AcDbLine
 10
787.6984494354242
 20
41.79092028935338
 30
0.0
 11
787.0285015835434
 21
16.20664401666482
 31
0.0
  0
ARC
  5
11092
330
1F
100
AcDbEntity
  8
MAIN
100
AcDbCircle
 10
791.4642701730547
 20
91.97743793173083
 30
0.0
 40
6.749982593757812
100
AcDbArc
 50
90.0
 51
180.0
  0
LINE
  5
11093
330
1F
100
AcDbEntity
  8
MAIN
100
AcDbLine
 10
784.7142875792956
 20
87.54627288783462
 30
0.0
 11
784.7142875792956
 21
91.97743793173083
 31
0.0
  0
ARC
  5
11094
330
1F
100
AcDbEntity
  8
MAIN
100
AcDbCircle
 10
763.7495404646117
 20
216.1782610931307
 30
0.0
 40
3.17646875
100
AcDbArc
 50
90.0
 51
179.9999999999934
  0
ARC
  5
11095
330
1F
100
AcDbEntity
  8
MAIN
100
AcDbCircle
 10
763.7495404646001
 20
161.0347635931318
 30
0.0
 40
3.17646875
100
AcDbArc
 50
179.9999999999934
 51
270.0
  0
LINE
  5
11096
330
1F
100
AcDbEntity
  8
MAIN
100
AcDbLine
 10
760.5730717146118
 20
216.1782610931307
 30
0.0
 11
760.5730717146002
 21
161.0347635931318
 31
0.0
  0
ARC
  5
11097
330
1F
100
AcDbEntity
  8
MAIN
100
AcDbCircle
 10
811.3965717146001
 20
188.6065123431313
 30
0.0
 40
33.67056875
100
AcDbArc
 50
185.1687899271894
 51
209.8752491279747
  0
ARC
  5
11098
330
1F
100
AcDbEntity
  8
MAIN
100
AcDbCircle
 10
811.3965717146001
 20
188.6065123431313
 30
0.0
 40
33.67056875
100
AcDbArc
 50
150.1247508720252
 51
174.831210072809
  0
LINE
  5
11099
330
1F
100
AcDbEntity
  8
MAIN
100
AcDbLine
 10
773.6760053083503
 20
192.9741568743827
 30
0.0
 11
773.6760053083503
 21
190.7665110931308
 31
0.0
  0
LINE
  5
1109A
330
1F
100
AcDbEntity
  8
MAIN
100
AcDbLine
 10
773.676005308356
 20
192.974156874377
 30
0.0
 11
778.0436498396002
 21
188.6065123431313
 31
0.0
  0
LINE
  5
1109B
330
1F
100
AcDbEntity
  8
MAIN
100
AcDbLine
 10
765.3377748396003
 20
186.4465135931304
 30
0.0
 11
773.6760053083503
 21
186.4465135931318
 31
0.0
  0
LINE
  5
1109C
330
1F
100
AcDbEntity
  8
MAIN
100
AcDbLine
 10
765.3377748396003
 20
190.7665110931308
 30
0.0
 11
773.676005308356
 21
190.7665110931308
 31
0.0
  0
LINE
  5
1109D
330
1F
100
AcDbEntity
  8
MAIN
100
AcDbLine
 10
765.3377748396003
 20
190.7665110931308
 30
0.0
 11
765.3377748396003
 21
186.4465135931304
 31
0.0
  0
LINE
  5
1109E
330
1F
100
AcDbEntity
  8
MAIN
100
AcDbLine
 10
778.0436498396002
 20
188.6065123431313
 30
0.0
 11
772.9496311102487
 21
188.6065123431313
 31
0.0
  0
LINE
  5
1109F
330
1F
100
AcDbEntity
  8
MAIN
100
AcDbLine
 10
773.676005308356
 20
184.2388678118856
 30
0.0
 11
778.0436498396002
 21
188.6065123431313
 31
0.0
  0
LINE
  5
110A0
330
1F
100
AcDbEntity
  8
MAIN
100
AcDbLine
 10
773.6760053083503
 20
184.2388678118799
 30
0.0
 11
773.6760053083503
 21
186.4465135931318
 31
0.0
  0
ARC
  5
110A1
330
1F
100
AcDbEntity
  8
MAIN
100
AcDbCircle
 10
776.2811442784754
 20
191.7829810931312
 30
0.0
 40
1.588234375
100
AcDbArc
 50
270.0
 51
354.8312100728203
  0
ARC
  5
110A2
330
1F
100
AcDbEntity
  8
MAIN
100
AcDbCircle
 10
776.2811442784754
 20
185.4300435931327
 30
0.0
 40
1.588234375
100
AcDbArc
 50
5.168789927179644
 51
90.0
  0
ARC
  5
110A3
330
1F
100
AcDbEntity
  8
MAIN
100
AcDbCircle
 10
811.3965717146001
 20
188.6065123431313
 30
0.0
 40
31.12939375
100
AcDbArc
 50
147.3996786354389
 51
212.6003213645596
  0
LINE
  5
110A4
330
1F
100
AcDbEntity
  8
MAIN
100
AcDbLine
 10
782.2004172731603
 20
171.8347573431307
 30
0.0
 11
787.6202840513458
 21
171.8347573431307
 31
0.0
  0
LINE
  5
110A5
330
1F
100
AcDbEntity
  8
MAIN
100
AcDbLine
 10
782.2004172731603
 20
205.3782673431319
 30
0.0
 11
787.6202840513458
 21
205.3782673431319
 31
0.0
  0
ARC
  5
110AC
330
1F
100
AcDbEntity
  8
MAIN
100
AcDbCircle
 10
864.571166824604
 20
-11.35714830799537
 30
0.0
 40
4.00184239
100
AcDbArc
 50
0.0000000000032569
 51
90.0
  0
ARC
  5
110AD
330
1F
100
AcDbEntity
  8
MAIN
100
AcDbCircle
 10
864.571166824604
 20
-63.83330756806646
 30
0.0
 40
4.00184239
100
AcDbArc
 50
270.0
 51
0.0
  0
LINE
  5
110AF
330
1F
100
AcDbEntity
  8
MAIN
100
AcDbLine
 10
838.0788558499107
 20
87.54627288783462
 30
0.0
 11
811.3965717146001
 21
87.54627288784041
 31
0.0
  0
LINE
  5
110B0
330
1F
100
AcDbEntity
  8
MAIN
100
AcDbLine
 10
825.9338807646386
 20
46.12520323013609
 30
0.0
 11
833.7709081799181
 21
46.12520323013035
 31
0.0
  0
ARC
  5
110B1
330
1F
100
AcDbEntity
  8
MAIN
100
AcDbCircle
 10
821.5973725697072
 20
6.81067943308659
 30
0.0
 40
20.00921195
100
AcDbArc
 50
281.5144174247796
 51
301.2277320967159
  0
ARC
  5
110B2
330
1F
100
AcDbEntity
  8
MAIN
100
AcDbCircle
 10
812.4972369306913
 20
-95.94184009313801
 30
0.0
 40
34.90964674404182
100
AcDbArc
 50
52.50960137899683
 51
91.80677636269173
  0
LINE
  5
110B3
330
1F
100
AcDbEntity
  8
MAIN
100
AcDbLine
 10
838.3965020896422
 20
-97.72214718397373
 30
0.0
 11
811.3965717146061
 21
-97.72214718397373
 31
0.0
  0
CIRCLE
  5
110B4
330
1F
100
AcDbEntity
  8
MAIN
100
AcDbCircle
 10
841.8906107263703
 20
-37.59522793803094
 30
0.0
 40
15.41461719356249
  0
LINE
  5
110B5
330
1F
100
AcDbEntity
  8
AM_7
  6
CENTER
100
AcDbLine
 10
811.3965717146001
 20
103.5122694960378
 30
0.0
 11
811.3965717146001
 21
-101.4641197784073
 31
0.0
  0
ARC
  5
110B6
330
1F
100
AcDbEntity
  8
MAIN
100
AcDbCircle
 10
812.2024266633861
 20
52.92891037551953
 30
0.0
 40
67.07465823325851
100
AcDbArc
 50
269.3116148553279
 51
281.5144174247796
  0
LINE
  5
110B7
330
1F
100
AcDbEntity
  8
MAIN
100
AcDbLine
 10
800.9431626205145
 20
-97.72214718397373
 30
0.0
 11
800.9431626205206
 21
-88.31981848867195
 31
0.0
  0
ARC
  5
110B8
330
1F
100
AcDbEntity
  8
MAIN
100
AcDbCircle
 10
810.5907167670739
 20
52.92891037553693
 30
0.0
 40
67.07465823325851
100
AcDbArc
 50
258.4855825741566
 51
270.6883851435255
  0
LINE
  5
110B9
330
1F
100
AcDbEntity
  8
MAIN
100
AcDbLine
 10
821.8499808086857
 20
-97.72214718397373
 30
0.0
 11
821.8499808086857
 21
-88.31981848867195
 31
0.0
  0
LINE
  5
110BA
330
1F
100
AcDbEntity
  8
MAIN
100
AcDbLine
 10
809.1730480366246
 20
87.54627288784041
 30
0.0
 11
809.1730480366246
 21
46.12520323014189
 31
0.0
  0
LINE
  5
110BB
330
1F
100
AcDbEntity
  8
MAIN
100
AcDbLine
 10
800.4100070425424
 20
87.54627288783462
 30
0.0
 11
800.4100070425424
 21
46.12520323014189
 31
0.0
  0
LINE
  5
110BD
330
1F
100
AcDbEntity
  8
MAIN
100
AcDbLine
 10
809.9940610072469
 20
87.54627288784041
 30
0.0
 11
809.9940610072469
 21
46.12520323013609
 31
0.0
  0
LINE
  5
110BE
330
1F
100
AcDbEntity
  8
MAIN
100
AcDbLine
 10
799.2884824678367
 20
87.54627288784041
 30
0.0
 11
799.2884824678367
 21
46.12520323014189
 31
0.0
  0
LINE
  5
110BF
330
1F
100
AcDbEntity
  8
MAIN
100
AcDbLine
 10
796.8592626645677
 20
87.54627288783462
 30
0.0
 11
796.8592626645677
 21
46.12520323014189
 31
0.0
  0
LINE
  5
110C0
330
1F
100
AcDbEntity
  8
MAIN
100
AcDbLine
 10
799.2884824678367
 20
46.12520323014189
 30
0.0
 11
809.9940610072469
 21
46.12520323014189
 31
0.0
  0
LINE
  5
110C1
330
1F
100
AcDbEntity
  8
MAIN
100
AcDbLine
 10
803.9383175624502
 20
35.30894043049153
 30
0.0
 11
803.3534579630234
 21
12.97405342320206
 31
0.0
  0
LINE
  5
110C2
330
1F
100
AcDbEntity
  8
MAIN
100
AcDbLine
 10
809.5122688089682
 20
36.12093491058135
 30
0.0
 11
804.7718532119167
 21
36.12093491058135
 31
0.0
  0
ARC
  5
110C3
330
1F
100
AcDbEntity
  8
MAIN
100
AcDbCircle
 10
804.7718532119167
 20
35.28711353135418
 30
0.0
 40
0.8338213792289062
100
AcDbArc
 50
90.0
 51
178.5000000000102
  0
ARC
  5
110C4
330
1F
100
AcDbEntity
  8
MAIN
100
AcDbCircle
 10
809.5122688089682
 20
36.95475628980853
 30
0.0
 40
0.8338213792289062
100
AcDbArc
 50
270.0
 51
330.3276119825238
  0
LINE
  5
110C6
330
1F
100
AcDbEntity
  8
MAIN
100
AcDbLine
 10
822.3831363866636
 20
87.54627288783462
 30
0.0
 11
822.3831363866636
 21
46.12520323013609
 31
0.0
  0
LINE
  5
110C7
330
1F
100
AcDbEntity
  8
MAIN
100
AcDbLine
 10
813.6200953925818
 20
87.54627288784041
 30
0.0
 11
813.6200953925818
 21
46.12520323013609
 31
0.0
  0
LINE
  5
110C8
330
1F
100
AcDbEntity
  8
MAIN
100
AcDbLine
 10
825.9338807646386
 20
87.54627288784041
 30
0.0
 11
825.9338807646386
 21
46.12520323013609
 31
0.0
  0
LINE
  5
110C9
330
1F
100
AcDbEntity
  8
MAIN
100
AcDbLine
 10
812.7990824219651
 20
87.54627288783462
 30
0.0
 11
812.7990824219651
 21
46.12520323014189
 31
0.0
  0
LINE
  5
110CA
330
1F
100
AcDbEntity
  8
MAIN
100
AcDbLine
 10
823.5046609613696
 20
87.54627288783462
 30
0.0
 11
823.5046609613696
 21
46.12520323014189
 31
0.0
  0
LINE
  5
110CB
330
1F
100
AcDbEntity
  8
MAIN
100
AcDbLine
 10
812.7990824219651
 20
46.12520323013609
 30
0.0
 11
823.5046609613696
 21
46.12520323013609
 31
0.0
  0
LINE
  5
110CC
330
1F
100
AcDbEntity
  8
MAIN
100
AcDbLine
 10
818.0212902172893
 20
36.12093491058135
 30
0.0
 11
813.280874620244
 21
36.12093491058135
 31
0.0
  0
ARC
  5
110CD
330
1F
100
AcDbEntity
  8
MAIN
100
AcDbCircle
 10
813.280874620244
 20
36.95475628980853
 30
0.0
 40
0.8338213792289062
100
AcDbArc
 50
209.6723880170517
 51
269.9999999998957
  0
ARC
  5
110CE
330
1F
100
AcDbEntity
  8
MAIN
100
AcDbCircle
 10
818.0212902172893
 20
35.28711353135418
 30
0.0
 40
0.8338213792289062
100
AcDbArc
 50
1.4999999999898
 51
90.0
  0
LINE
  5
110CF
330
1F
100
AcDbEntity
  8
MAIN
100
AcDbLine
 10
818.8548258667504
 20
35.30894043049153
 30
0.0
 11
819.4396854661828
 21
12.97405342320206
 31
0.0
  0
LINE
  5
110D0
330
1F
100
AcDbEntity
  8
MAIN
100
AcDbLine
 10
841.0253102809795
 20
-7.355305917996304
 30
0.0
 11
840.4929672717068
 21
12.97405342320206
 31
0.0
  0
LINE
  5
110D1
330
1F
100
AcDbEntity
  8
MAIN
100
AcDbLine
 10
841.0253102878785
 20
-7.355305917993405
 30
0.0
 11
864.571166824604
 21
-7.355305917996304
 31
0.0
  0
ARC
  5
110D2
330
1F
100
AcDbEntity
  8
MAIN
100
AcDbCircle
 10
844.7706839260677
 20
-71.83699234683974
 30
0.0
 40
4.00184239
100
AcDbArc
 50
90.00000000208441
 51
178.5000000020089
  0
CIRCLE
  5
110D3
330
1F
100
AcDbEntity
  8
MAIN
100
AcDbCircle
 10
841.8906107263703
 20
-37.59522793803094
 30
0.0
 40
9.298809297235344
  0
CIRCLE
  5
110D4
330
1F
100
AcDbEntity
  8
MAIN
100
AcDbCircle
 10
841.8906107263703
 20
-37.59522793803094
 30
0.0
 40
10.56200665210993
  0
LINE
  5
110D5
330
1F
100
AcDbEntity
  8
AM_7
  6
CENTER
100
AcDbLine
 10
841.8906107263703
 20
-57.14139914811773
 30
0.0
 11
841.8906107263703
 21
-18.36179577061025
 31
0.0
  0
ARC
  5
110D6
330
1F
100
AcDbEntity
  8
MAIN
100
AcDbCircle
 10
838.3945793632051
 20
-62.57314883530631
 30
0.0
 40
7.332683734847983
100
AcDbArc
 50
230.6398362708796
 51
299.2567356736498
  0
LINE
  5
110D7
330
1F
100
AcDbEntity
  8
MAIN
100
AcDbLine
 10
829.5524927727562
 20
-97.72214718397373
 30
0.0
 11
829.5524927727562
 21
-88.31981848867195
 31
0.0
  0
LINE
  5
110D8
330
1F
100
AcDbEntity
  8
MAIN
100
AcDbLine
 10
838.3965020896422
 20
-88.31981848867195
 30
0.0
 11
838.3965020896422
 21
-97.72214718397373
 31
0.0
  0
LINE
  5
110D9
330
1F
100
AcDbEntity
  8
MAIN
100
AcDbLine
 10
838.8412068252209
 20
-88.31981848866911
 30
0.0
 11
840.5373832135889
 21
-86.62364210032434
 31
0.0
  0
LINE
  5
110DA
330
1F
100
AcDbEntity
  8
MAIN
100
AcDbLine
 10
840.7702141809824
 20
-71.7321861779223
 30
0.0
 11
840.5373832135889
 21
-86.62364210033013
 31
0.0
  0
ARC
  5
110DB
330
1F
100
AcDbEntity
  8
MAIN
100
AcDbCircle
 10
842.7670067589955
 20
-28.10638896792963
 30
0.0
 40
20.82404750145224
100
AcDbArc
 50
94.79774995963687
 51
121.227732096715
  0
LINE
  5
110DC
330
1F
100
AcDbEntity
  8
MAIN
100
AcDbLine
 10
844.7705848141666
 20
-67.83514995806559
 30
0.0
 11
864.571166824604
 21
-67.83514995806559
 31
0.0
  0
LINE
  5
110DD
330
1F
100
AcDbEntity
  8
MAIN
100
AcDbLine
 10
837.220957040693
 20
87.54627288783462
 30
0.0
 11
837.220957040693
 21
46.12520323013035
 31
0.0
  0
LINE
  5
110DE
330
1F
100
AcDbEntity
  8
MAIN
100
AcDbLine
 10
834.8729072831069
 20
87.54627288783462
 30
0.0
 11
834.8729072831069
 21
46.12520323013035
 31
0.0
  0
LINE
  5
110DF
330
1F
100
AcDbEntity
  8
MAIN
100
AcDbLine
 10
832.6493836051254
 20
87.54627288783462
 30
0.0
 11
832.6493836051254
 21
46.12520323013035
 31
0.0
  0
LINE
  5
110E1
330
1F
100
AcDbEntity
  8
MAIN
100
AcDbLine
 10
833.7709081799181
 20
87.54627288783462
 30
0.0
 11
833.7709081799181
 21
46.12520323013035
 31
0.0
  0
LINE
  5
110E2
330
1F
100
AcDbEntity
  8
MAIN
100
AcDbLine
 10
838.0788558499107
 20
44.37179598696491
 30
0.0
 11
838.0788558499107
 21
87.54627288783462
 31
0.0
  0
LINE
  5
110E3
330
1F
100
AcDbEntity
  8
MAIN
100
AcDbLine
 10
834.8729072831069
 20
46.12520323013035
 30
0.0
 11
838.0788558499107
 21
46.12520323013609
 31
0.0
  0
LINE
  5
110E5
330
1F
100
AcDbEntity
  8
MAIN
100
AcDbLine
 10
836.1549376823267
 20
15.29820585282209
 30
0.0
 11
838.4790901119554
 21
12.97405342320206
 31
0.0
  0
LINE
  5
110E6
330
1F
100
AcDbEntity
  8
MAIN
100
AcDbLine
 10
834.0098075192917
 20
44.09226729602119
 30
0.0
 11
834.0098075192917
 21
41.79092028935338
 31
0.0
  0
LINE
  5
110E7
330
1F
100
AcDbEntity
  8
MAIN
100
AcDbLine
 10
835.0946939937822
 20
41.79092028935338
 30
0.0
 11
834.0098075192917
 21
41.79092028935338
 31
0.0
  0
ARC
  5
110E8
330
1F
100
AcDbEntity
  8
MAIN
100
AcDbCircle
 10
837.098298884806
 20
16.24156705531294
 30
0.0
 40
1.33411420676625
100
AcDbArc
 50
181.4999999999898
 51
225.0000000001347
  0
LINE
  5
110E9
330
1F
100
AcDbEntity
  8
MAIN
100
AcDbLine
 10
835.0946939937822
 20
41.79092028935338
 30
0.0
 11
835.7646418456569
 21
16.20664401666482
 31
0.0
  0
LINE
  5
110EA
330
1F
100
AcDbEntity
  8
MAIN
100
AcDbLine
 10
837.1449759051895
 20
14.30816762995053
 30
0.0
 11
837.1449759051895
 21
12.97405342320206
 31
0.0
  0
ARC
  5
110EB
330
1F
100
AcDbEntity
  8
MAIN
100
AcDbCircle
 10
837.7993271590046
 20
44.37179598696491
 30
0.0
 40
0.2795286909415001
100
AcDbArc
 50
270.0
 51
0.0
  0
ARC
  5
110EC
330
1F
100
AcDbEntity
  8
MAIN
100
AcDbCircle
 10
831.3288732561515
 20
91.97743793173083
 30
0.0
 40
6.749982593757812
100
AcDbArc
 50
0.0
 51
90.0
  0
LINE
  5
110ED
330
1F
100
AcDbEntity
  8
MAIN
100
AcDbLine
 10
838.0788558499107
 20
87.54627288783462
 30
0.0
 11
838.0788558499107
 21
91.97743793173083
 31
0.0
  0
LINE
  5
110EE
330
1F
100
AcDbEntity
  8
MAIN
100
AcDbLine
 10
868.5730092146002
 20
-63.83330756806646
 30
0.0
 11
868.5730092146002
 21
-11.35714830799537
 31
0.0
  0
LINE
  5
110EF
330
1F
100
AcDbEntity
  8
MAIN
100
AcDbLine
 10
841.8906717145954
 20
157.8582948431318
 30
0.0
 11
865.3965404646003
 21
157.8582948431289
 31
0.0
  0
LINE
  5
110F0
330
1F
100
AcDbEntity
  8
MAIN
100
AcDbLine
 10
827.4551211092466
 20
188.6026464870451
 30
0.0
 11
828.0175560497474
 21
188.6025110892185
 31
0.0
  0
LINE
  5
110F1
330
1F
100
AcDbEntity
  8
MAIN
100
AcDbLine
 10
826.6579131578792
 20
191.2937105948
 30
0.0
 11
828.0175560497474
 21
188.6025110892185
 31
0.0
  0
CIRCLE
  5
110FC
330
1F
100
AcDbEntity
  8
MAIN
100
AcDbCircle
 10
811.3965717146001
 20
188.6065123431313
 30
0.0
 40
13.52318610137653
  0
CIRCLE
  5
110FE
330
1F
100
AcDbEntity
  8
MAIN
100
AcDbCircle
 10
811.3965717146001
 20
188.6065123431313
 30
0.0
 40
12.40011597963187
  0
CIRCLE
  5
110FF
330
1F
100
AcDbEntity
  8
MAIN
100
AcDbCircle
 10
811.3965717146001
 20
188.6065123431313
 30
0.0
 40
12.40011597963187
  0
LINE
  5
11109
330
1F
100
AcDbEntity
  8
MAIN
100
AcDbLine
 10
795.9200281854442
 20
191.5888886557915
 30
0.0
 11
796.1529383909788
 21
192.4581213764035
 31
0.0
  0
LINE
  5
1110A
330
1F
100
AcDbEntity
  8
MAIN
100
AcDbLine
 10
796.35464454575
 20
191.4724335530358
 30
0.0
 11
796.587554751273
 21
192.3416662736478
 31
0.0
  0
INSERT
  5
1110B
330
1F
100
AcDbEntity
  8
MAIN
  6
CONTINUOUS
100
AcDbBlockReference
  2
*U12
 10
0.0
 20
0.0
 30
0.0
1001
ACAD
1002
{
1000
R14_HATCH_DATA
1000
1110B
1011
1.0
1021
0.0
1031
0.0
1011
0.0
1021
1.0
1031
0.0
1011
0.0
1021
0.0
1031
1.0
1040
0.0
1010
0.0
1020
0.0
1030
1.0
1000
SOLID
1070
     1
1070
     0
1071
        1
1071
        7
1070
     0
1070
     1
1071
       12
1040
796.5875547512624
1040
192.3416662736476
1040
797.4567874718741
1040
192.1087560680903
1040
797.5732425746646
1040
192.5433724283962
1040
796.7040098540419
1040
192.7762826339535
1040
796.9369200595502
1040
193.6455153545653
1040
796.5023036992461
1040
193.7619704572975
1040
796.2693934937342
1040
192.8927377366858
1040
795.4001607731225
1040
193.1256479422195
1040
795.2837056703684
1040
192.6910315819136
1040
796.1529383909546
1040
192.4581213763799
1040
795.9200281854427
1040
191.5888886557682
1040
796.3546445457504
1040
191.4724335530358
1071
        0
1070
     0
1070
     1
1040
0.0023665124960051
1071
        1
1040
796.6159931596521
1040
192.5409412480789
1040
0.0
1002
}
  0
LINE
  5
1110C
330
1F
100
AcDbEntity
  8
AM_7
  6
CENTER
100
AcDbLine
 10
811.3965717146001
 20
151.4443554810756
 30
0.0
 11
811.3965717146001
 21
225.2589047473386
 31
0.0
  0
LINE
  5
11112
330
1F
100
AcDbEntity
  8
MAIN
100
AcDbLine
 10
796.35464454575
 20
191.4724335530358
 30
0.0
 11
795.9200281854442
 21
191.5888886557915
 31
0.0
  0
LINE
  5
11113
330
1F
100
AcDbEntity
  8
MAIN
100
AcDbLine
 10
797.0253267250495
 20
188.6065123431081
 30
0.0
 11
796.462891768255
 21
188.6065123431081
 31
0.0
  0
LINE
  5
11114
330
1F
100
AcDbEntity
  8
MAIN
100
AcDbLine
 10
796.1358776164067
 20
191.2973844569875
 30
0.0
 11
797.0253267250495
 21
188.6065123431081
 31
0.0
  0
LINE
  5
11115
330
1F
100
AcDbEntity
  8
MAIN
100
AcDbLine
 10
798.463625509077
 20
181.1396723699587
 30
0.0
 11
797.489459587937
 21
180.5772374131642
 31
0.0
  0
ARC
  5
11116
330
1F
100
AcDbEntity
  8
MAIN
100
AcDbCircle
 10
811.3965717146001
 20
188.6065123431313
 30
0.0
 40
14.93367994635284
100
AcDbArc
 50
180.0000000001302
 51
210.0000000000151
  0
LINE
  5
11129
330
1F
100
AcDbEntity
  8
MAIN
100
AcDbLine
 10
796.9369200595517
 20
193.6455153545657
 30
0.0
 11
796.5023036992459
 21
193.7619704573214
 31
0.0
  0
LINE
  5
1112A
330
1F
100
AcDbEntity
  8
MAIN
100
AcDbLine
 10
795.4001607731225
 20
193.125647942244
 30
0.0
 11
796.2693934937345
 21
192.8927377367094
 31
0.0
  0
LINE
  5
1112B
330
1F
100
AcDbEntity
  8
MAIN
100
AcDbLine
 10
796.2693934937345
 20
192.8927377367094
 30
0.0
 11
796.5023036992459
 21
193.7619704573214
 31
0.0
  0
LINE
  5
1112C
330
1F
100
AcDbEntity
  8
MAIN
100
AcDbLine
 10
796.7040098540403
 20
192.7762826339537
 30
0.0
 11
796.9369200595517
 21
193.6455153545657
 31
0.0
  0
LINE
  5
1112D
330
1F
100
AcDbEntity
  8
MAIN
100
AcDbLine
 10
795.2837056703551
 20
192.691031581938
 30
0.0
 11
796.1529383909788
 21
192.4581213764035
 31
0.0
  0
LINE
  5
1112E
330
1F
100
AcDbEntity
  8
MAIN
100
AcDbLine
 10
797.5732425746523
 20
192.5433724284423
 30
0.0
 11
797.456787471885
 21
192.1087560681364
 31
0.0
  0
LINE
  5
1112F
330
1F
100
AcDbEntity
  8
MAIN
100
AcDbLine
 10
796.587554751273
 20
192.3416662736478
 30
0.0
 11
797.456787471885
 21
192.1087560681364
 31
0.0
  0
LINE
  5
11130
330
1F
100
AcDbEntity
  8
MAIN
100
AcDbLine
 10
795.4001607731225
 20
193.125647942244
 30
0.0
 11
795.2837056703551
 21
192.691031581938
 31
0.0
  0
LINE
  5
11131
330
1F
100
AcDbEntity
  8
MAIN
100
AcDbLine
 10
796.7040098540403
 20
192.7762826339537
 30
0.0
 11
797.5732425746523
 21
192.5433724284423
 31
0.0
  0
LINE
  5
11160
330
1F
100
AcDbEntity
  8
MAIN
100
AcDbLine
 10
825.7678162877216
 20
188.6030526805017
 30
0.0
 11
826.3302512282221
 21
188.6029172826751
 31
0.0
  0
LINE
  5
11161
330
1F
100
AcDbEntity
  8
MAIN
100
AcDbLine
 10
826.6579131578792
 20
191.2937105948
 30
0.0
 11
825.7678162877216
 21
188.6030526805017
 31
0.0
  0
LINE
  5
11162
330
1F
100
AcDbEntity
  8
MAIN
100
AcDbLine
 10
824.3277200151597
 20
181.1365591726648
 30
0.0
 11
825.3017505102537
 21
180.5738897162713
 31
0.0
  0
ARC
  5
11163
330
1F
100
AcDbEntity
  8
MAIN
100
AcDbCircle
 10
811.3965717146001
 20
188.6065123431313
 30
0.0
 40
14.93367994635284
100
AcDbArc
 50
329.986206896556
 51
359.9862068964494
  0
ARC
  5
11164
330
1F
100
AcDbEntity
  8
MAIN
100
AcDbCircle
 10
811.3965717146001
 20
188.6065123431313
 30
0.0
 40
16.05854985995927
100
AcDbArc
 50
329.986206896556
 51
359.9862068964625
  0
LINE
  5
11177
330
1F
100
AcDbEntity
  8
MAIN
100
AcDbLine
 10
827.3929826560898
 20
193.125647942244
 30
0.0
 11
827.5094377588569
 21
192.691031581938
 31
0.0
  0
LINE
  5
11178
330
1F
100
AcDbEntity
  8
MAIN
100
AcDbLine
 10
825.3363559573154
 20
192.1087560681364
 30
0.0
 11
826.6402050382449
 21
192.4581213764035
 31
0.0
  0
LINE
  5
11179
330
1F
100
AcDbEntity
  8
MAIN
100
AcDbLine
 10
825.2199008545597
 20
192.5433724284423
 30
0.0
 11
825.3363559573154
 21
192.1087560681364
 31
0.0
  0
LINE
  5
1117A
330
1F
100
AcDbEntity
  8
MAIN
100
AcDbLine
 10
825.2199008545597
 20
192.5433724284423
 30
0.0
 11
826.5237499354894
 21
192.8927377367094
 31
0.0
  0
INSERT
  5
1117B
330
1F
100
AcDbEntity
  8
MAIN
  6
CONTINUOUS
100
AcDbBlockReference
  2
*U13
 10
0.0
 20
0.0
 30
0.0
1001
ACAD
1002
{
1000
R14_HATCH_DATA
1000
1117B
1011
1.0
1021
0.0
1031
0.0
1011
0.0
1021
1.0
1031
0.0
1011
0.0
1021
0.0
1031
1.0
1040
0.0
1010
0.0
1020
0.0
1030
1.0
1000
SOLID
1070
     1
1070
     0
1071
        1
1071
        7
1070
     0
1070
     1
1071
        6
1040
826.5237499354771
1040
192.8927377366858
1040
825.2199008545467
1040
192.5433724283962
1040
825.3363559573262
1040
192.1087560680903
1040
826.6402050382458
1040
192.4581213763799
1040
827.5094377588574
1040
192.6910315819136
1040
827.3929826560779
1040
193.1256479422195
1071
        0
1070
     0
1070
     1
1040
0.0021266229639954
1071
        1
1040
826.4396354531235
1040
192.65119237324
1040
0.0
1002
}
  0
LINE
  5
1117C
330
1F
100
AcDbEntity
  8
MAIN
100
AcDbLine
 10
826.6402050382449
 20
192.4581213764035
 30
0.0
 11
827.5094377588569
 21
192.691031581938
 31
0.0
  0
LINE
  5
1117E
330
1F
100
AcDbEntity
  8
MAIN
100
AcDbLine
 10
830.7455502880952
 20
222.1500223431311
 30
0.0
 11
853.0357931411018
 21
222.1500223431311
 31
0.0
  0
ARC
  5
1117F
330
1F
100
AcDbEntity
  8
MAIN
100
AcDbCircle
 10
811.3965717146001
 20
188.6065123431313
 30
0.0
 40
33.67056875
100
AcDbArc
 50
330.1247508720253
 51
354.8312100728106
  0
LINE
  5
11180
330
1F
100
AcDbEntity
  8
MAIN
100
AcDbLine
 10
830.7455502880952
 20
155.0630023431315
 30
0.0
 11
853.0357931411018
 21
155.0630023431315
 31
0.0
  0
ARC
  5
11181
330
1F
100
AcDbEntity
  8
MAIN
100
AcDbCircle
 10
811.3965717146001
 20
188.6065123431313
 30
0.0
 40
33.67056875
100
AcDbArc
 50
5.168789927190996
 51
29.87524912797472
  0
ARC
  5
11182
330
1F
100
AcDbEntity
  8
MAIN
100
AcDbCircle
 10
811.3965717146001
 20
188.6065123431313
 30
0.0
 40
31.12939375
100
AcDbArc
 50
327.3996786354402
 51
32.60032136456104
  0
LINE
  5
11183
330
1F
100
AcDbEntity
  8
MAIN
100
AcDbLine
 10
835.1728593778547
 20
171.8347573431307
 30
0.0
 11
840.59272615604
 21
171.8347573431307
 31
0.0
  0
ARC
  5
11184
330
1F
100
AcDbEntity
  8
MAIN
100
AcDbCircle
 10
828.3556279157675
 20
157.0641776556318
 30
0.0
 40
0.7941171875000001
100
AcDbArc
 50
1.000000000047351
 51
90.0
  0
LINE
  5
11185
330
1F
100
AcDbEntity
  8
MAIN
100
AcDbLine
 10
829.1575578088854
 20
156.623518206299
 30
0.0
 11
829.1496241553753
 21
157.078036911548
 31
0.0
  0
ARC
  5
11186
330
1F
100
AcDbEntity
  8
MAIN
100
AcDbCircle
 10
830.7455502880952
 20
156.6512367181314
 30
0.0
 40
1.588234375
100
AcDbArc
 50
181.0000000000522
 51
270.0
  0
LINE
  5
11187
330
1F
100
AcDbEntity
  8
AM_7
  6
CENTER
100
AcDbLine
 10
841.8906717146015
 20
161.2638368525516
 30
0.0
 11
841.8906717146015
 21
151.9541199389254
 31
0.0
  0
LINE
  5
11188
330
1F
100
AcDbEntity
  8
MAIN
100
AcDbLine
 10
835.1728593778547
 20
205.3782673431319
 30
0.0
 11
840.59272615604
 21
205.3782673431319
 31
0.0
  0
LINE
  5
11189
330
1F
100
AcDbEntity
  8
MAIN
100
AcDbLine
 10
829.1575578088854
 20
220.5895064799635
 30
0.0
 11
829.1496241553753
 21
220.1349877747174
 31
0.0
  0
ARC
  5
1118A
330
1F
100
AcDbEntity
  8
MAIN
100
AcDbCircle
 10
828.3556279157675
 20
220.1488470306322
 30
0.0
 40
0.7941171875000001
100
AcDbArc
 50
270.0
 51
358.9999999999526
  0
ARC
  5
1118B
330
1F
100
AcDbEntity
  8
MAIN
100
AcDbCircle
 10
830.7455502880952
 20
220.5617879681311
 30
0.0
 40
1.588234375
100
AcDbArc
 50
90.0
 51
178.9999999999477
  0
LINE
  5
1118C
330
1F
100
AcDbEntity
  8
AM_7
  6
CENTER
100
AcDbLine
 10
841.8906717146015
 20
215.949187833711
 30
0.0
 11
841.8906717146015
 21
225.2589047473386
 31
0.0
  0
ARC
  5
1118D
330
1F
100
AcDbEntity
  8
MAIN
100
AcDbCircle
 10
846.5119991507251
 20
191.7829810931312
 30
0.0
 40
1.588234375
100
AcDbArc
 50
185.1687899271796
 51
270.0
  0
ARC
  5
1118E
330
1F
100
AcDbEntity
  8
MAIN
100
AcDbCircle
 10
846.5119991507251
 20
185.4300435931327
 30
0.0
 40
1.588234375
100
AcDbArc
 50
90.0
 51
174.8312100728203
  0
ARC
  5
1118F
330
1F
100
AcDbEntity
  8
MAIN
100
AcDbCircle
 10
855.4257155134296
 20
157.0641776556318
 30
0.0
 40
0.7941171875000001
100
AcDbArc
 50
90.0
 51
178.9999999999933
  0
LINE
  5
11190
330
1F
100
AcDbEntity
  8
MAIN
100
AcDbLine
 10
854.6237856203115
 20
156.6235182063048
 30
0.0
 11
854.6317192738218
 21
157.078036911548
 31
0.0
  0
ARC
  5
11191
330
1F
100
AcDbEntity
  8
MAIN
100
AcDbCircle
 10
853.0357931411018
 20
156.6512367181314
 30
0.0
 40
1.588234375
100
AcDbArc
 50
270.0
 51
359.0000000001122
  0
LINE
  5
11192
330
1F
100
AcDbEntity
  8
MAIN
100
AcDbLine
 10
854.6237856203115
 20
220.5895064799577
 30
0.0
 11
854.6317192738218
 21
220.134987774716
 31
0.0
  0
ARC
  5
11193
330
1F
100
AcDbEntity
  8
MAIN
100
AcDbCircle
 10
855.4257155134296
 20
220.1488470306308
 30
0.0
 40
0.7941171875000001
100
AcDbArc
 50
181.0000000000066
 51
270.0
  0
ARC
  5
11194
330
1F
100
AcDbEntity
  8
MAIN
100
AcDbCircle
 10
853.0357931411018
 20
220.5617879681311
 30
0.0
 40
1.588234375
100
AcDbArc
 50
0.9999999998861596
 51
90.0
  0
LINE
  5
11195
330
1F
100
AcDbEntity
  8
MAIN
100
AcDbLine
 10
868.5730092146002
 20
161.0347635931289
 30
0.0
 11
868.5730092146002
 21
216.1782610931322
 31
0.0
  0
ARC
  5
11196
330
1F
100
AcDbEntity
  8
MAIN
100
AcDbCircle
 10
865.3965404646003
 20
161.0347635931289
 30
0.0
 40
3.17646875
100
AcDbArc
 50
270.0
 51
0.0
  0
ARC
  5
11197
330
1F
100
AcDbEntity
  8
MAIN
100
AcDbCircle
 10
865.3965404646003
 20
216.1782610931322
 30
0.0
 40
3.17646875
100
AcDbArc
 50
0.0
 51
90.0
  0
INSERT
  5
11235
330
1F
100
AcDbEntity
  8
0
100
AcDbBlockReference
  2
A$C6E5F38A8
 10
841.893379600143
 20
-37.59522793803097
 30
0.0
  0
INSERT
  5
11236
330
1F
100
AcDbEntity
  8
0
100
AcDbBlockReference
  2
A$C453F5956
 10
867.8906716650617
 20
116.3882935559231
 30
0.0
 50
90.0
  0
DIMENSION
  5
11392
330
1F
100
AcDbEntity
  8
AM_5
100
AcDbDimension
  2
*D10
 10
868.5730092146002
 20
244.9089494989373
 30
0.0
 11
814.5730404646061
 21
244.9089494989373
 31
0.0
 70
   160
  3
STANDARD
100
AcDbAlignedDimension
 13
760.5730717146117
 23
216.1782610931307
 33
0.0
 14
868.5730092146002
 24
216.1782610931322
 34
0.0
100
AcDbRotatedDimension
1001
ACAD
1000
DSTYLE
1002
{
1070
    40
1040
1.5
1070
    44
1040
2.0
1070
   271
1070
     0
1002
}
  0
DIMENSION
  5
114B3
330
1F
100
AcDbEntity
  8
AM_5
100
AcDbDimension
  2
*D11
 10
811.3965717146001
 20
234.3547308531307
 30
0.0
 11
785.9848217146059
 21
238.1797308531307
 31
0.0
 70
    32
  3
STANDARD
100
AcDbAlignedDimension
 13
760.5730717146117
 23
216.1782610931307
 33
0.0
 14
811.3965717146001
 24
225.2589047473386
 34
0.0
100
AcDbRotatedDimension
1001
ACAD
1000
DSTYLE
1002
{
1070
    40
1040
1.5
1070
    44
1040
2.0
1070
   271
1070
     0
1002
}
  0
INSERT
  5
11DCA
330
1F
100
AcDbEntity
  8
AM_5
100
AcDbBlockReference
  2
*S14
 10
0.0
 20
0.0
 30
0.0
  0
TEXT
  5
11DCC
330
1F
100
AcDbEntity
  8
AM_5
100
AcDbText
 10
715.8306067552466
 20
-52.47793557504579
 30
0.0
 40
5.25
  1
2-PT1  
 41
0.75
  7
DAYUS
 11
715.8306067552466
 21
-52.47793557504579
 31
0.0
100
AcDbText
 73
     1
  0
TEXT
  5
11DCD
330
1F
100
AcDbEntity
  8
AM_5
100
AcDbText
 10
734.0883770587924
 20
-52.00651912411903
 30
0.0
 40
3.674999999999999
  1
-
100
AcDbText
  0
TEXT
  5
11DCE
330
1F
100
AcDbEntity
  8
AM_5
100
AcDbText
 10
736.1481985868383
 20
-50.10431296268857
 30
0.0
 40
3.674999999999999
  1
1
100
AcDbText
  0
TEXT
  5
11DCF
330
1F
100
AcDbEntity
  8
AM_5
100
AcDbText
 10
739.2990090316684
 20
-53.14406573354844
 30
0.0
 40
3.674999999999999
  1
2
100
AcDbText
  0
TEXT
  5
11DD0
330
1F
100
AcDbEntity
  8
AM_5
100
AcDbText
 10
737.7837398147881
 20
-50.994335874987
 30
0.0
 40
3.674999999999999
  1
/
100
AcDbText
  0
POLYLINE
  5
11F9F
330
1F
100
AcDbEntity
  8
0
 62
     4
100
AcDb2dPolyline
 66
     1
 10
0.0
 20
0.0
 30
0.0
 70
     1
  0
VERTEX
  5
11FA0
330
11F9F
100
AcDbEntity
  8
0
 62
     4
100
AcDbVertex
100
AcDb2dVertex
 10
978.37167783135
 20
-117.4486337592564
 30
0.0
  0
VERTEX
  5
11FA1
330
11F9F
100
AcDbEntity
  8
0
 62
     4
100
AcDbVertex
100
AcDb2dVertex
 10
658.3574388026794
 20
-117.4486337592564
 30
0.0
  0
VERTEX
  5
11FA2
330
11F9F
100
AcDbEntity
  8
0
 62
     4
100
AcDbVertex
100
AcDb2dVertex
 10
658.3574388026794
 20
266.9821413132643
 30
0.0
  0
VERTEX
  5
11FA3
330
11F9F
100
AcDbEntity
  8
0
 62
     4
100
AcDbVertex
100
AcDb2dVertex
 10
978.37167783135
 20
266.9821413132643
 30
0.0
  0
SEQEND
  5
11FA4
330
11F9F
100
AcDbEntity
  8
0
 62
     4
  0
TEXT
  5
11FA5
330
1F
100
AcDbEntity
  8
LOGO
 62
     6
100
AcDbText
 10
706.5735272999102
 20
-148.2658407881122
 30
0.0
 40
5.603128550701054
  1
單位 Unit:
 41
0.9
  7
CHINESET
 72
     4
 11
721.8595623772914
 21
-145.4642765127617
 31
0.0
100
AcDbText
  0
TEXT
  5
11FA6
330
1F
100
AcDbEntity
  8
LOGO
 62
     6
100
AcDbText
 10
706.0257214282121
 20
-136.9807667127563
 30
0.0
 40
5.603128550701054
  1
投影 View:
 41
0.9
  7
CHINESET
 72
     4
 11
721.8595623772914
 21
-134.2580194113596
 31
0.0
100
AcDbText
  0
TEXT
  5
11FA7
330
1F
100
AcDbEntity
  8
LOGO
 62
     6
100
AcDbText
 10
704.0671278321411
 20
-125.850569140155
 30
0.0
 40
5.603128550701054
  1
比例 Scale:
 41
0.9
  7
CHINESET
 72
     4
 11
721.8595623772914
 21
-123.0517623099574
 31
0.0
100
AcDbText
  0
TEXT
  5
11FA8
330
1F
100
AcDbEntity
  8
LOGO
  6
CONTINUOUS
 62
     5
100
AcDbText
 10
662.5980344837846
 20
-170.8789972738894
 30
0.0
 40
5.603128550701054
  1
MINDMAN INDUSTRIAL CO.,LTD
 41
0.85
  7
CHINESET
100
AcDbText
  0
TEXT
  5
11FA9
330
1F
100
AcDbEntity
  8
LOGO
  6
CONTINUOUS
 62
     5
100
AcDbText
 10
660.191437381141
 20
-162.4726577869974
 30
0.0
 40
8.404692826051581
  1
金器工業股份有限公司
 41
0.8
  7
LOGO
100
AcDbText
  0
LINE
  5
11FAA
330
1F
100
AcDbEntity
  8
LOGO
 62
     1
100
AcDbLine
 10
781.6262669181025
 20
-151.0674050634627
 30
0.0
 11
658.3574388026794
 21
-151.0674050634627
 31
0.0
  0
LINE
  5
11FAB
330
1F
100
AcDbEntity
  8
LOGO
 62
     1
100
AcDbLine
 10
781.6262669181025
 20
-139.8611479620606
 30
0.0
 11
699.447048174487
 21
-139.8611479620606
 31
0.0
  0
LINE
  5
11FAC
330
1F
100
AcDbEntity
  8
LOGO
 62
     1
100
AcDbLine
 10
781.6262669181025
 20
-128.6548908606585
 30
0.0
 11
699.447048174487
 21
-128.6548908606585
 31
0.0
  0
LINE
  5
11FAD
330
1F
100
AcDbEntity
  8
LOGO
 62
     1
100
AcDbLine
 10
978.37167783135
 20
-173.479919266267
 30
0.0
 11
658.3574388026794
 21
-173.479919266267
 31
0.0
  0
LINE
  5
11FAE
330
1F
100
AcDbEntity
  8
LOGO
 62
     1
100
AcDbLine
 10
978.37167783135
 20
-117.4486337592564
 30
0.0
 11
658.3574388026794
 21
-117.4486337592564
 31
0.0
  0
LINE
  5
11FAF
330
1F
100
AcDbEntity
  8
LOGO
 62
     1
100
AcDbLine
 10
658.3574388026794
 20
-173.479919266267
 30
0.0
 11
658.3574388026794
 21
-117.4486337592564
 31
0.0
  0
SOLID
  5
11FB0
330
1F
100
AcDbEntity
  8
LOGO
 62
     2
100
AcDbTrace
 10
666.5934203566355
 20
-141.7530013904692
 30
0.0
 11
667.5958944639046
 21
-141.7530013904684
 31
0.0
 12
679.1243466974806
 22
-118.7796364322544
 32
0.0
 13
680.1268208047489
 23
-118.7796364322544
 33
0.0
  0
SOLID
  5
11FB1
330
1F
100
AcDbEntity
  8
LOGO
 62
     5
100
AcDbTrace
 10
667.5958944639046
 20
-141.7530013904684
 30
0.0
 11
670.0185402231341
 21
-141.7530013904684
 31
0.0
 12
679.1243466974806
 22
-120.6175056289108
 32
0.0
 13
676.701700938251
 23
-129.5005400794212
 33
0.0
  0
SOLID
  5
11FB2
330
1F
100
AcDbEntity
  8
LOGO
 62
     5
100
AcDbTrace
 10
664.1707745974057
 20
-141.7530013904684
 30
0.0
 11
666.5934203566355
 21
-141.7530013904692
 31
0.0
 12
676.701700938251
 22
-118.7796364322528
 32
0.0
 13
679.1243466974806
 23
-118.7796364322544
 33
0.0
  0
SOLID
  5
11FB3
330
1F
100
AcDbEntity
  8
LOGO
 62
     5
100
AcDbTrace
 10
668.4868433267378
 20
-145.9299768374168
 30
0.0
 11
669.322238416129
 21
-145.9299768374168
 31
0.0
 12
668.4868433267378
 22
-150.106952284366
 32
0.0
 13
669.322238416129
 23
-150.1069522843644
 33
0.0
  0
SOLID
  5
11FB4
330
1F
100
AcDbEntity
  8
LOGO
 62
     5
100
AcDbTrace
 10
663.4746120229149
 20
-150.1069522843644
 30
0.0
 11
664.310007112304
 21
-150.1069522843644
 31
0.0
 12
666.6625447059844
 22
-145.9299768374168
 32
0.0
 13
667.4979397953732
 23
-145.9299768374168
 33
0.0
  0
SOLID
  5
11FB5
330
1F
100
AcDbEntity
  8
LOGO
 62
     5
100
AcDbTrace
 10
663.4746120229149
 20
-145.9299768374168
 30
0.0
 11
664.310007112304
 21
-145.9299768374168
 31
0.0
 12
663.4746120229149
 22
-150.1069522843644
 32
0.0
 13
664.310007112304
 23
-150.1069522843644
 33
0.0
  0
SOLID
  5
11FB6
330
1F
100
AcDbEntity
  8
LOGO
 62
     5
100
AcDbTrace
 10
660.2866793398462
 20
-150.1069522843644
 30
0.0
 11
661.1220744292368
 21
-150.1069522843644
 31
0.0
 12
663.4746120229149
 22
-145.9299768374168
 32
0.0
 13
664.310007112304
 23
-145.9299768374168
 33
0.0
  0
SOLID
  5
11FB7
330
1F
100
AcDbEntity
  8
LOGO
 62
     5
100
AcDbTrace
 10
666.6625447059844
 20
-145.9299768374168
 30
0.0
 11
667.4979397953732
 21
-145.9299768374168
 31
0.0
 12
666.6625447059844
 22
-150.1069522843644
 32
0.0
 13
667.4979397953732
 23
-150.1069522843644
 33
0.0
  0
SOLID
  5
11FB8
330
1F
100
AcDbEntity
  8
LOGO
 62
     5
100
AcDbTrace
 10
668.4868433267378
 20
-145.3452002748444
 30
0.0
 11
669.322238416129
 21
-145.3452002748444
 31
0.0
 12
668.4868433267378
 22
-144.6768842033319
 32
0.0
 13
669.322238416129
 23
-144.6768842033319
 33
0.0
  0
SOLID
  5
11FB9
330
1F
100
AcDbEntity
  8
LOGO
 62
     2
100
AcDbTrace
 10
679.1243466974806
 20
-141.7530013904684
 30
0.0
 11
680.1268208047489
 21
-141.7530013904684
 31
0.0
 12
691.6552730383249
 22
-118.7796364322528
 32
0.0
 13
692.6577471455933
 23
-118.7796364322544
 33
0.0
  0
SOLID
  5
11FBA
330
1F
100
AcDbEntity
  8
LOGO
 62
     5
100
AcDbTrace
 10
680.1268208047489
 20
-141.7530013904684
 30
0.0
 11
682.5494665639783
 21
-141.7530013904684
 31
0.0
 12
691.6552730383249
 22
-120.6175056289108
 32
0.0
 13
689.2326272790949
 23
-129.5005400794212
 33
0.0
  0
SOLID
  5
11FBB
330
1F
100
AcDbEntity
  8
LOGO
 62
     5
100
AcDbTrace
 10
691.6552730383249
 20
-120.6175056289108
 30
0.0
 11
689.2326272790949
 21
-129.5005400794212
 31
0.0
 12
691.6552730383249
 22
-141.7530013904692
 32
0.0
 13
689.2326272790949
 23
-141.7530013904692
 33
0.0
  0
SOLID
  5
11FBC
330
1F
100
AcDbEntity
  8
LOGO
 62
     5
100
AcDbTrace
 10
680.1268208047489
 20
-139.9151321938119
 30
0.0
 11
682.5494665639783
 21
-131.0320977433016
 31
0.0
 12
691.6552730383249
 22
-118.7796364322528
 32
0.0
 13
689.2326272790949
 23
-118.7796364322528
 33
0.0
  0
SOLID
  5
11FBD
330
1F
100
AcDbEntity
  8
LOGO
 62
     2
100
AcDbTrace
 10
679.1243466974806
 20
-118.7796364322544
 30
0.0
 11
680.1268208047489
 21
-118.7796364322544
 31
0.0
 12
679.1243466974806
 22
-141.7530013904684
 32
0.0
 13
680.1268208047489
 23
-141.7530013904684
 33
0.0
  0
SOLID
  5
11FBE
330
1F
100
AcDbEntity
  8
LOGO
 62
     5
100
AcDbTrace
 10
680.1268208047489
 20
-118.7796364322544
 30
0.0
 11
682.5494665639783
 21
-118.7796364322528
 31
0.0
 12
680.1268208047489
 22
-139.9151321938119
 32
0.0
 13
682.5494665639783
 23
-131.0320977433016
 33
0.0
  0
SOLID
  5
11FBF
330
1F
100
AcDbEntity
  8
LOGO
 62
     2
100
AcDbTrace
 10
691.6552730383249
 20
-118.7796364322528
 30
0.0
 11
692.6577471455933
 21
-118.7796364322544
 31
0.0
 12
691.6552730383249
 22
-141.7530013904692
 32
0.0
 13
692.6577471455933
 23
-141.7530013904692
 33
0.0
  0
SOLID
  5
11FC0
330
1F
100
AcDbEntity
  8
LOGO
 62
     5
100
AcDbTrace
 10
692.6577471455933
 20
-141.7530013904692
 30
0.0
 11
695.0803929048231
 21
-141.7530013904692
 31
0.0
 12
692.6577471455933
 22
-118.7796364322544
 32
0.0
 13
695.0803929048231
 23
-118.7796364322528
 33
0.0
  0
SOLID
  5
11FC1
330
1F
100
AcDbEntity
  8
LOGO
 62
     5
100
AcDbTrace
 10
676.701700938251
 20
-141.7530013904684
 30
0.0
 11
679.1243466974806
 21
-141.7530013904684
 31
0.0
 12
676.701700938251
 22
-129.5005400794212
 32
0.0
 13
679.1243466974806
 23
-120.6175056289108
 33
0.0
  0
LINE
  5
11FC2
330
1F
100
AcDbEntity
  8
LOGO
 62
     1
100
AcDbLine
 10
699.447048174487
 20
-151.0674050634627
 30
0.0
 11
699.447048174487
 21
-117.4486337592564
 31
0.0
  0
SOLID
  5
11FC3
330
1F
100
AcDbEntity
  8
LOGO
 62
     5
100
AcDbTrace
 10
684.7771311093451
 20
-147.6007670161962
 30
0.0
 11
685.6125261987337
 21
-147.6007670161962
 31
0.0
 12
684.7771311093451
 22
-150.106952284366
 32
0.0
 13
685.6125261987337
 23
-150.106952284366
 33
0.0
  0
SOLID
  5
11FC4
330
1F
100
AcDbEntity
  8
LOGO
 62
     5
100
AcDbTrace
 10
682.2709458411766
 20
-147.6007670161962
 30
0.0
 11
683.1063409305656
 21
-147.6007670161962
 31
0.0
 12
682.2709458411766
 22
-150.1069522843644
 32
0.0
 13
683.1063409305656
 23
-150.1069522843644
 33
0.0
  0
SOLID
  5
11FC5
330
1F
100
AcDbEntity
  8
LOGO
 62
     5
100
AcDbTrace
 10
672.8030791350871
 20
-147.6007670161962
 30
0.0
 11
673.6384742244775
 21
-147.6007670161962
 31
0.0
 12
672.8030791350871
 22
-150.1069522843644
 32
0.0
 13
673.6384742244775
 23
-150.1069522843644
 33
0.0
  0
SOLID
  5
11FC6
330
1F
100
AcDbEntity
  8
LOGO
 62
     5
100
AcDbTrace
 10
670.296893866919
 20
-145.9299768374168
 30
0.0
 11
671.1322889563079
 21
-145.9299768374168
 31
0.0
 12
670.296893866919
 22
-150.1069522843644
 32
0.0
 13
671.1322889563079
 23
-150.1069522843644
 33
0.0
  0
POLYLINE
  5
11FC7
330
1F
100
AcDbEntity
  8
LOGO
 62
     5
100
AcDb2dPolyline
 66
     1
 10
0.0
 20
0.0
 30
0.0
 70
     1
 40
0.8367338635713576
 41
0.8367338635713576
  0
VERTEX
  5
11FC8
330
11FC7
100
AcDbEntity
  8
LOGO
 62
     5
100
AcDbVertex
100
AcDb2dVertex
 10
675.0282332111076
 20
-148.018464560891
 30
0.0
 42
1.0
  0
VERTEX
  5
11FC9
330
11FC7
100
AcDbEntity
  8
LOGO
 62
     5
100
AcDbVertex
100
AcDb2dVertex
 10
678.3751686653933
 20
-148.018464560891
 30
0.0
 42
1.0
  0
SEQEND
  5
11FCA
330
11FC7
100
AcDbEntity
  8
LOGO
 62
     5
  0
SOLID
  5
11FCB
330
1F
100
AcDbEntity
  8
LOGO
 62
     5
100
AcDbTrace
 10
679.7647605730083
 20
-145.9299768374168
 30
0.0
 11
680.6001556623973
 21
-145.9299768374168
 31
0.0
 12
679.7647605730083
 22
-150.1069522843644
 32
0.0
 13
680.6001556623973
 23
-150.1069522843644
 33
0.0
  0
SOLID
  5
11FCC
330
1F
100
AcDbEntity
  8
LOGO
 62
     5
100
AcDbTrace
 10
677.9547100328272
 20
-144.6768842033319
 30
0.0
 11
678.7901051222158
 21
-144.6768842033319
 31
0.0
 12
677.9547100328272
 22
-150.1069522843644
 32
0.0
 13
678.7901051222158
 23
-150.1069522843644
 33
0.0
  0
CIRCLE
  5
11FCD
330
1F
100
AcDbEntity
  8
LOGO
 62
     5
100
AcDbCircle
 10
688.6757529125086
 20
-148.0184645608906
 30
0.0
 40
1.253092634084465
  0
POLYLINE
  5
11FCE
330
1F
100
AcDbEntity
  8
LOGO
 62
     5
100
AcDb2dPolyline
 66
     1
 10
0.0
 20
0.0
 30
0.0
 70
     1
  0
VERTEX
  5
11FCF
330
11FCE
100
AcDbEntity
  8
LOGO
 62
     5
100
AcDbVertex
100
AcDb2dVertex
 10
687.4226602784237
 20
-148.0184645608906
 30
0.0
 42
1.000000057330635
  0
VERTEX
  5
11FD0
330
11FCE
100
AcDbEntity
  8
LOGO
 62
     5
100
AcDbVertex
100
AcDb2dVertex
 10
689.928845546593
 20
-148.0184645608906
 30
0.0
 42
1.000000057330635
  0
SEQEND
  5
11FD1
330
11FCE
100
AcDbEntity
  8
LOGO
 62
     5
  0
SOLID
  5
11FD2
330
1F
100
AcDbEntity
  8
LOGO
 62
     5
100
AcDbTrace
 10
689.9287620070854
 20
-145.9299768374168
 30
0.0
 11
690.7641570964742
 21
-145.9299768374168
 31
0.0
 12
689.9287620070854
 22
-150.1069522843644
 32
0.0
 13
690.7641570964742
 23
-150.1069522843644
 33
0.0
  0
POLYLINE
  5
11FD3
330
1F
100
AcDbEntity
  8
LOGO
 62
     5
100
AcDb2dPolyline
 66
     1
 10
0.0
 20
0.0
 30
0.0
 70
     1
 40
0.8367338635713576
 41
0.8367338635713576
  0
VERTEX
  5
11FD4
330
11FD3
100
AcDbEntity
  8
LOGO
 62
     5
100
AcDbVertex
100
AcDb2dVertex
 10
687.0022851853653
 20
-148.018464560891
 30
0.0
 42
1.0
  0
VERTEX
  5
11FD5
330
11FD3
100
AcDbEntity
  8
LOGO
 62
     5
100
AcDbVertex
100
AcDb2dVertex
 10
690.3492206396507
 20
-148.018464560891
 30
0.0
 42
1.0
  0
SEQEND
  5
11FD6
330
11FD3
100
AcDbEntity
  8
LOGO
 62
     5
  0
POLYLINE
  5
11FD7
330
1F
100
AcDbEntity
  8
LOGO
 62
     5
100
AcDb2dPolyline
 66
     1
 10
0.0
 20
0.0
 30
0.0
 40
0.8367338635713576
 41
0.8367338635713576
  0
VERTEX
  5
11FD8
330
11FD7
100
AcDbEntity
  8
LOGO
 62
     5
100
AcDbVertex
100
AcDb2dVertex
 10
682.6906515471439
 20
-147.6007670161962
 30
0.0
 42
1.0
  0
VERTEX
  5
11FD9
330
11FD7
100
AcDbEntity
  8
LOGO
 62
     5
100
AcDbVertex
100
AcDb2dVertex
 10
680.1804499564299
 20
-147.6007670161962
 30
0.0
 42
1.0
  0
SEQEND
  5
11FDA
330
11FD7
100
AcDbEntity
  8
LOGO
 62
     5
  0
POLYLINE
  5
11FDB
330
1F
100
AcDbEntity
  8
LOGO
 62
     5
100
AcDb2dPolyline
 66
     1
 10
0.0
 20
0.0
 30
0.0
 40
0.8367338635713576
 41
0.8367338635713576
  0
VERTEX
  5
11FDC
330
11FDB
100
AcDbEntity
  8
LOGO
 62
     5
100
AcDbVertex
100
AcDb2dVertex
 10
673.2227848410545
 20
-147.6007670161962
 30
0.0
 42
1.0
  0
VERTEX
  5
11FDD
330
11FDB
100
AcDbEntity
  8
LOGO
 62
     5
100
AcDbVertex
100
AcDb2dVertex
 10
670.7125832503404
 20
-147.6007670161962
 30
0.0
 42
1.0
  0
SEQEND
  5
11FDE
330
11FDB
100
AcDbEntity
  8
LOGO
 62
     5
  0
POLYLINE
  5
11FDF
330
1F
100
AcDbEntity
  8
LOGO
 62
     5
100
AcDb2dPolyline
 66
     1
 10
0.0
 20
0.0
 30
0.0
 40
0.8367338635713576
 41
0.8367338635713576
  0
VERTEX
  5
11FE0
330
11FDF
100
AcDbEntity
  8
LOGO
 62
     5
100
AcDbVertex
100
AcDb2dVertex
 10
685.1968368153123
 20
-147.6007670161962
 30
0.0
 42
1.0
  0
VERTEX
  5
11FE1
330
11FDF
100
AcDbEntity
  8
LOGO
 62
     5
100
AcDbVertex
100
AcDb2dVertex
 10
682.6866352245981
 20
-147.6007670161962
 30
0.0
 42
1.0
  0
SEQEND
  5
11FE2
330
11FDF
100
AcDbEntity
  8
LOGO
 62
     5
  0
SOLID
  5
11FE3
330
1F
100
AcDbEntity
  8
LOGO
 62
     5
100
AcDbTrace
 10
694.2449978154338
 20
-147.6007670161962
 30
0.0
 11
695.0803929048231
 21
-147.6007670161963
 31
0.0
 12
694.2449978154338
 22
-150.1069522843644
 32
0.0
 13
695.0803929048231
 23
-150.1069522843644
 33
0.0
  0
LINE
  5
11FE4
330
1F
100
AcDbEntity
  8
LOGO
 62
     5
100
AcDbLine
 10
695.0803929048231
 20
-150.1069522843644
 30
0.0
 11
695.0803929048231
 21
-147.6007670161962
 31
0.0
  0
SOLID
  5
11FE5
330
1F
100
AcDbEntity
  8
LOGO
 62
     5
100
AcDbTrace
 10
691.7388125472641
 20
-150.1069522843644
 30
0.0
 11
692.5742076366547
 21
-150.1069522843644
 31
0.0
 12
691.7388125472641
 22
-145.9299768374168
 32
0.0
 13
692.5742076366547
 23
-145.9299768374168
 33
0.0
  0
POLYLINE
  5
11FE6
330
1F
100
AcDbEntity
  8
LOGO
 62
     5
100
AcDb2dPolyline
 66
     1
 10
0.0
 20
0.0
 30
0.0
 40
0.8367338635713576
 41
0.8367338635713576
  0
VERTEX
  5
11FE7
330
11FE6
100
AcDbEntity
  8
LOGO
 62
     5
100
AcDbVertex
100
AcDb2dVertex
 10
694.6647035214014
 20
-147.6007670161962
 30
0.0
 42
1.0
  0
VERTEX
  5
11FE8
330
11FE6
100
AcDbEntity
  8
LOGO
 62
     5
100
AcDbVertex
100
AcDb2dVertex
 10
692.1545019306874
 20
-147.6007670161962
 30
0.0
 42
1.0
  0
SEQEND
  5
11FE9
330
11FE6
100
AcDbEntity
  8
LOGO
 62
     5
  0
LINE
  5
11FEA
330
1F
100
AcDbEntity
  8
LOGO
 62
     6
100
AcDbLine
 10
911.4108959474588
 20
-168.810645474016
 30
0.0
 11
874.0567056094517
 21
-168.8106454740162
 31
0.0
  0
LINE
  5
11FEB
330
1F
100
AcDbEntity
  8
LOGO
 62
     6
100
AcDbLine
 10
911.4108959474588
 20
-148.2658407881122
 30
0.0
 11
874.0567056094517
 21
-148.2658407881122
 31
0.0
  0
LINE
  5
11FEC
330
1F
100
AcDbEntity
  8
LOGO
 62
     6
100
AcDbLine
 10
926.7727882186077
 20
-139.8611479620606
 30
0.0
 11
858.6948133383025
 21
-139.8611479620606
 31
0.0
  0
LINE
  5
11FED
330
1F
100
AcDbEntity
  8
LOGO
 62
     6
100
AcDbLine
 10
926.7727882186077
 20
-123.0517623099574
 30
0.0
 11
858.6948133383025
 21
-123.0517623099574
 31
0.0
  0
TEXT
  5
11FEE
330
1F
100
AcDbEntity
  8
LOGO
  6
CONTINUOUS
 62
     7
100
AcDbText
 10
865.276248297517
 20
-136.1257289282599
 30
0.0
 40
9.338547584501759
  1
MAR900
  7
CHINESET
 72
     1
 11
892.1801591957244
 21
-131.456455136009
 31
0.0
100
AcDbText
 73
     2
  0
TEXT
  5
11FEF
330
1F
100
AcDbEntity
  8
LOGO
 62
     7
100
AcDbText
 10
784.8723713981014
 20
-141.9949864860822
 30
0.0
 40
7.470838067601406
  1
Order example:
 41
0.8
  7
CHINESET
100
AcDbText
  0
TEXT
  5
11FF0
330
1F
100
AcDbEntity
  8
LOGO
 62
     7
100
AcDbText
 10
786.2127015287464
 20
-131.4775933436591
 30
0.0
 40
11.2062571014021
  1
訂購代號:
  7
CHINESET
100
AcDbText
  0
LINE
  5
11FF1
330
1F
100
AcDbEntity
  8
LOGO
 62
     1
100
AcDbLine
 10
781.6262669181025
 20
-173.479919266267
 30
0.0
 11
781.6262669181025
 21
-117.4486337592564
 31
0.0
  0
CIRCLE
  5
11FF2
330
1F
100
AcDbEntity
  8
LOGO
  6
CONTINUOUS
 62
     6
100
AcDbCircle
 10
754.6469699199588
 20
-134.246034278387
 30
0.0
 40
1.906150676028525
  0
CIRCLE
  5
11FF3
330
1F
100
AcDbEntity
  8
LOGO
  6
CONTINUOUS
 62
     6
100
AcDbCircle
 10
754.6469699199588
 20
-134.246034278387
 30
0.0
 40
3.25330831931644
  0
TEXT
  5
11FF4
330
1F
100
AcDbEntity
  8
LOGO
 62
     6
100
AcDbText
 10
752.6776932877205
 20
-125.8533265853079
 30
0.0
 40
5.603128550701054
  1
1 : 1
  7
CHINESET
 72
     1
 11
762.5498721627653
 21
-123.0517623099574
 31
0.0
100
AcDbText
 73
     2
  0
TEXT
  5
11FF5
330
1F
100
AcDbEntity
  8
LOGO
 62
     6
100
AcDbText
 10
752.6776932877205
 20
-148.2658407881122
 30
0.0
 40
5.603128550701054
  1
m/m
  7
CHINESET
 72
     1
 11
762.5498721627653
 21
-145.4642765127617
 31
0.0
100
AcDbText
 73
     2
  0
LINE
  5
11FF6
330
1F
100
AcDbEntity
  8
LOGO
 62
     1
100
AcDbLine
 10
744.2720765800952
 20
-151.0674050634627
 30
0.0
 11
744.2720765800952
 21
-117.4486337592564
 31
0.0
  0
LINE
  5
11FF7
330
1F
100
AcDbEntity
  8
LOGO
 62
     6
100
AcDbLine
 10
775.0911368964775
 20
-137.4993425977034
 30
0.0
 11
775.0911368964775
 21
-130.9927259590705
 31
0.0
  0
LINE
  5
11FF8
330
1F
100
AcDbEntity
  8
LOGO
 62
     6
100
AcDbLine
 10
764.8922020642286
 20
-136.1521849544155
 30
0.0
 11
764.8922020642286
 21
-132.3398836023584
 31
0.0
  0
LINE
  5
11FF9
330
1F
100
AcDbEntity
  8
LOGO
  6
CONTINUOUS
 62
     6
100
AcDbLine
 10
764.8922020642286
 20
-136.1521849544155
 30
0.0
 11
775.0911368964775
 21
-137.4993425977034
 31
0.0
  0
LINE
  5
11FFA
330
1F
100
AcDbEntity
  8
LOGO
  6
CONTINUOUS
 62
     6
100
AcDbLine
 10
764.8922020642286
 20
-132.3398836023585
 30
0.0
 11
775.0911368964775
 21
-130.9927259590705
 31
0.0
  0
LINE
  5
11FFB
330
1F
100
AcDbEntity
  8
LOGO
 62
     6
100
AcDbLine
 10
874.0567056094517
 20
-148.2658407881122
 30
0.0
 11
874.0567056094517
 21
-168.8106454740162
 31
0.0
  0
LINE
  5
11FFC
330
1F
100
AcDbEntity
  8
LOGO
 62
     6
100
AcDbLine
 10
858.6948133383025
 20
-123.0517623099574
 30
0.0
 11
858.6948133383025
 21
-139.8611479620606
 31
0.0
  0
TEXT
  5
11FFD
330
1F
100
AcDbEntity
  8
LOGO
  6
CONTINUOUS
 62
     7
100
AcDbText
 10
949.1494706666536
 20
-136.231628646316
 30
0.0
 40
9.338547584501759
  1
?A
  7
CHINESET
 72
     1
 11
956.7092472826789
 21
-131.5623548540651
 31
0.0
100
AcDbText
 73
     2
  0
LINE
  5
11FFE
330
1F
100
AcDbEntity
  8
LOGO
 62
     6
100
AcDbLine
 10
971.3941923342785
 20
-139.8611479620606
 30
0.0
 11
940.2811062008844
 21
-139.8611479620606
 31
0.0
  0
LINE
  5
11FFF
330
1F
100
AcDbEntity
  8
LOGO
 62
     6
100
AcDbLine
 10
971.3941923342792
 20
-123.0517623099574
 30
0.0
 11
940.2811062008844
 21
-123.0517623099574
 31
0.0
  0
TEXT
  5
12000
330
1F
100
AcDbEntity
  8
LOGO
  6
CONTINUOUS
 62
     6
100
AcDbText
 10
943.0304982945505
 20
-166.4760085778907
 30
0.0
 40
4.669273792250879
  1
Bore size
 41
0.8
  7
CHINESET
 72
     4
 11
955.8376492675815
 21
-164.1413716817653
 31
0.0
100
AcDbText
  0
LINE
  5
12001
330
1F
100
AcDbEntity
  8
LOGO
 62
     6
100
AcDbLine
 10
975.1296113680798
 20
-148.2658407881122
 30
0.0
 11
936.5456871670835
 21
-148.2658407881122
 31
0.0
  0
LINE
  5
12002
330
1F
100
AcDbEntity
  8
LOGO
 62
     6
100
AcDbLine
 10
975.1296113680798
 20
-168.810645474016
 30
0.0
 11
936.5456871670835
 21
-168.8106454740162
 31
0.0
  0
TEXT
  5
12003
330
1F
100
AcDbEntity
  8
LOGO
 62
     6
100
AcDbText
 10
942.3201016390152
 20
-158.5382431310642
 30
0.0
 40
7.470838067601406
  1
配管口徑
 41
0.9
  7
CHINESET
 72
     4
 11
955.8376492675815
 21
-154.8028240972635
 31
0.0
100
AcDbText
  0
LINE
  5
12004
330
1F
100
AcDbEntity
  8
LOGO
 62
     6
100
AcDbLine
 10
936.5456871670835
 20
-148.2658407881122
 30
0.0
 11
936.5456871670835
 21
-168.8106454740162
 31
0.0
  0
LINE
  5
12005
330
1F
100
AcDbEntity
  8
LOGO
 62
     6
100
AcDbLine
 10
911.4108959474588
 20
-148.2658407881122
 30
0.0
 11
911.4108959474588
 21
-168.810645474016
 31
0.0
  0
TEXT
  5
12006
330
1F
100
AcDbEntity
  8
LOGO
  6
CONTINUOUS
 62
     6
100
AcDbText
 10
883.8399459360728
 20
-166.4760085778907
 30
0.0
 40
4.669273792250879
  1
Model
  7
CHINESET
 72
     4
 11
892.7338007784554
 21
-164.1413716817653
 31
0.0
100
AcDbText
  0
TEXT
  5
12007
330
1F
100
AcDbEntity
  8
LOGO
 62
     6
100
AcDbText
 10
885.2629627108539
 20
-158.3470602671294
 30
0.0
 40
7.470838067601406
  1
型式
  7
CHINESET
 72
     4
 11
892.7338007784554
 21
-154.8028240972634
 31
0.0
100
AcDbText
  0
LINE
  5
12008
330
1F
100
AcDbEntity
  8
LOGO
 62
     6
100
AcDbLine
 10
892.7338007784554
 20
-139.8611479620606
 30
0.0
 11
892.7338007784554
 21
-148.2658407881122
 31
0.0
  0
LINE
  5
12009
330
1F
100
AcDbEntity
  8
LOGO
 62
     6
100
AcDbLine
 10
940.2811062008844
 20
-123.0517623099574
 30
0.0
 11
940.2811062008844
 21
-139.8611479620606
 31
0.0
  0
LINE
  5
1200A
330
1F
100
AcDbEntity
  8
LOGO
 62
     6
100
AcDbLine
 10
926.7727882186079
 20
-123.0517623099574
 30
0.0
 11
926.7727882186079
 21
-139.8611479620606
 31
0.0
  0
LINE
  5
1200B
330
1F
100
AcDbEntity
  8
LOGO
 62
     6
100
AcDbLine
 10
956.2332131847298
 20
-139.8611479620606
 30
0.0
 11
956.2332131847298
 21
-148.2658407881122
 31
0.0
  0
LINE
  5
1200C
330
1F
100
AcDbEntity
  8
LOGO
  6
CONTINUOUS
 62
     7
100
AcDbLine
 10
929.9517712079694
 20
-131.5159966364994
 30
0.0
 11
937.3741825647103
 21
-131.5159966364994
 31
0.0
  0
LINE
  5
1200D
330
1F
100
AcDbEntity
  8
LOGO
 62
     6
100
AcDbLine
 10
975.1296113680798
 20
-148.2658407881122
 30
0.0
 11
975.1296113680798
 21
-168.8881130104906
 31
0.0
  0
LINE
  5
1200E
330
1F
100
AcDbEntity
  8
LOGO
 62
     1
100
AcDbLine
 10
978.37167783135
 20
-173.479919266267
 30
0.0
 11
978.37167783135
 21
-117.4486337592564
 31
0.0
  0
LINE
  5
1200F
330
1F
100
AcDbEntity
  8
LOGO
 62
     6
100
AcDbLine
 10
971.3941923342792
 20
-123.0517623099574
 30
0.0
 11
971.3941923342785
 21
-139.8611479620606
 31
0.0
  0
ENDSEC
  0
SECTION
  2
OBJECTS
  0
DICTIONARY
  5
C
330
0
100
AcDbDictionary
  3
ACAD_GROUP
350
D
  3
ACAD_IMAGE_DICT
350
F32A
  3
ACAD_IMAGE_VARS
350
F32B
  3
ACAD_LAYOUT
350
1A
  3
ACAD_MLINESTYLE
350
17
  3
ACAD_PLOTSETTINGS
350
19
  3
ACMDICTIONARY
350
43
  3
AMG
350
2B
  3
AMGSNAPSETTINGS
350
240
  3
DWGPROPS
350
12028
1001
ACAD
1000
TREAT_AS_HARD
1070
     0
  0
DICTIONARY
  5
3A4
330
1F
100
AcDbDictionary
  3
ACAD_INDEX
350
11E51
  3
ACAD_LAYOUTSELFREF
350
120A0
1001
ACAD
1000
TREAT_AS_HARD
1070
     1
  0
DICTIONARY
  5
1209E
330
1B
100
AcDbDictionary
  3
ACAD_LAYOUTSELFREF
350
1209F
  0
DICTIONARY
  5
D
102
{ACAD_REACTORS
330
C
102
}
330
C
100
AcDbDictionary
1001
ACAD
1000
TREAT_AS_HARD
1070
     0
  0
DICTIONARY
  5
F32A
102
{ACAD_REACTORS
330
C
102
}
330
C
100
AcDbDictionary
1001
ACAD
1000
TREAT_AS_HARD
1070
     0
  0
RASTERVARIABLES
  5
F32B
102
{ACAD_REACTORS
330
C
102
}
330
C
100
AcDbRasterVariables
 90
        0
 70
     0
 71
     1
 72
     1
  0
DICTIONARY
  5
1A
102
{ACAD_REACTORS
330
C
102
}
330
C
100
AcDbDictionary
1001
ACAD
1000
TREAT_AS_HARD
1070
     0
  0
DICTIONARY
  5
17
102
{ACAD_REACTORS
330
C
102
}
330
C
100
AcDbDictionary
  3
STANDARD
350
18
1001
ACAD
1000
TREAT_AS_HARD
1070
     0
  0
DICTIONARY
  5
19
102
{ACAD_REACTORS
330
C
102
}
330
C
100
AcDbDictionary
1001
ACAD
1000
TREAT_AS_HARD
1070
     0
  0
DICTIONARY
  5
43
102
{ACAD_REACTORS
330
C
102
}
330
C
100
AcDbDictionary
  3
ACMSTDDICTIONARY
350
1440
1001
ACAD
1000
TREAT_AS_HARD
1070
     0
  0
DICTIONARY
  5
2B
102
{ACAD_REACTORS
330
C
102
}
330
C
100
AcDbDictionary
  3
ACMGSETTINGS
350
2C
1001
ACAD
1000
TREAT_AS_HARD
1070
     0
  0
DICTIONARY
  5
240
102
{ACAD_REACTORS
330
C
102
}
330
C
100
AcDbDictionary
1001
ACAD
1000
TREAT_AS_HARD
1070
     0
  0
XRECORD
  5
12028
102
{ACAD_REACTORS
330
C
102
}
330
C
100
AcDbXrecord
  1
DWGPROPS COOKIE
  2

  3

  4

  6

  7

  8

  9

300
AmdtFileType=84
301
=
302
=
303
=
304
=
305
=
306
=
307
=
308
=
309
=
 40
3.361349606481481
 41
2452292.457678333
 42
2453343.334312708
  1

 90
        1
  0
DICTIONARY
  5
11E51
102
{ACAD_REACTORS
330
3A4
102
}
330
3A4
100
AcDbDictionary
  3
*A1
350
11E52
1001
ACAD
1000
TREAT_AS_HARD
1070
     0
  0
XRECORD
  5
120A0
102
{ACAD_REACTORS
330
3A4
102
}
330
3A4
100
AcDbXrecord
340
1F
  0
XRECORD
  5
1209F
102
{ACAD_REACTORS
330
1209E
102
}
330
1209E
100
AcDbXrecord
340
1B
  0
MLINESTYLE
  5
18
102
{ACAD_REACTORS
330
17
102
}
330
17
100
AcDbMlineStyle
  2
STANDARD
 70
     0
  3

 62
   256
 51
90.0
 52
90.0
 71
     2
 49
0.5
 62
   256
  6
BYLAYER
 49
-0.5
 62
   256
  6
BYLAYER
  0
DICTIONARY
  5
1440
102
{ACAD_REACTORS
330
43
102
}
330
43
100
AcDbDictionary
1001
ACAD
1000
TREAT_AS_HARD
1070
     0
  0
DICTIONARY
  5
2C
102
{ACAD_REACTORS
330
2B
102
}
330
2B
100
AcDbDictionary
  3
DWGSETTINGS
350
2D
1001
ACAD
1000
TREAT_AS_HARD
1070
     0
  0
LAYER_INDEX
  5
11E52
102
{ACAD_REACTORS
330
11E51
102
}
330
11E51
100
AcDbIndex
 40
2453346.610085023
100
AcDbLayerIndex
  8
0
360
11E53
 90
        3
  8
圖層1
360
11E54
 90
        0
  8
圖層2
360
11E55
 90
        4
  8
Defpoints
360
11E56
 90
        0
  8
AM_5
360
11E57
 90
       16
  8
AM_REFDIM
360
11E58
 90
        6
  8
AM_7
360
11E59
 90
        7
  8
MAIN
360
11E5A
 90
      195
  8
圖層5
360
11E5B
 90
        0
  8
LOGO
360
11E5C
 90
       86
  0
XRECORD
  5
2D
102
{ACAD_REACTORS
330
2C
102
}
330
2C
100
AcDbXrecord
  1
VERSION
140
15.0
  1
PRODUCT
  2
AutoCAD Mechanical 2000
  0
IDBUFFER
  5
11E53
330
0
100
AcDbIdBuffer
330
11235
330
11236
330
11F9F
  0
IDBUFFER
  5
11E54
330
0
100
AcDbIdBuffer
  0
IDBUFFER
  5
11E55
330
0
100
AcDbIdBuffer
330
D169
330
D16D
330
DBAB
330
DBAC
  0
IDBUFFER
  5
11E56
330
0
100
AcDbIdBuffer
  0
IDBUFFER
  5
11E57
330
0
100
AcDbIdBuffer
330
D622
330
D62D
330
10B0B
330
10B2F
330
10B53
330
10B9B
330
10C2D
330
10C67
330
11392
330
114B3
330
11DCA
330
11DCC
330
11DCD
330
11DCE
330
11DCF
330
11DD0
  0
IDBUFFER
  5
11E58
330
0
100
AcDbIdBuffer
330
20A1
330
21E1
330
21E8
330
950E
330
9515
330
9538
  0
IDBUFFER
  5
11E59
330
0
100
AcDbIdBuffer
330
11061
330
1106C
330
110B5
330
110D5
330
1110C
330
11187
330
1118C
  0
IDBUFFER
  5
11E5A
330
0
100
AcDbIdBuffer
330
110CC
330
110CD
330
110CE
330
110CF
330
110D0
330
110D1
330
110D2
330
110D3
330
110D4
330
110D6
330
110D7
330
110D8
330
110D9
330
110DA
330
110DB
330
110DC
330
110DD
330
110DE
330
110DF
330
110E1
330
110E2
330
110E3
330
110E5
330
110E6
330
110E7
330
110E8
330
110E9
330
110EA
330
110EB
330
110EC
330
110ED
330
110EE
330
110EF
330
110F0
330
110F1
330
110FC
330
110FE
330
110FF
330
11109
330
1110A
330
1110B
330
11112
330
11113
330
11114
330
11115
330
11116
330
11129
330
1112A
330
1112B
330
1112C
330
1112D
330
1112E
330
1112F
330
11130
330
11131
330
11160
330
11161
330
11162
330
11163
330
11164
330
11177
330
11178
330
11179
330
1117A
330
1117B
330
1117C
330
1117E
330
1117F
330
11180
330
11181
330
11182
330
11183
330
11184
330
11185
330
11186
330
11188
330
11189
330
1118A
330
1118B
330
1118D
330
1118E
330
1118F
330
11190
330
11191
330
11192
330
11193
330
11194
330
11195
330
11196
330
11197
330
11055
330
11056
330
11057
330
11058
330
11059
330
1105A
330
1105B
330
1105C
330
1105D
330
1105E
330
11060
330
11062
330
11063
330
11064
330
11065
330
11066
330
11067
330
11068
330
11069
330
1106A
330
1106B
330
1106D
330
1106E
330
1106F
330
11070
330
11071
330
11072
330
11073
330
11074
330
11075
330
11076
330
11077
330
11078
330
11079
330
1107A
330
1107B
330
1107C
330
1107D
330
1107E
330
1107F
330
11080
330
11081
330
11082
330
11084
330
11085
330
11086
330
11087
330
11088
330
11089
330
1108A
330
1108B
330
1108C
330
1108D
330
1108E
330
1108F
330
11090
330
11091
330
11092
330
11093
330
11094
330
11095
330
11096
330
11097
330
11098
330
11099
330
1109A
330
1109B
330
1109C
330
1109D
330
1109E
330
1109F
330
110A0
330
110A1
330
110A2
330
110A3
330
110A4
330
110A5
330
110AC
330
110AD
330
110AF
330
110B0
330
110B1
330
110B2
330
110B3
330
110B4
330
110B6
330
110B7
330
110B8
330
110B9
330
110BA
330
110BB
330
110BD
330
110BE
330
110BF
330
110C0
330
110C1
330
110C2
330
110C3
330
110C4
330
110C6
330
110C7
330
110C8
330
110C9
330
110CA
330
110CB
  0
IDBUFFER
  5
11E5B
330
0
100
AcDbIdBuffer
  0
IDBUFFER
  5
11E5C
330
0
100
AcDbIdBuffer
330
11FEA
330
11FEB
330
11FEC
330
11FED
330
11FEE
330
11FEF
330
11FF0
330
11FF1
330
11FF2
330
11FF3
330
11FF4
330
11FF5
330
11FF6
330
11FF7
330
11FF8
330
11FF9
330
11FFA
330
11FFB
330
11FFC
330
11FFD
330
11FFE
330
11FFF
330
12000
330
12001
330
12002
330
12003
330
12004
330
12005
330
12006
330
12007
330
12008
330
12009
330
1200A
330
1200B
330
1200C
330
1200D
330
1200E
330
1200F
330
11FA5
330
11FA6
330
11FA7
330
11FA8
330
11FA9
330
11FAA
330
11FAB
330
11FAC
330
11FAD
330
11FAE
330
11FAF
330
11FB0
330
11FB1
330
11FB2
330
11FB3
330
11FB4
330
11FB5
330
11FB6
330
11FB7
330
11FB8
330
11FB9
330
11FBA
330
11FBB
330
11FBC
330
11FBD
330
11FBE
330
11FBF
330
11FC0
330
11FC1
330
11FC2
330
11FC3
330
11FC4
330
11FC5
330
11FC6
330
11FC7
330
11FCB
330
11FCC
330
11FCD
330
11FCE
330
11FD2
330
11FD3
330
11FD7
330
11FDB
330
11FDF
330
11FE3
330
11FE4
330
11FE5
330
11FE6
  0
ENDSEC
  0
EOF
