  0
SECTION
  2
HEADER
  9
$ACADVER
  1
AC1009
  9
$INSBASE
 10
0.0
 20
0.0
 30
0.0
  9
$EXTMIN
 10
533.94979307777737
 20
287.95398323098431
 30
-0.0105316493007877
  9
$EXTMAX
 10
981.68092772673117
 20
903.57687588069223
 30
293.37094245076878
  9
$LIMMIN
 10
0.0
 20
0.0
  9
$LIMMAX
 10
12.0
 20
9.0
  9
$ORTHOMODE
 70
     0
  9
$REGENMODE
 70
     0
  9
$FILLMODE
 70
     1
  9
$QTEXTMODE
 70
     0
  9
$MIRRTEXT
 70
     1
  9
$DRAGMODE
 70
     2
  9
$LTSCALE
 40
6.0
  9
$OSMODE
 70
    37
  9
$ATTMODE
 70
     1
  9
$TEXTSIZE
 40
2.5
  9
$TRACEWID
 40
0.05
  9
$TEXTSTYLE
  7
CHINESET
  9
$CLAYER
  8
0
  9
$CELTYPE
  6
BYLAYER
  9
$CECOLOR
 62
   256
  9
$DIMSCALE
 40
2.0
  9
$DIMASZ
 40
3.0
  9
$DIMEXO
 40
2.0
  9
$DIMDLI
 40
8.0
  9
$DIMRND
 40
0.0
  9
$DIMDLE
 40
0.0
  9
$DIMEXE
 40
2.0
  9
$DIMTP
 40
0.0
  9
$DIMTM
 40
0.0
  9
$DIMTXT
 40
3.0
  9
$DIMCEN
 40
2.0
  9
$DIMTSZ
 40
0.0
  9
$DIMTOL
 70
     0
  9
$DIMLIM
 70
     0
  9
$DIMTIH
 70
     0
  9
$DIMTOH
 70
     0
  9
$DIMSE1
 70
     0
  9
$DIMSE2
 70
     0
  9
$DIMTAD
 70
     1
  9
$DIMZIN
 70
     8
  9
$DIMBLK
  1

  9
$DIMASO
 70
     1
  9
$DIMSHO
 70
     0
  9
$DIMPOST
  1

  9
$DIMAPOST
  1

  9
$DIMALT
 70
     0
  9
$DIMALTD
 70
     2
  9
$DIMALTF
 40
25.399999999999999
  9
$DIMLFAC
 40
1.0
  9
$DIMTOFL
 70
     1
  9
$DIMTVP
 40
0.0
  9
$DIMTIX
 70
     0
  9
$DIMSOXD
 70
     0
  9
$DIMSAH
 70
     0
  9
$DIMBLK1
  1

  9
$DIMBLK2
  1

  9
$DIMSTYLE
  2
STANDARD
  9
$DIMCLRD
 70
   256
  9
$DIMCLRE
 70
   256
  9
$DIMCLRT
 70
   256
  9
$DIMTFAC
 40
0.6
  9
$DIMGAP
 40
1.0
  9
$LUNITS
 70
     2
  9
$LUPREC
 70
     4
  9
$SKETCHINC
 40
0.1
  9
$FILLETRAD
 40
3.0
  9
$AUNITS
 70
     0
  9
$AUPREC
 70
     0
  9
$MENU
  1
ACAD
  9
$ELEVATION
 40
0.0
  9
$PELEVATION
 40
0.0
  9
$THICKNESS
 40
0.0
  9
$LIMCHECK
 70
     0
  9
$BLIPMODE
 70
     0
  9
$CHAMFERA
 40
0.5
  9
$CHAMFERB
 40
0.5
  9
$SKPOLY
 70
     0
  9
$TDCREATE
 40
2450294.5617249999
  9
$TDUPDATE
 40
2454942.7018405208
  9
$TDINDWG
 40
0.3055335185
  9
$TDUSRTIMER
 40
0.3055335185
  9
$USRTIMER
 70
     1
  9
$ANGBASE
 50
0.0
  9
$ANGDIR
 70
     0
  9
$PDMODE
 70
    65
  9
$PDSIZE
 40
6.2999999999999989
  9
$PLINEWID
 40
0.0
  9
$COORDS
 70
     1
  9
$SPLFRAME
 70
     0
  9
$SPLINETYPE
 70
     6
  9
$SPLINESEGS
 70
     8
  9
$ATTDIA
 70
     1
  9
$ATTREQ
 70
     1
  9
$HANDLING
 70
     1
  9
$HANDSEED
  5
3762
  9
$SURFTAB1
 70
     6
  9
$SURFTAB2
 70
     6
  9
$SURFTYPE
 70
     6
  9
$SURFU
 70
     6
  9
$SURFV
 70
     6
  9
$UCSNAME
  2

  9
$UCSORG
 10
0.0
 20
0.0
 30
0.0
  9
$UCSXDIR
 10
1.0
 20
0.0
 30
0.0
  9
$UCSYDIR
 10
0.0
 20
1.0
 30
0.0
  9
$PUCSNAME
  2

  9
$PUCSORG
 10
0.0
 20
0.0
 30
0.0
  9
$PUCSXDIR
 10
1.0
 20
0.0
 30
0.0
  9
$PUCSYDIR
 10
0.0
 20
1.0
 30
0.0
  9
$USERI1
 70
     0
  9
$USERI2
 70
     0
  9
$USERI3
 70
     0
  9
$USERI4
 70
     0
  9
$USERI5
 70
     0
  9
$USERR1
 40
0.0
  9
$USERR2
 40
0.0
  9
$USERR3
 40
0.0
  9
$USERR4
 40
0.0
  9
$USERR5
 40
0.0
  9
$WORLDVIEW
 70
     1
  9
$SHADEDGE
 70
     3
  9
$SHADEDIF
 70
    70
  9
$TILEMODE
 70
     1
  9
$MAXACTVP
 70
    16
  9
$PLIMCHECK
 70
     0
  9
$PEXTMIN
 10
1.0000000000000000E+020
 20
1.0000000000000000E+020
 30
1.0000000000000000E+020
  9
$PEXTMAX
 10
-1.0000000000000000E+020
 20
-1.0000000000000000E+020
 30
-1.0000000000000000E+020
  9
$PLIMMIN
 10
0.0
 20
0.0
  9
$PLIMMAX
 10
12.0
 20
9.0
  9
$UNITMODE
 70
     0
  9
$VISRETAIN
 70
     0
  9
$PLINEGEN
 70
     0
  9
$PSLTSCALE
 70
     0
  0
ENDSEC
  0
SECTION
  2
TABLES
  0
TABLE
  2
VPORT
 70
   146
  0
VPORT
  2
*ACTIVE
 70
     0
 10
0.0
 20
0.0
 11
1.0
 21
1.0
 12
757.81536040225433
 22
595.76542955583807
 13
0.0
 23
0.0
 14
1.0
 24
1.0
 15
0.0
 25
0.0
 16
0.0
 26
0.0
 36
1.0
 17
0.0
 27
0.0
 37
0.0
 40
620.47031700128036
 41
1.2470433639947429
 42
50.0
 43
0.0
 44
0.0
 50
0.0
 51
0.0
 71
     0
 72
   100
 73
     1
 74
     1
 75
     0
 76
     0
 77
     0
 78
     0
  0
ENDTAB
  0
TABLE
  2
LTYPE
 70
    20
  0
LTYPE
  2
CONTINUOUS
 70
     0
  3
Solid line
 72
    65
 73
     0
 40
0.0
  0
LTYPE
  2
CENTER
 70
     0
  3
____ _ ____ _ ____ _ ____ _ ____ _ ____ _ ____
 72
    65
 73
     4
 40
2.0
 49
1.25
 49
-0.25
 49
0.25
 49
-0.25
  0
LTYPE
  2
HIDDEN
 70
     0
  3
Hidden __ __ __ __ __ __ __ __ __ __ __ __ __ _
 72
    65
 73
     2
 40
0.375
 49
0.25
 49
-0.125
  0
LTYPE
  2
PHANTOM
 70
     0
  3
_____ _ _ _____ _ _ _____ _ _ _____ _ _ ____
 72
    65
 73
     6
 40
2.5
 49
1.25
 49
-0.25
 49
0.25
 49
-0.25
 49
0.25
 49
-0.25
  0
LTYPE
  2
PHANTOM2
 70
     0
  3
Phantom (.5x) ___ _ _ ___ _ _ ___ _ _ ___ _ _
 72
    65
 73
     6
 40
1.25
 49
0.625
 49
-0.125
 49
0.125
 49
-0.125
 49
0.125
 49
-0.125
  0
LTYPE
  2
AMCONSTR
 70
     0
  3
_______________________
 72
    65
 73
     2
 40
9999.0
 49
9999.0
 49
0.0
  0
LTYPE
  2
AM_ISO08W050X2
 70
     0
  3
__ . __ . __ . __ . __ . __
 72
    65
 73
     4
 40
9.0
 49
6.0
 49
-0.75
 49
1.5
 49
-0.75
  0
LTYPE
  2
CENTER2
 70
     0
  3
Center (.5x) ___ _ ___ _ ___ _ ___ _ ___ _ ___
 72
    65
 73
     4
 40
1.125
 49
0.75
 49
-0.125
 49
0.125
 49
-0.125
  0
LTYPE
  2
HIDDEN2
 70
     0
  3
Hidden (.5x) _ _ _ _ _ _ _ _ _ _ _ _ _ _ _ _ _
 72
    65
 73
     2
 40
0.1875
 49
0.125
 49
-0.0625
  0
LTYPE
  2
AMZIGZAG2
 70
     0
  3
/\/-/\/-/\/-/\/-/\/-/\/
 72
    65
 73
     2
 40
0.4401
 49
0.0001
 49
-0.4400000000000001
  0
LTYPE
  2
ACANSTGB
 70
     0
  3
__ . . __ . .
 72
    65
 73
     6
 40
0.35433070866
 49
0.15748031496
 49
-0.03937007874
 49
0.03937007874
 49
-0.03937007874
 49
0.03937007874
 49
-0.03937007874
  0
LTYPE
  2
ACANSTGL
 70
     0
  3
_ _ _ _ _
 72
    65
 73
     2
 40
0.11811023622
 49
0.07874015748
 49
-0.03937007874
  0
LTYPE
  2
ACISOWELD
 70
     0
  3
_ _ _ _ _
 72
    65
 73
     2
 40
2.0
 49
2.0
 49
-1.0
  0
LTYPE
  2
ACISOTGB
 70
     0
  3
__ . . __ . .
 72
    65
 73
     6
 40
9.0
 49
4.0
 49
-1.0
 49
1.0
 49
-1.0
 49
1.0
 49
-1.0
  0
LTYPE
  2
ACISOTGL
 70
     0
  3
_ _ _ _ _
 72
    65
 73
     2
 40
3.0
 49
2.0
 49
-1.0
  0
ENDTAB
  0
TABLE
  2
LAYER
 70
     9
  0
LAYER
  2
0
 70
     0
 62
     7
  6
CONTINUOUS
  0
LAYER
  2
DEFPOINTS
 70
     0
 62
     7
  6
CONTINUOUS
  0
LAYER
  2
DIM
 70
     0
 62
     5
  6
CONTINUOUS
  0
LAYER
  2
CENTER
 70
     0
 62
     1
  6
CENTER
  0
LAYER
  2
LOGO
 70
     0
 62
     7
  6
CONTINUOUS
  0
LAYER
  2
HIDDEN
 70
     0
 62
     6
  6
HIDDEN
  0
LAYER
  2
AM_VIS
 70
     0
 62
     7
  6
CONTINUOUS
  0
LAYER
  2
AM_7
 70
     0
 62
     1
  6
CENTER
  0
ENDTAB
  0
TABLE
  2
STYLE
 70
     9
  0
STYLE
  2
STANDARD
 70
     0
 40
0.0
 41
1.0
 50
0.0
 71
     0
 42
5.0
  3
txt
  4

  0
STYLE
  2
DAYUS
 70
     0
 40
0.0
 41
1.0
 50
0.0
 71
     0
 42
3.0
  3
simplex
  4
dayus
  0
STYLE
  2
CHINESET
 70
     0
 40
0.0
 41
1.0
 50
0.0
 71
     0
 42
2.5
  3
simplex.shx
  4
chineset.shx
  0
STYLE
  2

 70
     1
 40
0.0
 41
1.0
 50
0.0
 71
     0
 42
3.0
  3
ltypeshp.shx
  4

  0
STYLE
  2
ACANSTS
 70
     0
 40
1.0
 41
1.0
 50
0.0
 71
     0
 42
3.0
  3
romans.shx
  4
chineset.shx
  0
STYLE
  2
ACANSGDT
 70
     0
 40
0.0
 41
1.0
 50
0.0
 71
     0
 42
3.0
  3
amgdtans.shx
  4

  0
STYLE
  2
ACISOTS
 70
     0
 40
1.0
 41
1.0
 50
0.0
 71
     0
 42
1.0
  3
isocp.shx
  4
chineset.shx
  0
STYLE
  2
ACISOGDT
 70
     0
 40
0.0
 41
1.0
 50
0.0
 71
     0
 42
2.5
  3
amgdt.shx
  4
chineset.shx
  0
ENDTAB
  0
TABLE
  2
VIEW
 70
     0
  0
ENDTAB
  0
TABLE
  2
UCS
 70
     0
  0
ENDTAB
  0
TABLE
  2
APPID
 70
    20
  0
APPID
  2
ACAD
 70
     0
  0
APPID
  2
MCAD_NO_VIS
 70
     0
  0
APPID
  2
AD_DRAW
 70
     0
  0
APPID
  2
DESIGNERASSEMBLIES
 70
     0
  0
APPID
  2
ASURF_PCURVE_APPNAME
 70
     0
  0
APPID
  2
BLKBOM
 70
     0
  0
APPID
  2
ACAD_TEMP_GRAPHIC
 70
     0
  0
APPID
  2
ACATTRIBSERVICES
 70
     0
  0
APPID
  2
ACADM_DIM_EDIT
 70
     0
  0
APPID
  2
AMDT_DM_ADJ
 70
     0
  0
APPID
  2
GENIUS_GENOENT_13
 70
     0
  0
APPID
  2
GENIUS_GENOBJ-N-CRS_13
 70
     0
  0
APPID
  2
GENIUS_GENOLIS_13
 70
     0
  0
APPID
  2
GENIUS_GENODEF_13
 70
     0
  0
APPID
  2
GENIUS_GENOREF_13
 70
     0
  0
APPID
  2
ACAD_PSEXT
 70
     0
  0
APPID
  2
GENIUS_GENOBJ-N-CEN_13
 70
     0
  0
APPID
  2
GENIUS_GENCEN_19
 70
     0
  0
APPID
  2
GENIUS_GENREC_14
 70
     0
  0
APPID
  2
GENIUS_GENOBJ-N-REC_13
 70
     0
  0
ENDTAB
  0
TABLE
  2
DIMSTYLE
 70
    16
  0
DIMSTYLE
  2
STANDARD
 70
     0
  3

  4

  5

  6

  7

 40
2.0
 41
3.0
 42
2.0
 43
8.0
 44
2.0
 45
0.0
 46
0.0
 47
0.0
 48
0.0
140
3.0
141
2.0
142
0.0
143
25.399999999999999
144
1.0
145
0.0
146
0.6
147
1.0
 71
     0
 72
     0
 73
     0
 74
     0
 75
     0
 76
     0
 77
     1
 78
     8
170
     0
171
     2
172
     1
173
     0
174
     0
175
     0
176
   256
177
   256
178
   256
  0
DIMSTYLE
  2
AM_ANSI
 70
     0
  3

  4
mm
  5

  6

  7

 40
1.0
 41
0.1
 42
0.05
 43
0.5
 44
0.1
 45
0.0
 46
0.0
 47
0.1
 48
0.1
140
0.12
141
0.0
142
0.0
143
25.399999999999999
144
1.0
145
0.0
146
0.71
147
0.06
 71
     0
 72
     0
 73
     1
 74
     1
 75
     0
 76
     0
 77
     0
 78
     7
170
     0
171
     2
172
     0
173
     0
174
     0
175
     0
176
   256
177
   256
178
     2
  0
DIMSTYLE
  2
AM_ANSI$3
 70
     0
  3

  4
mm
  5

  6

  7

 40
1.0
 41
0.1
 42
0.05
 43
0.5
 44
0.1
 45
0.0
 46
0.0
 47
0.1
 48
0.1
140
0.12
141
0.0
142
0.0
143
25.399999999999999
144
1.0
145
0.0
146
0.71
147
0.06
 71
     0
 72
     0
 73
     1
 74
     1
 75
     0
 76
     0
 77
     0
 78
     7
170
     0
171
     2
172
     0
173
     0
174
     0
175
     0
176
   256
177
   256
178
     2
  0
DIMSTYLE
  2
AM_ANSI$4
 70
     0
  3

  4
mm
  5

  6

  7

 40
1.0
 41
0.1
 42
0.05
 43
0.5
 44
0.1
 45
0.0
 46
0.0
 47
0.1
 48
0.1
140
0.12
141
0.0
142
0.0
143
25.399999999999999
144
1.0
145
0.0
146
0.71
147
0.06
 71
     0
 72
     0
 73
     1
 74
     1
 75
     0
 76
     0
 77
     0
 78
     7
170
     0
171
     2
172
     0
173
     0
174
     0
175
     0
176
   256
177
   256
178
     2
  0
DIMSTYLE
  2
AM_ANSI$7
 70
     0
  3

  4
mm
  5

  6

  7

 40
1.0
 41
0.1
 42
0.05
 43
0.5
 44
0.1
 45
0.0
 46
0.0
 47
0.1
 48
0.1
140
0.24
141
0.0
142
0.0
143
25.399999999999999
144
1.0
145
0.0
146
0.71
147
0.06
 71
     0
 72
     0
 73
     1
 74
     1
 75
     0
 76
     0
 77
     0
 78
     7
170
     0
171
     2
172
     0
173
     0
174
     0
175
     0
176
   256
177
   256
178
     2
  0
DIMSTYLE
  2
AM_ANSI$SF
 70
     0
  3

  4
mm
  5

  6

  7

 40
1.0
 41
0.1
 42
0.05
 43
0.5
 44
0.1
 45
0.0
 46
0.0
 47
0.1
 48
0.1
140
0.12
141
0.0
142
0.0
143
25.399999999999999
144
1.0
145
0.0
146
0.71
147
0.06
 71
     0
 72
     0
 73
     1
 74
     1
 75
     1
 76
     1
 77
     0
 78
     7
170
     0
171
     2
172
     0
173
     0
174
     0
175
     0
176
   256
177
   256
178
     2
  0
DIMSTYLE
  2
AM_ANSI$SH
 70
     0
  3

  4
mm
  5

  6
GENAXEH
  7

 40
1.0
 41
0.1
 42
0.05
 43
0.5
 44
0.1
 45
0.0
 46
0.0
 47
0.1
 48
0.1
140
0.12
141
0.0
142
0.0
143
25.399999999999999
144
1.0
145
0.0
146
0.71
147
0.06
 71
     0
 72
     0
 73
     1
 74
     1
 75
     1
 76
     1
 77
     0
 78
     7
170
     0
171
     2
172
     0
173
     1
174
     0
175
     0
176
   256
177
   256
178
     2
  0
DIMSTYLE
  2
AM_ISO
 70
     0
  3

  4
"
  5

  6

  7

 40
1.0
 41
3.0
 42
1.0
 43
15.0
 44
1.5
 45
0.0
 46
0.0
 47
0.1
 48
0.1
140
3.5
141
0.0
142
0.0
143
0.0393701
144
1.0
145
0.0
146
0.6
147
0.8
 71
     0
 72
     0
 73
     0
 74
     0
 75
     0
 76
     0
 77
     1
 78
     8
170
     0
171
     2
172
     1
173
     0
174
     0
175
     0
176
   256
177
   256
178
   256
  0
DIMSTYLE
  2
AM_ISO$3
 70
     0
  3

  4
"
  5

  6

  7

 40
1.0
 41
3.0
 42
1.0
 43
15.0
 44
1.5
 45
0.0
 46
0.0
 47
0.1
 48
0.1
140
3.5
141
0.0
142
0.0
143
0.0393701
144
1.0
145
0.0
146
0.6
147
0.8
 71
     0
 72
     0
 73
     0
 74
     1
 75
     0
 76
     0
 77
     1
 78
     8
170
     0
171
     2
172
     0
173
     0
174
     0
175
     0
176
   256
177
   256
178
   256
  0
DIMSTYLE
  2
AM_ISO$4
 70
     0
  3

  4
"
  5

  6

  7

 40
1.0
 41
3.0
 42
1.0
 43
15.0
 44
1.5
 45
0.0
 46
0.0
 47
0.1
 48
0.1
140
3.5
141
0.0
142
0.0
143
0.0393701
144
1.0
145
0.0
146
0.6
147
0.8
 71
     0
 72
     0
 73
     0
 74
     1
 75
     0
 76
     0
 77
     1
 78
     8
170
     0
171
     2
172
     0
173
     0
174
     0
175
     0
176
   256
177
   256
178
   256
  0
DIMSTYLE
  2
AM_ISO$6
 70
     0
  3

  4
"
  5

  6

  7

 40
1.0
 41
3.0
 42
1.0
 43
15.0
 44
1.5
 45
0.0
 46
0.0
 47
0.1
 48
0.1
140
3.5
141
0.0
142
0.0
143
0.0393701
144
1.0
145
0.0
146
0.6
147
0.8
 71
     0
 72
     0
 73
     0
 74
     0
 75
     0
 76
     0
 77
     0
 78
     8
170
     0
171
     2
172
     1
173
     0
174
     0
175
     0
176
   256
177
   256
178
   256
  0
DIMSTYLE
  2
AM_ISO$7
 70
     0
  3

  4
"
  5

  6

  7

 40
1.0
 41
3.0
 42
1.0
 43
15.0
 44
1.5
 45
0.0
 46
0.0
 47
0.1
 48
0.1
140
5.0
141
0.0
142
0.0
143
0.0393701
144
1.0
145
0.0
146
0.6
147
0.8
 71
     0
 72
     0
 73
     0
 74
     0
 75
     0
 76
     0
 77
     1
 78
     8
170
     0
171
     2
172
     1
173
     0
174
     0
175
     0
176
   256
177
   256
178
   256
  0
DIMSTYLE
  2
AM_ISO$SF
 70
     0
  3

  4
"
  5

  6

  7

 40
1.0
 41
2.5
 42
1.0
 43
10.0
 44
1.0
 45
0.0
 46
0.0
 47
0.1
 48
0.1
140
3.5
141
0.0
142
0.0
143
0.0393701
144
1.0
145
0.0
146
0.71
147
1.5
 71
     0
 72
     0
 73
     0
 74
     0
 75
     1
 76
     1
 77
     1
 78
     8
170
     0
171
     2
172
     1
173
     0
174
     0
175
     0
176
   256
177
   256
178
     2
  0
DIMSTYLE
  2
AM_ISO$SH
 70
     0
  3

  4
"
  5

  6
GENAXEH
  7

 40
1.0
 41
2.5
 42
1.0
 43
10.0
 44
1.0
 45
0.0
 46
0.0
 47
0.1
 48
0.1
140
3.5
141
0.0
142
0.0
143
0.0393701
144
2.0
145
0.0
146
0.71
147
1.5
 71
     0
 72
     0
 73
     0
 74
     0
 75
     1
 76
     1
 77
     1
 78
     8
170
     0
171
     2
172
     1
173
     1
174
     0
175
     0
176
   256
177
   256
178
     2
  0
DIMSTYLE
  2
AM_ISO$0
 70
     0
  3

  4
"
  5

  6

  7

 40
1.0
 41
3.0
 42
1.0
 43
15.0
 44
1.5
 45
0.0
 46
0.0
 47
0.1
 48
0.1
140
3.5
141
0.0
142
0.0
143
0.0393701
144
1.0
145
0.0
146
0.6
147
0.8
 71
     0
 72
     0
 73
     0
 74
     0
 75
     0
 76
     0
 77
     1
 78
     8
170
     0
171
     2
172
     1
173
     0
174
     0
175
     0
176
   256
177
   256
178
   256
  0
DIMSTYLE
  2
STANDARD$0
 70
     0
  3

  4

  5

  6

  7

 40
2.0
 41
3.0
 42
2.0
 43
8.0
 44
2.0
 45
0.0
 46
0.0
 47
0.0
 48
0.0
140
3.0
141
2.0
142
0.0
143
25.399999999999999
144
1.0
145
0.0
146
0.6
147
1.0
 71
     0
 72
     0
 73
     0
 74
     0
 75
     0
 76
     0
 77
     1
 78
     8
170
     0
171
     2
172
     1
173
     0
174
     0
175
     0
176
   256
177
   256
178
   256
  0
ENDTAB
  0
ENDSEC
  0
SECTION
  2
BLOCKS
  0
BLOCK
  8
0
  2
$MODEL_SPACE
 70
     0
 10
0.0
 20
0.0
 30
0.0
  3
$MODEL_SPACE
  1

  0
ENDBLK
  5
6
  8
0
  0
BLOCK
 67
     1
  8
0
  2
$PAPER_SPACE
 70
     0
 10
0.0
 20
0.0
 30
0.0
  3
$PAPER_SPACE
  1

  0
ENDBLK
  5
9
 67
     1
  8
0
  0
BLOCK
  8
0
  2
*D0
 70
     1
 10
0.0
 20
0.0
 30
0.0
  3
*D0
  1

  0
LINE
  5
36A3
  8
DIM
 10
689.40958299670137
 20
807.45268900667168
 30
0.0
 11
689.40958299670137
 21
868.74353034854983
 31
0.0
  0
LINE
  5
36A4
  8
DIM
 10
599.90958299670126
 20
807.4526890066719
 30
0.0
 11
599.90958299670126
 21
868.74353034854983
 31
0.0
  0
LINE
  5
36A5
  8
DIM
 10
683.40958299670126
 20
866.74353034854994
 30
0.0
 11
605.90958299670126
 21
866.74353034854994
 31
0.0
  0
SOLID
  5
36A6
  8
DIM
 10
683.40958299670126
 20
867.74353034854983
 30
0.0
 11
683.40958299670126
 21
865.74353034854994
 31
0.0
 12
689.40958299670137
 22
866.74353034854994
 32
0.0
 13
689.40958299670137
 23
866.74353034854994
 33
0.0
  0
SOLID
  5
36A7
  8
DIM
 10
605.90958299670126
 20
867.74353034854983
 30
0.0
 11
605.90958299670126
 21
865.74353034854994
 31
0.0
 12
599.90958299670126
 22
866.74353034854994
 32
0.0
 13
599.90958299670126
 23
866.74353034854994
 33
0.0
  0
TEXT
  8
DIM
  40
6
  5
3755
  72
0
  71
0
 10
632.660
 20
861.124
 30
0.000000
  1
89.5
  7
CHINESET
  0
POINT
  5
36A9
  8
DEFPOINTS
 62
     0
 10
689.40958299670137
 20
805.45268900667179
 30
0.0
  0
POINT
  5
36AA
  8
DEFPOINTS
 62
     0
 10
599.90958299670126
 20
805.4526890066719
 30
0.0
  0
POINT
  5
36AB
  8
DEFPOINTS
 62
     0
 10
599.90958299670126
 20
866.74353034854994
 30
0.0
  0
ENDBLK
  5
2D9E
  8
0
  0
BLOCK
  8
0
  2
*D1
 70
     1
 10
0.0
 20
0.0
 30
0.0
  3
*D1
  1

  0
LINE
  5
36AC
  8
DIM
 10
678.11924235823403
 20
823.20268900667179
 30
0.0
 11
718.32387710873138
 21
823.20268900667179
 31
0.0
  0
LINE
  5
36AD
  8
DIM
 10
678.11924235823403
 20
733.70268900667168
 30
0.0
 11
718.32387710873115
 21
733.70268900667168
 31
0.0
  0
LINE
  5
36AE
  8
DIM
 10
716.32387710873127
 20
817.20268900667168
 30
0.0
 11
716.32387710873115
 21
739.70268900667179
 31
0.0
  0
SOLID
  5
36AF
  8
DIM
 10
715.32387710873127
 20
817.20268900667168
 30
0.0
 11
717.32387710873127
 21
817.20268900667168
 31
0.0
 12
716.32387710873127
 22
823.20268900667179
 32
0.0
 13
716.32387710873127
 23
823.20268900667179
 33
0.0
  0
SOLID
  5
36B0
  8
DIM
 10
715.32387710873127
 20
739.70268900667179
 30
0.0
 11
717.32387710873115
 21
739.70268900667179
 31
0.0
 12
716.32387710873115
 22
733.70268900667168
 32
0.0
 13
716.32387710873115
 23
733.70268900667168
 33
0.0
  0
TEXT
  8
DIM
  40
6
  5
3756
  72
0
  71
0
 10
699.324
 20
767.833
 30
0.000000
  1
89.5
  7
CHINESET
  0
POINT
  5
36B2
  8
DEFPOINTS
 62
     0
 10
676.11924235823403
 20
823.20268900667179
 30
0.0
  0
POINT
  5
36B3
  8
DEFPOINTS
 62
     0
 10
676.11924235823403
 20
733.70268900667168
 30
0.0
  0
POINT
  5
36B4
  8
DEFPOINTS
 62
     0
 10
716.32387710873115
 20
733.70268900667168
 30
0.0
  0
ENDBLK
  5
2DB4
  8
0
  0
BLOCK
  8
0
  2
*D2
 70
     1
 10
0.0
 20
0.0
 30
0.0
  3
*D2
  1

  0
LINE
  5
36B5
  8
DIM
 10
678.11924235823403
 20
823.20268900667179
 30
0.0
 11
734.32387710873138
 21
823.20268900667179
 31
0.0
  0
LINE
  5
36B6
  8
DIM
 10
673.15958299670126
 20
703.45268900667236
 30
0.0
 11
734.32387710873115
 21
703.45268900667236
 31
0.0
  0
LINE
  5
36B7
  8
DIM
 10
732.32387710873127
 20
817.20268900667168
 30
0.0
 11
732.32387710873127
 21
709.45268900667236
 31
0.0
  0
SOLID
  5
36B8
  8
DIM
 10
731.32387710873138
 20
817.20268900667168
 30
0.0
 11
733.32387710873127
 21
817.20268900667168
 31
0.0
 12
732.32387710873127
 22
823.20268900667179
 32
0.0
 13
732.32387710873127
 23
823.20268900667179
 33
0.0
  0
SOLID
  5
36B9
  8
DIM
 10
731.32387710873127
 20
709.45268900667236
 30
0.0
 11
733.32387710873115
 21
709.45268900667236
 31
0.0
 12
732.32387710873127
 22
703.45268900667236
 32
0.0
 13
732.32387710873127
 23
703.45268900667236
 33
0.0
  0
TEXT
  8
DIM
  40
6
  5
3757
  72
0
  71
0
 10
715.324
 20
752.708
 30
0.000000
  1
119.75
  7
CHINESET
  0
POINT
  5
36BB
  8
DEFPOINTS
 62
     0
 10
676.11924235823403
 20
823.20268900667179
 30
0.0
  0
POINT
  5
36BC
  8
DEFPOINTS
 62
     0
 10
671.15958299670137
 20
703.45268900667236
 30
0.0
  0
POINT
  5
36BD
  8
DEFPOINTS
 62
     0
 10
732.32387710873127
 20
703.45268900667236
 30
0.0
  0
ENDBLK
  5
2DC1
  8
0
  0
BLOCK
  8
0
  2
*D3
 70
     1
 10
0.0
 20
0.0
 30
0.0
  3
*D3
  1

  0
LINE
  5
36BE
  8
DIM
 10
659.15958299670137
 20
458.74945547943901
 30
0.0
 11
718.32387710873115
 21
458.74945547943901
 31
0.0
  0
LINE
  5
36BF
  8
DIM
 10
656.65958299670115
 20
501.74945547943878
 30
0.0
 11
718.32387710873115
 21
501.74945547943878
 31
0.0
  0
LINE
  5
36C0
  8
DIM
 10
716.32387710873115
 20
464.74945547943889
 30
0.0
 11
716.32387710873115
 21
495.74945547943878
 31
0.0
  0
SOLID
  5
36C1
  8
DIM
 10
715.32387710873127
 20
464.74945547943889
 30
0.0
 11
717.32387710873115
 21
464.74945547943889
 31
0.0
 12
716.32387710873115
 22
458.74945547943901
 32
0.0
 13
716.32387710873115
 23
458.74945547943901
 33
0.0
  0
SOLID
  5
36C2
  8
DIM
 10
715.32387710873127
 20
495.74945547943878
 30
0.0
 11
717.32387710873115
 21
495.74945547943878
 31
0.0
 12
716.32387710873115
 22
501.74945547943878
 32
0.0
 13
716.32387710873115
 23
501.74945547943878
 33
0.0
  0
TEXT
  8
DIM
  40
6
  5
3758
  72
0
  71
0
 10
699.324
 20
469.629
 30
0.000000
  1
43
  7
CHINESET
  0
POINT
  5
36C4
  8
DEFPOINTS
 62
     0
 10
657.15958299670126
 20
458.74945547943901
 30
0.0
  0
POINT
  5
36C5
  8
DEFPOINTS
 62
     0
 10
654.65958299670115
 20
501.74945547943878
 30
0.0
  0
POINT
  5
36C6
  8
DEFPOINTS
 62
     0
 10
716.32387710873115
 20
501.74945547943878
 30
0.0
  0
ENDBLK
  5
2DE0
  8
0
  0
BLOCK
  8
0
  2
*D4
 70
     1
 10
0.0
 20
0.0
 30
0.0
  3
*D4
  1

  0
LINE
  5
36C7
  8
DIM
 10
659.15958299670137
 20
458.74945547943901
 30
0.0
 11
733.10151824036882
 21
458.74945547943901
 31
0.0
  0
LINE
  5
36C8
  8
DIM
 10
667.08431417949691
 20
622.74945547943844
 30
0.0
 11
733.10151824036882
 21
622.74945547943844
 31
0.0
  0
LINE
  5
36C9
  8
DIM
 10
731.1015182403687
 20
464.74945547943889
 30
0.0
 11
731.1015182403687
 21
616.74945547943844
 31
0.0
  0
SOLID
  5
36CA
  8
DIM
 10
730.10151824036882
 20
464.74945547943889
 30
0.0
 11
732.10151824036882
 21
464.74945547943889
 31
0.0
 12
731.1015182403687
 22
458.74945547943901
 32
0.0
 13
731.1015182403687
 23
458.74945547943901
 33
0.0
  0
SOLID
  5
36CB
  8
DIM
 10
730.10151824036882
 20
616.74945547943844
 30
0.0
 11
732.10151824036882
 21
616.74945547943844
 31
0.0
 12
731.1015182403687
 22
622.74945547943844
 32
0.0
 13
731.1015182403687
 23
622.74945547943844
 33
0.0
  0
TEXT
  8
DIM
  40
6
  5
3759
  72
0
  71
0
 10
714.102
 20
527.589
 30
0.000000
  1
164
  7
CHINESET
  0
POINT
  5
36CD
  8
DEFPOINTS
 62
     0
 10
657.15958299670126
 20
458.74945547943901
 30
0.0
  0
POINT
  5
36CE
  8
DEFPOINTS
 62
     0
 10
665.08431417949691
 20
622.74945547943844
 30
0.0
  0
POINT
  5
36CF
  8
DEFPOINTS
 62
     0
 10
731.1015182403687
 20
622.74945547943844
 30
0.0
  0
ENDBLK
  5
2DED
  8
0
  0
BLOCK
  8
0
  2
*D5
 70
     1
 10
0.0
 20
0.0
 30
0.0
  3
*D5
  1

  0
LINE
  5
36D0
  8
DIM
 10
877.36977478961455
 20
458.74945547943918
 30
0.0
 11
940.16172905489225
 21
458.74945547943918
 31
0.0
  0
LINE
  5
36D1
  8
DIM
 10
884.47058570521438
 20
505.7494554794385
 30
0.0
 11
940.16172905489225
 21
505.74945547943838
 31
0.0
  0
LINE
  5
36D2
  8
DIM
 10
938.16172905489225
 20
464.74945547943912
 30
0.0
 11
938.16172905489225
 21
499.7494554794385
 31
0.0
  0
SOLID
  5
36D3
  8
DIM
 10
937.16172905489225
 20
464.74945547943912
 30
0.0
 11
939.16172905489213
 21
464.74945547943912
 31
0.0
 12
938.16172905489225
 22
458.74945547943918
 32
0.0
 13
938.16172905489225
 23
458.74945547943918
 33
0.0
  0
SOLID
  5
36D4
  8
DIM
 10
937.16172905489225
 20
499.7494554794385
 30
0.0
 11
939.16172905489213
 21
499.7494554794385
 31
0.0
 12
938.16172905489225
 22
505.74945547943838
 32
0.0
 13
938.16172905489225
 23
505.74945547943838
 33
0.0
  0
TEXT
  8
DIM
  40
6
  5
375A
  72
0
  71
0
 10
921.162
 20
471.629
 30
0.000000
  1
47
  7
CHINESET
  0
POINT
  5
36D6
  8
DEFPOINTS
 62
     0
 10
875.36977478961433
 20
458.74945547943918
 30
0.0
  0
POINT
  5
36D7
  8
DEFPOINTS
 62
     0
 10
882.47058570521438
 20
505.7494554794385
 30
0.0
  0
POINT
  5
36D8
  8
DEFPOINTS
 62
     0
 10
938.16172905489225
 20
505.74945547943838
 30
0.0
  0
ENDBLK
  5
2DFA
  8
0
  0
BLOCK
  8
0
  2
*D6
 70
     1
 10
0.0
 20
0.0
 30
0.0
  3
*D6
  1

  0
LINE
  5
36D9
  8
DIM
 10
884.47058570521438
 20
505.7494554794385
 30
0.0
 11
940.16172905489225
 21
505.74945547943838
 31
0.0
  0
LINE
  5
36DA
  8
DIM
 10
883.20604870429088
 20
622.74945547943844
 30
0.0
 11
940.16172905489225
 21
622.74945547943844
 31
0.0
  0
LINE
  5
36DB
  8
DIM
 10
938.16172905489225
 20
511.7494554794385
 30
0.0
 11
938.16172905489225
 21
616.74945547943844
 31
0.0
  0
SOLID
  5
36DC
  8
DIM
 10
937.16172905489225
 20
511.7494554794385
 30
0.0
 11
939.16172905489213
 21
511.7494554794385
 31
0.0
 12
938.16172905489225
 22
505.74945547943838
 32
0.0
 13
938.16172905489225
 23
505.74945547943838
 33
0.0
  0
SOLID
  5
36DD
  8
DIM
 10
937.16172905489225
 20
616.74945547943844
 30
0.0
 11
939.16172905489213
 21
616.74945547943844
 31
0.0
 12
938.16172905489225
 22
622.74945547943844
 32
0.0
 13
938.16172905489225
 23
622.74945547943844
 33
0.0
  0
TEXT
  8
DIM
  40
6
  5
375B
  72
0
  71
0
 10
921.162
 20
553.629
 30
0.000000
  1
117
  7
CHINESET
  0
POINT
  5
36DF
  8
DEFPOINTS
 62
     0
 10
882.47058570521438
 20
505.7494554794385
 30
0.0
  0
POINT
  5
36E0
  8
DEFPOINTS
 62
     0
 10
881.20604870429088
 20
622.74945547943844
 30
0.0
  0
POINT
  5
36E1
  8
DEFPOINTS
 62
     0
 10
938.16172905489225
 20
622.74945547943844
 30
0.0
  0
ENDBLK
  5
2E07
  8
0
  0
BLOCK
  8
0
  2
GENAXEH
 70
     0
 10
0.0
 20
0.0
 30
0.0
  3
GENAXEH
  1

  0
LINE
  5
3037
  8
0
 10
-1.0
 20
0.0
 30
0.0
 11
1.0
 21
0.0
 31
0.0
  0
ENDBLK
  5
3039
  8
0
  0
BLOCK
  8
0
  2
A$C6E4D5685
 70
     0
 10
0.0
 20
0.0
 30
0.0
  3
A$C6E4D5685
  1

  0
LINE
  5
304C
  8
AM_VIS
 62
     3
 10
-67.0
 20
-25.0
 30
0.0
 11
-67.0
 21
-22.699999999999989
 31
0.0
  0
LINE
  5
304D
  8
AM_VIS
 62
     3
 10
0.0
 20
-25.0
 30
0.0
 11
0.0
 21
-22.699999999999989
 31
0.0
  0
LINE
  5
304E
  8
AM_VIS
 62
     3
 10
-67.0
 20
-22.699999999999989
 30
0.0
 11
-67.0
 21
0.0
 31
0.0
  0
LINE
  5
304F
  8
AM_VIS
 62
     3
 10
0.0
 20
0.0
 30
0.0
 11
-67.0
 21
0.0
 31
0.0
  0
LINE
  5
3050
  8
AM_VIS
 62
     3
 10
0.0
 20
-22.699999999999989
 30
0.0
 11
0.0
 21
0.0
 31
0.0
  0
LINE
  5
3051
  8
AM_VIS
 62
     3
 10
-60.0
 20
-4.25
 30
0.0
 11
-51.0
 21
-4.25
 31
0.0
  0
LINE
  5
3052
  8
AM_VIS
 62
     3
 10
-51.0
 20
-10.75
 30
0.0
 11
-60.0
 21
-10.75
 31
0.0
  0
LINE
  5
3053
  8
AM_VIS
 62
     3
 10
-16.0
 20
-4.25
 30
0.0
 11
-7.0
 21
-4.25
 31
0.0
  0
LINE
  5
3054
  8
AM_VIS
 62
     3
 10
-7.0
 20
-10.75
 30
0.0
 11
-16.0
 21
-10.75
 31
0.0
  0
LINE
  5
3055
  8
AM_VIS
 62
     3
 10
-67.0
 20
-25.0
 30
0.0
 11
0.0
 21
-25.0
 31
0.0
  0
LINE
  5
3056
  8
AM_VIS
 62
     3
 10
-67.0
 20
-22.699999999999989
 30
0.0
 11
0.0
 21
-22.699999999999989
 31
0.0
  0
ARC
  5
3057
  8
AM_VIS
 62
     3
 10
-60.0
 20
-7.5
 30
0.0
 40
3.25
 50
90.0
 51
270.0
  0
ARC
  5
3058
  8
AM_VIS
 62
     3
 10
-51.0
 20
-7.5
 30
0.0
 40
3.25
 50
270.0
 51
90.0
  0
ARC
  5
3059
  8
AM_VIS
 62
     3
 10
-16.0
 20
-7.5
 30
0.0
 40
3.25
 50
90.0
 51
270.0
  0
ARC
  5
305A
  8
AM_VIS
 62
     3
 10
-7.0
 20
-7.5
 30
0.0
 40
3.25
 50
270.0
 51
90.0
  0
LINE
  5
305B
  8
AM_7
  6
AM_ISO08W050X2
 10
-60.0
 20
-7.5
 30
0.0
 11
-54.75
 21
-7.5
 31
0.0
1001
GENIUS_GENOREF_13
1005
306E
  0
LINE
  5
305C
  8
AM_7
  6
AM_ISO08W050X2
 10
-60.0
 20
-7.5
 30
0.0
 11
-60.0
 21
-2.25
 31
0.0
1001
GENIUS_GENOREF_13
1005
306E
  0
LINE
  5
305D
  8
AM_7
  6
AM_ISO08W050X2
 10
-60.0
 20
-7.5
 30
0.0
 11
-65.25
 21
-7.5
 31
0.0
1001
GENIUS_GENOREF_13
1005
306E
  0
LINE
  5
305E
  8
AM_7
  6
AM_ISO08W050X2
 10
-60.0
 20
-7.5
 30
0.0
 11
-60.0
 21
-12.75
 31
0.0
1001
GENIUS_GENOREF_13
1005
306E
  0
LINE
  5
305F
  8
AM_7
  6
AM_ISO08W050X2
 10
-51.0
 20
-7.5
 30
0.0
 11
-45.75
 21
-7.5
 31
0.0
1001
GENIUS_GENOREF_13
1005
306D
  0
LINE
  5
3060
  8
AM_7
  6
AM_ISO08W050X2
 10
-51.0
 20
-7.5
 30
0.0
 11
-51.0
 21
-2.25
 31
0.0
1001
GENIUS_GENOREF_13
1005
306D
  0
LINE
  5
3061
  8
AM_7
  6
AM_ISO08W050X2
 10
-51.0
 20
-7.5
 30
0.0
 11
-56.25
 21
-7.5
 31
0.0
1001
GENIUS_GENOREF_13
1005
306D
  0
LINE
  5
3062
  8
AM_7
  6
AM_ISO08W050X2
 10
-51.0
 20
-7.5
 30
0.0
 11
-51.0
 21
-12.75
 31
0.0
1001
GENIUS_GENOREF_13
1005
306D
  0
LINE
  5
3063
  8
AM_7
  6
AM_ISO08W050X2
 10
-16.0
 20
-7.5
 30
0.0
 11
-10.75
 21
-7.5
 31
0.0
1001
GENIUS_GENOREF_13
1005
306C
  0
LINE
  5
3064
  8
AM_7
  6
AM_ISO08W050X2
 10
-16.0
 20
-7.5
 30
0.0
 11
-16.0
 21
-2.25
 31
0.0
1001
GENIUS_GENOREF_13
1005
306C
  0
LINE
  5
3065
  8
AM_7
  6
AM_ISO08W050X2
 10
-16.0
 20
-7.5
 30
0.0
 11
-21.25
 21
-7.5
 31
0.0
1001
GENIUS_GENOREF_13
1005
306C
  0
LINE
  5
3066
  8
AM_7
  6
AM_ISO08W050X2
 10
-16.0
 20
-7.5
 30
0.0
 11
-16.0
 21
-12.75
 31
0.0
1001
GENIUS_GENOREF_13
1005
306C
  0
LINE
  5
3067
  8
AM_7
  6
AM_ISO08W050X2
 10
-7.0
 20
-7.5
 30
0.0
 11
-1.75
 21
-7.5
 31
0.0
1001
GENIUS_GENOREF_13
1005
306B
  0
LINE
  5
3068
  8
AM_7
  6
AM_ISO08W050X2
 10
-7.0
 20
-7.5
 30
0.0
 11
-7.0
 21
-2.25
 31
0.0
1001
GENIUS_GENOREF_13
1005
306B
  0
LINE
  5
3069
  8
AM_7
  6
AM_ISO08W050X2
 10
-7.0
 20
-7.5
 30
0.0
 11
-12.25
 21
-7.5
 31
0.0
1001
GENIUS_GENOREF_13
1005
306B
  0
LINE
  5
306A
  8
AM_7
  6
AM_ISO08W050X2
 10
-7.0
 20
-7.5
 30
0.0
 11
-7.0
 21
-12.75
 31
0.0
1001
GENIUS_GENOREF_13
1005
306B
  0
POINT
  5
306B
  8
0
 10
-942.04651524484177
 20
-369.45186219477432
 30
0.0
1001
GENIUS_GENOLIS_13
1002
{
1000
ENT
1005
306A
1005
3069
1005
3068
1005
3067
1002
}
1001
GENIUS_GENOBJ-N-CRS_13
1002
{
1000
OWNER
1000
GEN
1002
}
1001
GENIUS_GENODEF_13
1002
{
1000
HIER
1070
    10
1002
}
1002
{
1000
MANEDIT
1070
     0
1002
}
1002
{
1000
NOSEL
1070
     0
1002
}
1002
{
1000
BEHIND
1070
     0
1002
}
1002
{
1000
OTHER
1070
     0
1002
}
1002
{
1000
REACTOR
1002
}
1001
GENIUS_GENOENT_13
1002
{
1000
MYREF
1005
306B
1002
}
1002
{
1000
GRP
1005
0
1002
}
  0
POINT
  5
306C
  8
0
 10
-942.04651524484177
 20
-369.45186219477432
 30
0.0
1001
GENIUS_GENOENT_13
1002
{
1000
MYREF
1005
306C
1002
}
1002
{
1000
GRP
1005
0
1002
}
1001
GENIUS_GENOBJ-N-CRS_13
1002
{
1000
OWNER
1000
GEN
1002
}
1001
GENIUS_GENODEF_13
1002
{
1000
HIER
1070
    10
1002
}
1002
{
1000
MANEDIT
1070
     0
1002
}
1002
{
1000
NOSEL
1070
     0
1002
}
1002
{
1000
BEHIND
1070
     0
1002
}
1002
{
1000
OTHER
1070
     0
1002
}
1002
{
1000
REACTOR
1002
}
1001
GENIUS_GENOLIS_13
1002
{
1000
ENT
1005
3066
1005
3065
1005
3064
1005
3063
1002
}
  0
POINT
  5
306D
  8
0
 10
-942.04651524484177
 20
-369.45186219477432
 30
0.0
1001
GENIUS_GENODEF_13
1002
{
1000
HIER
1070
    10
1002
}
1002
{
1000
MANEDIT
1070
     0
1002
}
1002
{
1000
NOSEL
1070
     0
1002
}
1002
{
1000
BEHIND
1070
     0
1002
}
1002
{
1000
OTHER
1070
     0
1002
}
1002
{
1000
REACTOR
1002
}
1001
GENIUS_GENOLIS_13
1002
{
1000
ENT
1005
3062
1005
3061
1005
3060
1005
305F
1002
}
1001
GENIUS_GENOENT_13
1002
{
1000
MYREF
1005
306D
1002
}
1002
{
1000
GRP
1005
0
1002
}
1001
GENIUS_GENOBJ-N-CRS_13
1002
{
1000
OWNER
1000
GEN
1002
}
  0
POINT
  5
306E
  8
0
 10
-942.04651524484177
 20
-369.45186219477432
 30
0.0
1001
GENIUS_GENOENT_13
1002
{
1000
MYREF
1005
306E
1002
}
1002
{
1000
GRP
1005
0
1002
}
1001
GENIUS_GENOBJ-N-CRS_13
1002
{
1000
OWNER
1000
GEN
1002
}
1001
GENIUS_GENODEF_13
1002
{
1000
HIER
1070
    10
1002
}
1002
{
1000
MANEDIT
1070
     0
1002
}
1002
{
1000
NOSEL
1070
     0
1002
}
1002
{
1000
BEHIND
1070
     0
1002
}
1002
{
1000
OTHER
1070
     0
1002
}
1002
{
1000
REACTOR
1002
}
1001
GENIUS_GENOLIS_13
1002
{
1000
ENT
1005
305E
1005
305D
1005
305C
1005
305B
1002
}
  0
ENDBLK
  5
306F
  8
0
  0
BLOCK
  8
0
  2
*D20
 70
     1
 10
0.0
 20
0.0
 30
0.0
  3
*D20
  1

  0
LINE
  5
36E6
  8
DIM
 10
673.15958299670126
 20
564.49945547943844
 30
0.0
 11
691.56092483689656
 21
564.49945547943844
 31
0.0
  0
LINE
  5
36E7
  8
DIM
 10
673.15958299670126
 20
570.99945547943844
 30
0.0
 11
691.56092483689656
 21
570.99945547943844
 31
0.0
  0
LINE
  5
36E8
  8
DIM
 10
689.56092483689645
 20
558.49945547943844
 30
0.0
 11
689.56092483689645
 21
552.49945547943844
 31
0.0
  0
LINE
  5
36E9
  8
DIM
 10
689.56092483689645
 20
576.99945547943844
 30
0.0
 11
689.56092483689645
 21
599.57088405086699
 31
0.0
  0
LINE
  5
36EA
  8
DIM
 10
689.56092483689645
 20
564.49945547943844
 30
0.0
 11
689.56092483689645
 21
570.99945547943844
 31
0.0
  0
SOLID
  5
36EB
  8
DIM
 10
688.56092483689645
 20
558.49945547943844
 30
0.0
 11
690.56092483689645
 21
558.49945547943844
 31
0.0
 12
689.56092483689645
 22
564.49945547943844
 32
0.0
 13
689.56092483689645
 23
564.49945547943844
 33
0.0
  0
SOLID
  5
36EC
  8
DIM
 10
688.56092483689645
 20
576.99945547943844
 30
0.0
 11
690.56092483689645
 21
576.99945547943844
 31
0.0
 12
689.56092483689645
 22
570.99945547943844
 32
0.0
 13
689.56092483689645
 23
570.99945547943844
 33
0.0
  0
TEXT
  8
DIM
  40
6
  5
375C
  72
0
  71
0
 10
672.561
 20
580.665
 30
0.000000
  1
6.5
  7
CHINESET
  0
POINT
  5
36EE
  8
DEFPOINTS
 62
     0
 10
671.15958299670137
 20
564.49945547943844
 30
0.0
  0
POINT
  5
36EF
  8
DEFPOINTS
 62
     0
 10
671.15958299670137
 20
570.99945547943844
 30
0.0
  0
POINT
  5
36F0
  8
DEFPOINTS
 62
     0
 10
689.56092483689645
 20
570.99945547943844
 30
0.0
  0
ENDBLK
  5
30CE
  8
0
  0
BLOCK
  8
0
  2
A$C5278498E
 70
     0
 10
0.0
 20
0.0
 30
0.0
  3
A$C5278498E
  1

  0
LINE
  5
316A
  8
AM_VIS
 62
     3
 10
33.5
 20
49.5
 30
0.0
 11
33.5
 21
0.0
 31
0.0
  0
LINE
  5
316B
  8
AM_VIS
 62
     3
 10
33.5
 20
51.5
 30
0.0
 11
33.5
 21
49.5
 31
0.0
  0
LINE
  5
316C
  8
AM_VIS
 62
     3
 10
-33.5
 20
49.5
 30
0.0
 11
-33.5
 21
51.5
 31
0.0
  0
LINE
  5
316D
  8
AM_VIS
 62
     3
 10
-33.5
 20
51.5
 30
0.0
 11
33.5
 21
51.5
 31
0.0
  0
LINE
  5
316E
  8
AM_VIS
 62
     3
 10
33.5
 20
49.5
 30
0.0
 11
-33.5
 21
49.5
 31
0.0
  0
ARC
  5
316F
  8
AM_VIS
 62
     3
 10
0.0
 20
0.0
 30
0.0
 40
33.5
 50
180.0
 51
0.0
  0
LINE
  5
3170
  8
AM_VIS
 62
     3
 10
-33.5
 20
0.0
 30
0.0
 11
-33.5
 21
49.5
 31
0.0
  0
LINE
  5
3171
  8
AM_7
  6
AM_ISO08W050X2
 10
-26.5
 20
47.953721164882722
 30
0.0
 11
-26.5
 21
53.203721164882722
 31
0.0
  0
LINE
  5
3172
  8
AM_7
  6
AM_ISO08W050X2
 10
-17.5
 20
47.953721164882722
 30
0.0
 11
-17.5
 21
53.203721164882722
 31
0.0
  0
LINE
  5
3173
  8
AM_7
  6
AM_ISO08W050X2
 10
17.5
 20
47.953721164882722
 30
0.0
 11
17.5
 21
53.203721164882722
 31
0.0
  0
LINE
  5
3174
  8
AM_7
  6
AM_ISO08W050X2
 10
26.5
 20
47.953721164882722
 30
0.0
 11
26.5
 21
53.203721164882722
 31
0.0
  0
ENDBLK
  5
3175
  8
0
  0
BLOCK
  8
0
  2
A$C0EB06734
 70
     0
 10
0.0
 20
0.0
 30
0.0
  3
A$C0EB06734
  1

  0
LINE
  5
3187
  8
AM_VIS
 62
     3
 10
0.0
 20
-22.99999999999994
 30
0.0
 11
0.0
 21
0.0
 31
0.0
  0
ARC
  5
3188
  8
AM_VIS
 62
     3
 10
-2.0
 20
-22.99999999999994
 30
0.0
 40
2.0
 50
270.0
 51
0.0
  0
LINE
  5
3189
  8
AM_VIS
 62
     3
 10
-2.0
 20
-24.99999999999995
 30
0.0
 11
-51.5
 21
-25.0
 31
0.0
  0
LINE
  5
318A
  8
AM_VIS
 62
     3
 10
-4.3000000000000682
 20
-22.699999999999989
 30
0.0
 11
-51.5
 21
-22.699999999999989
 31
0.0
  0
LINE
  5
318B
  8
AM_VIS
 62
     3
 10
0.0
 20
0.0
 30
0.0
 11
-2.2999999999999541
 21
0.0
 31
0.0
  0
LINE
  5
318C
  8
AM_VIS
 62
     3
 10
-2.3000000000000682
 20
-20.699999999999989
 30
0.0
 11
-2.2999999999999541
 21
0.0
 31
0.0
  0
ARC
  5
318D
  8
AM_VIS
 62
     3
 10
-4.3000000000000682
 20
-20.699999999999989
 30
0.0
 40
2.0
 50
270.0
 51
0.0
  0
LINE
  5
318E
  8
AM_VIS
 62
     3
 10
-85.0
 20
-25.0
 30
0.0
 11
-85.0
 21
-22.699999999999989
 31
0.0
  0
LINE
  5
318F
  8
AM_VIS
 62
     3
 10
-85.0
 20
-25.0
 30
0.0
 11
-51.5
 21
-25.0
 31
0.0
  0
LINE
  5
3190
  8
AM_VIS
 62
     3
 10
-85.0
 20
-22.699999999999989
 30
0.0
 11
-51.5
 21
-22.699999999999989
 31
0.0
  0
LINE
  5
3191
  8
AM_7
  6
AM_ISO08W050X2
 10
-3.8848834137461381
 20
-7.5
 30
0.0
 11
1.665116586253816
 21
-7.5
 31
0.0
  0
ENDBLK
  5
3192
  8
0
  0
BLOCK
  8
0
  2
*D31
 70
     1
 10
0.0
 20
0.0
 30
0.0
  3
*D31
  1

  0
LINE
  5
3705
  8
DIM
 10
860.78131752149534
 20
630.50036350330276
 30
0.0
 11
860.78131752149534
 21
652.68091566280191
 31
0.0
  0
LINE
  5
3706
  8
DIM
 10
912.28131752149545
 20
577.24945547943832
 30
0.0
 11
912.28131752149545
 21
652.68091566280191
 31
0.0
  0
LINE
  5
3707
  8
DIM
 10
866.78131752149545
 20
650.68091566280191
 30
0.0
 11
906.28131752149534
 21
650.68091566280191
 31
0.0
  0
SOLID
  5
3708
  8
DIM
 10
866.78131752149545
 20
651.68091566280191
 30
0.0
 11
866.78131752149545
 21
649.68091566280179
 31
0.0
 12
860.78131752149534
 22
650.68091566280191
 32
0.0
 13
860.78131752149534
 23
650.68091566280191
 33
0.0
  0
SOLID
  5
3709
  8
DIM
 10
906.28131752149534
 20
651.68091566280191
 30
0.0
 11
906.28131752149534
 21
649.68091566280179
 31
0.0
 12
912.28131752149545
 22
650.68091566280191
 32
0.0
 13
912.28131752149545
 23
650.68091566280191
 33
0.0
  0
TEXT
  8
DIM
  40
6
  5
375D
  72
0
  71
0
 10
874.531
 20
645.061
 30
0.000000
  1
51.5
  7
CHINESET
  0
POINT
  5
370B
  8
DEFPOINTS
 62
     0
 10
860.78131752149534
 20
628.50036350330265
 30
0.0
  0
POINT
  5
370C
  8
DEFPOINTS
 62
     0
 10
912.28131752149545
 20
575.24945547943832
 30
0.0
  0
POINT
  5
370D
  8
DEFPOINTS
 62
     0
 10
912.28131752149545
 20
650.68091566280191
 30
0.0
  0
ENDBLK
  5
3224
  8
0
  0
BLOCK
  8
0
  2
*D32
 70
     1
 10
0.0
 20
0.0
 30
0.0
  3
*D32
  1

  0
LINE
  5
370E
  8
DIM
 10
884.47058570521438
 20
505.7494554794385
 30
0.0
 11
924.16172905489225
 21
505.74945547943838
 31
0.0
  0
LINE
  5
370F
  8
DIM
 10
915.94643410774916
 20
567.74945547943832
 30
0.0
 11
924.16172905489225
 21
567.74945547943832
 31
0.0
  0
LINE
  5
3710
  8
DIM
 10
922.16172905489213
 20
511.7494554794385
 30
0.0
 11
922.16172905489213
 21
561.74945547943832
 31
0.0
  0
SOLID
  5
3711
  8
DIM
 10
921.16172905489225
 20
511.7494554794385
 30
0.0
 11
923.16172905489225
 21
511.7494554794385
 31
0.0
 12
922.16172905489213
 22
505.74945547943838
 32
0.0
 13
922.16172905489213
 23
505.74945547943838
 33
0.0
  0
SOLID
  5
3712
  8
DIM
 10
921.16172905489225
 20
561.74945547943832
 30
0.0
 11
923.16172905489225
 21
561.74945547943832
 31
0.0
 12
922.16172905489213
 22
567.74945547943832
 32
0.0
 13
922.16172905489213
 23
567.74945547943832
 33
0.0
  0
TEXT
  8
DIM
  40
6
  5
375E
  72
0
  71
0
 10
905.162
 20
526.129
 30
0.000000
  1
62
  7
CHINESET
  0
POINT
  5
3714
  8
DEFPOINTS
 62
     0
 10
882.47058570521438
 20
505.7494554794385
 30
0.0
  0
POINT
  5
3715
  8
DEFPOINTS
 62
     0
 10
913.94643410774916
 20
567.74945547943832
 30
0.0
  0
POINT
  5
3716
  8
DEFPOINTS
 62
     0
 10
922.16172905489213
 20
567.74945547943832
 30
0.0
  0
ENDBLK
  5
3272
  8
0
  0
BLOCK
  8
0
  2
*D34
 70
     1
 10
0.0
 20
0.0
 30
0.0
  3
*D34
  1

  0
LINE
  5
372B
  8
DIM
 10
611.15958299670126
 20
831.95268900667179
 30
0.0
 11
611.15958299670126
 21
852.74353034855005
 31
0.0
  0
LINE
  5
372C
  8
DIM
 10
678.15958299670126
 20
831.95268900667179
 30
0.0
 11
678.15958299670126
 21
852.74353034855005
 31
0.0
  0
LINE
  5
372D
  8
DIM
 10
617.15958299670137
 20
850.74353034854994
 30
0.0
 11
672.15958299670126
 21
850.74353034854994
 31
0.0
  0
SOLID
  5
372E
  8
DIM
 10
617.15958299670137
 20
851.74353034854983
 30
0.0
 11
617.15958299670137
 21
849.74353034854994
 31
0.0
 12
611.15958299670126
 22
850.74353034854994
 32
0.0
 13
611.15958299670126
 23
850.74353034854994
 33
0.0
  0
SOLID
  5
372F
  8
DIM
 10
672.15958299670126
 20
851.74353034854983
 30
0.0
 11
672.15958299670126
 21
849.74353034854994
 31
0.0
 12
678.15958299670126
 22
850.74353034854994
 32
0.0
 13
678.15958299670126
 23
850.74353034854994
 33
0.0
  0
TEXT
  8
DIM
  40
6
  5
375F
  72
0
  71
0
 10
632.660
 20
845.124
 30
0.000000
  1
67
  7
CHINESET
  0
POINT
  5
3731
  8
DEFPOINTS
 62
     0
 10
611.15958299670126
 20
829.95268900667168
 30
0.0
  0
POINT
  5
3732
  8
DEFPOINTS
 62
     0
 10
678.15958299670126
 20
829.95268900667168
 30
0.0
  0
POINT
  5
3733
  8
DEFPOINTS
 62
     0
 10
678.15958299670126
 20
850.74353034854994
 30
0.0
  0
ENDBLK
  5
3511
  8
0
  0
BLOCK
  8
0
  2
*D35
 70
     1
 10
0.0
 20
0.0
 30
0.0
  3
*D35
  1

  0
LINE
  5
3734
  8
DIM
 10
912.28131752149545
 20
577.24945547943832
 30
0.0
 11
912.28131752149545
 21
636.68091566280179
 31
0.0
  0
LINE
  5
3735
  8
DIM
 10
909.98131752149538
 20
577.24945547943832
 30
0.0
 11
909.98131752149538
 21
636.68091566280179
 31
0.0
  0
LINE
  5
3736
  8
DIM
 10
918.28131752149534
 20
634.68091566280191
 30
0.0
 11
924.28131752149534
 21
634.68091566280191
 31
0.0
  0
LINE
  5
3737
  8
DIM
 10
903.98131752149538
 20
634.68091566280191
 30
0.0
 11
881.40988895006683
 21
634.68091566280191
 31
0.0
  0
LINE
  5
3738
  8
DIM
 10
912.28131752149545
 20
634.68091566280191
 30
0.0
 11
909.98131752149538
 21
634.68091566280191
 31
0.0
  0
SOLID
  5
3739
  8
DIM
 10
918.28131752149534
 20
635.68091566280191
 30
0.0
 11
918.28131752149534
 21
633.68091566280191
 31
0.0
 12
912.28131752149545
 22
634.68091566280191
 32
0.0
 13
912.28131752149545
 23
634.68091566280191
 33
0.0
  0
SOLID
  5
373A
  8
DIM
 10
903.98131752149538
 20
635.68091566280191
 30
0.0
 11
903.98131752149538
 21
633.68091566280191
 31
0.0
 12
909.98131752149538
 22
634.68091566280191
 32
0.0
 13
909.98131752149538
 23
634.68091566280191
 33
0.0
  0
TEXT
  8
DIM
  40
6
  5
3760
  72
0
  71
0
 10
877.696
 20
629.061
 30
0.000000
  1
2.3
  7
CHINESET
  0
POINT
  5
373C
  8
DEFPOINTS
 62
     0
 10
912.28131752149545
 20
575.24945547943832
 30
0.0
  0
POINT
  5
373D
  8
DEFPOINTS
 62
     0
 10
909.98131752149538
 20
575.24945547943832
 30
0.0
  0
POINT
  5
373E
  8
DEFPOINTS
 62
     0
 10
909.98131752149538
 20
634.68091566280191
 30
0.0
  0
ENDBLK
  5
3575
  8
0
  0
BLOCK
  8
0
  2
*D36
 70
     1
 10
0.0
 20
0.0
 30
0.0
  3
*D36
  1

  0
LINE
  5
374C
  8
DIM
 10
681.65958299670103
 20
550.24945547943844
 30
0.0
 11
707.56092483689667
 21
550.24945547943844
 31
0.0
  0
LINE
  5
374D
  8
DIM
 10
680.15958299670137
 20
575.24945547943844
 30
0.0
 11
707.56092483689667
 21
575.24945547943844
 31
0.0
  0
LINE
  5
374E
  8
DIM
 10
705.56092483689656
 20
556.24945547943844
 30
0.0
 11
705.56092483689656
 21
569.24945547943844
 31
0.0
  0
SOLID
  5
374F
  8
DIM
 10
704.56092483689656
 20
556.24945547943844
 30
0.0
 11
706.56092483689656
 21
556.24945547943844
 31
0.0
 12
705.56092483689656
 22
550.24945547943844
 32
0.0
 13
705.56092483689656
 23
550.24945547943844
 33
0.0
  0
SOLID
  5
3750
  8
DIM
 10
704.56092483689656
 20
569.24945547943844
 30
0.0
 11
706.56092483689656
 21
569.24945547943844
 31
0.0
 12
705.56092483689656
 22
575.24945547943844
 32
0.0
 13
705.56092483689656
 23
575.24945547943844
 33
0.0
  0
TEXT
  8
DIM
  40
6
  5
3761
  72
0
  71
0
 10
688.561
 20
552.129
 30
0.000000
  1
25
  7
CHINESET
  0
POINT
  5
3752
  8
DEFPOINTS
 62
     0
 10
679.65958299670103
 20
550.24945547943844
 30
0.0
  0
POINT
  5
3753
  8
DEFPOINTS
 62
     0
 10
678.15958299670126
 20
575.24945547943844
 30
0.0
  0
POINT
  5
3754
  8
DEFPOINTS
 62
     0
 10
705.56092483689656
 20
575.24945547943844
 30
0.0
  0
ENDBLK
  5
362C
  8
0
  0
BLOCK
  8
0
  2
*U37
 70
     1
 10
0.0
 20
0.0
 30
0.0
  3
*U37
  1

  0
TEXT
  5
3652
  8
0
 10
1120.0615077383541
 20
-34.430241471819123
 30
0.0
 40
3.0
  1
 
  7
DAYUS
  0
ENDBLK
  5
3654
  8
0
  0
BLOCK
  8
0
  2
*U38
 70
     1
 10
0.0
 20
0.0
 30
0.0
  3
*U38
  1

  0
TEXT
  5
3656
  8
0
 10
1585.161959471649
 20
57.500635328024742
 30
0.0
 40
3.0
  1
 
  7
DAYUS
  0
ENDBLK
  5
3658
  8
0
  0
BLOCK
  8
0
  2
*U39
 70
     1
 10
0.0
 20
0.0
 30
0.0
  3
*U39
  1

  0
TEXT
  5
365A
  8
0
 10
1537.4338808952359
 20
53.782923302905523
 30
0.0
 40
3.0
  1
 
  7
DAYUS
  0
ENDBLK
  5
365C
  8
0
  0
BLOCK
  8
0
  2
*U40
 70
     1
 10
0.0
 20
0.0
 30
0.0
  3
*U40
  1

  0
TEXT
  5
365E
  8
0
 10
1985.6066327925
 20
-113.0753593087606
 30
0.0
 40
3.0
  1
 
  7
DAYUS
  0
ENDBLK
  5
3660
  8
0
  0
BLOCK
  8
0
  2
*U41
 70
     1
 10
0.0
 20
0.0
 30
0.0
  3
*U41
  1

  0
TEXT
  5
3662
  8
0
 10
1515.2626765618511
 20
453.79874156967981
 30
0.0
 40
3.0
  1
 
  7
DAYUS
  0
ENDBLK
  5
3664
  8
0
  0
BLOCK
  8
0
  2
*U42
 70
     1
 10
0.0
 20
0.0
 30
0.0
  3
*U42
  1

  0
TEXT
  5
3666
  8
0
 10
1161.9374530212831
 20
230.01445496131831
 30
0.0
 40
3.0
  1
 
  7
DAYUS
  0
ENDBLK
  5
3668
  8
0
  0
BLOCK
  8
0
  2
*U43
 70
     1
 10
0.0
 20
0.0
 30
0.0
  3
*U43
  1

  0
TEXT
  5
366E
  8
DIM
 10
553.50311955103666
 20
547.59011676677881
 30
0.0
 40
5.6249999999999787
  1
2-PT 1/4
  7
CHINESET
  0
ENDBLK
  5
3670
  8
0
  0
BLOCK
  8
0
  2
*X44
 70
     1
 10
0.0
 20
0.0
 30
0.0
  3
*X44
  1

  0
LINE
  5
3672
  8
0
 62
     0
 10
624.74480566810155
 20
544.24945547943844
 30
0.0
 11
624.74480566810155
 21
548.44945547943848
 31
0.0
  0
LINE
  5
3673
  8
0
 62
     0
 10
623.47480566810157
 20
544.24945547943844
 30
0.0
 11
623.47480566810157
 21
548.44945547943848
 31
0.0
  0
LINE
  5
3674
  8
0
 62
     0
 10
622.2048056681017
 20
544.24945547943844
 30
0.0
 11
622.2048056681017
 21
548.44945547943848
 31
0.0
  0
LINE
  5
3675
  8
0
 62
     0
 10
620.93480566810172
 20
544.24945547943844
 30
0.0
 11
620.93480566810172
 21
548.44945547943848
 31
0.0
  0
LINE
  5
3676
  8
0
 62
     0
 10
619.66480566810162
 20
544.24945547943844
 30
0.0
 11
619.66480566810162
 21
548.44945547943848
 31
0.0
  0
LINE
  5
3677
  8
0
 62
     0
 10
618.39480566810164
 20
544.24945547943844
 30
0.0
 11
618.39480566810164
 21
548.44945547943848
 31
0.0
  0
ENDBLK
  5
3679
  8
0
  0
BLOCK
  8
0
  2
*X45
 70
     1
 10
0.0
 20
0.0
 30
0.0
  3
*X45
  1

  0
LINE
  5
367B
  8
0
 62
     0
 10
671.73480566810144
 20
544.24945547943844
 30
0.0
 11
671.73480566810144
 21
548.44945547943848
 31
0.0
  0
LINE
  5
367C
  8
0
 62
     0
 10
670.46480566810146
 20
544.24945547943844
 30
0.0
 11
670.46480566810146
 21
548.44945547943848
 31
0.0
  0
LINE
  5
367D
  8
0
 62
     0
 10
669.19480566810137
 20
544.24945547943844
 30
0.0
 11
669.19480566810137
 21
548.44945547943848
 31
0.0
  0
LINE
  5
367E
  8
0
 62
     0
 10
667.92480566810138
 20
544.24945547943844
 30
0.0
 11
667.92480566810138
 21
548.44945547943848
 31
0.0
  0
LINE
  5
367F
  8
0
 62
     0
 10
666.65480566810152
 20
544.24945547943844
 30
0.0
 11
666.65480566810152
 21
548.44945547943848
 31
0.0
  0
LINE
  5
3680
  8
0
 62
     0
 10
665.38480566810154
 20
544.24945547943844
 30
0.0
 11
665.38480566810154
 21
548.44945547943848
 31
0.0
  0
ENDBLK
  5
3682
  8
0
  0
BLOCK
  8
0
  2
*U46
 70
     1
 10
0.0
 20
0.0
 30
0.0
  3
*U46
  1

  0
SOLID
  5
3684
  8
DIM
 10
847.73626875112473
 20
522.02960066862806
 30
0.0
 11
848.56849135308676
 21
517.02941567352764
 31
0.0
 12
846.15957213660363
 22
521.48941036555391
 32
0.0
 13
846.15957213660363
 23
521.48941036555391
 33
0.0
  0
POLYLINE
  5
3685
  8
DIM
 66
     1
 10
0.0
 20
0.0
 30
0.0
  0
VERTEX
  5
3686
  8
DIM
 10
846.94792044386406
 20
521.75950551709104
 30
0.0
  0
VERTEX
  5
3687
  8
DIM
 10
833.55297747546717
 20
560.85639620502684
 30
0.0
  0
VERTEX
  5
3688
  8
DIM
 10
782.4279774754674
 20
560.85639620502684
 30
0.0
  0
SEQEND
  5
3689
  8
DIM
  0
ENDBLK
  5
368B
  8
0
  0
BLOCK
  8
0
  2
*U47
 70
     1
 10
0.0
 20
0.0
 30
0.0
  3
*U47
  1

  0
TEXT
  5
368D
  8
DIM
 10
782.4279774754674
 20
562.85670541769446
 30
0.0
 40
5.6249999999999787
  1
2-PT 3/4
  7
CHINESET
  0
TEXT
  5
368E
  8
DIM
 10
789.39226318975295
 20
553.48170541769457
 30
0.0
 40
5.6249999999999787
  1
2-PT 1 
  7
CHINESET
  0
ENDBLK
  5
3690
  8
0
  0
BLOCK
  8
0
  2
*X48
 70
     1
 10
0.0
 20
0.0
 30
0.0
  3
*X48
  1

  0
LINE
  5
3692
  8
0
 62
     0
 10
834.35654019289575
 20
544.24945547943844
 30
0.0
 11
834.35654019289575
 21
548.44945547943848
 31
0.0
  0
LINE
  5
3693
  8
0
 62
     0
 10
833.08654019289565
 20
544.24945547943844
 30
0.0
 11
833.08654019289565
 21
548.44945547943848
 31
0.0
  0
LINE
  5
3694
  8
0
 62
     0
 10
831.81654019289579
 20
544.24945547943844
 30
0.0
 11
831.81654019289579
 21
548.44945547943848
 31
0.0
  0
LINE
  5
3695
  8
0
 62
     0
 10
830.54654019289569
 20
544.24945547943844
 30
0.0
 11
830.54654019289569
 21
548.44945547943848
 31
0.0
  0
LINE
  5
3696
  8
0
 62
     0
 10
829.27654019289582
 20
544.24945547943844
 30
0.0
 11
829.27654019289582
 21
548.44945547943848
 31
0.0
  0
LINE
  5
3697
  8
0
 62
     0
 10
828.00654019289584
 20
544.24945547943844
 30
0.0
 11
828.00654019289584
 21
548.44945547943848
 31
0.0
  0
ENDBLK
  5
3699
  8
0
  0
BLOCK
  8
0
  2
*X49
 70
     1
 10
0.0
 20
0.0
 30
0.0
  3
*X49
  1

  0
LINE
  5
369B
  8
0
 62
     0
 10
894.3565401928953
 20
544.24945547943844
 30
0.0
 11
894.3565401928953
 21
548.44945547943848
 31
0.0
  0
LINE
  5
369C
  8
0
 62
     0
 10
893.08654019289531
 20
544.24945547943844
 30
0.0
 11
893.08654019289531
 21
548.44945547943848
 31
0.0
  0
LINE
  5
369D
  8
0
 62
     0
 10
891.81654019289545
 20
544.24945547943844
 30
0.0
 11
891.81654019289545
 21
548.44945547943848
 31
0.0
  0
LINE
  5
369E
  8
0
 62
     0
 10
890.54654019289535
 20
544.24945547943844
 30
0.0
 11
890.54654019289535
 21
548.44945547943848
 31
0.0
  0
LINE
  5
369F
  8
0
 62
     0
 10
889.27654019289525
 20
544.24945547943844
 30
0.0
 11
889.27654019289525
 21
548.44945547943848
 31
0.0
  0
LINE
  5
36A0
  8
0
 62
     0
 10
888.00654019289539
 20
544.24945547943844
 30
0.0
 11
888.00654019289539
 21
548.44945547943848
 31
0.0
  0
ENDBLK
  5
36A2
  8
0
  0
BLOCK
  8
0
  2
*U50
 70
     1
 10
0.0
 20
0.0
 30
0.0
  3
*U50
  1

  0
TEXT
  5
36E3
  8
DIM
 10
488.7404746429317
 20
520.21364981597617
 30
0.0
 40
5.25
  1
6.5
 50
90.0
  7
CHINESET
  0
ENDBLK
  5
36E5
  8
0
  0
BLOCK
  8
0
  2
*U51
 70
     1
 10
0.0
 20
0.0
 30
0.0
  3
*U51
  1

  0
TEXT
  5
36F2
  8
DIM
 10
680.17223736597964
 20
467.38864981597618
 30
0.0
 40
5.25
  1
65.5
 50
90.0
  7
CHINESET
  0
ENDBLK
  5
36F4
  8
0
  0
BLOCK
  8
0
  2
*U52
 70
     1
 10
0.0
 20
0.0
 30
0.0
  3
*U52
  1

  0
TEXT
  5
36F6
  8
DIM
 10
626.45712077972598
 20
583.83864981597617
 30
0.0
 40
5.25
  1
51.5
  7
CHINESET
  0
ENDBLK
  5
36F8
  8
0
  0
BLOCK
  8
0
  2
*U53
 70
     1
 10
0.0
 20
0.0
 30
0.0
  3
*U53
  1

  0
TEXT
  5
36FA
  8
DIM
 10
524.37831257089158
 20
459.12422659700673
 30
0.0
 40
5.25
  1
51.5
  7
CHINESET
  0
ENDBLK
  5
36FC
  8
0
  0
BLOCK
  8
0
  2
*U54
 70
     1
 10
0.0
 20
0.0
 30
0.0
  3
*U54
  1

  0
TEXT
  5
36FE
  8
DIM
 10
578.09342915714535
 20
342.67422659700679
 30
0.0
 40
5.25
  1
65.5
 50
90.0
  7
CHINESET
  0
ENDBLK
  5
3700
  8
0
  0
BLOCK
  8
0
  2
*U55
 70
     1
 10
0.0
 20
0.0
 30
0.0
  3
*U55
  1

  0
TEXT
  5
3702
  8
DIM
 10
626.45712077972598
 20
583.83864981597617
 30
0.0
 40
5.25
  1
51.5
  7
CHINESET
  0
ENDBLK
  5
3704
  8
0
  0
BLOCK
  8
0
  2
*U56
 70
     1
 10
0.0
 20
0.0
 30
0.0
  3
*U56
  1

  0
SOLID
  5
3740
  8
DIM
 10
614.76030233604547
 20
563.03997780025736
 30
0.0
 11
618.90958299670137
 21
558.59211651654959
 31
0.0
 12
613.542038171635
 22
561.45384021930374
 32
0.0
 13
613.542038171635
 23
561.45384021930374
 33
0.0
  0
POLYLINE
  5
3741
  8
DIM
 66
     1
 10
0.0
 20
0.0
 30
0.0
  0
VERTEX
  5
3742
  8
DIM
 10
614.15117025384018
 20
562.24690900978055
 30
0.0
  0
VERTEX
  5
3743
  8
DIM
 10
593.42382267731273
 20
578.16695597101443
 30
0.0
  0
VERTEX
  5
3744
  8
DIM
 10
553.28096553445573
 20
578.16695597101443
 30
0.0
  0
SEQEND
  5
3745
  8
DIM
  0
ENDBLK
  5
3747
  8
0
  0
BLOCK
  8
0
  2
*U57
 70
     1
 10
0.0
 20
0.0
 30
0.0
  3
*U57
  1

  0
TEXT
  5
3749
  8
DIM
 10
553.28096553445573
 20
580.16695597101443
 30
0.0
 40
5.6249999999999787
  1
M52*1.5
  7
CHINESET
  0
ENDBLK
  5
374B
  8
0
  0
ENDSEC
  0
SECTION
  2
ENTITIES
  0
INSERT
  5
14CD
  8
0
  2
*U37
 10
0.0
 20
0.0
 30
0.0
  0
INSERT
  5
1CB0
  8
0
  2
*U38
 10
0.0
 20
0.0
 30
0.0
  0
INSERT
  5
1CB1
  8
0
  2
*U39
 10
0.0
 20
0.0
 30
0.0
  0
INSERT
  5
1CD1
  8
0
  2
*U40
 10
0.0
 20
0.0
 30
0.0
  0
INSERT
  5
1D62
  8
0
  2
*U41
 10
0.0
 20
0.0
 30
0.0
  0
TEXT
  5
1DA9
  8
0
 10
743.91556066377484
 20
288.48791578663361
 30
0.0
 40
3.6000000000000001
  1
 
  7
CHINESET
  0
TEXT
  5
1DAA
  8
0
 10
858.90519829121786
 20
288.48791578663361
 30
0.0
 40
3.6000000000000001
  1
 
  7
CHINESET
  0
TEXT
  5
1DAB
  8
0
 10
889.86248397423481
 20
288.01371602564359
 30
0.0
 40
3.6000000000000001
  1
 
  7
CHINESET
  0
INSERT
  5
24E9
  8
0
  2
*U42
 10
0.0
 20
0.0
 30
0.0
  0
LINE
  5
2B51
  8
0
 10
622.6595829967016
 20
572.74945547943764
 30
0.0
 11
622.6595829967016
 21
562.24945547943844
 31
0.0
  0
LINE
  5
2B52
  8
0
 10
666.65958299670115
 20
572.74945547943855
 30
0.0
 11
666.65958299670115
 21
562.24945547943844
 31
0.0
  0
LINE
  5
2B53
  8
CENTER
 10
644.65958299670126
 20
627.74945547943798
 30
0.0
 11
644.65958299670126
 21
453.74945547943872
 31
0.0
  0
LINE
  5
2B54
  8
DIM
 10
598.06342243013421
 20
545.86872810467275
 30
0.0
 11
553.2888902303514
 21
545.86872810467275
 31
0.0
  0
INSERT
  5
2B55
  8
0
  2
*U43
 10
0.0
 20
0.0
 30
0.0
  0
LINE
  5
2B56
  8
0
 10
632.15958299670126
 20
458.7494554794385
 30
0.0
 11
657.15958299670126
 21
458.74945547943901
 31
0.0
  0
LINE
  5
2B57
  8
0
 10
674.6662875179037
 20
543.24945547943821
 30
0.0
 11
614.65287847549939
 21
543.24945547943844
 31
0.0
  0
LINE
  5
2B58
  8
0
 10
654.60945736776785
 20
562.24945547943844
 30
0.0
 11
634.70970862563524
 21
550.24945547943821
 31
0.0
  0
LINE
  5
2B59
  8
0
 10
634.70970862563524
 20
562.24945547943844
 30
0.0
 11
654.60945736776785
 21
550.24945547943844
 31
0.0
  0
LINE
  5
2B5A
  8
0
 10
668.90958299670115
 20
562.24945547943844
 30
0.0
 11
620.40958299670137
 21
562.24945547943844
 31
0.0
  0
LINE
  5
2B5B
  8
0
 10
679.65958299670103
 20
550.24945547943844
 30
0.0
 11
609.65958299670126
 21
550.24945547943844
 31
0.0
  0
CIRCLE
  5
2B5C
  8
HIDDEN
 10
644.65958299670126
 20
501.74945547943861
 30
0.0
 40
26.499999999999911
  0
ARC
  5
2B5D
  8
HIDDEN
 10
644.65958299670126
 20
501.74945547943861
 30
0.0
 40
6.579999999999977
 50
0.0
 51
270.0
  0
CIRCLE
  5
2B5E
  8
0
 10
644.65958299670126
 20
501.74945547943861
 30
0.0
 40
5.7199999999999793
  0
LINE
  5
2B5F
  8
CENTER
 10
654.65958299670115
 20
501.74945547943878
 30
0.0
 11
634.65958299670126
 21
501.74945547943821
 31
0.0
  0
LINE
  5
2B60
  8
0
 10
631.15958299670115
 20
459.74945547943832
 30
0.0
 11
658.15958299670149
 21
459.74945547943901
 31
0.0
  0
LINE
  5
2B61
  8
0
 10
657.15958299670126
 20
458.74945547943901
 30
0.0
 11
632.15958299670126
 21
458.7494554794385
 31
0.0
  0
LINE
  5
2B62
  8
0
 10
614.65958299670126
 20
465.7494554794381
 30
0.0
 11
674.65958299670092
 21
465.74945547943918
 31
0.0
  0
LINE
  5
2B63
  8
0
 10
674.65958299670092
 20
469.74945547943912
 30
0.0
 11
614.65958299670126
 21
469.74945547943798
 31
0.0
  0
LINE
  5
2B64
  8
0
 10
673.65958299670115
 20
464.7494554794394
 30
0.0
 11
615.6595829967016
 21
464.74945547943821
 31
0.0
  0
LINE
  5
2B65
  8
0
 10
671.65958299670115
 20
488.74945547943912
 30
0.0
 11
617.65958299670137
 21
488.7494554794381
 31
0.0
  0
LINE
  5
2B66
  8
0
 10
685.90958299670092
 20
522.74945547943844
 30
0.0
 11
603.40958299670126
 21
522.74945547943844
 31
0.0
  0
LINE
  5
2B67
  8
0
 10
689.40958299670137
 20
538.24945547943844
 30
0.0
 11
599.90958299670126
 21
538.24945547943844
 31
0.0
  0
LINE
  5
2B68
  8
0
 10
599.90958299670126
 20
482.74945547943838
 30
0.0
 11
599.90958299670126
 21
529.74945547943844
 31
0.0
  0
LINE
  5
2B69
  8
DIM
 10
640.17636998714238
 20
506.56580275833358
 30
0.0
 11
598.06342243013421
 21
545.86872810467275
 31
0.0
  0
SOLID
  5
2B6A
  8
DIM
 10
635.51333019619074
 20
512.96788344862034
 30
0.0
 11
640.17636998714238
 21
506.56580275833358
 31
0.0
 12
633.68903590695982
 22
511.10948780343142
 32
0.0
 13
633.68903590695982
 23
511.10948780343142
 33
0.0
1001
ACAD
1000
DSTYLE
1002
{
1070
    78
1070
     8
1070
   284
1070
     8
1070
   140
1040
3.0
1070
   340
1005
17D9
1070
    74
1070
     0
1070
   172
1070
     1
1070
    73
1070
     0
1070
   146
1040
0.5
1070
   272
1070
     2
1070
    77
1070
     1
1070
   144
1040
2.0
1070
   147
1040
1.5
1070
   287
1070
     5
1070
    42
1040
1.5
1070
    44
1040
1.5
1070
    43
1040
8.0
1070
   271
1070
     2
1070
   141
1040
-2.5
1070
    41
1040
2.5
1002
}
  0
LINE
  5
2B6B
  8
0
 10
617.65958299670137
 20
488.74945547943832
 30
0.0
 11
617.65958299670137
 21
522.74945547943844
 31
0.0
  0
LINE
  5
2B6C
  8
0
 10
622.6595829967016
 20
489.74945547943821
 30
0.0
 11
622.6595829967016
 21
522.74945547943844
 31
0.0
  0
LINE
  5
2B6D
  8
0
 10
603.40958299670126
 20
489.74945547943861
 30
0.0
 11
603.40958299670126
 21
538.24945547943844
 31
0.0
  0
LINE
  5
2B6E
  8
0
 10
615.6595829967016
 20
464.74945547943821
 30
0.0
 11
631.15958299670115
 21
464.7494554794385
 31
0.0
  0
LINE
  5
2B6F
  8
0
 10
617.65958299670137
 20
481.74945547943838
 30
0.0
 11
600.90958299670149
 21
481.74945547943838
 31
0.0
  0
LINE
  5
2B70
  8
0
 10
605.21941183323111
 20
485.04357312649728
 30
0.0
 11
624.2635049423285
 21
485.04357312649728
 31
0.0
  0
LINE
  5
2B71
  8
0
 10
614.65958299670126
 20
481.74945547943838
 30
0.0
 11
614.65958299670126
 21
465.7494554794381
 31
0.0
  0
LINE
  5
2B72
  8
0
 10
614.65958299670126
 20
465.7494554794381
 30
0.0
 11
614.65958299670126
 21
481.74945547943838
 31
0.0
  0
LINE
  5
2B73
  8
0
 10
614.65958299670126
 20
465.7494554794381
 30
0.0
 11
615.6595829967016
 21
464.74945547943821
 31
0.0
  0
LINE
  5
2B74
  8
0
 10
614.65958299670126
 20
465.7494554794381
 30
0.0
 11
615.6595829967016
 21
464.74945547943821
 31
0.0
  0
LINE
  5
2B75
  8
0
 10
614.65958299670126
 20
481.74945547943838
 30
0.0
 11
600.90958299670149
 21
481.74945547943838
 31
0.0
  0
LINE
  5
2B76
  8
0
 10
599.90958299670126
 20
489.74945547943861
 30
0.0
 11
603.40958299670126
 21
489.74945547943861
 31
0.0
  0
ARC
  5
2B77
  8
0
 10
600.90958299670149
 20
482.74945547943838
 30
0.0
 40
0.9999999999999966
 50
180.0
 51
270.0
  0
ARC
  5
2B78
  8
0
 10
605.21941183323111
 20
486.04357312649739
 30
0.0
 40
0.9999999999999966
 50
191.9968993079234
 51
269.9999999999992
  0
LINE
  5
2B79
  8
0
 10
604.24125298231286
 20
485.83571437067741
 30
0.0
 11
603.40958299670126
 21
489.74945547943861
 31
0.0
  0
LINE
  5
2B7A
  8
0
 10
631.15958299670115
 20
464.7494554794385
 30
0.0
 11
631.15958299670115
 21
459.74945547943832
 31
0.0
  0
LINE
  5
2B7B
  8
0
 10
631.15958299670115
 20
464.7494554794385
 30
0.0
 11
631.15958299670115
 21
459.74945547943832
 31
0.0
  0
LINE
  5
2B7C
  8
0
 10
631.15958299670115
 20
459.74945547943832
 30
0.0
 11
632.15958299670126
 21
458.7494554794385
 31
0.0
  0
LINE
  5
2B7D
  8
0
 10
631.15958299670115
 20
459.74945547943832
 30
0.0
 11
632.15958299670126
 21
458.7494554794385
 31
0.0
  0
LINE
  5
2B7E
  8
0
 10
624.26350494232827
 20
485.04357312649728
 30
0.0
 11
624.26350494232827
 21
488.74945547943832
 31
0.0
  0
LINE
  5
2B7F
  8
0
 10
624.26350494232827
 20
485.04357312649728
 30
0.0
 11
621.04285163946054
 21
481.7494554794381
 31
0.0
  0
ARC
  5
2B80
  8
0
 10
623.65958299670126
 20
489.74945547943821
 30
0.0
 40
0.9999999999999966
 50
180.0
 51
270.0000000000008
  0
LINE
  5
2B81
  8
0
 10
621.04285163946054
 20
481.7494554794381
 30
0.0
 11
617.65958299670137
 21
481.7494554794381
 31
0.0
  0
LINE
  5
2B82
  8
0
 10
618.90958299670137
 20
550.24945547943844
 30
0.0
 11
609.65958299670126
 21
550.24945547943844
 31
0.0
  0
LINE
  5
2B83
  8
0
 10
617.15958299670115
 20
548.44945547943848
 30
0.0
 11
625.15958299670137
 21
548.44945547943848
 31
0.0
1001
ACAD
1000
ASC_BOUNDS
1002
{
1070
    19
1005
2B9D
1002
}
  0
LINE
  5
2B84
  8
0
 10
617.15958299670115
 20
548.44945547943848
 30
0.0
 11
617.9595829967019
 21
549.24945547943844
 31
0.0
  0
LINE
  5
2B85
  8
0
 10
625.15958299670137
 20
544.24945547943844
 30
0.0
 11
617.15958299670115
 21
544.24945547943844
 31
0.0
1001
ACAD
1000
ASC_BOUNDS
1002
{
1070
    19
1005
2B9D
1002
}
  0
LINE
  5
2B86
  8
0
 10
609.65958299670126
 20
550.24945547943844
 30
0.0
 11
609.65958299670126
 21
538.24945547943844
 31
0.0
  0
LINE
  5
2B87
  8
0
 10
613.15958299670172
 20
550.24945547943844
 30
0.0
 11
613.15958299670172
 21
538.24945547943844
 31
0.0
  0
LINE
  5
2B88
  8
0
 10
609.65958299670126
 20
550.24945547943844
 30
0.0
 11
609.65958299670126
 21
538.24945547943844
 31
0.0
  0
LINE
  5
2B89
  8
0
 10
609.65958299670126
 20
538.24945547943844
 30
0.0
 11
599.90958299670126
 21
538.24945547943844
 31
0.0
  0
LINE
  5
2B8A
  8
0
 10
599.90958299670126
 20
533.74945547943844
 30
0.0
 11
599.90958299670126
 21
538.24945547943844
 31
0.0
  0
LINE
  5
2B8B
  8
0
 10
602.40958299670149
 20
533.74945547943844
 30
0.0
 11
599.90958299670126
 21
533.74945547943844
 31
0.0
  0
LINE
  5
2B8C
  8
0
 10
602.40958299670149
 20
529.74945547943844
 30
0.0
 11
599.90958299670126
 21
529.74945547943844
 31
0.0
  0
LINE
  5
2B8D
  8
0
 10
602.40958299670149
 20
529.74945547943844
 30
0.0
 11
602.40958299670149
 21
533.74945547943844
 31
0.0
  0
LINE
  5
2B8E
  8
0
 10
609.65958299670126
 20
522.74945547943844
 30
0.0
 11
609.65958299670126
 21
538.24945547943844
 31
0.0
  0
LINE
  5
2B8F
  8
0
 10
617.15958299670115
 20
548.44945547943848
 30
0.0
 11
617.15958299670115
 21
544.24945547943855
 31
0.0
1001
ACAD
1000
ASC_BOUNDS
1002
{
1070
    19
1005
2B9D
1002
}
  0
LINE
  5
2B90
  8
0
 10
617.15958299670115
 20
544.24945547943855
 30
0.0
 11
617.15958299670115
 21
543.24945547943855
 31
0.0
  0
LINE
  5
2B91
  8
0
 10
614.65287847549939
 20
550.24945547943855
 30
0.0
 11
614.65287847549939
 21
543.24945547943844
 31
0.0
  0
LINE
  5
2B92
  8
0
 10
619.21642299603445
 20
543.24945547943844
 30
0.0
 11
619.21642299603445
 21
538.24945547943844
 31
0.0
  0
LINE
  5
2B93
  8
0
 10
626.80964581116791
 20
553.24945547943855
 30
0.0
 11
634.70970862563524
 21
553.2494554794381
 31
0.0
  0
LINE
  5
2B94
  8
0
 10
626.80964581116825
 20
556.24945547943844
 30
0.0
 11
634.70970862563524
 21
556.24945547943821
 31
0.0
  0
LINE
  5
2B95
  8
0
 10
618.90958299670137
 20
551.74945547943844
 30
0.0
 11
634.70970862563524
 21
551.74945547943821
 31
0.0
  0
LINE
  5
2B96
  8
0
 10
618.90958299670137
 20
554.74945547943844
 30
0.0
 11
634.70970862563524
 21
554.74945547943821
 31
0.0
  0
LINE
  5
2B97
  8
0
 10
618.90958299670137
 20
557.74945547943832
 30
0.0
 11
634.70970862563524
 21
557.74945547943832
 31
0.0
  0
LINE
  5
2B98
  8
0
 10
626.80964581116825
 20
559.24945547943844
 30
0.0
 11
634.70970862563524
 21
559.24945547943844
 31
0.0
  0
LINE
  5
2B99
  8
0
 10
618.90958299670137
 20
560.74945547943844
 30
0.0
 11
634.70970862563524
 21
560.7494554794381
 31
0.0
  0
LINE
  5
2B9A
  8
0
 10
618.90958299670137
 20
560.74945547943844
 30
0.0
 11
618.90958299670137
 21
550.24945547943844
 31
0.0
  0
LINE
  5
2B9B
  8
0
 10
618.90958299670137
 20
560.74945547943844
 30
0.0
 11
618.90958299670137
 21
550.24945547943821
 31
0.0
  0
LINE
  5
2B9C
  8
0
 10
624.35958299670142
 20
549.24945547943821
 30
0.0
 11
625.15958299670137
 21
548.44945547943826
 31
0.0
  0
INSERT
  5
2B9D
  8
0
  6
CONTINUOUS
  2
*X44
 10
0.0
 20
0.0
 30
0.0
1001
ACAD
1000
HATCH
1002
{
1070
    19
1000
ANSI31
1040
0.3999999999999987
1040
0.7853981633974483
1000
ASC_BOUNDS
1070
     1
1070
     2
1070
     4
1005
2B8F
1005
2B85
1005
2B9F
1005
2B83
1000
ASC_SEEDPOINT
1011
552.35480566810179
1021
1.1260386407707860E+185
1031
-0.0
1021
-22.589988076676029
1031
0.0
1000
R14_HATCH_DATA
1000
2B9D
1011
1.0
1021
1.1260386407707860E+185
1031
-0.0
1021
0.0
1031
0.0
1011
0.0
1021
1.1260386407707860E+185
1031
-0.0
1021
1.0
1031
0.0
1011
0.0
1021
1.1260386407707860E+185
1031
-0.0
1021
0.0
1031
1.0
1040
0.0
1010
0.0
1020
0.0
1030
1.0
1000
ANSI31
1070
     0
1070
     1
1071
        1
1071
        1
1071
        4
1070
     1
1040
617.15958299670115
1040
548.44945547943848
1040
625.15958299670137
1040
548.44945547943848
1070
     1
1040
625.15958299670137
1040
548.44945547943826
1040
625.15958299670137
1040
544.24945547943844
1070
     1
1040
625.15958299670137
1040
544.24945547943844
1040
617.15958299670115
1040
544.24945547943844
1070
     1
1040
617.15958299670115
1040
544.24945547943855
1040
617.15958299670115
1040
548.4494554794386
1071
        4
1005
2B83
1005
2B9F
1005
2B85
1005
2B8F
1070
     0
1070
     1
1040
0.7853981633974483
1040
0.3999999999999987
1070
     0
1070
     1
1040
1.5707963267948959
1040
552.35480566810179
1040
-22.589988076676029
1040
-1.2699999999999949
1040
0.0000000000000002
1070
     0
1071
        1
1040
552.35480566810179
1040
-22.589988076676029
1040
0.0
1002
}
  0
LINE
  5
2B9E
  8
0
 10
624.35958299670142
 20
549.24945547943821
 30
0.0
 11
617.9595829967019
 21
549.24945547943844
 31
0.0
  0
LINE
  5
2B9F
  8
0
 10
625.15958299670137
 20
544.24945547943844
 30
0.0
 11
625.15958299670137
 21
548.44945547943826
 31
0.0
1001
ACAD
1000
ASC_BOUNDS
1002
{
1070
    19
1005
2B9D
1002
}
  0
LINE
  5
2BA0
  8
0
 10
625.15958299670137
 20
544.24945547943855
 30
0.0
 11
625.15958299670137
 21
543.24945547943844
 31
0.0
  0
LINE
  5
2BA1
  8
0
 10
627.15958299670126
 20
550.24945547943844
 30
0.0
 11
627.15958299670126
 21
543.24945547943844
 31
0.0
  0
LINE
  5
2BA2
  8
0
 10
620.40958299670137
 20
562.24945547943844
 30
0.0
 11
618.90958299670137
 21
560.74945547943844
 31
0.0
  0
LINE
  5
2BA3
  8
0
 10
622.6595829967016
 20
562.24945547943844
 30
0.0
 11
620.40958299670137
 21
562.24945547943844
 31
0.0
  0
LINE
  5
2BA4
  8
0
 10
618.90958299670137
 20
560.74945547943844
 30
0.0
 11
620.40958299670137
 21
562.24945547943844
 31
0.0
  0
LINE
  5
2BA5
  8
0
 10
634.70970862563524
 20
562.24945547943844
 30
0.0
 11
634.70970862563524
 21
550.24945547943821
 31
0.0
  0
LINE
  5
2BA6
  8
0
 10
689.40958299670137
 20
482.74945547943861
 30
0.0
 11
689.40958299670137
 21
529.74945547943844
 31
0.0
  0
LINE
  5
2BA7
  8
0
 10
671.65958299670115
 20
488.74945547943861
 30
0.0
 11
671.65958299670115
 21
522.74945547943844
 31
0.0
  0
LINE
  5
2BA8
  8
0
 10
666.65958299670115
 20
489.74945547943861
 30
0.0
 11
666.65958299670115
 21
522.74945547943844
 31
0.0
  0
LINE
  5
2BA9
  8
0
 10
685.90958299670092
 20
489.74945547943861
 30
0.0
 11
685.90958299670092
 21
538.24945547943844
 31
0.0
  0
LINE
  5
2BAA
  8
0
 10
674.65958299670092
 20
481.74945547943861
 30
0.0
 11
688.40958299670115
 21
481.74945547943861
 31
0.0
  0
LINE
  5
2BAB
  8
0
 10
665.05566105107084
 20
485.04357312649728
 30
0.0
 11
684.09975416017153
 21
485.04357312649728
 31
0.0
  0
LINE
  5
2BAC
  8
0
 10
688.40958299670115
 20
481.74945547943861
 30
0.0
 11
668.27631435394028
 21
481.74945547943861
 31
0.0
  0
LINE
  5
2BAD
  8
0
 10
674.65958299670092
 20
465.74945547943918
 30
0.0
 11
674.65958299670092
 21
481.74945547943861
 31
0.0
  0
LINE
  5
2BAE
  8
0
 10
674.65958299670092
 20
465.74945547943918
 30
0.0
 11
674.65958299670092
 21
481.74945547943861
 31
0.0
  0
LINE
  5
2BAF
  8
0
 10
658.15958299670149
 20
464.74945547943901
 30
0.0
 11
673.65958299670115
 21
464.7494554794394
 31
0.0
  0
LINE
  5
2BB0
  8
0
 10
658.15958299670149
 20
459.74945547943901
 30
0.0
 11
658.15958299670149
 21
464.74945547943901
 31
0.0
  0
LINE
  5
2BB1
  8
0
 10
658.15958299670149
 20
464.74945547943889
 30
0.0
 11
658.15958299670149
 21
459.74945547943901
 31
0.0
  0
LINE
  5
2BB2
  8
0
 10
657.15958299670126
 20
458.74945547943901
 30
0.0
 11
658.15958299670149
 21
459.74945547943901
 31
0.0
  0
POINT
  5
2BB3
  8
DEFPOINTS
  6
BYBLOCK
 62
     0
 10
657.15958299670126
 20
458.74945547943901
 30
0.0
  0
POINT
  5
2BB4
  8
DEFPOINTS
  6
BYBLOCK
 62
     0
 10
657.15958299670126
 20
458.74945547943901
 30
0.0
  0
LINE
  5
2BB5
  8
0
 10
657.15958299670126
 20
458.74945547943901
 30
0.0
 11
658.15958299670149
 21
459.74945547943901
 31
0.0
  0
LINE
  5
2BB6
  8
0
 10
673.65958299670115
 20
464.7494554794394
 30
0.0
 11
674.65958299670092
 21
465.74945547943918
 31
0.0
  0
LINE
  5
2BB7
  8
0
 10
673.65958299670115
 20
464.7494554794394
 30
0.0
 11
674.65958299670092
 21
465.74945547943918
 31
0.0
  0
POINT
  5
2BB8
  8
DEFPOINTS
  6
BYBLOCK
 62
     0
 10
654.65958299670115
 20
501.74945547943878
 30
0.0
  0
LINE
  5
2BB9
  8
0
 10
665.05566105107084
 20
485.04357312649728
 30
0.0
 11
665.05566105107084
 21
488.74945547943912
 31
0.0
  0
LINE
  5
2BBA
  8
0
 10
665.05566105107084
 20
485.04357312649728
 30
0.0
 11
668.27631435394028
 21
481.74945547943861
 31
0.0
  0
ARC
  5
2BBB
  8
0
 10
665.65958299670126
 20
489.74945547943861
 30
0.0
 40
0.9999999999999966
 50
270.0
 51
0.0
  0
ARC
  5
2BBC
  8
0
 10
684.09975416017153
 20
486.04357312649722
 30
0.0
 40
0.9999999999999966
 50
270.0
 51
348.0031006920766
  0
ARC
  5
2BBD
  8
0
 10
688.40958299670115
 20
482.74945547943861
 30
0.0
 40
0.9999999999999966
 50
270.0
 51
0.0
  0
LINE
  5
2BBE
  8
0
 10
685.07791301108932
 20
485.83571437067701
 30
0.0
 11
685.90958299670092
 21
489.74945547943861
 31
0.0
  0
LINE
  5
2BBF
  8
0
 10
685.90958299670092
 20
489.74945547943861
 30
0.0
 11
689.40958299670137
 21
489.74945547943861
 31
0.0
  0
LINE
  5
2BC0
  8
0
 10
670.40958299670126
 20
550.24945547943844
 30
0.0
 11
679.65958299670103
 21
550.24945547943844
 31
0.0
  0
LINE
  5
2BC1
  8
0
 10
670.10274299736795
 20
543.24945547943844
 30
0.0
 11
670.10274299736795
 21
538.24945547943844
 31
0.0
  0
LINE
  5
2BC2
  8
0
 10
676.15958299670103
 20
550.24945547943844
 30
0.0
 11
676.15958299670103
 21
538.24945547943844
 31
0.0
  0
LINE
  5
2BC3
  8
0
 10
654.60945736776785
 20
553.24945547943844
 30
0.0
 11
662.50952018223427
 21
553.24945547943844
 31
0.0
  0
LINE
  5
2BC4
  8
0
 10
654.60945736776785
 20
556.24945547943821
 30
0.0
 11
662.50952018223427
 21
556.24945547943821
 31
0.0
  0
LINE
  5
2BC5
  8
0
 10
654.60945736776785
 20
551.74945547943844
 30
0.0
 11
670.40958299670126
 21
551.74945547943844
 31
0.0
  0
LINE
  5
2BC6
  8
0
 10
654.60945736776785
 20
554.74945547943844
 30
0.0
 11
670.40958299670126
 21
554.74945547943844
 31
0.0
  0
LINE
  5
2BC7
  8
0
 10
654.60945736776785
 20
557.74945547943832
 30
0.0
 11
670.40958299670126
 21
557.74945547943832
 31
0.0
  0
LINE
  5
2BC8
  8
0
 10
654.60945736776785
 20
559.24945547943844
 30
0.0
 11
662.50952018223427
 21
559.24945547943844
 31
0.0
  0
LINE
  5
2BC9
  8
0
 10
654.60945736776785
 20
560.74945547943844
 30
0.0
 11
670.40958299670126
 21
560.74945547943844
 31
0.0
  0
LINE
  5
2BCA
  8
0
 10
654.60945736776785
 20
562.24945547943844
 30
0.0
 11
654.60945736776785
 21
550.24945547943844
 31
0.0
  0
LINE
  5
2BCB
  8
0
 10
670.40958299670126
 20
560.74945547943844
 30
0.0
 11
670.40958299670126
 21
550.24945547943844
 31
0.0
  0
INSERT
  5
2BCC
  8
0
  6
CONTINUOUS
  2
*X45
 10
0.0
 20
0.0
 30
0.0
1001
ACAD
1000
HATCH
1002
{
1070
    19
1000
ANSI31
1040
0.3999999999999987
1040
0.7853981633974483
1000
ASC_BOUNDS
1070
     1
1070
     2
1070
     4
1005
2BD0
1005
2BCE
1005
2BD4
1005
2BCD
1000
ASC_SEEDPOINT
1011
552.35480566810179
1021
1.1260386407707860E+185
1031
-0.0
1021
-22.589988076676029
1031
0.0
1000
R14_HATCH_DATA
1000
2BCC
1011
1.0
1021
1.1260386407707860E+185
1031
-0.0
1021
0.0
1031
0.0
1011
0.0
1021
1.1260386407707860E+185
1031
-0.0
1021
1.0
1031
0.0
1011
0.0
1021
1.1260386407707860E+185
1031
-0.0
1021
0.0
1031
1.0
1040
0.0
1010
0.0
1020
0.0
1030
1.0
1000
ANSI31
1070
     0
1070
     1
1071
        1
1071
        1
1071
        4
1070
     1
1040
664.15958299670126
1040
548.44945547943848
1040
672.15958299670115
1040
548.44945547943848
1070
     1
1040
672.15958299670115
1040
548.44945547943848
1040
672.15958299670115
1040
544.24945547943844
1070
     1
1040
672.15958299670115
1040
544.24945547943844
1040
664.15958299670126
1040
544.24945547943844
1070
     1
1040
664.15958299670126
1040
544.24945547943844
1040
664.15958299670126
1040
548.44945547943826
1071
        4
1005
2BCD
1005
2BD4
1005
2BCE
1005
2BD0
1070
     0
1070
     1
1040
0.7853981633974483
1040
0.3999999999999987
1070
     0
1070
     1
1040
1.5707963267948959
1040
552.35480566810179
1040
-22.589988076676029
1040
-1.2699999999999949
1040
0.0000000000000002
1070
     0
1071
        1
1040
552.35480566810179
1040
-22.589988076676029
1040
0.0
1002
}
  0
LINE
  5
2BCD
  8
0
 10
664.15958299670126
 20
548.44945547943848
 30
0.0
 11
672.15958299670115
 21
548.44945547943848
 31
0.0
1001
ACAD
1000
ASC_BOUNDS
1002
{
1070
    19
1005
2BCC
1002
}
  0
LINE
  5
2BCE
  8
0
 10
672.15958299670115
 20
544.24945547943844
 30
0.0
 11
664.15958299670126
 21
544.24945547943844
 31
0.0
1001
ACAD
1000
ASC_BOUNDS
1002
{
1070
    19
1005
2BCC
1002
}
  0
LINE
  5
2BCF
  8
0
 10
671.35958299670119
 20
549.24945547943844
 30
0.0
 11
664.95958299670156
 21
549.24945547943821
 31
0.0
  0
LINE
  5
2BD0
  8
0
 10
664.15958299670126
 20
548.44945547943826
 30
0.0
 11
664.15958299670126
 21
544.24945547943844
 31
0.0
1001
ACAD
1000
ASC_BOUNDS
1002
{
1070
    19
1005
2BCC
1002
}
  0
LINE
  5
2BD1
  8
0
 10
664.95958299670156
 20
549.24945547943821
 30
0.0
 11
664.15958299670126
 21
548.44945547943826
 31
0.0
  0
LINE
  5
2BD2
  8
0
 10
664.15958299670126
 20
544.24945547943844
 30
0.0
 11
664.15958299670126
 21
543.24945547943844
 31
0.0
  0
LINE
  5
2BD3
  8
0
 10
662.15958299670103
 20
550.24945547943844
 30
0.0
 11
662.15958299670103
 21
543.24945547943844
 31
0.0
  0
LINE
  5
2BD4
  8
0
 10
672.15958299670115
 20
548.44945547943848
 30
0.0
 11
672.15958299670115
 21
544.24945547943844
 31
0.0
1001
ACAD
1000
ASC_BOUNDS
1002
{
1070
    19
1005
2BCC
1002
}
  0
LINE
  5
2BD5
  8
0
 10
671.35958299670119
 20
549.24945547943844
 30
0.0
 11
672.15958299670115
 21
548.44945547943848
 31
0.0
  0
LINE
  5
2BD6
  8
0
 10
672.15958299670115
 20
544.24945547943844
 30
0.0
 11
672.15958299670115
 21
543.24945547943844
 31
0.0
  0
LINE
  5
2BD7
  8
0
 10
674.6662875179037
 20
550.24945547943844
 30
0.0
 11
674.6662875179037
 21
543.24945547943844
 31
0.0
  0
LINE
  5
2BD8
  8
0
 10
668.90958299670115
 20
562.24945547943844
 30
0.0
 11
670.40958299670126
 21
560.74945547943844
 31
0.0
  0
LINE
  5
2BD9
  8
0
 10
668.90958299670115
 20
562.24945547943844
 30
0.0
 11
670.40958299670126
 21
560.74945547943844
 31
0.0
  0
LINE
  5
2BDA
  8
0
 10
666.65958299670115
 20
562.24945547943844
 30
0.0
 11
668.90958299670115
 21
562.24945547943844
 31
0.0
  0
LINE
  5
2BDB
  8
0
 10
679.65958299670103
 20
550.24945547943844
 30
0.0
 11
679.65958299670103
 21
538.24945547943844
 31
0.0
  0
LINE
  5
2BDC
  8
0
 10
679.65958299670103
 20
550.24945547943844
 30
0.0
 11
679.65958299670103
 21
538.24945547943844
 31
0.0
  0
LINE
  5
2BDD
  8
0
 10
679.65958299670103
 20
522.74945547943844
 30
0.0
 11
679.65958299670103
 21
538.24945547943844
 31
0.0
  0
LINE
  5
2BDE
  8
0
 10
679.65958299670103
 20
538.24945547943844
 30
0.0
 11
689.40958299670137
 21
538.24945547943844
 31
0.0
  0
LINE
  5
2BDF
  8
0
 10
689.40958299670137
 20
533.74945547943844
 30
0.0
 11
689.40958299670137
 21
538.24945547943844
 31
0.0
  0
LINE
  5
2BE0
  8
0
 10
686.90958299670115
 20
529.74945547943844
 30
0.0
 11
686.90958299670115
 21
533.74945547943844
 31
0.0
  0
LINE
  5
2BE1
  8
0
 10
689.40958299670137
 20
533.74945547943844
 30
0.0
 11
686.90958299670115
 21
533.74945547943844
 31
0.0
  0
LINE
  5
2BE2
  8
0
 10
689.40958299670137
 20
529.74945547943844
 30
0.0
 11
686.90958299670115
 21
529.74945547943844
 31
0.0
  0
LINE
  5
2BE3
  8
0
 10
599.90958299670126
 20
751.45268900667179
 30
0.0
 11
599.90958299670126
 21
805.45268900667179
 31
0.0
  0
LINE
  5
2BE4
  8
0
 10
689.40958299670137
 20
751.45268900667179
 30
0.0
 11
689.40958299670137
 21
805.45268900667179
 31
0.0
  0
ARC
  5
2BE5
  8
0
 10
644.65958299670126
 20
778.45268900667168
 30
0.0
 40
22.999999999999918
 50
233.75292907688259
 51
261.24707092311712
  0
ARC
  5
2BE6
  8
0
 10
644.65958299670126
 20
778.45268900667168
 30
0.0
 40
22.999999999999918
 50
278.75292907688288
 51
306.24707092311672
  0
ARC
  5
2BE7
  8
0
 10
644.65958299670126
 20
778.45268900667202
 30
0.0
 40
23.999999999999918
 50
306.61446135291789
 51
323.38553864708223
  0
LINE
  5
2BE8
  8
0
 10
658.25875666822685
 20
759.90376786684033
 30
0.0
 11
659.68828032676265
 21
758.47424420830453
 31
0.0
  0
ARC
  5
2BE9
  8
0
 10
644.65958299670126
 20
778.45268900667168
 30
0.0
 40
23.999999999999918
 50
216.6144613529178
 51
233.385538647082
  0
LINE
  5
2BEA
  8
0
 10
631.06040932517578
 20
759.90376786684055
 30
0.0
 11
629.63088566663998
 21
758.47424420830475
 31
0.0
  0
CIRCLE
  5
2BEB
  8
0
 10
644.65958299670126
 20
778.45268900667168
 30
0.0
 40
19.999999999999929
  0
CIRCLE
  5
2BEC
  8
0
 10
644.65958299670126
 20
778.45268900667168
 30
0.0
 40
21.999999999999929
  0
CIRCLE
  5
2BED
  8
0
 10
644.65958299670126
 20
778.45268900667168
 30
0.0
 40
24.999999999999911
  0
ARC
  5
2BEE
  8
0
 10
644.65958299670126
 20
778.45268900667168
 30
0.0
 40
25.749999999999911
 50
292.73086092662692
 51
67.269139073373083
  0
ARC
  5
2BEF
  8
0
 10
644.65958299670126
 20
778.45268900667168
 30
0.0
 40
25.749999999999911
 50
112.7308609266269
 51
247.26913907337311
  0
LINE
  5
2BF0
  8
0
 10
674.6662875179037
 20
755.83704843584235
 30
0.0
 11
676.15958299670103
 21
760.45268900667179
 31
0.0
  0
LINE
  5
2BF1
  8
0
 10
613.15958299670172
 20
760.45268900667179
 30
0.0
 11
614.65287847549939
 21
755.83704843584235
 31
0.0
  0
LINE
  5
2BF2
  8
0
 10
599.90958299670126
 20
751.45268900667179
 30
0.0
 11
599.90958299670126
 21
805.4526890066719
 31
0.0
  0
LINE
  5
2BF3
  8
CENTER
 10
644.65958299670126
 20
698.45268900667202
 30
0.0
 11
644.65958299670126
 21
828.20268900667145
 31
0.0
  0
LINE
  5
2BF4
  8
0
 10
665.08431417949691
 20
622.74945547943844
 30
0.0
 11
624.23485181390583
 21
622.74945547943764
 31
0.0
  0
LINE
  5
2BF5
  8
0
 10
613.19992363516894
 20
733.70268900667156
 30
0.0
 11
676.11924235823403
 21
733.70268900667168
 31
0.0
  0
LINE
  5
2BF6
  8
0
 10
669.60581955584109
 20
575.24945547943855
 30
0.0
 11
619.71334643756154
 21
575.24945547943764
 31
0.0
  0
LINE
  5
2BF7
  8
0
 10
648.15958299670126
 20
619.2494554794381
 30
0.0
 11
641.15958299670172
 21
619.24945547943798
 31
0.0
  0
LINE
  5
2BF8
  8
0
 10
667.61610981626131
 20
572.74945547943889
 30
0.0
 11
621.70305617714143
 21
572.74945547943764
 31
0.0
  0
ARC
  5
2BF9
  8
0
 10
644.65958299670126
 20
778.45268900667168
 30
0.0
 40
23.999999999999918
 50
261.61446135291891
 51
278.38553864708098
  0
LINE
  5
2BFA
  8
0
 10
621.56959908733825
 20
743.45268900667179
 30
0.0
 11
667.74956690606496
 21
743.45268900667202
 31
0.0
  0
LINE
  5
2BFB
  8
HIDDEN
 10
670.40958299670126
 20
729.45268900667224
 30
0.0
 11
618.90958299670137
 21
729.45268900667156
 31
0.0
  0
LINE
  5
2BFC
  8
HIDDEN
 10
671.15958299670137
 20
711.45268900667224
 30
0.0
 11
618.15958299670126
 21
711.45268900667156
 31
0.0
  0
LINE
  5
2BFD
  8
HIDDEN
 10
671.15958299670137
 20
703.45268900667236
 30
0.0
 11
618.15958299670126
 21
703.45268900667168
 31
0.0
  0
LINE
  5
2BFE
  8
0
 10
620.65960039587344
 20
619.25026454093688
 30
0.0
 11
619.70351849799863
 21
574.79245628974195
 31
0.0
  0
LINE
  5
2BFF
  8
0
 10
621.92746455253496
 20
619.25026454093688
 30
0.0
 11
621.13174822863164
 21
582.24945547943764
 31
0.0
  0
LINE
  5
2C00
  8
0
 10
624.68113819833434
 20
619.24945547943764
 30
0.0
 11
624.68113819833434
 21
582.24945547943776
 31
0.0
  0
LINE
  5
2C01
  8
0
 10
629.63088566663998
 20
619.24945547943764
 30
0.0
 11
629.63088566663998
 21
582.24945547943776
 31
0.0
  0
LINE
  5
2C02
  8
0
 10
631.06040932517578
 20
620.49113892052401
 30
0.0
 11
631.06040932517578
 21
582.24945547943798
 31
0.0
  0
LINE
  5
2C03
  8
0
 10
641.15958299670172
 20
620.49113892052367
 30
0.0
 11
641.15958299670172
 21
582.24945547943798
 31
0.0
  0
LINE
  5
2C04
  8
0
 10
641.15958299670172
 20
582.2494554794381
 30
0.0
 11
629.63088566663998
 21
582.24945547943776
 31
0.0
  0
ARC
  5
2C05
  8
0
 10
621.70305617714143
 20
574.74945547943776
 30
0.0
 40
1.9999999999999929
 50
178.76802259735911
 51
270.00000000000171
  0
LINE
  5
2C06
  8
0
 10
624.68113819833434
 20
582.24945547943764
 30
0.0
 11
621.13174822863164
 21
582.24945547943764
 31
0.0
  0
LINE
  5
2C07
  8
0
 10
641.15958299670172
 20
620.49113892052401
 30
0.0
 11
631.06040932517578
 21
620.49113892052401
 31
0.0
  0
LINE
  5
2C08
  8
0
 10
626.11066185687082
 20
620.49113892052401
 30
0.0
 11
623.19531131002498
 21
620.49113892052401
 31
0.0
  0
LINE
  5
2C09
  8
0
 10
624.68113819833434
 20
619.24945547943764
 30
0.0
 11
626.11066185687014
 21
620.49113892052367
 31
0.0
  0
LINE
  5
2C0A
  8
0
 10
629.63088566663998
 20
619.24945547943764
 30
0.0
 11
624.68113819833434
 21
619.24945547943764
 31
0.0
  0
LINE
  5
2C0B
  8
0
 10
620.65960039587344
 20
619.25026454093688
 30
0.0
 11
624.23485181390583
 21
622.74945547943764
 31
0.0
  0
LINE
  5
2C0C
  8
0
 10
621.92744715336289
 20
619.24945547943764
 30
0.0
 11
620.6595829967016
 21
619.24945547943764
 31
0.0
  0
LINE
  5
2C0D
  8
0
 10
621.92746455253496
 20
619.25026454093688
 30
0.0
 11
623.19531131002555
 21
620.49113892052401
 31
0.0
  0
LINE
  5
2C0E
  8
0
 10
629.63088566663998
 20
619.24945547943776
 30
0.0
 11
631.06040932517578
 21
620.49113892052367
 31
0.0
  0
LINE
  5
2C0F
  8
0
 10
614.65287847549939
 20
755.83704843584235
 30
0.0
 11
617.76382101312083
 21
746.22140786501302
 31
0.0
  0
ARC
  5
2C10
  8
0
 10
621.56959908733825
 20
747.45268900667179
 30
0.0
 40
3.9999999999999858
 50
197.92791976200729
 51
270.0
  0
CIRCLE
  5
2C11
  8
0
 10
621.15958299670149
 20
748.45268900667179
 30
0.0
 40
3.9999999999999858
  0
LINE
  5
2C12
  8
CENTER
 10
614.08505026174385
 20
748.45268900667179
 30
0.0
 11
628.23411573165913
 21
748.45268900667179
 31
0.0
  0
LINE
  5
2C13
  8
0
 10
616.55576751260833
 20
754.4526890066719
 30
0.0
 11
621.15958299670149
 21
754.4526890066719
 31
0.0
  0
LINE
  5
2C14
  8
CENTER
 10
608.65958299670149
 20
740.95268900667202
 30
0.0
 11
620.6595829967016
 21
740.95268900667202
 31
0.0
  0
LINE
  5
2C15
  8
0
 10
599.90958299670126
 20
751.45268900667179
 30
0.0
 11
603.40958299670126
 21
751.45268900667179
 31
0.0
  0
LINE
  5
2C16
  8
0
 10
608.48374693934932
 20
737.04206340955227
 30
0.0
 11
603.40958299670172
 21
751.45268900667179
 31
0.0
  0
CIRCLE
  5
2C17
  8
0
 10
614.65958299670126
 20
740.95268900667202
 30
0.0
 40
2.7499999999999898
  0
LINE
  5
2C18
  8
CENTER
 10
614.65958299670126
 20
734.9526890066719
 30
0.0
 11
614.65958299670126
 21
746.95268900667179
 31
0.0
  0
ARC
  5
2C19
  8
0
 10
613.19992363516872
 20
738.7026890066719
 30
0.0
 40
4.9999999999999822
 50
199.39781244855709
 51
270.0
  0
ARC
  5
2C1A
  8
0
 10
616.55576751260833
 20
756.45268900667179
 30
0.0
 40
1.9999999999999929
 50
197.92791976200729
 51
270.0
  0
LINE
  5
2C1B
  8
HIDDEN
 10
618.90958299670137
 20
711.45268900667156
 30
0.0
 11
618.90958299670137
 21
729.45268900667156
 31
0.0
  0
LINE
  5
2C1C
  8
HIDDEN
 10
618.15958299670126
 20
703.45268900667168
 30
0.0
 11
618.15958299670126
 21
711.45268900667156
 31
0.0
  0
LINE
  5
2C1D
  8
CENTER
 10
621.15958299670149
 20
741.37815627171415
 30
0.0
 11
621.15958299670149
 21
755.52722174162955
 31
0.0
  0
LINE
  5
2C1E
  8
0
 10
627.15958299670126
 20
743.45268900667179
 30
0.0
 11
627.15958299670126
 21
748.45268900667179
 31
0.0
  0
ARC
  5
2C1F
  8
0
 10
621.15958299670149
 20
748.45268900667179
 30
0.0
 40
5.9999999999999787
 50
0.0
 51
90.0
  0
POLYLINE
  5
2C20
  8
0
 66
     1
 10
0.0
 20
0.0
 30
0.0
 70
     1
  0
VERTEX
  5
2F65
  8
0
 10
620.00488245832253
 20
750.4526890066719
 30
0.0
  0
VERTEX
  5
2F66
  8
0
 10
618.85018191994322
 20
748.45268900667179
 30
0.0
  0
VERTEX
  5
2F67
  8
0
 10
620.00488245832253
 20
746.4526890066719
 30
0.0
  0
VERTEX
  5
2F68
  8
0
 10
622.31428353508079
 20
746.4526890066719
 30
0.0
  0
VERTEX
  5
2F69
  8
0
 10
623.46898407346009
 20
748.45268900667179
 30
0.0
  0
VERTEX
  5
2F6A
  8
0
 10
622.31428353508079
 20
750.4526890066719
 30
0.0
  0
SEQEND
  5
2F6B
  8
0
  0
LINE
  5
2C21
  8
HIDDEN
 10
637.65958299670137
 20
729.45268900667179
 30
0.0
 11
637.65958299670137
 21
747.58760853848185
 31
0.0
  0
LINE
  5
2C22
  8
0
 10
634.70970862563524
 20
754.70268900667179
 30
0.0
 11
636.85333549870325
 21
754.70268900667179
 31
0.0
  0
LINE
  5
2C23
  8
0
 10
641.15958299670126
 20
755.72055316333308
 30
0.0
 11
641.15958299670126
 21
753.69890141769849
 31
0.0
  0
LINE
  5
2C24
  8
0
 10
668.65956559752919
 20
619.25026454093813
 30
0.0
 11
669.61564749540435
 21
574.79245628974297
 31
0.0
  0
LINE
  5
2C25
  8
0
 10
667.39170144086745
 20
619.25026454093813
 30
0.0
 11
668.187417764771
 21
582.24945547943878
 31
0.0
  0
LINE
  5
2C26
  8
0
 10
658.25875666822685
 20
620.49113892052367
 30
0.0
 11
658.25875666822685
 21
582.24945547943867
 31
0.0
  0
LINE
  5
2C27
  8
0
 10
659.68828032676265
 20
619.24945547943844
 30
0.0
 11
659.68828032676265
 21
582.24945547943867
 31
0.0
  0
LINE
  5
2C28
  8
0
 10
664.63802779506864
 20
619.24945547943844
 30
0.0
 11
664.63802779506864
 21
582.24945547943867
 31
0.0
  0
LINE
  5
2C29
  8
0
 10
648.15958299670126
 20
620.49113892052367
 30
0.0
 11
648.15958299670126
 21
582.24945547943832
 31
0.0
  0
LINE
  5
2C2A
  8
0
 10
649.15958299670149
 20
594.24945547943844
 30
0.0
 11
649.15958299670149
 21
583.74945547943821
 31
0.0
  0
LINE
  5
2C2B
  8
0
 10
656.45875666822712
 20
594.24945547943844
 30
0.0
 11
656.45875666822712
 21
583.74945547943855
 31
0.0
  0
LINE
  5
2C2C
  8
0
 10
657.45875666822724
 20
594.24945547943844
 30
0.0
 11
657.45875666822724
 21
582.24945547943867
 31
0.0
  0
LINE
  5
2C2D
  8
0
 10
656.45875666822712
 20
583.74945547943855
 30
0.0
 11
649.15958299670149
 21
583.74945547943844
 31
0.0
  0
LINE
  5
2C2E
  8
0
 10
659.68828032676265
 20
582.24945547943855
 30
0.0
 11
648.15958299670126
 21
582.24945547943832
 31
0.0
  0
LINE
  5
2C2F
  8
0
 10
649.15958299670149
 20
594.24945547943844
 30
0.0
 11
648.15958299670126
 21
594.2494554794381
 31
0.0
  0
LINE
  5
2C30
  8
0
 10
657.45875666822724
 20
594.24945547943844
 30
0.0
 11
656.45875666822712
 21
594.24945547943844
 31
0.0
  0
ARC
  5
2C31
  8
0
 10
667.61610981626131
 20
574.74945547943867
 30
0.0
 40
1.9999999999999929
 50
270.00000000000171
 51
1.231977402640839
  0
LINE
  5
2C32
  8
0
 10
668.187417764771
 20
582.24945547943878
 30
0.0
 11
664.63802779506864
 21
582.24945547943867
 31
0.0
  0
LINE
  5
2C33
  8
0
 10
664.63802779506864
 20
619.24945547943844
 30
0.0
 11
659.68828032676265
 21
619.24945547943832
 31
0.0
  0
LINE
  5
2C34
  8
0
 10
658.25875666822685
 20
620.49113892052367
 30
0.0
 11
648.15958299670126
 21
620.49113892052401
 31
0.0
  0
LINE
  5
2C35
  8
0
 10
658.25875666822685
 20
620.49113892052367
 30
0.0
 11
659.68828032676265
 21
619.24945547943832
 31
0.0
  0
LINE
  5
2C36
  8
0
 10
665.08431417949691
 20
622.74945547943844
 30
0.0
 11
668.65956559752919
 21
619.25026454093813
 31
0.0
  0
POINT
  5
2C37
  8
DEFPOINTS
  6
BYBLOCK
 62
     0
 10
665.08431417949691
 20
622.74945547943844
 30
0.0
  0
LINE
  5
2C38
  8
0
 10
663.20850413653284
 20
620.49113892052401
 30
0.0
 11
664.63802779506864
 21
619.24945547943844
 31
0.0
  0
LINE
  5
2C39
  8
0
 10
666.12304543481275
 20
620.49113892052401
 30
0.0
 11
667.39171884003974
 21
619.24945547943855
 31
0.0
  0
LINE
  5
2C3A
  8
0
 10
666.12304543481275
 20
620.49113892052367
 30
0.0
 11
663.20850413653329
 21
620.49113892052367
 31
0.0
  0
LINE
  5
2C3B
  8
0
 10
668.65958299670115
 20
619.24945547943855
 30
0.0
 11
667.39171884003974
 21
619.24945547943855
 31
0.0
  0
ARC
  5
2C3C
  8
0
 10
676.11924235823403
 20
738.7026890066719
 30
0.0
 40
4.9999999999999822
 50
270.0
 51
340.60218755144291
  0
LINE
  5
2C3D
  8
CENTER
 10
668.65958299670115
 20
740.95268900667202
 30
0.0
 11
680.65958299670115
 21
740.95268900667202
 31
0.0
  0
CIRCLE
  5
2C3E
  8
0
 10
674.65958299670092
 20
740.95268900667202
 30
0.0
 40
2.7499999999999898
  0
LINE
  5
2C3F
  8
HIDDEN
 10
670.40958299670126
 20
711.45268900667224
 30
0.0
 11
670.40958299670126
 21
729.45268900667224
 31
0.0
  0
POINT
  5
2C40
  8
DEFPOINTS
  6
BYBLOCK
 62
     0
 10
671.15958299670137
 20
703.45268900667236
 30
0.0
  0
LINE
  5
2C41
  8
HIDDEN
 10
671.15958299670137
 20
703.45268900667236
 30
0.0
 11
671.15958299670137
 21
711.45268900667224
 31
0.0
  0
ARC
  5
2C42
  8
0
 10
668.15958299670115
 20
748.45268900667179
 30
0.0
 40
5.9999999999999787
 50
90.0
 51
180.0
  0
LINE
  5
2C43
  8
CENTER
 10
661.08505026174339
 20
748.45268900667179
 30
0.0
 11
675.2341157316589
 21
748.45268900667179
 31
0.0
  0
LINE
  5
2C44
  8
HIDDEN
 10
651.65958299670126
 20
729.45268900667202
 30
0.0
 11
651.65958299670126
 21
747.58760853848185
 31
0.0
  0
LINE
  5
2C45
  8
0
 10
652.46583049469916
 20
754.70268900667179
 30
0.0
 11
654.60945736776785
 21
754.70268900667179
 31
0.0
  0
LINE
  5
2C46
  8
0
 10
648.15958299670126
 20
755.72055316333308
 30
0.0
 11
648.15958299670126
 21
753.69890141769895
 31
0.0
  0
ARC
  5
2C47
  8
0
 10
667.74956690606496
 20
747.45268900667213
 30
0.0
 40
3.9999999999999858
 50
270.0
 51
342.07208023799268
  0
LINE
  5
2C48
  8
CENTER
 10
668.15958299670115
 20
741.37815627171415
 30
0.0
 11
668.15958299670115
 21
755.52722174162955
 31
0.0
  0
LINE
  5
2C49
  8
0
 10
662.15958299670103
 20
743.45268900667179
 30
0.0
 11
662.15958299670103
 21
748.45268900667179
 31
0.0
  0
LINE
  5
2C4A
  8
CENTER
 10
674.65958299670092
 20
734.9526890066719
 30
0.0
 11
674.65958299670092
 21
746.95268900667179
 31
0.0
  0
POLYLINE
  5
2C4B
  8
0
 66
     1
 10
0.0
 20
0.0
 30
0.0
 70
     1
  0
VERTEX
  5
2F6C
  8
0
 10
667.0048824583223
 20
750.4526890066719
 30
0.0
  0
VERTEX
  5
2F6D
  8
0
 10
665.850181919943
 20
748.45268900667179
 30
0.0
  0
VERTEX
  5
2F6E
  8
0
 10
667.0048824583223
 20
746.4526890066719
 30
0.0
  0
VERTEX
  5
2F6F
  8
0
 10
669.31428353508045
 20
746.4526890066719
 30
0.0
  0
VERTEX
  5
2F70
  8
0
 10
670.46898407345975
 20
748.45268900667179
 30
0.0
  0
VERTEX
  5
2F71
  8
0
 10
669.31428353508045
 20
750.4526890066719
 30
0.0
  0
SEQEND
  5
2F72
  8
0
  0
CIRCLE
  5
2C4C
  8
0
 10
668.15958299670115
 20
748.45268900667179
 30
0.0
 40
3.9999999999999858
  0
LINE
  5
2C4D
  8
0
 10
668.15958299670115
 20
754.4526890066719
 30
0.0
 11
672.7633984807951
 21
754.4526890066719
 31
0.0
  0
ARC
  5
2C4E
  8
0
 10
672.7633984807951
 20
756.45268900667179
 30
0.0
 40
1.9999999999999929
 50
270.0
 51
342.07208023799268
  0
LINE
  5
2C4F
  8
0
 10
671.55534498028248
 20
746.22140786501325
 30
0.0
 11
674.6662875179037
 21
755.83704843584235
 31
0.0
  0
LINE
  5
2C50
  8
0
 10
680.83541905405366
 20
737.04206340955227
 30
0.0
 11
685.90958299670092
 21
751.45268900667179
 31
0.0
  0
LINE
  5
2C51
  8
0
 10
685.90958299670092
 20
751.45268900667179
 30
0.0
 11
689.40958299670137
 21
751.45268900667179
 31
0.0
  0
LINE
  5
2C52
  8
0
 10
613.19992363516894
 20
823.20268900667156
 30
0.0
 11
676.11924235823403
 21
823.20268900667179
 31
0.0
  0
ARC
  5
2C55
  8
0
 10
644.65958299670126
 20
778.45268900667168
 30
0.0
 40
17.49999999999994
 50
8.2132107017363651
 51
171.7867892982604
  0
CIRCLE
  5
2C56
  8
0
 10
644.65958299670126
 20
778.45268900667168
 30
0.0
 40
14.99999999999995
  0
ARC
  5
2C57
  8
0
 10
644.65958299670126
 20
778.45268900667168
 30
0.0
 40
23.999999999999918
 50
81.614461352918937
 51
98.385538647081077
  0
LINE
  5
2C58
  8
0
 10
621.56959908733825
 20
813.45268900667156
 30
0.0
 11
667.74956690606496
 21
813.45268900667111
 31
0.0
  0
LINE
  5
2C59
  8
CENTER
 10
594.90958299670126
 20
778.45268900667168
 30
0.0
 11
694.40958299670137
 21
778.45268900667168
 31
0.0
  0
ARC
  5
2C5A
  8
0
 10
613.19992363516894
 20
818.20268900667145
 30
0.0
 40
4.9999999999999822
 50
90.0
 51
160.60218755144271
  0
ARC
  5
2C5C
  8
0
 10
621.56959908733825
 20
809.45268900667145
 30
0.0
 40
3.9999999999999858
 50
90.0
 51
162.07208023799259
  0
LINE
  5
2C5D
  8
0
 10
617.76382101312038
 20
810.68397014833022
 30
0.0
 11
614.65287847549939
 21
801.06832957750078
 31
0.0
  0
CIRCLE
  5
2C5E
  8
0
 10
621.15958299670149
 20
808.45268900667145
 30
0.0
 40
3.9999999999999858
  0
LINE
  5
2C5F
  8
CENTER
 10
614.08505026174385
 20
808.45268900667145
 30
0.0
 11
628.23411573165913
 21
808.45268900667145
 31
0.0
  0
LINE
  5
2C60
  8
0
 10
616.55576751260787
 20
802.45268900667145
 30
0.0
 11
621.15958299670183
 21
802.45268900667202
 31
0.0
  0
LINE
  5
2C61
  8
CENTER
 10
608.65958299670149
 20
815.95268900667179
 30
0.0
 11
620.6595829967016
 21
815.95268900667179
 31
0.0
  0
LINE
  5
2C62
  8
0
 10
609.65958299670126
 20
760.45268900667179
 30
0.0
 11
609.65958299670126
 21
796.45268900667179
 31
0.0
  0
LINE
  5
2C63
  8
0
 10
609.65958299670126
 20
760.45268900667179
 30
0.0
 11
613.15958299670172
 21
760.45268900667179
 31
0.0
  0
LINE
  5
2C64
  8
0
 10
599.90958299670126
 20
805.45268900667179
 30
0.0
 11
603.40958299670126
 21
805.45268900667179
 31
0.0
  0
LINE
  5
2C65
  8
0
 10
608.48374693934932
 20
819.86331460379108
 30
0.0
 11
603.40958299670126
 21
805.45268900667179
 31
0.0
  0
LINE
  5
2C66
  8
0
 10
609.65958299670126
 20
796.45268900667179
 30
0.0
 11
613.15958299670172
 21
796.45268900667179
 31
0.0
  0
ARC
  5
2C67
  8
0
 10
616.55576751260833
 20
800.45268900667168
 30
0.0
 40
1.9999999999999929
 50
90.000000000003254
 51
162.07208023799259
  0
LINE
  5
2C68
  8
0
 10
614.65287847549939
 20
801.06832957750078
 30
0.0
 11
613.15958299670172
 21
796.45268900667179
 31
0.0
  0
LINE
  5
2C69
  8
CENTER
 10
614.65958299670126
 20
809.95268900667156
 30
0.0
 11
614.65958299670126
 21
821.95268900667145
 31
0.0
  0
CIRCLE
  5
2C6A
  8
0
 10
614.65958299670126
 20
815.95268900667179
 30
0.0
 40
2.7499999999999898
  0
ARC
  5
2C6B
  8
0
 10
644.65958299670126
 20
778.45268900667168
 30
0.0
 40
22.999999999999918
 50
143.75292907688149
 51
171.2470709231163
  0
ARC
  5
2C6C
  8
0
 10
644.65958299670126
 20
778.45268900667168
 30
0.0
 40
23.999999999999918
 50
171.6144613529197
 51
188.38553864708021
  0
ARC
  5
2C6D
  8
0
 10
644.65958299670126
 20
778.45268900667168
 30
0.0
 40
22.999999999999918
 50
188.7529290768837
 51
216.24707092311851
  0
LINE
  5
2C6E
  8
0
 10
626.11066185687014
 20
764.85351533514643
 30
0.0
 11
624.68113819833434
 21
763.42399167661029
 31
0.0
  0
LINE
  5
2C6F
  8
0
 10
621.92744715336289
 20
774.95268900667179
 30
0.0
 11
619.90579540772842
 21
774.95268900667179
 31
0.0
  0
LINE
  5
2C70
  8
0
 10
621.92744715336289
 20
781.95268900667168
 30
0.0
 11
619.90579540772842
 21
781.95268900667168
 31
0.0
  0
TEXT
  5
2C71
  8
0
 10
626.02762686849189
 20
774.25153292943469
 30
0.0
 40
3.499999999999988
  1
-
  0
SOLID
  5
2C72
  8
0
 10
627.75574158767938
 20
780.95268900667168
 30
0.0
 11
627.33907492101275
 21
778.45268900667168
 31
0.0
 12
626.92240825434612
 22
780.95268900667168
 32
0.0
 13
626.92240825434612
 23
780.95268900667168
 33
0.0
1001
ACAD
1000
DSTYLE
1002
{
1070
    78
1070
     8
1070
   284
1070
     8
1070
   140
1040
3.0
1070
   340
1005
17D9
1070
    74
1070
     0
1070
   172
1070
     1
1070
    73
1070
     0
1070
   146
1040
0.5
1070
   272
1070
     2
1070
    77
1070
     1
1070
   144
1040
2.0
1070
   147
1040
1.5
1070
   287
1070
     5
1070
    42
1040
1.5
1070
    44
1040
1.5
1070
    43
1040
8.0
1070
   271
1070
     2
1070
   141
1040
-2.5
1070
    41
1040
2.5
1002
}
  0
ARC
  5
2C73
  8
0
 10
644.65958299670126
 20
778.45268900667168
 30
0.0
 40
22.999999999999918
 50
98.752929076882864
 51
126.24707092311669
  0
POLYLINE
  5
2C74
  8
0
 66
     1
 10
0.0
 20
0.0
 30
0.0
 70
     1
  0
VERTEX
  5
2F73
  8
0
 10
620.00488245832253
 20
810.45268900667168
 30
0.0
  0
VERTEX
  5
2F74
  8
0
 10
618.85018191994322
 20
808.45268900667133
 30
0.0
  0
VERTEX
  5
2F75
  8
0
 10
620.00488245832253
 20
806.45268900667156
 30
0.0
  0
VERTEX
  5
2F76
  8
0
 10
622.31428353508079
 20
806.45268900667156
 30
0.0
  0
VERTEX
  5
2F77
  8
0
 10
623.46898407346009
 20
808.45268900667133
 30
0.0
  0
VERTEX
  5
2F78
  8
0
 10
622.31428353508079
 20
810.45268900667168
 30
0.0
  0
SEQEND
  5
2F79
  8
0
  0
ARC
  5
2C75
  8
0
 10
621.15958299670149
 20
808.45268900667224
 30
0.0
 40
5.9999999999999787
 50
270.0000000000025
 51
0.0
  0
LINE
  5
2C76
  8
CENTER
 10
621.15958299670149
 20
801.37815627171381
 30
0.0
 11
621.15958299670149
 21
815.52722174162932
 31
0.0
  0
LINE
  5
2C77
  8
0
 10
626.11066185687014
 20
792.05186267819715
 30
0.0
 11
624.68113819833434
 21
793.48138633673295
 31
0.0
  0
ARC
  5
2C78
  8
0
 10
644.65958299670126
 20
778.45268900667168
 30
0.0
 40
23.999999999999918
 50
126.6144613529179
 51
143.3855386470822
  0
LINE
  5
2C79
  8
0
 10
631.06040932517578
 20
797.00161014650325
 30
0.0
 11
629.63088566663998
 21
798.43113380503848
 31
0.0
  0
LINE
  5
2C7A
  8
0
 10
627.15958299670126
 20
808.45268900667224
 30
0.0
 11
627.15958299670126
 21
813.45268900667156
 31
0.0
  0
LINE
  5
2C7B
  8
0
 10
634.70970862563524
 20
802.20268900667168
 30
0.0
 11
636.85333549870325
 21
802.20268900667168
 31
0.0
  0
LINE
  5
2C7C
  8
0
 10
641.15958299670126
 20
801.18482485001039
 30
0.0
 11
641.15958299670126
 21
803.20647659564452
 31
0.0
  0
ARC
  5
2C7E
  8
0
 10
676.11924235823403
 20
818.20268900667168
 30
0.0
 40
4.9999999999999822
 50
19.397812448557261
 51
90.0
  0
LINE
  5
2C80
  8
0
 10
676.15958299670103
 20
760.45268900667179
 30
0.0
 11
679.65958299670103
 21
760.45268900667179
 31
0.0
  0
LINE
  5
2C81
  8
0
 10
676.15958299670103
 20
796.45268900667179
 30
0.0
 11
679.65958299670103
 21
796.45268900667179
 31
0.0
  0
LINE
  5
2C82
  8
CENTER
 10
668.65958299670115
 20
815.95268900667179
 30
0.0
 11
680.65958299670115
 21
815.95268900667179
 31
0.0
  0
CIRCLE
  5
2C83
  8
0
 10
674.65958299670092
 20
815.95268900667179
 30
0.0
 40
2.7499999999999898
  0
ARC
  5
2C84
  8
0
 10
644.65958299670126
 20
778.45268900667168
 30
0.0
 40
22.999999999999918
 50
8.7529290768836816
 51
36.247070923115878
  0
TEXT
  5
2C85
  8
0
 10
660.67892338564809
 20
774.25153292943469
 30
0.0
 40
3.499999999999988
  1
+
  0
SOLID
  5
2C86
  8
0
 10
662.39675773905685
 20
780.95268900667168
 30
0.0
 11
661.98009107239
 21
778.45268900667168
 31
0.0
 12
661.56342440572371
 22
780.95268900667168
 32
0.0
 13
661.56342440572371
 23
780.95268900667168
 33
0.0
1001
ACAD
1000
DSTYLE
1002
{
1070
    78
1070
     8
1070
   284
1070
     8
1070
   140
1040
3.0
1070
   340
1005
17D9
1070
    74
1070
     0
1070
   172
1070
     1
1070
    73
1070
     0
1070
   146
1040
0.5
1070
   272
1070
     2
1070
    77
1070
     1
1070
   144
1040
2.0
1070
   147
1040
1.5
1070
   287
1070
     5
1070
    42
1040
1.5
1070
    44
1040
1.5
1070
    43
1040
8.0
1070
   271
1070
     2
1070
   141
1040
-2.5
1070
    41
1040
2.5
1002
}
  0
ARC
  5
2C87
  8
0
 10
644.65958299670126
 20
778.45268900667168
 30
0.0
 40
23.999999999999918
 50
351.6144613529197
 51
8.3855386470802706
  0
LINE
  5
2C88
  8
0
 10
667.39171884003974
 20
774.95268900667179
 30
0.0
 11
669.41337058567456
 21
774.95268900667179
 31
0.0
  0
ARC
  5
2C89
  8
0
 10
644.65958299670126
 20
778.45268900667168
 30
0.0
 40
22.999999999999918
 50
323.75292907688151
 51
351.24707092311633
  0
LINE
  5
2C8A
  8
0
 10
663.20850413653284
 20
764.85351533514643
 30
0.0
 11
664.63802779506864
 21
763.42399167661063
 31
0.0
  0
LINE
  5
2C8B
  8
0
 10
667.39171884003974
 20
781.95268900667168
 30
0.0
 11
669.41337058567456
 21
781.95268900667168
 31
0.0
  0
ARC
  5
2C8C
  8
0
 10
644.65958299670126
 20
778.45268900667168
 30
0.0
 40
23.999999999999918
 50
36.614461352917772
 51
53.385538647082058
  0
ARC
  5
2C8D
  8
0
 10
668.15958299670115
 20
808.45268900667168
 30
0.0
 40
5.9999999999999787
 50
180.0
 51
269.99999999999841
  0
LINE
  5
2C8E
  8
CENTER
 10
661.08505026174339
 20
808.45268900667145
 30
0.0
 11
675.2341157316589
 21
808.45268900667145
 31
0.0
  0
ARC
  5
2C8F
  8
0
 10
644.65958299670126
 20
778.45268900667168
 30
0.0
 40
22.999999999999918
 50
53.752929076882637
 51
81.247070923117136
  0
LINE
  5
2C90
  8
0
 10
652.46583049469973
 20
802.20268900667168
 30
0.0
 11
654.6094573677675
 21
802.20268900667168
 31
0.0
  0
LINE
  5
2C91
  8
0
 10
648.15958299670126
 20
801.18482485001039
 30
0.0
 11
648.15958299670126
 21
803.20647659564463
 31
0.0
  0
LINE
  5
2C92
  8
0
 10
658.25875666822708
 20
797.00161014650325
 30
0.0
 11
659.68828032676265
 21
798.43113380503883
 31
0.0
  0
POLYLINE
  5
2C93
  8
0
 66
     1
 10
0.0
 20
0.0
 30
0.0
 70
     1
  0
VERTEX
  5
2F7A
  8
0
 10
667.0048824583223
 20
810.45268900667168
 30
0.0
  0
VERTEX
  5
2F7B
  8
0
 10
665.850181919943
 20
808.45268900667133
 30
0.0
  0
VERTEX
  5
2F7C
  8
0
 10
667.0048824583223
 20
806.45268900667156
 30
0.0
  0
VERTEX
  5
2F7D
  8
0
 10
669.31428353508045
 20
806.45268900667156
 30
0.0
  0
VERTEX
  5
2F7E
  8
0
 10
670.46898407345975
 20
808.45268900667133
 30
0.0
  0
VERTEX
  5
2F7F
  8
0
 10
669.31428353508045
 20
810.45268900667168
 30
0.0
  0
SEQEND
  5
2F80
  8
0
  0
LINE
  5
2C94
  8
0
 10
671.55534498028248
 20
810.68397014832965
 30
0.0
 11
674.6662875179037
 21
801.06832957750078
 31
0.0
  0
LINE
  5
2C95
  8
CENTER
 10
668.15958299670115
 20
801.37815627171381
 30
0.0
 11
668.15958299670115
 21
815.52722174162932
 31
0.0
  0
CIRCLE
  5
2C96
  8
0
 10
668.15958299670115
 20
808.45268900667145
 30
0.0
 40
3.9999999999999858
  0
LINE
  5
2C97
  8
0
 10
668.15958299670115
 20
802.45268900667202
 30
0.0
 11
672.76339848079476
 21
802.45268900667145
 31
0.0
  0
LINE
  5
2C98
  8
0
 10
663.20850413653284
 20
792.05186267819715
 30
0.0
 11
664.63802779506864
 21
793.48138633673329
 31
0.0
  0
ARC
  5
2C99
  8
0
 10
672.76339848079476
 20
800.45268900667168
 30
0.0
 40
1.9999999999999929
 50
17.927919762007331
 51
89.999999999997556
  0
LINE
  5
2C9A
  8
0
 10
674.66628751790336
 20
801.06832957750078
 30
0.0
 11
676.15958299670103
 21
796.45268900667179
 31
0.0
  0
ARC
  5
2C9B
  8
0
 10
667.74956690606496
 20
809.45268900667133
 30
0.0
 40
3.9999999999999858
 50
17.927919762007331
 51
90.0
  0
LINE
  5
2C9C
  8
0
 10
662.15958299670103
 20
808.45268900667168
 30
0.0
 11
662.15958299670103
 21
813.45268900667156
 31
0.0
  0
LINE
  5
2C9D
  8
CENTER
 10
674.65958299670092
 20
809.95268900667156
 30
0.0
 11
674.65958299670092
 21
821.95268900667145
 31
0.0
  0
LINE
  5
2C9E
  8
0
 10
679.65958299670103
 20
760.45268900667179
 30
0.0
 11
679.65958299670103
 21
796.45268900667179
 31
0.0
  0
LINE
  5
2C9F
  8
0
 10
680.83541905405366
 20
819.86331460379108
 30
0.0
 11
685.90958299670092
 21
805.45268900667179
 31
0.0
  0
LINE
  5
2CA0
  8
0
 10
685.90958299670092
 20
805.45268900667179
 30
0.0
 11
689.40958299670137
 21
805.45268900667179
 31
0.0
  0
LINE
  5
2CA2
  8
0
 10
838.78131752149534
 20
572.74945547943764
 30
0.0
 11
838.78131752149534
 21
562.24945547943844
 31
0.0
  0
LINE
  5
2CA3
  8
0
 10
882.78131752149523
 20
562.24945547943844
 30
0.0
 11
882.78131752149523
 21
572.74945547943889
 31
0.0
  0
LINE
  5
2CA7
  8
0
 10
838.78131752149534
 20
572.74945547943764
 30
0.0
 11
838.78131752149534
 21
562.24945547943844
 31
0.0
  0
LINE
  5
2CA8
  8
0
 10
882.78131752149523
 20
572.74945547943855
 30
0.0
 11
882.78131752149523
 21
562.24945547943844
 31
0.0
  0
LINE
  5
2CA9
  8
CENTER
 10
860.78131752149534
 20
627.74945547943798
 30
0.0
 11
860.78131752149534
 21
453.74945547943872
 31
0.0
  0
LINE
  5
2CAA
  8
0
 10
823.78131752149511
 20
489.74945547943901
 30
0.0
 11
824.78131752149488
 21
488.74945547943912
 31
0.0
  0
LINE
  5
2CAB
  8
0
 10
825.78131752149568
 20
538.24945547943844
 30
0.0
 11
816.03131752149545
 21
538.24945547943844
 31
0.0
  0
INSERT
  5
2CAC
  8
0
  2
*U46
 10
0.0
 20
0.0
 30
0.0
1001
ACAD
1000
DSTYLE
1002
{
1070
     5
1000

1070
    41
1040
2.5
1070
    42
1040
1.5
1070
    43
1040
8.0
1070
    44
1040
1.5
1070
    73
1070
     0
1070
    74
1070
     0
1070
    77
1070
     1
1070
    78
1070
     8
1070
   140
1040
3.0
1070
   141
1040
-2.5
1070
   144
1040
2.0
1070
   146
1040
0.5
1070
   147
1040
1.5
1070
   172
1070
     1
1070
   271
1070
     2
1070
   272
1070
     2
1070
   284
1070
     8
1070
   287
1070
     5
1070
   340
1005
17D9
1002
}
  0
INSERT
  5
2CAD
  8
0
  2
*U47
 10
0.0
 20
0.0
 30
0.0
  0
LINE
  5
2CAE
  8
HIDDEN
 10
811.78131752149466
 20
494.74945547943878
 30
0.0
 11
829.91623705330483
 21
494.74945547943878
 31
0.0
  0
LINE
  5
2CAF
  8
HIDDEN
 10
811.78131752149466
 20
508.74945547943878
 30
0.0
 11
829.91623705330483
 21
508.74945547943878
 31
0.0
  0
LINE
  5
2CB0
  8
CENTER
 10
780.78131752149454
 20
501.74945547943861
 30
0.0
 11
833.78131752149557
 21
501.74945547943901
 31
0.0
  0
ARC
  5
2CB1
  8
0
 10
824.78131752149488
 20
489.74945547943901
 30
0.0
 40
0.9999999999999966
 50
180.0
 51
270.0
  0
LINE
  5
2CB2
  8
0
 10
833.78131752149557
 20
522.74945547943844
 30
0.0
 11
817.03131752149545
 21
522.74945547943844
 31
0.0
  0
LINE
  5
2CB3
  8
0
 10
905.53131752149511
 20
538.24945547943844
 30
0.0
 11
816.03131752149545
 21
538.24945547943844
 31
0.0
  0
LINE
  5
2CBA
  8
0
 10
823.78131752149432
 20
522.74945547943844
 30
0.0
 11
823.78131752149511
 21
489.74945547943901
 31
0.0
  0
LINE
  5
2CBB
  8
HIDDEN
 10
785.78131752149488
 20
475.24945547943872
 30
0.0
 11
785.78131752149466
 21
528.24945547943844
 31
0.0
  0
LINE
  5
2CBC
  8
HIDDEN
 10
793.78131752149511
 20
475.24945547943878
 30
0.0
 11
793.78131752149443
 21
528.24945547943867
 31
0.0
  0
LINE
  5
2CBD
  8
HIDDEN
 10
811.78131752149466
 20
475.99945547943878
 30
0.0
 11
811.78131752149466
 21
527.49945547943867
 31
0.0
  0
LINE
  5
2CBE
  8
0
 10
823.78131752149511
 20
489.74945547943901
 30
0.0
 11
823.78131752149432
 21
522.74945547943844
 31
0.0
  0
LINE
  5
2CBF
  8
HIDDEN
 10
793.78131752149511
 20
475.99945547943878
 30
0.0
 11
811.78131752149466
 21
475.99945547943878
 31
0.0
  0
LINE
  5
2CC0
  8
HIDDEN
 10
785.78131752149488
 20
475.24945547943878
 30
0.0
 11
793.78131752149511
 21
475.24945547943878
 31
0.0
  0
LINE
  5
2CC1
  8
HIDDEN
 10
793.78131752149443
 20
527.49945547943855
 30
0.0
 11
811.78131752149466
 21
527.49945547943855
 31
0.0
  0
LINE
  5
2CC2
  8
HIDDEN
 10
785.78131752149466
 20
528.24945547943878
 30
0.0
 11
793.78131752149443
 21
528.24945547943878
 31
0.0
  0
LINE
  5
2CC3
  8
0
 10
816.03131752149523
 20
523.74945547943844
 30
0.0
 11
817.03131752149545
 21
522.74945547943844
 31
0.0
  0
ARC
  5
2CC4
  8
0
 10
817.03131752149545
 20
523.74945547943844
 30
0.0
 40
0.9999999999999966
 50
180.0
 51
270.0
  0
LINE
  5
2CC5
  8
0
 10
817.03131752149545
 20
522.74945547943844
 30
0.0
 11
823.78131752149432
 21
522.74945547943844
 31
0.0
  0
LINE
  5
2CC6
  8
0
 10
816.03131752149545
 20
538.24945547943844
 30
0.0
 11
816.03131752149523
 21
523.74945547943844
 31
0.0
  0
LINE
  5
2CC7
  8
0
 10
816.03131752149545
 20
523.74945547943844
 30
0.0
 11
816.03131752149545
 21
538.24945547943844
 31
0.0
  0
LINE
  5
2CC8
  8
0
 10
884.531317521495
 20
562.24945547943844
 30
0.0
 11
882.78131752149523
 21
562.24945547943844
 31
0.0
  0
LINE
  5
2CC9
  8
0
 10
876.36977478961433
 20
464.74945547943901
 30
0.0
 11
889.78131752149523
 21
464.7494554794394
 31
0.0
  0
LINE
  5
2CCB
  8
0
 10
837.03131752149534
 20
553.24945547943844
 30
0.0
 11
884.531317521495
 21
553.24945547943844
 31
0.0
  0
LINE
  5
2CCC
  8
0
 10
837.03131752149534
 20
556.24945547943821
 30
0.0
 11
884.531317521495
 21
556.24945547943821
 31
0.0
  0
LINE
  5
2CCD
  8
0
 10
837.03131752149534
 20
559.24945547943844
 30
0.0
 11
884.531317521495
 21
559.24945547943844
 31
0.0
  0
LINE
  5
2CCE
  8
0
 10
837.03131752149534
 20
562.24945547943844
 30
0.0
 11
884.531317521495
 21
562.24945547943844
 31
0.0
  0
LINE
  5
2CCF
  8
0
 10
825.78131752149568
 20
550.24945547943821
 30
0.0
 11
895.78131752149511
 21
550.24945547943844
 31
0.0
  0
LINE
  5
2CD0
  8
0
 10
890.781317521495
 20
469.74945547943952
 30
0.0
 11
830.78131752149545
 21
469.7494554794381
 31
0.0
  0
LINE
  5
2CD1
  8
0
 10
889.78131752149523
 20
464.7494554794394
 30
0.0
 11
831.78131752149557
 21
464.74945547943832
 31
0.0
  0
LINE
  5
2CD2
  8
0
 10
830.78131752149579
 20
465.7494554794385
 30
0.0
 11
890.78131752149523
 21
465.74945547943958
 31
0.0
  0
LINE
  5
2CD3
  8
0
 10
887.78131752149488
 20
533.74945547943844
 30
0.0
 11
833.78131752149557
 21
533.74945547943844
 31
0.0
  0
LINE
  5
2CD4
  8
0
 10
887.78131752149488
 20
529.74945547943844
 30
0.0
 11
833.78131752149557
 21
529.74945547943832
 31
0.0
  0
LINE
  5
2CD5
  8
0
 10
879.57010502925903
 20
482.02125548674599
 30
0.0
 11
887.46668222049982
 21
489.4533281373258
 31
0.0
  0
CIRCLE
  5
2CD6
  8
0
 10
860.78131752149534
 20
505.7494554794385
 30
0.0
 40
15.144999999999939
  0
ARC
  5
2CD7
  8
0
 62
     3
 10
860.78131752149534
 20
505.7494554794385
 30
0.0
 40
16.62499999999994
 50
0.0
 51
270.0
  0
CIRCLE
  5
2CD8
  8
0
 10
860.78131752149534
 20
505.7494554794385
 30
0.0
 40
10.999999999999959
  0
LINE
  5
2CD9
  8
0
 10
833.78131752149557
 20
490.18152813001842
 30
0.0
 11
833.78131752149557
 21
538.24945547943844
 31
0.0
  0
LINE
  5
2CDA
  8
0
 10
846.19286025337487
 20
458.7494554794385
 30
0.0
 11
875.36977478961433
 21
458.74945547943918
 31
0.0
  0
LINE
  5
2CDB
  8
0
 10
845.1928602533751
 20
459.74945547943832
 30
0.0
 11
876.36977478961433
 21
459.74945547943901
 31
0.0
  0
LINE
  5
2CDC
  8
0
 10
875.36977478961433
 20
458.74945547943918
 30
0.0
 11
846.19286025337487
 21
458.7494554794385
 31
0.0
  0
LINE
  5
2CDD
  8
CENTER
 10
882.47058570521438
 20
505.7494554794385
 30
0.0
 11
839.09204933777642
 21
505.7494554794385
 31
0.0
  0
LINE
  5
2CDE
  8
0
 10
878.88474033025432
 20
481.74945547943861
 30
0.0
 11
842.67789471273647
 21
481.74945547943861
 31
0.0
  0
LINE
  5
2CDF
  8
0
 10
830.78131752149545
 20
488.74945547943912
 30
0.0
 11
830.78131752149579
 21
465.7494554794385
 31
0.0
  0
LINE
  5
2CE0
  8
0
 10
830.78131752149579
 20
465.7494554794385
 30
0.0
 11
830.78131752149545
 21
488.74945547943912
 31
0.0
  0
LINE
  5
2CE1
  8
0
 10
831.78131752149557
 20
464.74945547943832
 30
0.0
 11
845.19286025337487
 21
464.74945547943872
 31
0.0
  0
LINE
  5
2CE2
  8
0
 10
830.78131752149579
 20
465.7494554794385
 30
0.0
 11
831.78131752149557
 21
464.74945547943832
 31
0.0
  0
LINE
  5
2CE3
  8
0
 10
830.78131752149579
 20
465.7494554794385
 30
0.0
 11
831.78131752149557
 21
464.74945547943832
 31
0.0
  0
LINE
  5
2CE4
  8
0
 10
845.19286025337487
 20
464.74945547943872
 30
0.0
 11
845.1928602533751
 21
459.74945547943832
 31
0.0
  0
LINE
  5
2CE5
  8
0
 10
852.98708888743522
 20
458.74945547943861
 30
0.0
 11
852.98708888743499
 21
464.74945547943889
 31
0.0
  0
LINE
  5
2CE6
  8
0
 10
845.1928602533751
 20
459.74945547943832
 30
0.0
 11
845.19286025337487
 21
464.74945547943872
 31
0.0
  0
LINE
  5
2CE7
  8
0
 10
845.1928602533751
 20
459.74945547943832
 30
0.0
 11
846.19286025337487
 21
458.7494554794385
 31
0.0
  0
LINE
  5
2CE8
  8
0
 10
845.1928602533751
 20
459.74945547943832
 30
0.0
 11
846.19286025337487
 21
458.7494554794385
 31
0.0
  0
LINE
  5
2CE9
  8
0
 10
841.99253001373199
 20
482.02125548674599
 30
0.0
 11
834.09595282249052
 21
489.45332813732551
 31
0.0
  0
LINE
  5
2CEA
  8
0
 10
824.78131752149488
 20
488.74945547943912
 30
0.0
 11
834.84381752149477
 21
488.74945547943912
 31
0.0
  0
LINE
  5
2CEB
  8
0
 10
824.78131752149488
 20
488.74945547943912
 30
0.0
 11
830.78131752149545
 21
488.74945547943912
 31
0.0
  0
ARC
  5
2CEC
  8
0
 10
834.78131752149545
 20
490.18152813001842
 30
0.0
 40
0.9999999999999966
 50
180.0
 51
226.735704588928
  0
ARC
  5
2CED
  8
0
 10
842.67789471273647
 20
482.74945547943861
 30
0.0
 40
0.9999999999999966
 50
226.735704588928
 51
270.0
  0
LINE
  5
2CEE
  8
0
 10
868.57554615555466
 20
458.74945547943901
 30
0.0
 11
868.57554615555466
 21
464.74945547943918
 31
0.0
  0
LINE
  5
2CEF
  8
0
 10
876.36977478961433
 20
459.74945547943901
 30
0.0
 11
876.36977478961433
 21
464.74945547943901
 31
0.0
  0
LINE
  5
2CF0
  8
0
 10
876.36977478961433
 20
459.74945547943901
 30
0.0
 11
876.36977478961433
 21
464.74945547943918
 31
0.0
  0
LINE
  5
2CF1
  8
0
 10
875.36977478961433
 20
458.74945547943918
 30
0.0
 11
876.36977478961433
 21
459.74945547943901
 31
0.0
  0
LINE
  5
2CF2
  8
0
 10
875.36977478961433
 20
458.74945547943918
 30
0.0
 11
876.36977478961433
 21
459.74945547943901
 31
0.0
  0
POINT
  5
2CF3
  8
DEFPOINTS
  6
BYBLOCK
 62
     0
 10
875.36977478961433
 20
458.74945547943918
 30
0.0
  0
ARC
  5
2CF4
  8
0
 10
878.88474033025432
 20
482.74945547943861
 30
0.0
 40
0.9999999999999966
 50
270.0
 51
313.26429541107262
  0
POINT
  5
2CF5
  8
DEFPOINTS
  6
BYBLOCK
 62
     0
 10
882.47058570521438
 20
505.7494554794385
 30
0.0
  0
POINT
  5
2CF6
  8
DEFPOINTS
  6
BYBLOCK
 62
     0
 10
882.47058570521438
 20
505.7494554794385
 30
0.0
  0
LINE
  5
2CF7
  8
0
 10
845.78131752149511
 20
551.74945547943844
 30
0.0
 11
875.78131752149523
 21
551.74945547943844
 31
0.0
  0
LINE
  5
2CF8
  8
0
 10
845.78131752149511
 20
554.74945547943844
 30
0.0
 11
875.78131752149523
 21
554.74945547943855
 31
0.0
  0
LINE
  5
2CF9
  8
0
 10
845.78131752149511
 20
557.74945547943832
 30
0.0
 11
875.78131752149523
 21
557.74945547943855
 31
0.0
  0
LINE
  5
2CFA
  8
0
 10
845.78131752149511
 20
560.74945547943844
 30
0.0
 11
875.78131752149523
 21
560.74945547943844
 31
0.0
  0
LINE
  5
2CFB
  8
0
 10
825.78131752149568
 20
550.24945547943821
 30
0.0
 11
825.78131752149568
 21
538.24945547943844
 31
0.0
  0
LINE
  5
2CFC
  8
0
 10
842.781317521495
 20
550.24945547943821
 30
0.0
 11
842.781317521495
 21
538.24945547943844
 31
0.0
  0
LINE
  5
2CFD
  8
0
 10
825.78131752149568
 20
550.24945547943844
 30
0.0
 11
825.78131752149568
 21
538.24945547943844
 31
0.0
  0
LINE
  5
2CFE
  8
0
 10
837.03131752149534
 20
562.24945547943844
 30
0.0
 11
836.78131752149534
 21
550.24945547943821
 31
0.0
  0
LINE
  5
2CFF
  8
0
 10
837.03131752149534
 20
562.24945547943844
 30
0.0
 11
837.03131752149534
 21
550.24945547943821
 31
0.0
  0
LINE
  5
2D00
  8
0
 10
836.78131752149534
 20
550.24945547943821
 30
0.0
 11
825.78131752149568
 21
550.24945547943821
 31
0.0
  0
LINE
  5
2D01
  8
0
 10
833.98131752149527
 20
549.24945547943844
 30
0.0
 11
827.58131752149541
 21
549.24945547943844
 31
0.0
  0
LINE
  5
2D02
  8
0
 10
826.781317521495
 20
548.44945547943848
 30
0.0
 11
834.78131752149545
 21
548.44945547943848
 31
0.0
1001
ACAD
1000
ASC_BOUNDS
1002
{
1070
    19
1005
2D04
1002
}
  0
LINE
  5
2D03
  8
0
 10
834.78131752149545
 20
544.24945547943844
 30
0.0
 11
826.781317521495
 21
544.24945547943855
 31
0.0
1001
ACAD
1000
ASC_BOUNDS
1002
{
1070
    19
1005
2D04
1002
}
  0
INSERT
  5
2D04
  8
0
  6
CONTINUOUS
  2
*X48
 10
0.0
 20
0.0
 30
0.0
1001
ACAD
1000
HATCH
1002
{
1070
    19
1000
ANSI31
1040
0.3999999999999987
1040
0.7853981633974483
1000
ASC_BOUNDS
1070
     1
1070
     2
1070
     4
1005
2D08
1005
2D03
1005
2D0B
1005
2D02
1000
ASC_SEEDPOINT
1011
714.97654019289621
1021
1.1260386407707860E+185
1031
-0.0
1021
-22.589988076675979
1031
0.0
1000
R14_HATCH_DATA
1000
2D04
1011
1.0
1021
1.1260386407707860E+185
1031
-0.0
1021
0.0
1031
0.0
1011
0.0
1021
1.1260386407707860E+185
1031
-0.0
1021
1.0
1031
0.0
1011
0.0
1021
1.1260386407707860E+185
1031
-0.0
1021
0.0
1031
1.0
1040
0.0
1010
0.0
1020
0.0
1030
1.0
1000
ANSI31
1070
     0
1070
     1
1071
        1
1071
        1
1071
        4
1070
     1
1040
826.781317521495
1040
548.44945547943848
1040
834.78131752149545
1040
548.44945547943848
1070
     1
1040
834.78131752149545
1040
548.44945547943848
1040
834.78131752149545
1040
544.24945547943844
1070
     1
1040
834.78131752149545
1040
544.24945547943844
1040
826.781317521495
1040
544.24945547943855
1070
     1
1040
826.781317521495
1040
544.24945547943855
1040
826.781317521495
1040
548.4494554794386
1071
        4
1005
2D02
1005
2D0B
1005
2D03
1005
2D08
1070
     0
1070
     1
1040
0.7853981633974483
1040
0.3999999999999987
1070
     0
1070
     1
1040
1.5707963267948959
1040
714.97654019289621
1040
-22.589988076675979
1040
-1.2699999999999949
1040
0.0000000000000002
1070
     0
1071
        1
1040
714.97654019289621
1040
-22.589988076675979
1040
0.0
1002
}
  0
LINE
  5
2D05
  8
0
 10
825.78131752149568
 20
543.24945547943821
 30
0.0
 11
836.78131752149534
 21
543.24945547943844
 31
0.0
  0
LINE
  5
2D06
  8
0
 10
827.58131752149541
 20
549.24945547943844
 30
0.0
 11
826.781317521495
 21
548.44945547943848
 31
0.0
  0
LINE
  5
2D07
  8
0
 10
826.781317521495
 20
544.24945547943855
 30
0.0
 11
826.781317521495
 21
543.24945547943855
 31
0.0
  0
LINE
  5
2D08
  8
0
 10
826.781317521495
 20
548.44945547943848
 30
0.0
 11
826.781317521495
 21
544.24945547943855
 31
0.0
1001
ACAD
1000
ASC_BOUNDS
1002
{
1070
    19
1005
2D04
1002
}
  0
LINE
  5
2D09
  8
0
 10
833.98131752149527
 20
549.24945547943844
 30
0.0
 11
834.78131752149545
 21
548.44945547943848
 31
0.0
  0
LINE
  5
2D0A
  8
0
 10
834.78131752149545
 20
544.24945547943844
 30
0.0
 11
834.78131752149545
 21
543.24945547943855
 31
0.0
  0
LINE
  5
2D0B
  8
0
 10
834.78131752149545
 20
548.44945547943848
 30
0.0
 11
834.78131752149545
 21
544.24945547943844
 31
0.0
1001
ACAD
1000
ASC_BOUNDS
1002
{
1070
    19
1005
2D04
1002
}
  0
LINE
  5
2D0C
  8
0
 10
836.78131752149534
 20
550.24945547943821
 30
0.0
 11
836.78131752149534
 21
543.24945547943844
 31
0.0
  0
LINE
  5
2D0D
  8
0
 10
838.78131752149534
 20
562.24945547943844
 30
0.0
 11
837.03131752149534
 21
562.24945547943844
 31
0.0
  0
LINE
  5
2D0E
  8
0
 10
878.78131752149534
 20
550.24945547943821
 30
0.0
 11
878.78131752149534
 21
538.24945547943844
 31
0.0
  0
LINE
  5
2D0F
  8
0
 10
897.78131752149534
 20
489.74945547943901
 30
0.0
 11
897.78131752149534
 21
522.74945547943844
 31
0.0
  0
LINE
  5
2D11
  8
0
 10
897.78131752149534
 20
489.74945547943901
 30
0.0
 11
897.78131752149534
 21
522.74945547943844
 31
0.0
  0
LINE
  5
2D12
  8
0
 10
887.78131752149488
 20
490.18152813001842
 30
0.0
 11
887.78131752149488
 21
538.24945547943844
 31
0.0
  0
LINE
  5
2D14
  8
0
 10
890.78131752149523
 20
465.74945547943958
 30
0.0
 11
890.781317521495
 21
488.74945547943912
 31
0.0
  0
LINE
  5
2D15
  8
0
 10
890.78131752149523
 20
465.74945547943958
 30
0.0
 11
890.781317521495
 21
488.74945547943912
 31
0.0
  0
LINE
  5
2D16
  8
0
 10
889.78131752149523
 20
464.7494554794394
 30
0.0
 11
890.78131752149523
 21
465.74945547943958
 31
0.0
  0
LINE
  5
2D17
  8
0
 10
889.78131752149523
 20
464.7494554794394
 30
0.0
 11
890.78131752149523
 21
465.74945547943958
 31
0.0
  0
LINE
  5
2D18
  8
0
 10
890.781317521495
 20
488.74945547943912
 30
0.0
 11
896.78131752149534
 21
488.74945547943912
 31
0.0
  0
LINE
  5
2D19
  8
0
 10
886.71881752149545
 20
488.74945547943912
 30
0.0
 11
896.78131752149534
 21
488.74945547943912
 31
0.0
  0
ARC
  5
2D1A
  8
0
 10
886.78131752149511
 20
490.18152813001842
 30
0.0
 40
0.9999999999999966
 50
313.26429541107211
 51
0.0
  0
LINE
  5
2D1B
  8
0
 10
896.78131752149534
 20
488.74945547943912
 30
0.0
 11
897.78131752149534
 21
489.74945547943901
 31
0.0
  0
ARC
  5
2D1C
  8
0
 10
896.78131752149534
 20
489.74945547943901
 30
0.0
 40
0.9999999999999966
 50
270.0
 51
0.0
  0
LINE
  5
2D21
  8
0
 10
895.78131752149511
 20
538.24945547943844
 30
0.0
 11
895.78131752149511
 21
550.24945547943844
 31
0.0
  0
LINE
  5
2D22
  8
0
 10
895.78131752149511
 20
550.24945547943844
 30
0.0
 11
895.78131752149511
 21
538.24945547943844
 31
0.0
  0
LINE
  5
2D23
  8
0
 10
905.53131752149511
 20
538.24945547943844
 30
0.0
 11
895.78131752149511
 21
538.24945547943844
 31
0.0
  0
LINE
  5
2D24
  8
0
 10
897.78131752149534
 20
522.74945547943844
 30
0.0
 11
904.53131752149523
 21
522.74945547943844
 31
0.0
  0
LINE
  5
2D25
  8
0
 10
904.53131752149523
 20
522.74945547943844
 30
0.0
 11
887.78131752149488
 21
522.74945547943844
 31
0.0
  0
LINE
  5
2D26
  8
0
 10
904.53131752149523
 20
522.74945547943844
 30
0.0
 11
905.53131752149511
 21
523.74945547943844
 31
0.0
  0
ARC
  5
2D27
  8
0
 10
904.53131752149523
 20
523.74945547943844
 30
0.0
 40
0.9999999999999966
 50
270.0
 51
0.0
  0
LINE
  5
2D28
  8
0
 10
905.53131752149511
 20
538.24945547943844
 30
0.0
 11
905.53131752149511
 21
538.24945547943844
 31
0.0
  0
LINE
  5
2D29
  8
0
 10
905.53131752149511
 20
523.74945547943844
 30
0.0
 11
905.53131752149511
 21
538.24945547943844
 31
0.0
  0
LINE
  5
2D2A
  8
0
 10
905.53131752149511
 20
523.74945547943844
 30
0.0
 11
905.53131752149511
 21
538.24945547943844
 31
0.0
  0
LINE
  5
2D2B
  8
0
 10
884.781317521495
 20
550.24945547943844
 30
0.0
 11
884.531317521495
 21
562.24945547943844
 31
0.0
  0
LINE
  5
2D2C
  8
0
 10
884.531317521495
 20
562.24945547943844
 30
0.0
 11
884.531317521495
 21
550.24945547943844
 31
0.0
  0
LINE
  5
2D2D
  8
0
 10
895.78131752149511
 20
550.24945547943844
 30
0.0
 11
884.781317521495
 21
550.24945547943844
 31
0.0
  0
LINE
  5
2D2E
  8
0
 10
893.98131752149493
 20
549.24945547943844
 30
0.0
 11
887.58131752149518
 21
549.24945547943844
 31
0.0
  0
LINE
  5
2D2F
  8
0
 10
886.78131752149511
 20
548.44945547943848
 30
0.0
 11
894.78131752149534
 21
548.44945547943848
 31
0.0
1001
ACAD
1000
ASC_BOUNDS
1002
{
1070
    19
1005
2D31
1002
}
  0
LINE
  5
2D30
  8
0
 10
894.78131752149534
 20
544.24945547943844
 30
0.0
 11
886.78131752149511
 21
544.24945547943855
 31
0.0
1001
ACAD
1000
ASC_BOUNDS
1002
{
1070
    19
1005
2D31
1002
}
  0
INSERT
  5
2D31
  8
0
  6
CONTINUOUS
  2
*X49
 10
0.0
 20
0.0
 30
0.0
1001
ACAD
1000
HATCH
1002
{
1070
    19
1000
ANSI31
1040
0.3999999999999987
1040
0.7853981633974483
1000
ASC_BOUNDS
1070
     1
1070
     2
1070
     4
1005
2D35
1005
2D30
1005
2D39
1005
2D2F
1000
ASC_SEEDPOINT
1011
774.97654019289575
1021
1.1260386407707860E+185
1031
-0.0
1021
-22.589988076675979
1031
0.0
1000
R14_HATCH_DATA
1000
2D31
1011
1.0
1021
1.1260386407707860E+185
1031
-0.0
1021
0.0
1031
0.0
1011
0.0
1021
1.1260386407707860E+185
1031
-0.0
1021
1.0
1031
0.0
1011
0.0
1021
1.1260386407707860E+185
1031
-0.0
1021
0.0
1031
1.0
1040
0.0
1010
0.0
1020
0.0
1030
1.0
1000
ANSI31
1070
     0
1070
     1
1071
        1
1071
        1
1071
        4
1070
     1
1040
886.78131752149511
1040
548.44945547943848
1040
894.78131752149534
1040
548.44945547943848
1070
     1
1040
894.78131752149534
1040
548.44945547943848
1040
894.78131752149534
1040
544.24945547943844
1070
     1
1040
894.78131752149534
1040
544.24945547943844
1040
886.78131752149511
1040
544.24945547943855
1070
     1
1040
886.78131752149511
1040
544.24945547943855
1040
886.78131752149511
1040
548.4494554794386
1071
        4
1005
2D2F
1005
2D39
1005
2D30
1005
2D35
1070
     0
1070
     1
1040
0.7853981633974483
1040
0.3999999999999987
1070
     0
1070
     1
1040
1.5707963267948959
1040
774.97654019289575
1040
-22.589988076675979
1040
-1.2699999999999949
1040
0.0000000000000002
1070
     0
1071
        1
1040
774.97654019289575
1040
-22.589988076675979
1040
0.0
1002
}
  0
LINE
  5
2D32
  8
0
 10
884.781317521495
 20
543.24945547943855
 30
0.0
 11
895.78131752149511
 21
543.24945547943844
 31
0.0
  0
LINE
  5
2D33
  8
0
 10
887.58131752149518
 20
549.24945547943844
 30
0.0
 11
886.78131752149511
 21
548.44945547943848
 31
0.0
  0
LINE
  5
2D34
  8
0
 10
886.78131752149511
 20
544.24945547943855
 30
0.0
 11
886.78131752149511
 21
543.24945547943855
 31
0.0
  0
LINE
  5
2D35
  8
0
 10
886.78131752149511
 20
548.44945547943848
 30
0.0
 11
886.78131752149511
 21
544.24945547943855
 31
0.0
1001
ACAD
1000
ASC_BOUNDS
1002
{
1070
    19
1005
2D31
1002
}
  0
LINE
  5
2D36
  8
0
 10
884.781317521495
 20
550.24945547943844
 30
0.0
 11
884.781317521495
 21
543.24945547943844
 31
0.0
  0
LINE
  5
2D37
  8
0
 10
893.98131752149493
 20
549.24945547943844
 30
0.0
 11
894.78131752149534
 21
548.44945547943848
 31
0.0
  0
LINE
  5
2D38
  8
0
 10
894.78131752149534
 20
544.24945547943844
 30
0.0
 11
894.78131752149534
 21
543.24945547943855
 31
0.0
  0
LINE
  5
2D39
  8
0
 10
894.78131752149534
 20
548.44945547943848
 30
0.0
 11
894.78131752149534
 21
544.24945547943844
 31
0.0
1001
ACAD
1000
ASC_BOUNDS
1002
{
1070
    19
1005
2D31
1002
}
  0
POLYLINE
  5
2D3A
  8
DIM
 66
     1
 10
0.0
 20
0.0
 30
0.0
  0
VERTEX
  5
2F93
  8
DIM
 10
825.21162472152207
 20
789.44136488496395
 30
0.0
  0
VERTEX
  5
2F94
  8
DIM
 10
823.11066534652196
 20
791.45411175996401
 30
0.0
  0
SEQEND
  5
2F95
  8
DIM
  0
POLYLINE
  5
2D3B
  8
DIM
 66
     1
 10
0.0
 20
0.0
 30
0.0
  0
VERTEX
  5
2F96
  8
DIM
 10
825.21162472152207
 20
793.46686175996399
 30
0.0
  0
VERTEX
  5
2F97
  8
DIM
 10
823.11066534652196
 20
791.45411175996401
 30
0.0
  0
SEQEND
  5
2F98
  8
DIM
  0
LINE
  5
2D3C
  8
DIM
 10
808.25034108213583
 20
787.2168617599641
 30
0.0
 11
825.21162472152207
 21
787.2168617599641
 31
0.0
  0
LINE
  5
2D3D
  8
DIM
  6
PHANTOM
 10
817.79231922151587
 20
765.9668617599641
 30
0.0
 11
857.16236396391309
 21
765.9668617599641
 31
0.0
  0
LINE
  5
2D3E
  8
DIM
  6
PHANTOM
 10
817.79231922151587
 20
808.46686175996388
 30
0.0
 11
857.16236396391309
 21
808.46686175996388
 31
0.0
  0
LINE
  5
2D48
  8
DIM
  6
PHANTOM
 10
817.79231922151587
 20
765.9668617599641
 30
0.0
 11
817.79231922151587
 21
808.46686175996388
 31
0.0
  0
LINE
  5
2D49
  8
0
 10
884.78130012232293
 20
619.25026454093813
 30
0.0
 11
881.20604870429088
 21
622.74945547943844
 31
0.0
  0
LINE
  5
2D4A
  8
0
 10
882.78131752149523
 20
572.74945547943889
 30
0.0
 11
885.73738202019808
 21
574.79245628974297
 31
0.0
  0
LINE
  5
2D4B
  8
0
 10
881.20604870429088
 20
622.74945547943844
 30
0.0
 11
884.78130012232293
 21
619.25026454093813
 31
0.0
  0
LINE
  5
2D4C
  8
0
 10
884.781317521495
 20
619.24945547943855
 30
0.0
 11
883.51345336483394
 21
619.24945547943855
 31
0.0
  0
LINE
  5
2D4D
  8
0
 10
884.30915228956508
 20
582.24945547943878
 30
0.0
 11
880.75976231986238
 21
582.24945547943867
 31
0.0
  0
LINE
  5
2D4E
  8
0
 10
883.51343596566176
 20
619.25026454093813
 30
0.0
 11
884.30915228956508
 21
582.24945547943878
 31
0.0
  0
LINE
  5
2D4F
  8
0
 10
883.73784434105528
 20
572.74945547943889
 30
0.0
 11
837.82479070193529
 21
572.74945547943764
 31
0.0
  0
LINE
  5
2D50
  8
0
 10
885.72755408063517
 20
575.24945547943855
 30
0.0
 11
835.83508096235573
 21
575.24945547943764
 31
0.0
  0
LINE
  5
2D51
  8
0
 10
881.20604870429088
 20
622.74945547943844
 30
0.0
 11
840.35658633869969
 21
622.74945547943764
 31
0.0
  0
LINE
  5
2D52
  8
0
 10
881.20604870429088
 20
622.74945547943844
 30
0.0
 11
840.35658633869969
 21
622.74945547943764
 31
0.0
  0
LINE
  5
2D53
  8
0
 10
857.28131752149534
 20
582.2494554794381
 30
0.0
 11
845.75262019143418
 21
582.24945547943776
 31
0.0
  0
LINE
  5
2D54
  8
0
 10
857.28131752149534
 20
620.49113892052401
 30
0.0
 11
847.18214384996986
 21
620.49113892052401
 31
0.0
  0
LINE
  5
2D55
  8
0
 10
836.78131752149511
 20
619.24945547943764
 30
0.0
 11
835.83508096235573
 21
575.24945547943764
 31
0.0
  0
LINE
  5
2D56
  8
0
 10
838.04919907732915
 20
619.25026454093688
 30
0.0
 11
837.25348275342571
 21
582.24945547943764
 31
0.0
  0
LINE
  5
2D57
  8
0
 10
840.80287272312808
 20
619.24945547943764
 30
0.0
 11
840.80287272312808
 21
582.24945547943776
 31
0.0
  0
LINE
  5
2D58
  8
0
 10
845.75262019143418
 20
619.24945547943764
 30
0.0
 11
845.75262019143418
 21
582.24945547943776
 31
0.0
  0
LINE
  5
2D59
  8
0
 10
847.18214384996986
 20
620.49113892052401
 30
0.0
 11
847.18214384996986
 21
582.24945547943798
 31
0.0
  0
LINE
  5
2D5A
  8
0
 10
836.78133492066718
 20
619.25026454093688
 30
0.0
 11
835.82525302279237
 21
574.79245628974195
 31
0.0
  0
LINE
  5
2D5B
  8
0
 10
840.80287272312808
 20
582.24945547943764
 30
0.0
 11
837.25348275342571
 21
582.24945547943764
 31
0.0
  0
LINE
  5
2D5C
  8
0
 10
837.82479070193529
 20
572.74945547943764
 30
0.0
 11
838.78131752149534
 21
572.74945547943764
 31
0.0
  0
LINE
  5
2D5D
  8
0
 10
835.83508096235573
 20
575.24945547943764
 30
0.0
 11
837.82479070193529
 21
572.74945547943764
 31
0.0
  0
ARC
  5
2D5E
  8
0
 10
837.82479070193529
 20
574.74945547943776
 30
0.0
 40
1.9999999999999929
 50
178.76802259735911
 51
270.00000000000171
  0
LINE
  5
2D5F
  8
0
 10
840.35658633869969
 20
622.74945547943764
 30
0.0
 11
836.78131752149511
 21
619.24945547943764
 31
0.0
  0
LINE
  5
2D60
  8
0
 10
842.23239638166456
 20
620.49113892052401
 30
0.0
 11
839.31704583481906
 21
620.49113892052401
 31
0.0
  0
LINE
  5
2D61
  8
0
 10
836.78133492066718
 20
619.25026454093688
 30
0.0
 11
840.35658633869969
 21
622.74945547943764
 31
0.0
  0
LINE
  5
2D62
  8
0
 10
838.04918167815674
 20
619.24945547943764
 30
0.0
 11
836.78131752149534
 21
619.24945547943764
 31
0.0
  0
LINE
  5
2D63
  8
0
 10
838.04919907732915
 20
619.25026454093688
 30
0.0
 11
839.31704583481906
 21
620.49113892052401
 31
0.0
  0
LINE
  5
2D64
  8
0
 10
845.75262019143418
 20
619.24945547943776
 30
0.0
 11
847.18214384996986
 21
620.49113892052367
 31
0.0
  0
LINE
  5
2D65
  8
0
 10
840.80287272312808
 20
619.24945547943764
 30
0.0
 11
842.23239638166388
 21
620.49113892052367
 31
0.0
  0
LINE
  5
2D66
  8
0
 10
845.75262019143418
 20
619.24945547943764
 30
0.0
 11
840.80287272312808
 21
619.24945547943764
 31
0.0
  0
LINE
  5
2D67
  8
0
 10
880.75976231986238
 20
619.24945547943844
 30
0.0
 11
880.75976231986238
 21
582.24945547943867
 31
0.0
  0
LINE
  5
2D68
  8
0
 10
864.28131752149534
 20
620.49113892052367
 30
0.0
 11
864.28131752149523
 21
582.24945547943832
 31
0.0
  0
LINE
  5
2D69
  8
0
 10
874.38049119302082
 20
620.49113892052367
 30
0.0
 11
874.38049119302082
 21
582.24945547943867
 31
0.0
  0
LINE
  5
2D6A
  8
0
 10
875.81001485155662
 20
619.24945547943844
 30
0.0
 11
875.81001485155662
 21
582.24945547943867
 31
0.0
  0
LINE
  5
2D6B
  8
0
 10
857.28131752149534
 20
620.49113892052367
 30
0.0
 11
857.28131752149534
 21
582.24945547943798
 31
0.0
  0
LINE
  5
2D6C
  8
0
 10
875.81001485155662
 20
582.24945547943855
 30
0.0
 11
864.28131752149534
 21
582.24945547943832
 31
0.0
  0
LINE
  5
2D6D
  8
0
 10
872.58049119302075
 20
583.74945547943855
 30
0.0
 11
865.28131752149545
 21
583.74945547943844
 31
0.0
  0
LINE
  5
2D6E
  8
0
 10
865.28131752149511
 20
594.24945547943844
 30
0.0
 11
865.28131752149511
 21
583.74945547943821
 31
0.0
  0
LINE
  5
2D6F
  8
0
 10
865.28131752149511
 20
594.24945547943844
 30
0.0
 11
864.28131752149523
 21
594.2494554794381
 31
0.0
  0
LINE
  5
2D70
  8
0
 10
872.58049119302075
 20
594.24945547943844
 30
0.0
 11
872.58049119302075
 21
583.74945547943855
 31
0.0
  0
LINE
  5
2D71
  8
0
 10
873.58049119302086
 20
594.24945547943844
 30
0.0
 11
873.58049119302086
 21
582.24945547943867
 31
0.0
  0
LINE
  5
2D72
  8
0
 10
873.58049119302086
 20
594.24945547943844
 30
0.0
 11
872.58049119302075
 21
594.24945547943844
 31
0.0
  0
LINE
  5
2D73
  8
0
 10
874.38049119302082
 20
620.49113892052367
 30
0.0
 11
864.28131752149534
 21
620.49113892052401
 31
0.0
  0
LINE
  5
2D74
  8
0
 10
864.28131752149523
 20
619.2494554794381
 30
0.0
 11
857.28131752149534
 21
619.24945547943798
 31
0.0
  0
LINE
  5
2D75
  8
0
 10
880.75976231986238
 20
619.24945547943844
 30
0.0
 11
875.81001485155662
 21
619.24945547943832
 31
0.0
  0
LINE
  5
2D76
  8
0
 10
874.38049119302082
 20
620.49113892052367
 30
0.0
 11
875.81001485155662
 21
619.24945547943832
 31
0.0
  0
POINT
  5
2D77
  8
DEFPOINTS
  6
BYBLOCK
 62
     0
 10
881.20604870429088
 20
622.74945547943844
 30
0.0
  0
LINE
  5
2D78
  8
0
 10
882.2447799596066
 20
620.49113892052401
 30
0.0
 11
883.51345336483394
 21
619.24945547943855
 31
0.0
  0
LINE
  5
2D79
  8
0
 10
879.33023866132658
 20
620.49113892052401
 30
0.0
 11
880.75976231986283
 21
619.24945547943844
 31
0.0
  0
LINE
  5
2D7A
  8
0
 10
882.2447799596066
 20
620.49113892052367
 30
0.0
 11
879.33023866132726
 21
620.49113892052367
 31
0.0
  0
LINE
  5
2D7C
  8
0
 10
885.73738202019808
 20
574.79245628974297
 30
0.0
 11
884.78130012232293
 21
619.25026454093813
 31
0.0
  0
LINE
  5
2D7D
  8
0
 10
884.78130012232293
 20
619.25026454093813
 30
0.0
 11
885.73738202019808
 21
574.79245628974297
 31
0.0
  0
ARC
  5
2D7E
  8
0
 10
883.73784434105528
 20
574.74945547943867
 30
0.0
 40
1.9999999999999929
 50
270.00000000000171
 51
1.231977402640839
  0
LINE
  5
2D80
  8
DIM
 10
840.06205597152177
 20
787.2168617599641
 30
0.0
 11
866.86534773894721
 21
787.2168617599641
 31
0.0
  0
LINE
  5
2D81
  8
DIM
 10
849.35696534652197
 20
787.2168617599641
 30
0.0
 11
849.35696534652197
 21
792.92163050996396
 31
0.0
  0
LINE
  5
2D82
  8
DIM
 10
840.06205597152177
 20
793.4668617599641
 30
0.0
 11
840.06205597152177
 21
780.9668617599641
 31
0.0
  0
LINE
  5
2D83
  8
DIM
 10
825.21162472152207
 20
793.4668617599641
 30
0.0
 11
825.21162472152207
 21
780.9668617599641
 31
0.0
  0
SOLID
  5
2D84
  8
DIM
 10
836.31205597152223
 20
786.5918617599641
 30
0.0
 11
836.31205597152223
 21
787.84186175996388
 31
0.0
 12
840.06205597152177
 22
787.2168617599641
 32
0.0
 13
840.06205597152177
 23
787.2168617599641
 33
0.0
  0
LINE
  5
2D85
  8
DIM
 10
825.21162472152207
 20
787.2168617599641
 30
0.0
 11
840.06205597152177
 21
787.2168617599641
 31
0.0
  0
LINE
  5
2D86
  8
DIM
 10
825.21162472152207
 20
780.9668617599641
 30
0.0
 11
840.06205597152177
 21
780.9668617599641
 31
0.0
  0
POLYLINE
  5
2D87
  8
DIM
  6
HIDDEN
 66
     1
 10
0.0
 20
0.0
 30
0.0
  0
VERTEX
  5
2F99
  8
DIM
  6
HIDDEN
 10
834.39967472152205
 20
780.9668617599641
 30
0.0
  0
VERTEX
  5
2F9A
  8
DIM
  6
HIDDEN
 10
834.39967472152205
 20
774.34740863496415
 30
0.0
  0
VERTEX
  5
2F9B
  8
DIM
  6
HIDDEN
 10
847.64755909652183
 20
774.34740863496415
 30
0.0
  0
VERTEX
  5
2F9C
  8
DIM
  6
HIDDEN
 10
847.64755909652183
 20
782.67378363496425
 30
0.0
  0
VERTEX
  5
2F9D
  8
DIM
  6
HIDDEN
 10
840.06205597152177
 20
787.21686175996399
 30
0.0
  0
SEQEND
  5
2F9E
  8
DIM
  6
HIDDEN
  0
SOLID
  5
2D88
  8
DIM
 10
828.96162472152184
 20
786.5918617599641
 30
0.0
 11
828.96162472152184
 21
787.84186175996388
 31
0.0
 12
825.21162472152207
 22
787.2168617599641
 32
0.0
 13
825.21162472152207
 23
787.2168617599641
 33
0.0
  0
LINE
  5
2D89
  8
DIM
 10
825.21162472152207
 20
793.4668617599641
 30
0.0
 11
840.06205597152177
 21
793.4668617599641
 31
0.0
  0
LINE
  5
2D8A
  8
DIM
 10
825.21162472152207
 20
797.50031800996408
 30
0.0
 11
832.04924347152212
 21
799.51704613496395
 31
0.0
  0
LINE
  5
2D8B
  8
DIM
 10
825.21162472152207
 20
797.50031800996408
 30
0.0
 11
832.04924347152212
 21
795.48358988496398
 31
0.0
  0
LINE
  5
2D8C
  8
DIM
 10
825.21162472152207
 20
793.4668617599641
 30
0.0
 11
832.04924347152212
 21
795.48358988496398
 31
0.0
  0
LINE
  5
2D8D
  8
DIM
 10
825.21162472152207
 20
801.53377738496386
 30
0.0
 11
832.04924347152212
 21
799.51704613496395
 31
0.0
  0
CIRCLE
  5
2D8E
  8
DIM
 10
849.35696534652197
 20
797.61855863496396
 30
0.0
 40
4.6969312499999827
  0
LINE
  5
2D8F
  8
DIM
 10
849.51756534652168
 20
797.36927113496404
 30
0.0
 11
851.7356497215219
 21
795.15118675996405
 31
0.0
  0
SOLID
  5
2D90
  8
DIM
 10
849.07562472152199
 20
796.92733050996401
 30
0.0
 11
849.95950597152182
 21
797.81121175996395
 31
0.0
 12
846.86591534652189
 22
800.02092113496394
 32
0.0
 13
846.86591534652189
 23
800.02092113496394
 33
0.0
  0
LINE
  5
2D91
  8
DIM
  6
PHANTOM
 10
857.16236396391309
 20
765.9668617599641
 30
0.0
 11
857.16236396391309
 21
808.46686175996388
 31
0.0
  0
DIMENSION
  5
2D92
  8
DIM
  2
*D0
 10
599.90958299670126
 20
866.74353034854994
 30
0.0
 11
644.65958299670126
 21
866.74353034854994
 31
0.0
 70
   128
 13
689.40958299670137
 23
805.45268900667179
 33
0.0
 14
599.90958299670126
 24
805.4526890066719
 34
0.0
1001
ACAD
1000
DSTYLE
1002
{
1070
   287
1070
     3
1070
    42
1040
1.0
1070
    44
1040
1.0
1070
   279
1070
     0
1002
}
  0
DIMENSION
  5
2DA8
  8
DIM
  2
*D1
 10
716.32387710873115
 20
733.70268900667168
 30
0.0
 11
711.32387710873115
 21
778.4526890066719
 31
0.0
 70
     0
 13
676.11924235823403
 23
823.20268900667179
 33
0.0
 14
676.11924235823403
 24
733.70268900667168
 34
0.0
 50
90.0
1001
ACAD
1000
DSTYLE
1002
{
1070
   287
1070
     3
1070
    42
1040
1.0
1070
    44
1040
1.0
1070
   279
1070
     0
1002
}
  0
DIMENSION
  5
2DB5
  8
DIM
  2
*D2
 10
732.32387710873127
 20
703.45268900667236
 30
0.0
 11
727.32387710873115
 21
763.32768900667224
 31
0.0
 70
     0
 13
676.11924235823403
 23
823.20268900667179
 33
0.0
 14
671.15958299670137
 24
703.45268900667236
 34
0.0
 50
90.0
1001
ACAD
1000
DSTYLE
1002
{
1070
   287
1070
     3
1070
    42
1040
1.0
1070
    44
1040
1.0
1070
   279
1070
     0
1002
}
  0
DIMENSION
  5
2DD4
  8
DIM
  2
*D3
 10
716.32387710873115
 20
501.74945547943878
 30
0.0
 11
711.32387710873115
 21
480.24945547943912
 31
0.0
 70
     0
 13
657.15958299670126
 23
458.74945547943901
 33
0.0
 14
654.65958299670115
 24
501.74945547943878
 34
0.0
 50
90.0
1001
ACAD
1000
DSTYLE
1002
{
1070
   287
1070
     3
1070
    42
1040
1.0
1070
    44
1040
1.0
1070
   279
1070
     0
1002
}
  0
DIMENSION
  5
2DE1
  8
DIM
  2
*D4
 10
731.1015182403687
 20
622.74945547943844
 30
0.0
 11
731.1015182403687
 21
538.20901340669434
 31
0.0
 70
   128
 13
657.15958299670126
 23
458.74945547943901
 33
0.0
 14
665.08431417949691
 24
622.74945547943844
 34
0.0
 50
90.0
1001
ACAD
1000
DSTYLE
1002
{
1070
   287
1070
     3
1070
    42
1040
1.0
1070
    44
1040
1.0
1070
   279
1070
     0
1002
}
  0
DIMENSION
  5
2DEE
  8
DIM
  2
*D5
 10
938.16172905489225
 20
505.74945547943838
 30
0.0
 11
933.16172905489213
 21
482.24945547943889
 31
0.0
 70
     0
 13
875.36977478961433
 23
458.74945547943918
 33
0.0
 14
882.47058570521438
 24
505.7494554794385
 34
0.0
 50
90.0
1001
ACAD
1000
DSTYLE
1002
{
1070
   287
1070
     3
1070
    42
1040
1.0
1070
    44
1040
1.0
1070
   279
1070
     0
1002
}
  0
DIMENSION
  5
2DFB
  8
DIM
  2
*D6
 10
938.16172905489225
 20
622.74945547943844
 30
0.0
 11
933.16172905489213
 21
564.24945547943855
 31
0.0
 70
     0
 13
882.47058570521438
 23
505.7494554794385
 33
0.0
 14
881.20604870429088
 24
622.74945547943844
 34
0.0
 50
90.0
1001
ACAD
1000
DSTYLE
1002
{
1070
   287
1070
     3
1070
    42
1040
1.0
1070
    44
1040
1.0
1070
   279
1070
     0
1002
}
  0
INSERT
  5
30BD
  8
0
  2
A$C6E4D5685
 10
678.15958299670126
 20
575.24945547943844
 30
0.0
  0
DIMENSION
  5
30BE
  8
DIM
  2
*D20
 10
689.56092483689645
 20
570.99945547943844
 30
0.0
 11
689.56092483689645
 21
591.28516976515289
 31
0.0
 70
   128
 13
671.15958299670137
 23
564.49945547943844
 33
0.0
 14
671.15958299670137
 24
570.99945547943844
 34
0.0
 50
90.0
1001
ACAD
1000
DSTYLE
1002
{
1070
   287
1070
     3
1070
    42
1040
1.0
1070
    44
1040
1.0
1070
   279
1070
     0
1002
}
  0
INSERT
  5
3181
  8
0
  2
A$C5278498E
 10
644.65958299670126
 20
778.45268900667168
 30
0.0
  0
DIMENSION
  5
3215
  8
DIM
  2
*D31
 10
912.28131752149545
 20
650.68091566280191
 30
0.0
 11
886.53131752149545
 21
655.68091566280191
 31
0.0
 70
     0
 13
860.78131752149534
 23
628.50036350330265
 33
0.0
 14
912.28131752149545
 24
575.24945547943832
 34
0.0
1001
ACAD
1000
DSTYLE
1002
{
1070
   287
1070
     3
1070
    42
1040
1.0
1070
    44
1040
1.0
1070
   279
1070
     0
1002
}
  0
INSERT
  5
3218
  8
0
  2
A$C0EB06734
 10
912.28131752149545
 20
575.24945547943832
 30
0.0
  0
DIMENSION
  5
3266
  8
DIM
  2
*D32
 10
922.16172905489213
 20
567.74945547943832
 30
0.0
 11
917.16172905489213
 21
536.74945547943867
 31
0.0
 70
     0
 13
882.47058570521438
 23
505.7494554794385
 33
0.0
 14
913.94643410774916
 24
567.74945547943832
 34
0.0
 50
90.0
1001
ACAD
1000
DSTYLE
1002
{
1070
   287
1070
     3
1070
    42
1040
1.0
1070
    44
1040
1.0
1070
   279
1070
     0
1002
}
  0
POLYLINE
  5
33F0
  8
LOGO
 62
     4
 66
     1
 10
0.0
 20
0.0
 30
0.0
 70
     1
1001
GENIUS_GENREC_14
1002
{
1000
PYDIR
1011
533.95155440406188
1021
1.1260386407707860E+185
1031
-0.0
1021
903.55134858185284
1031
0.0
1002
}
1002
{
1000
PXDIR
1011
981.62955440406165
1021
1.1260386407707860E+185
1031
-0.0
1021
332.75541636646938
1031
0.0
1002
}
1002
{
1000
PORI
1011
533.95155440406188
1021
1.1260386407707860E+185
1031
-0.0
1021
332.75541636646938
1031
0.0
1002
}
1002
{
1000
PINS
1011
533.95155440406188
1021
1.1260386407707860E+185
1031
-0.0
1021
332.75541636646938
1031
0.0
1002
}
1002
{
1000
PINS2
1011
981.62955440406165
1021
1.1260386407707860E+185
1031
-0.0
1021
903.55134858185284
1031
0.0
1002
}
1002
{
1000
C
1070
     1
1002
}
1001
GENIUS_GENODEF_13
1002
{
1000
HIER
1070
     0
1002
}
1002
{
1000
MANEDIT
1070
     0
1002
}
1002
{
1000
NOSEL
1070
     0
1002
}
1002
{
1000
BEHIND
1070
     0
1002
}
1002
{
1000
OTHER
1070
     0
1002
}
1002
{
1000
REACTOR
1002
}
1001
GENIUS_GENOBJ-N-REC_13
1002
{
1000
OWNER
1000
GEN
1002
}
  0
VERTEX
  5
3721
  8
LOGO
 62
     4
 10
533.95155440406188
 20
332.75541636646938
 30
0.0
  0
VERTEX
  5
3722
  8
LOGO
 62
     4
 10
981.62955440406165
 20
332.75541636646938
 30
0.0
  0
VERTEX
  5
3723
  8
LOGO
 62
     4
 10
981.62955440406165
 20
903.55134858185284
 30
0.0
  0
VERTEX
  5
3724
  8
LOGO
 62
     4
 10
533.95155440406188
 20
903.55134858185284
 30
0.0
  0
SEQEND
  5
3725
  8
LOGO
 62
     4
  0
POLYLINE
  5
33F1
  8
LOGO
 62
     4
 66
     1
 10
0.0
 20
0.0
 30
0.0
 70
     1
1001
GENIUS_GENREC_14
1002
{
1000
PYDIR
1011
533.95155440406188
1021
1.1260386407707860E+185
1031
-0.0
1021
287.99409858185322
1031
0.0
1002
}
1002
{
1000
PXDIR
1011
981.62955440406165
1021
1.1260386407707860E+185
1031
-0.0
1021
332.75541636646938
1031
0.0
1002
}
1002
{
1000
PORI
1011
533.95155440406188
1021
1.1260386407707860E+185
1031
-0.0
1021
332.75541636646938
1031
0.0
1002
}
1002
{
1000
PINS
1011
533.95155440406188
1021
1.1260386407707860E+185
1031
-0.0
1021
332.75541636646938
1031
0.0
1002
}
1002
{
1000
PINS2
1011
981.62955440406165
1021
1.1260386407707860E+185
1031
-0.0
1021
287.99409858185322
1031
0.0
1002
}
1002
{
1000
C
1070
     1
1002
}
1001
GENIUS_GENOBJ-N-REC_13
1002
{
1000
OWNER
1000
GEN
1002
}
1001
GENIUS_GENODEF_13
1002
{
1000
HIER
1070
     0
1002
}
1002
{
1000
MANEDIT
1070
     0
1002
}
1002
{
1000
NOSEL
1070
     0
1002
}
1002
{
1000
BEHIND
1070
     0
1002
}
1002
{
1000
OTHER
1070
     0
1002
}
1002
{
1000
REACTOR
1002
}
  0
VERTEX
  5
3726
  8
LOGO
 62
     4
 10
533.95155440406188
 20
332.75541636646938
 30
0.0
  0
VERTEX
  5
3727
  8
LOGO
 62
     4
 10
981.62955440406165
 20
332.75541636646938
 30
0.0
  0
VERTEX
  5
3728
  8
LOGO
 62
     4
 10
981.62955440406165
 20
287.99409858185322
 30
0.0
  0
VERTEX
  5
3729
  8
LOGO
 62
     4
 10
533.95155440406188
 20
287.99409858185322
 30
0.0
  0
SEQEND
  5
372A
  8
LOGO
 62
     4
  0
TEXT
  5
33F2
  8
LOGO
 62
     7
 10
635.0196461167593
 20
313.14624472393677
 30
0.0
 40
5.9681757046153834
  1
Order example:
 41
0.8
  7
CHINESET
  0
TEXT
  5
33F3
  8
LOGO
 62
     7
 10
636.09038619297269
 20
321.54820038948787
 30
0.0
 40
8.9522635569230733
  1
訂購代號：
  7
CHINESET
  0
LINE
  5
33F4
  8
LOGO
 62
     4
 10
632.42645353021567
 20
287.99409858185368
 30
0.0
 11
632.42645353021567
 21
332.75541636646938
 31
0.0
  0
TEXT
  5
33F5
  8
LOGO
  6
CONTINUOUS
 10
550.03002095831198
 20
296.78739190992309
 30
0.0
 40
6.7141976676923081
  1
金器工業股份有限公司
  7
CHINESET
  0
TEXT
  5
33F6
  8
LOGO
  6
CONTINUOUS
 10
537.69736818126307
 20
290.07187878590139
 30
0.0
 40
4.4761317784615358
  1
MINDMAN INDUSTRIAL CO., LTD.
 41
0.85
  7
CHINESET
  0
LINE
  5
33F7
  8
LOGO
 62
     4
 10
632.42645353021567
 20
323.80315280954619
 30
0.0
 11
566.77652077944606
 21
323.80315280954619
 31
0.0
  0
LINE
  5
33F8
  8
LOGO
 62
     4
 10
632.42645353021567
 20
314.85088925262312
 30
0.0
 11
566.77652077944606
 21
314.85088925262312
 31
0.0
  0
LINE
  5
33F9
  8
LOGO
 62
     4
 10
632.42645353021567
 20
305.8986256957005
 30
0.0
 11
533.95155440406188
 21
305.8986256957005
 31
0.0
  0
LINE
  5
33FA
  8
LOGO
 62
     4
 10
566.77652077944606
 20
305.8986256957005
 30
0.0
 11
566.77652077944606
 21
332.75541636646938
 31
0.0
  0
TEXT
  5
33FB
  8
LOGO
 10
611.64515118496934
 20
308.13669158493047
 30
0.0
 40
4.4761317784615358
  1
mm
  7
CHINESET
 72
     1
 11
617.18702862496934
 21
310.37475747416119
 31
0.0
 73
     2
  0
TEXT
  5
33FC
  8
LOGO
 10
609.30051072958474
 20
326.04121869877679
 30
0.0
 40
4.4761317784615358
  1
1 : 1
  7
CHINESET
 72
     1
 11
617.18702862496934
 21
328.2792845880075
 31
0.0
 73
     2
  0
LINE
  5
33FD
  8
LOGO
 62
     4
 10
602.58557500713869
 20
305.8986256957005
 30
0.0
 11
602.58557500713869
 21
332.75541636646938
 31
0.0
  0
CIRCLE
  5
33FE
  8
LOGO
  6
CONTINUOUS
 10
610.87369286067235
 20
319.33659550971441
 30
0.0
 40
2.5989474668403969
  0
CIRCLE
  5
33FF
  8
LOGO
  6
CONTINUOUS
 10
610.87369286067235
 20
319.33659550971441
 30
0.0
 40
1.522753143766385
  0
LINE
  5
3400
  8
LOGO
 10
627.20578031140872
 20
316.73764804287362
 30
0.0
 11
627.20578031140872
 21
321.93554297655538
 31
0.0
  0
LINE
  5
3401
  8
LOGO
 10
619.05822918956744
 20
317.8138423659484
 30
0.0
 11
619.05822918956744
 21
320.85934865348111
 31
0.0
  0
LINE
  5
3402
  8
LOGO
  6
CONTINUOUS
 10
619.05822918956744
 20
320.85934865348111
 30
0.0
 11
627.20578031140872
 21
321.93554297655538
 31
0.0
  0
LINE
  5
3403
  8
LOGO
  6
CONTINUOUS
 10
619.05822918956744
 20
317.8138423659484
 30
0.0
 11
627.20578031140872
 21
316.73764804287362
 31
0.0
  0
TEXT
  5
3404
  8
LOGO
 10
570.4673312235617
 20
326.04342151953392
 30
293.35830276403789
 40
4.4761317784615358
  1
比例 Scale:
 41
0.9
  7
CHINESET
 72
     4
 11
584.68104789329243
 21
328.2792845880075
 31
293.35830276403789
  0
TEXT
  5
3405
  8
LOGO
 10
570.2095539916769
 20
317.15191910182779
 30
293.35830276403789
 40
4.4761317784615358
  1
投影  View:
 41
0.9
  7
CHINESET
 72
     4
 11
584.68104789329243
 21
319.32702103108443
 31
293.35830276403789
  0
TEXT
  5
3406
  8
LOGO
 10
570.6471758039462
 20
308.13669158493047
 30
293.35830276403789
 40
4.4761317784615358
  1
單位  Unit:
 41
0.9
  7
CHINESET
 72
     4
 11
584.68104789329243
 21
310.37475747416119
 31
293.35830276403789
  0
SOLID
  5
3407
  8
LOGO
 62
     5
 10
538.59561296066647
 20
313.33955765020471
 30
0.0
 11
540.53097488797528
 21
313.33955765020409
 31
0.0
 12
548.60610568812604
 22
331.692127650548
 32
0.0
 13
550.54146761543575
 23
331.69212765054709
 33
0.0
  0
SOLID
  5
3408
  8
LOGO
 62
     5
 10
541.33181430617424
 20
313.33955765020471
 30
0.0
 11
543.26717623348304
 21
313.33955765020471
 31
0.0
 12
550.54146761543575
 22
330.22392205052
 32
0.0
 13
548.60610568812604
 23
323.12759498372048
 33
0.0
  0
SOLID
  5
3409
  8
LOGO
 62
     2
 10
540.53097488797528
 20
313.33955765020409
 30
0.0
 11
541.33181430617424
 21
313.33955765020471
 31
0.0
 12
550.54146761543575
 22
331.69212765054709
 32
0.0
 13
551.34230703363357
 23
331.69212765054709
 33
0.0
  0
SOLID
  5
340A
  8
LOGO
 62
     5
 10
535.49275318230946
 20
306.66589583189858
 30
0.0
 11
536.16011936414077
 21
306.66589583189858
 31
0.0
 12
538.03947447580822
 22
310.00272674105139
 32
0.0
 13
538.7068406576376
 23
310.00272674105139
 33
0.0
  0
SOLID
  5
340B
  8
LOGO
 62
     5
 10
538.03947447580822
 20
310.00272674105139
 30
0.0
 11
538.7068406576376
 21
310.00272674105139
 31
0.0
 12
538.03947447580822
 22
306.66589583189858
 32
0.0
 13
538.7068406576376
 23
306.66589583189858
 33
0.0
  0
SOLID
  5
340C
  8
LOGO
 62
     5
 10
538.03947447580822
 20
306.66589583189858
 30
0.0
 11
538.7068406576376
 21
306.66589583189858
 31
0.0
 12
540.58619576930812
 22
310.00272674105139
 32
0.0
 13
541.25356195113841
 23
310.00272674105139
 33
0.0
  0
SOLID
  5
340D
  8
LOGO
 62
     5
 10
540.58619576930812
 20
310.00272674105139
 30
0.0
 11
541.25356195113841
 21
310.00272674105139
 31
0.0
 12
540.58619576930812
 22
306.66589583189858
 32
0.0
 13
541.25356195113841
 23
306.66589583189858
 33
0.0
  0
POLYLINE
  5
340E
  8
LOGO
 62
     5
 66
     1
 10
0.0
 20
0.0
 30
0.0
 40
0.6684356789169228
 41
0.6684356789169228
  0
VERTEX
  5
340F
  8
LOGO
 62
     5
 10
562.95608284311629
 20
308.66799437739007
 30
0.0
 42
1.0
  0
VERTEX
  5
3410
  8
LOGO
 62
     5
 10
560.95077580636485
 20
308.66799437739007
 30
0.0
 42
1.0
  0
SEQEND
  5
3411
  8
LOGO
 62
     5
  0
POLYLINE
  5
3412
  8
LOGO
 62
     5
 66
     1
 10
0.0
 20
0.0
 30
0.0
 70
     1
  0
VERTEX
  5
3413
  8
LOGO
 62
     5
 10
557.1706828460317
 20
308.33431128647447
 30
0.0
 42
1.0000000573306349
  0
VERTEX
  5
3414
  8
LOGO
 62
     5
 10
559.17278139152393
 20
308.33431128647447
 30
0.0
 42
1.0000000573306349
  0
SEQEND
  5
3415
  8
LOGO
 62
     5
  0
CIRCLE
  5
3416
  8
LOGO
 62
     5
 10
558.17173211877935
 20
308.33431128647447
 30
0.0
 40
1.001049272745983
  0
POLYLINE
  5
3417
  8
LOGO
 62
     5
 66
     1
 10
0.0
 20
0.0
 30
0.0
 70
     1
 40
0.6684356789169228
 41
0.6684356789169228
  0
VERTEX
  5
3418
  8
LOGO
 62
     5
 10
556.83486076094448
 20
308.33431128647447
 30
0.0
 42
1.0
  0
VERTEX
  5
3419
  8
LOGO
 62
     5
 10
559.50860347661205
 20
308.33431128647447
 30
0.0
 42
1.0
  0
SEQEND
  5
341A
  8
LOGO
 62
     5
  0
LINE
  5
341B
  8
LOGO
 10
563.28816168840092
 20
306.66589583189858
 30
0.0
 11
563.28816168840092
 21
308.66799437739007
 31
0.0
  0
SOLID
  5
341C
  8
LOGO
 62
     5
 10
559.17271465490853
 20
310.00272674105139
 30
0.0
 11
559.84008083673791
 21
310.00272674105139
 31
0.0
 12
559.17271465490853
 22
306.66589583189858
 32
0.0
 13
559.84008083673791
 23
306.66589583189858
 33
0.0
  0
SOLID
  5
341D
  8
LOGO
 62
     5
 10
560.61869696107851
 20
306.66589583189858
 30
0.0
 11
561.28606314290982
 21
306.66589583189858
 31
0.0
 12
560.61869696107851
 22
310.00272674105139
 32
0.0
 13
561.28606314290982
 23
310.00272674105139
 33
0.0
  0
SOLID
  5
341E
  8
LOGO
 62
     5
 10
562.62079550657154
 20
308.66799437739007
 30
0.0
 11
563.28816168840092
 21
308.66799437739007
 31
0.0
 12
562.62079550657154
 22
306.66589583189858
 32
0.0
 13
563.28816168840092
 23
306.66589583189858
 33
0.0
  0
SOLID
  5
341F
  8
LOGO
 62
     5
 10
560.5519603428952
 20
330.22392205052
 30
0.0
 11
558.61659841558742
 21
323.12759498372048
 31
0.0
 12
560.5519603428952
 22
313.33955765020409
 32
0.0
 13
558.61659841558742
 23
313.33955765020409
 33
0.0
  0
SOLID
  5
3420
  8
LOGO
 62
     5
 10
561.35279976109302
 20
313.33955765020409
 30
0.0
 11
563.28816168840092
 21
313.33955765020409
 31
0.0
 12
561.35279976109302
 22
331.69212765054709
 32
0.0
 13
563.28816168840092
 23
331.692127650548
 33
0.0
  0
SOLID
  5
3421
  8
LOGO
 62
     2
 10
560.5519603428952
 20
331.692127650548
 30
0.0
 11
561.35279976109302
 21
331.69212765054709
 31
0.0
 12
560.5519603428952
 22
313.33955765020409
 32
0.0
 13
561.35279976109302
 23
313.33955765020409
 33
0.0
  0
POLYLINE
  5
3422
  8
LOGO
 62
     5
 66
     1
 10
0.0
 20
0.0
 30
0.0
 40
0.6684356789169228
 41
0.6684356789169228
  0
VERTEX
  5
3423
  8
LOGO
 62
     5
 10
553.3904564124648
 20
308.66799437739007
 30
0.0
 42
1.0
  0
VERTEX
  5
3424
  8
LOGO
 62
     5
 10
551.3851493757137
 20
308.66799437739007
 30
0.0
 42
1.0
  0
SEQEND
  5
3425
  8
LOGO
 62
     5
  0
POLYLINE
  5
3426
  8
LOGO
 62
     5
 66
     1
 10
0.0
 20
0.0
 30
0.0
 40
0.6684356789169228
 41
0.6684356789169228
  0
VERTEX
  5
3427
  8
LOGO
 62
     5
 10
555.39255495795499
 20
308.66799437739007
 30
0.0
 42
1.0
  0
VERTEX
  5
3428
  8
LOGO
 62
     5
 10
553.38724792120479
 20
308.66799437739007
 30
0.0
 42
1.0
  0
SEQEND
  5
3429
  8
LOGO
 62
     5
  0
POLYLINE
  5
342A
  8
LOGO
 62
     5
 66
     1
 10
0.0
 20
0.0
 30
0.0
 40
0.6684356789169228
 41
0.6684356789169228
  0
VERTEX
  5
342B
  8
LOGO
 62
     5
 10
545.82692852730349
 20
308.66799437739007
 30
0.0
 42
1.0
  0
VERTEX
  5
342C
  8
LOGO
 62
     5
 10
543.82162149055353
 20
308.66799437739007
 30
0.0
 42
1.0
  0
SEQEND
  5
342D
  8
LOGO
 62
     5
  0
SOLID
  5
342E
  8
LOGO
 62
     5
 10
543.48954264526765
 20
310.00272674105139
 30
0.0
 11
544.15690882709725
 21
310.00272674105139
 31
0.0
 12
543.48954264526765
 22
306.66589583189858
 32
0.0
 13
544.15690882709725
 23
306.66589583189858
 33
0.0
  0
SOLID
  5
342F
  8
LOGO
 62
     5
 10
545.49164119075976
 20
308.66799437739007
 30
0.0
 11
546.15900737259108
 21
308.66799437739007
 31
0.0
 12
545.49164119075976
 22
306.66589583189858
 32
0.0
 13
546.15900737259108
 23
306.66589583189858
 33
0.0
  0
POLYLINE
  5
3430
  8
LOGO
 62
     5
 66
     1
 10
0.0
 20
0.0
 30
0.0
 70
     1
 40
0.6684356789169228
 41
0.6684356789169228
  0
VERTEX
  5
3431
  8
LOGO
 62
     5
 10
547.26923433029219
 20
308.33431128647447
 30
0.0
 42
1.0
  0
VERTEX
  5
3432
  8
LOGO
 62
     5
 10
549.94297704596056
 20
308.33431128647447
 30
0.0
 42
1.0
  0
SEQEND
  5
3433
  8
LOGO
 62
     5
  0
SOLID
  5
3434
  8
LOGO
 62
     5
 10
549.60708822425522
 20
311.0037760137979
 30
0.0
 11
550.27445440608562
 21
311.0037760137979
 31
0.0
 12
549.60708822425522
 22
306.66589583189858
 32
0.0
 13
550.27445440608562
 23
306.66589583189858
 33
0.0
  0
SOLID
  5
3435
  8
LOGO
 62
     5
 10
551.05307053042907
 20
310.00272674105139
 30
0.0
 11
551.72043671225856
 21
310.00272674105139
 31
0.0
 12
551.05307053042907
 22
306.66589583189858
 32
0.0
 13
551.72043671225856
 23
306.66589583189858
 33
0.0
  0
SOLID
  5
3436
  8
LOGO
 62
     5
 10
553.05516907591925
 20
308.66799437739007
 30
0.0
 11
553.72253525775068
 21
308.66799437739007
 31
0.0
 12
553.05516907591925
 22
306.66589583189858
 32
0.0
 13
553.72253525775068
 23
306.66589583189858
 33
0.0
  0
SOLID
  5
3437
  8
LOGO
 62
     5
 10
555.05726762141137
 20
308.66799437739007
 30
0.0
 11
555.72463380324155
 21
308.66799437739007
 31
0.0
 12
555.05726762141137
 22
306.66589583189761
 32
0.0
 13
555.72463380324155
 23
306.66589583189761
 33
0.0
  0
SOLID
  5
3438
  8
LOGO
 62
     5
 10
542.04356033909494
 20
310.46988306833299
 30
0.0
 11
542.71092652092727
 21
310.46988306833299
 31
0.0
 12
542.04356033909494
 22
311.0037760137979
 32
0.0
 13
542.71092652092727
 23
311.0037760137979
 33
0.0
  0
SOLID
  5
3439
  8
LOGO
 62
     5
 10
542.04356033909494
 20
310.00272674105139
 30
0.0
 11
542.71092652092727
 21
310.00272674105139
 31
0.0
 12
542.04356033909494
 22
306.66589583189761
 32
0.0
 13
542.71092652092727
 23
306.66589583189858
 33
0.0
  0
SOLID
  5
343A
  8
LOGO
 62
     5
 10
548.60610568812604
 20
313.33955765020471
 30
0.0
 11
550.54146761543575
 21
313.33955765020471
 31
0.0
 12
548.60610568812604
 22
323.12759498372048
 32
0.0
 13
550.54146761543575
 23
330.22392205052
 33
0.0
  0
SOLID
  5
343B
  8
LOGO
 62
     5
 10
551.34230703363357
 20
331.69212765054709
 30
0.0
 11
553.27766896094147
 21
331.692127650548
 31
0.0
 12
551.34230703363357
 22
314.8077632502318
 32
0.0
 13
553.27766896094147
 23
321.90409031703132
 33
0.0
  0
SOLID
  5
343C
  8
LOGO
 62
     2
 10
550.54146761543575
 20
331.69212765054709
 30
0.0
 11
551.34230703363357
 21
331.69212765054709
 31
0.0
 12
550.54146761543575
 22
313.33955765020471
 32
0.0
 13
551.34230703363357
 23
313.33955765020471
 33
0.0
  0
SOLID
  5
343D
  8
LOGO
 62
     5
 10
551.34230703363357
 20
314.8077632502318
 30
0.0
 11
553.27766896094147
 21
321.90409031703132
 31
0.0
 12
560.5519603428952
 22
331.692127650548
 32
0.0
 13
558.61659841558742
 23
331.692127650548
 33
0.0
  0
SOLID
  5
343E
  8
LOGO
 62
     5
 10
551.34230703363357
 20
313.33955765020471
 30
0.0
 11
553.27766896094147
 21
313.33955765020471
 31
0.0
 12
560.5519603428952
 22
330.22392205052
 32
0.0
 13
558.61659841558742
 23
323.12759498372048
 33
0.0
  0
SOLID
  5
343F
  8
LOGO
 62
     2
 10
550.54146761543575
 20
313.33955765020471
 30
0.0
 11
551.34230703363357
 21
313.33955765020471
 31
0.0
 12
560.5519603428952
 22
331.692127650548
 32
0.0
 13
561.35279976109302
 23
331.69212765054709
 33
0.0
  0
LINE
  5
3440
  8
LOGO
 62
     4
 10
723.8345380578977
 20
308.13669158493138
 30
0.0
 11
723.8345380578977
 21
291.72420839723821
 31
0.0
  0
LINE
  5
3441
  8
LOGO
 62
     4
 10
693.99365953482027
 20
308.13669158493138
 30
0.0
 11
693.99365953482027
 21
291.72420839723821
 31
0.0
  0
LINE
  5
3442
  8
LOGO
 62
     4
 10
723.8345380578977
 20
291.72420839723821
 30
0.0
 11
693.99365953482027
 21
291.72420839723821
 31
0.0
  0
LINE
  5
3443
  8
LOGO
 62
     4
 10
752.90977381621212
 20
328.2792845880075
 30
0.0
 11
693.99365953482027
 21
328.2792845880075
 31
0.0
  0
LINE
  5
3444
  8
LOGO
 62
     4
 10
752.90977381621212
 20
314.85088925262312
 30
0.0
 11
693.99365953482027
 21
314.85088925262312
 31
0.0
  0
LINE
  5
3445
  8
LOGO
 62
     4
 10
693.99365953482027
 20
328.2792845880075
 30
0.0
 11
693.99365953482027
 21
314.85088925262312
 31
0.0
  0
LINE
  5
3446
  8
LOGO
 62
     4
 10
752.90977381621212
 20
328.2792845880075
 30
0.0
 11
752.90977381621212
 21
314.85088925262312
 31
0.0
  0
LINE
  5
3447
  8
LOGO
 62
     4
 10
710.47104314495959
 20
314.85088925262312
 30
0.0
 11
710.47104314495959
 21
308.13669158493138
 31
0.0
  0
TEXT
  5
3448
  8
LOGO
  6
CONTINUOUS
 62
     7
 10
697.07433470903391
 20
317.65404714657268
 30
0.0
 40
7.8343649999999991
  1
MAR500
  7
CHINESET
  0
LINE
  5
3449
  8
LOGO
 62
     4
 10
723.8345380578977
 20
308.13669158493138
 30
0.0
 11
693.99365953482027
 21
308.13669158493138
 31
0.0
  0
TEXT
  5
344A
  8
LOGO
  6
CONTINUOUS
 10
703.56950297809226
 20
294.04079559570192
 30
293.35830276403789
 40
3.3575849999999989
  1
Model
 41
0.8
  7
CHINESET
  0
TEXT
  5
344B
  8
LOGO
 10
702.6758229994673
 20
300.26503457448888
 30
293.35830276403789
 40
5.5959750000000001
  1
型號
  7
CHINESET
  0
LINE
  5
344C
  8
LOGO
  6
CONTINUOUS
 62
     7
 10
755.84903155340839
 20
321.51752142184949
 30
0.0
 11
761.77852095313983
 21
321.51752142184949
 31
0.0
  0
LINE
  5
344D
  8
LOGO
 62
     4
 10
773.93181511248486
 20
308.13669158493138
 30
0.0
 11
773.93181511248486
 21
291.72420839723821
 31
0.0
  0
LINE
  5
344E
  8
LOGO
 62
     4
 10
730.19547356148701
 20
308.13669158493138
 30
0.0
 11
730.19547356148701
 21
291.72420839723821
 31
0.0
  0
LINE
  5
344F
  8
LOGO
 62
     4
 10
773.93181511248486
 20
291.72420839723821
 30
0.0
 11
730.19547356148701
 21
291.72420839723821
 31
0.0
  0
LINE
  5
3450
  8
LOGO
 62
     4
 10
783.33570518285114
 20
328.2792845880075
 30
0.0
 11
764.93897233810412
 21
328.2792845880075
 31
0.0
  0
LINE
  5
3451
  8
LOGO
 62
     4
 10
783.33570518285114
 20
314.85088925262312
 30
0.0
 11
764.93897233810412
 21
314.85088925262312
 31
0.0
  0
LINE
  5
3452
  8
LOGO
 62
     4
 10
764.93897233810412
 20
328.2792845880075
 30
0.0
 11
764.93897233810412
 21
314.85088925262312
 31
0.0
  0
LINE
  5
3453
  8
LOGO
 62
     4
 10
783.33570518285114
 20
328.2792845880075
 30
0.0
 11
783.33570518285114
 21
314.85088925262312
 31
0.0
  0
LINE
  5
3454
  8
LOGO
 62
     4
 10
774.13733876047763
 20
314.85088925262312
 30
0.0
 11
774.13733876047763
 21
311.49379041877728
 31
0.0
  0
TEXT
  5
3455
  8
LOGO
  6
CONTINUOUS
 62
     7
 10
768.48254741503615
 20
317.65404714657268
 30
0.0
 40
7.8343649999999991
  1
*A
  7
CHINESET
  0
LINE
  5
3456
  8
LOGO
 62
     4
 10
773.93181511248486
 20
308.13669158493138
 30
0.0
 11
730.19547356148701
 21
308.13669158493138
 31
0.0
  0
TEXT
  5
3457
  8
LOGO
  6
CONTINUOUS
 10
740.03405838692549
 20
294.04079559570192
 30
293.35830276403789
 40
3.3575849999999989
  1
Bore size
 41
0.8
  7
CHINESET
  0
TEXT
  5
3458
  8
LOGO
 10
734.45133685913049
 20
300.26503457448888
 30
293.35830276403789
 40
5.5959750000000001
  1
配管口徑代號
  7
CHINESET
  0
TEXT
  5
3459
  8
LOGO
 10
634.20194953228622
 20
290.37538302098687
 30
0.0
 40
4.4767799999999971
  1
10904202
 41
0.7
  7
CHINESET
 72
     1
 11
645.39389953228624
 21
290.37538302098687
 31
0.0
  0
LINE
  5
345A
  8
LOGO
 62
     4
 10
659.28713353021385
 20
296.94636213877777
 30
0.0
 11
659.28713353021556
 21
287.99409858185408
 31
0.0
  0
LINE
  5
345B
  8
LOGO
 62
     4
 10
659.28713353021385
 20
296.94636213877777
 30
0.0
 11
632.42645353021567
 21
296.94636213877777
 31
0.0
  0
LINE
  5
345C
  8
LOGO
  6
AM_ISO08W050X2
 10
607.29100486145921
 20
319.33659550971441
 30
0.0
 11
614.45638085988594
 21
319.33659550971441
 31
0.0
1001
GENIUS_GENOREF_13
1005
346F
  0
LINE
  5
345D
  8
LOGO
  6
AM_ISO08W050X2
 10
610.87369286067235
 20
315.75390751050111
 30
0.0
 11
610.87369286067235
 21
322.91928350892778
 31
0.0
1001
GENIUS_GENOREF_13
1005
346E
  0
LINE
  5
345E
  8
LOGO
  6
CENTER
 10
618.40665155994395
 20
319.33659550971441
 30
0.0
 11
628.02621233439515
 21
319.33659550971441
 31
0.0
1001
GENIUS_GENOREF_13
1005
346D
  0
LINE
  5
346B
  8
LOGO
 62
     4
 10
752.06364433698604
 20
311.49379041877728
 30
0.0
 11
752.06364433698604
 21
308.13669158493138
 31
0.0
  0
LINE
  5
346C
  8
LOGO
 62
     4
 10
774.13733876047763
 20
311.49379041877728
 30
0.0
 11
752.06364433698604
 21
311.49379041877728
 31
0.0
  0
POINT
  5
346D
  8
0
 10
-1116.23721054918
 20
-651.46903349874231
 30
0.0
1001
GENIUS_GENOBJ-N-CRS_13
1002
{
1000
OWNER
1000
GEN
1002
}
1001
GENIUS_GENOLIS_13
1002
{
1000
ENT
1005
0
1005
0
1005
0
1005
345E
1002
}
1001
GENIUS_GENOENT_13
1002
{
1000
MYREF
1005
346D
1002
}
1002
{
1000
GRP
1005
0
1002
}
1001
GENIUS_GENODEF_13
1002
{
1000
HIER
1070
    10
1002
}
1002
{
1000
MANEDIT
1070
     1
1002
}
1002
{
1000
NOSEL
1070
     0
1002
}
1002
{
1000
BEHIND
1070
     0
1002
}
1002
{
1000
OTHER
1070
     0
1002
}
1002
{
1000
REACTOR
1002
}
  0
POINT
  5
346E
  8
0
 10
-1127.5617957720351
 20
-642.59344702010605
 30
0.0
1001
GENIUS_GENOBJ-N-CRS_13
1002
{
1000
OWNER
1000
GEN
1002
}
1001
GENIUS_GENOLIS_13
1002
{
1000
ENT
1005
0
1005
0
1005
0
1005
345D
1002
}
1001
GENIUS_GENOENT_13
1002
{
1000
MYREF
1005
346E
1002
}
1002
{
1000
GRP
1005
0
1002
}
1001
GENIUS_GENODEF_13
1002
{
1000
HIER
1070
    10
1002
}
1002
{
1000
MANEDIT
1070
     1
1002
}
1002
{
1000
NOSEL
1070
     0
1002
}
1002
{
1000
BEHIND
1070
     0
1002
}
1002
{
1000
OTHER
1070
     0
1002
}
1002
{
1000
REACTOR
1002
}
  0
POINT
  5
346F
  8
0
 10
-1121.2031220741981
 20
-651.46903349874231
 30
0.0
1001
GENIUS_GENOBJ-N-CRS_13
1002
{
1000
OWNER
1000
GEN
1002
}
1001
GENIUS_GENOLIS_13
1002
{
1000
ENT
1005
0
1005
0
1005
0
1005
345C
1002
}
1001
GENIUS_GENOENT_13
1002
{
1000
MYREF
1005
346F
1002
}
1002
{
1000
GRP
1005
0
1002
}
1001
GENIUS_GENODEF_13
1002
{
1000
HIER
1070
    10
1002
}
1002
{
1000
MANEDIT
1070
     1
1002
}
1002
{
1000
NOSEL
1070
     0
1002
}
1002
{
1000
BEHIND
1070
     0
1002
}
1002
{
1000
OTHER
1070
     0
1002
}
1002
{
1000
REACTOR
1002
}
  0
DIMENSION
  5
3505
  8
DIM
  2
*D34
 10
678.15958299670126
 20
850.74353034854994
 30
0.0
 11
644.65958299670126
 21
855.74353034854994
 31
0.0
 70
     0
 13
611.15958299670126
 23
829.95268900667168
 33
0.0
 14
678.15958299670126
 24
829.95268900667168
 34
0.0
1001
ACAD
1000
DSTYLE
1002
{
1070
   287
1070
     3
1070
    42
1040
1.0
1070
    44
1040
1.0
1070
   279
1070
     0
1002
}
  0
DIMENSION
  5
3567
  8
DIM
  2
*D35
 10
909.98131752149538
 20
634.68091566280191
 30
0.0
 11
889.69560323578105
 21
634.68091566280191
 31
0.0
 70
   128
 13
912.28131752149545
 23
575.24945547943832
 33
0.0
 14
909.98131752149538
 24
575.24945547943832
 34
0.0
1001
ACAD
1000
DSTYLE
1002
{
1070
   287
1070
     3
1070
    42
1040
1.0
1070
    44
1040
1.0
1070
   279
1070
     0
1002
}
  0
INSERT
  5
3604
  8
0
  2
*U56
 10
0.0
 20
0.0
 30
0.0
1001
ACAD
1000
DSTYLE
1002
{
1070
   147
1040
1.0
1070
    77
1070
     1
1002
}
  0
INSERT
  5
3605
  8
0
  2
*U57
 10
0.0
 20
0.0
 30
0.0
  0
DIMENSION
  5
3620
  8
DIM
  2
*D36
 10
705.56092483689656
 20
575.24945547943844
 30
0.0
 11
700.56092483689656
 21
562.74945547943855
 31
0.0
 70
     0
 13
679.65958299670103
 23
550.24945547943844
 33
0.0
 14
678.15958299670126
 24
575.24945547943844
 34
0.0
 50
90.000000000000028
1001
ACAD
1000
DSTYLE
1002
{
1070
   287
1070
     3
1070
    42
1040
1.0
1070
    44
1040
1.0
1070
   279
1070
     0
1002
}
  0
ENDSEC
  0
EOF
