  0
SECTION
  2
HEADER
  9
$ACADVER
  1
AC1009
  9
$INSBASE
 10
0.0
 20
0.0
 30
0.0
  9
$EXTMIN
 10
-940.67487397394382
 20
12.25279348763069
 30
-0.0000000000112498
  9
$EXTMAX
 10
-577.54309314576994
 20
323.71629190370908
 30
0.0000000000002956
  9
$LIMMIN
 10
0.0
 20
0.0
  9
$LIMMAX
 10
420.0
 20
297.0
  9
$ORTHOMODE
 70
     1
  9
$REGENMODE
 70
     1
  9
$FILLMODE
 70
     1
  9
$QTEXTMODE
 70
     0
  9
$MIRRTEXT
 70
     1
  9
$DRAGMODE
 70
     2
  9
$LTSCALE
 40
0.5
  9
$OSMODE
 70
    39
  9
$ATTMODE
 70
     1
  9
$TEXTSIZE
 40
25.0
  9
$TRACEWID
 40
1.0
  9
$TEXTSTYLE
  7
CHINESET
  9
$CLAYER
  8
0
  9
$CELTYPE
  6
BYBLOCK
  9
$CECOLOR
 62
   256
  9
$DIMSCALE
 40
1.0
  9
$DIMASZ
 40
3.0
  9
$DIMEXO
 40
2.0
  9
$DIMDLI
 40
8.0
  9
$DIMRND
 40
0.0
  9
$DIMDLE
 40
0.0
  9
$DIMEXE
 40
2.0
  9
$DIMTP
 40
0.0
  9
$DIMTM
 40
0.0
  9
$DIMTXT
 40
3.0
  9
$DIMCEN
 40
-2.5
  9
$DIMTSZ
 40
0.0
  9
$DIMTOL
 70
     0
  9
$DIMLIM
 70
     0
  9
$DIMTIH
 70
     0
  9
$DIMTOH
 70
     0
  9
$DIMSE1
 70
     0
  9
$DIMSE2
 70
     0
  9
$DIMTAD
 70
     1
  9
$DIMZIN
 70
     8
  9
$DIMBLK
  1

  9
$DIMASO
 70
     1
  9
$DIMSHO
 70
     1
  9
$DIMPOST
  1

  9
$DIMAPOST
  1

  9
$DIMALT
 70
     0
  9
$DIMALTD
 70
     4
  9
$DIMALTF
 40
0.0394
  9
$DIMLFAC
 40
1.0
  9
$DIMTOFL
 70
     0
  9
$DIMTVP
 40
0.0
  9
$DIMTIX
 70
     0
  9
$DIMSOXD
 70
     0
  9
$DIMSAH
 70
     0
  9
$DIMBLK1
  1

  9
$DIMBLK2
  1

  9
$DIMSTYLE
  2
STANDARD
  9
$DIMCLRD
 70
   256
  9
$DIMCLRE
 70
   256
  9
$DIMCLRT
 70
   256
  9
$DIMTFAC
 40
1.0
  9
$DIMGAP
 40
1.0
  9
$LUNITS
 70
     2
  9
$LUPREC
 70
     4
  9
$SKETCHINC
 40
1.0
  9
$FILLETRAD
 40
1.0
  9
$AUNITS
 70
     0
  9
$AUPREC
 70
     0
  9
$MENU
  1
.
  9
$ELEVATION
 40
0.0
  9
$PELEVATION
 40
0.0
  9
$THICKNESS
 40
0.0
  9
$LIMCHECK
 70
     0
  9
$BLIPMODE
 70
     0
  9
$CHAMFERA
 40
0.5
  9
$CHAMFERB
 40
0.5
  9
$SKPOLY
 70
     0
  9
$TDCREATE
 40
2451564.5875397678
  9
$TDUPDATE
 40
2451949.468931389
  9
$TDINDWG
 40
0.0060860648
  9
$TDUSRTIMER
 40
0.0060860648
  9
$USRTIMER
 70
     1
  9
$ANGBASE
 50
0.0
  9
$ANGDIR
 70
     0
  9
$PDMODE
 70
     0
  9
$PDSIZE
 40
0.0
  9
$PLINEWID
 40
0.0
  9
$COORDS
 70
     2
  9
$SPLFRAME
 70
     0
  9
$SPLINETYPE
 70
     6
  9
$SPLINESEGS
 70
     8
  9
$ATTDIA
 70
     0
  9
$ATTREQ
 70
     1
  9
$HANDLING
 70
 12289
  9
$HANDSEED
  5
18C8
  9
$SURFTAB1
 70
     6
  9
$SURFTAB2
 70
     6
  9
$SURFTYPE
 70
     6
  9
$SURFU
 70
     6
  9
$SURFV
 70
     6
  9
$UCSNAME
  2

  9
$UCSORG
 10
0.0
 20
0.0
 30
0.0
  9
$UCSXDIR
 10
1.0
 20
0.0
 30
0.0
  9
$UCSYDIR
 10
0.0
 20
1.0
 30
0.0
  9
$PUCSNAME
  2

  9
$PUCSORG
 10
0.0
 20
0.0
 30
0.0
  9
$PUCSXDIR
 10
1.0
 20
0.0
 30
0.0
  9
$PUCSYDIR
 10
0.0
 20
1.0
 30
0.0
  9
$USERI1
 70
     0
  9
$USERI2
 70
     0
  9
$USERI3
 70
     0
  9
$USERI4
 70
     0
  9
$USERI5
 70
     0
  9
$USERR1
 40
0.0
  9
$USERR2
 40
0.0
  9
$USERR3
 40
0.0
  9
$USERR4
 40
0.0
  9
$USERR5
 40
0.0
  9
$WORLDVIEW
 70
     1
  9
$SHADEDGE
 70
     3
  9
$SHADEDIF
 70
    70
  9
$TILEMODE
 70
     1
  9
$MAXACTVP
 70
    48
  9
$PLIMCHECK
 70
     0
  9
$PEXTMIN
 10
1.0000000000000000E+020
 20
1.0000000000000000E+020
 30
1.0000000000000000E+020
  9
$PEXTMAX
 10
-1.0000000000000000E+020
 20
-1.0000000000000000E+020
 30
-1.0000000000000000E+020
  9
$PLIMMIN
 10
0.0
 20
0.0
  9
$PLIMMAX
 10
420.0
 20
297.0
  9
$UNITMODE
 70
     0
  9
$VISRETAIN
 70
     1
  9
$PLINEGEN
 70
     0
  9
$PSLTSCALE
 70
     1
  0
ENDSEC
  0
SECTION
  2
TABLES
  0
TABLE
  2
VPORT
 70
     2
  0
VPORT
  2
*ACTIVE
 70
     0
 10
0.0
 20
0.0
 11
1.0
 21
1.0
 12
-759.10898355985682
 22
167.98454269566989
 13
0.0
 23
0.0
 14
10.0
 24
10.0
 15
10.0
 25
10.0
 16
0.0
 26
0.0
 36
1.0
 17
0.0
 27
0.0
 37
0.0
 40
314.89875758978519
 41
1.7274401473296499
 42
50.0
 43
0.0
 44
0.0
 50
0.0
 51
0.0
 71
     0
 72
   100
 73
     1
 74
     1
 75
     0
 76
     0
 77
     0
 78
     0
  0
ENDTAB
  0
TABLE
  2
LTYPE
 70
     6
  0
LTYPE
  2
CONTINUOUS
 70
     0
  3
Solid line
 72
    65
 73
     0
 40
0.0
  0
LTYPE
  2
CENTER
 70
     0
  3
Center ____ _ ____ _ ____ _ ____ _ ____ _ ____
 72
    65
 73
     4
 40
50.799999999999997
 49
31.75
 49
-6.3499999999999988
 49
6.3499999999999988
 49
-6.3499999999999988
  0
LTYPE
  2
HIDDEN
 70
     0
  3
_ _ _ _ _ _ _ _ _ _ _ _ _ _ _ _ _ _ _ _ _ _ _
 72
    65
 73
     2
 40
0.375
 49
0.25
 49
-0.125
  0
ENDTAB
  0
TABLE
  2
LAYER
 70
     6
  0
LAYER
  2
0
 70
     0
 62
     7
  6
CONTINUOUS
  0
LAYER
  2
DIM
 70
     0
 62
     5
  6
CONTINUOUS
  0
LAYER
  2
DEFPOINTS
 70
     0
 62
     7
  6
CONTINUOUS
  0
LAYER
  2
CENTER
 70
     0
 62
     1
  6
CENTER
  0
LAYER
  2
LOGO
 70
     0
 62
     7
  6
CONTINUOUS
  0
LAYER
  2
HIDDEN
 70
     0
 62
     6
  6
HIDDEN
  0
ENDTAB
  0
TABLE
  2
STYLE
 70
     6
  0
STYLE
  2
STANDARD
 70
     0
 40
0.0
 41
1.0
 50
0.0
 71
     0
 42
25.0
  3
txt
  4

  0
STYLE
  2
CHINESET
 70
     0
 40
0.0
 41
1.0
 50
0.0
 71
     0
 42
25.0
  3
simplex.shx
  4
chineset.shx
  0
STYLE
  2
LOGO
 70
     0
 40
0.0
 41
1.0
 50
0.0
 71
     0
 42
5.0
  3
txt
  4

  0
ENDTAB
  0
TABLE
  2
VIEW
 70
     0
  0
ENDTAB
  0
TABLE
  2
UCS
 70
     0
  0
ENDTAB
  0
TABLE
  2
APPID
 70
     1
  0
APPID
  2
ACAD
 70
     0
  0
ENDTAB
  0
TABLE
  2
DIMSTYLE
 70
     1
  0
DIMSTYLE
  2
STANDARD
 70
     0
  3

  4

  5

  6

  7

 40
1.0
 41
3.0
 42
2.0
 43
8.0
 44
2.0
 45
0.0
 46
0.0
 47
0.0
 48
0.0
140
3.0
141
-2.5
142
0.0
143
0.0394
144
1.0
145
0.0
146
1.0
147
1.0
 71
     0
 72
     0
 73
     0
 74
     0
 75
     0
 76
     0
 77
     1
 78
     8
170
     0
171
     4
172
     0
173
     0
174
     0
175
     0
176
   256
177
   256
178
   256
  0
ENDTAB
  0
ENDSEC
  0
SECTION
  2
BLOCKS
  0
BLOCK
  8
0
  2
$MODEL_SPACE
 70
     0
 10
0.0
 20
0.0
 30
0.0
  3
$MODEL_SPACE
  1

  0
ENDBLK
  5
1727
  8
0
  0
BLOCK
 67
     1
  8
0
  2
$PAPER_SPACE
 70
     0
 10
0.0
 20
0.0
 30
0.0
  3
$PAPER_SPACE
  1

  0
ENDBLK
  5
1725
 67
     1
  8
0
  0
BLOCK
  8
0
  2
*D14
 70
     1
 10
0.0
 20
0.0
 30
0.0
  3
*D14
  1

  0
LINE
  5
1874
  8
DIM
 10
-626.59237644293819
 20
189.50298755062681
 30
0.0
 11
-606.06783848929626
 21
189.50298755062681
 31
0.0
  0
LINE
  5
1875
  8
DIM
 10
-663.93999656377582
 20
138.8946096310228
 30
0.0
 11
-606.06783848929626
 21
138.8946096310228
 31
0.0
  0
LINE
  5
1876
  8
DIM
 10
-608.06783848929615
 20
186.50298755062681
 30
0.0
 11
-608.06783848929615
 21
141.8946096310228
 31
0.0
  0
SOLID
  5
1877
  8
DIM
 10
-608.56783848929615
 20
186.50298755062681
 30
0.0
 11
-607.56783848929615
 21
186.50298755062681
 31
0.0
 12
-608.06783848929615
 22
189.50298755062681
 32
0.0
 13
-608.06783848929615
 23
189.50298755062681
 33
0.0
  0
SOLID
  5
1878
  8
DIM
 10
-608.56783848929615
 20
141.8946096310228
 30
0.0
 11
-607.56783848929615
 21
141.8946096310228
 31
0.0
 12
-608.06783848929615
 22
138.8946096310228
 32
0.0
 13
-608.06783848929615
 23
138.8946096310228
 33
0.0
  0
TEXT
  5
1879
  8
0
  6
BYBLOCK
 10
-609.06783848929615
 20
159.69879859082471
 30
0.0
 40
3.0
  1
50.6
 50
90.0
  7
CHINESET
  0
POINT
  5
187A
  8
DEFPOINTS
 62
     0
 10
-628.5923764429383
 20
189.50298755062681
 30
0.0
  0
POINT
  5
187B
  8
DEFPOINTS
 62
     0
 10
-665.93999656377582
 20
138.8946096310228
 30
0.0
  0
POINT
  5
187C
  8
DEFPOINTS
 62
     0
 10
-608.06783848929615
 20
138.8946096310228
 30
0.0
  0
ENDBLK
  5
1792
  8
0
  0
BLOCK
  8
0
  2
*D15
 70
     1
 10
0.0
 20
0.0
 30
0.0
  3
*D15
  1

  0
LINE
  5
1859
  8
DIM
 10
-662.65648421777632
 20
99.894609631022831
 30
0.0
 11
-606.06783848929626
 21
99.894609631022817
 31
0.0
  0
LINE
  5
185A
  8
DIM
 10
-665.93999656377582
 20
138.8946096310228
 30
0.0
 11
-606.06783848929626
 21
138.8946096310228
 31
0.0
  0
LINE
  5
185B
  8
DIM
 10
-608.06783848929615
 20
102.8946096310228
 30
0.0
 11
-608.06783848929615
 21
135.8946096310228
 31
0.0
  0
SOLID
  5
185C
  8
DIM
 10
-608.56783848929615
 20
102.8946096310228
 30
0.0
 11
-607.56783848929615
 21
102.8946096310228
 31
0.0
 12
-608.06783848929615
 22
99.894609631022831
 32
0.0
 13
-608.06783848929615
 23
99.894609631022831
 33
0.0
  0
SOLID
  5
185D
  8
DIM
 10
-608.56783848929615
 20
135.8946096310228
 30
0.0
 11
-607.56783848929615
 21
135.8946096310228
 31
0.0
 12
-608.06783848929615
 22
138.8946096310228
 32
0.0
 13
-608.06783848929615
 23
138.8946096310228
 33
0.0
  0
TEXT
  5
185E
  8
0
  6
BYBLOCK
 10
-609.06783848929615
 20
117.0374667738798
 30
0.0
 40
3.0
  1
39
 50
90.0
  7
CHINESET
  0
POINT
  5
185F
  8
DEFPOINTS
 62
     0
 10
-664.65648421777632
 20
99.894609631022831
 30
0.0
  0
POINT
  5
1860
  8
DEFPOINTS
 62
     0
 10
-667.93999656377582
 20
138.8946096310228
 30
0.0
  0
POINT
  5
1861
  8
DEFPOINTS
 62
     0
 10
-608.06783848929615
 20
138.8946096310228
 30
0.0
  0
ENDBLK
  5
179E
  8
0
  0
BLOCK
  8
0
  2
*D16
 70
     1
 10
0.0
 20
0.0
 30
0.0
  3
*D16
  1

  0
LINE
  5
181A
  8
DIM
 10
-682.48808219286559
 20
265.15351609643562
 30
0.0
 11
-682.48808219286559
 21
280.41750349708389
 31
0.0
  0
LINE
  5
181B
  8
DIM
 10
-762.48808219286559
 20
164.37162112542279
 30
0.0
 11
-762.48808219286559
 21
280.41750349708389
 31
0.0
  0
LINE
  5
181C
  8
DIM
 10
-685.4880821928657
 20
278.41750349708389
 30
0.0
 11
-759.4880821928657
 21
278.41750349708389
 31
0.0
  0
SOLID
  5
181D
  8
DIM
 10
-685.4880821928657
 20
278.917503497084
 30
0.0
 11
-685.4880821928657
 21
277.91750349708389
 31
0.0
 12
-682.48808219286559
 22
278.41750349708389
 32
0.0
 13
-682.48808219286559
 23
278.41750349708389
 33
0.0
  0
SOLID
  5
181E
  8
DIM
 10
-759.4880821928657
 20
278.917503497084
 30
0.0
 11
-759.4880821928657
 21
277.91750349708389
 31
0.0
 12
-762.48808219286559
 22
278.41750349708389
 32
0.0
 13
-762.48808219286559
 23
278.41750349708389
 33
0.0
  0
TEXT
  5
181F
  8
0
  6
BYBLOCK
 10
-726.84522505000859
 20
280.70321778279822
 30
0.0
 40
3.0
  1
(80)
  7
CHINESET
  0
POINT
  5
1820
  8
DEFPOINTS
 62
     0
 10
-682.48808219286559
 20
263.15351609643562
 30
0.0
  0
POINT
  5
1821
  8
DEFPOINTS
 62
     0
 10
-762.48808219286559
 20
162.37162112542279
 30
0.0
  0
POINT
  5
1822
  8
DEFPOINTS
 62
     0
 10
-762.48808219286559
 20
278.41750349708389
 30
0.0
  0
ENDBLK
  5
17AA
  8
0
  0
BLOCK
  8
0
  2
*D17
 70
     1
 10
0.0
 20
0.0
 30
0.0
  3
*D17
  1

  0
LINE
  5
1823
  8
DIM
 10
-929.35370969334849
 20
170.7029875506268
 30
0.0
 11
-929.35370969334849
 21
297.6471902059742
 31
0.0
  0
LINE
  5
1824
  8
DIM
 10
-843.35370969334838
 20
170.70298755062481
 30
0.0
 11
-843.35370969334838
 21
297.6471902059742
 31
0.0
  0
LINE
  5
1825
  8
DIM
 10
-926.35370969334838
 20
295.6471902059742
 30
0.0
 11
-846.35370969334849
 21
295.6471902059742
 31
0.0
  0
SOLID
  5
1826
  8
DIM
 10
-926.35370969334838
 20
296.14719020597431
 30
0.0
 11
-926.35370969334838
 21
295.14719020597431
 31
0.0
 12
-929.35370969334849
 22
295.6471902059742
 32
0.0
 13
-929.35370969334849
 23
295.6471902059742
 33
0.0
  0
SOLID
  5
1827
  8
DIM
 10
-846.35370969334849
 20
296.14719020597431
 30
0.0
 11
-846.35370969334849
 21
295.14719020597431
 31
0.0
 12
-843.35370969334838
 22
295.6471902059742
 32
0.0
 13
-843.35370969334838
 23
295.6471902059742
 33
0.0
  0
INSERT
  5
1828
  8
0
  6
BYBLOCK
  2
*U24
 10
0.0
 20
0.0
 30
0.0
  0
POINT
  5
1829
  8
DEFPOINTS
 62
     0
 10
-929.35370969334849
 20
168.7029875506268
 30
0.0
  0
POINT
  5
182A
  8
DEFPOINTS
 62
     0
 10
-843.35370969334838
 20
168.70298755062481
 30
0.0
  0
POINT
  5
182B
  8
DEFPOINTS
 62
     0
 10
-843.35370969334838
 20
295.6471902059742
 30
0.0
  0
ENDBLK
  5
17B6
  8
0
  0
BLOCK
  8
0
  2
*D18
 70
     1
 10
0.0
 20
0.0
 30
0.0
  3
*D18
  1

  0
LINE
  5
182C
  8
DIM
 10
-854.54519905505072
 20
199.2029875506268
 30
0.0
 11
-825.45998880152081
 21
199.2029875506268
 31
0.0
  0
LINE
  5
182D
  8
DIM
 10
-841.35370969334849
 20
168.7029875506268
 30
0.0
 11
-825.45998880152081
 21
168.7029875506268
 31
0.0
  0
LINE
  5
182E
  8
DIM
 10
-827.45998880152104
 20
196.2029875506268
 30
0.0
 11
-827.45998880152104
 21
171.7029875506268
 31
0.0
  0
SOLID
  5
182F
  8
DIM
 10
-827.95998880152092
 20
196.2029875506268
 30
0.0
 11
-826.95998880152092
 21
196.2029875506268
 31
0.0
 12
-827.45998880152104
 22
199.2029875506268
 32
0.0
 13
-827.45998880152104
 23
199.2029875506268
 33
0.0
  0
SOLID
  5
1830
  8
DIM
 10
-827.95998880152092
 20
171.7029875506268
 30
0.0
 11
-826.95998880152092
 21
171.7029875506268
 31
0.0
 12
-827.45998880152104
 22
168.7029875506268
 32
0.0
 13
-827.45998880152104
 23
168.7029875506268
 33
0.0
  0
TEXT
  5
1831
  8
0
  6
BYBLOCK
 10
-828.45998880152092
 20
179.3815589791981
 30
0.0
 40
3.0
  1
30.5
 50
90.0
  7
CHINESET
  0
POINT
  5
1832
  8
DEFPOINTS
 62
     0
 10
-856.5451990550506
 20
199.2029875506268
 30
0.0
  0
POINT
  5
1833
  8
DEFPOINTS
 62
     0
 10
-843.35370969334838
 20
168.7029875506268
 30
0.0
  0
POINT
  5
1834
  8
DEFPOINTS
 62
     0
 10
-827.45998880152104
 20
168.7029875506268
 30
0.0
  0
ENDBLK
  5
17C2
  8
0
  0
BLOCK
  8
0
  2
*D19
 70
     1
 10
0.0
 20
0.0
 30
0.0
  3
*D19
  1

  0
LINE
  5
1835
  8
DIM
 10
-926.54519905505072
 20
191.2029875506268
 30
0.0
 11
-926.54519905505072
 21
285.13543331098572
 31
0.0
  0
LINE
  5
1836
  8
DIM
 10
-846.54519905505072
 20
191.2029875506268
 30
0.0
 11
-846.54519905505072
 21
285.13543331098572
 31
0.0
  0
LINE
  5
1837
  8
DIM
 10
-923.5451990550506
 20
283.13543331098572
 30
0.0
 11
-849.5451990550506
 21
283.13543331098572
 31
0.0
  0
SOLID
  5
1838
  8
DIM
 10
-923.5451990550506
 20
283.63543331098572
 30
0.0
 11
-923.5451990550506
 21
282.63543331098572
 31
0.0
 12
-926.54519905505072
 22
283.13543331098572
 32
0.0
 13
-926.54519905505072
 23
283.13543331098572
 33
0.0
  0
SOLID
  5
1839
  8
DIM
 10
-849.5451990550506
 20
283.63543331098572
 30
0.0
 11
-849.5451990550506
 21
282.63543331098572
 31
0.0
 12
-846.54519905505072
 22
283.13543331098572
 32
0.0
 13
-846.54519905505072
 23
283.13543331098572
 33
0.0
  0
TEXT
  5
183A
  8
0
  6
BYBLOCK
 10
-888.97377048362205
 20
284.13543331098572
 30
0.0
 40
3.0
  1
80
  7
CHINESET
  0
POINT
  5
183B
  8
DEFPOINTS
 62
     0
 10
-926.54519905505072
 20
189.2029875506268
 30
0.0
  0
POINT
  5
183C
  8
DEFPOINTS
 62
     0
 10
-846.54519905505072
 20
189.2029875506268
 30
0.0
  0
POINT
  5
183D
  8
DEFPOINTS
 62
     0
 10
-846.54519905505072
 20
283.13543331098572
 30
0.0
  0
ENDBLK
  5
17CE
  8
0
  0
BLOCK
  8
0
  2
*D20
 70
     1
 10
0.0
 20
0.0
 30
0.0
  3
*D20
  1

  0
LINE
  5
183E
  8
DIM
 10
-916.5451990550506
 20
196.7029875506268
 30
0.0
 11
-916.5451990550506
 21
273.81527148694647
 31
0.0
  0
LINE
  5
183F
  8
DIM
 10
-856.5451990550506
 20
196.7029875506268
 30
0.0
 11
-856.5451990550506
 21
273.81527148694647
 31
0.0
  0
LINE
  5
1840
  8
DIM
 10
-913.54519905505072
 20
271.81527148694647
 30
0.0
 11
-859.54519905505083
 21
271.81527148694647
 31
0.0
  0
SOLID
  5
1841
  8
DIM
 10
-913.54519905505072
 20
272.31527148694659
 30
0.0
 11
-913.54519905505072
 21
271.31527148694647
 31
0.0
 12
-916.5451990550506
 22
271.81527148694647
 32
0.0
 13
-916.5451990550506
 23
271.81527148694647
 33
0.0
  0
SOLID
  5
1842
  8
DIM
 10
-859.54519905505083
 20
272.31527148694659
 30
0.0
 11
-859.54519905505083
 21
271.31527148694647
 31
0.0
 12
-856.5451990550506
 22
271.81527148694647
 32
0.0
 13
-856.5451990550506
 23
271.81527148694647
 33
0.0
  0
TEXT
  5
1843
  8
0
  6
BYBLOCK
 10
-888.97377048362205
 20
272.81527148694647
 30
0.0
 40
3.0
  1
60
  7
CHINESET
  0
POINT
  5
1844
  8
DEFPOINTS
 62
     0
 10
-916.5451990550506
 20
194.7029875506268
 30
0.0
  0
POINT
  5
1845
  8
DEFPOINTS
 62
     0
 10
-856.5451990550506
 20
194.7029875506268
 30
0.0
  0
POINT
  5
1846
  8
DEFPOINTS
 62
     0
 10
-856.5451990550506
 20
271.81527148694647
 30
0.0
  0
ENDBLK
  5
17DA
  8
0
  0
BLOCK
  8
0
  2
*D21
 70
     1
 10
0.0
 20
0.0
 30
0.0
  3
*D21
  1

  0
LINE
  5
1847
  8
DIM
 10
-680.4880821928657
 20
255.20697311262001
 30
0.0
 11
-587.27480011077932
 21
255.20697311262001
 31
0.0
  0
LINE
  5
1848
  8
DIM
 10
-660.65648421777632
 20
99.894609631022831
 30
0.0
 11
-587.27480011077932
 21
99.894609631022817
 31
0.0
  0
LINE
  5
1849
  8
DIM
 10
-589.27480011077932
 20
252.20697311262001
 30
0.0
 11
-589.27480011077932
 21
102.8946096310228
 31
0.0
  0
SOLID
  5
184A
  8
DIM
 10
-589.77480011077921
 20
252.20697311262001
 30
0.0
 11
-588.77480011077932
 21
252.20697311262001
 31
0.0
 12
-589.27480011077932
 22
255.20697311262001
 32
0.0
 13
-589.27480011077932
 23
255.20697311262001
 33
0.0
  0
SOLID
  5
184B
  8
DIM
 10
-589.77480011077921
 20
102.8946096310228
 30
0.0
 11
-588.77480011077932
 21
102.8946096310228
 31
0.0
 12
-589.27480011077932
 22
99.894609631022817
 32
0.0
 13
-589.27480011077932
 23
99.894609631022817
 33
0.0
  0
TEXT
  5
184C
  8
0
  6
BYBLOCK
 10
-590.27480011077932
 20
171.83650565753561
 30
0.0
 40
3.0
  1
155.3
 50
90.0
  7
CHINESET
  0
POINT
  5
184D
  8
DEFPOINTS
 62
     0
 10
-682.48808219286559
 20
255.20697311262001
 30
0.0
  0
POINT
  5
184E
  8
DEFPOINTS
 62
     0
 10
-662.65648421777632
 20
99.894609631022831
 30
0.0
  0
POINT
  5
184F
  8
DEFPOINTS
 62
     0
 10
-589.27480011077932
 20
99.894609631022817
 30
0.0
  0
ENDBLK
  5
17E6
  8
0
  0
BLOCK
  8
0
  2
*D22
 70
     1
 10
0.0
 20
0.0
 30
0.0
  3
*D22
  1

  0
LINE
  5
1886
  8
DIM
 10
-682.48808219286559
 20
265.15351609643562
 30
0.0
 11
-682.48808219286559
 21
280.41750349708389
 31
0.0
  0
LINE
  5
1887
  8
DIM
 10
-632.48808219286559
 20
201.50298755062681
 30
0.0
 11
-632.48808219286559
 21
280.41750349708389
 31
0.0
  0
LINE
  5
1888
  8
DIM
 10
-679.4880821928657
 20
278.41750349708389
 30
0.0
 11
-635.4880821928657
 21
278.41750349708389
 31
0.0
  0
SOLID
  5
1889
  8
DIM
 10
-679.4880821928657
 20
278.917503497084
 30
0.0
 11
-679.4880821928657
 21
277.91750349708389
 31
0.0
 12
-682.48808219286559
 22
278.41750349708389
 32
0.0
 13
-682.48808219286559
 23
278.41750349708389
 33
0.0
  0
SOLID
  5
188A
  8
DIM
 10
-635.4880821928657
 20
278.917503497084
 30
0.0
 11
-635.4880821928657
 21
277.91750349708389
 31
0.0
 12
-632.48808219286559
 22
278.41750349708389
 32
0.0
 13
-632.48808219286559
 23
278.41750349708389
 33
0.0
  0
TEXT
  5
188B
  8
0
  6
BYBLOCK
 10
-659.91665362143715
 20
279.417503497084
 30
0.0
 40
3.0
  1
50
  7
CHINESET
  0
POINT
  5
188C
  8
DEFPOINTS
 62
     0
 10
-682.48808219286559
 20
263.15351609643562
 30
0.0
  0
POINT
  5
188D
  8
DEFPOINTS
 62
     0
 10
-632.48808219286559
 20
199.50298755062681
 30
0.0
  0
POINT
  5
188E
  8
DEFPOINTS
 62
     0
 10
-632.48808219286559
 20
278.41750349708389
 30
0.0
  0
ENDBLK
  5
1804
  8
0
  0
BLOCK
  8
0
  2
*D23
 70
     1
 10
0.0
 20
0.0
 30
0.0
  3
*D23
  1

  0
LINE
  5
188F
  8
DIM
 10
-680.4880821928657
 20
255.20697311262001
 30
0.0
 11
-606.06783848929626
 21
255.20697311262001
 31
0.0
  0
LINE
  5
1890
  8
DIM
 10
-626.59237644293819
 20
189.50298755062681
 30
0.0
 11
-606.06783848929626
 21
189.50298755062681
 31
0.0
  0
LINE
  5
1891
  8
DIM
 10
-608.06783848929615
 20
252.20697311262001
 30
0.0
 11
-608.06783848929615
 21
192.50298755062681
 31
0.0
  0
SOLID
  5
1892
  8
DIM
 10
-608.56783848929615
 20
252.20697311262001
 30
0.0
 11
-607.56783848929615
 21
252.20697311262001
 31
0.0
 12
-608.06783848929615
 22
255.20697311262001
 32
0.0
 13
-608.06783848929615
 23
255.20697311262001
 33
0.0
  0
SOLID
  5
1893
  8
DIM
 10
-608.56783848929615
 20
192.50298755062681
 30
0.0
 11
-607.56783848929615
 21
192.50298755062681
 31
0.0
 12
-608.06783848929615
 22
189.50298755062681
 32
0.0
 13
-608.06783848929615
 23
189.50298755062681
 33
0.0
  0
TEXT
  5
1894
  8
0
  6
BYBLOCK
 10
-610.35355277501048
 20
215.8549803316233
 30
0.0
 40
3.0
  1
(65.7)
 50
90.0
  7
CHINESET
  0
POINT
  5
1895
  8
DEFPOINTS
 62
     0
 10
-682.48808219286559
 20
255.20697311262001
 30
0.0
  0
POINT
  5
1896
  8
DEFPOINTS
 62
     0
 10
-628.5923764429383
 20
189.50298755062681
 30
0.0
  0
POINT
  5
1897
  8
DEFPOINTS
 62
     0
 10
-608.06783848929615
 20
189.50298755062681
 30
0.0
  0
ENDBLK
  5
1810
  8
0
  0
BLOCK
  8
0
  2
*U24
 70
     1
 10
0.0
 20
0.0
 30
0.0
  3
*U24
  1

  0
TEXT
  5
18C4
  8
0
  6
BYBLOCK
 10
-890.06799540763404
 20
296.64719020597431
 30
0.0
 40
3.0
  1
\U+2205
  7
CHINESET
  0
TEXT
  5
18C5
  8
0
  6
BYBLOCK
 10
-887.35370969334849
 20
296.64719020597431
 30
0.0
 40
3.0
  1
86
  7
CHINESET
  0
ENDBLK
  5
18C7
  8
0
  0
ENDSEC
  0
SECTION
  2
ENTITIES
  0
LINE
  5
89
  8
DIM
 10
-724.91315151316928
 20
88.749307416479056
 30
0.0
 11
-707.52872684415524
 21
88.749307416479056
 31
0.0
  0
LINE
  5
8A
  8
DIM
 10
-725.10958256720733
 20
93.655042918845098
 30
0.0
 11
-707.72516404011913
 21
93.655042918845098
 31
0.0
  0
TEXT
  5
8B
  8
DIM
 10
-730.62014646403202
 20
95.668315068278559
 30
0.0
 40
3.0
  1
2-PT1/4
  7
CHINESET
  0
TEXT
  5
16D0
  8
DIM
 10
-731.04871789260346
 20
90.096886496849976
 30
0.0
 40
3.0
  1
2-PT3/8
  7
CHINESET
1001
ACAD
1000
R13OBJECT
1002
{
1005
8B
1002
}
  0
TEXT
  5
16D1
  8
DIM
 10
-730.47728932117479
 20
84.525457925421406
 30
0.0
 40
3.0
  1
2-PT1/2
  7
CHINESET
1001
ACAD
1000
R13OBJECT
1002
{
1005
8B
1002
}
  0
SOLID
  5
8C
  8
DIM
  6
CONTINUOUS
 10
688.64260036177348
 20
128.72322259294961
 30
0.0
 11
687.05412997613553
 21
131.31682276143181
 31
0.0
 12
687.71556947547458
 22
128.3482376121201
 32
0.0
 13
687.71556947547458
 23
128.3482376121201
 33
0.0
210
0.0
220
0.0
230
-1.0
  0
POLYLINE
  5
16D2
  8
DIM
 66
     1
 10
0.0
 20
0.0
 30
0.0
 70
   128
1001
ACAD
1000
R13OBJECT
1002
{
1005
8C
1002
}
  0
VERTEX
  5
189E
  8
DIM
 10
-688.17908491862397
 20
128.53573010253481
 30
0.0
  0
VERTEX
  5
189F
  8
DIM
 10
-706.90586074974635
 20
82.239743639707129
 30
0.0
  0
VERTEX
  5
18A0
  8
DIM
 10
-731.04871789260346
 20
82.239743639707129
 30
0.0
  0
SEQEND
  5
18A1
  8
DIM
  0
DIMENSION
  5
8D
  8
DIM
  2
*D16
 10
-762.48808219286559
 20
278.41750349708389
 30
0.0
 11
-722.4880821928657
 21
281.70321778279822
 31
0.0
 70
     0
  1
(<>)
 13
-682.48808219286559
 23
263.15351609643562
 33
0.0
 14
-762.48808219286559
 24
162.37162112542279
 34
0.0
  0
LINE
  5
9A
  8
0
  6
BYBLOCK
 10
-725.67957155456793
 20
158.4233452196228
 30
0.0
 11
-639.67957155456793
 21
158.4233452196228
 31
0.0
  0
TEXT
  5
9B
  8
0
  6
BYBLOCK
 10
-750.95089256225492
 20
296.60845059156202
 30
0.0
 40
15.0
  1
MAR-400
  7
CHINESET
  0
POLYLINE
  5
9C
  8
0
 62
     4
 66
     1
 10
0.0
 20
0.0
 30
0.0
 70
     1
  0
VERTEX
  5
1899
  8
0
 62
     4
 10
-940.64583376834651
 20
75.813067722284387
 30
0.0
  0
VERTEX
  5
189A
  8
0
 62
     4
 10
-577.63784915595636
 20
75.813067722284387
 30
0.0
  0
VERTEX
  5
189B
  8
0
 62
     4
 10
-577.63784915595636
 20
323.6903912069688
 30
0.0
  0
VERTEX
  5
189C
  8
0
 62
     4
 10
-940.64583376834651
 20
323.6903912069688
 30
0.0
  0
SEQEND
  5
189D
  8
0
 62
     4
  0
LINE
  5
9D
  8
0
 10
-722.67957155456793
 20
169.2029875506268
 30
0.0
 11
-642.67957155456793
 21
169.2029875506268
 31
0.0
  0
LINE
  5
9E
  8
0
 10
-723.51107070166563
 20
132.21725396751481
 30
0.0
 11
-702.98920582278686
 21
132.21725396751481
 31
0.0
  0
LINE
  5
9F
  8
0
 10
-695.86034008154274
 20
152.73369009182281
 30
0.0
 11
-725.48808219606553
 21
152.73369009182269
 31
0.0
  0
LINE
  5
A0
  8
CENTER
  6
CENTER
 10
-717.58610599122539
 20
140.87162112542279
 30
0.0
 11
-767.99787171381047
 21
140.87162112542279
 31
0.0
  0
LINE
  5
A1
  8
0
 10
-706.05395720668002
 20
129.0095521590228
 30
0.0
 11
-722.52256495446545
 21
129.0095521590228
 31
0.0
  0
LINE
  5
A2
  8
0
 10
-725.17957155456793
 20
169.2029875506268
 30
0.0
 11
-711.67957155456793
 21
169.2029875506268
 31
0.0
  0
DIMENSION
  5
A3
  8
DIM
  2
*D17
 10
-843.35370969334838
 20
295.6471902059742
 30
0.0
 11
-886.35370969334838
 21
298.14719020597431
 31
0.0
 70
     0
  1
%%C<>
 13
-929.35370969334849
 23
168.7029875506268
 33
0.0
 14
-843.35370969334838
 24
168.70298755062481
 34
0.0
1001
ACAD
1000
DSTYLE
1002
{
1070
   340
1005
1D
1002
}
  0
DIMENSION
  5
B0
  8
DIM
  2
*D18
 10
-827.45998880152104
 20
168.7029875506268
 30
0.0
 11
-829.95998880152081
 21
183.95298755062669
 31
0.0
 70
     0
 13
-856.5451990550506
 23
199.2029875506268
 33
0.0
 14
-843.35370969334838
 24
168.7029875506268
 34
0.0
 50
90.0
  0
LINE
  5
BD
  8
0
 10
-846.54519905505072
 20
189.2029875506268
 30
0.0
 11
-846.54519905505072
 21
169.2029875506268
 31
0.0
  0
LINE
  5
BE
  8
0
 10
-926.54519905505072
 20
189.2029875506268
 30
0.0
 11
-926.54519905505072
 21
169.2029875506268
 31
0.0
  0
LINE
  5
BF
  8
CENTER
  6
CENTER
 10
-886.35370969334838
 20
264.6897604160423
 30
0.0
 11
-886.35370969334838
 21
92.892029780004606
 31
0.0
  0
LINE
  5
C0
  8
0
 10
-909.35370969334838
 20
174.2029875506268
 30
0.0
 11
-915.35370969334849
 21
169.2029875506268
 31
0.0
  0
LINE
  5
C1
  8
0
 10
-863.35370969334849
 20
174.2029875506268
 30
0.0
 11
-857.35370969334849
 21
169.2029875506268
 31
0.0
  0
TEXT
  5
C2
  8
DIM
 10
-854.43223276933429
 20
91.884280833277927
 30
0.0
 40
3.0
  1
2-PT1/4
  7
CHINESET
  0
SOLID
  5
C3
  8
DIM
  6
CONTINUOUS
 10
881.93939047399067
 20
130.864724756557
 30
0.0
 11
882.95974350624078
 21
133.72983901074971
 31
0.0
 12
881.06531844734707
 22
131.3505211050809
 32
0.0
 13
881.06531844734707
 23
131.3505211050809
 33
0.0
210
0.0
220
0.0
230
-1.0
  0
POLYLINE
  5
16DC
  8
DIM
 66
     1
 10
0.0
 20
0.0
 30
0.0
 70
   128
1001
ACAD
1000
R13OBJECT
1002
{
1005
C3
1002
}
  0
VERTEX
  5
18A2
  8
DIM
 10
-881.50235446066904
 20
131.10762293081899
 30
0.0
  0
VERTEX
  5
18A3
  8
DIM
 10
-858.43223276933441
 20
89.598566547563635
 30
0.0
  0
VERTEX
  5
18A4
  8
DIM
 10
-834.71794705504885
 20
89.598566547563635
 30
0.0
  0
SEQEND
  5
18A5
  8
DIM
  0
LINE
  5
C4
  8
0
  6
BYBLOCK
 10
-928.35370969334838
 20
158.4233452196228
 30
0.0
 11
-844.35370969334872
 21
158.4233452196228
 31
0.0
  0
LINE
  5
C5
  8
0
 10
-860.9537096933484
 20
172.2029875506268
 30
0.0
 11
-846.54519905505072
 21
172.2029875506268
 31
0.0
  0
LINE
  5
C6
  8
CENTER
  6
CENTER
 10
-927.96724330610937
 20
137.03254063962279
 30
0.0
 11
-844.60417321721707
 21
137.03254063962279
 31
0.0
  0
LINE
  5
C7
  8
0
 10
-871.13955604567093
 20
126.5489204987185
 30
0.0
 11
-847.57210053334836
 21
126.5489204987184
 31
0.0
  0
LINE
  5
C8
  8
0
 10
-861.82321359168111
 20
144.38886247162279
 30
0.0
 11
-853.54735153068111
 21
144.38886247162279
 31
0.0
  0
LINE
  5
C9
  8
0
 10
-929.35370969334849
 20
149.90610384562291
 30
0.0
 11
-843.35370969334883
 21
149.90610384562271
 31
0.0
  0
LINE
  5
CA
  8
0
 10
-864.67292082399865
 20
123.2394372046228
 30
0.0
 11
-848.49164076234831
 21
123.2394372046228
 31
0.0
  0
LINE
  5
CB
  8
0
 10
-928.85370969334849
 20
169.2029875506268
 30
0.0
 11
-915.35370969334849
 21
169.2029875506268
 31
0.0
  0
LINE
  5
CC
  8
0
  6
BYBLOCK
 10
-929.35370969334849
 20
159.4233452196228
 30
0.0
 11
-929.35370969334849
 21
155.9233452196228
 31
0.0
  0
ARC
  5
CD
  8
0
  6
BYBLOCK
 10
-928.35370969334838
 20
159.4233452196228
 30
0.0
 40
1.0
 50
180.0
 51
270.0
  0
LINE
  5
CE
  8
0
  6
BYBLOCK
 10
-929.35370969334849
 20
155.9233452196228
 30
0.0
 11
-929.35370969334872
 21
149.90610384562279
 31
0.0
  0
ARC
  5
CF
  8
0
 10
-928.85370969334849
 20
168.7029875506268
 30
0.0
 40
0.5
 50
90.0
 51
180.00000000000011
  0
LINE
  5
D0
  8
0
 10
-929.35370969334849
 20
168.7029875506268
 30
0.0
 11
-929.35370969334849
 21
159.4233452196228
 31
0.0
  0
LINE
  5
D1
  8
0
 10
-925.13531885334851
 20
149.90610384562291
 30
0.0
 11
-925.13531885334851
 21
124.1589774336227
 31
0.0
  0
LINE
  5
D2
  8
0
 10
-907.40152883853136
 20
122.9869078908541
 30
0.0
 11
-901.56786334102583
 21
126.5489204987185
 31
0.0
  0
LINE
  5
D3
  8
0
 10
-865.30589054816551
 20
122.9869078908541
 30
0.0
 11
-871.13955604567093
 21
126.5489204987185
 31
0.0
  0
LINE
  5
D4
  8
0
  6
BYBLOCK
 10
-906.60370969334838
 20
112.2049544566227
 30
0.0
 11
-866.10370969334849
 21
112.2049544566227
 31
0.0
  0
LINE
  5
D5
  8
0
 10
-906.58359473134863
 20
112.2049544566227
 30
0.0
 11
-866.12382465534836
 21
112.2049544566227
 31
0.0
  0
LINE
  5
D6
  8
0
  6
BYBLOCK
 10
-904.18530766843787
 20
100.2049544566228
 30
0.0
 11
-886.35370969334838
 21
100.2049544566228
 31
0.0
  0
LINE
  5
D7
  8
0
 10
-889.85370969334838
 20
109.2049544566227
 30
0.0
 11
-897.98224866676389
 21
109.2049544566227
 31
0.0
  0
LINE
  5
D8
  8
0
 10
-924.21577862434845
 20
123.2394372046227
 30
0.0
 11
-908.03449856269822
 21
123.2394372046227
 31
0.0
  0
ARC
  5
D9
  8
0
 10
-924.21577862434845
 20
124.1589774336227
 30
0.0
 40
0.919540229
 50
180.0
 51
270.0
  0
LINE
  5
DA
  8
0
 10
-906.58359473134863
 20
112.2049544566227
 30
0.0
 11
-907.11621853162364
 21
122.36802199281129
 31
0.0
  0
ARC
  5
DB
  8
0
 10
-908.03449856269822
 20
122.3198969756227
 30
0.0
 40
0.919540229
 50
3.0000000000000671
 51
90.0
  0
LINE
  5
DC
  8
0
 10
-897.98224866676389
 20
100.2049544566228
 30
0.0
 11
-897.98224866676389
 21
109.2049544566227
 31
0.0
  0
LINE
  5
DD
  8
0
 10
-896.40639011057556
 20
100.2049544566228
 30
0.0
 11
-896.40639011057556
 21
109.2049544566227
 31
0.0
  0
LINE
  5
DE
  8
0
 10
-902.77035114125454
 20
100.2049544566228
 30
0.0
 11
-902.77035114125454
 21
109.2049544566227
 31
0.0
  0
LINE
  5
DF
  8
0
 10
-905.07034667759331
 20
100.4114366975044
 30
0.0
 11
-905.07034667759331
 21
109.2049544566227
 31
0.0
  0
ARC
  5
E0
  8
0
 10
-904.18530766843787
 20
102.2049544566228
 30
0.0
 40
2.0
 50
182.38594403038871
 51
270.0
  0
LINE
  5
E1
  8
0
 10
-902.77035114125454
 20
109.2049544566227
 30
0.0
 11
-906.47870969334838
 21
109.2049544566227
 31
0.0
  0
LINE
  5
E2
  8
0
 10
-906.60370969334838
 20
112.2049544566227
 30
0.0
 11
-906.18357381462272
 21
102.1216933671984
 31
0.0
  0
LINE
  5
E3
  8
0
  6
BYBLOCK
 10
-868.52211171825911
 20
100.2049544566228
 30
0.0
 11
-886.35370969334838
 21
100.2049544566228
 31
0.0
  0
LINE
  5
E4
  8
0
 10
-882.85370969334849
 20
109.2049544566227
 30
0.0
 11
-874.72517071993298
 21
109.2049544566227
 31
0.0
  0
LINE
  5
E5
  8
0
 10
-876.30102927612131
 20
100.2049544566228
 30
0.0
 11
-876.30102927612131
 21
109.2049544566227
 31
0.0
  0
LINE
  5
E6
  8
0
 10
-889.85370969334838
 20
100.2049544566228
 30
0.0
 11
-889.85370969334838
 21
109.2049544566227
 31
0.0
  0
LINE
  5
E7
  8
0
 10
-890.85370969334838
 20
100.2049544566228
 30
0.0
 11
-890.85370969334838
 21
109.2049544566227
 31
0.0
  0
LINE
  5
E8
  8
0
 10
-881.85370969334838
 20
100.2049544566228
 30
0.0
 11
-881.85370969334838
 21
109.2049544566227
 31
0.0
  0
LINE
  5
E9
  8
0
 10
-882.85370969334849
 20
100.2049544566228
 30
0.0
 11
-882.85370969334849
 21
109.2049544566227
 31
0.0
  0
LINE
  5
EA
  8
0
 10
-866.12382465534836
 20
112.2049544566227
 30
0.0
 11
-865.59120085507345
 21
122.36802199281141
 31
0.0
  0
ARC
  5
EB
  8
0
 10
-864.67292082399865
 20
122.3198969756228
 30
0.0
 40
0.919540229
 50
90.0
 51
176.99999999999989
  0
ARC
  5
EC
  8
0
 10
-868.52211171825911
 20
102.2049544566228
 30
0.0
 40
2.0
 50
270.0
 51
357.61405596961117
  0
LINE
  5
ED
  8
0
 10
-869.93706824544245
 20
109.2049544566227
 30
0.0
 11
-866.22870969334838
 21
109.2049544566227
 31
0.0
  0
LINE
  5
EE
  8
0
 10
-867.63707270910356
 20
100.4114366975044
 30
0.0
 11
-867.63707270910356
 21
109.2049544566227
 31
0.0
  0
LINE
  5
EF
  8
0
 10
-869.93706824544245
 20
100.2049544566228
 30
0.0
 11
-869.93706824544245
 21
109.2049544566227
 31
0.0
  0
LINE
  5
F0
  8
0
 10
-874.72517071993298
 20
100.2049544566228
 30
0.0
 11
-874.72517071993298
 21
109.2049544566227
 31
0.0
  0
LINE
  5
F1
  8
0
 10
-866.10370969334849
 20
112.2049544566227
 30
0.0
 11
-866.52384557207426
 21
102.1216933671984
 31
0.0
  0
LINE
  5
F2
  8
CENTER
  6
CENTER
 10
-899.78576060053842
 20
138.87162109762281
 30
0.0
 11
-873.34490916776554
 21
138.87162109762269
 31
0.0
  0
ARC
  5
F3
  8
0
 10
-886.35370969334838
 20
148.06702338762281
 30
0.0
 40
20.229885037999999
 50
238.48462999791141
 51
301.5153700020889
  0
LINE
  5
F4
  8
0
 10
-900.44727281410258
 20
142.28724774247561
 30
0.0
 11
-910.88420579501565
 21
149.90610384562279
 31
0.0
  0
LINE
  5
F5
  8
0
 10
-919.16006785601598
 20
144.38886247162279
 30
0.0
 11
-919.16006785601598
 21
149.90610384562271
 31
0.0
  0
LINE
  5
F6
  8
0
 10
-910.88420579501565
 20
144.38886247162279
 30
0.0
 11
-910.88420579501565
 21
149.90610384562271
 31
0.0
  0
LINE
  5
F7
  8
CENTER
  6
CENTER
 10
-915.02213682551576
 20
142.2090214884692
 30
0.0
 11
-915.02213682551576
 21
157.61994741950949
 31
0.0
  0
LINE
  5
F8
  8
0
 10
-897.84796255584854
 20
149.90610384562291
 30
0.0
 11
-896.92842232684836
 21
130.8210470055912
 31
0.0
  0
LINE
  5
F9
  8
0
 10
-901.56786334102583
 20
126.5489204987185
 30
0.0
 11
-925.13531885334851
 21
126.5489204987185
 31
0.0
  0
LINE
  5
FA
  8
0
 10
-910.88420579501565
 20
144.38886247162279
 30
0.0
 11
-919.16006785601598
 21
144.38886247162279
 31
0.0
  0
LINE
  5
FB
  8
0
 10
-897.48087721025445
 20
142.28724774247561
 30
0.0
 11
-900.44727281410258
 21
142.28724774247561
 31
0.0
  0
LINE
  5
FC
  8
0
 10
-901.56786334102583
 20
126.5489204987185
 30
0.0
 11
-900.44727281410258
 21
142.28724774247561
 31
0.0
  0
LINE
  5
FD
  8
0
 10
-914.82947030251262
 20
172.2029875506268
 30
0.0
 11
-914.82947030251262
 21
169.63985370965671
 31
0.0
  0
LINE
  5
FE
  8
0
 10
-926.54519905505072
 20
172.2029875506268
 30
0.0
 11
-911.94519905505103
 21
172.2029875506268
 31
0.0
  0
LINE
  5
FF
  8
0
 10
-872.26014657259395
 20
142.28724774247561
 30
0.0
 11
-861.82321359168111
 21
149.90610384562279
 31
0.0
  0
LINE
  5
100
  8
0
 10
-861.82321359168111
 20
144.38886247162279
 30
0.0
 11
-861.82321359168111
 21
149.90610384562271
 31
0.0
  0
LINE
  5
101
  8
0
 10
-875.77899705984817
 20
130.8210470055912
 30
0.0
 11
-874.85945683084844
 21
149.90610384562279
 31
0.0
  0
CIRCLE
  5
102
  8
0
 10
-886.35370969334838
 20
138.87162109762281
 30
0.0
 40
6.1609195342999996
  0
CIRCLE
  5
103
  8
0
 10
-886.35370969334838
 20
138.87162109762281
 30
0.0
 40
5.2413793053000006
  0
LINE
  5
104
  8
0
 10
-871.13955604567093
 20
126.5489204987185
 30
0.0
 11
-872.26014657259395
 21
142.28724774247561
 31
0.0
  0
LINE
  5
105
  8
0
 10
-875.22654217644231
 20
142.28724774247561
 30
0.0
 11
-872.26014657259395
 21
142.28724774247561
 31
0.0
  0
LINE
  5
106
  8
0
 10
-858.26092780758893
 20
172.2029875506268
 30
0.0
 11
-858.26092780758893
 21
169.95900264582701
 31
0.0
  0
LINE
  5
107
  8
0
 10
-847.57210053334836
 20
149.90610384562271
 30
0.0
 11
-847.57210053334836
 21
124.15897743362279
 31
0.0
  0
ARC
  5
108
  8
0
 10
-848.49164076234831
 20
124.15897743362279
 30
0.0
 40
0.919540229
 50
270.0
 51
0.0
  0
LINE
  5
109
  8
CENTER
  6
CENTER
 10
-857.685282561181
 20
142.2090214884692
 30
0.0
 11
-857.685282561181
 21
157.61994741950949
 31
0.0
  0
LINE
  5
10A
  8
0
 10
-853.54735153068111
 20
144.38886247162279
 30
0.0
 11
-853.54735153068111
 21
149.90610384562271
 31
0.0
  0
LINE
  5
10B
  8
0
  6
BYBLOCK
 10
-843.35370969334895
 20
159.4233452196228
 30
0.0
 11
-843.35370969334838
 21
155.9233452196228
 31
0.0
  0
ARC
  5
10C
  8
0
  6
BYBLOCK
 10
-844.35370969334872
 20
159.4233452196228
 30
0.0
 40
1.0
 50
270.0
 51
0.0
  0
LINE
  5
10D
  8
0
  6
BYBLOCK
 10
-843.35370969334838
 20
155.9233452196228
 30
0.0
 11
-843.35370969334838
 21
149.90610384562271
 31
0.0
  0
ARC
  5
10E
  8
0
 10
-843.85370969334849
 20
168.7029875506268
 30
0.0
 40
0.5
 50
0.0000000000002036
 51
90.0
  0
LINE
  5
10F
  8
0
 10
-857.35370969334849
 20
169.2029875506268
 30
0.0
 11
-843.85370969334849
 21
169.2029875506268
 31
0.0
  0
LINE
  5
110
  8
0
 10
-843.35370969334838
 20
168.7029875506268
 30
0.0
 11
-843.35370969334883
 21
159.4233452196228
 31
0.0
  0
LINE
  5
111
  8
HIDDEN
  6
HIDDEN
 10
-754.98186552016625
 20
161.37162112542279
 30
0.0
 11
-754.98186552016625
 21
120.37162112542281
 31
0.0
  0
LINE
  5
113
  8
HIDDEN
  6
HIDDEN
 10
-762.48808219286559
 20
162.37162112542279
 30
0.0
 11
-762.48808219286559
 21
119.37162112542281
 31
0.0
  0
LINE
  5
114
  8
HIDDEN
  6
HIDDEN
 10
-742.47150439900111
 20
160.35313118458271
 30
0.0
 11
-742.47150439900111
 21
121.39010978303151
 31
0.0
  0
LINE
  5
115
  8
HIDDEN
  6
HIDDEN
 10
-754.98186552016625
 20
120.3901110662629
 30
0.0
 11
-743.47150439900111
 21
120.390111066263
 31
0.0
  0
POINT
  5
116
  8
0
  6
BYBLOCK
 62
     0
 10
-762.48808219286559
 20
119.37162112542281
 30
0.0
  0
LINE
  5
117
  8
HIDDEN
  6
HIDDEN
 10
-762.48808219286559
 20
119.37162112542281
 30
0.0
 11
-755.98186552016625
 21
119.37162112542281
 31
0.0
  0
ARC
  5
118
  8
HIDDEN
  6
HIDDEN
 10
-755.98186552016625
 20
120.37162112542281
 30
0.0
 40
1.0
 50
270.0
 51
359.99999999999989
  0
ARC
  5
119
  8
HIDDEN
  6
HIDDEN
 10
-743.47150439900111
 20
121.3901110662629
 30
0.0
 40
1.0
 50
270.00000000000011
 51
0.0
  0
LINE
  5
11A
  8
HIDDEN
  6
HIDDEN
 10
-754.98186552016625
 20
161.35313118458271
 30
0.0
 11
-743.47150439900111
 21
161.35313118458271
 31
0.0
  0
LINE
  5
11B
  8
HIDDEN
  6
HIDDEN
 10
-762.48808219286559
 20
162.37162112542279
 30
0.0
 11
-755.98186552016625
 21
162.37162112542279
 31
0.0
  0
ARC
  5
11C
  8
HIDDEN
  6
HIDDEN
 10
-755.98186552016625
 20
161.37162112542279
 30
0.0
 40
1.0
 50
0.0
 51
89.999999999999758
  0
LINE
  5
11D
  8
0
 10
-723.51107070166563
 20
151.74518434462269
 30
0.0
 11
-723.51107070166563
 21
129.9980579062227
 31
0.0
  0
LINE
  5
11E
  8
HIDDEN
  6
HIDDEN
 10
-742.47150439900111
 20
146.37162112542279
 30
0.0
 11
-735.08443402269381
 21
146.37162112542279
 31
0.0
  0
LINE
  5
11F
  8
HIDDEN
  6
HIDDEN
 10
-742.47150439900111
 20
135.37162112542279
 30
0.0
 11
-735.08443402269381
 21
146.37162112542279
 31
0.0
  0
LINE
  5
120
  8
HIDDEN
  6
HIDDEN
 10
-742.47150439900111
 20
146.37162112542279
 30
0.0
 11
-735.08443402269381
 21
135.37162112542279
 31
0.0
  0
LINE
  5
121
  8
HIDDEN
  6
HIDDEN
 10
-742.47150439900111
 20
135.37162112542279
 30
0.0
 11
-735.08443402269381
 21
135.37162112542279
 31
0.0
  0
LINE
  5
122
  8
HIDDEN
  6
HIDDEN
 10
-735.11933351939626
 20
144.37223029840379
 30
0.0
 11
-721.26969135286572
 21
143.8885901367631
 31
0.0
  0
LINE
  5
124
  8
HIDDEN
  6
HIDDEN
 10
-735.08443402269381
 20
145.37162112542279
 30
0.0
 11
-721.26969135286572
 21
144.889199681062
 31
0.0
  0
LINE
  5
125
  8
HIDDEN
  6
HIDDEN
 10
-735.08443402269381
 20
146.37162112542279
 30
0.0
 11
-735.08443402269381
 21
135.37162112542279
 31
0.0
  0
LINE
  5
126
  8
HIDDEN
  6
HIDDEN
 10
-735.11933351939626
 20
137.3710119524419
 30
0.0
 11
-721.26969135286572
 21
137.85465211408251
 31
0.0
  0
LINE
  5
127
  8
HIDDEN
  6
HIDDEN
 10
-735.08443402269381
 20
136.37162112542279
 30
0.0
 11
-721.26969135286572
 21
136.8540425697837
 31
0.0
  0
ARC
  5
128
  8
0
 10
-722.52256495446568
 20
129.9980579062227
 30
0.0
 40
0.9885057472
 50
180.0
 51
270.0
  0
ARC
  5
129
  8
HIDDEN
  6
HIDDEN
 10
-743.47150439900111
 20
160.35313118458271
 30
0.0
 40
1.0
 50
0.0
 51
89.999999999999872
  0
LINE
  5
12A
  8
0
  6
BYBLOCK
 10
-725.67957155456793
 20
168.7029875506268
 30
0.0
 11
-725.48808219606553
 21
158.66472457502289
 31
0.0
  0
ARC
  5
12B
  8
0
 10
-724.49957644886547
 20
151.74518434462269
 30
0.0
 40
0.9885057472
 50
0.0
 51
90.0
  0
LINE
  5
12C
  8
0
 10
-725.48808219606553
 20
158.66472457502289
 30
0.0
 11
-725.48808219606553
 21
152.73369009182269
 31
0.0
  0
ARC
  5
12D
  8
0
 10
-725.17957155456793
 20
168.7029875506268
 30
0.0
 40
0.5
 50
90.0
 51
180.00000000000011
  0
DIMENSION
  5
12E
  8
DIM
  2
*D19
 10
-846.54519905505072
 20
283.13543331098572
 30
0.0
 11
-886.54519905505072
 21
285.63543331098572
 31
0.0
 70
     0
 13
-926.54519905505072
 23
189.2029875506268
 33
0.0
 14
-846.54519905505072
 24
189.2029875506268
 34
0.0
  0
DIMENSION
  5
13B
  8
DIM
  2
*D20
 10
-856.5451990550506
 20
271.81527148694647
 30
0.0
 11
-886.54519905505072
 21
274.31527148694659
 31
0.0
 70
     0
 13
-916.5451990550506
 23
194.7029875506268
 33
0.0
 14
-856.5451990550506
 24
194.7029875506268
 34
0.0
  0
LINE
  5
148
  8
0
 10
-864.34307139547616
 20
199.2029875506268
 30
0.0
 11
-856.5451990550506
 21
199.2029875506268
 31
0.0
  0
CIRCLE
  5
149
  8
0
 10
-856.5451990550506
 20
189.2029875506268
 30
0.0
 40
4.5
  0
LINE
  5
14A
  8
0
 10
-916.5451990550506
 20
199.2029875506268
 30
0.0
 11
-908.55583735292271
 21
199.2029875506268
 31
0.0
  0
ARC
  5
14B
  8
0
 10
-916.5451990550506
 20
189.2029875506268
 30
0.0
 40
10.0
 50
90.0
 51
180.0
  0
LINE
  5
14C
  8
0
 10
-874.04519905505049
 20
223.2029875506268
 30
0.0
 11
-874.04519905505049
 21
216.2029875506268
 31
0.0
  0
LINE
  5
14D
  8
0
 10
-899.04519905505049
 20
223.2029875506268
 30
0.0
 11
-899.04519905505049
 21
216.2029875506268
 31
0.0
  0
LINE
  5
14E
  8
0
 10
-908.07609590656966
 20
214.23488620302581
 30
0.0
 11
-908.87485909030602
 21
189.20697311262001
 31
0.0
  0
LINE
  5
14F
  8
CENTER
  6
CENTER
 10
-916.5451990550506
 20
191.2029875506268
 30
0.0
 11
-916.5451990550506
 21
194.7029875506268
 31
0.0
  0
LINE
  5
150
  8
CENTER
  6
CENTER
 10
-916.5451990550506
 20
185.6647245750228
 30
0.0
 11
-916.5451990550506
 21
182.1647245750228
 31
0.0
  0
LINE
  5
151
  8
CENTER
  6
CENTER
 10
-914.5451990550506
 20
189.2029875506268
 30
0.0
 11
-911.0451990550506
 21
189.2029875506268
 31
0.0
  0
LINE
  5
152
  8
CENTER
  6
CENTER
 10
-918.54519905505072
 20
189.2029875506268
 30
0.0
 11
-922.04519905505083
 21
189.2029875506268
 31
0.0
  0
LINE
  5
153
  8
CENTER
  6
CENTER
 10
-916.5451990550506
 20
188.2029875506268
 30
0.0
 11
-916.5451990550506
 21
190.2029875506268
 31
0.0
  0
LINE
  5
154
  8
CENTER
  6
CENTER
 10
-917.54519905505083
 20
189.2029875506268
 30
0.0
 11
-915.5451990550506
 21
189.2029875506268
 31
0.0
  0
CIRCLE
  5
155
  8
0
 10
-916.5451990550506
 20
189.2029875506268
 30
0.0
 40
4.5
  0
LINE
  5
156
  8
0
 10
-908.87485909030602
 20
189.20697311262001
 30
0.0
 11
-909.35370969334838
 21
174.2029875506268
 31
0.0
  0
ARC
  5
157
  8
0
 10
-907.07660479806736
 20
214.2029875506268
 30
0.0
 40
1.0
 50
90.000000000000185
 51
178.17203175569489
  0
ARC
  5
158
  8
0
 10
-900.04519905505049
 20
216.2029875506268
 30
0.0
 40
1.0
 50
270.00000000000023
 51
0.0
  0
LINE
  5
159
  8
0
 10
-907.07660479806736
 20
215.2029875506268
 30
0.0
 11
-866.01379331203373
 21
215.2029875506268
 31
0.0
  0
LINE
  5
15A
  8
0
 10
-865.01430220353132
 20
214.23488620302581
 30
0.0
 11
-864.21553901979519
 21
189.20697311262001
 31
0.0
  0
LINE
  5
15B
  8
0
 10
-863.83256029639085
 20
189.20697311262009
 30
0.0
 11
-863.35370969334849
 21
174.2029875506268
 31
0.0
  0
LINE
  5
15C
  8
CENTER
  6
CENTER
 10
-858.54519905505083
 20
189.2029875506268
 30
0.0
 11
-862.0451990550506
 21
189.2029875506268
 31
0.0
  0
ARC
  5
15D
  8
0
 10
-866.01379331203373
 20
214.2029875506268
 30
0.0
 40
1.0
 50
1.827968244305014
 51
90.0
  0
ARC
  5
15E
  8
0
 10
-873.04519905505038
 20
216.2029875506268
 30
0.0
 40
1.0
 50
180.0
 51
270.0
  0
LINE
  5
160
  8
0
 10
-894.6131482474816
 20
224.2029875506268
 30
0.0
 11
-891.04519905505049
 21
224.2029875506268
 31
0.0
  0
LINE
  5
161
  8
0
 10
-894.6131482474816
 20
230.2029875506268
 30
0.0
 11
-891.04519905505049
 21
230.2029875506268
 31
0.0
  0
LINE
  5
162
  8
0
 10
-910.54519905505038
 20
246.70697311262001
 30
0.0
 11
-891.54519905505038
 21
246.70697311262001
 31
0.0
  0
LINE
  5
163
  8
0
 10
-910.54519905505038
 20
251.70697311261989
 30
0.0
 11
-891.54519905505038
 21
251.70697311262001
 31
0.0
  0
LINE
  5
164
  8
CENTER
  6
CENTER
 10
-913.14588605134031
 20
249.20697311262001
 30
0.0
 11
-859.67244920184885
 21
249.20697311262001
 31
0.0
  0
LINE
  5
165
  8
0
 10
-898.04519905505038
 20
224.2029875506268
 30
0.0
 11
-875.04519905505049
 21
224.2029875506268
 31
0.0
  0
LINE
  5
166
  8
0
 10
-896.34519905505033
 20
229.2029875506268
 30
0.0
 11
-894.6131482474816
 21
230.2029875506268
 31
0.0
  0
LINE
  5
167
  8
0
 10
-896.34519905505033
 20
225.2029875506268
 30
0.0
 11
-894.6131482474816
 21
224.2029875506268
 31
0.0
  0
LINE
  5
168
  8
0
 10
-896.34519905505033
 20
229.2029875506268
 30
0.0
 11
-896.34519905505033
 21
225.2029875506268
 31
0.0
  0
ARC
  5
169
  8
0
 10
-898.04519905505038
 20
223.2029875506268
 30
0.0
 40
1.0
 50
90.0
 51
180.0
  0
LINE
  5
16A
  8
0
 10
-910.54519905505038
 20
251.70697311261989
 30
0.0
 11
-910.54519905505038
 21
246.70697311262001
 31
0.0
  0
ARC
  5
16B
  8
0
 10
-907.92019905505049
 20
249.20697311261989
 30
0.0
 40
3.624999999999968
 50
136.39718102729589
 51
223.6028189727038
  0
LINE
  5
16C
  8
0
 10
-881.54519905505049
 20
253.70697311262001
 30
0.0
 11
-881.54519905505049
 21
244.70697311261989
 31
0.0
  0
LINE
  5
16D
  8
0
 10
-891.54519905505038
 20
253.70697311262001
 30
0.0
 11
-891.54519905505038
 21
244.70697311261989
 31
0.0
  0
LINE
  5
16E
  8
0
  6
BYBLOCK
 10
-881.54519905505026
 20
230.2029875506268
 30
0.0
 11
-881.54519905504992
 21
224.2029875506268
 31
0.0
  0
LINE
  5
16F
  8
0
 10
-891.54519905505038
 20
224.2029875506268
 30
0.0
 11
-878.47724986261937
 21
224.2029875506268
 31
0.0
  0
LINE
  5
170
  8
0
 10
-891.54519905505015
 20
230.20298755062689
 30
0.0
 11
-878.47724986261937
 21
230.2029875506268
 31
0.0
  0
LINE
  5
171
  8
0
 10
-876.74519905505031
 20
229.2029875506268
 30
0.0
 11
-878.47724986261937
 21
230.2029875506268
 31
0.0
  0
LINE
  5
172
  8
0
 10
-876.74519905505031
 20
225.2029875506268
 30
0.0
 11
-878.47724986261937
 21
224.2029875506268
 31
0.0
  0
LINE
  5
173
  8
0
 10
-876.74519905505031
 20
229.2029875506268
 30
0.0
 11
-876.74519905505031
 21
225.2029875506268
 31
0.0
  0
LINE
  5
174
  8
0
 10
-891.54519905505038
 20
242.70697311261989
 30
0.0
 11
-881.54519905505049
 21
242.70697311261989
 31
0.0
  0
LINE
  5
175
  8
0
 10
-891.54519905505038
 20
244.70697311261989
 30
0.0
 11
-881.54519905505049
 21
244.70697311261989
 31
0.0
  0
LINE
  5
176
  8
0
 10
-881.54519905505049
 20
242.70697311261989
 30
0.0
 11
-881.54519905505026
 21
230.2029875506268
 31
0.0
  0
LINE
  5
177
  8
0
 10
-882.04519905505049
 20
244.70697311261989
 30
0.0
 11
-882.04519905505072
 21
230.2029875506268
 31
0.0
  0
LINE
  5
178
  8
0
 10
-891.04519905505049
 20
244.70697311261989
 30
0.0
 11
-891.04519905505003
 21
230.20298755062689
 31
0.0
  0
LINE
  5
179
  8
0
 10
-891.54519905505038
 20
242.70697311261989
 30
0.0
 11
-891.54519905505038
 21
224.2029875506268
 31
0.0
  0
ARC
  5
17A
  8
0
 10
-875.04519905505049
 20
223.2029875506268
 30
0.0
 40
1.0
 50
0.0
 51
89.999999999999915
  0
LINE
  5
17B
  8
0
 10
-881.54519905505049
 20
251.70697311262001
 30
0.0
 11
-862.54519905505049
 21
251.70697311262001
 31
0.0
  0
LINE
  5
17C
  8
0
 10
-881.54519905505049
 20
246.70697311262001
 30
0.0
 11
-862.54519905505049
 21
246.70697311262001
 31
0.0
  0
ARC
  5
17D
  8
0
 10
-886.54519905505049
 20
246.12363977928669
 30
0.0
 40
9.083333333333373
 50
56.601511532012807
 51
123.39848846798709
  0
LINE
  5
17E
  8
0
 10
-891.54519905505038
 20
253.70697311262001
 30
0.0
 11
-881.54519905505049
 21
253.70697311262001
 31
0.0
  0
ARC
  5
17F
  8
0
 10
-865.17019905505038
 20
249.20697311261989
 30
0.0
 40
3.624999999999968
 50
316.39718102729609
 51
43.602818972704078
  0
LINE
  5
180
  8
0
 10
-862.54519905505049
 20
251.70697311262001
 30
0.0
 11
-862.54519905505049
 21
246.70697311261989
 31
0.0
  0
TEXT
  5
181
  8
DIM
 10
-829.32313325385803
 20
230.20521212912399
 30
0.0
 40
3.0
  1
2-
  7
CHINESET
  0
TEXT
  5
16E1
  8
DIM
 10
-822.75170468242936
 20
230.20521212912399
 30
0.0
 40
3.0
  1
%%c
  7
CHINESET
1001
ACAD
1000
R13OBJECT
1002
{
1005
181
1002
}
  0
TEXT
  5
16E2
  8
DIM
 10
-820.03741896814358
 20
230.20521212912399
 30
0.0
 40
3.0
  1
9
  7
CHINESET
1001
ACAD
1000
R13OBJECT
1002
{
1005
181
1002
}
  0
SOLID
  5
182
  8
DIM
  6
CONTINUOUS
 10
851.39625340012685
 20
194.68217655226809
 30
0.0
 11
853.26159446546535
 21
192.2799894842066
 31
0.0
 12
852.27617034465163
 22
195.1573040832935
 32
0.0
 13
852.27617034465163
 23
195.1573040832935
 33
0.0
210
0.0
220
0.0
230
-1.0
  0
POLYLINE
  5
16E3
  8
DIM
 66
     1
 10
0.0
 20
0.0
 30
0.0
 70
   128
1001
ACAD
1000
R13OBJECT
1002
{
1005
182
1002
}
  0
VERTEX
  5
18A6
  8
DIM
 10
-851.83621187238919
 20
194.91974031778079
 30
0.0
  0
VERTEX
  5
18A7
  8
DIM
 10
-833.32313325385815
 20
229.20521212912399
 30
0.0
  0
VERTEX
  5
18A8
  8
DIM
 10
-818.18027611100092
 20
229.20521212912399
 30
0.0
  0
SEQEND
  5
18A9
  8
DIM
  0
ARC
  5
183
  8
0
 10
-856.5451990550506
 20
189.2029875506268
 30
0.0
 40
10.0
 50
0.0
 51
90.0
  0
LINE
  5
184
  8
CENTER
  6
CENTER
 10
-856.5451990550506
 20
191.2029875506268
 30
0.0
 11
-856.5451990550506
 21
194.7029875506268
 31
0.0
  0
LINE
  5
185
  8
CENTER
  6
CENTER
 10
-856.5451990550506
 20
187.2029875506268
 30
0.0
 11
-856.5451990550506
 21
183.7029875506268
 31
0.0
  0
LINE
  5
186
  8
CENTER
  6
CENTER
 10
-854.54519905505072
 20
189.2029875506268
 30
0.0
 11
-851.04519905505072
 21
189.2029875506268
 31
0.0
  0
LINE
  5
187
  8
CENTER
  6
CENTER
 10
-856.5451990550506
 20
188.2029875506268
 30
0.0
 11
-856.5451990550506
 21
190.2029875506268
 31
0.0
  0
LINE
  5
188
  8
CENTER
  6
CENTER
 10
-857.5451990550506
 20
189.2029875506268
 30
0.0
 11
-855.54519905505072
 21
189.2029875506268
 31
0.0
  0
DIMENSION
  5
18B
  8
DIM
  2
*D21
 10
-589.27480011077932
 20
99.894609631022817
 30
0.0
 11
-591.77480011077932
 21
177.5507913718213
 31
0.0
 70
     0
 13
-682.48808219286559
 23
255.20697311262001
 33
0.0
 14
-662.65648421777632
 24
99.894609631022831
 34
0.0
 50
90.0
  0
DIMENSION
  5
198
  8
DIM
  2
*D14
 10
-608.06783848929615
 20
138.8946096310228
 30
0.0
 11
-610.56783848929615
 21
164.19879859082471
 31
0.0
 70
     0
 13
-628.5923764429383
 23
189.50298755062681
 33
0.0
 14
-665.93999656377582
 24
138.8946096310228
 34
0.0
 50
90.0
  0
LINE
  5
1A5
  8
CENTER
  6
CENTER
 10
-682.48808219286559
 20
263.15351609643562
 30
0.0
 11
-682.48808219286559
 21
91.355785460397925
 31
0.0
  0
LINE
  5
1A6
  8
0
  6
BYBLOCK
 10
-632.48808219286559
 20
199.50298755062681
 30
0.0
 11
-632.48808219286525
 21
170.20298755062689
 31
0.0
  0
ARC
  5
1A7
  8
0
  6
BYBLOCK
 10
-636.48808219286525
 20
173.20298755062689
 30
0.0
 40
1.0
 50
270.00000000000011
 51
0.0000000000004834
  0
LINE
  5
1A8
  8
0
 10
-659.67957155456793
 20
174.2029875506268
 30
0.0
 11
-653.67957155456793
 21
169.2029875506268
 31
0.0
  0
LINE
  5
1A9
  8
0
 10
-705.67957155456793
 20
174.2029875506268
 30
0.0
 11
-711.67957155456793
 21
169.2029875506268
 31
0.0
  0
DIMENSION
  5
1B9
  8
DIM
  2
*D15
 10
-608.06783848929615
 20
138.8946096310228
 30
0.0
 11
-610.56783848929615
 21
119.3946096310227
 31
0.0
 70
     0
 13
-664.65648421777632
 23
99.894609631022831
 33
0.0
 14
-667.93999656377582
 24
138.8946096310228
 34
0.0
 50
90.0
  0
LINE
  5
1C6
  8
0
  6
BYBLOCK
 10
-657.08808219286561
 20
172.2029875506268
 30
0.0
 11
-636.48808219286525
 21
172.20298755062689
 31
0.0
  0
LINE
  5
1C7
  8
0
 10
-641.46509368406555
 20
132.21725396751481
 30
0.0
 11
-661.98695856294444
 21
132.21725396751481
 31
0.0
  0
LINE
  5
1C9
  8
0
 10
-639.48808218966565
 20
152.73369009182269
 30
0.0
 11
-669.11582430418855
 21
152.73369009182281
 31
0.0
  0
LINE
  5
1CA
  8
CENTER
  6
CENTER
 10
-639.48808218966565
 20
140.87162112542279
 30
0.0
 11
-653.28858195638077
 21
140.87162112542279
 31
0.0
  0
LINE
  5
1CB
  8
0
 10
-642.45359943126539
 20
129.0095521590228
 30
0.0
 11
-658.92220717905093
 21
129.0095521590228
 31
0.0
  0
LINE
  5
1CC
  8
0
 10
-653.67957155456793
 20
169.2029875506268
 30
0.0
 11
-640.17957155456793
 21
169.2029875506268
 31
0.0
  0
ARC
  5
1CD
  8
0
 10
-682.48808219286559
 20
155.69920733342281
 30
0.0
 40
31.632183910399998
 50
244.69635636635491
 51
295.30364363364498
  0
LINE
  5
1CE
  8
0
 10
-704.23520863126555
 20
111.8946096310228
 30
0.0
 11
-705.06680617225152
 21
128.0727808053542
 31
0.0
  0
LINE
  5
1CF
  8
0
 10
-660.7409557544654
 20
111.8946096310228
 30
0.0
 11
-659.90935821347944
 21
128.0727808053542
 31
0.0
  0
LINE
  5
1D0
  8
0
 10
-660.7409557544654
 20
111.8946096310228
 30
0.0
 11
-704.23520863126555
 21
111.8946096310228
 31
0.0
  0
LINE
  5
1D1
  8
0
  6
BYBLOCK
 10
-700.31968016795508
 20
99.894609631022831
 30
0.0
 11
-682.48808219286559
 21
99.894609631022831
 31
0.0
  0
LINE
  5
1D2
  8
0
 10
-702.7380821928657
 20
111.8946096310228
 30
0.0
 11
-682.48808219286559
 21
111.8946096310228
 31
0.0
  0
LINE
  5
1D3
  8
0
 10
-685.9880821928657
 20
108.8946096310228
 30
0.0
 11
-694.11662116628122
 21
108.8946096310228
 31
0.0
  0
LINE
  5
1D4
  8
0
 10
-694.11662116628122
 20
99.894609631022831
 30
0.0
 11
-694.11662116628122
 21
108.8946096310228
 31
0.0
  0
LINE
  5
1D5
  8
0
 10
-685.9880821928657
 20
99.894609631022831
 30
0.0
 11
-685.9880821928657
 21
108.8946096310228
 31
0.0
  0
LINE
  5
1D6
  8
0
 10
-686.98808219286559
 20
99.894609631022831
 30
0.0
 11
-686.98808219286559
 21
108.8946096310227
 31
0.0
  0
LINE
  5
1D7
  8
0
 10
-692.54076261009266
 20
99.894609631022831
 30
0.0
 11
-692.54076261009266
 21
108.8946096310228
 31
0.0
  0
LINE
  5
1D8
  8
0
 10
-698.90472364077164
 20
108.8946096310228
 30
0.0
 11
-702.61308219286559
 21
108.8946096310228
 31
0.0
  0
ARC
  5
1D9
  8
0
 10
-700.31968016795508
 20
101.8946096310228
 30
0.0
 40
2.0
 50
182.38594403038871
 51
270.0
  0
LINE
  5
1DA
  8
0
 10
-698.90472364077164
 20
99.894609631022831
 30
0.0
 11
-698.90472364077164
 21
108.8946096310228
 31
0.0
  0
LINE
  5
1DB
  8
0
 10
-701.20471917711052
 20
100.1010918719044
 30
0.0
 11
-701.20471917711052
 21
108.8946096310227
 31
0.0
  0
LINE
  5
1DC
  8
0
 10
-702.7380821928657
 20
111.8946096310228
 30
0.0
 11
-702.3179463141397
 21
101.81134854159841
 31
0.0
  0
LINE
  5
1DD
  8
0
 10
-662.2380821928657
 20
111.8946096310228
 30
0.0
 11
-682.48808219286559
 21
111.8946096310228
 31
0.0
  0
LINE
  5
1DE
  8
0
  6
BYBLOCK
 10
-664.65648421777632
 20
99.894609631022831
 30
0.0
 11
-682.48808219286559
 21
99.894609631022831
 31
0.0
  0
LINE
  5
1DF
  8
0
 10
-678.98808219286559
 20
108.8946096310228
 30
0.0
 11
-670.85954321945019
 21
108.8946096310228
 31
0.0
  0
LINE
  5
1E0
  8
0
 10
-670.85954321945019
 20
99.894609631022831
 30
0.0
 11
-670.85954321945019
 21
108.8946096310228
 31
0.0
  0
LINE
  5
1E1
  8
0
 10
-678.98808219286559
 20
99.894609631022831
 30
0.0
 11
-678.98808219286559
 21
108.8946096310228
 31
0.0
  0
LINE
  5
1E2
  8
0
 10
-677.9880821928657
 20
99.894609631022831
 30
0.0
 11
-677.9880821928657
 21
108.8946096310227
 31
0.0
  0
LINE
  5
1E3
  8
0
 10
-672.43540177563864
 20
99.894609631022831
 30
0.0
 11
-672.43540177563864
 21
108.8946096310228
 31
0.0
  0
LINE
  5
1E4
  8
0
 10
-666.07144074495977
 20
108.8946096310228
 30
0.0
 11
-662.3630821928657
 21
108.8946096310228
 31
0.0
  0
ARC
  5
1E5
  8
0
 10
-664.65648421777632
 20
101.8946096310228
 30
0.0
 40
2.0
 50
270.0
 51
357.61405596961117
  0
LINE
  5
1E6
  8
0
 10
-666.07144074495977
 20
99.894609631022831
 30
0.0
 11
-666.07144074495977
 21
108.8946096310228
 31
0.0
  0
LINE
  5
1E7
  8
0
 10
-663.77144520862089
 20
100.1010918719044
 30
0.0
 11
-663.77144520862089
 21
108.8946096310227
 31
0.0
  0
LINE
  5
1E8
  8
0
 10
-662.2380821928657
 20
111.8946096310228
 30
0.0
 11
-662.65821807159148
 21
101.81134854159841
 31
0.0
  0
ARC
  5
1E9
  8
0
 10
-682.48808219286559
 20
124.0670234230228
 30
0.0
 40
31.632183910399998
 50
64.992166765314735
 51
115.00783323468519
  0
CIRCLE
  5
1EA
  8
0
 10
-682.48808219286559
 20
138.8946096310228
 30
0.0
 40
8.84712643744
  0
CIRCLE
  5
1EB
  8
0
 10
-682.48808219286559
 20
138.8946096310228
 30
0.0
 40
7.3643678166399997
  0
LINE
  5
1EC
  8
CENTER
  6
CENTER
 10
-667.93999656377582
 20
138.8946096310228
 30
0.0
 11
-697.03616782195547
 21
138.8946096310228
 31
0.0
  0
LINE
  5
1ED
  8
0
 10
-704.72946150486564
 20
147.4902195491731
 30
0.0
 11
-708.85836552950195
 21
152.73369009182281
 31
0.0
  0
LINE
  5
1EE
  8
0
 10
-704.72946150486564
 20
146.8026556086227
 30
0.0
 11
-704.72946150486564
 21
152.73369009182281
 31
0.0
  0
LINE
  5
1F0
  8
0
 10
-697.80992127446552
 20
152.73369009182281
 30
0.0
 11
-696.85603167478257
 21
128.38441452060499
 31
0.0
  0
LINE
  5
1F1
  8
0
 10
-702.40904159233673
 20
144.54341977244681
 30
0.0
 11
-704.1880480463094
 21
146.8026556086229
 31
0.0
  0
LINE
  5
1F2
  8
0
 10
-702.98920582278686
 20
132.21725396751501
 30
0.0
 11
-702.40904159233673
 21
144.54341977244681
 31
0.0
  0
LINE
  5
1F3
  8
0
 10
-697.57757135948214
 20
146.8026556086227
 30
0.0
 11
-704.72946150486564
 21
146.8026556086229
 31
0.0
  0
LINE
  5
1F6
  8
0
 10
-705.37351475249545
 20
128.73808314644
 30
0.0
 11
-702.98920582278686
 21
132.21725396751501
 31
0.0
  0
POINT
  5
1F7
  8
0
  6
BYBLOCK
 62
     0
 10
-696.61145759223973
 20
127.6249703210612
 30
0.0
  0
LINE
  5
1F8
  8
0
 10
-702.40904159233673
 20
144.5434197724467
 30
0.0
 11
-697.48906517123589
 21
144.5434197724467
 31
0.0
  0
ARC
  5
1F9
  8
0
 10
-695.37440954253771
 20
128.44245747709761
 30
0.0
 40
1.4827586208000001
 50
182.24343079991149
 51
244.6963563663557
  0
LINE
  5
1FA
  8
0
 10
-660.24670288086566
 20
147.4902195491731
 30
0.0
 11
-656.11779885622946
 21
152.73369009182281
 31
0.0
  0
LINE
  5
1FB
  8
0
 10
-660.24670288086566
 20
146.8026556086227
 30
0.0
 11
-660.24670288086566
 21
152.73369009182269
 31
0.0
  0
LINE
  5
1FC
  8
0
 10
-668.12013271094838
 20
128.38441452060499
 30
0.0
 11
-667.16624311126566
 21
152.73369009182281
 31
0.0
  0
ARC
  5
1FD
  8
0
 10
-669.60175484319336
 20
128.44245747709761
 30
0.0
 40
1.4827586208000001
 50
295.30364363364458
 51
357.75656920008839
  0
LINE
  5
200
  8
0
 10
-667.4870992144954
 20
144.54341977244681
 30
0.0
 11
-662.56712279339422
 21
144.54341977244681
 31
0.0
  0
LINE
  5
201
  8
0
 10
-662.56712279339422
 20
144.54341977244681
 30
0.0
 11
-660.78811633942155
 21
146.8026556086227
 31
0.0
  0
LINE
  5
202
  8
0
 10
-661.98695856294444
 20
132.21725396751501
 30
0.0
 11
-662.56712279339422
 21
144.54341977244681
 31
0.0
  0
LINE
  5
203
  8
0
 10
-659.60264963323584
 20
128.73808314644
 30
0.0
 11
-661.98695856294444
 21
132.21725396751501
 31
0.0
  0
LINE
  5
204
  8
0
 10
-660.24670288086566
 20
146.8026556086227
 30
0.0
 11
-667.39859302624916
 21
146.8026556086227
 31
0.0
  0
ARC
  5
205
  8
0
 10
-658.92220717905093
 20
128.02104641182271
 30
0.0
 40
0.9885057472
 50
90.000000000000099
 51
176.99999999999969
  0
LINE
  5
206
  8
0
 10
-641.46509368406555
 20
151.7451843446228
 30
0.0
 11
-641.46509368406555
 21
129.99805790622281
 31
0.0
  0
ARC
  5
207
  8
0
 10
-642.45359943126539
 20
129.99805790622281
 30
0.0
 40
0.9885057472
 50
270.0
 51
0.0
  0
LINE
  5
208
  8
0
  6
BYBLOCK
 10
-639.98808219286536
 20
169.2029875506268
 30
0.0
 11
-633.48808219286525
 21
169.20298755062689
 31
0.0
  0
LINE
  5
209
  8
0
  6
BYBLOCK
 10
-639.67957155456793
 20
168.7029875506268
 30
0.0
 11
-639.48808218966565
 21
158.66472457502289
 31
0.0
  0
ARC
  5
20A
  8
0
 10
-640.4765879368656
 20
151.7451843446228
 30
0.0
 40
0.9885057472
 50
90.0
 51
180.0
  0
LINE
  5
20B
  8
0
 10
-639.48808218966565
 20
158.66472457502289
 30
0.0
 11
-639.48808218966565
 21
152.73369009182281
 31
0.0
  0
ARC
  5
20C
  8
0
 10
-640.17957155456793
 20
168.7029875506268
 30
0.0
 40
0.5
 50
0.0000000000002036
 51
90.0
  0
ARC
  5
20D
  8
0
  6
BYBLOCK
 10
-633.48808219286525
 20
170.20298755062689
 30
0.0
 40
1.0
 50
270.0000000000004
 51
0.0000000000008651
  0
DIMENSION
  5
378
  8
DIM
  2
*D22
 10
-632.48808219286559
 20
278.41750349708389
 30
0.0
 11
-657.48808219286559
 21
280.917503497084
 31
0.0
 70
     0
 13
-682.48808219286559
 23
263.15351609643562
 33
0.0
 14
-632.48808219286559
 24
199.50298755062681
 34
0.0
  0
DIMENSION
  5
385
  8
DIM
  2
*D23
 10
-608.06783848929615
 20
189.50298755062681
 30
0.0
 11
-611.3535527750106
 21
222.3549803316233
 31
0.0
 70
     0
  1
(<>)
 13
-682.48808219286559
 23
255.20697311262001
 33
0.0
 14
-628.5923764429383
 24
189.50298755062681
 34
0.0
 50
90.0
  0
LINE
  5
392
  8
0
 10
-669.98808219286559
 20
223.2029875506268
 30
0.0
 11
-669.98808219286559
 21
216.2029875506268
 31
0.0
  0
LINE
  5
393
  8
0
 10
-694.98808219286559
 20
223.2029875506268
 30
0.0
 11
-694.98808219286559
 21
216.2029875506268
 31
0.0
  0
LINE
  5
394
  8
0
 10
-704.70135926559465
 20
204.85363927179631
 30
0.0
 11
-705.67957155456793
 21
174.2029875506268
 31
0.0
  0
LINE
  5
395
  8
0
 10
-703.01948793588247
 20
215.2029875506268
 30
0.0
 11
-695.98808219286559
 21
215.2029875506268
 31
0.0
  0
ARC
  5
396
  8
0
 10
-703.01948793588247
 20
214.2029875506268
 30
0.0
 40
1.0
 50
90.000000000000185
 51
178.17203175569489
  0
LINE
  5
397
  8
0
 10
-704.01897904438476
 20
214.23488620302581
 30
0.0
 11
-704.3183805421902
 21
204.85363927179631
 31
0.0
  0
ARC
  5
398
  8
0
 10
-695.98808219286559
 20
216.2029875506268
 30
0.0
 40
1.0
 50
270.00000000000023
 51
0.0
  0
LINE
  5
399
  8
0
 10
-660.65778384354144
 20
204.85363927179631
 30
0.0
 11
-659.67957155456793
 21
174.2029875506268
 31
0.0
  0
LINE
  5
39A
  8
0
 10
-668.9880821928657
 20
215.2029875506268
 30
0.0
 11
-661.95667644984883
 21
215.2029875506268
 31
0.0
  0
ARC
  5
39B
  8
0
 10
-668.9880821928657
 20
216.2029875506268
 30
0.0
 40
1.0
 50
180.0
 51
270.0
  0
ARC
  5
39C
  8
0
 10
-661.95667644984883
 20
214.2029875506268
 30
0.0
 40
1.0
 50
1.827968244305014
 51
90.0
  0
LINE
  5
39D
  8
0
 10
-660.95718534134653
 20
214.23488620302581
 30
0.0
 11
-660.65778384354144
 21
204.85363927179631
 31
0.0
  0
LINE
  5
39E
  8
0
 10
-690.55603138529671
 20
224.2029875506268
 30
0.0
 11
-674.42013300043448
 21
224.2029875506268
 31
0.0
  0
LINE
  5
39F
  8
0
 10
-690.55603138529671
 20
230.2029875506268
 30
0.0
 11
-674.42013300043448
 21
230.2029875506268
 31
0.0
  0
LINE
  5
3A0
  8
HIDDEN
  6
HIDDEN
 10
-687.48808219286559
 20
246.70697311262001
 30
0.0
 11
-677.4880821928657
 21
246.70697311262001
 31
0.0
  0
LINE
  5
3A1
  8
HIDDEN
  6
HIDDEN
 10
-687.48808219286559
 20
251.70697311262001
 30
0.0
 11
-677.4880821928657
 21
251.70697311262001
 31
0.0
  0
LINE
  5
3A2
  8
CENTER
  6
CENTER
 10
-688.7160158825842
 20
249.20697311262001
 30
0.0
 11
-676.04142380744292
 21
249.20697311262001
 31
0.0
  0
ARC
  5
3A3
  8
0
 10
-682.48808219286559
 20
246.12363977928669
 30
0.0
 40
9.083333333333373
 50
56.601511532012807
 51
123.39848846798709
  0
LINE
  5
3A4
  8
0
 10
-687.48808219286559
 20
253.70697311262001
 30
0.0
 11
-677.4880821928657
 21
253.70697311262001
 31
0.0
  0
LINE
  5
3A5
  8
0
 10
-687.48808219286559
 20
242.70697311261989
 30
0.0
 11
-677.4880821928657
 21
242.70697311261989
 31
0.0
  0
LINE
  5
3A6
  8
0
 10
-687.48808219286559
 20
244.70697311261989
 30
0.0
 11
-677.4880821928657
 21
244.70697311261989
 31
0.0
  0
LINE
  5
3A7
  8
0
 10
-693.9880821928657
 20
224.2029875506268
 30
0.0
 11
-670.98808219286559
 21
224.2029875506268
 31
0.0
  0
LINE
  5
3A8
  8
0
 10
-687.48808219286559
 20
253.70697311262001
 30
0.0
 11
-687.48808219286559
 21
244.70697311261989
 31
0.0
  0
LINE
  5
3A9
  8
0
 10
-687.9880821928657
 20
230.2029875506268
 30
0.0
 11
-687.9880821928657
 21
224.2029875506268
 31
0.0
  0
LINE
  5
3AA
  8
0
 10
-692.28808219286543
 20
225.2029875506268
 30
0.0
 11
-690.55603138529671
 21
224.2029875506268
 31
0.0
  0
LINE
  5
3AB
  8
0
 10
-692.28808219286543
 20
229.2029875506268
 30
0.0
 11
-690.55603138529671
 21
230.2029875506268
 31
0.0
  0
LINE
  5
3AC
  8
0
 10
-692.28808219286543
 20
229.2029875506268
 30
0.0
 11
-692.28808219286543
 21
225.2029875506268
 31
0.0
  0
LINE
  5
3AD
  8
0
 10
-687.48808219286559
 20
242.70697311261989
 30
0.0
 11
-687.48808219286559
 21
230.2029875506268
 31
0.0
  0
LINE
  5
3AE
  8
0
 10
-686.98808219286559
 20
244.70697311261989
 30
0.0
 11
-686.98808219286548
 21
230.2029875506268
 31
0.0
  0
ARC
  5
3AF
  8
0
 10
-693.9880821928657
 20
223.2029875506268
 30
0.0
 40
1.0
 50
90.0
 51
180.0
  0
LINE
  5
3B0
  8
0
 10
-677.4880821928657
 20
253.70697311262001
 30
0.0
 11
-677.4880821928657
 21
244.70697311261989
 31
0.0
  0
LINE
  5
3B1
  8
0
 10
-676.9880821928657
 20
230.2029875506268
 30
0.0
 11
-676.9880821928657
 21
224.2029875506268
 31
0.0
  0
LINE
  5
3B2
  8
0
 10
-672.68808219286552
 20
225.2029875506268
 30
0.0
 11
-674.42013300043448
 21
224.2029875506268
 31
0.0
  0
LINE
  5
3B3
  8
0
 10
-672.68808219286552
 20
229.2029875506268
 30
0.0
 11
-674.42013300043448
 21
230.2029875506268
 31
0.0
  0
LINE
  5
3B4
  8
0
 10
-672.68808219286552
 20
229.2029875506268
 30
0.0
 11
-672.68808219286552
 21
225.2029875506268
 31
0.0
  0
LINE
  5
3B5
  8
0
 10
-677.4880821928657
 20
242.70697311261989
 30
0.0
 11
-677.48808219286593
 21
230.2029875506268
 31
0.0
  0
LINE
  5
3B6
  8
0
 10
-677.9880821928657
 20
244.70697311261989
 30
0.0
 11
-677.98808219286593
 21
230.2029875506268
 31
0.0
  0
ARC
  5
3B7
  8
0
 10
-670.98808219286559
 20
223.2029875506268
 30
0.0
 40
1.0
 50
0.0
 51
89.999999999999915
  0
LINE
  5
3B8
  8
0
  6
BYBLOCK
 10
-635.48808219286536
 20
199.50298755062681
 30
0.0
 11
-635.48808219286525
 21
173.20298755062689
 31
0.0
  0
LINE
  5
3B9
  8
HIDDEN
  6
HIDDEN
 10
-632.48808219286548
 20
185.00298755062681
 30
0.0
 11
-635.48808219286525
 21
185.00298755062681
 31
0.0
  0
LINE
  5
3BA
  8
HIDDEN
  6
HIDDEN
 10
-632.48808219286559
 20
194.00298755062681
 30
0.0
 11
-635.48808219286536
 21
194.00298755062681
 31
0.0
  0
LINE
  5
3BB
  8
CENTER
  6
CENTER
 10
-628.5923764429383
 20
189.50298755062681
 30
0.0
 11
-639.45577184472324
 21
189.50298755062681
 31
0.0
  0
LINE
  5
3BC
  8
0
  6
BYBLOCK
 10
-632.48808219286559
 20
199.50298755062681
 30
0.0
 11
-635.48808219286536
 21
199.50298755062681
 31
0.0
  0
LINE
  5
1619
  8
0
 10
-864.53456075717816
 20
199.2029875506268
 30
0.0
 11
-856.5451990550506
 21
199.2029875506268
 31
0.0
  0
TEXT
  5
172F
  8
LOGO
 62
     6
 10
-618.532935747735
 20
29.20309082924383
 30
0.0
 40
8.4745412532800906
  1
配管口徑
 41
0.9
  7
CHINESET
 72
     4
 11
-603.19931266758135
 21
33.440361455883867
 31
0.0
  0
LINE
  5
1730
  8
LOGO
 62
     6
 10
-581.31548555233564
 20
17.55059660598377
 30
0.0
 11
-625.08313978282706
 21
17.550596605983699
 31
0.0
  0
LINE
  5
1731
  8
LOGO
 62
     6
 10
-581.31548555233564
 20
40.855585052504011
 30
0.0
 11
-625.08313978282706
 21
40.855585052504011
 31
0.0
  0
TEXT
  5
1732
  8
LOGO
  6
CONTINUOUS
 62
     6
 10
-617.72709767320441
 20
20.198890747633719
 30
0.0
 40
5.296588283300057
  1
Bore size
 41
0.8
  7
CHINESET
 72
     4
 11
-603.19931266758135
 21
22.84718488928376
 31
0.0
  0
TEXT
  5
1733
  8
LOGO
  6
CONTINUOUS
 62
     7
 10
-610.78604456432402
 20
54.506587299313424
 30
0.0
 40
10.593176566600111
  1
?A
  7
CHINESET
 72
     1
 11
-602.21061591517139
 21
59.803175582613477
 31
0.0
 73
     2
  0
LINE
  5
1734
  8
LOGO
 62
     6
 10
-585.55275617897576
 20
69.45716178232432
 30
0.0
 11
-620.84586915618706
 21
69.45716178232432
 31
0.0
  0
LINE
  5
1735
  8
LOGO
 62
     6
 10
-585.55275617897576
 20
50.389443962444098
 30
0.0
 11
-620.84586915618706
 21
50.389443962444119
 31
0.0
  0
LINE
  5
1736
  8
LOGO
 62
     1
 10
-577.63784915595636
 20
75.813067722284387
 30
0.0
 11
-940.64583376834651
 21
75.813067722284387
 31
0.0
  0
LINE
  5
1737
  8
LOGO
 62
     1
 10
-577.63784915595636
 20
12.25400832268371
 30
0.0
 11
-940.64583376834651
 21
12.25400832268371
 31
0.0
  0
LINE
  5
1738
  8
LOGO
  6
CONTINUOUS
 62
     6
 10
-819.79818080104121
 20
58.921186253785947
 30
0.0
 11
-808.2290244101091
 21
60.449333821623732
 31
0.0
  0
LINE
  5
1739
  8
LOGO
  6
CONTINUOUS
 62
     6
 10
-819.79818080104121
 20
54.596704209656252
 30
0.0
 11
-808.2290244101091
 21
53.068556641818461
 31
0.0
  0
LINE
  5
173A
  8
LOGO
 62
     1
 10
-800.81590308922534
 20
63.10125584236426
 30
0.0
 11
-894.03585687530619
 21
63.10125584236426
 31
0.0
  0
LINE
  5
173B
  8
LOGO
 62
     1
 10
-800.81590308922534
 20
50.389443962444119
 30
0.0
 11
-894.03585687530619
 21
50.389443962444119
 31
0.0
  0
TEXT
  5
173C
  8
LOGO
 62
     6
 10
-833.65370244110557
 20
66.27920881234428
 30
0.0
 40
6.355905939960067
  1
1 : 1
  7
CHINESET
 72
     1
 11
-822.45520149927131
 21
69.45716178232432
 31
0.0
 73
     2
  0
TEXT
  5
173D
  8
LOGO
 62
     6
 10
-833.65370244110557
 20
40.855585052504019
 30
0.0
 40
6.355905939960067
  1
m/m
  7
CHINESET
 72
     1
 11
-822.45520149927131
 21
44.033538022484052
 31
0.0
 73
     2
  0
LINE
  5
173E
  8
LOGO
 62
     1
 10
-800.81590308922534
 20
37.677632082524049
 30
0.0
 11
-940.64583376834651
 21
37.677632082524049
 31
0.0
  0
TEXT
  5
173F
  8
LOGO
  6
CONTINUOUS
 62
     5
 10
-938.56543844040675
 20
24.740089622751281
 30
0.0
 40
9.5338589099401005
  1
金器工業股份有限公司
 41
0.8
  7
LOGO
  0
TEXT
  5
1740
  8
LOGO
  6
CONTINUOUS
 62
     5
 10
-935.83551627614224
 20
15.20436282394823
 30
0.0
 40
6.355905939960067
  1
MINDMAN INDUSTRIAL CO.,LTD
 41
0.85
  7
CHINESET
  0
SOLID
  5
1741
  8
LOGO
 62
     5
 10
-934.05147935110585
 20
48.243421015737567
 30
0.0
 11
-931.30335240163902
 21
48.243421015736658
 31
0.0
 12
-919.83702961248309
 22
74.303245536544608
 32
0.0
 13
-917.08890266301671
 23
74.303245536542804
 33
0.0
  0
SOLID
  5
1742
  8
LOGO
 62
     5
 10
-930.1661964225475
 20
48.243421015737567
 30
0.0
 11
-927.418069473081
 21
48.243421015737567
 31
0.0
 12
-917.08890266301671
 22
72.218459574879091
 32
0.0
 13
-919.83702961248309
 23
62.141994093500053
 33
0.0
  0
SOLID
  5
1743
  8
LOGO
 62
     2
 10
-931.30335240163902
 20
48.243421015736658
 30
0.0
 11
-930.1661964225475
 21
48.243421015737567
 31
0.0
 12
-917.08890266301671
 22
74.303245536542804
 32
0.0
 13
-915.9517466839261
 23
74.303245536542804
 33
0.0
  0
SOLID
  5
1744
  8
LOGO
 62
     5
 10
-931.22494123212039
 20
43.505271102863482
 30
0.0
 11
-930.27731124954653
 21
43.505271102863482
 31
0.0
 12
-931.22494123212039
 22
38.767121189990291
 32
0.0
 13
-930.27731124954653
 23
38.767121189990291
 33
0.0
  0
SOLID
  5
1745
  8
LOGO
 62
     5
 10
-938.45740077437972
 20
38.767121189990291
 30
0.0
 11
-937.50977079180393
 21
38.767121189990291
 31
0.0
 12
-934.84117100325057
 22
43.505271102863482
 32
0.0
 13
-933.89354102067671
 23
43.505271102863482
 33
0.0
  0
SOLID
  5
1746
  8
LOGO
 62
     5
 10
-934.84117100325057
 20
43.505271102863482
 30
0.0
 11
-933.89354102067671
 21
43.505271102863482
 31
0.0
 12
-934.84117100325057
 22
38.767121189990291
 32
0.0
 13
-933.89354102067671
 23
38.767121189990291
 33
0.0
  0
SOLID
  5
1747
  8
LOGO
 62
     5
 10
-934.84117100325057
 20
38.767121189990291
 30
0.0
 11
-933.89354102067671
 21
38.767121189990291
 31
0.0
 12
-931.22494123212039
 22
43.505271102863482
 32
0.0
 13
-930.27731124954653
 23
43.505271102863482
 33
0.0
  0
LINE
  5
1748
  8
LOGO
 62
     1
 10
-940.64583376834651
 20
12.25400832268371
 30
0.0
 11
-940.64583376834651
 21
75.813067722284387
 31
0.0
  0
TEXT
  5
1749
  8
LOGO
 62
     6
 10
-888.79507193284792
 20
66.282336718810797
 30
0.0
 40
6.355905939960067
  1
比例 Scale:
 41
0.9
  7
CHINESET
 72
     4
 11
-868.61223311546576
 21
69.45716178232432
 31
0.0
  0
TEXT
  5
174A
  8
LOGO
 62
     6
 10
-886.57334231187076
 20
53.656802925592046
 30
0.0
 40
6.355905939960067
  1
投影 View:
 41
0.9
  7
CHINESET
 72
     4
 11
-868.61223311546576
 21
56.745349902404179
 31
0.0
  0
TEXT
  5
174B
  8
LOGO
 62
     6
 10
-885.95193900791935
 20
40.855585052504019
 30
0.0
 40
6.355905939960067
  1
單位 Unit:
 41
0.9
  7
CHINESET
 72
     4
 11
-868.61223311546576
 21
44.033538022484052
 31
0.0
  0
POLYLINE
  5
174C
  8
LOGO
 62
     5
 66
     1
 10
0.0
 20
0.0
 30
0.0
 70
     1
 40
0.94914862036737
 41
0.94914862036737
  0
VERTEX
  5
18AE
  8
LOGO
 62
     5
 10
-908.15256726098119
 20
41.136196146426421
 30
0.0
 42
1.0
  0
VERTEX
  5
18AF
  8
LOGO
 62
     5
 10
-904.35597277951183
 20
41.136196146426421
 30
0.0
 42
1.0
  0
SEQEND
  5
18B0
  8
LOGO
 62
     5
  0
LINE
  5
174D
  8
LOGO
 62
     5
 10
-898.98916999583821
 20
38.767121189990291
 30
0.0
 11
-898.98916999583821
 21
41.610011137713833
 31
0.0
  0
SOLID
  5
174E
  8
LOGO
 62
     5
 10
-904.83291980938031
 20
43.505271102863482
 30
0.0
 11
-903.88528982680646
 21
43.505271102863482
 31
0.0
 12
-904.83291980938031
 22
38.767121189990291
 32
0.0
 13
-903.88528982680646
 23
38.767121189990291
 33
0.0
  0
SOLID
  5
174F
  8
LOGO
 62
     5
 10
-902.77968992613751
 20
38.767121189990291
 30
0.0
 11
-901.83205994356194
 21
38.767121189990291
 31
0.0
 12
-902.77968992613751
 22
43.505271102863482
 32
0.0
 13
-901.83205994356194
 23
43.505271102863482
 33
0.0
  0
SOLID
  5
1750
  8
LOGO
 62
     5
 10
-899.93679997841207
 20
41.610011137713833
 30
0.0
 11
-898.98916999583821
 21
41.610011137713691
 31
0.0
 12
-899.93679997841207
 22
38.767121189990291
 32
0.0
 13
-898.98916999583821
 23
38.767121189990291
 33
0.0
  0
SOLID
  5
1751
  8
LOGO
 62
     5
 10
-918.41567940161872
 20
44.926716076726137
 30
0.0
 11
-917.46804941904475
 21
44.926716076726137
 31
0.0
 12
-918.41567940161872
 22
38.767121189990291
 32
0.0
 13
-917.46804941904475
 23
38.767121189990291
 33
0.0
  0
SOLID
  5
1752
  8
LOGO
 62
     5
 10
-916.36244951837318
 20
43.505271102863482
 30
0.0
 11
-915.41481953579921
 21
43.505271102863482
 31
0.0
 12
-916.36244951837318
 22
38.767121189990291
 32
0.0
 13
-915.41481953579921
 23
38.767121189990291
 33
0.0
  0
SOLID
  5
1753
  8
LOGO
 62
     5
 10
-913.51955957064956
 20
41.610011137713833
 30
0.0
 11
-912.57192958807559
 21
41.610011137713833
 31
0.0
 12
-913.51955957064956
 22
38.767121189990291
 32
0.0
 13
-912.57192958807559
 23
38.767121189990291
 33
0.0
  0
SOLID
  5
1754
  8
LOGO
 62
     5
 10
-910.67666962292571
 20
41.610011137713833
 30
0.0
 11
-909.72903964035197
 21
41.610011137713833
 31
0.0
 12
-910.67666962292571
 22
38.767121189988472
 32
0.0
 13
-909.72903964035197
 23
38.767121189988472
 33
0.0
  0
LINE
  5
1755
  8
LOGO
 62
     1
 10
-894.03585687530619
 20
37.677632082523978
 30
0.0
 11
-894.03585687530619
 21
75.813067722284387
 31
0.0
  0
SOLID
  5
1756
  8
LOGO
 62
     5
 10
-927.10231916288683
 20
43.505271102863482
 30
0.0
 11
-926.15468918031308
 21
43.505271102863482
 31
0.0
 12
-927.10231916288683
 22
38.767121189990291
 32
0.0
 13
-926.15468918031308
 23
38.767121189990291
 33
0.0
  0
SOLID
  5
1757
  8
LOGO
 62
     5
 10
-924.25942921516344
 20
41.610011137713833
 30
0.0
 11
-923.31179923258799
 21
41.610011137713833
 31
0.0
 12
-924.25942921516344
 22
38.767121189990291
 32
0.0
 13
-923.31179923258799
 23
38.767121189990291
 33
0.0
  0
SOLID
  5
1758
  8
LOGO
 62
     5
 10
-929.15554904613248
 20
43.505271102863482
 30
0.0
 11
-928.20791906355612
 21
43.505271102863482
 31
0.0
 12
-929.15554904613248
 22
38.767121189988472
 32
0.0
 13
-928.20791906355612
 23
38.767121189990291
 33
0.0
  0
POLYLINE
  5
1759
  8
LOGO
 62
     5
 66
     1
 10
0.0
 20
0.0
 30
0.0
 70
     1
 40
0.94914862036737
 41
0.94914862036737
  0
VERTEX
  5
18B1
  8
LOGO
 62
     5
 10
-921.73532685321845
 20
41.136196146426421
 30
0.0
 42
1.0
  0
VERTEX
  5
18B2
  8
LOGO
 62
     5
 10
-917.93873237174898
 20
41.136196146426421
 30
0.0
 42
1.0
  0
SEQEND
  5
18B3
  8
LOGO
 62
     5
  0
POLYLINE
  5
175A
  8
LOGO
 62
     5
 66
     1
 10
0.0
 20
0.0
 30
0.0
 40
0.94914862036737
 41
0.94914862036737
  0
VERTEX
  5
18B4
  8
LOGO
 62
     5
 10
-899.46070703043586
 20
41.610011137713833
 30
0.0
 42
1.0
  0
VERTEX
  5
18B5
  8
LOGO
 62
     5
 10
-902.30815289153816
 20
41.610011137713833
 30
0.0
 42
1.0
  0
SEQEND
  5
18B6
  8
LOGO
 62
     5
  0
SOLID
  5
175B
  8
LOGO
 62
     5
 10
-901.73729694530471
 20
48.243421015736658
 30
0.0
 11
-898.98916999583821
 21
48.243421015736658
 31
0.0
 12
-901.73729694530471
 22
74.303245536542804
 32
0.0
 13
-898.98916999583821
 23
74.303245536544608
 33
0.0
  0
SOLID
  5
175C
  8
LOGO
 62
     5
 10
-915.9517466839261
 20
74.303245536542804
 30
0.0
 11
-913.20361973445961
 21
74.303245536544608
 31
0.0
 12
-915.9517466839261
 22
50.328206977401273
 32
0.0
 13
-913.20361973445961
 23
60.404672458780318
 33
0.0
  0
SOLID
  5
175D
  8
LOGO
 62
     5
 10
-915.9517466839261
 20
50.328206977401273
 30
0.0
 11
-913.20361973445961
 21
60.404672458780318
 31
0.0
 12
-902.87445292439543
 22
74.303245536544608
 32
0.0
 13
-905.62257987386215
 23
74.303245536544608
 33
0.0
  0
SOLID
  5
175E
  8
LOGO
 62
     5
 10
-902.87445292439543
 20
72.218459574879091
 30
0.0
 11
-905.62257987386215
 21
62.141994093500053
 31
0.0
 12
-902.87445292439543
 22
48.243421015736658
 32
0.0
 13
-905.62257987386215
 23
48.243421015736658
 33
0.0
  0
SOLID
  5
175F
  8
LOGO
 62
     2
 10
-902.87445292439543
 20
74.303245536544608
 30
0.0
 11
-901.73729694530471
 21
74.303245536542804
 31
0.0
 12
-902.87445292439543
 22
48.243421015736658
 32
0.0
 13
-901.73729694530471
 23
48.243421015736658
 33
0.0
  0
SOLID
  5
1760
  8
LOGO
 62
     5
 10
-919.83702961248309
 20
48.243421015737567
 30
0.0
 11
-917.08890266301671
 21
48.243421015737567
 31
0.0
 12
-919.83702961248309
 22
62.141994093500053
 32
0.0
 13
-917.08890266301671
 23
72.218459574879091
 33
0.0
  0
SOLID
  5
1761
  8
LOGO
 62
     2
 10
-917.08890266301671
 20
74.303245536542804
 30
0.0
 11
-915.9517466839261
 21
74.303245536542804
 31
0.0
 12
-917.08890266301671
 22
48.243421015737567
 32
0.0
 13
-915.9517466839261
 23
48.243421015737567
 33
0.0
  0
SOLID
  5
1762
  8
LOGO
 62
     5
 10
-915.9517466839261
 20
48.243421015737567
 30
0.0
 11
-913.20361973445961
 21
48.243421015737567
 31
0.0
 12
-902.87445292439543
 22
72.218459574879091
 32
0.0
 13
-905.62257987386215
 23
62.141994093500053
 33
0.0
  0
SOLID
  5
1763
  8
LOGO
 62
     2
 10
-917.08890266301671
 20
48.243421015737567
 30
0.0
 11
-915.9517466839261
 21
48.243421015737567
 31
0.0
 12
-902.87445292439543
 22
74.303245536544608
 32
0.0
 13
-901.73729694530471
 23
74.303245536542804
 33
0.0
  0
POLYLINE
  5
1764
  8
LOGO
 62
     5
 66
     1
 10
0.0
 20
0.0
 30
0.0
 40
0.94914862036737
 41
0.94914862036737
  0
VERTEX
  5
18B7
  8
LOGO
 62
     5
 10
-913.04346662267335
 20
41.610011137713833
 30
0.0
 42
1.0
  0
VERTEX
  5
18B8
  8
LOGO
 62
     5
 10
-915.89091248377554
 20
41.610011137713833
 30
0.0
 42
1.0
  0
SEQEND
  5
18B9
  8
LOGO
 62
     5
  0
POLYLINE
  5
1765
  8
LOGO
 62
     5
 66
     1
 10
0.0
 20
0.0
 30
0.0
 40
0.94914862036737
 41
0.94914862036737
  0
VERTEX
  5
18BA
  8
LOGO
 62
     5
 10
-923.78333626718688
 20
41.610011137713833
 30
0.0
 42
1.0
  0
VERTEX
  5
18BB
  8
LOGO
 62
     5
 10
-926.63078212828907
 20
41.610011137713833
 30
0.0
 42
1.0
  0
SEQEND
  5
18BC
  8
LOGO
 62
     5
  0
SOLID
  5
1766
  8
LOGO
 62
     5
 10
-929.15554904613248
 20
44.168612090665398
 30
0.0
 11
-928.20791906355612
 21
44.168612090665398
 31
0.0
 12
-929.15554904613248
 22
44.926716076726137
 32
0.0
 13
-928.20791906355612
 23
44.926716076726137
 33
0.0
  0
POLYLINE
  5
1767
  8
LOGO
 62
     5
 66
     1
 10
0.0
 20
0.0
 30
0.0
 70
     1
  0
VERTEX
  5
18BD
  8
LOGO
 62
     5
 10
-907.67571499410815
 20
41.136196146426869
 30
0.0
 42
1.0000000573306349
  0
VERTEX
  5
18BE
  8
LOGO
 62
     5
 10
-904.83282504638362
 20
41.136196146426869
 30
0.0
 42
1.0000000573306349
  0
SEQEND
  5
18BF
  8
LOGO
 62
     5
  0
CIRCLE
  5
1768
  8
LOGO
 62
     5
 10
-906.25427002024583
 20
41.136196146426869
 30
0.0
 40
1.4214449738621731
  0
POLYLINE
  5
1769
  8
LOGO
 62
     5
 66
     1
 10
0.0
 20
0.0
 30
0.0
 40
0.94914862036737
 41
0.94914862036737
  0
VERTEX
  5
18C0
  8
LOGO
 62
     5
 10
-910.20057667494973
 20
41.610011137713833
 30
0.0
 42
1.0
  0
VERTEX
  5
18C1
  8
LOGO
 62
     5
 10
-913.04802253605192
 20
41.610011137713833
 30
0.0
 42
1.0
  0
SEQEND
  5
18C2
  8
LOGO
 62
     5
  0
LINE
  5
176A
  8
LOGO
 62
     1
 10
-843.18860935562543
 20
37.677632082523978
 30
0.0
 11
-843.18860935562543
 21
75.813067722284387
 31
0.0
  0
CIRCLE
  5
176B
  8
LOGO
  6
CONTINUOUS
 62
     6
 10
-831.41985452364133
 20
56.758945231721079
 30
0.0
 40
3.690388589902637
  0
CIRCLE
  5
176C
  8
LOGO
  6
CONTINUOUS
 62
     6
 10
-831.41985452364133
 20
56.758945231721079
 30
0.0
 40
2.162241022064852
  0
LINE
  5
176D
  8
LOGO
 62
     6
 10
-819.79818080104121
 20
54.596704209656238
 30
0.0
 11
-819.79818080104121
 21
58.921186253785962
 31
0.0
  0
TEXT
  5
176E
  8
LOGO
  6
CONTINUOUS
 62
     6
 10
-684.86986977285517
 20
20.19889074763379
 30
0.0
 40
5.296588283300057
  1
Model
  7
CHINESET
 72
     4
 11
-674.78113018561703
 21
22.84718488928382
 31
0.0
  0
TEXT
  5
176F
  8
LOGO
  6
CONTINUOUS
 62
     7
 10
-705.92759047672087
 20
54.626714589084159
 30
0.0
 40
10.593176566600111
  1
MAR400
  7
CHINESET
 72
     1
 11
-675.40915322532533
 21
59.92330287238422
 31
0.0
 73
     2
  0
LINE
  5
1770
  8
LOGO
 62
     6
 10
-636.16902259190078
 20
69.45716178232432
 30
0.0
 11
-713.39323777933305
 21
69.45716178232432
 31
0.0
  0
LINE
  5
1771
  8
LOGO
 62
     6
 10
-636.16902259190078
 20
50.389443962444119
 30
0.0
 11
-713.39323777933305
 21
50.389443962444119
 31
0.0
  0
LINE
  5
1772
  8
LOGO
 62
     6
 10
-653.59477705241682
 20
40.855585052504011
 30
0.0
 11
-695.96748331881713
 21
40.855585052504011
 31
0.0
  0
LINE
  5
1773
  8
LOGO
 62
     6
 10
-653.59477705241682
 20
17.550596605983749
 30
0.0
 11
-695.96748331881713
 21
17.550596605983699
 31
0.0
  0
TEXT
  5
1774
  8
LOGO
 62
     7
 10
-795.61328338824001
 20
59.899324757595778
 30
0.0
 40
12.711811879920131
  1
訂購代號:
  7
CHINESET
  0
TEXT
  5
1775
  8
LOGO
 62
     7
 10
-797.13368617068318
 20
47.968925349133492
 30
0.0
 40
8.4745412532800906
  1
Order example:
 41
0.8
  7
CHINESET
  0
LINE
  5
1776
  8
LOGO
 62
     1
 10
-800.81590308922534
 20
12.25400832268371
 30
0.0
 11
-800.81590308922534
 21
75.813067722284387
 31
0.0
  0
LINE
  5
1777
  8
LOGO
 62
     6
 10
-808.2290244101091
 20
53.068556641818461
 30
0.0
 11
-808.2290244101091
 21
60.449333821623732
 31
0.0
  0
LINE
  5
1778
  8
LOGO
 62
     6
 10
-695.96748331881713
 20
40.855585052504011
 30
0.0
 11
-695.96748331881713
 21
17.550596605983699
 31
0.0
  0
LINE
  5
1779
  8
LOGO
 62
     6
 10
-713.39323777933305
 20
69.45716178232432
 30
0.0
 11
-713.39323777933305
 21
50.389443962444119
 31
0.0
  0
LINE
  5
177A
  8
LOGO
 62
     6
 10
-653.5947770524167
 20
40.855585052504011
 30
0.0
 11
-653.5947770524167
 21
17.55059660598377
 31
0.0
  0
TEXT
  5
177B
  8
LOGO
 62
     6
 10
-683.25567143889714
 20
29.419959010922309
 30
0.0
 40
8.4745412532800906
  1
型式
  7
CHINESET
 72
     4
 11
-674.78113018561703
 21
33.440361455883931
 31
0.0
  0
LINE
  5
177C
  8
LOGO
 62
     6
 10
-674.78113018561703
 20
50.389443962444119
 30
0.0
 11
-674.78113018561703
 21
40.855585052504011
 31
0.0
  0
LINE
  5
177D
  8
LOGO
 62
     6
 10
-636.16902259190078
 20
69.45716178232432
 30
0.0
 11
-636.16902259190078
 21
50.389443962444119
 31
0.0
  0
LINE
  5
177E
  8
LOGO
 62
     6
 10
-625.08313978282706
 20
40.855585052504011
 30
0.0
 11
-625.08313978282706
 21
17.550596605983699
 31
0.0
  0
LINE
  5
177F
  8
LOGO
  6
CONTINUOUS
 62
     7
 10
-632.56294490114556
 20
59.855762002454739
 30
0.0
 11
-624.14333646199407
 21
59.855762002454739
 31
0.0
  0
LINE
  5
1780
  8
LOGO
 62
     6
 10
-620.84586915618706
 20
69.45716178232432
 30
0.0
 11
-620.84586915618706
 21
50.389443962444119
 31
0.0
  0
LINE
  5
1781
  8
LOGO
 62
     6
 10
-602.75060494512093
 20
50.389443962444119
 30
0.0
 11
-602.75060494512093
 21
40.855585052504011
 31
0.0
  0
LINE
  5
1782
  8
LOGO
 62
     6
 10
-581.31548555233564
 20
40.855585052504011
 30
0.0
 11
-581.31548555233564
 21
17.462721346514449
 31
0.0
  0
LINE
  5
1783
  8
LOGO
 62
     6
 10
-585.55275617897576
 20
69.45716178232432
 30
0.0
 11
-585.55275617897576
 21
50.389443962444098
 31
0.0
  0
LINE
  5
1784
  8
LOGO
 62
     1
 10
-577.63784915595636
 20
12.25400832268371
 30
0.0
 11
-577.63784915595636
 21
75.813067722284387
 31
0.0
  0
ENDSEC
  0
EOF
