  0
SECTION
  2
HEADER
  9
$ACADVER
  1
AC1009
  9
$INSBASE
 10
0.0
 20
0.0
 30
0.0
  9
$EXTMIN
 10
-677.85368901268919
 20
-588.85101096067399
 30
-0.0000000000000064
  9
$EXTMAX
 10
-384.34665263527398
 20
-305.88096439771289
 30
0.0000000000000089
  9
$LIMMIN
 10
0.0
 20
0.0
  9
$LIMMAX
 10
420.0
 20
297.0
  9
$ORTHOMODE
 70
     1
  9
$REGENMODE
 70
     1
  9
$FILLMODE
 70
     1
  9
$QTEXTMODE
 70
     0
  9
$MIRRTEXT
 70
     1
  9
$DRAGMODE
 70
     2
  9
$LTSCALE
 40
6.0
  9
$OSMODE
 70
    39
  9
$ATTMODE
 70
     1
  9
$TEXTSIZE
 40
10.0
  9
$TRACEWID
 40
1.0
  9
$TEXTSTYLE
  7
CHINESET
  9
$CLAYER
  8
0
  9
$CELTYPE
  6
BYLAYER
  9
$CECOLOR
 62
   256
  9
$DIMSCALE
 40
1.0
  9
$DIMASZ
 40
3.0
  9
$DIMEXO
 40
2.0
  9
$DIMDLI
 40
2.0
  9
$DIMRND
 40
0.0
  9
$DIMDLE
 40
0.0
  9
$DIMEXE
 40
2.0
  9
$DIMTP
 40
0.0
  9
$DIMTM
 40
0.0
  9
$DIMTXT
 40
3.0
  9
$DIMCEN
 40
2.5
  9
$DIMTSZ
 40
0.0
  9
$DIMTOL
 70
     0
  9
$DIMLIM
 70
     0
  9
$DIMTIH
 70
     0
  9
$DIMTOH
 70
     0
  9
$DIMSE1
 70
     0
  9
$DIMSE2
 70
     0
  9
$DIMTAD
 70
     1
  9
$DIMZIN
 70
     8
  9
$DIMBLK
  1

  9
$DIMASO
 70
     1
  9
$DIMSHO
 70
     1
  9
$DIMPOST
  1

  9
$DIMAPOST
  1

  9
$DIMALT
 70
     0
  9
$DIMALTD
 70
     4
  9
$DIMALTF
 40
0.0394
  9
$DIMLFAC
 40
1.0
  9
$DIMTOFL
 70
     1
  9
$DIMTVP
 40
0.0
  9
$DIMTIX
 70
     0
  9
$DIMSOXD
 70
     0
  9
$DIMSAH
 70
     0
  9
$DIMBLK1
  1

  9
$DIMBLK2
  1

  9
$DIMSTYLE
  2
STANDARD
  9
$DIMCLRD
 70
   256
  9
$DIMCLRE
 70
   256
  9
$DIMCLRT
 70
   256
  9
$DIMTFAC
 40
1.0
  9
$DIMGAP
 40
1.0
  9
$LUNITS
 70
     2
  9
$LUPREC
 70
     4
  9
$SKETCHINC
 40
1.0
  9
$FILLETRAD
 40
0.0
  9
$AUNITS
 70
     0
  9
$AUPREC
 70
     0
  9
$MENU
  1
.
  9
$ELEVATION
 40
0.0
  9
$PELEVATION
 40
0.0
  9
$THICKNESS
 40
0.0
  9
$LIMCHECK
 70
     0
  9
$BLIPMODE
 70
     0
  9
$CHAMFERA
 40
2.0
  9
$CHAMFERB
 40
2.0
  9
$SKPOLY
 70
     0
  9
$TDCREATE
 40
2451457.340116411
  9
$TDUPDATE
 40
2451949.4621367818
  9
$TDINDWG
 40
1.4977084722
  9
$TDUSRTIMER
 40
1.4977084722
  9
$USRTIMER
 70
     1
  9
$ANGBASE
 50
0.0
  9
$ANGDIR
 70
     0
  9
$PDMODE
 70
     0
  9
$PDSIZE
 40
0.0
  9
$PLINEWID
 40
0.0
  9
$COORDS
 70
     2
  9
$SPLFRAME
 70
     0
  9
$SPLINETYPE
 70
     6
  9
$SPLINESEGS
 70
     8
  9
$ATTDIA
 70
     0
  9
$ATTREQ
 70
     1
  9
$HANDLING
 70
 12289
  9
$HANDSEED
  5
5EC6
  9
$SURFTAB1
 70
     6
  9
$SURFTAB2
 70
     6
  9
$SURFTYPE
 70
     6
  9
$SURFU
 70
     6
  9
$SURFV
 70
     6
  9
$UCSNAME
  2

  9
$UCSORG
 10
0.0
 20
0.0
 30
0.0
  9
$UCSXDIR
 10
1.0
 20
0.0
 30
0.0
  9
$UCSYDIR
 10
0.0
 20
1.0
 30
0.0
  9
$PUCSNAME
  2

  9
$PUCSORG
 10
0.0
 20
0.0
 30
0.0
  9
$PUCSXDIR
 10
1.0
 20
0.0
 30
0.0
  9
$PUCSYDIR
 10
0.0
 20
1.0
 30
0.0
  9
$USERI1
 70
     0
  9
$USERI2
 70
     0
  9
$USERI3
 70
     0
  9
$USERI4
 70
     0
  9
$USERI5
 70
     0
  9
$USERR1
 40
0.0
  9
$USERR2
 40
0.0
  9
$USERR3
 40
0.0
  9
$USERR4
 40
0.0
  9
$USERR5
 40
0.0
  9
$WORLDVIEW
 70
     1
  9
$SHADEDGE
 70
     3
  9
$SHADEDIF
 70
    70
  9
$TILEMODE
 70
     1
  9
$MAXACTVP
 70
    48
  9
$PLIMCHECK
 70
     0
  9
$PEXTMIN
 10
1.0000000000000000E+020
 20
1.0000000000000000E+020
 30
1.0000000000000000E+020
  9
$PEXTMAX
 10
-1.0000000000000000E+020
 20
-1.0000000000000000E+020
 30
-1.0000000000000000E+020
  9
$PLIMMIN
 10
0.0
 20
0.0
  9
$PLIMMAX
 10
420.0
 20
297.0
  9
$UNITMODE
 70
     0
  9
$VISRETAIN
 70
     1
  9
$PLINEGEN
 70
     0
  9
$PSLTSCALE
 70
     1
  0
ENDSEC
  0
SECTION
  2
TABLES
  0
TABLE
  2
VPORT
 70
     4
  0
VPORT
  2
*ACTIVE
 70
     0
 10
0.0
 20
0.0
 11
1.0
 21
1.0
 12
-531.10017082398167
 22
-447.36598767919338
 13
0.0
 23
0.0
 14
10.0
 24
10.0
 15
10.0
 25
10.0
 16
0.0
 26
0.0
 36
1.0
 17
0.0
 27
0.0
 37
0.0
 40
286.09103972358201
 41
1.7274401473296499
 42
50.0
 43
0.0
 44
0.0
 50
0.0
 51
0.0
 71
     0
 72
   100
 73
     1
 74
     1
 75
     0
 76
     0
 77
     0
 78
     0
  0
ENDTAB
  0
TABLE
  2
LTYPE
 70
     8
  0
LTYPE
  2
CONTINUOUS
 70
     0
  3
Solid line
 72
    65
 73
     0
 40
0.0
  0
LTYPE
  2
CENTER
 70
     0
  3
---- - ---- - ---- 3,-.3,.3,-.3
 72
    65
 73
     4
 40
3.8999999999999999
 49
3.0
 49
-0.3
 49
0.3
 49
-0.3
  0
LTYPE
  2
HIDDEN
 70
     0
  3
_ _ _ _ _ _ _ _ _ _ _ _ _ _ _ _ _ _ _ _ _ _ _
 72
    65
 73
     2
 40
0.375
 49
0.25
 49
-0.125
  0
ENDTAB
  0
TABLE
  2
LAYER
 70
     8
  0
LAYER
  2
0
 70
     0
 62
     7
  6
CONTINUOUS
  0
LAYER
  2
DEFPOINTS
 70
     0
 62
    -7
  6
CONTINUOUS
  0
LAYER
  2
DIM
 70
     0
 62
     5
  6
CONTINUOUS
  0
LAYER
  2
CENTER
 70
     0
 62
     1
  6
CENTER
  0
LAYER
  2
ASHADE
 70
     0
 62
     7
  6
CONTINUOUS
  0
LAYER
  2
LOGO
 70
     0
 62
     7
  6
CONTINUOUS
  0
LAYER
  2
HIDDEN
 70
     0
 62
     6
  6
HIDDEN
  0
ENDTAB
  0
TABLE
  2
STYLE
 70
    14
  0
STYLE
  2
STANDARD
 70
     0
 40
0.0
 41
1.0
 50
0.0
 71
     0
 42
25.0
  3
txt
  4

  0
STYLE
  2
CHINESET
 70
     0
 40
0.0
 41
1.0
 50
0.0
 71
     0
 42
10.0
  3
simplex.shx
  4
chineset.shx
  0
STYLE
  2
DAYUS
 70
     0
 40
0.0
 41
1.0
 50
0.0
 71
     0
 42
4.0
  3
simplex
  4
dayus
  0
STYLE
  2
LOGO
 70
     0
 40
0.0
 41
1.0
 50
0.0
 71
     0
 42
5.0
  3
txt
  4

  0
ENDTAB
  0
TABLE
  2
VIEW
 70
     0
  0
ENDTAB
  0
TABLE
  2
UCS
 70
     0
  0
ENDTAB
  0
TABLE
  2
APPID
 70
     6
  0
APPID
  2
ACAD
 70
     0
  0
APPID
  2
AD_DRAW
 70
     0
  0
APPID
  2
DESIGNERASSEMBLIES
 70
     0
  0
APPID
  2
MCAD_NO_VIS
 70
     0
  0
APPID
  2
ASURF_PCURVE_APPNAME
 70
     0
  0
APPID
  2
AVE_RENDER
 70
     0
  0
ENDTAB
  0
TABLE
  2
DIMSTYLE
 70
     3
  0
DIMSTYLE
  2
STANDARD
 70
     0
  3

  4

  5

  6

  7

 40
1.0
 41
3.0
 42
2.0
 43
2.0
 44
2.0
 45
0.0
 46
0.0
 47
0.0
 48
0.0
140
3.0
141
2.5
142
0.0
143
0.0394
144
1.0
145
0.0
146
1.0
147
1.0
 71
     0
 72
     0
 73
     0
 74
     0
 75
     0
 76
     0
 77
     1
 78
     8
170
     0
171
     4
172
     1
173
     0
174
     0
175
     0
176
   256
177
   256
178
   256
  0
ENDTAB
  0
ENDSEC
  0
SECTION
  2
BLOCKS
  0
BLOCK
  8
0
  2
$MODEL_SPACE
 70
     0
 10
0.0
 20
0.0
 30
0.0
  3
$MODEL_SPACE
  1

  0
ENDBLK
  5
7
  8
0
  0
BLOCK
 67
     1
  8
0
  2
$PAPER_SPACE
 70
     0
 10
0.0
 20
0.0
 30
0.0
  3
$PAPER_SPACE
  1

  0
ENDBLK
  5
A
 67
     1
  8
0
  0
BLOCK
  8
0
  2
*D18
 70
     1
 10
0.0
 20
0.0
 30
0.0
  3
*D18
  1

  0
LINE
  5
5C94
  8
DIM
 10
-435.64326948921661
 20
-451.71615035858059
 30
0.0
 11
-427.34652823012863
 21
-451.71615035858059
 31
0.0
  0
LINE
  5
5C95
  8
DIM
 10
-452.66486233412019
 20
-486.71615035858059
 30
0.0
 11
-427.34652823012863
 21
-486.71615035858059
 31
0.0
  0
LINE
  5
5C96
  8
DIM
 10
-429.34652823012851
 20
-454.71615035858059
 30
0.0
 11
-429.34652823012851
 21
-483.71615035858059
 31
0.0
  0
SOLID
  5
5C97
  8
DIM
 10
-429.84652823012851
 20
-454.71615035858059
 30
0.0
 11
-428.84652823012851
 21
-454.71615035858059
 31
0.0
 12
-429.34652823012851
 22
-451.71615035858059
 32
0.0
 13
-429.34652823012851
 23
-451.71615035858059
 33
0.0
  0
SOLID
  5
5C98
  8
DIM
 10
-429.84652823012851
 20
-483.71615035858059
 30
0.0
 11
-428.84652823012851
 21
-483.71615035858059
 31
0.0
 12
-429.34652823012851
 22
-486.71615035858059
 32
0.0
 13
-429.34652823012851
 23
-486.71615035858059
 33
0.0
  0
TEXT
  5
5C99
  8
0
 10
-430.34652823012851
 20
-471.64472178715221
 30
0.0
 40
3.0
  1
35
 50
90.0
  7
CHINESET
  0
POINT
  5
5C9A
  8
DEFPOINTS
 62
     0
 10
-437.64326948921661
 20
-451.71615035858059
 30
0.0
  0
POINT
  5
5C9B
  8
DEFPOINTS
 62
     0
 10
-454.66486233412019
 20
-486.71615035858059
 30
0.0
  0
POINT
  5
5C9C
  8
DEFPOINTS
 62
     0
 10
-429.34652823012851
 20
-486.71615035858059
 30
0.0
  0
ENDBLK
  5
4E4D
  8
0
  0
BLOCK
  8
0
  2
*D19
 70
     1
 10
0.0
 20
0.0
 30
0.0
  3
*D19
  1

  0
LINE
  5
5C8B
  8
DIM
 10
-455.31412735659848
 20
-414.71615035858071
 30
0.0
 11
-427.34652823012863
 21
-414.71615035858071
 31
0.0
  0
LINE
  5
5C8C
  8
DIM
 10
-435.64326948921661
 20
-451.71615035858059
 30
0.0
 11
-427.34652823012863
 21
-451.71615035858059
 31
0.0
  0
LINE
  5
5C8D
  8
DIM
 10
-429.34652823012851
 20
-417.71615035858059
 30
0.0
 11
-429.34652823012851
 21
-448.71615035858059
 31
0.0
  0
SOLID
  5
5C8E
  8
DIM
 10
-429.84652823012851
 20
-417.71615035858059
 30
0.0
 11
-428.84652823012851
 21
-417.71615035858059
 31
0.0
 12
-429.34652823012851
 22
-414.71615035858071
 32
0.0
 13
-429.34652823012851
 23
-414.71615035858071
 33
0.0
  0
SOLID
  5
5C8F
  8
DIM
 10
-429.84652823012851
 20
-448.71615035858059
 30
0.0
 11
-428.84652823012851
 21
-448.71615035858059
 31
0.0
 12
-429.34652823012851
 22
-451.71615035858059
 32
0.0
 13
-429.34652823012851
 23
-451.71615035858059
 33
0.0
  0
TEXT
  5
5C90
  8
0
 10
-430.3465282301284
 20
-435.64472178715209
 30
0.0
 40
3.0
  1
37
 50
90.0
  7
CHINESET
  0
POINT
  5
5C91
  8
DEFPOINTS
 62
     0
 10
-457.31412735659842
 20
-414.71615035858071
 30
0.0
  0
POINT
  5
5C92
  8
DEFPOINTS
 62
     0
 10
-437.64326948921661
 20
-451.71615035858059
 30
0.0
  0
POINT
  5
5C93
  8
DEFPOINTS
 62
     0
 10
-429.34652823012851
 20
-451.71615035858059
 30
0.0
  0
ENDBLK
  5
4E9C
  8
0
  0
BLOCK
  8
0
  2
*D20
 70
     1
 10
0.0
 20
0.0
 30
0.0
  3
*D20
  1

  0
LINE
  5
5C82
  8
DIM
 10
-474.12326948921663
 20
-395.98743117831691
 30
0.0
 11
-474.12326948921663
 21
-389.69353705744692
 31
0.0
  0
LINE
  5
5C83
  8
DIM
 10
-439.14326948921661
 20
-440.11615035858063
 30
0.0
 11
-439.14326948921661
 21
-389.69353705744692
 31
0.0
  0
LINE
  5
5C84
  8
DIM
 10
-471.12326948921663
 20
-391.69353705744692
 30
0.0
 11
-442.14326948921672
 21
-391.69353705744692
 31
0.0
  0
SOLID
  5
5C85
  8
DIM
 10
-471.12326948921663
 20
-391.19353705744697
 30
0.0
 11
-471.12326948921663
 21
-392.19353705744692
 31
0.0
 12
-474.12326948921663
 22
-391.69353705744692
 32
0.0
 13
-474.12326948921663
 23
-391.69353705744692
 33
0.0
  0
SOLID
  5
5C86
  8
DIM
 10
-442.14326948921672
 20
-391.19353705744697
 30
0.0
 11
-442.14326948921672
 21
-392.19353705744692
 31
0.0
 12
-439.14326948921661
 22
-391.69353705744692
 32
0.0
 13
-439.14326948921661
 23
-391.69353705744692
 33
0.0
  0
TEXT
  5
5C87
  8
0
 10
-459.061840917788
 20
-390.69353705744692
 30
0.0
 40
3.0
  1
35
  7
CHINESET
  0
POINT
  5
5C88
  8
DEFPOINTS
 62
     0
 10
-474.12326948921663
 20
-397.98743117831691
 30
0.0
  0
POINT
  5
5C89
  8
DEFPOINTS
 62
     0
 10
-439.14326948921661
 20
-442.11615035858063
 30
0.0
  0
POINT
  5
5C8A
  8
DEFPOINTS
 62
     0
 10
-439.14326948921661
 20
-391.69353705744692
 30
0.0
  0
ENDBLK
  5
4EA7
  8
0
  0
BLOCK
  8
0
  2
*D21
 70
     1
 10
0.0
 20
0.0
 30
0.0
  3
*D21
  1

  0
LINE
  5
59F6
  8
DIM
 10
-455.31412735659848
 20
-414.71615035858071
 30
0.0
 11
-415.13551380762323
 21
-414.71615035858071
 31
0.0
  0
LINE
  5
59F7
  8
DIM
 10
-448.36831722570901
 20
-516.21615035858065
 30
0.0
 11
-415.13551380762323
 21
-516.21615035858065
 31
0.0
  0
LINE
  5
59F8
  8
DIM
 10
-417.13551380762328
 20
-417.71615035858059
 30
0.0
 11
-417.13551380762328
 21
-513.21615035858065
 31
0.0
  0
SOLID
  5
59F9
  8
DIM
 10
-417.63551380762328
 20
-417.71615035858059
 30
0.0
 11
-416.63551380762323
 21
-417.71615035858059
 31
0.0
 12
-417.13551380762328
 22
-414.71615035858071
 32
0.0
 13
-417.13551380762328
 23
-414.71615035858071
 33
0.0
  0
SOLID
  5
59FA
  8
DIM
 10
-417.63551380762328
 20
-513.21615035858065
 30
0.0
 11
-416.63551380762323
 21
-513.21615035858065
 31
0.0
 12
-417.13551380762328
 22
-516.21615035858065
 32
0.0
 13
-417.13551380762328
 23
-516.21615035858065
 33
0.0
  0
TEXT
  5
59FB
  8
0
 10
-418.13551380762323
 20
-470.89472178715209
 30
0.0
 40
3.0
  1
101.5
 50
90.0
  7
CHINESET
  0
POINT
  5
59FC
  8
DEFPOINTS
 62
     0
 10
-457.31412735659842
 20
-414.71615035858071
 30
0.0
  0
POINT
  5
59FD
  8
DEFPOINTS
 62
     0
 10
-450.36831722570901
 20
-516.21615035858065
 30
0.0
  0
POINT
  5
59FE
  8
DEFPOINTS
 62
     0
 10
-417.13551380762328
 20
-516.21615035858065
 30
0.0
  0
ENDBLK
  5
4E15
  8
0
  0
BLOCK
  8
0
  2
*D22
 70
     1
 10
0.0
 20
0.0
 30
0.0
  3
*D22
  1

  0
LINE
  5
59DB
  8
DIM
 10
-452.66486233412019
 20
-486.71615035858059
 30
0.0
 11
-427.34652823012863
 21
-486.71615035858059
 31
0.0
  0
LINE
  5
59DC
  8
DIM
 10
-448.36831722570901
 20
-516.21615035858065
 30
0.0
 11
-427.34652823012863
 21
-516.21615035858065
 31
0.0
  0
LINE
  5
59DD
  8
DIM
 10
-429.34652823012851
 20
-489.71615035858059
 30
0.0
 11
-429.34652823012851
 21
-513.21615035858065
 31
0.0
  0
SOLID
  5
59DE
  8
DIM
 10
-429.84652823012851
 20
-489.71615035858059
 30
0.0
 11
-428.84652823012851
 21
-489.71615035858059
 31
0.0
 12
-429.34652823012851
 22
-486.71615035858059
 32
0.0
 13
-429.34652823012851
 23
-486.71615035858059
 33
0.0
  0
SOLID
  5
59DF
  8
DIM
 10
-429.84652823012851
 20
-513.21615035858065
 30
0.0
 11
-428.84652823012851
 21
-513.21615035858065
 31
0.0
 12
-429.34652823012851
 22
-516.21615035858065
 32
0.0
 13
-429.34652823012851
 23
-516.21615035858065
 33
0.0
  0
TEXT
  5
59E0
  8
0
 10
-430.34652823012851
 20
-506.03757893000932
 30
0.0
 40
3.0
  1
29.5
 50
90.0
  7
CHINESET
  0
POINT
  5
59E1
  8
DEFPOINTS
 62
     0
 10
-454.66486233412019
 20
-486.71615035858059
 30
0.0
  0
POINT
  5
59E2
  8
DEFPOINTS
 62
     0
 10
-450.36831722570901
 20
-516.21615035858065
 30
0.0
  0
POINT
  5
59E3
  8
DEFPOINTS
 62
     0
 10
-429.34652823012851
 20
-516.21615035858065
 30
0.0
  0
ENDBLK
  5
4E63
  8
0
  0
BLOCK
  8
0
  2
AVE_RENDER
 70
     0
 10
0.0
 20
0.0
 30
0.0
  3
AVE_RENDER
  1
AVE_RENDER
  0
ENDBLK
  5
2C5C
  8
0
  0
BLOCK
  8
0
  2
*D82
 70
     1
 10
0.0
 20
0.0
 30
0.0
  3
*D82
  1

  0
LINE
  5
5CAC
  8
DIM
 10
-619.67607258061128
 20
-344.41793043884098
 30
0.0
 11
-647.16973364817841
 21
-344.41793043884093
 31
0.0
  0
LINE
  5
5CAD
  8
DIM
 10
-619.67607258061093
 20
-397.41750643884097
 30
0.0
 11
-647.16973364817841
 21
-397.41750643884097
 31
0.0
  0
LINE
  5
5CAE
  8
DIM
 10
-645.16973364817841
 20
-347.41793043884093
 30
0.0
 11
-645.16973364817841
 21
-394.41750643884097
 31
0.0
  0
SOLID
  5
5CAF
  8
DIM
 10
-645.66973364817829
 20
-347.41793043884093
 30
0.0
 11
-644.66973364817841
 21
-347.41793043884093
 31
0.0
 12
-645.16973364817841
 22
-344.41793043884093
 32
0.0
 13
-645.16973364817841
 23
-344.41793043884093
 33
0.0
  0
SOLID
  5
5CB0
  8
DIM
 10
-645.66973364817829
 20
-394.41750643884097
 30
0.0
 11
-644.66973364817841
 21
-394.41750643884097
 31
0.0
 12
-645.16973364817841
 22
-397.41750643884097
 32
0.0
 13
-645.16973364817841
 23
-397.41750643884097
 33
0.0
  0
TEXT
  8
0
  40
3
  5
5EBB
  72
0
  71
0
 10
-653.670
 20
-376.228
 30
0.000000
  1
53
  7
CHINESET
  0
POINT
  5
5CB2
  8
DEFPOINTS
 62
     0
 10
-617.67607258061116
 20
-344.41793043884098
 30
0.0
  0
POINT
  5
5CB3
  8
DEFPOINTS
 62
     0
 10
-617.67607258061093
 20
-397.41750643884097
 30
0.0
  0
POINT
  5
5CB4
  8
DEFPOINTS
 62
     0
 10
-645.16973364817841
 20
-397.41750643884097
 30
0.0
  0
ENDBLK
  5
4D95
  8
0
  0
BLOCK
  8
0
  2
*D83
 70
     1
 10
0.0
 20
0.0
 30
0.0
  3
*D83
  1

  0
LINE
  5
59B7
  8
DIM
 10
-619.67607258061093
 20
-397.41750643884097
 30
0.0
 11
-658.44904490236604
 21
-397.41750643884097
 31
0.0
  0
LINE
  5
59B8
  8
DIM
 10
-635.99016767307455
 20
-335.91750643884109
 30
0.0
 11
-658.44904490236604
 21
-335.91750643884097
 31
0.0
  0
LINE
  5
59B9
  8
DIM
 10
-656.44904490236604
 20
-394.41750643884097
 30
0.0
 11
-656.44904490236604
 21
-338.91750643884097
 31
0.0
  0
SOLID
  5
59BA
  8
DIM
 10
-656.94904490236604
 20
-394.41750643884097
 30
0.0
 11
-655.94904490236604
 21
-394.41750643884097
 31
0.0
 12
-656.44904490236604
 22
-397.41750643884097
 32
0.0
 13
-656.44904490236604
 23
-397.41750643884097
 33
0.0
  0
SOLID
  5
59BB
  8
DIM
 10
-656.94904490236604
 20
-338.91750643884097
 30
0.0
 11
-655.94904490236604
 21
-338.91750643884097
 31
0.0
 12
-656.44904490236604
 22
-335.91750643884097
 32
0.0
 13
-656.44904490236604
 23
-335.91750643884097
 33
0.0
  0
TEXT
  5
59BC
  8
0
 10
-657.44904490236593
 20
-370.95322072455542
 30
0.0
 40
3.0
  1
61.5
 50
90.0
  7
CHINESET
  0
POINT
  5
59BD
  8
DEFPOINTS
 62
     0
 10
-617.67607258061093
 20
-397.41750643884097
 30
0.0
  0
POINT
  5
59BE
  8
DEFPOINTS
 62
     0
 10
-633.99016767307467
 20
-335.91750643884109
 30
0.0
  0
POINT
  5
59BF
  8
DEFPOINTS
 62
     0
 10
-656.44904490236604
 20
-335.91750643884097
 30
0.0
  0
ENDBLK
  5
4DA1
  8
0
  0
BLOCK
  8
0
  2
*D84
 70
     1
 10
0.0
 20
0.0
 30
0.0
  3
*D84
  1

  0
LINE
  5
59E4
  8
DIM
 10
-583.99016767307489
 20
-442.11615035858023
 30
0.0
 11
-566.10403379966101
 21
-442.11615035858023
 31
0.0
  0
LINE
  5
59E5
  8
DIM
 10
-578.68905811057482
 20
-465.11615035858063
 30
0.0
 11
-566.10403379966101
 21
-465.11615035858063
 31
0.0
  0
LINE
  5
59E6
  8
DIM
 10
-568.10403379966101
 20
-445.11615035858011
 30
0.0
 11
-568.10403379966101
 21
-462.11615035858063
 31
0.0
  0
SOLID
  5
59E7
  8
DIM
 10
-568.60403379966101
 20
-445.11615035858011
 30
0.0
 11
-567.6040337996609
 21
-445.11615035858011
 31
0.0
 12
-568.10403379966101
 22
-442.11615035858023
 32
0.0
 13
-568.10403379966101
 23
-442.11615035858023
 33
0.0
  0
SOLID
  5
59E8
  8
DIM
 10
-568.60403379966101
 20
-462.11615035858063
 30
0.0
 11
-567.6040337996609
 21
-462.11615035858063
 31
0.0
 12
-568.10403379966101
 22
-465.11615035858063
 32
0.0
 13
-568.10403379966101
 23
-465.11615035858063
 33
0.0
  0
TEXT
  5
59E9
  8
0
 10
-569.1040337996609
 20
-456.04472178715179
 30
0.0
 40
3.0
  1
23
 50
90.0
  7
CHINESET
  0
POINT
  5
59EA
  8
DEFPOINTS
 62
     0
 10
-585.99016767307489
 20
-442.11615035858023
 30
0.0
  0
POINT
  5
59EB
  8
DEFPOINTS
 62
     0
 10
-580.68905811057482
 20
-465.11615035858063
 30
0.0
  0
POINT
  5
59EC
  8
DEFPOINTS
 62
     0
 10
-568.10403379966101
 20
-465.11615035858063
 30
0.0
  0
ENDBLK
  5
4DAD
  8
0
  0
BLOCK
  8
0
  2
*D85
 70
     1
 10
0.0
 20
0.0
 30
0.0
  3
*D85
  1

  0
LINE
  5
59A5
  8
DIM
 10
-625.49016767307489
 20
-330.01071876822812
 30
0.0
 11
-625.49016767307489
 21
-324.70386851813311
 31
0.0
  0
LINE
  5
59A6
  8
DIM
 10
-589.49016767307501
 20
-330.01071876822812
 30
0.0
 11
-589.49016767307501
 21
-324.70386851813311
 31
0.0
  0
LINE
  5
59A7
  8
DIM
 10
-622.49016767307501
 20
-326.70386851813311
 30
0.0
 11
-592.49016767307489
 21
-326.70386851813311
 31
0.0
  0
SOLID
  5
59A8
  8
DIM
 10
-622.49016767307501
 20
-326.20386851813311
 30
0.0
 11
-622.49016767307501
 21
-327.20386851813311
 31
0.0
 12
-625.49016767307489
 22
-326.70386851813311
 32
0.0
 13
-625.49016767307489
 23
-326.70386851813311
 33
0.0
  0
SOLID
  5
59A9
  8
DIM
 10
-592.49016767307489
 20
-326.20386851813311
 30
0.0
 11
-592.49016767307489
 21
-327.20386851813311
 31
0.0
 12
-589.49016767307501
 22
-326.70386851813311
 32
0.0
 13
-589.49016767307501
 23
-326.70386851813311
 33
0.0
  0
TEXT
  5
59AA
  8
0
 10
-609.84731053021778
 20
-325.70386851813311
 30
0.0
 40
3.0
  1
36
  7
CHINESET
  0
POINT
  5
59AB
  8
DEFPOINTS
 62
     0
 10
-625.49016767307489
 20
-332.01071876822812
 30
0.0
  0
POINT
  5
59AC
  8
DEFPOINTS
 62
     0
 10
-589.49016767307501
 20
-332.01071876822812
 30
0.0
  0
POINT
  5
59AD
  8
DEFPOINTS
 62
     0
 10
-589.49016767307501
 20
-326.70386851813311
 30
0.0
  0
ENDBLK
  5
4DB9
  8
0
  0
BLOCK
  8
0
  2
*D86
 70
     1
 10
0.0
 20
0.0
 30
0.0
  3
*D86
  1

  0
LINE
  5
59AE
  8
DIM
 10
-633.99016767307467
 20
-333.91750643884109
 30
0.0
 11
-633.99016767307467
 21
-317.35195523089249
 31
0.0
  0
LINE
  5
59AF
  8
DIM
 10
-580.99016767307467
 20
-333.91750643884109
 30
0.0
 11
-580.99016767307467
 21
-317.35195523089249
 31
0.0
  0
LINE
  5
59B0
  8
DIM
 10
-630.99016767307455
 20
-319.35195523089249
 30
0.0
 11
-583.99016767307478
 21
-319.35195523089249
 31
0.0
  0
SOLID
  5
59B1
  8
DIM
 10
-630.99016767307455
 20
-318.85195523089249
 30
0.0
 11
-630.99016767307455
 21
-319.85195523089237
 31
0.0
 12
-633.99016767307467
 22
-319.35195523089249
 32
0.0
 13
-633.99016767307467
 23
-319.35195523089249
 33
0.0
  0
SOLID
  5
59B2
  8
DIM
 10
-583.99016767307478
 20
-318.85195523089249
 30
0.0
 11
-583.99016767307478
 21
-319.85195523089237
 31
0.0
 12
-580.99016767307467
 22
-319.35195523089249
 32
0.0
 13
-580.99016767307467
 23
-319.35195523089249
 33
0.0
  0
TEXT
  5
59B3
  8
0
 10
-609.91873910164611
 20
-318.35195523089237
 30
0.0
 40
3.0
  1
53
  7
CHINESET
  0
POINT
  5
59B4
  8
DEFPOINTS
 62
     0
 10
-633.99016767307467
 20
-335.91750643884109
 30
0.0
  0
POINT
  5
59B5
  8
DEFPOINTS
 62
     0
 10
-580.99016767307467
 20
-335.91750643884109
 30
0.0
  0
POINT
  5
59B6
  8
DEFPOINTS
 62
     0
 10
-580.99016767307467
 20
-319.35195523089249
 30
0.0
  0
ENDBLK
  5
4DC5
  8
0
  0
BLOCK
  8
0
  2
*D92
 70
     1
 10
0.0
 20
0.0
 30
0.0
  3
*D92
  1

  0
LINE
  5
59C9
  8
DIM
 10
-474.12326948921663
 20
-395.98743117831691
 30
0.0
 11
-474.12326948921663
 21
-389.69353705744692
 31
0.0
  0
LINE
  5
59CA
  8
DIM
 10
-534.12327128820925
 20
-462.21615035858071
 30
0.0
 11
-534.12327128820925
 21
-389.69353705744692
 31
0.0
  0
LINE
  5
59CB
  8
DIM
 10
-477.12326948921663
 20
-391.69353705744692
 30
0.0
 11
-531.12327128820937
 21
-391.69353705744692
 31
0.0
  0
SOLID
  5
59CC
  8
DIM
 10
-477.12326948921663
 20
-391.19353705744697
 30
0.0
 11
-477.12326948921663
 21
-392.19353705744692
 31
0.0
 12
-474.12326948921663
 22
-391.69353705744692
 32
0.0
 13
-474.12326948921663
 23
-391.69353705744692
 33
0.0
  0
SOLID
  5
59CD
  8
DIM
 10
-531.12327128820937
 20
-391.19353705744697
 30
0.0
 11
-531.12327128820937
 21
-392.19353705744692
 31
0.0
 12
-534.12327128820925
 22
-391.69353705744692
 32
0.0
 13
-534.12327128820925
 23
-391.69353705744692
 33
0.0
  0
TEXT
  5
59CE
  8
0
 10
-506.5518418172843
 20
-390.69353705744692
 30
0.0
 40
3.0
  1
60
  7
CHINESET
  0
POINT
  5
59CF
  8
DEFPOINTS
 62
     0
 10
-474.12326948921663
 20
-397.98743117831691
 30
0.0
  0
POINT
  5
59D0
  8
DEFPOINTS
 62
     0
 10
-534.12327128820925
 20
-464.21615035858071
 30
0.0
  0
POINT
  5
59D1
  8
DEFPOINTS
 62
     0
 10
-534.12327128820925
 20
-391.69353705744692
 30
0.0
  0
ENDBLK
  5
4E91
  8
0
  0
BLOCK
  8
0
  2
*U166
 70
     1
 10
0.0
 20
0.0
 30
0.0
  3
*U166
  1

  0
TEXT
  5
5CA2
  8
0
 10
-564.22334626172324
 20
-475.57760372906949
 30
0.0
 40
3.0
  1
2-
  7
CHINESET
  0
TEXT
  5
5CA3
  8
0
 10
-557.65191769029457
 20
-475.57760372906949
 30
0.0
 40
3.0
  1
\U+2205
  7
CHINESET
  0
TEXT
  5
5CA4
  8
0
 10
-554.9376319760089
 20
-475.57760372906949
 30
0.0
 40
3.0
  1
6.5*15
  7
CHINESET
  0
ENDBLK
  5
5CA6
  8
0
  0
BLOCK
  8
0
  2
*U167
 70
     1
 10
0.0
 20
0.0
 30
0.0
  3
*U167
  1

  0
TEXT
  5
5CE1
  8
0
 62
     0
 10
-162.44200916414269
 20
242.22272517815961
 30
0.0
 40
3.0
  1
入口\U+220510.1
  7
CHINESET
  0
TEXT
  5
5CE2
  8
0
 62
     0
 10
-144.87058059271419
 20
242.8227251781596
 30
0.0
 40
1.8
  1
±0.1
  7
CHINESET
  0
TEXT
  5
5CE3
  8
0
 62
     0
 10
-139.127723449857
 20
242.22272517815961
 30
0.0
 40
3.0
  1
 8mm處\U+220510
  7
CHINESET
  0
TEXT
  5
5CE4
  8
0
 62
     0
 10
-114.127723449857
 20
242.8227251781596
 30
0.0
 40
1.8
  1
±0.1
  7
CHINESET
  0
ENDBLK
  5
5CE6
  8
0
  0
BLOCK
  8
0
  2
*U168
 70
     1
 10
0.0
 20
0.0
 30
0.0
  3
*U168
  1

  0
TEXT
  5
5CE8
  8
0
 62
     0
 10
-151.8643677960724
 20
250.59719299930489
 30
0.0
 40
3.0
  1
入口\U+220514底部\U+220514.3
  7
CHINESET
  0
TEXT
  5
5CE9
  8
0
 62
     0
 10
-119.8643677960724
 20
251.19719299930489
 30
0.0
 40
1.8
  1
±0.1
  7
CHINESET
  0
ENDBLK
  5
5CEB
  8
0
  0
BLOCK
  8
0
  2
*U169
 70
     1
 10
0.0
 20
0.0
 30
0.0
  3
*U169
  1

  0
TEXT
  5
5CED
  8
0
 62
     0
 10
-193.14132421869229
 20
157.13864028413079
 30
0.0
 40
3.0
  1
\U+220525.7
  7
CHINESET
  0
TEXT
  5
5CEE
  8
0
 62
     0
 10
-180.4270385044066
 20
157.73864028413081
 30
0.0
 40
1.8
  1
±0.1
  7
CHINESET
  0
ENDBLK
  5
5CF0
  8
0
  0
BLOCK
  8
0
  2
*U170
 70
     1
 10
0.0
 20
0.0
 30
0.0
  3
*U170
  1

  0
TEXT
  5
5E47
  8
0
 62
     0
 10
-158.11379625566491
 20
192.4687406228179
 30
0.0
 40
3.0
  1
\U+220510.2
 50
90.0
  7
CHINESET
  0
TEXT
  5
5E48
  8
0
 62
     0
 10
-159.91379625566489
 20
204.61159776567499
 30
0.0
 40
1.8
  1
+0.1
 50
90.0
  7
CHINESET
  0
TEXT
  5
5E49
  8
0
 62
     0
 10
-157.51379625566489
 20
204.61159776567499
 30
0.0
 40
1.8
  1
-0
 50
90.0
  7
CHINESET
  0
ENDBLK
  5
5E4B
  8
0
  0
BLOCK
  8
0
  2
*U171
 70
     1
 10
0.0
 20
0.0
 30
0.0
  3
*U171
  1

  0
TEXT
  5
5E64
  8
0
 62
     0
 10
-201.8199946733771
 20
201.97449427332731
 30
0.0
 40
3.0
  1
\U+2205\U+220542.2
 50
41.007164688260588
  7
DAYUS
  0
TEXT
  5
5E65
  8
0
 62
     0
 10
-190.57086187360139
 20
212.55078036909569
 30
0.0
 40
1.8
  1
±0.2
 50
41.007164688260588
  7
DAYUS
  0
ENDBLK
  5
5E67
  8
0
  0
BLOCK
  8
0
  2
*U172
 70
     1
 10
0.0
 20
0.0
 30
0.0
  3
*U172
  1

  0
TEXT
  5
5E69
  8
0
 62
     0
 10
-198.6240435978915
 20
120.7938903502161
 30
0.0
 40
3.0
  1
38
  7
DAYUS
  0
TEXT
  5
5E6A
  8
0
 62
     0
 10
-192.90975788360581
 20
121.3938903502161
 30
0.0
 40
1.8
  1
±0.3
  7
DAYUS
  0
ENDBLK
  5
5E6C
  8
0
  0
ENDSEC
  0
SECTION
  2
ENTITIES
  0
INSERT
  5
20
  8
0
  2
*U166
 10
0.0
 20
0.0
 30
0.0
  0
POLYLINE
  8
0
  5
5EBC
  66
     1
 10
0.000000
 20
0.000000
 30
0.000000
  70
     8
  0
VERTEX
  8
0
  5
5EBD
 10
-585.962
 20
-452.984
 30
0.000000
  70
    32
  0
VERTEX
  8
0
  5
5EBE
 10
-568.223
 20
-476.578
 30
0.000000
  70
    32
  0
VERTEX
  8
0
  5
5EBF
 10
-565.223
 20
-476.578
 30
0.000000
  70
    32
  0
SEQEND
  8
0
  5
5EC0
  0
POLYLINE
  5
22
  8
0
 62
     4
 66
     1
 10
0.0
 20
0.0
 30
0.0
 70
     1
  0
VERTEX
  5
5CA7
  8
0
 62
     4
 10
-677.81923935869827
 20
-537.43850882928939
 30
0.0
  0
VERTEX
  5
5CA8
  8
0
 62
     4
 10
-384.35652000245221
 20
-537.43850882928939
 30
0.0
  0
VERTEX
  5
5CA9
  8
0
 62
     4
 10
-384.35652000245221
 20
-305.90840145697308
 30
0.0
  0
VERTEX
  5
5CAA
  8
0
 62
     4
 10
-677.81923935869827
 20
-305.90840145697308
 30
0.0
  0
SEQEND
  5
5CAB
  8
0
 62
     4
  0
LINE
  5
6D
  8
0
 62
     7
 10
-580.68905811057482
 20
-472.94341525858061
 30
0.0
 11
-580.68905811057493
 21
-497.74339045858068
 31
0.0
  0
LINE
  5
6E
  8
0
 62
     7
 10
-597.22483702932482
 20
-465.11615035858068
 30
0.0
 11
-597.22483702932482
 21
-506.07633667108081
 31
0.0
  0
LINE
  5
6F
  8
0
 62
     7
 10
-586.25155254807476
 20
-465.11615035858063
 30
0.0
 11
-586.25155254807476
 21
-506.07633667108081
 31
0.0
  0
LINE
  5
70
  8
0
 62
     7
 10
-580.68905811057482
 20
-472.80250630858058
 30
0.0
 11
-580.68905811057482
 21
-497.8842994085806
 31
0.0
  0
LINE
  5
71
  8
0
 10
-628.72878279807469
 20
-465.11615035858063
 30
0.0
 11
-628.72878279807469
 21
-506.07633667108081
 31
0.0
  0
LINE
  5
72
  8
0
 10
-634.29127723557474
 20
-472.80250630858058
 30
0.0
 11
-634.29127723557474
 21
-497.8842994085806
 31
0.0
  0
LINE
  5
73
  8
0
 10
-617.75549831682486
 20
-465.11615035858063
 30
0.0
 11
-617.75549831682486
 21
-506.07633667108081
 31
0.0
  0
LINE
  5
74
  8
CENTER
  6
CENTER
 10
-607.49016767307489
 20
-518.43791770841335
 30
0.0
 11
-607.49016767307489
 21
-405.16059079139262
 31
0.0
  0
LINE
  5
33C
  8
0
 10
-582.04426032196693
 20
-516.21615035858065
 30
0.0
 11
-632.59243129807464
 21
-516.21615035858065
 31
0.0
  0
LINE
  5
33D
  8
0
 62
     7
 10
-580.68905811057493
 20
-513.6099922597499
 30
0.0
 11
-634.29127723557474
 21
-513.6099922597499
 31
0.0
  0
LINE
  5
33E
  8
0
 62
     7
 10
-634.29127723557474
 20
-506.07633667108081
 30
0.0
 11
-580.68905811057482
 21
-506.07633667108081
 31
0.0
  0
LINE
  5
34A
  8
0
 10
-634.29127723557474
 20
-502.13202243358069
 30
0.0
 11
-634.29127723557474
 21
-513.6099922597499
 31
0.0
  0
LINE
  5
34B
  8
0
 10
-634.29127723557474
 20
-513.6099922597499
 30
0.0
 11
-632.59243129807464
 21
-516.21615035858065
 31
0.0
  0
LINE
  5
34C
  8
0
 10
-634.29127723557474
 20
-497.8842994085806
 30
0.0
 11
-632.1674157230749
 21
-498.2888444585808
 31
0.0
  0
LINE
  5
34D
  8
0
 10
-632.1674157230749
 20
-501.72747738358061
 30
0.0
 11
-634.29127723557474
 21
-502.13202243358069
 31
0.0
  0
LINE
  5
34E
  8
0
 10
-632.1674157230749
 20
-498.2888444585808
 30
0.0
 11
-632.1674157230749
 21
-501.72747738358061
 31
0.0
  0
LINE
  5
34F
  8
0
 10
-632.52139264182472
 20
-477.25250185858062
 30
0.0
 11
-632.52139264182472
 21
-493.43430385858068
 31
0.0
  0
LINE
  5
350
  8
0
 10
-631.25718936057456
 20
-475.22977660858072
 30
0.0
 11
-631.25718936057456
 21
-494.99118740693501
 31
0.0
  0
LINE
  5
351
  8
0
 10
-632.52139264182472
 20
-493.43430385858068
 30
0.0
 11
-631.25718936057456
 21
-494.99118740693501
 31
0.0
  0
LINE
  5
352
  8
0
 10
-631.25718936057456
 20
-494.99118740693501
 30
0.0
 11
-634.29127723557474
 21
-494.99118740693501
 31
0.0
  0
LINE
  5
353
  8
0
 10
-632.52139264182472
 20
-493.43430385858068
 30
0.0
 11
-634.29127723557474
 21
-493.43430385858068
 31
0.0
  0
LINE
  5
354
  8
0
 10
-631.25718936057456
 20
-475.22977660858072
 30
0.0
 11
-634.29127723557474
 21
-475.22977660858072
 31
0.0
  0
LINE
  5
355
  8
0
 10
-632.52139264182472
 20
-477.25250185858062
 30
0.0
 11
-631.25718936057456
 21
-475.22977660858072
 31
0.0
  0
LINE
  5
356
  8
0
 10
-632.52139264182472
 20
-477.25250185858062
 30
0.0
 11
-634.29127723557474
 21
-477.25250185858062
 31
0.0
  0
LINE
  5
359
  8
0
 62
     7
 10
-598.38790404807492
 20
-506.07633667108081
 30
0.0
 11
-580.68905811057482
 21
-506.07633667108081
 31
0.0
  0
ARC
  5
35A
  8
0
 62
     7
 10
-616.38031410666065
 20
-499.77349345072111
 30
0.0
 40
6.9531180468749989
 50
336.19831117982829
 51
23.80168881339473
  0
LINE
  5
35B
  8
0
 62
     7
 10
-609.67416446129209
 20
-496.63922081791497
 30
0.0
 11
-603.85791431156042
 21
-499.54734589855269
 31
0.0
  0
LINE
  5
362
  8
0
 62
     7
 10
-609.67416446179675
 20
-502.90776608438722
 30
0.0
 11
-603.85791431156042
 21
-499.999641014433
 31
0.0
  0
ARC
  5
363
  8
0
 62
     7
 10
-609.78723824060614
 20
-502.68161852636678
 30
0.0
 40
0.25284065625
 50
156.19831117979169
 51
296.5650511363749
  0
ARC
  5
364
  8
0
 62
     7
 10
-603.97098809053045
 20
-499.77349345649282
 30
0.0
 40
0.25284065625
 50
296.56505117707741
 51
63.434948822921513
  0
CIRCLE
  5
366
  8
0
 62
     7
 10
-607.49016767307467
 20
-485.71615035858071
 30
0.0
 40
4.677552140625
  0
CIRCLE
  5
367
  8
0
 62
     7
 10
-607.49016767307467
 20
-485.71615035858071
 30
0.0
 40
4.2982911562499977
  0
LINE
  5
368
  8
CENTER
  6
CENTER
 10
-614.0323483230859
 20
-485.71615035858071
 30
0.0
 11
-599.34913286197934
 21
-485.71615035858071
 31
0.0
  0
ARC
  5
36B
  8
0
 62
     7
 10
-609.78723824026224
 20
-496.86536837585521
 30
0.0
 40
0.25284065625
 50
63.434948822928789
 51
203.80168881342649
  0
LINE
  5
36D
  8
0
 62
     7
 10
-580.68905811057493
 20
-501.94338625858057
 30
0.0
 11
-580.68905811057505
 21
-513.60999225974967
 31
0.0
  0
LINE
  5
36E
  8
0
 62
     7
 10
-582.04426032196693
 20
-516.21615035858065
 30
0.0
 11
-580.68905811057505
 21
-513.6099922597499
 31
0.0
  0
LINE
  5
36F
  8
0
 62
     7
 10
-582.81291962307466
 20
-498.2888444585808
 30
0.0
 11
-580.68905811057482
 21
-497.8842994085806
 31
0.0
  0
LINE
  5
370
  8
0
 62
     7
 10
-582.81291962307466
 20
-501.72747738358061
 30
0.0
 11
-580.68905811057482
 21
-502.13202243358069
 31
0.0
  0
LINE
  5
371
  8
0
 62
     7
 10
-582.81291962307466
 20
-498.2888444585808
 30
0.0
 11
-582.81291962307466
 21
-501.72747738358061
 31
0.0
  0
LINE
  5
372
  8
0
 62
     7
 10
-582.03905811057484
 20
-493.8434028585807
 30
0.0
 11
-582.03905811057484
 21
-476.8434028585807
 31
0.0
  0
LINE
  5
373
  8
0
 62
     7
 10
-583.5890581105748
 20
-496.34340285858059
 30
0.0
 11
-583.5890581105748
 21
-474.3434028585807
 31
0.0
  0
LINE
  5
374
  8
0
 62
     7
 10
-583.5890581105748
 20
-496.34340285858059
 30
0.0
 11
-582.03905811057484
 21
-493.8434028585807
 31
0.0
  0
LINE
  5
375
  8
0
 62
     7
 10
-583.5890581105748
 20
-496.34340285858059
 30
0.0
 11
-580.68905811057459
 21
-496.34340285858059
 31
0.0
  0
LINE
  5
376
  8
0
 62
     7
 10
-582.03905811057484
 20
-493.8434028585807
 30
0.0
 11
-580.68905811057459
 21
-493.8434028585807
 31
0.0
  0
LINE
  5
377
  8
0
 62
     7
 10
-580.68905811057493
 20
-476.8434028585807
 30
0.0
 11
-582.03905811057484
 21
-476.8434028585807
 31
0.0
  0
LINE
  5
378
  8
0
 62
     7
 10
-583.5890581105748
 20
-474.3434028585807
 30
0.0
 11
-582.03905811057484
 21
-476.8434028585807
 31
0.0
  0
LINE
  5
379
  8
0
 62
     7
 10
-583.5890581105748
 20
-474.3434028585807
 30
0.0
 11
-580.68905811057493
 21
-474.3434028585807
 31
0.0
  0
LINE
  5
37A
  8
0
 62
     7
 10
-583.5890581105748
 20
-474.3434028585807
 30
0.0
 11
-580.68905811057493
 21
-474.3434028585807
 31
0.0
  0
DIMENSION
  5
593
  8
DIM
  2
*D82
 10
-645.16973364817841
 20
-397.41750643884097
 30
0.0
 11
-647.66973364817829
 21
-370.91771843884112
 31
0.0
 70
     0
 13
-617.67607258061116
 23
-344.41793043884098
 33
0.0
 14
-617.67607258061093
 24
-397.41750643884097
 34
0.0
 50
90.0
1001
ACAD
1000
DSTYLE
1002
{
1070
   287
1070
     3
1070
   279
1070
     0
1002
}
  0
DIMENSION
  5
5A0
  8
DIM
  2
*D83
 10
-656.44904490236604
 20
-335.91750643884097
 30
0.0
 11
-658.94904490236593
 21
-366.66750643884109
 31
0.0
 70
     0
 13
-617.67607258061093
 23
-397.41750643884097
 33
0.0
 14
-633.99016767307467
 24
-335.91750643884109
 34
0.0
 50
90.0
1001
ACAD
1000
DSTYLE
1002
{
1070
    40
1040
1.0
1002
}
  0
LINE
  5
5AD
  8
0
 62
     7
 10
-580.99059167307473
 20
-355.91773343884091
 30
0.0
 11
-580.99059167307064
 21
-385.9177034388411
 31
0.0
  0
LINE
  5
5AE
  8
0
 10
-633.99016767307478
 20
-355.91783843884099
 30
0.0
 11
-633.99016767307478
 21
-385.91759843884091
 31
0.0
  0
CIRCLE
  5
5AF
  8
0
 62
     7
 10
-607.4903796730747
 20
-370.91771843884089
 30
0.0
 40
13.674596972672919
  0
LINE
  5
5B0
  8
CENTER
  6
CENTER
 10
-607.4903796730747
 20
-332.83905441126939
 30
0.0
 11
-607.4903796730747
 21
-400.20254011686711
 31
0.0
  0
CIRCLE
  5
5B1
  8
0
 62
     7
 10
-607.4903796730747
 20
-370.91771843884112
 30
0.0
 40
22.472090047427969
  0
CIRCLE
  5
5B2
  8
0
 62
     7
 10
-607.4903796730747
 20
-370.91771843884089
 30
0.0
 40
19.467710731389499
  0
ARC
  5
5B3
  8
0
 62
     7
 10
-607.48896767307508
 20
-370.78983706980279
 30
0.0
 40
23.40324036129747
 50
196.2042281887332
 51
343.7957718112666
  0
LINE
  5
5B4
  8
0
 10
-625.11265273642005
 20
-414.71615035858071
 30
0.0
 11
-589.81771625603858
 21
-414.71615035858071
 31
0.0
  0
LINE
  5
5B5
  8
0
 10
-619.93028084487969
 20
-417.92519797236042
 30
0.0
 11
-619.56423156747405
 21
-414.71615035858059
 31
0.0
  0
LINE
  5
5B6
  8
0
 10
-619.93028084487969
 20
-449.14654816919511
 30
0.0
 11
-615.57479481283463
 21
-449.14654816919523
 31
0.0
  0
LINE
  5
5B7
  8
0
 62
     7
 10
-588.23485358572634
 20
-451.18020285858063
 30
0.0
 11
-626.74548176042344
 21
-451.1802028585804
 31
0.0
  0
ARC
  5
5B8
  8
0
 10
-615.51737464103712
 20
-385.91759843884108
 30
0.0
 40
9.9999199999999995
 50
208.30075576600629
 51
269.99999999999977
  0
LINE
  5
5B9
  8
0
 10
-623.56696767307494
 20
-453.44126183453392
 30
0.0
 11
-620.75352767307481
 21
-452.68740285858053
 31
0.0
  0
LINE
  5
5BA
  8
0
 10
-621.95616767307479
 20
-457.71526890424502
 30
0.0
 11
-624.7696076730748
 21
-456.96140992829152
 31
0.0
  0
ARC
  5
5BB
  8
0
 10
-625.49016767307489
 20
-450.11615035858023
 30
0.0
 40
3.25
 50
270.0
 51
340.88891152246242
  0
LINE
  5
5BC
  8
0
 62
     7
 10
-629.59576767307465
 20
-456.9075628585806
 30
0.0
 11
-585.38456767307491
 21
-456.9075628585806
 31
0.0
  0
LINE
  5
5BD
  8
0
 62
     7
 10
-634.29127723557474
 20
-465.11615035857972
 30
0.0
 11
-580.68905811057482
 21
-465.11615035858063
 31
0.0
  0
LINE
  5
5BE
  8
0
 62
     7
 10
-633.99016767307489
 20
-465.11615035858011
 30
0.0
 11
-580.99016767307478
 21
-465.11615035858011
 31
0.0
  0
LINE
  5
5BF
  8
0
 62
     7
 10
-632.61016767307478
 20
-462.8161503585801
 30
0.0
 11
-582.37016767307477
 21
-462.8161503585801
 31
0.0
  0
ARC
  5
5C0
  8
0
 10
-607.4903796730747
 20
-370.91771843884089
 30
0.0
 40
28.999768
 50
211.1473899215091
 51
242.41980079641289
  0
LINE
  5
5C1
  8
0
 10
-627.15519021547948
 20
-448.95912415870629
 30
0.0
 11
-626.33184010419882
 21
-417.92519797236002
 31
0.0
  0
LINE
  5
5C2
  8
0
 10
-619.93028084487969
 20
-417.92519797236031
 30
0.0
 11
-619.93028084487969
 21
-449.14654816919511
 31
0.0
  0
LINE
  5
5C3
  8
0
 10
-622.16754626006059
 20
-417.92519797236031
 30
0.0
 11
-622.16754626006059
 21
-449.14654816919511
 31
0.0
  0
LINE
  5
5C4
  8
0
 10
-623.70477662431199
 20
-417.92519797236019
 30
0.0
 11
-623.70477662431199
 21
-449.14654816919511
 31
0.0
  0
LINE
  5
5C5
  8
0
 10
-627.15519021547948
 20
-450.77049440352431
 30
0.0
 11
-627.15519021547948
 21
-448.95912415870629
 31
0.0
  0
LINE
  5
5C6
  8
0
 10
-633.99016767307478
 20
-447.11615035858011
 30
0.0
 11
-633.99016767307489
 21
-465.11615035858011
 31
0.0
  0
ARC
  5
5C7
  8
0
 10
-626.74548176042344
 20
-450.77049440352442
 30
0.0
 40
0.4097084550561834
 50
179.99999999999929
 51
270.0
  0
ARC
  5
5C8
  8
0
 10
-627.49016767307489
 20
-450.11615035858023
 30
0.0
 40
3.25
 50
83.109980183737619
 51
270.0
  0
LINE
  5
5C9
  8
0
 10
-629.59576767307465
 20
-456.9075628585806
 30
0.0
 11
-632.61016767307478
 21
-457.71526890424502
 31
0.0
  0
LINE
  5
5CA
  8
0
 10
-623.56696767307494
 20
-453.44126183453392
 30
0.0
 11
-623.56696767307494
 21
-456.9075628585806
 31
0.0
  0
LINE
  5
5CB
  8
0
 10
-627.49016767307489
 20
-453.36615035858011
 30
0.0
 11
-625.49016767307489
 21
-453.36615035858011
 31
0.0
  0
LINE
  5
5CC
  8
0
 10
-632.1674157230749
 20
-468.95932833358069
 30
0.0
 11
-632.1674157230749
 21
-472.39796125858061
 31
0.0
  0
LINE
  5
5CD
  8
0
 10
-632.1674157230749
 20
-472.39796125858061
 30
0.0
 11
-634.29127723557474
 21
-472.80250630858058
 31
0.0
  0
LINE
  5
5CE
  8
0
 10
-634.29127723557474
 20
-468.55478328358072
 30
0.0
 11
-632.1674157230749
 21
-468.95932833358069
 31
0.0
  0
LINE
  5
5CF
  8
0
 10
-634.29127723557474
 20
-465.11615035858063
 30
0.0
 11
-634.29127723557474
 21
-468.55478328358072
 31
0.0
  0
LINE
  5
5D0
  8
0
 10
-633.99016767307489
 20
-462.8161503585801
 30
0.0
 11
-632.61016767307478
 21
-462.8161503585801
 31
0.0
  0
LINE
  5
5D1
  8
0
 10
-632.61016767307478
 20
-457.71526890424502
 30
0.0
 11
-632.61016767307478
 21
-462.8161503585801
 31
0.0
  0
LINE
  5
5D2
  8
0
 10
-623.70477662431199
 20
-449.14654816919511
 30
0.0
 11
-622.16754626006059
 21
-449.14654816919511
 31
0.0
  0
ARC
  5
5D3
  8
0
 10
-628.99016767307478
 20
-447.11615035858011
 30
0.0
 40
5.0
 50
90.0
 51
180.0
  0
ARC
  5
5D4
  8
0
 10
-625.11265273642005
 20
-414.8800337406031
 30
0.0
 40
0.1638833820224733
 50
90.0
 51
123.5573097618135
  0
ARC
  5
5D5
  8
0
 10
-624.29734320510875
 20
-416.1091591057712
 30
0.0
 40
1.638833820224733
 50
123.55730976182529
 51
168.69006752598091
  0
LINE
  5
5D6
  8
0
 10
-625.90435197988995
 20
-415.78775735081513
 30
0.0
 11
-626.33184010419882
 21
-417.92519797236002
 31
0.0
  0
LINE
  5
5D7
  8
0
 10
-622.16754626006059
 20
-417.92519797236042
 30
0.0
 11
-621.80149698265495
 21
-414.71615035858059
 31
0.0
  0
LINE
  5
5D8
  8
0
 10
-623.70477662431199
 20
-417.92519797236031
 30
0.0
 11
-623.33872734690635
 21
-414.71615035858059
 31
0.0
  0
LINE
  5
5D9
  8
0
 10
-633.99016767307467
 20
-382.91762243884102
 30
0.0
 11
-628.18867811057487
 21
-382.91762243884102
 31
0.0
  0
LINE
  5
5DA
  8
0
 10
-633.99016767307478
 20
-385.91759843884108
 30
0.0
 11
-632.00799484777815
 21
-385.91759843884091
 31
0.0
  0
LINE
  5
5DB
  8
0
 10
-630.68865811057492
 20
-382.91762243884102
 30
0.0
 11
-632.00799484777815
 21
-385.91759843884091
 31
0.0
  0
LINE
  5
5DC
  8
0
 10
-624.02048164007101
 20
-390.6585587412053
 30
0.0
 11
-628.18867811057487
 21
-382.91762243884102
 31
0.0
  0
LINE
  5
5DD
  8
0
 62
     7
 10
-587.82317853008601
 20
-448.95715755812211
 30
0.0
 11
-588.6465286413669
 21
-417.92519797236002
 31
0.0
  0
LINE
  5
5DE
  8
0
 62
     7
 10
-590.75053229839705
 20
-417.92519797236031
 30
0.0
 11
-590.75053229839739
 21
-449.14654816919511
 31
0.0
  0
LINE
  5
5DF
  8
0
 62
     7
 10
-592.28776266264833
 20
-417.92519797236019
 30
0.0
 11
-592.28776266264833
 21
-449.14654816919511
 31
0.0
  0
LINE
  5
5E0
  8
0
 62
     7
 10
-594.37955292558763
 20
-417.92519797236019
 30
0.0
 11
-594.37955292558763
 21
-449.14654816919511
 31
0.0
  0
LINE
  5
5E1
  8
0
 62
     7
 10
-598.7350389576327
 20
-417.92519797236008
 30
0.0
 11
-598.7350389576327
 21
-449.14654816919591
 31
0.0
  0
LINE
  5
5E2
  8
0
 62
     7
 10
-601.21216038542354
 20
-417.92519797236019
 30
0.0
 11
-601.21216038542343
 21
-449.14654816919511
 31
0.0
  0
LINE
  5
5E3
  8
0
 62
     7
 10
-613.76620836014183
 20
-417.92519797236031
 30
0.0
 11
-613.76620836014183
 21
-449.14654816919511
 31
0.0
  0
LINE
  5
5E4
  8
0
 10
-615.57479481283463
 20
-417.92519797236008
 30
0.0
 11
-615.57479481283463
 21
-449.14654816919523
 31
0.0
  0
LINE
  5
5E5
  8
0
 62
     7
 10
-605.56764641746884
 20
-414.71615035858059
 30
0.0
 11
-605.56764641746861
 21
-449.14654816919591
 31
0.0
  0
LINE
  5
5E6
  8
0
 62
     7
 10
-609.41072232809643
 20
-414.71615035858059
 30
0.0
 11
-609.41072232809665
 21
-449.14654816919523
 31
0.0
  0
DIMENSION
  5
5E7
  8
DIM
  2
*D84
 10
-568.10403379966101
 20
-465.11615035858063
 30
0.0
 11
-570.6040337996609
 21
-453.6161503585804
 31
0.0
 70
     0
 13
-585.99016767307489
 23
-442.11615035858023
 33
0.0
 14
-580.68905811057482
 24
-465.11615035858063
 34
0.0
 50
90.0
1001
ACAD
1000
DSTYLE
1002
{
1070
    40
1040
1.0
1002
}
  0
ARC
  5
5F4
  8
0
 62
     7
 10
-587.49016767307489
 20
-450.11615035858023
 30
0.0
 40
3.25
 50
270.0
 51
96.854348117773867
  0
LINE
  5
5F5
  8
0
 62
     7
 10
-585.38456767307491
 20
-456.9075628585806
 30
0.0
 11
-582.37016767307477
 21
-457.71615035858059
 31
0.0
  0
LINE
  5
5F6
  8
0
 62
     7
 10
-620.75352767307481
 20
-452.68740285858053
 30
0.0
 11
-594.22680767307475
 21
-452.68740285858053
 31
0.0
  0
LINE
  5
5F7
  8
0
 62
     7
 10
-595.55159105950167
 20
-451.18020285858051
 30
0.0
 11
-618.68487325713068
 21
-451.18020285858051
 31
0.0
  0
LINE
  5
5F8
  8
0
 62
     7
 10
-602.06424767307476
 20
-453.44126183453488
 30
0.0
 11
-604.87768767307477
 21
-452.68740285858161
 31
0.0
  0
LINE
  5
5F9
  8
0
 10
-619.42776098635579
 20
-451.18020285858063
 30
0.0
 11
-618.68388995683836
 21
-451.18020285858063
 31
0.0
  0
LINE
  5
5FA
  8
0
 62
     7
 10
-612.91608767307503
 20
-453.44126183453392
 30
0.0
 11
-610.10264767307501
 21
-452.68740285858053
 31
0.0
  0
LINE
  5
5FB
  8
0
 62
     7
 10
-612.9160876730748
 20
-453.44126183453392
 30
0.0
 11
-615.72952767307493
 21
-452.68740285858053
 31
0.0
  0
LINE
  5
5FC
  8
0
 62
     7
 10
-612.9160876730748
 20
-453.44126183453392
 30
0.0
 11
-612.9160876730748
 21
-456.9075628585806
 31
0.0
  0
LINE
  5
5FD
  8
0
 10
-619.428744286648
 20
-451.18020285858051
 30
0.0
 11
-618.68487325713068
 21
-451.18020285858051
 31
0.0
  0
LINE
  5
5FE
  8
0
 10
-620.75352767307481
 20
-451.18020285858051
 30
0.0
 11
-620.75352767307481
 21
-452.68740285858053
 31
0.0
  0
LINE
  5
5FF
  8
0
 62
     7
 10
-611.30216767307468
 20
-457.71526890424502
 30
0.0
 11
-614.11560767307481
 21
-456.96140992829152
 31
0.0
  0
LINE
  5
600
  8
0
 10
-621.95616767307479
 20
-457.71526890424502
 30
0.0
 11
-619.14272767307455
 21
-456.9614099282914
 31
0.0
  0
LINE
  5
601
  8
0
 62
     7
 10
-611.30216767307468
 20
-457.71526890424502
 30
0.0
 11
-608.48872767307466
 21
-456.9614099282914
 31
0.0
  0
LINE
  5
602
  8
0
 10
-621.95616767307479
 20
-457.71526890424502
 30
0.0
 11
-621.95616767307456
 21
-462.8161503585801
 31
0.0
  0
LINE
  5
603
  8
0
 62
     7
 10
-611.30216767307468
 20
-457.71526890424502
 30
0.0
 11
-611.30216767307456
 21
-462.8161503585801
 31
0.0
  0
LINE
  5
604
  8
0
 62
     7
 10
-591.41336767307484
 20
-453.44126183453392
 30
0.0
 11
-594.22680767307475
 21
-452.68740285858053
 31
0.0
  0
LINE
  5
605
  8
0
 62
     7
 10
-602.06424767307476
 20
-453.44126183453488
 30
0.0
 11
-599.25080767307497
 21
-452.68740285858161
 31
0.0
  0
LINE
  5
606
  8
0
 62
     7
 10
-602.06424767307476
 20
-453.44126183453488
 30
0.0
 11
-602.06424767307453
 21
-456.90756285858163
 31
0.0
  0
LINE
  5
607
  8
0
 62
     7
 10
-591.41336767307484
 20
-453.44126183453392
 30
0.0
 11
-591.41336767307462
 21
-456.9075628585806
 31
0.0
  0
LINE
  5
608
  8
0
 62
     7
 10
-594.22680767307475
 20
-451.18020285858051
 30
0.0
 11
-594.22680767307475
 21
-452.68740285858053
 31
0.0
  0
LINE
  5
609
  8
0
 62
     7
 10
-589.99416767307468
 20
-457.71526890424502
 30
0.0
 11
-592.8076076730747
 21
-456.96140992829152
 31
0.0
  0
LINE
  5
60A
  8
0
 62
     7
 10
-600.64816767307468
 20
-457.71526890424502
 30
0.0
 11
-597.83472767307501
 21
-456.96140992829152
 31
0.0
  0
LINE
  5
60B
  8
0
 62
     7
 10
-589.99416767307468
 20
-457.71526890424502
 30
0.0
 11
-587.1807276730749
 21
-456.96140992829152
 31
0.0
  0
LINE
  5
60C
  8
0
 62
     7
 10
-589.49016767307478
 20
-453.36615035858011
 30
0.0
 11
-587.49016767307489
 21
-453.36615035858011
 31
0.0
  0
ARC
  5
60D
  8
0
 62
     7
 10
-589.49016767307478
 20
-450.11615035858023
 30
0.0
 40
3.25
 50
199.1110884775394
 51
270.0
  0
LINE
  5
60E
  8
0
 62
     7
 10
-600.64816767307468
 20
-457.71526890424502
 30
0.0
 11
-603.46160767307481
 21
-456.96140992829152
 31
0.0
  0
LINE
  5
60F
  8
0
 62
     7
 10
-600.64816767307468
 20
-457.71526890424502
 30
0.0
 11
-600.64816767307468
 21
-462.8161503585801
 31
0.0
  0
LINE
  5
610
  8
0
 62
     7
 10
-589.99416767307468
 20
-457.71526890424502
 30
0.0
 11
-589.99416767307468
 21
-462.8161503585801
 31
0.0
  0
LINE
  5
611
  8
0
 62
     7
 10
-605.56764641746861
 20
-449.14654816919591
 30
0.0
 11
-601.21216038542343
 21
-449.14654816919511
 31
0.0
  0
LINE
  5
612
  8
0
 62
     7
 10
-613.76620836014183
 20
-449.14654816919511
 30
0.0
 11
-609.41072232809665
 21
-449.14654816919523
 31
0.0
  0
LINE
  5
613
  8
0
 62
     7
 10
-592.28776266264833
 20
-449.14654816919511
 30
0.0
 11
-590.75053229839739
 21
-449.14654816919511
 31
0.0
  0
LINE
  5
614
  8
0
 62
     7
 10
-598.7350389576327
 20
-449.14654816919591
 30
0.0
 11
-594.37955292558763
 21
-449.14654816919511
 31
0.0
  0
LINE
  5
615
  8
0
 62
     7
 10
-587.82317853008601
 20
-450.76852780294013
 30
0.0
 11
-587.82317853008601
 21
-448.95715755812211
 31
0.0
  0
LINE
  5
616
  8
0
 62
     7
 10
-580.99016767307478
 20
-465.11615035858011
 30
0.0
 11
-580.99016767307478
 21
-447.11615035858011
 31
0.0
  0
ARC
  5
617
  8
0
 62
     7
 10
-588.23485358572634
 20
-450.76852780294013
 30
0.0
 40
0.4116750556404531
 50
270.0
 51
0.0
  0
LINE
  5
618
  8
0
 62
     7
 10
-582.81291962307466
 20
-468.95932833358069
 30
0.0
 11
-582.81291962307466
 21
-472.39796125858061
 31
0.0
  0
LINE
  5
619
  8
0
 62
     7
 10
-582.81291962307466
 20
-472.39796125858061
 30
0.0
 11
-580.68905811057482
 21
-472.80250630858058
 31
0.0
  0
LINE
  5
61A
  8
0
 62
     7
 10
-580.68905811057482
 20
-468.55478328358072
 30
0.0
 11
-582.81291962307466
 21
-468.95932833358069
 31
0.0
  0
LINE
  5
61B
  8
0
 62
     7
 10
-580.68905811057493
 20
-465.34342285858071
 30
0.0
 11
-580.68905811057482
 21
-468.7434194585806
 31
0.0
  0
LINE
  5
61C
  8
0
 62
     7
 10
-580.68905811057482
 20
-465.11615035858063
 30
0.0
 11
-580.68905811057482
 21
-468.55478328358072
 31
0.0
  0
LINE
  5
61D
  8
0
 62
     7
 10
-582.37016767307466
 20
-462.8161503585801
 30
0.0
 11
-580.99016767307478
 21
-462.8161503585801
 31
0.0
  0
LINE
  5
61E
  8
0
 62
     7
 10
-582.370167673075
 20
-457.71615035858059
 30
0.0
 11
-582.37016767307477
 21
-462.8161503585801
 31
0.0
  0
ARC
  5
61F
  8
0
 62
     7
 10
-585.99016767307489
 20
-447.11615035858011
 30
0.0
 40
5.0
 50
0.0
 51
90.0
  0
LINE
  5
620
  8
0
 62
     7
 10
-589.07401676567588
 20
-415.78775735081513
 30
0.0
 11
-588.6465286413669
 21
-417.92519797236002
 31
0.0
  0
LINE
  5
621
  8
0
 62
     7
 10
-586.49054767307484
 20
-382.91762243884102
 30
0.0
 11
-580.99059167307485
 21
-382.91762243884102
 31
0.0
  0
ARC
  5
622
  8
0
 62
     7
 10
-607.4903796730747
 20
-370.91771843884089
 30
0.0
 40
28.999768
 50
297.58019920358669
 51
328.85261007849078
  0
LINE
  5
623
  8
0
 62
     7
 10
-613.76620836014183
 20
-417.92519797236042
 30
0.0
 11
-613.40015908273631
 21
-414.71615035858059
 31
0.0
  0
LINE
  5
624
  8
0
 10
-615.57479481283463
 20
-417.92519797236031
 30
0.0
 11
-615.20874553542899
 21
-414.71615035858059
 31
0.0
  0
LINE
  5
627
  8
0
 62
     7
 10
-594.37955292558763
 20
-417.92519797236031
 30
0.0
 11
-594.01350364818177
 21
-414.71615035858059
 31
0.0
  0
ARC
  5
628
  8
0
 10
-590.68102554045686
 20
-416.1091591057712
 30
0.0
 40
1.638833820224733
 50
11.309932474019019
 51
58.211669382920412
  0
LINE
  5
629
  8
0
 62
     7
 10
-592.28776266264833
 20
-417.92519797236031
 30
0.0
 11
-591.92171338524247
 21
-414.71615035858059
 31
0.0
  0
LINE
  5
62A
  8
0
 62
     7
 10
-590.75053229839705
 20
-417.92519797236042
 30
0.0
 11
-590.38448302099118
 21
-414.71615035858048
 31
0.0
  0
LINE
  5
62B
  8
0
 62
     7
 10
-598.7350389576327
 20
-417.92519797236031
 30
0.0
 11
-598.36898968022695
 21
-414.71615035858059
 31
0.0
  0
LINE
  5
62C
  8
0
 62
     7
 10
-601.21216038542354
 20
-417.92519797236031
 30
0.0
 11
-600.84611110801757
 21
-414.71615035858059
 31
0.0
  0
LINE
  5
62D
  8
0
 62
     7
 10
-617.67607258061093
 20
-397.41750643884097
 30
0.0
 11
-597.3046867655388
 21
-397.41750643884097
 31
0.0
  0
LINE
  5
62E
  8
0
 62
     7
 10
-615.51737464103712
 20
-395.91751843884089
 30
0.0
 11
-599.4633847051125
 21
-395.91751843884089
 31
0.0
  0
ARC
  5
62F
  8
0
 10
-617.67607258061093
 20
-390.41756243884112
 30
0.0
 40
6.9999440000000011
 50
242.41980079641289
 51
270.0
  0
ARC
  5
630
  8
0
 62
     7
 10
-599.4633847051125
 20
-385.91759843884108
 30
0.0
 40
9.9999199999999995
 50
269.99999999999989
 51
331.69924423399368
  0
ARC
  5
631
  8
0
 62
     7
 10
-597.3046867655388
 20
-390.41756243884112
 30
0.0
 40
6.9999440000000011
 50
270.0
 51
297.5801992035868
  0
LINE
  5
634
  8
0
 62
     7
 10
-586.49054767307484
 20
-382.91762243884102
 30
0.0
 11
-590.6587441435787
 21
-390.6585587412053
 31
0.0
  0
LINE
  5
636
  8
0
 62
     7
 10
-582.67123093587156
 20
-385.91759843884091
 30
0.0
 11
-580.99059167307485
 21
-385.91759843884091
 31
0.0
  0
LINE
  5
637
  8
0
 62
     7
 10
-583.99056767307468
 20
-382.91762243884102
 30
0.0
 11
-582.67123093587156
 21
-385.91759843884091
 31
0.0
  0
DIMENSION
  5
638
  8
DIM
  2
*D85
 10
-589.49016767307501
 20
-326.70386851813311
 30
0.0
 11
-607.49016767307501
 21
-324.20386851813311
 31
0.0
 70
     0
 13
-625.49016767307489
 23
-332.01071876822812
 33
0.0
 14
-589.49016767307501
 24
-332.01071876822812
 34
0.0
1001
ACAD
1000
DSTYLE
1002
{
1070
    40
1040
1.0
1002
}
  0
DIMENSION
  5
645
  8
DIM
  2
*D86
 10
-580.99016767307467
 20
-319.35195523089249
 30
0.0
 11
-607.49016767307455
 21
-316.85195523089249
 31
0.0
 70
     0
 13
-633.99016767307467
 23
-335.91750643884109
 33
0.0
 14
-580.99016767307467
 24
-335.91750643884109
 34
0.0
1001
ACAD
1000
DSTYLE
1002
{
1070
    40
1040
1.0
1002
}
  0
ARC
  5
652
  8
0
 10
-615.51737464103735
 20
-355.91783843884099
 30
0.0
 40
9.9999199999999995
 50
89.999999999999915
 51
151.6992442339936
  0
ARC
  5
653
  8
0
 10
-607.4903796730747
 20
-370.91771843884089
 30
0.0
 40
28.999768
 50
117.5801992035879
 51
148.8526100784909
  0
LINE
  5
654
  8
CENTER
  6
CENTER
 10
-637.0933711090612
 20
-370.9491790802644
 30
0.0
 11
-577.8873882370882
 21
-370.94917908026451
 31
0.0
  0
ARC
  5
655
  8
0
 62
     7
 10
-607.48896767307508
 20
-370.75478237620098
 30
0.0
 40
23.3237562032357
 50
15.518187756141121
 51
164.4818122438588
  0
LINE
  5
656
  8
0
 62
     7
 10
-633.99016767307478
 20
-335.91750643884109
 30
0.0
 11
-580.99016767307467
 21
-335.91750643884109
 31
0.0
  0
LINE
  5
657
  8
0
 62
     7
 10
-633.99016767307478
 20
-338.2175064388411
 30
0.0
 11
-580.99016767307467
 21
-338.2175064388411
 31
0.0
  0
LINE
  5
658
  8
0
 10
-633.99016767307478
 20
-355.91783843884099
 30
0.0
 11
-633.99016767307467
 21
-335.91750643884097
 31
0.0
  0
LINE
  5
659
  8
0
 10
-628.49021167307478
 20
-358.91781443884099
 30
0.0
 11
-624.32201520257092
 21
-351.17687813647672
 31
0.0
  0
LINE
  5
65A
  8
0
 10
-629.96246972050255
 20
-377.32079145127972
 30
0.0
 11
-629.96246972050255
 21
-364.51464542640201
 31
0.0
  0
LINE
  5
65C
  8
0
 10
-630.99019167307483
 20
-358.91781443884099
 30
0.0
 11
-632.30952841027795
 21
-355.9178384388411
 31
0.0
  0
LINE
  5
65D
  8
0
 10
-633.99016767307478
 20
-358.91781443884099
 30
0.0
 11
-628.49021167307478
 21
-358.91781443884099
 31
0.0
  0
LINE
  5
65F
  8
0
 10
-633.99016767307478
 20
-355.9178384388411
 30
0.0
 11
-632.30952841027829
 21
-355.9178384388411
 31
0.0
  0
LINE
  5
660
  8
CENTER
  6
CENTER
 10
-625.49016767307489
 20
-340.95236632552252
 30
0.0
 11
-625.49016767307489
 21
-332.01071876822812
 31
0.0
  0
LINE
  5
661
  8
HIDDEN
  6
HIDDEN
 10
-628.74016767307478
 20
-338.21750643884099
 30
0.0
 11
-628.74016767307478
 21
-335.91750643884109
 31
0.0
  0
LINE
  5
662
  8
0
 62
     7
 10
-586.49054767307484
 20
-358.91781443884099
 30
0.0
 11
-580.99059167307485
 21
-358.91781443884099
 31
0.0
  0
ARC
  5
663
  8
0
 62
     7
 10
-607.4903796730747
 20
-370.91771843884089
 30
0.0
 40
28.999768
 50
31.147389921508999
 51
62.419800796412389
  0
LINE
  5
664
  8
0
 62
     7
 10
-590.6587441435787
 20
-351.17687813647672
 30
0.0
 11
-586.49054767307484
 21
-358.91781443884099
 31
0.0
  0
LINE
  5
665
  8
0
 10
-585.01546562564738
 20
-377.32079145127972
 30
0.0
 11
-585.01546562564738
 21
-364.51464542640218
 31
0.0
  0
LINE
  5
666
  8
0
 62
     7
 10
-617.67607258061116
 20
-344.41793043884098
 30
0.0
 11
-597.30468676553835
 21
-344.41793043884098
 31
0.0
  0
LINE
  5
667
  8
0
 62
     7
 10
-615.51737464103735
 20
-345.9179184388409
 30
0.0
 11
-599.4633847051125
 21
-345.9179184388409
 31
0.0
  0
LINE
  5
668
  8
HIDDEN
  6
HIDDEN
 10
-622.24016767307489
 20
-338.2175064388411
 30
0.0
 11
-622.24016767307489
 21
-335.91750643884109
 31
0.0
  0
ARC
  5
669
  8
0
 10
-617.67607258061116
 20
-351.41787443884101
 30
0.0
 40
6.9999440000000011
 50
90.0
 51
117.58019920358799
  0
ARC
  5
66A
  8
0
 62
     7
 10
-599.4633847051125
 20
-355.91783843884099
 30
0.0
 40
9.9999199999999995
 50
28.30075576600634
 51
90.0
  0
LINE
  5
66B
  8
CENTER
  6
CENTER
 10
-589.49016767307478
 20
-340.95236632552252
 30
0.0
 11
-589.49016767307501
 21
-332.01071876822812
 31
0.0
  0
LINE
  5
66C
  8
HIDDEN
  6
HIDDEN
 10
-592.74016767307489
 20
-338.21750643884099
 30
0.0
 11
-592.74016767307489
 21
-335.91750643884097
 31
0.0
  0
LINE
  5
66D
  8
HIDDEN
  6
HIDDEN
 10
-586.24016767307478
 20
-338.21750643884099
 30
0.0
 11
-586.24016767307478
 21
-335.91750643884109
 31
0.0
  0
ARC
  5
66E
  8
0
 62
     7
 10
-597.30468676553835
 20
-351.41787443884101
 30
0.0
 40
6.9999440000000011
 50
62.419800796412332
 51
90.0
  0
LINE
  5
671
  8
0
 62
     7
 10
-580.99016767307467
 20
-335.91750643884109
 30
0.0
 11
-580.99059167307485
 21
-355.91783843884099
 31
0.0
  0
LINE
  5
672
  8
0
 62
     7
 10
-583.99056767307468
 20
-358.91781443884099
 30
0.0
 11
-582.74057767307477
 21
-355.91783843884099
 31
0.0
  0
LINE
  5
673
  8
0
 62
     7
 10
-582.67123093587156
 20
-355.91783843884099
 30
0.0
 11
-580.99059167307485
 21
-355.91783843884099
 31
0.0
  0
DIMENSION
  5
E40
  8
DIM
  2
*D21
 10
-417.13551380762328
 20
-516.21615035858065
 30
0.0
 11
-419.63551380762323
 21
-465.46615035858071
 31
0.0
 70
     0
 13
-457.31412735659842
 23
-414.71615035858071
 33
0.0
 14
-450.36831722570901
 24
-516.21615035858065
 34
0.0
 50
90.0
  0
DIMENSION
  5
E81
  8
DIM
  2
*D18
 10
-429.34652823012851
 20
-486.71615035858059
 30
0.0
 11
-431.84652823012851
 21
-469.21615035858071
 31
0.0
 70
     0
 13
-437.64326948921661
 23
-451.71615035858059
 33
0.0
 14
-454.66486233412019
 24
-486.71615035858059
 34
0.0
 50
90.0
1001
ACAD
1000
DSTYLE
1002
{
1070
    40
1040
1.0
1002
}
  0
LINE
  5
EB8
  8
0
 62
     7
 10
-461.32527128820931
 20
-466.19615035858072
 30
0.0
 11
-461.32527128820931
 21
-475.91615035858081
 31
0.0
  0
LINE
  5
EB9
  8
0
 62
     7
 10
-447.77127128820928
 20
-466.19615035858072
 30
0.0
 11
-447.77127128820928
 21
-513.6099922597499
 31
0.0
  0
LINE
  5
EBA
  8
0
 62
     7
 10
-486.92127128820931
 20
-466.19615035858072
 30
0.0
 11
-486.92127128820931
 21
-475.91615035858081
 31
0.0
  0
LINE
  5
EBB
  8
0
 62
     7
 10
-500.47527128820929
 20
-466.19615035858072
 30
0.0
 11
-500.47527128820929
 21
-513.6099922597499
 31
0.0
  0
LINE
  5
EBC
  8
HIDDEN
  6
HIDDEN
 10
-526.61705461551003
 20
-465.21615035858082
 30
0.0
 11
-526.61705461551003
 21
-506.21615035858059
 31
0.0
  0
LINE
  5
EBD
  8
HIDDEN
  6
HIDDEN
 10
-514.10669349434465
 20
-466.23464029942079
 30
0.0
 11
-514.10669349434465
 21
-505.19766170097188
 31
0.0
  0
LINE
  5
EBE
  8
HIDDEN
  6
HIDDEN
 10
-534.12327128820925
 20
-464.21615035858071
 30
0.0
 11
-534.12327128820925
 21
-507.21615035858082
 31
0.0
  0
LINE
  5
EBF
  8
CENTER
  6
CENTER
 10
-474.12326948921668
 20
-518.43791770841392
 30
0.0
 11
-474.12326948921663
 21
-397.98743117831691
 31
0.0
  0
DIMENSION
  5
EE2
  8
DIM
  2
*D22
 10
-429.34652823012851
 20
-516.21615035858065
 30
0.0
 11
-431.84652823012851
 21
-501.46615035858071
 31
0.0
 70
     0
 13
-454.66486233412019
 23
-486.71615035858059
 33
0.0
 14
-450.36831722570901
 24
-516.21615035858065
 34
0.0
 50
90.0
1001
ACAD
1000
DSTYLE
1002
{
1070
    40
1040
1.0
1002
}
  0
TEXT
  5
F27
  8
0
 10
-531.03259253018939
 20
-518.6462143744335
 30
0.0
 40
3.0
  1
2-PT1/4
  7
CHINESET
  0
POLYLINE
  8
0
  5
5EC1
  66
     1
 10
0.000000
 20
0.000000
 30
0.000000
  70
     8
  0
VERTEX
  8
0
  5
5EC2
 10
-480.963
 20
-490.568
 30
0.000000
  70
    32
  0
VERTEX
  8
0
  5
5EC3
 10
-507.318
 20
-520.932
 30
0.000000
  70
    32
  0
VERTEX
  8
0
  5
5EC4
 10
-510.318
 20
-520.932
 30
0.000000
  70
    32
  0
SEQEND
  8
0
  5
5EC5
  0
LINE
  5
F29
  8
HIDDEN
  6
HIDDEN
 10
-506.75452261473981
 20
-489.21675953156159
 30
0.0
 11
-495.29931965292673
 21
-488.81673502945091
 31
0.0
  0
LINE
  5
F2A
  8
HIDDEN
  6
HIDDEN
 10
-506.7196231180373
 20
-490.21615035858082
 30
0.0
 11
-495.26442015622422
 21
-489.81612585647008
 31
0.0
  0
LINE
  5
F2B
  8
HIDDEN
  6
HIDDEN
 10
-506.75452261473993
 20
-482.21554118559959
 30
0.0
 11
-495.29931965292673
 21
-482.61556568771027
 31
0.0
  0
LINE
  5
F2C
  8
HIDDEN
  6
HIDDEN
 10
-506.7196231180373
 20
-481.21615035858071
 30
0.0
 11
-495.26442015622428
 21
-481.61617486069122
 31
0.0
  0
LINE
  5
F2D
  8
CENTER
  6
CENTER
 10
-539.36389414699897
 20
-485.71615035858071
 30
0.0
 11
-493.9611590542417
 21
-485.71615035858071
 31
0.0
  0
LINE
  5
F2E
  8
0
 62
     7
 10
-450.36831722570901
 20
-516.21615035858065
 30
0.0
 11
-498.7764253507093
 21
-516.21615035858065
 31
0.0
  0
LINE
  5
F2F
  8
0
 62
     7
 10
-447.77127128820928
 20
-513.6099922597499
 30
0.0
 11
-500.47527128820929
 21
-513.6099922597499
 31
0.0
  0
TEXT
  5
F30
  8
0
 10
-531.31830681590372
 20
-528.30694664293787
 30
0.0
 40
3.0
  1
2-PT3/8
  0
LINE
  5
F31
  8
DIM
 10
-531.41768850921244
 20
-529.02837737154255
 30
0.0
 11
-507.26042459899872
 21
-529.02837737154255
 31
0.0
  0
LINE
  5
F32
  8
HIDDEN
  6
HIDDEN
 10
-526.61705461551003
 20
-506.19766041774062
 30
0.0
 11
-515.10669349434465
 21
-506.19766041774051
 31
0.0
  0
LINE
  5
F33
  8
HIDDEN
  6
HIDDEN
 10
-534.12327128820925
 20
-507.21615035858082
 30
0.0
 11
-527.61705461551003
 21
-507.21615035858082
 31
0.0
  0
ARC
  5
F35
  8
HIDDEN
  6
HIDDEN
 10
-527.61705461551003
 20
-506.21615035858059
 30
0.0
 40
1.0
 50
270.0
 51
359.99999999999989
  0
LINE
  5
F36
  8
0
 62
     7
 10
-500.47527128820929
 20
-513.6099922597499
 30
0.0
 11
-498.7764253507093
 21
-516.21615035858065
 31
0.0
  0
ARC
  5
F37
  8
HIDDEN
  6
HIDDEN
 10
-515.10669349434465
 20
-505.19766041774039
 30
0.0
 40
1.0
 50
270.00000000000011
 51
0.0
  0
LINE
  5
F38
  8
HIDDEN
  6
HIDDEN
 10
-506.7196231180373
 20
-480.21615035858071
 30
0.0
 11
-506.7196231180373
 21
-491.21615035858071
 31
0.0
  0
LINE
  5
F39
  8
HIDDEN
  6
HIDDEN
 10
-514.10669349434465
 20
-491.21615035858071
 30
0.0
 11
-506.7196231180373
 21
-480.21615035858071
 31
0.0
  0
LINE
  5
F3A
  8
HIDDEN
  6
HIDDEN
 10
-514.10669349434465
 20
-480.21615035858071
 30
0.0
 11
-506.7196231180373
 21
-491.21615035858071
 31
0.0
  0
LINE
  5
F3B
  8
HIDDEN
  6
HIDDEN
 10
-514.10669349434465
 20
-491.21615035858071
 30
0.0
 11
-506.7196231180373
 21
-491.21615035858071
 31
0.0
  0
LINE
  5
F3C
  8
HIDDEN
  6
HIDDEN
 10
-514.10669349434465
 20
-480.21615035858071
 30
0.0
 11
-506.7196231180373
 21
-480.21615035858071
 31
0.0
  0
LINE
  5
F49
  8
0
 62
     7
 10
-461.32527128820931
 20
-475.91615035858081
 30
0.0
 11
-458.17382689441013
 21
-477.91706743400857
 31
0.0
  0
LINE
  5
F4B
  8
0
 62
     7
 10
-458.17382689441013
 20
-495.5152332831525
 30
0.0
 11
-461.32527128820931
 21
-497.51615035858072
 31
0.0
  0
LINE
  5
F4C
  8
CENTER
  6
CENTER
 10
-494.11153403277922
 20
-486.71615035858082
 30
0.0
 11
-454.66486233412019
 21
-486.71615035858059
 31
0.0
  0
LINE
  5
F4D
  8
0
 62
     7
 10
-461.32527128820931
 20
-497.51615035858072
 30
0.0
 11
-461.32527128820908
 21
-513.6099922597499
 31
0.0
  0
LINE
  5
F4E
  8
0
 62
     7
 10
-486.92127128820931
 20
-497.51615035858072
 30
0.0
 11
-486.92127128820931
 21
-513.6099922597499
 31
0.0
  0
LINE
  5
F4F
  8
0
 62
     7
 10
-486.92127128820931
 20
-504.21215035858057
 30
0.0
 11
-461.32527128820931
 21
-504.21215035858057
 31
0.0
  0
LINE
  5
F50
  8
0
 62
     7
 10
-486.92127128820931
 20
-504.64415035858059
 30
0.0
 11
-461.32527128820931
 21
-504.64415035858059
 31
0.0
  0
LINE
  5
F51
  8
0
 62
     7
 10
-486.92127128820931
 20
-500.54015035858072
 30
0.0
 11
-461.32527128820931
 21
-500.54015035858049
 31
0.0
  0
LINE
  5
F52
  8
0
 62
     7
 10
-486.92127128820931
 20
-500.10815035858059
 30
0.0
 11
-461.32527128820931
 21
-500.10815035858059
 31
0.0
  0
CIRCLE
  5
F55
  8
0
 62
     7
 10
-474.12327128820931
 20
-486.71615035858082
 30
0.0
 40
6.1264328373231267
  0
CIRCLE
  5
F56
  8
0
 62
     7
 10
-474.12327128820931
 20
-486.71615035858082
 30
0.0
 40
7.2364046543348737
  0
LINE
  5
F57
  8
0
 62
     7
 10
-490.32327128820918
 20
-495.05935836291877
 30
0.0
 11
-490.32327128820918
 21
-478.37294235424241
 31
0.0
  0
ARC
  5
F58
  8
0
 62
     7
 10
-489.78327128820928
 20
-493.30023245158799
 30
0.0
 40
0.5400000000000002
 50
180.0
 51
237.58769338164851
  0
LINE
  5
F59
  8
0
 62
     7
 10
-490.07271568200861
 20
-477.91706743400857
 30
0.0
 11
-486.92127128820931
 21
-475.91615035858081
 31
0.0
  0
ARC
  5
F5A
  8
0
 62
     7
 10
-489.78327128820928
 20
-478.37294235424241
 30
0.0
 40
0.5400000000000002
 50
122.412306618351
 51
180.0
  0
LINE
  5
F5B
  8
0
 62
     7
 10
-486.92127128820931
 20
-497.51615035858072
 30
0.0
 11
-490.07271568200861
 21
-495.5152332831525
 31
0.0
  0
LINE
  5
F5C
  8
0
 62
     7
 10
-447.77127128820928
 20
-513.6099922597499
 30
0.0
 11
-450.36831722570901
 21
-516.21615035858065
 31
0.0
  0
LINE
  5
F5D
  8
0
 62
     7
 10
-457.92327128820932
 20
-478.37294235424241
 30
0.0
 11
-457.92327128820932
 21
-495.05935836291877
 31
0.0
  0
ARC
  5
F5E
  8
0
 62
     7
 10
-458.46327128820923
 20
-495.05935836291877
 30
0.0
 40
0.5400000000000002
 50
302.41230661835141
 51
0.0
  0
ARC
  5
F5F
  8
0
 62
     7
 10
-458.46327128820923
 20
-478.37294235424241
 30
0.0
 40
0.5400000000000002
 50
0.0
 51
57.587693381648968
  0
TEXT
  5
1135
  8
DIM
 10
-515.17683796351309
 20
-360.3896767512507
 30
0.0
 40
10.0
  1
MAR-301
  7
CHINESET
  0
DIMENSION
  5
1136
  8
DIM
  2
*D92
 10
-534.12327128820925
 20
-391.69353705744692
 30
0.0
 11
-504.12327038871291
 21
-389.19353705744692
 31
0.0
 70
     0
 13
-474.12326948921663
 23
-397.98743117831691
 33
0.0
 14
-534.12327128820925
 24
-464.21615035858071
 34
0.0
1001
ACAD
1000
DSTYLE
1002
{
1070
    40
1040
1.0
1002
}
  0
LINE
  5
1143
  8
0
 62
     7
 10
-454.86795540186802
 20
-451.18020285858103
 30
0.0
 11
-493.37858357656512
 21
-451.18020285858091
 31
0.0
  0
LINE
  5
1144
  8
0
 10
-493.78829203162132
 20
-448.95912415870669
 30
0.0
 11
-492.96494192034038
 21
-417.92519797236048
 31
0.0
  0
LINE
  5
1145
  8
0
 62
     7
 10
-496.22886948921649
 20
-456.907562858581
 30
0.0
 11
-499.24326948921657
 21
-457.71526890424542
 31
0.0
  0
LINE
  5
1146
  8
0
 62
     7
 10
-499.3952712882093
 20
-465.11615035858063
 30
0.0
 11
-448.85126769022412
 21
-465.11615035858063
 31
0.0
  0
LINE
  5
1147
  8
0
 62
     7
 10
-499.24326948921657
 20
-465.11615035858063
 30
0.0
 11
-439.14326948921661
 21
-465.11615035858063
 31
0.0
  0
LINE
  5
1148
  8
0
 62
     7
 10
-499.24326948921657
 20
-462.81615035858073
 30
0.0
 11
-441.44326948921662
 21
-462.81615035858073
 31
0.0
  0
LINE
  5
1149
  8
0
 10
-493.78829203162132
 20
-450.77049440352471
 30
0.0
 11
-493.78829203162132
 21
-448.95912415870669
 31
0.0
  0
LINE
  5
114A
  8
HIDDEN
  6
HIDDEN
 10
-526.61705461551003
 20
-465.23464029942079
 30
0.0
 11
-515.10669349434465
 21
-465.23464029942079
 31
0.0
  0
LINE
  5
114D
  8
HIDDEN
  6
HIDDEN
 10
-534.12327128820925
 20
-464.21615035858071
 30
0.0
 11
-527.61705461550991
 21
-464.21615035858071
 31
0.0
  0
ARC
  5
114E
  8
HIDDEN
  6
HIDDEN
 10
-527.61705461550991
 20
-465.21615035858082
 30
0.0
 40
1.0
 50
0.0
 51
89.999999999999758
  0
ARC
  5
114F
  8
0
 10
-493.37858357656512
 20
-450.77049440352482
 30
0.0
 40
0.4097084550561837
 50
179.99999999999929
 51
270.0
  0
ARC
  5
1150
  8
0
 62
     7
 10
-499.3952712882093
 20
-466.19615035858072
 30
0.0
 40
1.0800000000000001
 50
90.0
 51
180.0
  0
LINE
  5
1151
  8
0
 62
     7
 10
-499.24326948921669
 20
-462.93636285858088
 30
0.0
 11
-499.24326948921657
 21
-465.11615035858011
 31
0.0
  0
LINE
  5
1152
  8
0
 62
     7
 10
-499.24326948921657
 20
-462.81615035858073
 30
0.0
 11
-499.24326948921657
 21
-465.11615035858063
 31
0.0
  0
ARC
  5
1153
  8
HIDDEN
  6
HIDDEN
 10
-515.10669349434465
 20
-466.23464029942079
 30
0.0
 40
1.0
 50
0.0
 51
89.999999999999872
  0
LINE
  5
1154
  8
0
 62
     7
 10
-499.24326948921657
 20
-457.71526890424542
 30
0.0
 11
-499.24326948921657
 21
-462.93636285858088
 31
0.0
  0
DIMENSION
  5
1155
  8
DIM
  2
*D19
 10
-429.34652823012851
 20
-451.71615035858059
 30
0.0
 11
-431.8465282301284
 21
-433.21615035858071
 31
0.0
 70
     0
 13
-457.31412735659842
 23
-414.71615035858071
 33
0.0
 14
-437.64326948921661
 24
-451.71615035858059
 34
0.0
 50
90.0
  0
DIMENSION
  5
1162
  8
DIM
  2
*D20
 10
-439.14326948921661
 20
-391.69353705744692
 30
0.0
 11
-456.63326948921662
 21
-389.19353705744692
 31
0.0
 70
     0
 13
-474.12326948921663
 23
-397.98743117831691
 33
0.0
 14
-439.14326948921661
 24
-442.11615035858063
 34
0.0
1001
ACAD
1000
DSTYLE
1002
{
1070
    40
1040
1.0
1002
}
  0
LINE
  5
116F
  8
0
 62
     7
 10
-454.45628034622769
 20
-448.9571575581225
 30
0.0
 11
-455.27963045750869
 21
-417.92519797236048
 31
0.0
  0
LINE
  5
1170
  8
0
 62
     7
 10
-457.38363411453889
 20
-417.92519797236071
 30
0.0
 11
-457.38363411453912
 21
-449.14654816919563
 31
0.0
  0
LINE
  5
1171
  8
0
 62
     7
 10
-458.92086447879001
 20
-417.92519797236059
 30
0.0
 11
-458.92086447879001
 21
-449.14654816919563
 31
0.0
  0
LINE
  5
1172
  8
0
 62
     7
 10
-461.01265474172931
 20
-417.92519797236059
 30
0.0
 11
-461.01265474172931
 21
-449.14654816919563
 31
0.0
  0
LINE
  5
1173
  8
0
 62
     7
 10
-465.36814077377448
 20
-417.92519797236059
 30
0.0
 11
-465.36814077377448
 21
-449.14654816919631
 31
0.0
  0
LINE
  5
1174
  8
0
 62
     7
 10
-467.84526220156528
 20
-417.92519797236059
 30
0.0
 11
-467.84526220156511
 21
-449.14654816919563
 31
0.0
  0
LINE
  5
1175
  8
0
 62
     7
 10
-480.39931017628362
 20
-417.92519797236071
 30
0.0
 11
-480.39931017628362
 21
-449.14654816919563
 31
0.0
  0
LINE
  5
1176
  8
0
 62
     7
 10
-482.2078966289763
 20
-417.92519797236059
 30
0.0
 11
-482.2078966289763
 21
-449.14654816919568
 31
0.0
  0
LINE
  5
1177
  8
0
 10
-486.56338266102148
 20
-417.92519797236071
 30
0.0
 11
-486.56338266102148
 21
-449.14654816919563
 31
0.0
  0
LINE
  5
1178
  8
0
 10
-488.80064807620238
 20
-417.92519797236071
 30
0.0
 11
-488.80064807620238
 21
-449.14654816919563
 31
0.0
  0
LINE
  5
1179
  8
0
 10
-490.33787844045372
 20
-417.92519797236059
 30
0.0
 11
-490.33787844045372
 21
-449.14654816919563
 31
0.0
  0
LINE
  5
117A
  8
0
 62
     7
 10
-472.20074823361051
 20
-414.71615035858071
 30
0.0
 11
-472.20074823361028
 21
-449.14654816919631
 31
0.0
  0
LINE
  5
117B
  8
0
 62
     7
 10
-476.04382414423827
 20
-414.71615035858059
 30
0.0
 11
-476.04382414423839
 21
-449.14654816919568
 31
0.0
  0
LINE
  5
117C
  8
0
 62
     7
 10
-465.36814077377448
 20
-449.14654816919631
 30
0.0
 11
-461.01265474172931
 21
-449.14654816919563
 31
0.0
  0
LINE
  5
117D
  8
0
 62
     7
 10
-458.04646948921658
 20
-453.44126183453437
 30
0.0
 11
-460.85990948921659
 21
-452.68740285858092
 31
0.0
  0
LINE
  5
117E
  8
0
 62
     7
 10
-462.18469287564341
 20
-451.18020285858091
 30
0.0
 11
-485.31797507327252
 21
-451.18020285858091
 31
0.0
  0
LINE
  5
117F
  8
0
 62
     7
 10
-496.22886948921649
 20
-456.907562858581
 30
0.0
 11
-452.0176694892167
 21
-456.907562858581
 31
0.0
  0
LINE
  5
1180
  8
0
 62
     7
 10
-479.54918948921681
 20
-453.44126183453437
 30
0.0
 11
-476.73574948921669
 21
-452.68740285858092
 31
0.0
  0
LINE
  5
1181
  8
0
 62
     7
 10
-477.93526948921658
 20
-457.71526890424542
 30
0.0
 11
-480.74870948921659
 21
-456.96140992829203
 31
0.0
  0
LINE
  5
1182
  8
0
 62
     7
 10
-487.3866294892166
 20
-452.68740285858092
 30
0.0
 11
-460.85990948921659
 21
-452.68740285858092
 31
0.0
  0
LINE
  5
1183
  8
0
 62
     7
 10
-486.92127128820931
 20
-473.32415035858071
 30
0.0
 11
-461.32527128820931
 21
-473.32415035858071
 31
0.0
  0
LINE
  5
1184
  8
0
 62
     7
 10
-486.92127128820931
 20
-472.89215035858069
 30
0.0
 11
-461.32527128820931
 21
-472.89215035858069
 31
0.0
  0
LINE
  5
1185
  8
0
 62
     7
 10
-486.92127128820931
 20
-468.78815035858059
 30
0.0
 11
-461.32527128820931
 21
-468.78815035858059
 31
0.0
  0
LINE
  5
1186
  8
0
 62
     7
 10
-486.92127128820931
 20
-469.22015035858061
 30
0.0
 11
-461.32527128820931
 21
-469.22015035858061
 31
0.0
  0
LINE
  5
1187
  8
0
 10
-486.06086280249752
 20
-451.18020285858103
 30
0.0
 11
-485.31699177298009
 21
-451.18020285858103
 31
0.0
  0
LINE
  5
1188
  8
0
 62
     7
 10
-479.54918948921647
 20
-453.44126183453437
 30
0.0
 11
-482.36262948921672
 21
-452.68740285858092
 31
0.0
  0
LINE
  5
1189
  8
0
 10
-490.20006948921667
 20
-453.44126183453437
 30
0.0
 11
-487.3866294892166
 21
-452.68740285858092
 31
0.0
  0
LINE
  5
118A
  8
0
 62
     7
 10
-490.20006948921667
 20
-453.44126183453437
 30
0.0
 11
-490.20006948921667
 21
-456.907562858581
 31
0.0
  0
LINE
  5
118B
  8
0
 62
     7
 10
-479.54918948921647
 20
-453.44126183453437
 30
0.0
 11
-479.54918948921647
 21
-456.907562858581
 31
0.0
  0
LINE
  5
118C
  8
0
 10
-486.06184610278967
 20
-451.18020285858091
 30
0.0
 11
-485.31797507327252
 21
-451.18020285858091
 31
0.0
  0
LINE
  5
118D
  8
0
 10
-487.3866294892166
 20
-451.18020285858091
 30
0.0
 11
-487.3866294892166
 21
-452.68740285858092
 31
0.0
  0
LINE
  5
118E
  8
0
 62
     7
 10
-488.58926948921658
 20
-457.71526890424542
 30
0.0
 11
-491.40270948921659
 21
-456.96140992829203
 31
0.0
  0
LINE
  5
118F
  8
0
 62
     7
 10
-488.58926948921658
 20
-457.71526890424542
 30
0.0
 11
-485.77582948921639
 21
-456.96140992829191
 31
0.0
  0
ARC
  5
1190
  8
0
 62
     7
 10
-485.84127128820933
 20
-466.19615035858072
 30
0.0
 40
1.0800000000000001
 50
90.0
 51
180.0
  0
LINE
  5
1191
  8
0
 62
     7
 10
-488.58926948921658
 20
-457.71526890424542
 30
0.0
 11
-488.58926948921669
 21
-462.81615035858073
 31
0.0
  0
LINE
  5
1192
  8
0
 62
     7
 10
-460.85990948921659
 20
-451.18020285858091
 30
0.0
 11
-460.85990948921659
 21
-452.68740285858092
 31
0.0
  0
LINE
  5
1193
  8
0
 62
     7
 10
-468.69734948921661
 20
-453.44126183453551
 30
0.0
 11
-471.51078948921668
 21
-452.68740285858212
 31
0.0
  0
LINE
  5
1194
  8
0
 62
     7
 10
-468.69734948921661
 20
-453.44126183453551
 30
0.0
 11
-468.69734948921632
 21
-456.90756285858203
 31
0.0
  0
LINE
  5
1195
  8
0
 62
     7
 10
-477.93526948921658
 20
-457.71526890424542
 30
0.0
 11
-475.12182948921651
 21
-456.96140992829191
 31
0.0
  0
LINE
  5
1196
  8
0
 62
     7
 10
-467.28126948921653
 20
-457.71526890424542
 30
0.0
 11
-470.0947094892166
 21
-456.96140992829203
 31
0.0
  0
LINE
  5
1197
  8
0
 62
     7
 10
-468.69734948921661
 20
-453.44126183453551
 30
0.0
 11
-465.88390948921688
 21
-452.68740285858212
 31
0.0
  0
LINE
  5
1198
  8
0
 62
     7
 10
-467.28126948921653
 20
-457.71526890424542
 30
0.0
 11
-464.4678294892168
 21
-456.96140992829203
 31
0.0
  0
ARC
  5
1199
  8
0
 62
     7
 10
-462.40527128820912
 20
-466.19615035858072
 30
0.0
 40
1.0800000000000001
 50
0.0
 51
90.0
  0
LINE
  5
119A
  8
0
 62
     7
 10
-477.93526948921658
 20
-457.71526890424542
 30
0.0
 11
-477.93526948921669
 21
-462.81615035858073
 31
0.0
  0
LINE
  5
119B
  8
0
 62
     7
 10
-467.28126948921653
 20
-457.71526890424542
 30
0.0
 11
-467.28126948921641
 21
-462.81615035858073
 31
0.0
  0
LINE
  5
119C
  8
0
 62
     7
 10
-480.39931017628362
 20
-449.14654816919563
 30
0.0
 11
-476.04382414423839
 21
-449.14654816919568
 31
0.0
  0
LINE
  5
119D
  8
0
 10
-490.33787844045372
 20
-449.14654816919563
 30
0.0
 11
-488.80064807620238
 21
-449.14654816919563
 31
0.0
  0
LINE
  5
119E
  8
0
 62
     7
 10
-486.56338266102148
 20
-449.14654816919563
 30
0.0
 11
-482.2078966289763
 21
-449.14654816919568
 31
0.0
  0
LINE
  5
119F
  8
0
 62
     7
 10
-472.20074823361028
 20
-449.14654816919631
 30
0.0
 11
-467.84526220156511
 21
-449.14654816919563
 31
0.0
  0
LINE
  5
11A0
  8
0
 62
     7
 10
-454.45628034622769
 20
-450.76852780294058
 30
0.0
 11
-454.45628034622769
 21
-448.9571575581225
 31
0.0
  0
LINE
  5
11A1
  8
0
 62
     7
 10
-441.44326948921662
 20
-442.11615035858063
 30
0.0
 11
-441.44326948921662
 21
-462.81615035858073
 31
0.0
  0
LINE
  5
11A2
  8
0
 62
     7
 10
-439.14326948921661
 20
-465.11615035858063
 30
0.0
 11
-439.14326948921661
 21
-442.11615035858063
 31
0.0
  0
LINE
  5
11A3
  8
HIDDEN
  6
HIDDEN
 10
-441.44326948921662
 20
-454.96615035858059
 30
0.0
 11
-439.14326948921672
 21
-454.96615035858059
 31
0.0
  0
ARC
  5
11A4
  8
0
 62
     7
 10
-454.86795540186802
 20
-450.76852780294058
 30
0.0
 40
0.4116750556404535
 50
270.0
 51
0.0
  0
LINE
  5
11A5
  8
0
 62
     7
 10
-458.04646948921658
 20
-453.44126183453437
 30
0.0
 11
-458.04646948921641
 21
-456.907562858581
 31
0.0
  0
LINE
  5
11A6
  8
0
 62
     7
 10
-452.0176694892167
 20
-456.907562858581
 30
0.0
 11
-449.00326948921668
 21
-457.7161503585811
 31
0.0
  0
LINE
  5
11A7
  8
0
 62
     7
 10
-456.62726948921647
 20
-457.71526890424542
 30
0.0
 11
-453.8138294892168
 21
-456.96140992829203
 31
0.0
  0
LINE
  5
11A8
  8
0
 62
     7
 10
-456.62726948921647
 20
-457.71526890424542
 30
0.0
 11
-459.4407094892166
 21
-456.96140992829203
 31
0.0
  0
ARC
  5
11A9
  8
0
 62
     7
 10
-448.8512712882092
 20
-466.19615035858072
 30
0.0
 40
1.0800000000000001
 50
0.0
 51
90.000000000000099
  0
LINE
  5
11AA
  8
0
 62
     7
 10
-456.62726948921647
 20
-457.71526890424542
 30
0.0
 11
-456.62726948921647
 21
-462.81615035858073
 31
0.0
  0
LINE
  5
11AB
  8
0
 62
     7
 10
-449.00326948921679
 20
-457.7161503585811
 30
0.0
 11
-449.00326948921668
 21
-462.81615035858073
 31
0.0
  0
LINE
  5
11AC
  8
0
 62
     7
 10
-439.14326948921661
 20
-442.11615035858063
 30
0.0
 11
-441.44326948921662
 21
-442.11615035858063
 31
0.0
  0
LINE
  5
11AD
  8
HIDDEN
  6
HIDDEN
 10
-441.44326948921639
 20
-448.46615035858059
 30
0.0
 11
-439.14326948921672
 21
-448.46615035858071
 31
0.0
  0
LINE
  5
11AE
  8
CENTER
  6
CENTER
 10
-442.94326948921662
 20
-451.71615035858059
 30
0.0
 11
-437.64326948921661
 21
-451.71615035858059
 31
0.0
  0
LINE
  5
11AF
  8
0
 62
     7
 10
-458.92086447879001
 20
-449.14654816919563
 30
0.0
 11
-457.38363411453912
 21
-449.14654816919563
 31
0.0
  0
LINE
  5
11B0
  8
0
 62
     7
 10
-490.93044502125059
 20
-414.71615035858071
 30
0.0
 11
-457.3141273565987
 21
-414.71615035858071
 31
0.0
  0
LINE
  5
11B1
  8
0
 62
     7
 10
-480.39931017628362
 20
-417.92519797236082
 30
0.0
 11
-480.03326089887798
 21
-414.71615035858071
 31
0.0
  0
LINE
  5
11B2
  8
0
 62
     7
 10
-482.2078966289763
 20
-417.92519797236071
 30
0.0
 11
-481.84184735157061
 21
-414.71615035858071
 31
0.0
  0
LINE
  5
11B3
  8
0
 10
-486.56338266102148
 20
-417.92519797236082
 30
0.0
 11
-486.19733338361573
 21
-414.71615035858071
 31
0.0
  0
LINE
  5
11B4
  8
0
 10
-488.80064807620238
 20
-417.92519797236082
 30
0.0
 11
-488.43459879879669
 21
-414.71615035858071
 31
0.0
  0
LINE
  5
11B5
  8
0
 10
-490.33787844045372
 20
-417.92519797236071
 30
0.0
 11
-489.97182916304803
 21
-414.71615035858071
 31
0.0
  0
LINE
  5
11B6
  8
0
 10
-492.53745379603168
 20
-415.78775735081553
 30
0.0
 11
-492.96494192034038
 21
-417.92519797236048
 31
0.0
  0
ARC
  5
11B7
  8
0
 10
-491.04703329221019
 20
-416.28207052493451
 30
0.0
 40
1.57025437185164
 50
85.741983703284305
 51
161.6513711636583
  0
LINE
  5
11B8
  8
0
 62
     7
 10
-465.36814077377448
 20
-417.92519797236071
 30
0.0
 11
-465.00209149636862
 21
-414.71615035858071
 31
0.0
  0
LINE
  5
11B9
  8
0
 62
     7
 10
-467.84526220156528
 20
-417.92519797236071
 30
0.0
 11
-467.47921292415941
 21
-414.71615035858071
 31
0.0
  0
LINE
  5
11BC
  8
0
 62
     7
 10
-455.70711858181778
 20
-415.78775735081553
 30
0.0
 11
-455.27963045750869
 21
-417.92519797236048
 31
0.0
  0
LINE
  5
11BD
  8
0
 62
     7
 10
-458.92086447879001
 20
-417.92519797236071
 30
0.0
 11
-458.55481520138432
 21
-414.71615035858071
 31
0.0
  0
LINE
  5
11BE
  8
0
 62
     7
 10
-461.01265474172931
 20
-417.92519797236071
 30
0.0
 11
-460.64660546432339
 21
-414.71615035858071
 31
0.0
  0
ARC
  5
11BF
  8
0
 62
     7
 10
-457.06948893024111
 20
-416.09004329403029
 30
0.0
 40
1.3955034065630649
 50
12.51024986832903
 51
100.0963952647287
  0
LINE
  5
11C0
  8
0
 62
     7
 10
-457.38363411453889
 20
-417.92519797236082
 30
0.0
 11
-457.01524009904068
 21
-414.69559472128111
 31
0.0
  0
LINE
  5
1F5E
  8
0
 62
     7
 10
-628.99016767307478
 20
-442.11615035858023
 30
0.0
 11
-626.97364169963953
 21
-442.11615035858023
 31
0.0
  0
LINE
  5
1F5F
  8
0
 62
     7
 10
-588.00468637278118
 20
-442.11615035858023
 30
0.0
 11
-585.99016767307489
 21
-442.11615035858023
 31
0.0
  0
INSERT
  5
30A8
  8
ASHADE
 62
     1
  2
AVE_RENDER
 10
-692.3883514167137
 20
-16.11565021307058
 30
0.0
1001
AVE_RENDER
1002
{
1070
     2
1000
Pref
1070
    30
1070
    20
1070
     0
1070
     0
1000

1070
    10
1070
     0
1070
    30
1040
1.0
1070
     1
1040
0.3
1040
0.7
1040
0.0
1040
10.0
1010
-1.0
1020
-1.0
1030
-1.0
1040
0.3
1070
    49
1002
}
  0
INSERT
  5
30A9
  8
ASHADE
 62
     3
  2
AVE_RENDER
 10
-692.3883514167137
 20
-16.11565021307058
 30
0.0
1001
AVE_RENDER
1002
{
1070
     0
1000
Full Opt
1070
     0
1070
     1
1070
     1
1070
     1
1070
     0
1070
     0
1070
     0
1070
     1
1070
     1
1040
0.0001
1040
0.0001
1002
}
  0
INSERT
  5
30AA
  8
ASHADE
 62
     4
  2
AVE_RENDER
 10
-692.3883514167137
 20
-16.11565021307058
 30
0.0
1001
AVE_RENDER
1002
{
1070
     0
1000
Quick Opt
1070
     0
1070
     1
1070
     1
1070
     1
1070
     0
1070
     0
1070
     1
1002
}
  0
INSERT
  5
30AB
  8
ASHADE
 62
     1
  2
AVE_RENDER
 10
-713.51427172879085
 20
22.58280370447131
 30
0.0
1001
AVE_RENDER
1002
{
1070
     2
1000
Pref
1070
    30
1070
    20
1070
     0
1070
     0
1000

1070
    10
1070
     0
1070
    30
1040
1.0
1070
     1
1040
0.3
1040
0.7
1040
0.0
1040
10.0
1010
-1.0
1020
-1.0
1030
-1.0
1040
0.3
1070
    49
1002
}
  0
INSERT
  5
30AC
  8
ASHADE
 62
     3
  2
AVE_RENDER
 10
-713.51427172879085
 20
22.58280370447131
 30
0.0
1001
AVE_RENDER
1002
{
1070
     0
1000
Full Opt
1070
     0
1070
     1
1070
     1
1070
     1
1070
     0
1070
     0
1070
     0
1070
     1
1070
     1
1040
0.0001
1040
0.0001
1002
}
  0
INSERT
  5
30AD
  8
ASHADE
 62
     4
  2
AVE_RENDER
 10
-713.51427172879085
 20
22.58280370447131
 30
0.0
1001
AVE_RENDER
1002
{
1070
     0
1000
Quick Opt
1070
     0
1070
     1
1070
     1
1070
     1
1070
     0
1070
     0
1070
     1
1002
}
  0
INSERT
  5
30AE
  8
ASHADE
 62
     1
  2
AVE_RENDER
 10
-511.16235993577402
 20
29.581783569479821
 30
0.0
1001
AVE_RENDER
1002
{
1070
     2
1000
Pref
1070
    30
1070
    20
1070
     0
1070
     0
1000

1070
    10
1070
     0
1070
    30
1040
1.0
1070
     1
1040
0.3
1040
0.7
1040
0.0
1040
10.0
1010
-1.0
1020
-1.0
1030
-1.0
1040
0.3
1070
    49
1002
}
  0
INSERT
  5
30AF
  8
ASHADE
 62
     3
  2
AVE_RENDER
 10
-511.16235993577402
 20
29.581783569479821
 30
0.0
1001
AVE_RENDER
1002
{
1070
     0
1000
Full Opt
1070
     0
1070
     1
1070
     1
1070
     1
1070
     0
1070
     0
1070
     0
1070
     1
1070
     1
1040
0.0001
1040
0.0001
1002
}
  0
INSERT
  5
30B0
  8
ASHADE
 62
     4
  2
AVE_RENDER
 10
-511.16235993577402
 20
29.581783569479821
 30
0.0
1001
AVE_RENDER
1002
{
1070
     0
1000
Quick Opt
1070
     0
1070
     1
1070
     1
1070
     1
1070
     0
1070
     0
1070
     1
1002
}
  0
TEXT
  5
30B1
  8
0
 10
-6.684022339202329
 20
195.53424567700279
 30
0.0
 40
3.0
  1

  7
DAYUS
  0
INSERT
  5
30B2
  8
ASHADE
 62
     1
  2
AVE_RENDER
 10
-225.00435730905571
 20
41.876159476150143
 30
0.0
1001
AVE_RENDER
1002
{
1070
     2
1000
Pref
1070
    30
1070
    20
1070
     0
1070
     0
1000

1070
    10
1070
     0
1070
    30
1040
1.0
1070
     1
1040
0.3
1040
0.7
1040
0.0
1040
10.0
1010
-1.0
1020
-1.0
1030
-1.0
1040
0.3
1070
    49
1002
}
  0
INSERT
  5
30B3
  8
ASHADE
 62
     3
  2
AVE_RENDER
 10
-225.00435730905571
 20
41.876159476150143
 30
0.0
1001
AVE_RENDER
1002
{
1070
     0
1000
Full Opt
1070
     0
1070
     1
1070
     1
1070
     1
1070
     0
1070
     0
1070
     0
1070
     1
1070
     1
1040
0.0001
1040
0.0001
1002
}
  0
INSERT
  5
30B4
  8
ASHADE
 62
     4
  2
AVE_RENDER
 10
-225.00435730905571
 20
41.876159476150143
 30
0.0
1001
AVE_RENDER
1002
{
1070
     0
1000
Quick Opt
1070
     0
1070
     1
1070
     1
1070
     1
1070
     0
1070
     0
1070
     1
1002
}
  0
INSERT
  5
30B5
  8
ASHADE
 62
     1
  2
AVE_RENDER
 10
-527.15476020821609
 20
22.92321127930072
 30
0.0
1001
AVE_RENDER
1002
{
1070
     2
1000
Pref
1070
    30
1070
    20
1070
     0
1070
     0
1000

1070
    10
1070
     0
1070
    30
1040
1.0
1070
     1
1040
0.3
1040
0.7
1040
0.0
1040
10.0
1010
-1.0
1020
-1.0
1030
-1.0
1040
0.3
1070
    49
1002
}
  0
INSERT
  5
30B6
  8
ASHADE
 62
     3
  2
AVE_RENDER
 10
-527.15476020821609
 20
22.92321127930072
 30
0.0
1001
AVE_RENDER
1002
{
1070
     0
1000
Full Opt
1070
     0
1070
     1
1070
     1
1070
     1
1070
     0
1070
     0
1070
     0
1070
     1
1070
     1
1040
0.0001
1040
0.0001
1002
}
  0
INSERT
  5
30B7
  8
ASHADE
 62
     4
  2
AVE_RENDER
 10
-527.15476020821609
 20
22.92321127930072
 30
0.0
1001
AVE_RENDER
1002
{
1070
     0
1000
Quick Opt
1070
     0
1070
     1
1070
     1
1070
     1
1070
     0
1070
     0
1070
     1
1002
}
  0
TEXT
  5
30B8
  8
0
 10
-22.676422611644512
 20
188.87567338682371
 30
0.0
 40
3.0
  1

  7
DAYUS
  0
INSERT
  5
30B9
  8
ASHADE
 62
     1
  2
AVE_RENDER
 10
-240.9967575814978
 20
35.217587185971048
 30
0.0
1001
AVE_RENDER
1002
{
1070
     2
1000
Pref
1070
    30
1070
    20
1070
     0
1070
     0
1000

1070
    10
1070
     0
1070
    30
1040
1.0
1070
     1
1040
0.3
1040
0.7
1040
0.0
1040
10.0
1010
-1.0
1020
-1.0
1030
-1.0
1040
0.3
1070
    49
1002
}
  0
INSERT
  5
30BA
  8
ASHADE
 62
     3
  2
AVE_RENDER
 10
-240.9967575814978
 20
35.217587185971048
 30
0.0
1001
AVE_RENDER
1002
{
1070
     0
1000
Full Opt
1070
     0
1070
     1
1070
     1
1070
     1
1070
     0
1070
     0
1070
     0
1070
     1
1070
     1
1040
0.0001
1040
0.0001
1002
}
  0
INSERT
  5
30BB
  8
ASHADE
 62
     4
  2
AVE_RENDER
 10
-240.9967575814978
 20
35.217587185971048
 30
0.0
1001
AVE_RENDER
1002
{
1070
     0
1000
Quick Opt
1070
     0
1070
     1
1070
     1
1070
     1
1070
     0
1070
     0
1070
     1
1002
}
  0
TEXT
  5
344D
  8
0
 10
-28.715073822263321
 20
70.499259077794562
 30
0.0
 40
5.0
  1

  7
DAYUS
  0
LINE
  5
5949
  8
0
 10
-500.47527128820929
 20
-506.07633667108081
 30
0.0
 11
-486.92127128820931
 21
-506.07633667108081
 31
0.0
  0
LINE
  5
594A
  8
0
 10
-461.32527128820919
 20
-506.07633667108081
 30
0.0
 11
-447.77127128820928
 21
-506.07633667108081
 31
0.0
  0
TEXT
  5
5A03
  8
LOGO
 62
     6
 10
-417.41690387347649
 20
-575.11892123886435
 30
0.0
 40
6.8509840744681521
  1
配管口徑
 41
0.9
  7
CHINESET
 72
     4
 11
-405.02090456373571
 21
-571.69342920163024
 31
0.0
  0
LINE
  5
5A04
  8
LOGO
 62
     6
 10
-387.32959283675171
 20
-584.53902434125791
 30
0.0
 11
-422.7122162907196
 21
-584.53902434125791
 31
0.0
  0
LINE
  5
5A05
  8
LOGO
 62
     6
 10
-387.32959283675171
 20
-565.69881813647055
 30
0.0
 11
-422.7122162907196
 21
-565.69881813647055
 31
0.0
  0
TEXT
  5
5A06
  8
LOGO
  6
CONTINUOUS
 62
     6
 10
-416.76544869139542
 20
-582.3980918179866
 30
0.0
 40
4.2818650465425954
  1
Bore size
 41
0.8
  7
CHINESET
 72
     4
 11
-405.02090456373571
 21
-580.25715929471528
 31
0.0
  0
TEXT
  5
5A07
  8
LOGO
  6
CONTINUOUS
 62
     7
 10
-411.15416627648329
 20
-554.66308225433977
 30
0.0
 40
8.5637300930851907
  1
?A
  7
CHINESET
 72
     1
 11
-404.22162286779519
 21
-550.38121720779714
 31
0.0
 73
     2
  0
LINE
  5
5A08
  8
LOGO
 62
     6
 10
-390.75508487398582
 20
-542.57674688514055
 30
0.0
 11
-419.28672425348549
 21
-542.57674688514055
 31
0.0
  0
LINE
  5
5A09
  8
LOGO
 62
     6
 10
-390.75508487398588
 20
-557.99146105269369
 30
0.0
 11
-419.28672425348549
 21
-557.99146105269369
 31
0.0
  0
LINE
  5
5A0A
  8
LOGO
 62
     1
 10
-384.35652000245221
 20
-537.43850882928939
 30
0.0
 11
-677.81923935869827
 21
-537.43850882928939
 31
0.0
  0
LINE
  5
5A0B
  8
LOGO
 62
     1
 10
-384.35652000245221
 20
-588.82088938780055
 30
0.0
 11
-677.81923935869827
 21
-588.82088938780055
 31
0.0
  0
LINE
  5
5A0C
  8
LOGO
  6
CONTINUOUS
 62
     6
 10
-580.1236448513954
 20
-551.09423454585169
 30
0.0
 11
-570.77091367451533
 21
-549.85885031232283
 31
0.0
  0
LINE
  5
5A0D
  8
LOGO
  6
CONTINUOUS
 62
     6
 10
-580.1236448513954
 20
-554.59022999022932
 30
0.0
 11
-570.77091367451533
 21
-555.82561422375841
 31
0.0
  0
LINE
  5
5A0E
  8
LOGO
 62
     1
 10
-564.77800212997374
 20
-547.71498494099171
 30
0.0
 11
-640.13882694912343
 21
-547.71498494099171
 31
0.0
  0
LINE
  5
5A0F
  8
LOGO
 62
     1
 10
-564.77800212997374
 20
-557.99146105269369
 30
0.0
 11
-640.13882694912343
 21
-557.99146105269369
 31
0.0
  0
TEXT
  5
5A10
  8
LOGO
 62
     6
 10
-591.32471819123998
 20
-545.14586591306613
 30
0.0
 40
5.1382380558511143
  1
1 : 1
  7
CHINESET
 72
     1
 11
-582.27163209283572
 21
-542.57674688514055
 31
0.0
 73
     2
  0
TEXT
  5
5A11
  8
LOGO
 62
     6
 10
-591.32471819123998
 20
-565.69881813647055
 30
0.0
 40
5.1382380558511143
  1
m/m
  7
CHINESET
 72
     1
 11
-582.27163209283572
 21
-563.12969910854497
 31
0.0
 73
     2
  0
LINE
  5
5A12
  8
LOGO
 62
     1
 10
-564.77800212997374
 20
-568.26793716439602
 30
0.0
 11
-677.81923935869827
 21
-568.26793716439602
 31
0.0
  0
TEXT
  5
5A13
  8
LOGO
  6
CONTINUOUS
 62
     5
 10
-676.13740728846119
 20
-578.72689826985436
 30
0.0
 40
7.7073570837766701
  1
金器工業股份有限公司
 41
0.8
  7
LOGO
  0
TEXT
  5
5A14
  8
LOGO
  6
CONTINUOUS
 62
     5
 10
-673.93048508312336
 20
-586.43576539133926
 30
0.0
 40
5.1382380558511143
  1
MINDMAN INDUSTRIAL CO.,LTD
 41
0.85
  7
CHINESET
  0
SOLID
  5
5A15
  8
LOGO
 62
     5
 10
-672.4882349133037
 20
-559.72634776713846
 30
0.0
 11
-670.26659560532016
 21
-559.72634776713926
 31
0.0
 12
-660.99699711338872
 22
-538.65907846729533
 32
0.0
 13
-658.77535780540563
 23
-538.65907846729669
 33
0.0
  0
SOLID
  5
5A16
  8
LOGO
 62
     5
 10
-669.34729658132574
 20
-559.72634776713846
 30
0.0
 11
-667.12565727334265
 21
-559.72634776713846
 31
0.0
 12
-658.77535780540563
 22
-540.34446001128345
 32
0.0
 13
-660.99699711338872
 23
-548.49047080722312
 33
0.0
  0
SOLID
  5
5A17
  8
LOGO
 62
     2
 10
-670.26659560532016
 20
-559.72634776713926
 30
0.0
 11
-669.34729658132574
 21
-559.72634776713846
 31
0.0
 12
-658.77535780540563
 22
-538.65907846729669
 32
0.0
 13
-657.85605878141166
 23
-538.65907846729669
 33
0.0
  0
SOLID
  5
5A18
  8
LOGO
 62
     5
 10
-670.20320648990071
 20
-563.55676036711031
 30
0.0
 11
-669.43712396990725
 21
-563.55676036711031
 31
0.0
 12
-670.20320648990071
 22
-567.38717296708103
 32
0.0
 13
-669.43712396990725
 23
-567.38717296708103
 33
0.0
  0
SOLID
  5
5A19
  8
LOGO
 62
     5
 10
-676.050067536695
 20
-567.38717296708103
 30
0.0
 11
-675.28398501669983
 21
-567.38717296708103
 31
0.0
 12
-673.12663701329825
 22
-563.55676036711031
 32
0.0
 13
-672.36055449330468
 23
-563.55676036711031
 33
0.0
  0
SOLID
  5
5A1A
  8
LOGO
 62
     5
 10
-673.12663701329825
 20
-563.55676036711031
 30
0.0
 11
-672.36055449330468
 21
-563.55676036711031
 31
0.0
 12
-673.12663701329825
 22
-567.38717296708103
 32
0.0
 13
-672.36055449330468
 23
-567.38717296708103
 33
0.0
  0
SOLID
  5
5A1B
  8
LOGO
 62
     5
 10
-673.12663701329825
 20
-567.38717296708103
 30
0.0
 11
-672.36055449330468
 21
-567.38717296708103
 31
0.0
 12
-670.20320648990071
 22
-563.55676036711031
 32
0.0
 13
-669.43712396990725
 23
-563.55676036711031
 33
0.0
  0
LINE
  5
5A1C
  8
LOGO
 62
     1
 10
-677.81923935869827
 20
-588.82088938780055
 30
0.0
 11
-677.81923935869827
 21
-537.43850882928939
 31
0.0
  0
TEXT
  5
5A1D
  8
LOGO
 62
     6
 10
-635.90207440932113
 20
-545.14333725260553
 30
0.0
 40
5.1382380558511143
  1
比例 Scale:
 41
0.9
  7
CHINESET
 72
     4
 11
-619.58587472571878
 21
-542.57674688514055
 31
0.0
  0
TEXT
  5
5A1E
  8
LOGO
 62
     6
 10
-634.10598494604812
 20
-555.35006447993726
 30
0.0
 40
5.1382380558511143
  1
投影 View:
 41
0.9
  7
CHINESET
 72
     4
 11
-619.58587472571878
 21
-552.85322299684265
 31
0.0
  0
TEXT
  5
5A1F
  8
LOGO
 62
     6
 10
-633.60363042183758
 20
-565.69881813647055
 30
0.0
 40
5.1382380558511143
  1
單位 Unit:
 41
0.9
  7
CHINESET
 72
     4
 11
-619.58587472571878
 21
-563.12969910854497
 31
0.0
  0
POLYLINE
  5
5A20
  8
LOGO
 62
     5
 66
     1
 10
0.0
 20
0.0
 30
0.0
 70
     1
 40
0.7673102163404331
 41
0.7673102163404331
  0
VERTEX
  5
5EA6
  8
LOGO
 62
     5
 10
-651.5510503539839
 20
-565.47196666709601
 30
0.0
 42
1.0
  0
VERTEX
  5
5EA7
  8
LOGO
 62
     5
 10
-648.48180948862228
 20
-565.47196666709601
 30
0.0
 42
1.0
  0
SEQEND
  5
5EA8
  8
LOGO
 62
     5
  0
LINE
  5
5A21
  8
LOGO
 62
     5
 10
-644.14318167351462
 20
-567.38717296708103
 30
0.0
 11
-644.14318167351462
 21
-565.08892540709883
 31
0.0
  0
SOLID
  5
5A22
  8
LOGO
 62
     5
 10
-648.8673827495619
 20
-563.55676036711031
 30
0.0
 11
-648.10130022956832
 21
-563.55676036711031
 31
0.0
 12
-648.8673827495619
 22
-567.38717296708103
 32
0.0
 13
-648.10130022956832
 23
-567.38717296708103
 33
0.0
  0
SOLID
  5
5A23
  8
LOGO
 62
     5
 10
-647.20751175349176
 20
-567.38717296708103
 30
0.0
 11
-646.44142923349693
 21
-567.38717296708103
 31
0.0
 12
-647.20751175349176
 22
-563.55676036711031
 32
0.0
 13
-646.44142923349693
 23
-563.55676036711031
 33
0.0
  0
SOLID
  5
5A24
  8
LOGO
 62
     5
 10
-644.90926419350808
 20
-565.08892540709883
 30
0.0
 11
-644.14318167351462
 21
-565.08892540709894
 31
0.0
 12
-644.90926419350808
 22
-567.38717296708103
 32
0.0
 13
-644.14318167351462
 23
-567.38717296708103
 33
0.0
  0
SOLID
  5
5A25
  8
LOGO
 62
     5
 10
-659.84794994164884
 20
-562.40763658711842
 30
0.0
 11
-659.08186742165515
 21
-562.40763658711842
 31
0.0
 12
-659.84794994164884
 22
-567.38717296708103
 32
0.0
 13
-659.08186742165515
 23
-567.38717296708103
 33
0.0
  0
SOLID
  5
5A26
  8
LOGO
 62
     5
 10
-658.18807894557654
 20
-563.55676036711031
 30
0.0
 11
-657.42199642558296
 21
-563.55676036711031
 31
0.0
 12
-658.18807894557654
 22
-567.38717296708103
 32
0.0
 13
-657.42199642558296
 23
-567.38717296708103
 33
0.0
  0
SOLID
  5
5A27
  8
LOGO
 62
     5
 10
-655.88983138559433
 20
-565.08892540709883
 30
0.0
 11
-655.12374886560065
 21
-565.08892540709883
 31
0.0
 12
-655.88983138559433
 22
-567.38717296708103
 32
0.0
 13
-655.12374886560065
 23
-567.38717296708103
 33
0.0
  0
SOLID
  5
5A28
  8
LOGO
 62
     5
 10
-653.59158382561179
 20
-565.08892540709883
 30
0.0
 11
-652.82550130561845
 21
-565.08892540709883
 31
0.0
 12
-653.59158382561179
 22
-567.38717296708251
 32
0.0
 13
-652.82550130561845
 23
-567.38717296708251
 33
0.0
  0
LINE
  5
5A29
  8
LOGO
 62
     1
 10
-640.13882694912343
 20
-568.26793716439613
 30
0.0
 11
-640.13882694912343
 21
-537.43850882928939
 31
0.0
  0
SOLID
  5
5A2A
  8
LOGO
 62
     5
 10
-666.87039857768036
 20
-563.55676036711031
 30
0.0
 11
-666.1043160576869
 21
-563.55676036711031
 31
0.0
 12
-666.87039857768036
 22
-567.38717296708103
 32
0.0
 13
-666.1043160576869
 23
-567.38717296708103
 33
0.0
  0
SOLID
  5
5A2B
  8
LOGO
 62
     5
 10
-664.57215101769827
 20
-565.08892540709883
 30
0.0
 11
-663.80606849770345
 21
-565.08892540709883
 31
0.0
 12
-664.57215101769827
 22
-567.38717296708103
 32
0.0
 13
-663.80606849770345
 23
-567.38717296708103
 33
0.0
  0
SOLID
  5
5A2C
  8
LOGO
 62
     5
 10
-668.53026957375278
 20
-563.55676036711031
 30
0.0
 11
-667.76418705375704
 21
-563.55676036711031
 31
0.0
 12
-668.53026957375278
 22
-567.38717296708251
 32
0.0
 13
-667.76418705375704
 23
-567.38717296708103
 33
0.0
  0
POLYLINE
  5
5A2D
  8
LOGO
 62
     5
 66
     1
 10
0.0
 20
0.0
 30
0.0
 70
     1
 40
0.7673102163404331
 41
0.7673102163404331
  0
VERTEX
  5
5EA9
  8
LOGO
 62
     5
 10
-662.53161754607015
 20
-565.47196666709601
 30
0.0
 42
1.0
  0
VERTEX
  5
5EAA
  8
LOGO
 62
     5
 10
-659.4623766807083
 20
-565.47196666709601
 30
0.0
 42
1.0
  0
SEQEND
  5
5EAB
  8
LOGO
 62
     5
  0
POLYLINE
  5
5A2E
  8
LOGO
 62
     5
 66
     1
 10
0.0
 20
0.0
 30
0.0
 40
0.7673102163404331
 41
0.7673102163404331
  0
VERTEX
  5
5EAC
  8
LOGO
 62
     5
 10
-644.52438138899174
 20
-565.08892540709883
 30
0.0
 42
1.0
  0
VERTEX
  5
5EAD
  8
LOGO
 62
     5
 10
-646.82631203801316
 20
-565.08892540709883
 30
0.0
 42
1.0
  0
SEQEND
  5
5EAE
  8
LOGO
 62
     5
  0
SOLID
  5
5A2F
  8
LOGO
 62
     5
 10
-646.3648209814977
 20
-559.72634776713926
 30
0.0
 11
-644.14318167351462
 21
-559.72634776713926
 31
0.0
 12
-646.3648209814977
 22
-538.65907846729669
 32
0.0
 13
-644.14318167351462
 23
-538.65907846729533
 33
0.0
  0
SOLID
  5
5A30
  8
LOGO
 62
     5
 10
-657.85605878141166
 20
-538.65907846729669
 30
0.0
 11
-655.63441947342858
 21
-538.65907846729533
 31
0.0
 12
-657.85605878141166
 22
-558.04096622315194
 32
0.0
 13
-655.63441947342858
 23
-549.89495542721215
 33
0.0
  0
SOLID
  5
5A31
  8
LOGO
 62
     5
 10
-657.85605878141166
 20
-558.04096622315194
 30
0.0
 11
-655.63441947342858
 21
-549.89495542721215
 31
0.0
 12
-647.28412000549145
 22
-538.65907846729533
 32
0.0
 13
-649.50575931347498
 23
-538.65907846729533
 33
0.0
  0
SOLID
  5
5A32
  8
LOGO
 62
     5
 10
-647.28412000549145
 20
-540.34446001128345
 30
0.0
 11
-649.50575931347498
 21
-548.49047080722312
 31
0.0
 12
-647.28412000549145
 22
-559.72634776713926
 32
0.0
 13
-649.50575931347498
 23
-559.72634776713926
 33
0.0
  0
SOLID
  5
5A33
  8
LOGO
 62
     2
 10
-647.28412000549145
 20
-538.65907846729533
 30
0.0
 11
-646.3648209814977
 21
-538.65907846729669
 31
0.0
 12
-647.28412000549145
 22
-559.72634776713926
 32
0.0
 13
-646.3648209814977
 23
-559.72634776713926
 33
0.0
  0
SOLID
  5
5A34
  8
LOGO
 62
     5
 10
-660.99699711338872
 20
-559.72634776713846
 30
0.0
 11
-658.77535780540563
 21
-559.72634776713846
 31
0.0
 12
-660.99699711338872
 22
-548.49047080722312
 32
0.0
 13
-658.77535780540563
 23
-540.34446001128345
 33
0.0
  0
SOLID
  5
5A35
  8
LOGO
 62
     2
 10
-658.77535780540563
 20
-538.65907846729669
 30
0.0
 11
-657.85605878141166
 21
-538.65907846729669
 31
0.0
 12
-658.77535780540563
 22
-559.72634776713846
 32
0.0
 13
-657.85605878141166
 23
-559.72634776713846
 33
0.0
  0
SOLID
  5
5A36
  8
LOGO
 62
     5
 10
-657.85605878141166
 20
-559.72634776713846
 30
0.0
 11
-655.63441947342858
 21
-559.72634776713846
 31
0.0
 12
-647.28412000549145
 22
-540.34446001128345
 32
0.0
 13
-649.50575931347498
 23
-548.49047080722312
 33
0.0
  0
SOLID
  5
5A37
  8
LOGO
 62
     2
 10
-658.77535780540563
 20
-559.72634776713846
 30
0.0
 11
-657.85605878141166
 21
-559.72634776713846
 31
0.0
 12
-647.28412000549145
 22
-538.65907846729533
 32
0.0
 13
-646.3648209814977
 23
-538.65907846729669
 33
0.0
  0
POLYLINE
  5
5A38
  8
LOGO
 62
     5
 66
     1
 10
0.0
 20
0.0
 30
0.0
 40
0.7673102163404331
 41
0.7673102163404331
  0
VERTEX
  5
5EAF
  8
LOGO
 62
     5
 10
-655.504948581078
 20
-565.08892540709883
 30
0.0
 42
1.0
  0
VERTEX
  5
5EB0
  8
LOGO
 62
     5
 10
-657.80687923009918
 20
-565.08892540709883
 30
0.0
 42
1.0
  0
SEQEND
  5
5EB1
  8
LOGO
 62
     5
  0
POLYLINE
  5
5A39
  8
LOGO
 62
     5
 66
     1
 10
0.0
 20
0.0
 30
0.0
 40
0.7673102163404331
 41
0.7673102163404331
  0
VERTEX
  5
5EB2
  8
LOGO
 62
     5
 10
-664.18726821318182
 20
-565.08892540709883
 30
0.0
 42
1.0
  0
VERTEX
  5
5EB3
  8
LOGO
 62
     5
 10
-666.48919886220312
 20
-565.08892540709883
 30
0.0
 42
1.0
  0
SEQEND
  5
5EB4
  8
LOGO
 62
     5
  0
SOLID
  5
5A3A
  8
LOGO
 62
     5
 10
-668.53026957375278
 20
-563.02050260311455
 30
0.0
 11
-667.76418705375704
 21
-563.02050260311455
 31
0.0
 12
-668.53026957375278
 22
-562.40763658711842
 32
0.0
 13
-667.76418705375704
 23
-562.40763658711842
 33
0.0
  0
POLYLINE
  5
5A3B
  8
LOGO
 62
     5
 66
     1
 10
0.0
 20
0.0
 30
0.0
 70
     1
  0
VERTEX
  5
5EB5
  8
LOGO
 62
     5
 10
-651.16555370129424
 20
-565.47196666709556
 30
0.0
 42
1.0000000573306349
  0
VERTEX
  5
5EB6
  8
LOGO
 62
     5
 10
-648.86730614131102
 20
-565.47196666709556
 30
0.0
 42
1.0000000573306349
  0
SEQEND
  5
5EB7
  8
LOGO
 62
     5
  0
CIRCLE
  5
5A3C
  8
LOGO
 62
     5
 10
-650.01642992130246
 20
-565.47196666709556
 30
0.0
 40
1.149123779991432
  0
POLYLINE
  5
5A3D
  8
LOGO
 62
     5
 66
     1
 10
0.0
 20
0.0
 30
0.0
 40
0.7673102163404331
 41
0.7673102163404331
  0
VERTEX
  5
5EB8
  8
LOGO
 62
     5
 10
-653.20670102109568
 20
-565.08892540709883
 30
0.0
 42
1.0
  0
VERTEX
  5
5EB9
  8
LOGO
 62
     5
 10
-655.5086316701171
 20
-565.08892540709883
 30
0.0
 42
1.0
  0
SEQEND
  5
5EBA
  8
LOGO
 62
     5
  0
LINE
  5
5A3E
  8
LOGO
 62
     1
 10
-599.03292250231448
 20
-568.26793716439613
 30
0.0
 11
-599.03292250231448
 21
-537.43850882928939
 31
0.0
  0
CIRCLE
  5
5A3F
  8
LOGO
  6
CONTINUOUS
 62
     6
 10
-589.51883206124933
 20
-552.84223226804056
 30
0.0
 40
2.9833819557178018
  0
CIRCLE
  5
5A40
  8
LOGO
  6
CONTINUOUS
 62
     6
 10
-589.51883206124933
 20
-552.84223226804056
 30
0.0
 40
1.747997722188732
  0
LINE
  5
5A41
  8
LOGO
 62
     6
 10
-580.12364485139528
 20
-554.59022999022932
 30
0.0
 11
-580.1236448513954
 21
-551.09423454585169
 31
0.0
  0
TEXT
  5
5A42
  8
LOGO
  6
CONTINUOUS
 62
     6
 10
-471.04497234021937
 20
-582.3980918179866
 30
0.0
 40
4.2818650465425954
  1
Model
  7
CHINESET
 72
     4
 11
-462.88903891823361
 21
-580.25715929471528
 31
0.0
  0
TEXT
  5
5A43
  8
LOGO
  6
CONTINUOUS
 62
     7
 10
-486.23335854721893
 20
-554.56596901545993
 30
0.0
 40
8.5637300930851907
  1
MAR301
  7
CHINESET
 72
     1
 11
-463.3967449656584
 21
-550.28410396891718
 31
0.0
 73
     2
  0
LINE
  5
5A44
  8
LOGO
 62
     6
 10
-431.6742596989086
 20
-542.57674688514055
 30
0.0
 11
-494.10381813755862
 21
-542.57674688514055
 31
0.0
  0
LINE
  5
5A45
  8
LOGO
 62
     6
 10
-431.6742596989086
 20
-557.99146105269369
 30
0.0
 11
-494.10381813755862
 21
-557.99146105269369
 31
0.0
  0
LINE
  5
5A46
  8
LOGO
 62
     6
 10
-445.76157873206319
 20
-565.69881813647055
 30
0.0
 11
-480.01649910440392
 21
-565.69881813647055
 31
0.0
  0
LINE
  5
5A47
  8
LOGO
 62
     6
 10
-445.76157873206319
 20
-584.53902434125791
 30
0.0
 11
-480.01649910440392
 21
-584.53902434125791
 31
0.0
  0
TEXT
  5
5A48
  8
LOGO
 62
     7
 10
-560.57210311412211
 20
-550.30348834355664
 30
0.0
 40
10.27647611170222
  1
訂購代號:
  7
CHINESET
  0
TEXT
  5
5A49
  8
LOGO
 62
     7
 10
-561.80122631241511
 20
-559.94825540605495
 30
0.0
 40
6.8509840744681521
  1
Order example:
 41
0.8
  7
CHINESET
  0
LINE
  5
5A4A
  8
LOGO
 62
     1
 10
-564.77800212997374
 20
-588.82088938780055
 30
0.0
 11
-564.77800212997374
 21
-537.43850882928939
 31
0.0
  0
LINE
  5
5A4B
  8
LOGO
 62
     6
 10
-570.77091367451533
 20
-555.82561422375841
 30
0.0
 11
-570.77091367451533
 21
-549.85885031232283
 31
0.0
  0
LINE
  5
5A4C
  8
LOGO
 62
     6
 10
-480.01649910440392
 20
-565.69881813647055
 30
0.0
 11
-480.01649910440392
 21
-584.53902434125791
 31
0.0
  0
LINE
  5
5A4D
  8
LOGO
 62
     6
 10
-494.10381813755862
 20
-542.57674688514055
 30
0.0
 11
-494.10381813755862
 21
-557.99146105269369
 31
0.0
  0
LINE
  5
5A4E
  8
LOGO
 62
     6
 10
-445.76157873206301
 20
-565.69881813647055
 30
0.0
 11
-445.76157873206301
 21
-584.53902434125791
 31
0.0
  0
TEXT
  5
5A4F
  8
LOGO
 62
     6
 10
-469.74002299270171
 20
-574.94360078026557
 30
0.0
 40
6.8509840744681521
  1
型式
  7
CHINESET
 72
     4
 11
-462.88903891823361
 21
-571.69342920163024
 31
0.0
  0
LINE
  5
5A50
  8
LOGO
 62
     6
 10
-462.88903891823361
 20
-557.99146105269369
 30
0.0
 11
-462.88903891823361
 21
-565.69881813647055
 31
0.0
  0
LINE
  5
5A51
  8
LOGO
 62
     6
 10
-431.67425969890849
 20
-542.57674688514055
 30
0.0
 11
-431.67425969890849
 21
-557.99146105269369
 31
0.0
  0
LINE
  5
5A52
  8
LOGO
 62
     6
 10
-422.7122162907196
 20
-565.69881813647055
 30
0.0
 11
-422.7122162907196
 21
-584.53902434125791
 31
0.0
  0
LINE
  5
5A53
  8
LOGO
  6
CONTINUOUS
 62
     7
 10
-428.75903631485841
 20
-550.33870532259914
 30
0.0
 11
-421.952460996394
 21
-550.33870532259914
 31
0.0
  0
LINE
  5
5A54
  8
LOGO
 62
     6
 10
-419.28672425348537
 20
-542.57674688514055
 30
0.0
 11
-419.28672425348549
 21
-557.99146105269369
 31
0.0
  0
LINE
  5
5A55
  8
LOGO
 62
     6
 10
-404.65816050847741
 20
-557.99146105269369
 30
0.0
 11
-404.65816050847741
 21
-565.69881813647055
 31
0.0
  0
LINE
  5
5A56
  8
LOGO
 62
     6
 10
-387.32959283675171
 20
-565.69881813647055
 30
0.0
 11
-387.32959283675171
 21
-584.61006441117695
 31
0.0
  0
LINE
  5
5A57
  8
LOGO
 62
     6
 10
-390.75508487398582
 20
-542.57674688514055
 30
0.0
 11
-390.75508487398588
 21
-557.99146105269369
 31
0.0
  0
LINE
  5
5A58
  8
LOGO
 62
     1
 10
-384.35652000245221
 20
-588.82088938780055
 30
0.0
 11
-384.35652000245221
 21
-537.43850882928939
 31
0.0
  0
ENDSEC
  0
EOF
