  0
SECTION
  2
HEADER
  9
$ACADVER
  1
AC1009
  9
$INSBASE
 10
0.0
 20
0.0
 30
0.0
  9
$EXTMIN
 10
-98.721422825394029
 20
-200.183463223166
 30
-0.0000000000000064
  9
$EXTMAX
 10
148.3170524616614
 20
97.384686172673582
 30
0.0000000000000089
  9
$LIMMIN
 10
0.0
 20
0.0
  9
$LIMMAX
 10
420.0
 20
297.0
  9
$ORTHOMODE
 70
     1
  9
$REGENMODE
 70
     1
  9
$FILLMODE
 70
     1
  9
$QTEXTMODE
 70
     0
  9
$MIRRTEXT
 70
     1
  9
$DRAGMODE
 70
     2
  9
$LTSCALE
 40
5.0
  9
$OSMODE
 70
    39
  9
$ATTMODE
 70
     1
  9
$TEXTSIZE
 40
10.0
  9
$TRACEWID
 40
1.0
  9
$TEXTSTYLE
  7
CHINESET
  9
$CLAYER
  8
0
  9
$CELTYPE
  6
BYLAYER
  9
$CECOLOR
 62
   256
  9
$DIMSCALE
 40
1.0
  9
$DIMASZ
 40
3.0
  9
$DIMEXO
 40
2.0
  9
$DIMDLI
 40
2.0
  9
$DIMRND
 40
0.0
  9
$DIMDLE
 40
0.0
  9
$DIMEXE
 40
2.0
  9
$DIMTP
 40
0.0
  9
$DIMTM
 40
0.0
  9
$DIMTXT
 40
3.0
  9
$DIMCEN
 40
2.5
  9
$DIMTSZ
 40
0.0
  9
$DIMTOL
 70
     0
  9
$DIMLIM
 70
     0
  9
$DIMTIH
 70
     0
  9
$DIMTOH
 70
     0
  9
$DIMSE1
 70
     0
  9
$DIMSE2
 70
     0
  9
$DIMTAD
 70
     1
  9
$DIMZIN
 70
     8
  9
$DIMBLK
  1

  9
$DIMASO
 70
     1
  9
$DIMSHO
 70
     1
  9
$DIMPOST
  1

  9
$DIMAPOST
  1

  9
$DIMALT
 70
     0
  9
$DIMALTD
 70
     4
  9
$DIMALTF
 40
0.0394
  9
$DIMLFAC
 40
1.0
  9
$DIMTOFL
 70
     1
  9
$DIMTVP
 40
0.0
  9
$DIMTIX
 70
     0
  9
$DIMSOXD
 70
     0
  9
$DIMSAH
 70
     0
  9
$DIMBLK1
  1

  9
$DIMBLK2
  1

  9
$DIMSTYLE
  2
STANDARD
  9
$DIMCLRD
 70
     5
  9
$DIMCLRE
 70
     5
  9
$DIMCLRT
 70
     5
  9
$DIMTFAC
 40
1.0
  9
$DIMGAP
 40
1.0
  9
$LUNITS
 70
     2
  9
$LUPREC
 70
     4
  9
$SKETCHINC
 40
1.0
  9
$FILLETRAD
 40
0.0
  9
$AUNITS
 70
     0
  9
$AUPREC
 70
     0
  9
$MENU
  1
.
  9
$ELEVATION
 40
0.0
  9
$PELEVATION
 40
0.0
  9
$THICKNESS
 40
0.0
  9
$LIMCHECK
 70
     0
  9
$BLIPMODE
 70
     0
  9
$CHAMFERA
 40
2.0
  9
$CHAMFERB
 40
2.0
  9
$SKPOLY
 70
     0
  9
$TDCREATE
 40
2451457.340116411
  9
$TDUPDATE
 40
2451949.4475055672
  9
$TDINDWG
 40
1.4941969444000001
  9
$TDUSRTIMER
 40
1.4941969444000001
  9
$USRTIMER
 70
     1
  9
$ANGBASE
 50
0.0
  9
$ANGDIR
 70
     0
  9
$PDMODE
 70
     0
  9
$PDSIZE
 40
0.0
  9
$PLINEWID
 40
0.0
  9
$COORDS
 70
     2
  9
$SPLFRAME
 70
     0
  9
$SPLINETYPE
 70
     6
  9
$SPLINESEGS
 70
     8
  9
$ATTDIA
 70
     0
  9
$ATTREQ
 70
     1
  9
$HANDLING
 70
 12289
  9
$HANDSEED
  5
5C29
  9
$SURFTAB1
 70
     6
  9
$SURFTAB2
 70
     6
  9
$SURFTYPE
 70
     6
  9
$SURFU
 70
     6
  9
$SURFV
 70
     6
  9
$UCSNAME
  2

  9
$UCSORG
 10
0.0
 20
0.0
 30
0.0
  9
$UCSXDIR
 10
1.0
 20
0.0
 30
0.0
  9
$UCSYDIR
 10
0.0
 20
1.0
 30
0.0
  9
$PUCSNAME
  2

  9
$PUCSORG
 10
0.0
 20
0.0
 30
0.0
  9
$PUCSXDIR
 10
1.0
 20
0.0
 30
0.0
  9
$PUCSYDIR
 10
0.0
 20
1.0
 30
0.0
  9
$USERI1
 70
     0
  9
$USERI2
 70
     0
  9
$USERI3
 70
     0
  9
$USERI4
 70
     0
  9
$USERI5
 70
     0
  9
$USERR1
 40
0.0
  9
$USERR2
 40
0.0
  9
$USERR3
 40
0.0
  9
$USERR4
 40
0.0
  9
$USERR5
 40
0.0
  9
$WORLDVIEW
 70
     1
  9
$SHADEDGE
 70
     3
  9
$SHADEDIF
 70
    70
  9
$TILEMODE
 70
     1
  9
$MAXACTVP
 70
    48
  9
$PLIMCHECK
 70
     0
  9
$PEXTMIN
 10
1.0000000000000000E+020
 20
1.0000000000000000E+020
 30
1.0000000000000000E+020
  9
$PEXTMAX
 10
-1.0000000000000000E+020
 20
-1.0000000000000000E+020
 30
-1.0000000000000000E+020
  9
$PLIMMIN
 10
0.0
 20
0.0
  9
$PLIMMAX
 10
420.0
 20
297.0
  9
$UNITMODE
 70
     0
  9
$VISRETAIN
 70
     1
  9
$PLINEGEN
 70
     0
  9
$PSLTSCALE
 70
     1
  0
ENDSEC
  0
SECTION
  2
TABLES
  0
TABLE
  2
VPORT
 70
     2
  0
VPORT
  2
*ACTIVE
 70
     0
 10
0.0
 20
0.0
 11
1.0
 21
1.0
 12
24.797814818133698
 22
-51.399388525246252
 13
0.0
 23
0.0
 14
10.0
 24
10.0
 15
10.0
 25
10.0
 16
0.0
 26
0.0
 36
1.0
 17
0.0
 27
0.0
 37
0.0
 40
300.85015104358791
 41
1.7274401473296499
 42
50.0
 43
0.0
 44
0.0
 50
0.0
 51
0.0
 71
     0
 72
   100
 73
     1
 74
     1
 75
     0
 76
     0
 77
     0
 78
     0
  0
ENDTAB
  0
TABLE
  2
LTYPE
 70
     8
  0
LTYPE
  2
CONTINUOUS
 70
     0
  3
Solid line
 72
    65
 73
     0
 40
0.0
  0
LTYPE
  2
CENTER
 70
     0
  3
---- - ---- - ---- 3,-.3,.3,-.3
 72
    65
 73
     4
 40
3.8999999999999999
 49
3.0
 49
-0.3
 49
0.3
 49
-0.3
  0
LTYPE
  2
HIDDEN
 70
     0
  3
_ _ _ _ _ _ _ _ _ _ _ _ _ _ _ _ _ _ _ _ _ _ _
 72
    65
 73
     2
 40
0.375
 49
0.25
 49
-0.125
  0
ENDTAB
  0
TABLE
  2
LAYER
 70
     8
  0
LAYER
  2
0
 70
     0
 62
     7
  6
CONTINUOUS
  0
LAYER
  2
DEFPOINTS
 70
     0
 62
     7
  6
CONTINUOUS
  0
LAYER
  2
DIM
 70
     0
 62
     5
  6
CONTINUOUS
  0
LAYER
  2
CENTER
 70
     0
 62
     1
  6
CENTER
  0
LAYER
  2
ASHADE
 70
     0
 62
     7
  6
CONTINUOUS
  0
LAYER
  2
LOGO
 70
     0
 62
     7
  6
CONTINUOUS
  0
LAYER
  2
HIDDEN
 70
     0
 62
     6
  6
HIDDEN
  0
ENDTAB
  0
TABLE
  2
STYLE
 70
    14
  0
STYLE
  2
STANDARD
 70
     0
 40
0.0
 41
1.0
 50
0.0
 71
     0
 42
25.0
  3
txt
  4

  0
STYLE
  2
CHINESET
 70
     0
 40
0.0
 41
1.0
 50
0.0
 71
     0
 42
10.0
  3
simplex.shx
  4
chineset.shx
  0
STYLE
  2
DAYUS
 70
     0
 40
0.0
 41
1.0
 50
0.0
 71
     0
 42
4.0
  3
simplex
  4
dayus
  0
STYLE
  2
LOGO
 70
     0
 40
0.0
 41
1.0
 50
0.0
 71
     0
 42
5.0
  3
txt
  4

  0
ENDTAB
  0
TABLE
  2
VIEW
 70
     0
  0
ENDTAB
  0
TABLE
  2
UCS
 70
     0
  0
ENDTAB
  0
TABLE
  2
APPID
 70
     6
  0
APPID
  2
ACAD
 70
     0
  0
APPID
  2
AD_DRAW
 70
     0
  0
APPID
  2
DESIGNERASSEMBLIES
 70
     0
  0
APPID
  2
MCAD_NO_VIS
 70
     0
  0
APPID
  2
ASURF_PCURVE_APPNAME
 70
     0
  0
APPID
  2
AVE_RENDER
 70
     0
  0
ENDTAB
  0
TABLE
  2
DIMSTYLE
 70
     3
  0
DIMSTYLE
  2
STANDARD
 70
     0
  3

  4

  5

  6

  7

 40
1.0
 41
3.0
 42
2.0
 43
2.0
 44
2.0
 45
0.0
 46
0.0
 47
0.0
 48
0.0
140
3.0
141
2.5
142
0.0
143
0.0394
144
1.0
145
0.0
146
1.0
147
1.0
 71
     0
 72
     0
 73
     0
 74
     0
 75
     0
 76
     0
 77
     1
 78
     8
170
     0
171
     4
172
     1
173
     0
174
     0
175
     0
176
     5
177
     5
178
     5
  0
ENDTAB
  0
ENDSEC
  0
SECTION
  2
BLOCKS
  0
BLOCK
  8
0
  2
$MODEL_SPACE
 70
     0
 10
0.0
 20
0.0
 30
0.0
  3
$MODEL_SPACE
  1

  0
ENDBLK
  5
7
  8
0
  0
BLOCK
 67
     1
  8
0
  2
$PAPER_SPACE
 70
     0
 10
0.0
 20
0.0
 30
0.0
  3
$PAPER_SPACE
  1

  0
ENDBLK
  5
A
 67
     1
  8
0
  0
BLOCK
  8
0
  2
AVE_RENDER
 70
     0
 10
0.0
 20
0.0
 30
0.0
  3
AVE_RENDER
  1
AVE_RENDER
  0
ENDBLK
  5
2C5C
  8
0
  0
BLOCK
  8
0
  2
*D158
 70
     1
 10
0.0
 20
0.0
 30
0.0
  3
*D158
  1

  0
LINE
  5
595A
  8
0
 62
     5
 10
105.5514667040964
 20
-79.006686617892143
 30
0.0
 11
115.5922720523585
 21
-79.006686617892143
 31
0.0
  0
LINE
  5
595B
  8
0
 62
     5
 10
89.803663194558439
 20
-107.48494877293351
 30
0.0
 11
115.5922720523585
 21
-107.48494877293351
 31
0.0
  0
LINE
  5
595C
  8
0
 62
     5
 10
113.5922720523585
 20
-82.006686617892143
 30
0.0
 11
113.5922720523585
 21
-104.48494877293351
 31
0.0
  0
SOLID
  5
595D
  8
0
 62
     5
 10
113.0922720523585
 20
-82.006686617892143
 30
0.0
 11
114.0922720523585
 21
-82.006686617892143
 31
0.0
 12
113.5922720523585
 22
-79.006686617892143
 32
0.0
 13
113.5922720523585
 23
-79.006686617892143
 33
0.0
  0
SOLID
  5
595E
  8
0
 62
     5
 10
113.0922720523585
 20
-104.48494877293351
 30
0.0
 11
114.0922720523585
 21
-104.48494877293351
 31
0.0
 12
113.5922720523585
 22
-107.48494877293351
 32
0.0
 13
113.5922720523585
 23
-107.48494877293351
 33
0.0
  0
TEXT
  5
595F
  8
0
 62
     5
 10
112.5922720523585
 20
-97.817246266841394
 30
0.0
 40
3.0
  1
28.5
 50
90.0
  7
CHINESET
  0
POINT
  5
5960
  8
DEFPOINTS
 62
     0
 10
103.5514667040964
 20
-79.006686617892143
 30
0.0
  0
POINT
  5
5961
  8
DEFPOINTS
 62
     0
 10
87.803663194558453
 20
-107.48494877293351
 30
0.0
  0
POINT
  5
5962
  8
DEFPOINTS
 62
     0
 10
113.5922720523585
 20
-107.48494877293351
 30
0.0
  0
ENDBLK
  5
58BC
  8
0
  0
BLOCK
  8
0
  2
*D159
 70
     1
 10
0.0
 20
0.0
 30
0.0
  3
*D159
  1

  0
LINE
  5
58BF
  8
0
  6
BYBLOCK
 62
     5
 10
-282.67293518419439
 20
-107.48494877293351
 30
0.0
 11
-256.88432632639427
 21
-107.48494877293351
 31
0.0
  0
LINE
  5
58C0
  8
0
  6
BYBLOCK
 62
     5
 10
-289.42293518419439
 20
-137.48494877293351
 30
0.0
 11
-256.88432632639427
 21
-137.48494877293351
 31
0.0
  0
LINE
  5
58C1
  8
0
  6
BYBLOCK
 62
     5
 10
-258.88432632639427
 20
-110.48494877293351
 30
0.0
 11
-258.88432632639427
 21
-134.48494877293351
 31
0.0
  0
SOLID
  5
58C2
  8
0
  6
BYBLOCK
 62
     5
 10
-259.38432632639427
 20
-110.48494877293351
 30
0.0
 11
-258.38432632639427
 21
-110.48494877293351
 31
0.0
 12
-258.88432632639427
 22
-107.48494877293351
 32
0.0
 13
-258.88432632639427
 23
-107.48494877293351
 33
0.0
  0
SOLID
  5
58C3
  8
0
  6
BYBLOCK
 62
     5
 10
-259.38432632639427
 20
-134.48494877293351
 30
0.0
 11
-258.38432632639427
 21
-134.48494877293351
 31
0.0
 12
-258.88432632639427
 22
-137.48494877293351
 32
0.0
 13
-258.88432632639427
 23
-137.48494877293351
 33
0.0
  0
TEXT
  5
58C4
  8
0
 62
     5
 10
-259.88432632639427
 20
-124.91352020150489
 30
0.0
 40
3.0
  1
30
 50
90.0
  7
CHINESET
  0
POINT
  5
58C5
  8
DEFPOINTS
  6
BYBLOCK
 62
     0
 10
-284.67293518419439
 20
-107.48494877293351
 30
0.0
  0
POINT
  5
58C6
  8
DEFPOINTS
  6
BYBLOCK
 62
     0
 10
-291.42293518419439
 20
-137.48494877293351
 30
0.0
  0
POINT
  5
58C7
  8
DEFPOINTS
  6
BYBLOCK
 62
     0
 10
-258.88432632639427
 20
-137.48494877293351
 30
0.0
  0
ENDBLK
  5
58C8
  8
0
  0
BLOCK
  8
0
  2
*D160
 70
     1
 10
0.0
 20
0.0
 30
0.0
  3
*D160
  1

  0
LINE
  5
59D3
  8
0
 62
     5
 10
84.553663194558453
 20
-36.484948772933528
 30
0.0
 11
135.3815313431241
 21
-36.484948772933542
 31
0.0
  0
LINE
  5
59D4
  8
0
 62
     5
 10
83.053663194558453
 20
-137.48494877293351
 30
0.0
 11
135.3815313431241
 21
-137.48494877293351
 31
0.0
  0
LINE
  5
59D5
  8
0
 62
     5
 10
133.3815313431241
 20
-39.484948772933542
 30
0.0
 11
133.3815313431241
 21
-134.48494877293351
 31
0.0
  0
SOLID
  5
59D6
  8
0
 62
     5
 10
132.8815313431241
 20
-39.484948772933542
 30
0.0
 11
133.8815313431241
 21
-39.484948772933542
 31
0.0
 12
133.3815313431241
 22
-36.484948772933542
 32
0.0
 13
133.3815313431241
 23
-36.484948772933542
 33
0.0
  0
SOLID
  5
59D7
  8
0
 62
     5
 10
132.8815313431241
 20
-134.48494877293351
 30
0.0
 11
133.8815313431241
 21
-134.48494877293351
 31
0.0
 12
133.3815313431241
 22
-137.48494877293351
 32
0.0
 13
133.3815313431241
 23
-137.48494877293351
 33
0.0
  0
TEXT
  5
59D8
  8
0
 62
     5
 10
132.3815313431241
 20
-89.913520201504952
 30
0.0
 40
3.0
  1
101
 50
90.0
  7
CHINESET
  0
POINT
  5
59D9
  8
DEFPOINTS
 62
     0
 10
82.553663194558453
 20
-36.484948772933528
 30
0.0
  0
POINT
  5
59DA
  8
DEFPOINTS
 62
     0
 10
81.053663194558439
 20
-137.48494877293351
 30
0.0
  0
POINT
  5
59DB
  8
DEFPOINTS
 62
     0
 10
133.3815313431241
 20
-137.48494877293351
 30
0.0
  0
ENDBLK
  5
591C
  8
0
  0
BLOCK
  8
0
  2
*D161
 70
     1
 10
0.0
 20
0.0
 30
0.0
  3
*D161
  1

  0
LINE
  5
59DC
  8
0
 62
     5
 10
65.553663194558453
 20
-31.840049645104688
 30
0.0
 11
65.553663194558453
 21
-15.497184217002539
 31
0.0
  0
LINE
  5
59DD
  8
0
 62
     5
 10
100.5536631945585
 20
-69.006686617892001
 30
0.0
 11
100.5536631945585
 21
-15.497184217002539
 31
0.0
  0
LINE
  5
59DE
  8
0
 62
     5
 10
68.553663194558453
 20
-17.497184217002541
 30
0.0
 11
97.553663194558524
 21
-17.497184217002541
 31
0.0
  0
SOLID
  5
59DF
  8
0
 62
     5
 10
68.553663194558453
 20
-16.997184217002541
 30
0.0
 11
68.553663194558453
 21
-17.997184217002541
 31
0.0
 12
65.553663194558453
 22
-17.497184217002541
 32
0.0
 13
65.553663194558453
 23
-17.497184217002541
 33
0.0
  0
SOLID
  5
59E0
  8
0
 62
     5
 10
97.553663194558524
 20
-16.997184217002541
 30
0.0
 11
97.553663194558524
 21
-17.997184217002541
 31
0.0
 12
100.5536631945585
 22
-17.497184217002541
 32
0.0
 13
100.5536631945585
 23
-17.497184217002541
 33
0.0
  0
TEXT
  5
59E1
  8
0
 62
     5
 10
80.625091765987051
 20
-16.497184217002541
 30
0.0
 40
3.0
  1
35
  7
CHINESET
  0
POINT
  5
59E2
  8
DEFPOINTS
 62
     0
 10
65.553663194558453
 20
-33.840049645104699
 30
0.0
  0
POINT
  5
59E3
  8
DEFPOINTS
 62
     0
 10
100.5536631945585
 20
-71.006686617892001
 30
0.0
  0
POINT
  5
59E4
  8
DEFPOINTS
 62
     0
 10
100.5536631945585
 20
-17.497184217002541
 30
0.0
  0
ENDBLK
  5
58E0
  8
0
  0
BLOCK
  8
0
  2
*D162
 70
     1
 10
0.0
 20
0.0
 30
0.0
  3
*D162
  1

  0
LINE
  5
59E5
  8
0
 62
     5
 10
65.553663194558453
 20
-31.840049645104688
 30
0.0
 11
65.553663194558453
 21
-15.497184217002539
 31
0.0
  0
LINE
  5
59E6
  8
0
 62
     5
 10
5.5536631945585091
 20
-82.841858411743047
 30
0.0
 11
5.5536631945585144
 21
-15.497184217002539
 31
0.0
  0
LINE
  5
59E7
  8
0
 62
     5
 10
62.553663194558453
 20
-17.497184217002541
 30
0.0
 11
8.5536631945585135
 21
-17.497184217002541
 31
0.0
  0
SOLID
  5
59E8
  8
0
 62
     5
 10
62.553663194558453
 20
-16.997184217002541
 30
0.0
 11
62.553663194558453
 21
-17.997184217002541
 31
0.0
 12
65.553663194558453
 22
-17.497184217002541
 32
0.0
 13
65.553663194558453
 23
-17.497184217002541
 33
0.0
  0
SOLID
  5
59E9
  8
0
 62
     5
 10
8.5536631945585135
 20
-16.997184217002541
 30
0.0
 11
8.5536631945585135
 21
-17.997184217002541
 31
0.0
 12
5.5536631945585144
 22
-17.497184217002541
 32
0.0
 13
5.5536631945585144
 23
-17.497184217002541
 33
0.0
  0
TEXT
  5
59EA
  8
0
 62
     5
 10
33.125091765987051
 20
-16.497184217002541
 30
0.0
 40
3.0
  1
60
  7
CHINESET
  0
POINT
  5
59EB
  8
DEFPOINTS
 62
     0
 10
65.553663194558453
 20
-33.840049645104699
 30
0.0
  0
POINT
  5
59EC
  8
DEFPOINTS
 62
     0
 10
5.5536631945585091
 20
-84.841858411743033
 30
0.0
  0
POINT
  5
59ED
  8
DEFPOINTS
 62
     0
 10
5.5536631945585144
 20
-17.497184217002541
 30
0.0
  0
ENDBLK
  5
58EC
  8
0
  0
BLOCK
  8
0
  2
*D163
 70
     1
 10
0.0
 20
0.0
 30
0.0
  3
*D163
  1

  0
LINE
  5
58EF
  8
0
  6
BYBLOCK
 62
     5
 10
-368.92293518419439
 20
-84.841858411743033
 30
0.0
 11
-380.42932594675352
 21
-84.841858411743033
 31
0.0
  0
LINE
  5
58F0
  8
0
  6
BYBLOCK
 62
     5
 10
-368.92293518419439
 20
-127.841858411743
 30
0.0
 11
-380.42932594675352
 21
-127.841858411743
 31
0.0
  0
LINE
  5
58F1
  8
0
  6
BYBLOCK
 62
     5
 10
-378.42932594675352
 20
-87.841858411743047
 30
0.0
 11
-378.42932594675352
 21
-124.841858411743
 31
0.0
  0
SOLID
  5
58F2
  8
0
  6
BYBLOCK
 62
     5
 10
-378.92932594675352
 20
-87.841858411743047
 30
0.0
 11
-377.92932594675352
 21
-87.841858411743047
 31
0.0
 12
-378.42932594675352
 22
-84.841858411743033
 32
0.0
 13
-378.42932594675352
 23
-84.841858411743033
 33
0.0
  0
SOLID
  5
58F3
  8
0
  6
BYBLOCK
 62
     5
 10
-378.92932594675352
 20
-124.841858411743
 30
0.0
 11
-377.92932594675352
 21
-124.841858411743
 31
0.0
 12
-378.42932594675352
 22
-127.841858411743
 32
0.0
 13
-378.42932594675352
 23
-127.841858411743
 33
0.0
  0
TEXT
  5
58F4
  8
0
 62
     5
 10
-379.42932594675358
 20
-110.1275726974573
 30
0.0
 40
3.0
  1
\U+220543
 50
90.0
  7
CHINESET
  0
POINT
  5
58F5
  8
DEFPOINTS
  6
BYBLOCK
 62
     0
 10
-366.92293518419439
 20
-84.841858411743033
 30
0.0
  0
POINT
  5
58F6
  8
DEFPOINTS
  6
BYBLOCK
 62
     0
 10
-366.92293518419439
 20
-127.841858411743
 30
0.0
  0
POINT
  5
58F7
  8
DEFPOINTS
  6
BYBLOCK
 62
     0
 10
-378.42932594675352
 20
-127.841858411743
 30
0.0
  0
ENDBLK
  5
58F8
  8
0
  0
BLOCK
  8
0
  2
*D164
 70
     1
 10
0.0
 20
0.0
 30
0.0
  3
*D164
  1

  0
LINE
  5
58FB
  8
0
  6
BYBLOCK
 62
     5
 10
-445.9437799779202
 20
63.664491430984071
 30
0.0
 11
-445.9437799779202
 21
74.245551478036305
 31
0.0
  0
LINE
  5
58FC
  8
0
  6
BYBLOCK
 62
     5
 10
-407.9437799779202
 20
63.664491430984071
 30
0.0
 11
-407.9437799779202
 21
74.245551478036305
 31
0.0
  0
LINE
  5
58FD
  8
0
  6
BYBLOCK
 62
     5
 10
-442.9437799779202
 20
72.245551478036305
 30
0.0
 11
-410.9437799779202
 21
72.245551478036305
 31
0.0
  0
SOLID
  5
58FE
  8
0
  6
BYBLOCK
 62
     5
 10
-442.9437799779202
 20
72.745551478036305
 30
0.0
 11
-442.9437799779202
 21
71.745551478036305
 31
0.0
 12
-445.9437799779202
 22
72.245551478036305
 32
0.0
 13
-445.9437799779202
 23
72.245551478036305
 33
0.0
  0
SOLID
  5
58FF
  8
0
  6
BYBLOCK
 62
     5
 10
-410.9437799779202
 20
72.745551478036305
 30
0.0
 11
-410.9437799779202
 21
71.745551478036305
 31
0.0
 12
-407.9437799779202
 22
72.245551478036305
 32
0.0
 13
-407.9437799779202
 23
72.245551478036305
 33
0.0
  0
TEXT
  5
5900
  8
0
 62
     5
 10
-429.30092283506309
 20
73.245551478036305
 30
0.0
 40
3.0
  1
36
  7
CHINESET
  0
POINT
  5
5901
  8
DEFPOINTS
  6
BYBLOCK
 62
     0
 10
-445.9437799779202
 20
61.664491430984071
 30
0.0
  0
POINT
  5
5902
  8
DEFPOINTS
  6
BYBLOCK
 62
     0
 10
-407.9437799779202
 20
61.664491430984071
 30
0.0
  0
POINT
  5
5903
  8
DEFPOINTS
  6
BYBLOCK
 62
     0
 10
-407.9437799779202
 20
72.245551478036305
 30
0.0
  0
ENDBLK
  5
5904
  8
0
  0
BLOCK
  8
0
  2
*D165
 70
     1
 10
0.0
 20
0.0
 30
0.0
  3
*D165
  1

  0
LINE
  5
59C8
  8
0
 62
     5
 10
-80.684103540833348
 20
61.664491430984071
 30
0.0
 11
-80.684103540833348
 21
81.390348839836065
 31
0.0
  0
LINE
  5
59C9
  8
0
 62
     5
 10
-27.684103540833341
 20
61.664491430984071
 30
0.0
 11
-27.684103540833341
 21
81.390348839836065
 31
0.0
  0
LINE
  5
59CA
  8
0
 62
     5
 10
-77.684103540833348
 20
79.390348839836065
 30
0.0
 11
-30.684103540833348
 21
79.390348839836065
 31
0.0
  0
SOLID
  5
59CB
  8
0
 62
     5
 10
-77.684103540833348
 20
79.890348839836065
 30
0.0
 11
-77.684103540833348
 21
78.890348839836065
 31
0.0
 12
-80.684103540833348
 22
79.390348839836065
 32
0.0
 13
-80.684103540833348
 23
79.390348839836065
 33
0.0
  0
SOLID
  5
59CC
  8
0
 62
     5
 10
-30.684103540833348
 20
79.890348839836065
 30
0.0
 11
-30.684103540833348
 21
78.890348839836065
 31
0.0
 12
-27.684103540833341
 22
79.390348839836065
 32
0.0
 13
-27.684103540833341
 23
79.390348839836065
 33
0.0
  0
TEXT
  5
59CD
  8
0
 62
     5
 10
-56.612674969404779
 20
80.390348839836065
 30
0.0
 40
3.0
  1
53
  7
CHINESET
  0
POINT
  5
59CE
  8
DEFPOINTS
 62
     0
 10
-80.684103540833348
 20
59.664491430984071
 30
0.0
  0
POINT
  5
59CF
  8
DEFPOINTS
 62
     0
 10
-27.684103540833341
 20
59.664491430984071
 30
0.0
  0
POINT
  5
59D0
  8
DEFPOINTS
 62
     0
 10
-27.684103540833341
 20
79.390348839836065
 30
0.0
  0
ENDBLK
  5
5910
  8
0
  0
BLOCK
  8
0
  2
*U166
 70
     1
 10
0.0
 20
0.0
 30
0.0
  3
*U166
  1

  0
TEXT
  5
5A1E
  8
0
 62
     0
 10
-162.44200916414269
 20
242.22272517815961
 30
0.0
 40
3.0
  1
入口\U+220510.1
  7
CHINESET
  0
TEXT
  5
5A1F
  8
0
 62
     0
 10
-144.87058059271419
 20
242.8227251781596
 30
0.0
 40
1.8
  1
±0.1
  7
CHINESET
  0
TEXT
  5
5A20
  8
0
 62
     0
 10
-139.127723449857
 20
242.22272517815961
 30
0.0
 40
3.0
  1
 8mm處\U+220510
  7
CHINESET
  0
TEXT
  5
5A21
  8
0
 62
     0
 10
-114.127723449857
 20
242.8227251781596
 30
0.0
 40
1.8
  1
±0.1
  7
CHINESET
  0
ENDBLK
  5
5A23
  8
0
  0
BLOCK
  8
0
  2
*U167
 70
     1
 10
0.0
 20
0.0
 30
0.0
  3
*U167
  1

  0
TEXT
  5
5A25
  8
0
 62
     0
 10
-151.8643677960724
 20
250.59719299930489
 30
0.0
 40
3.0
  1
入口\U+220514底部\U+220514.3
  7
CHINESET
  0
TEXT
  5
5A26
  8
0
 62
     0
 10
-119.8643677960724
 20
251.19719299930489
 30
0.0
 40
1.8
  1
±0.1
  7
CHINESET
  0
ENDBLK
  5
5A28
  8
0
  0
BLOCK
  8
0
  2
*U168
 70
     1
 10
0.0
 20
0.0
 30
0.0
  3
*U168
  1

  0
TEXT
  5
5A2A
  8
0
 62
     0
 10
-193.14132421869229
 20
157.13864028413079
 30
0.0
 40
3.0
  1
\U+220525.7
  7
CHINESET
  0
TEXT
  5
5A2B
  8
0
 62
     0
 10
-180.4270385044066
 20
157.73864028413081
 30
0.0
 40
1.8
  1
±0.1
  7
CHINESET
  0
ENDBLK
  5
5A2D
  8
0
  0
BLOCK
  8
0
  2
*U169
 70
     1
 10
0.0
 20
0.0
 30
0.0
  3
*U169
  1

  0
TEXT
  5
5B84
  8
0
 62
     0
 10
-158.11379625566491
 20
192.4687406228179
 30
0.0
 40
3.0
  1
\U+220510.2
 50
90.0
  7
CHINESET
  0
TEXT
  5
5B85
  8
0
 62
     0
 10
-159.91379625566489
 20
204.61159776567499
 30
0.0
 40
1.8
  1
+0.1
 50
90.0
  7
CHINESET
  0
TEXT
  5
5B86
  8
0
 62
     0
 10
-157.51379625566489
 20
204.61159776567499
 30
0.0
 40
1.8
  1
-0
 50
90.0
  7
CHINESET
  0
ENDBLK
  5
5B88
  8
0
  0
BLOCK
  8
0
  2
*U170
 70
     1
 10
0.0
 20
0.0
 30
0.0
  3
*U170
  1

  0
TEXT
  5
5BA1
  8
0
 62
     0
 10
-201.8199946733771
 20
201.97449427332731
 30
0.0
 40
3.0
  1
\U+2205\U+220542.2
 50
41.007164688260588
  7
DAYUS
  0
TEXT
  5
5BA2
  8
0
 62
     0
 10
-190.57086187360139
 20
212.55078036909569
 30
0.0
 40
1.8
  1
±0.2
 50
41.007164688260588
  7
DAYUS
  0
ENDBLK
  5
5BA4
  8
0
  0
BLOCK
  8
0
  2
*U171
 70
     1
 10
0.0
 20
0.0
 30
0.0
  3
*U171
  1

  0
TEXT
  5
5BA6
  8
0
 62
     0
 10
-198.6240435978915
 20
120.7938903502161
 30
0.0
 40
3.0
  1
38
  7
DAYUS
  0
TEXT
  5
5BA7
  8
0
 62
     0
 10
-192.90975788360581
 20
121.3938903502161
 30
0.0
 40
1.8
  1
±0.3
  7
DAYUS
  0
ENDBLK
  5
5BA9
  8
0
  0
BLOCK
  8
0
  2
*U172
 70
     1
 10
0.0
 20
0.0
 30
0.0
  3
*U172
  1

  0
TEXT
  5
5BE9
  8
0
 62
     5
 10
90.666977984309597
 20
-144.9854531392765
 30
0.0
 40
3.0
  1
2-PT1/4
  7
CHINESET
  0
TEXT
  5
5BEA
  8
0
 62
     5
 10
90.666977984309597
 20
-150.55688171070511
 30
0.0
 40
3.0
  1
2-PT1/8
  7
CHINESET
  0
ENDBLK
  5
5BEC
  8
0
  0
BLOCK
  8
0
  2
*U173
 70
     1
 10
0.0
 20
0.0
 30
0.0
  3
*U173
  1

  0
TEXT
  5
5BEE
  8
0
 62
     5
 10
-20.263861508689381
 20
-51.059119439054029
 30
0.0
 40
3.0
  1
2-
  7
CHINESET
  0
TEXT
  5
5BEF
  8
0
 62
     5
 10
-13.69243293726081
 20
-51.059119439054029
 30
0.0
 40
3.0
  1
\U+2205
  7
CHINESET
  0
TEXT
  5
5BF0
  8
0
 62
     5
 10
-10.9781472229751
 20
-51.059119439054029
 30
0.0
 40
3.0
  1
6.5*8.5
  7
CHINESET
  0
ENDBLK
  5
5BF2
  8
0
  0
ENDSEC
  0
SECTION
  2
ENTITIES
  0
INSERT
  5
30A8
  8
ASHADE
 62
     1
  2
AVE_RENDER
 10
-692.3883514167137
 20
-16.11565021307058
 30
0.0
1001
AVE_RENDER
1002
{
1070
     2
1000
Pref
1070
    30
1070
    20
1070
     0
1070
     0
1000

1070
    10
1070
     0
1070
    30
1040
1.0
1070
     1
1040
0.3
1040
0.7
1040
0.0
1040
10.0
1010
-1.0
1020
-1.0
1030
-1.0
1040
0.3
1070
    49
1002
}
  0
INSERT
  5
30A9
  8
ASHADE
 62
     3
  2
AVE_RENDER
 10
-692.3883514167137
 20
-16.11565021307058
 30
0.0
1001
AVE_RENDER
1002
{
1070
     0
1000
Full Opt
1070
     0
1070
     1
1070
     1
1070
     1
1070
     0
1070
     0
1070
     0
1070
     1
1070
     1
1040
0.0001
1040
0.0001
1002
}
  0
INSERT
  5
30AA
  8
ASHADE
 62
     4
  2
AVE_RENDER
 10
-692.3883514167137
 20
-16.11565021307058
 30
0.0
1001
AVE_RENDER
1002
{
1070
     0
1000
Quick Opt
1070
     0
1070
     1
1070
     1
1070
     1
1070
     0
1070
     0
1070
     1
1002
}
  0
INSERT
  5
30AB
  8
ASHADE
 62
     1
  2
AVE_RENDER
 10
-713.51427172879085
 20
22.58280370447131
 30
0.0
1001
AVE_RENDER
1002
{
1070
     2
1000
Pref
1070
    30
1070
    20
1070
     0
1070
     0
1000

1070
    10
1070
     0
1070
    30
1040
1.0
1070
     1
1040
0.3
1040
0.7
1040
0.0
1040
10.0
1010
-1.0
1020
-1.0
1030
-1.0
1040
0.3
1070
    49
1002
}
  0
INSERT
  5
30AC
  8
ASHADE
 62
     3
  2
AVE_RENDER
 10
-713.51427172879085
 20
22.58280370447131
 30
0.0
1001
AVE_RENDER
1002
{
1070
     0
1000
Full Opt
1070
     0
1070
     1
1070
     1
1070
     1
1070
     0
1070
     0
1070
     0
1070
     1
1070
     1
1040
0.0001
1040
0.0001
1002
}
  0
INSERT
  5
30AD
  8
ASHADE
 62
     4
  2
AVE_RENDER
 10
-713.51427172879085
 20
22.58280370447131
 30
0.0
1001
AVE_RENDER
1002
{
1070
     0
1000
Quick Opt
1070
     0
1070
     1
1070
     1
1070
     1
1070
     0
1070
     0
1070
     1
1002
}
  0
INSERT
  5
30AE
  8
ASHADE
 62
     1
  2
AVE_RENDER
 10
-511.16235993577402
 20
29.581783569479821
 30
0.0
1001
AVE_RENDER
1002
{
1070
     2
1000
Pref
1070
    30
1070
    20
1070
     0
1070
     0
1000

1070
    10
1070
     0
1070
    30
1040
1.0
1070
     1
1040
0.3
1040
0.7
1040
0.0
1040
10.0
1010
-1.0
1020
-1.0
1030
-1.0
1040
0.3
1070
    49
1002
}
  0
INSERT
  5
30AF
  8
ASHADE
 62
     3
  2
AVE_RENDER
 10
-511.16235993577402
 20
29.581783569479821
 30
0.0
1001
AVE_RENDER
1002
{
1070
     0
1000
Full Opt
1070
     0
1070
     1
1070
     1
1070
     1
1070
     0
1070
     0
1070
     0
1070
     1
1070
     1
1040
0.0001
1040
0.0001
1002
}
  0
INSERT
  5
30B0
  8
ASHADE
 62
     4
  2
AVE_RENDER
 10
-511.16235993577402
 20
29.581783569479821
 30
0.0
1001
AVE_RENDER
1002
{
1070
     0
1000
Quick Opt
1070
     0
1070
     1
1070
     1
1070
     1
1070
     0
1070
     0
1070
     1
1002
}
  0
TEXT
  5
30B1
  8
0
 10
-6.684022339202329
 20
195.53424567700279
 30
0.0
 40
3.0
  1

  7
DAYUS
  0
INSERT
  5
30B2
  8
ASHADE
 62
     1
  2
AVE_RENDER
 10
-225.00435730905571
 20
41.876159476150143
 30
0.0
1001
AVE_RENDER
1002
{
1070
     2
1000
Pref
1070
    30
1070
    20
1070
     0
1070
     0
1000

1070
    10
1070
     0
1070
    30
1040
1.0
1070
     1
1040
0.3
1040
0.7
1040
0.0
1040
10.0
1010
-1.0
1020
-1.0
1030
-1.0
1040
0.3
1070
    49
1002
}
  0
INSERT
  5
30B3
  8
ASHADE
 62
     3
  2
AVE_RENDER
 10
-225.00435730905571
 20
41.876159476150143
 30
0.0
1001
AVE_RENDER
1002
{
1070
     0
1000
Full Opt
1070
     0
1070
     1
1070
     1
1070
     1
1070
     0
1070
     0
1070
     0
1070
     1
1070
     1
1040
0.0001
1040
0.0001
1002
}
  0
INSERT
  5
30B4
  8
ASHADE
 62
     4
  2
AVE_RENDER
 10
-225.00435730905571
 20
41.876159476150143
 30
0.0
1001
AVE_RENDER
1002
{
1070
     0
1000
Quick Opt
1070
     0
1070
     1
1070
     1
1070
     1
1070
     0
1070
     0
1070
     1
1002
}
  0
INSERT
  5
30B5
  8
ASHADE
 62
     1
  2
AVE_RENDER
 10
-527.15476020821609
 20
22.92321127930072
 30
0.0
1001
AVE_RENDER
1002
{
1070
     2
1000
Pref
1070
    30
1070
    20
1070
     0
1070
     0
1000

1070
    10
1070
     0
1070
    30
1040
1.0
1070
     1
1040
0.3
1040
0.7
1040
0.0
1040
10.0
1010
-1.0
1020
-1.0
1030
-1.0
1040
0.3
1070
    49
1002
}
  0
INSERT
  5
30B6
  8
ASHADE
 62
     3
  2
AVE_RENDER
 10
-527.15476020821609
 20
22.92321127930072
 30
0.0
1001
AVE_RENDER
1002
{
1070
     0
1000
Full Opt
1070
     0
1070
     1
1070
     1
1070
     1
1070
     0
1070
     0
1070
     0
1070
     1
1070
     1
1040
0.0001
1040
0.0001
1002
}
  0
INSERT
  5
30B7
  8
ASHADE
 62
     4
  2
AVE_RENDER
 10
-527.15476020821609
 20
22.92321127930072
 30
0.0
1001
AVE_RENDER
1002
{
1070
     0
1000
Quick Opt
1070
     0
1070
     1
1070
     1
1070
     1
1070
     0
1070
     0
1070
     1
1002
}
  0
TEXT
  5
30B8
  8
0
 10
-22.676422611644512
 20
188.87567338682371
 30
0.0
 40
3.0
  1

  7
DAYUS
  0
INSERT
  5
30B9
  8
ASHADE
 62
     1
  2
AVE_RENDER
 10
-240.9967575814978
 20
35.217587185971048
 30
0.0
1001
AVE_RENDER
1002
{
1070
     2
1000
Pref
1070
    30
1070
    20
1070
     0
1070
     0
1000

1070
    10
1070
     0
1070
    30
1040
1.0
1070
     1
1040
0.3
1040
0.7
1040
0.0
1040
10.0
1010
-1.0
1020
-1.0
1030
-1.0
1040
0.3
1070
    49
1002
}
  0
INSERT
  5
30BA
  8
ASHADE
 62
     3
  2
AVE_RENDER
 10
-240.9967575814978
 20
35.217587185971048
 30
0.0
1001
AVE_RENDER
1002
{
1070
     0
1000
Full Opt
1070
     0
1070
     1
1070
     1
1070
     1
1070
     0
1070
     0
1070
     0
1070
     1
1070
     1
1040
0.0001
1040
0.0001
1002
}
  0
INSERT
  5
30BB
  8
ASHADE
 62
     4
  2
AVE_RENDER
 10
-240.9967575814978
 20
35.217587185971048
 30
0.0
1001
AVE_RENDER
1002
{
1070
     0
1000
Quick Opt
1070
     0
1070
     1
1070
     1
1070
     1
1070
     0
1070
     0
1070
     1
1002
}
  0
TEXT
  5
344D
  8
0
 10
-28.715073822263321
 20
70.499259077794562
 30
0.0
 40
5.0
  1

  7
DAYUS
  0
POLYLINE
  5
56C2
  8
0
 62
     4
 66
     1
 10
0.0
 20
0.0
 30
0.0
 70
     1
  0
VERTEX
  5
5BE3
  8
0
 62
     4
 10
-98.717935698230576
 20
97.376573530893438
 30
0.0
  0
VERTEX
  5
5BE4
  8
0
 62
     4
 10
148.2783997223377
 20
97.376573530893438
 30
0.0
  0
VERTEX
  5
5BE5
  8
0
 62
     4
 10
148.2783997223377
 20
-156.91564296466771
 30
0.0
  0
VERTEX
  5
5BE6
  8
0
 62
     4
 10
-98.717935698230576
 20
-156.91564296466771
 30
0.0
  0
SEQEND
  5
5BE7
  8
0
 62
     4
  0
DIMENSION
  5
56C3
  8
0
  2
*D160
 10
133.3815313431241
 20
-137.48494877293351
 30
0.0
 11
130.8815313431241
 21
-86.984948772933521
 31
0.0
 70
     0
 13
82.553663194558453
 23
-36.484948772933528
 33
0.0
 14
81.053663194558439
 24
-137.48494877293351
 34
0.0
 50
90.0
  0
LINE
  5
56C4
  8
0
 62
     7
 10
84.465338250198954
 20
-73.573314712610397
 30
0.0
 11
83.815440757155017
 21
-39.666682489711057
 31
0.0
  0
DIMENSION
  5
56C5
  8
0
  2
*D161
 10
100.5536631945585
 20
-17.497184217002541
 30
0.0
 11
83.053663194558467
 21
-14.997184217002539
 31
0.0
 70
     0
 13
65.553663194558453
 23
-33.840049645104699
 33
0.0
 14
100.5536631945585
 24
-71.006686617892001
 34
0.0
  0
LINE
  5
56C6
  8
0
 62
     7
 10
82.024131394886481
 20
-36.484948772933528
 30
0.0
 11
82.024131394886126
 21
-72.006689768250851
 31
0.0
  0
LINE
  5
56C7
  8
0
 62
     7
 10
80.486901030635195
 20
-36.484948772933528
 30
0.0
 11
80.486901030635124
 21
-72.006689768250851
 31
0.0
  0
LINE
  5
56C8
  8
0
 62
     7
 10
78.395110767695826
 20
-36.484948772933528
 30
0.0
 11
78.395110767695826
 21
-72.006689768250851
 31
0.0
  0
POLYLINE
  8
0
  5
5C1A
  62
5
  66
     1
 10
0.000000
 20
0.000000
 30
0.000000
  70
     8
  0
VERTEX
  8
0
  5
5C1B
 10
69.2592
 20
-112.186
 30
0.000000
  70
    32
  0
VERTEX
  8
0
  5
5C1C
 10
86.6670
 20
-152.843
 30
0.000000
  70
    32
  0
VERTEX
  8
0
  5
5C1D
 10
89.6670
 20
-152.843
 30
0.000000
  70
    32
  0
SEQEND
  8
0
  5
5C1E
  0
DIMENSION
  5
56CA
  8
0
  2
*D159
 10
113.5922720523585
 20
-137.48494877293351
 30
0.0
 11
111.0922720523585
 21
-122.48494877293351
 31
0.0
 12
372.47659837875278
 22
0.0
 32
0.0
 70
     0
 13
87.803663194558453
 23
-107.48494877293351
 33
0.0
 14
81.053663194558439
 24
-137.48494877293351
 34
0.0
 50
90.0
  0
LINE
  5
56CB
  8
0
 62
     7
 10
83.553663194558439
 20
-115.98494877293351
 30
0.0
 11
83.553663194558439
 21
-132.1849487729335
 31
0.0
  0
ARC
  5
56CC
  8
0
 62
     7
 10
72.553663194558453
 20
-115.98494877293351
 30
0.0
 40
5.0
 50
270.0
 51
0.0
  0
ARC
  5
56CD
  8
0
 62
     7
 10
78.553663194558453
 20
-115.98494877293351
 30
0.0
 40
5.0
 50
270.0
 51
0.0
  0
ARC
  5
56CE
  8
0
 62
     7
 10
83.253663194558499
 20
-132.1849487729335
 30
0.0
 40
0.3
 50
270.0
 51
0.0
  0
LINE
  5
56CF
  8
0
 62
     7
 10
47.55366319455856
 20
-132.48494877293351
 30
0.0
 11
83.553663194558439
 21
-132.48494877293351
 31
0.0
  0
LINE
  5
56D0
  8
0
 62
     7
 10
47.55366319455856
 20
-132.48494877293351
 30
0.0
 11
83.553663194558567
 21
-132.48494877293351
 31
0.0
  0
ARC
  5
56D1
  8
0
 10
81.053663194558439
 20
-135.48494877293351
 30
0.0
 40
2.0
 50
270.0
 51
0.0
  0
LINE
  5
56D2
  8
0
 62
     7
 10
52.553663194558339
 20
-120.98494877293351
 30
0.0
 11
78.553663194558453
 21
-120.98494877293351
 31
0.0
  0
LINE
  5
56D3
  8
0
 62
     7
 10
47.853663194558287
 20
-132.48494877293351
 30
0.0
 11
83.253663194558499
 21
-132.48494877293351
 31
0.0
  0
LINE
  5
56D4
  8
0
 10
48.05366319455851
 20
-132.48494877293351
 30
0.0
 11
83.053663194558453
 21
-132.48494877293351
 31
0.0
  0
LINE
  5
56D5
  8
0
 10
50.05366319455851
 20
-137.48494877293351
 30
0.0
 11
81.053663194558439
 21
-137.48494877293351
 31
0.0
  0
LINE
  5
56D6
  8
0
 62
     7
 10
72.553663194558453
 20
-136.98494877293351
 30
0.0
 11
76.053663194558453
 21
-136.98494877293351
 31
0.0
  0
LINE
  5
56D7
  8
0
 10
82.253663194558484
 20
-133.98494877293351
 30
0.0
 11
83.053663194558453
 21
-133.98494877293351
 31
0.0
  0
ARC
  5
56D9
  8
0
 10
81.053663194558439
 20
-135.48494877293351
 30
0.0
 40
1.1999999999999991
 50
270.0
 51
0.0
  0
LINE
  5
56DA
  8
0
 10
79.553663194558453
 20
-136.6849487729335
 30
0.0
 11
81.053663194558439
 21
-136.6849487729335
 31
0.0
  0
LINE
  5
56DB
  8
0
 10
82.253663194558484
 20
-133.98494877293351
 30
0.0
 11
82.253663194558484
 21
-135.48494877293351
 31
0.0
  0
LINE
  5
56DC
  8
0
 10
79.553663194558453
 20
-136.6849487729335
 30
0.0
 11
79.553663194558453
 21
-137.48494877293351
 31
0.0
  0
LINE
  5
56DD
  8
0
 62
     7
 10
72.553663194558453
 20
-132.48494877293351
 30
0.0
 11
76.053663194558453
 21
-132.48494877293351
 31
0.0
  0
LINE
  5
56DE
  8
0
 62
     7
 10
76.053663194558453
 20
-132.48494877293351
 30
0.0
 11
76.053663194558453
 21
-137.48494877293351
 31
0.0
  0
LINE
  5
56DF
  8
0
 10
83.053663194558453
 20
-132.48494877293351
 30
0.0
 11
83.053663194558453
 21
-135.48494877293351
 31
0.0
  0
INSERT
  5
56E0
  8
0
  2
*U172
 10
0.0
 20
0.0
 30
0.0
  0
LINE
  5
56E2
  8
0
 62
     7
 10
83.553663194558439
 20
-121.98494877293351
 30
0.0
 11
83.553663194558439
 21
-132.48494877293351
 31
0.0
  0
LINE
  5
56E5
  8
0
 62
     7
 10
83.553663194558567
 20
-121.98494877293351
 30
0.0
 11
83.553663194558567
 21
-132.48494877293351
 31
0.0
  0
LINE
  5
56E6
  8
0
 10
83.049663194558661
 20
-90.952827641938455
 30
0.0
 11
85.863103194558789
 21
-91.706686617892004
 31
0.0
  0
LINE
  5
56E7
  8
0
 10
43.55366319455851
 20
-85.706686617892046
 30
0.0
 11
87.553663194558453
 21
-85.706686617892046
 31
0.0
  0
LINE
  5
56E8
  8
0
 62
     7
 10
83.049663194558661
 20
-86.460545593845609
 30
0.0
 11
85.863103194558448
 21
-85.70668661789216
 31
0.0
  0
LINE
  5
56E9
  8
0
 10
47.053663194558453
 20
-73.984989768250799
 30
0.0
 11
84.053663194558453
 21
-73.984989768250855
 31
0.0
  0
LINE
  5
56EA
  8
CENTER
  6
CENTER
 10
42.85229564817984
 20
-107.48494877293351
 30
0.0
 11
88.255030740937059
 21
-107.48494877293351
 31
0.0
  0
LINE
  5
56EB
  8
0
 10
40.053663194558453
 20
-91.70668661789216
 30
0.0
 11
88.753663194558484
 21
-91.706686617891975
 31
0.0
  0
LINE
  5
56EC
  8
0
 10
40.703663194558487
 20
-91.706686617892046
 30
0.0
 11
96.253663194558555
 21
-91.706686617892032
 31
0.0
  0
LINE
  5
56ED
  8
0
 10
40.05366319455856
 20
-94.006686617892115
 30
0.0
 11
98.553663194558524
 21
-94.006686617891987
 31
0.0
  0
LINE
  5
56EE
  8
0
 62
     7
 10
81.653663194558362
 20
-98.984948772933535
 30
0.0
 11
83.553663194558439
 21
-115.98494877293351
 31
0.0
  0
LINE
  5
56EF
  8
0
 10
81.553663194558453
 20
-80.010534195185414
 30
0.0
 11
81.553663194558453
 21
-83.206686617892046
 31
0.0
  0
LINE
  5
56F0
  8
0
 10
49.203663194558551
 20
-85.706686617892046
 30
0.0
 11
81.903663194558476
 21
-85.706686617892046
 31
0.0
  0
LINE
  5
56F1
  8
0
 10
49.553663194558567
 20
-83.206686617892046
 30
0.0
 11
81.553663194558453
 21
-83.206686617892046
 31
0.0
  0
LINE
  5
56F2
  8
0
 10
48.05366319455846
 20
-84.072712021676466
 30
0.0
 11
83.053663194558453
 21
-84.072712021676466
 31
0.0
  0
LINE
  5
56F3
  8
0
 62
     7
 10
77.553663194558453
 20
-98.984948772933535
 30
0.0
 11
77.553663194558453
 21
-115.98494877293351
 31
0.0
  0
LINE
  5
56F4
  8
0
 62
     7
 10
83.049663194558661
 20
-86.460545593845609
 30
0.0
 11
83.049663194558661
 21
-90.952827641938455
 31
0.0
  0
LINE
  5
56F5
  8
0
 10
83.049663194558661
 20
-90.952827641938455
 30
0.0
 11
80.236223194558647
 21
-91.70668661789189
 31
0.0
  0
LINE
  5
56F6
  8
0
 10
72.395663194558665
 20
-90.952827641938455
 30
0.0
 11
75.209103194558793
 21
-91.706686617892004
 31
0.0
  0
LINE
  5
56F7
  8
0
 10
83.053663194558453
 20
-85.706686617892046
 30
0.0
 11
81.903663194558476
 21
-85.706686617892046
 31
0.0
  0
LINE
  5
56F8
  8
0
 10
81.553663194558453
 20
-83.206686617892046
 30
0.0
 11
83.053663194558453
 21
-84.072712021676466
 31
0.0
  0
LINE
  5
56F9
  8
0
 10
83.053663194558453
 20
-84.072712021676466
 30
0.0
 11
83.053663194558453
 21
-85.706686617892046
 31
0.0
  0
LINE
  5
56FD
  8
0
 62
     7
 10
83.049663194558661
 20
-86.460545593845609
 30
0.0
 11
80.236223194558647
 21
-85.70668661789216
 31
0.0
  0
LINE
  5
56FE
  8
0
 62
     7
 10
72.395663194558665
 20
-86.460545593845609
 30
0.0
 11
75.209103194558452
 21
-85.70668661789216
 31
0.0
  0
ARC
  5
56FF
  8
0
 62
     7
 10
72.553663194558453
 20
-98.984948772933535
 30
0.0
 40
5.0
 50
0.0
 51
84.655361437595147
  0
ARC
  5
5700
  8
0
 62
     7
 10
76.653663194558362
 20
-98.984948772933535
 30
0.0
 40
5.0
 50
0.0
 51
84.65536143759644
  0
LINE
  5
5701
  8
0
 62
     7
 10
81.653663194558362
 20
-98.984948772933535
 30
0.0
 11
81.653663194558362
 21
-98.984948772933535
 31
0.0
  0
LINE
  5
5702
  8
0
 10
52.553663194558453
 20
-79.206686617892046
 30
0.0
 11
78.553663194558453
 21
-79.206686617892046
 31
0.0
  0
LINE
  5
5703
  8
0
 10
51.473663194558583
 20
-76.006686617892058
 30
0.0
 11
79.633663194558551
 21
-76.006686617892058
 31
0.0
  0
LINE
  5
5704
  8
0
 10
51.473663194558348
 20
-79.206686617892046
 30
0.0
 11
79.633663194558608
 21
-79.206686617892046
 31
0.0
  0
LINE
  5
5705
  8
0
 10
49.553663194558567
 20
-80.010534195185414
 30
0.0
 11
81.553663194558453
 21
-80.010534195185414
 31
0.0
  0
LINE
  5
5706
  8
0
 10
79.633663194558551
 20
-76.006686617892058
 30
0.0
 11
81.457663194558506
 21
-76.495425944886449
 31
0.0
  0
LINE
  5
5708
  8
0
 62
     7
 10
75.55366319455851
 20
-73.984989768250841
 30
0.0
 11
75.55366319455851
 21
-76.006686617892058
 31
0.0
  0
LINE
  5
5709
  8
0
 10
81.457663194558563
 20
-78.717947290897655
 30
0.0
 11
81.457663194558563
 21
-76.495425944886449
 31
0.0
  0
LINE
  5
570A
  8
0
 10
79.633663194558551
 20
-79.206686617892046
 30
0.0
 11
81.457663194558563
 21
-78.717947290897655
 31
0.0
  0
LINE
  5
570C
  8
0
 62
     7
 10
76.751103194558709
 20
-76.489156362502285
 30
0.0
 11
76.751103194558709
 21
-78.724216873281762
 31
0.0
  0
LINE
  5
570D
  8
0
 62
     7
 10
76.751103194558709
 20
-76.489156362502285
 30
0.0
 11
74.950501594558659
 21
-76.006686617892115
 31
0.0
  0
LINE
  5
570E
  8
0
 62
     7
 10
76.751103194558709
 20
-76.489156362502285
 30
0.0
 11
78.551704794558532
 21
-76.006686617892115
 31
0.0
  0
LINE
  5
570F
  8
0
 62
     7
 10
76.751103194558709
 20
-78.724216873281762
 30
0.0
 11
74.950501594558659
 21
-79.206686617891933
 31
0.0
  0
LINE
  5
5710
  8
0
 10
76.751103194558709
 20
-78.724216873281762
 30
0.0
 11
78.551704794558759
 21
-79.206686617892046
 31
0.0
  0
LINE
  5
5711
  8
0
 10
78.553663194558453
 20
-79.206686617892046
 30
0.0
 11
81.553663194558453
 21
-80.010534195185414
 31
0.0
  0
LINE
  5
5712
  8
0
 62
     7
 10
80.486901030635195
 20
-72.006689768250851
 30
0.0
 11
82.024131394886126
 21
-72.006689768250851
 31
0.0
  0
LINE
  5
5713
  8
0
 62
     7
 10
74.039624735650705
 20
-72.00668976825159
 30
0.0
 11
78.395110767695883
 21
-72.006689768250851
 31
0.0
  0
DIMENSION
  5
5714
  8
0
  2
*D158
 10
113.5922720523585
 20
-107.48494877293351
 30
0.0
 11
111.0922720523585
 21
-93.245817695412825
 31
0.0
 70
     0
 13
103.5514667040964
 23
-79.006686617892143
 33
0.0
 14
87.803663194558453
 24
-107.48494877293351
 34
0.0
 50
90.0
  0
LINE
  5
5715
  8
0
 10
98.253663194558499
 20
-71.006686617892001
 30
0.0
 11
98.253663194558555
 21
-89.706686617891989
 31
0.0
  0
LINE
  5
5716
  8
0
 10
100.5536631945585
 20
-71.006686617892001
 30
0.0
 11
100.5536631945585
 21
-92.006686617891987
 31
0.0
  0
LINE
  5
5717
  8
0
 62
     7
 10
86.803663194558453
 20
-94.006686617892001
 30
0.0
 11
86.803663194558453
 21
-107.48494877293351
 31
0.0
  0
ARC
  5
5718
  8
0
 62
     7
 10
65.553663194558453
 20
-107.48494877293351
 30
0.0
 40
21.25
 50
327.89319738758792
 51
0.0
  0
LINE
  5
5719
  8
0
 10
90.403663194558476
 20
-86.470341816320797
 30
0.0
 11
90.403663194558476
 21
-91.706686617892046
 31
0.0
  0
LINE
  5
571A
  8
0
 10
87.553663194558496
 20
-85.706686617892046
 30
0.0
 11
90.403663194558476
 21
-86.470341816320797
 31
0.0
  0
ARC
  5
571D
  8
0
 10
96.253663194558555
 20
-89.706686617891989
 30
0.0
 40
2.0
 50
270.0
 51
0.0
  0
LINE
  5
571E
  8
HIDDEN
  6
HIDDEN
 10
98.253663194558555
 20
-82.256686617892143
 30
0.0
 11
100.5536631945585
 21
-82.256686617892143
 31
0.0
  0
ARC
  5
571F
  8
0
 10
98.553663194558524
 20
-92.006686617891987
 30
0.0
 40
2.0
 50
270.0
 51
0.0
  0
ARC
  5
5722
  8
0
 62
     7
 10
84.053663194558496
 20
-73.573314712610397
 30
0.0
 40
0.4116750556404531
 50
270.0
 51
0.0
  0
LINE
  5
5723
  8
CENTER
 10
91.08021184740511
 20
-79.006686617892143
 30
0.0
 11
103.5514667040964
 21
-79.006686617892143
 31
0.0
  0
LINE
  5
5724
  8
0
 10
98.253663194558499
 20
-71.006686617892001
 30
0.0
 11
100.5536631945585
 21
-71.006686617892001
 31
0.0
  0
LINE
  5
5725
  8
HIDDEN
  6
HIDDEN
 10
98.253663194558456
 20
-75.756686617892143
 30
0.0
 11
100.5536631945585
 21
-75.756686617892143
 31
0.0
  0
LINE
  5
5726
  8
0
 62
     7
 10
83.387952632846023
 20
-37.52924186816611
 30
0.0
 11
83.815440757155017
 21
-39.666682489711057
 31
0.0
  0
ARC
  5
5727
  8
0
 10
81.780943858064916
 20
-37.850643623122288
 30
0.0
 40
1.638833820224733
 50
11.309932474019019
 51
58.211669382920412
  0
DIMENSION
  5
5729
  8
0
  2
*D162
 10
5.5536631945585144
 20
-17.497184217002541
 30
0.0
 11
35.553663194558482
 21
-14.997184217002539
 31
0.0
 70
     0
 13
65.553663194558453
 23
-33.840049645104699
 33
0.0
 14
5.5536631945585091
 24
-84.841858411743033
 34
0.0
  0
LINE
  5
572A
  8
HIDDEN
  6
HIDDEN
 10
13.059879867257839
 20
-85.86034835258306
 30
0.0
 11
24.570240988423219
 21
-85.86034835258306
 31
0.0
  0
DIMENSION
  5
572B
  8
0
  2
*D163
 10
-5.9527275680006824
 20
-127.841858411743
 30
0.0
 11
-8.4527275680006824
 21
-106.341858411743
 31
0.0
 12
372.47659837875278
 22
0.0
 32
0.0
 70
     0
 13
5.5536631945585091
 23
-84.841858411743033
 33
0.0
 14
5.5536631945585091
 24
-127.841858411743
 34
0.0
 50
90.0
1001
ACAD
1000
DSTYLE
1002
{
1070
     3
1000
%%C<>
1002
}
  0
LINE
  5
572C
  8
HIDDEN
  6
HIDDEN
 10
13.059879867257839
 20
-85.841858411743033
 30
0.0
 11
13.059879867257839
 21
-126.8418584117429
 31
0.0
  0
LINE
  5
572D
  8
HIDDEN
  6
HIDDEN
 10
5.5536631945585091
 20
-84.841858411743033
 30
0.0
 11
5.5536631945585091
 21
-127.841858411743
 31
0.0
  0
LINE
  5
572E
  8
HIDDEN
  6
HIDDEN
 10
5.5536631945585091
 20
-84.841858411743033
 30
0.0
 11
12.05987986725796
 21
-84.841858411743033
 31
0.0
  0
ARC
  5
572F
  8
HIDDEN
  6
HIDDEN
 10
12.05987986725796
 20
-85.841858411743033
 30
0.0
 40
1.0
 50
0.0
 51
89.999999999999758
  0
POLYLINE
  8
0
  5
5C1F
  62
5
  66
     1
 10
0.000000
 20
0.000000
 30
0.000000
  70
     8
  0
VERTEX
  8
0
  5
5C20
 10
-32.6370
 20
-76.3210
 30
0.000000
  70
    32
  0
VERTEX
  8
0
  5
5C21
 10
-24.2639
 20
-52.0591
 30
0.000000
  70
    32
  0
VERTEX
  8
0
  5
5C22
 10
-21.2639
 20
-52.0591
 30
0.000000
  70
    32
  0
SEQEND
  8
0
  5
5C23
  0
INSERT
  5
5731
  8
0
  2
*U173
 10
0.0
 20
0.0
 30
0.0
  0
LINE
  5
5732
  8
0
 10
46.643954739502298
 20
-73.575281313194608
 30
0.0
 11
47.425065774704599
 21
-39.666682489711093
 31
0.0
  0
LINE
  5
5733
  8
CENTER
 10
65.553663194558453
 20
-33.840049645104699
 30
0.0
 11
65.553663194558567
 21
-142.09349856859029
 31
0.0
  0
LINE
  5
5734
  8
0
 10
52.844382848403662
 20
-36.484948772933528
 30
0.0
 11
52.844382848403662
 21
-72.006689768250794
 31
0.0
  0
LINE
  5
5735
  8
0
 10
50.607117433222761
 20
-36.484948772933528
 30
0.0
 11
50.607117433222761
 21
-72.006689768250794
 31
0.0
  0
LINE
  5
5736
  8
0
 10
49.069887068971283
 20
-36.484948772933528
 30
0.0
 11
49.069887068971347
 21
-72.006689768250794
 31
0.0
  0
LINE
  5
5737
  8
0
 62
     7
 10
59.008455333141619
 20
-36.484948772933528
 30
0.0
 11
59.008455333141619
 21
-72.006689768250794
 31
0.0
  0
LINE
  5
5738
  8
0
 10
57.199868880448818
 20
-36.484948772933528
 30
0.0
 11
57.199868880448832
 21
-72.006689768250794
 31
0.0
  0
LINE
  5
5739
  8
0
 62
     7
 10
63.363941365187117
 20
-36.484948772933528
 30
0.0
 11
63.363941365186861
 21
-72.006689768250794
 31
0.0
  0
LINE
  5
573A
  8
0
 62
     7
 10
74.039624735650648
 20
-36.484948772933528
 30
0.0
 11
74.039624735650648
 21
-72.006689768250851
 31
0.0
  0
LINE
  5
573B
  8
0
 62
     7
 10
71.562503307859899
 20
-36.484948772933528
 30
0.0
 11
71.56250330785997
 21
-72.006689768250851
 31
0.0
  0
LINE
  5
573C
  8
0
 62
     7
 10
67.207017275814536
 20
-36.484948772933528
 30
0.0
 11
67.207017275814792
 21
-72.006689768250851
 31
0.0
  0
LINE
  5
573D
  8
HIDDEN
  6
HIDDEN
 10
25.570240988423219
 20
-86.86034835258306
 30
0.0
 11
25.570240988423219
 21
-125.82336975413421
 31
0.0
  0
LINE
  5
573E
  8
0
 10
49.553663194558567
 20
-80.010534195185414
 30
0.0
 11
49.553663194558567
 21
-83.206686617892046
 31
0.0
  0
LINE
  5
573F
  8
0
 10
51.087663194558672
 20
-90.952827641938455
 30
0.0
 11
53.9011031945588
 21
-91.706686617892004
 31
0.0
  0
LINE
  5
5740
  8
0
 10
51.087663194558672
 20
-86.460545593845609
 30
0.0
 11
53.9011031945588
 21
-85.706686617892046
 31
0.0
  0
ARC
  5
5741
  8
0
 62
     7
 10
54.453663194558537
 20
-98.984948772933436
 30
0.0
 40
5.0
 50
95.344638562423157
 51
180.0
  0
ARC
  5
5742
  8
0
 62
     7
 10
58.553663194558453
 20
-98.984948772933535
 30
0.0
 40
5.0
 50
95.34463856240879
 51
180.00000000000011
  0
LINE
  5
5743
  8
0
 62
     7
 10
44.303663194558339
 20
-94.006686617892086
 30
0.0
 11
44.303663194558339
 21
-107.48494877293351
 31
0.0
  0
ARC
  5
5744
  8
HIDDEN
  6
HIDDEN
 10
24.570240988423219
 20
-86.86034835258306
 30
0.0
 40
1.0
 50
0.0
 51
89.999999999999872
  0
LINE
  5
5745
  8
0
 10
51.087663194558672
 20
-86.460545593845609
 30
0.0
 11
51.087663194558672
 21
-90.952827641938455
 31
0.0
  0
LINE
  5
5746
  8
0
 10
51.087663194558672
 20
-90.952827641938455
 30
0.0
 11
48.274223194558658
 21
-91.70668661789189
 31
0.0
  0
LINE
  5
5747
  8
0
 10
40.703663194558487
 20
-91.706686617892046
 30
0.0
 11
40.703663194558487
 21
-86.47034181632074
 31
0.0
  0
LINE
  5
5748
  8
0
 10
48.05366319455846
 20
-84.072712021676466
 30
0.0
 11
48.05366319455846
 21
-85.706686617892046
 31
0.0
  0
LINE
  5
5749
  8
0
 10
49.553663194558567
 20
-83.206686617892046
 30
0.0
 11
48.05366319455846
 21
-84.072712021676466
 31
0.0
  0
LINE
  5
574A
  8
0
 10
48.05366319455846
 20
-85.706686617892046
 30
0.0
 11
49.203663194558551
 21
-85.706686617892046
 31
0.0
  0
LINE
  5
574C
  8
0
 10
43.55366319455851
 20
-85.706686617892046
 30
0.0
 11
40.703663194558487
 21
-86.47034181632074
 31
0.0
  0
LINE
  5
574E
  8
0
 10
51.087663194558672
 20
-86.460545593845609
 30
0.0
 11
48.274223194558658
 21
-85.70668661789216
 31
0.0
  0
LINE
  5
5750
  8
0
 10
40.053663194558453
 20
-91.70668661789216
 30
0.0
 11
40.05366319455856
 21
-94.006686617892115
 31
0.0
  0
LINE
  5
5751
  8
0
 10
40.053663194558453
 20
-93.706686617892146
 30
0.0
 11
40.053663194558453
 21
-93.706686617892146
 31
0.0
  0
LINE
  5
5752
  8
0
 62
     7
 10
61.741663194558669
 20
-86.460545593845609
 30
0.0
 11
61.741663194558782
 21
-90.952827641938086
 31
0.0
  0
LINE
  5
5753
  8
0
 10
61.741663194558782
 20
-90.952827641938086
 30
0.0
 11
64.55510319455891
 21
-91.706686617891663
 31
0.0
  0
LINE
  5
5754
  8
0
 10
61.741663194558782
 20
-90.952827641938086
 30
0.0
 11
58.928223194558768
 21
-91.706686617891549
 31
0.0
  0
LINE
  5
5755
  8
0
 62
     7
 10
61.741663194558669
 20
-86.460545593845609
 30
0.0
 11
64.555103194558683
 21
-85.706686617892046
 31
0.0
  0
LINE
  5
5756
  8
0
 62
     7
 10
61.741663194558669
 20
-86.460545593845609
 30
0.0
 11
58.928223194558647
 21
-85.70668661789216
 31
0.0
  0
LINE
  5
5757
  8
0
 62
     7
 10
72.395663194558665
 20
-86.460545593845609
 30
0.0
 11
72.395663194558665
 21
-90.952827641938455
 31
0.0
  0
LINE
  5
5758
  8
0
 10
72.395663194558665
 20
-90.952827641938455
 30
0.0
 11
69.582223194558651
 21
-91.70668661789189
 31
0.0
  0
LINE
  5
5759
  8
0
 62
     7
 10
72.395663194558665
 20
-86.460545593845609
 30
0.0
 11
69.582223194558651
 21
-85.70668661789216
 31
0.0
  0
LINE
  5
575A
  8
0
 10
52.844382848403711
 20
-72.006689768250851
 30
0.0
 11
57.199868880448889
 21
-72.006689768250965
 31
0.0
  0
LINE
  5
575B
  8
0
 10
49.673061594558483
 20
-76.489156362502285
 30
0.0
 11
51.473663194558583
 21
-76.006686617892058
 31
0.0
  0
LINE
  5
575C
  8
0
 10
49.673061594558533
 20
-76.489156362502285
 30
0.0
 11
49.673061594558533
 21
-78.724216873281762
 31
0.0
  0
LINE
  5
575D
  8
0
 10
49.673061594558533
 20
-78.724216873281762
 30
0.0
 11
51.473663194558583
 21
-79.206686617892046
 31
0.0
  0
LINE
  5
575E
  8
0
 10
52.553663194558453
 20
-79.206686617892046
 30
0.0
 11
49.553663194558567
 21
-80.010534195185414
 31
0.0
  0
ARC
  5
575F
  8
0
 10
47.053663194558503
 20
-73.575281313194608
 30
0.0
 40
0.4097084550561834
 50
179.99999999999929
 51
270.0
  0
LINE
  5
5760
  8
0
 10
49.069887068971411
 20
-72.006689768250851
 30
0.0
 11
50.607117433222811
 21
-72.006689768250851
 31
0.0
  0
LINE
  5
5761
  8
0
 62
     7
 10
69.932543194558662
 20
-76.489156362502285
 30
0.0
 11
68.131941594558668
 21
-76.006686617892115
 31
0.0
  0
LINE
  5
5762
  8
0
 62
     7
 10
69.932543194558662
 20
-78.724216873281762
 30
0.0
 11
68.131941594558668
 21
-79.206686617891933
 31
0.0
  0
LINE
  5
5763
  8
0
 62
     7
 10
67.207017275814906
 20
-72.00668976825159
 30
0.0
 11
71.562503307860084
 21
-72.006689768250851
 31
0.0
  0
LINE
  5
5764
  8
0
 62
     7
 10
55.55366319455851
 20
-73.984989768250813
 30
0.0
 11
55.55366319455851
 21
-76.006686617892058
 31
0.0
  0
LINE
  5
5765
  8
0
 62
     7
 10
63.11398319455872
 20
-76.489156362502285
 30
0.0
 11
61.313381594558678
 21
-76.006686617892115
 31
0.0
  0
LINE
  5
5766
  8
0
 62
     7
 10
56.29542319455868
 20
-76.489156362502285
 30
0.0
 11
56.29542319455868
 21
-78.724216873281762
 31
0.0
  0
LINE
  5
5767
  8
0
 10
56.29542319455868
 20
-76.489156362502285
 30
0.0
 11
54.49482159455868
 21
-76.006686617892115
 31
0.0
  0
LINE
  5
5768
  8
0
 62
     7
 10
56.29542319455868
 20
-76.489156362502285
 30
0.0
 11
58.096024794558787
 21
-76.006686617892058
 31
0.0
  0
LINE
  5
5769
  8
0
 62
     7
 10
63.113983194558671
 20
-76.489156362502285
 30
0.0
 11
63.11398319455872
 21
-78.724216873281534
 31
0.0
  0
LINE
  5
576A
  8
0
 62
     7
 10
63.113983194558671
 20
-76.489156362502285
 30
0.0
 11
64.914584794558664
 21
-76.006686617892058
 31
0.0
  0
LINE
  5
576B
  8
0
 62
     7
 10
63.11398319455872
 20
-78.724216873281534
 30
0.0
 11
61.313381594558727
 21
-79.206686617891705
 31
0.0
  0
LINE
  5
576C
  8
0
 10
56.29542319455868
 20
-78.724216873281762
 30
0.0
 11
54.49482159455868
 21
-79.206686617891933
 31
0.0
  0
LINE
  5
576D
  8
0
 62
     7
 10
56.29542319455868
 20
-78.724216873281762
 30
0.0
 11
58.096024794558787
 21
-79.206686617892046
 31
0.0
  0
LINE
  5
576E
  8
0
 62
     7
 10
63.11398319455872
 20
-78.724216873281534
 30
0.0
 11
64.914584794558834
 21
-79.206686617891819
 31
0.0
  0
LINE
  5
576F
  8
0
 62
     7
 10
59.008455333141683
 20
-72.006689768250851
 30
0.0
 11
63.363941365186861
 21
-72.006689768250965
 31
0.0
  0
LINE
  5
5770
  8
0
 62
     7
 10
69.932543194558662
 20
-76.489156362502285
 30
0.0
 11
71.733144794558541
 21
-76.006686617892115
 31
0.0
  0
LINE
  5
5771
  8
0
 62
     7
 10
69.932543194558662
 20
-76.489156362502285
 30
0.0
 11
69.932543194558662
 21
-78.724216873281762
 31
0.0
  0
LINE
  5
5772
  8
0
 62
     7
 10
69.932543194558662
 20
-78.724216873281762
 30
0.0
 11
71.733144794558768
 21
-79.206686617892046
 31
0.0
  0
LINE
  5
5773
  8
0
 10
47.852553899013472
 20
-37.529241868166132
 30
0.0
 11
47.425065774704599
 21
-39.666682489711093
 31
0.0
  0
ARC
  5
5774
  8
0
 10
49.459562673794537
 20
-37.850643623122323
 30
0.0
 40
1.638833820224733
 50
123.55730976182529
 51
168.69006752598091
  0
LINE
  5
5775
  8
HIDDEN
  6
HIDDEN
 10
13.059879867257839
 20
-126.82336847090281
 30
0.0
 11
24.570240988423219
 21
-126.82336847090269
 31
0.0
  0
LINE
  5
5776
  8
CENTER
  6
CENTER
 10
1.977648791779415
 20
-106.341858411743
 30
0.0
 11
47.38038388453662
 21
-106.341858411743
 31
0.0
  0
POLYLINE
  8
0
  5
5C24
  62
5
  66
     1
 10
0.000000
 20
0.000000
 30
0.000000
  70
     8
  0
VERTEX
  8
0
  5
5C25
 10
-51.6612
 20
-111.068
 30
0.000000
  70
    32
  0
VERTEX
  8
0
  5
5C26
 10
-28.3703
 20
-138.849
 30
0.000000
  70
    32
  0
VERTEX
  8
0
  5
5C27
 10
-25.3703
 20
-138.849
 30
0.000000
  70
    32
  0
SEQEND
  8
0
  5
5C28
  0
ARC
  5
5778
  8
0
 62
     7
 10
-28.967181599167251
 20
-119.98494877293329
 30
0.0
 40
1.0
 50
270.0
 51
0.0
  0
LINE
  5
5779
  8
0
 62
     7
 10
-45.695190796676513
 20
-120.98494877293329
 30
0.0
 11
-28.967181599167251
 21
-120.98494877293329
 31
0.0
  0
TEXT
  5
577A
  8
0
 62
     5
 10
-24.370332320163008
 20
-136.56354151515731
 30
0.0
 40
3.0
  1
2-PT1/8
  7
CHINESET
  0
LINE
  5
577B
  8
HIDDEN
  6
HIDDEN
 10
5.5536631945585091
 20
-127.841858411743
 30
0.0
 11
12.059879867257839
 21
-127.841858411743
 31
0.0
  0
ARC
  5
577D
  8
HIDDEN
  6
HIDDEN
 10
12.059879867257839
 20
-126.8418584117429
 30
0.0
 40
1.0
 50
270.0
 51
359.99999999999989
  0
LINE
  5
577E
  8
0
 10
-36.971181599167153
 20
-92.95282764193864
 30
0.0
 11
-34.157741599167018
 21
-93.706686617892203
 31
0.0
  0
LINE
  5
577F
  8
0
 62
     7
 10
-80.967181599167361
 20
-93.706686617892203
 30
0.0
 11
-27.967181599167301
 21
-93.706686617892203
 31
0.0
  0
LINE
  5
5780
  8
0
 10
-76.467181599167361
 20
-86.331213529969332
 30
0.0
 11
-32.467181599167361
 21
-86.331213529969332
 31
0.0
  0
LINE
  5
5781
  8
0
 62
     7
 10
-36.971181599167153
 20
-87.085072505922895
 30
0.0
 11
-34.157741599167359
 21
-86.331213529969446
 31
0.0
  0
LINE
  5
5782
  8
CENTER
 10
-41.742422507860617
 20
-79.006686617892143
 30
0.0
 11
-29.624620766965329
 21
-79.006686617892143
 31
0.0
  0
LINE
  5
5783
  8
CENTER
  6
CENTER
 10
-88.361128166438903
 20
-107.8094756850108
 30
0.0
 11
-19.40129309068379
 21
-107.8094756850108
 31
0.0
  0
LINE
  5
5784
  8
0
 10
-80.967181599167361
 20
-96.006686617892157
 30
0.0
 11
-33.217181599167361
 21
-96.0066866178921
 31
0.0
  0
ARC
  5
5785
  8
0
 10
-34.467181599167361
 20
-79.006686617892143
 30
0.0
 40
3.25
 50
270.0
 51
90.0
  0
LINE
  5
5786
  8
0
 10
-27.967181599167361
 20
-78.006686617892157
 30
0.0
 11
-27.967181599167361
 21
-96.006686617892157
 31
0.0
  0
LINE
  5
5787
  8
0
 62
     7
 10
-27.967181599167251
 20
-96.0066866178921
 30
0.0
 11
-27.967181599167251
 21
-119.98494877293329
 31
0.0
  0
LINE
  5
5788
  8
0
 10
-36.467181599167361
 20
-82.256686617892157
 30
0.0
 11
-34.467181599167361
 21
-82.256686617892157
 31
0.0
  0
LINE
  5
5789
  8
0
 10
-29.617181599167331
 20
-93.706686617892203
 30
0.0
 11
-29.617181599167331
 21
-87.094868728398083
 31
0.0
  0
LINE
  5
578A
  8
0
 10
-32.467181599167361
 20
-86.331213529969332
 30
0.0
 11
-29.617181599167331
 21
-87.094868728398083
 31
0.0
  0
LINE
  5
578B
  8
0
 10
-33.217181599167361
 20
-96.0066866178921
 30
0.0
 11
-27.967181599167361
 21
-96.006686617892157
 31
0.0
  0
LINE
  5
578C
  8
0
 10
-35.567891119385308
 20
-73.006686617892214
 30
0.0
 11
-32.967181599167361
 21
-73.006686617892157
 31
0.0
  0
LINE
  5
578D
  8
0
 10
-36.467181599167361
 20
-75.756686617892143
 30
0.0
 11
-34.900507012927733
 21
-75.756686617892143
 31
0.0
  0
LINE
  5
578E
  8
0
 10
-34.900507012927733
 20
-75.756686617892143
 30
0.0
 11
-34.467181599167361
 21
-75.756686617892143
 31
0.0
  0
ARC
  5
578F
  8
0
 10
-32.967181599167361
 20
-78.006686617892157
 30
0.0
 40
5.0
 50
0.0
 51
90.0
  0
ARC
  5
5790
  8
0
 62
     7
 10
52.553663194558339
 20
-115.98494877293351
 30
0.0
 40
5.0
 50
179.99999999999989
 51
270.0
  0
LINE
  5
5791
  8
0
 62
     7
 10
47.553663194558332
 20
-115.98494877293351
 30
0.0
 11
47.553663194558332
 21
-132.1849487729335
 31
0.0
  0
ARC
  5
5792
  8
0
 62
     7
 10
58.553663194558453
 20
-115.98494877293351
 30
0.0
 40
5.0
 50
180.0
 51
270.0
  0
ARC
  5
5793
  8
HIDDEN
  6
HIDDEN
 10
24.570240988423219
 20
-125.82336847090269
 30
0.0
 40
1.0
 50
270.00000000000011
 51
0.0
  0
ARC
  5
5794
  8
0
 62
     7
 10
47.853663194558287
 20
-132.1849487729335
 30
0.0
 40
0.3
 50
180.0
 51
270.0
  0
LINE
  5
5795
  8
0
 62
     7
 10
47.55366319455856
 20
-121.98494877293351
 30
0.0
 11
47.55366319455856
 21
-132.48494877293351
 31
0.0
  0
LINE
  5
5796
  8
0
 62
     7
 10
47.55366319455856
 20
-121.98494877293351
 30
0.0
 11
47.55366319455856
 21
-132.48494877293351
 31
0.0
  0
LINE
  5
5797
  8
0
 10
48.853663194558457
 20
-133.98494877293351
 30
0.0
 11
48.05366319455851
 21
-133.98494877293351
 31
0.0
  0
LINE
  5
5798
  8
0
 10
48.853663194558457
 20
-133.98494877293351
 30
0.0
 11
48.853663194558457
 21
-135.48494877293351
 31
0.0
  0
ARC
  5
5799
  8
0
 10
50.05366319455851
 20
-135.48494877293351
 30
0.0
 40
1.1999999999999991
 50
180.0
 51
270.0
  0
LINE
  5
579A
  8
0
 10
51.553663194558503
 20
-136.6849487729335
 30
0.0
 11
50.05366319455851
 21
-136.6849487729335
 31
0.0
  0
LINE
  5
579B
  8
0
 10
51.553663194558503
 20
-136.6849487729335
 30
0.0
 11
51.553663194558503
 21
-137.48494877293351
 31
0.0
  0
ARC
  5
579C
  8
0
 10
50.05366319455851
 20
-135.48494877293351
 30
0.0
 40
2.0
 50
180.0
 51
270.0
  0
LINE
  5
579D
  8
0
 10
48.05366319455851
 20
-132.48494877293351
 30
0.0
 11
48.05366319455851
 21
-135.48494877293351
 31
0.0
  0
LINE
  5
579E
  8
0
 62
     7
 10
55.05366319455851
 20
-136.98494877293351
 30
0.0
 11
58.55366319455851
 21
-136.98494877293351
 31
0.0
  0
LINE
  5
57A1
  8
0
 62
     7
 10
58.55366319455851
 20
-132.48494877293351
 30
0.0
 11
55.05366319455851
 21
-132.48494877293351
 31
0.0
  0
LINE
  5
57A2
  8
0
 62
     7
 10
55.05366319455851
 20
-132.48494877293351
 30
0.0
 11
55.05366319455851
 21
-137.48494877293351
 31
0.0
  0
LINE
  5
57A3
  8
0
 62
     7
 10
58.55366319455851
 20
-132.48494877293351
 30
0.0
 11
58.55366319455851
 21
-137.48494877293351
 31
0.0
  0
LINE
  5
57A4
  8
0
 62
     7
 10
63.05366319455846
 20
-136.98494877293351
 30
0.0
 11
63.05366319455846
 21
-137.48494877293351
 31
0.0
  0
LINE
  5
57A5
  8
0
 62
     7
 10
68.053663194558453
 20
-136.98494877293351
 30
0.0
 11
68.053663194558453
 21
-137.48494877293351
 31
0.0
  0
LINE
  5
57A6
  8
0
 62
     7
 10
63.05366319455846
 20
-136.98494877293351
 30
0.0
 11
68.053663194558453
 21
-136.98494877293351
 31
0.0
  0
LINE
  5
57A7
  8
0
 62
     7
 10
65.553663194558453
 20
-132.48494877293351
 30
0.0
 11
65.553663194558453
 21
-137.98494877293351
 31
0.0
  0
LINE
  5
57A8
  8
0
 62
     7
 10
72.553663194558453
 20
-132.48494877293351
 30
0.0
 11
72.553663194558453
 21
-137.48494877293351
 31
0.0
  0
LINE
  5
57A9
  8
0
 62
     7
 10
49.577035601516513
 20
-97.881090394888048
 30
0.0
 11
47.553663194558332
 21
-115.98494877293351
 31
0.0
  0
LINE
  5
57AA
  8
HIDDEN
  6
HIDDEN
 10
32.957311364730508
 20
-100.841858411743
 30
0.0
 11
32.957311364730508
 21
-111.841858411743
 31
0.0
  0
LINE
  5
57AB
  8
HIDDEN
  6
HIDDEN
 10
25.570240988423219
 20
-111.841858411743
 30
0.0
 11
32.957311364730508
 21
-100.841858411743
 31
0.0
  0
LINE
  5
57AC
  8
HIDDEN
  6
HIDDEN
 10
25.570240988423219
 20
-100.841858411743
 30
0.0
 11
32.957311364730508
 21
-111.841858411743
 31
0.0
  0
LINE
  5
57AD
  8
HIDDEN
  6
HIDDEN
 10
34.587020324038569
 20
-109.84246758472381
 30
0.0
 11
46.042223285851598
 21
-109.4424430826131
 31
0.0
  0
LINE
  5
57AE
  8
HIDDEN
  6
HIDDEN
 10
32.957311364730508
 20
-110.841858411743
 30
0.0
 11
44.412514326543651
 21
-110.44183390963229
 31
0.0
  0
LINE
  5
57AF
  8
HIDDEN
  6
HIDDEN
 10
32.92241186802795
 20
-102.8412492387619
 30
0.0
 11
44.377614829841093
 21
-103.2412737408726
 31
0.0
  0
LINE
  5
57B0
  8
HIDDEN
  6
HIDDEN
 10
32.957311364730508
 20
-101.841858411743
 30
0.0
 11
44.412514326543537
 21
-102.2418829138534
 31
0.0
  0
LINE
  5
57B1
  8
HIDDEN
  6
HIDDEN
 10
25.570240988423219
 20
-111.841858411743
 30
0.0
 11
32.957311364730508
 21
-111.841858411743
 31
0.0
  0
ARC
  5
57B2
  8
0
 62
     7
 10
65.553663194558453
 20
-107.48494877293351
 30
0.0
 40
21.25
 50
180.0
 51
212.106802612411
  0
LINE
  5
57B3
  8
HIDDEN
  6
HIDDEN
 10
25.570240988423219
 20
-100.841858411743
 30
0.0
 11
32.957311364730508
 21
-100.841858411743
 31
0.0
  0
LINE
  5
57B4
  8
0
 62
     7
 10
53.553663194558453
 20
-98.984948772933535
 30
0.0
 11
53.553663194558453
 21
-115.98494877293351
 31
0.0
  0
CIRCLE
  5
57B5
  8
0
 62
     7
 10
65.553663194558453
 20
-107.48494877293351
 30
0.0
 40
5.9860251778734428
  0
CIRCLE
  5
57B6
  8
0
 62
     7
 10
65.553663194558453
 20
-107.48494877293351
 30
0.0
 40
5.2999999999999989
  0
LINE
  5
57B7
  8
CENTER
  6
CENTER
 10
-54.467181599167361
 20
-30.51427492863467
 30
0.0
 11
-54.467181599167361
 21
-142.8473801812319
 31
0.0
  0
ARC
  5
57B8
  8
0
 62
     7
 10
-47.467181599167361
 20
-116.3094756850108
 30
0.0
 40
5.0
 50
270.0
 51
0.0
  0
ARC
  5
57B9
  8
0
 62
     7
 10
-61.467181599167361
 20
-116.3094756850108
 30
0.0
 40
5.0
 50
180.0
 51
270.0
  0
ARC
  5
57BA
  8
0
 10
-38.967181599167361
 20
-135.80947568501091
 30
0.0
 40
2.0
 50
270.0
 51
0.0
  0
LINE
  5
57BB
  8
0
 62
     7
 10
-72.16718159916752
 20
-132.80947568501091
 30
0.0
 11
-36.767181599167309
 21
-132.80947568501091
 31
0.0
  0
LINE
  5
57BC
  8
0
 62
     7
 10
-72.16718159916752
 20
-132.80947568501091
 30
0.0
 11
-36.767181599167309
 21
-132.80947568501091
 31
0.0
  0
LINE
  5
57BD
  8
0
 62
     7
 10
-79.967181599167304
 20
-120.98494877293351
 30
0.0
 11
-63.239172401657811
 21
-120.98494877293351
 31
0.0
  0
LINE
  5
57BE
  8
0
 10
-69.967181599167361
 20
-137.80947568501091
 30
0.0
 11
-38.967181599167361
 21
-137.80947568501091
 31
0.0
  0
ARC
  5
57BF
  8
0
 62
     7
 10
-73.467181599167304
 20
-121.98494877293351
 30
0.0
 40
1.0
 50
0.0
 51
89.999999999999915
  0
ARC
  5
57C0
  8
0
 10
-69.967181599167361
 20
-135.80947568501091
 30
0.0
 40
2.0
 50
180.0
 51
270.0
  0
ARC
  5
57C1
  8
0
 10
-69.967181599167361
 20
-135.80947568501091
 30
0.0
 40
1.1999999999999991
 50
180.0
 51
270.0
  0
LINE
  5
57C2
  8
0
 10
-68.467181599167361
 20
-137.00947568501101
 30
0.0
 11
-68.467181599167361
 21
-137.80947568501091
 31
0.0
  0
LINE
  5
57C3
  8
0
 10
-68.467181599167361
 20
-137.00947568501101
 30
0.0
 11
-69.967181599167361
 21
-137.0094756850109
 31
0.0
  0
LINE
  5
57C4
  8
0
 10
-71.167181599167407
 20
-134.30947568501091
 30
0.0
 11
-71.967181599167361
 21
-134.30947568501091
 31
0.0
  0
LINE
  5
57C5
  8
0
 10
-71.967181599167361
 20
-132.80947568501091
 30
0.0
 11
-71.967181599167361
 21
-135.80947568501091
 31
0.0
  0
LINE
  5
57C6
  8
0
 10
-71.167181599167407
 20
-134.30947568501091
 30
0.0
 11
-71.167181599167407
 21
-135.80947568501091
 31
0.0
  0
ARC
  5
57C7
  8
0
 62
     7
 10
-72.16718159916752
 20
-132.5094756850109
 30
0.0
 40
0.3
 50
180.0
 51
270.0
  0
LINE
  5
57C8
  8
0
 62
     7
 10
-72.467181599167304
 20
-121.98494877293351
 30
0.0
 11
-72.467181599167475
 21
-132.5094756850109
 31
0.0
  0
LINE
  5
57C9
  8
0
 62
     7
 10
-72.467181599167233
 20
-122.3094756850109
 30
0.0
 11
-72.467181599167233
 21
-132.5094756850109
 31
0.0
  0
LINE
  5
57CA
  8
0
 10
-61.467181599167361
 20
-121.3094756850108
 30
0.0
 11
-47.467181599167361
 21
-121.3094756850108
 31
0.0
  0
LINE
  5
57CB
  8
0
 10
-61.467181599167361
 20
-132.80947568501091
 30
0.0
 11
-61.467181599167361
 21
-137.80947568501091
 31
0.0
  0
LINE
  5
57CC
  8
0
 10
-64.967181599167361
 20
-132.80947568501091
 30
0.0
 11
-64.967181599167361
 21
-137.80947568501091
 31
0.0
  0
LINE
  5
57CD
  8
0
 10
-64.967181599167361
 20
-137.30947568501091
 30
0.0
 11
-61.467181599167361
 21
-137.30947568501091
 31
0.0
  0
ARC
  5
57CE
  8
0
 10
-38.967181599167361
 20
-135.80947568501091
 30
0.0
 40
1.1999999999999991
 50
270.0
 51
0.0
  0
LINE
  5
57CF
  8
0
 10
-43.967181599167361
 20
-132.80947568501091
 30
0.0
 11
-43.967181599167361
 21
-137.80947568501091
 31
0.0
  0
LINE
  5
57D0
  8
0
 10
-40.467181599167361
 20
-137.00947568501101
 30
0.0
 11
-40.467181599167361
 21
-137.80947568501091
 31
0.0
  0
LINE
  5
57D1
  8
0
 10
-40.467181599167361
 20
-137.00947568501101
 30
0.0
 11
-38.967181599167361
 21
-137.0094756850109
 31
0.0
  0
LINE
  5
57D2
  8
0
 10
-37.767181599167309
 20
-134.30947568501091
 30
0.0
 11
-36.967181599167361
 21
-134.30947568501091
 31
0.0
  0
LINE
  5
57D3
  8
0
 10
-36.967181599167361
 20
-132.80947568501091
 30
0.0
 11
-36.967181599167361
 21
-135.80947568501091
 31
0.0
  0
LINE
  5
57D4
  8
0
 10
-37.767181599167309
 20
-134.30947568501091
 30
0.0
 11
-37.767181599167309
 21
-135.80947568501091
 31
0.0
  0
LINE
  5
57D5
  8
0
 10
-47.467181599167361
 20
-132.80947568501091
 30
0.0
 11
-47.467181599167361
 21
-137.80947568501091
 31
0.0
  0
LINE
  5
57D6
  8
0
 10
-47.467181599167361
 20
-137.30947568501091
 30
0.0
 11
-43.967181599167361
 21
-137.30947568501091
 31
0.0
  0
ARC
  5
57D7
  8
0
 62
     7
 10
-35.467181599167247
 20
-121.98494877293329
 30
0.0
 40
1.0
 50
90.0
 51
179.9999999999998
  0
ARC
  5
57D8
  8
0
 62
     7
 10
-36.767181599167309
 20
-132.5094756850109
 30
0.0
 40
0.3
 50
270.0
 51
0.0
  0
LINE
  5
57D9
  8
0
 62
     7
 10
-36.467181599167361
 20
-121.98494877293329
 30
0.0
 11
-36.467181599167361
 21
-132.5094756850109
 31
0.0
  0
LINE
  5
57DA
  8
0
 62
     7
 10
-36.467181599167361
 20
-122.3094756850109
 30
0.0
 11
-36.467181599167361
 21
-132.5094756850109
 31
0.0
  0
LINE
  5
57DB
  8
0
 10
-68.933181599167142
 20
-92.95282764193864
 30
0.0
 11
-66.119741599167014
 21
-93.706686617892203
 31
0.0
  0
LINE
  5
57DC
  8
0
 62
     7
 10
-68.933181599167142
 20
-87.085072505922895
 30
0.0
 11
-68.933181599167142
 21
-92.95282764193864
 31
0.0
  0
LINE
  5
57DD
  8
0
 10
-68.933181599167142
 20
-92.95282764193864
 30
0.0
 11
-71.746621599167156
 21
-93.706686617892075
 31
0.0
  0
LINE
  5
57DE
  8
0
 62
     7
 10
-42.467181599167361
 20
-99.309475685010852
 30
0.0
 11
-42.467181599167361
 21
-116.3094756850108
 31
0.0
  0
LINE
  5
57DF
  8
0
 62
     7
 10
-66.467181599167361
 20
-99.309475685010852
 30
0.0
 11
-66.467181599167361
 21
-116.3094756850108
 31
0.0
  0
ARC
  5
57E0
  8
0
 62
     7
 10
-54.467181599167361
 20
-107.8094756850108
 30
0.0
 40
5.2999999999999989
 50
0.0
 51
270.0
  0
CIRCLE
  5
57E1
  8
0
 62
     7
 10
-54.467181599167361
 20
-107.8094756850108
 30
0.0
 40
4.2999999999999989
  0
LINE
  5
57E2
  8
0
 10
-65.221057513222206
 20
-96.006686617892143
 30
0.0
 11
-43.713305685112509
 21
-96.006686617892143
 31
0.0
  0
LINE
  5
57E3
  8
0
 62
     7
 10
-58.279181599167138
 20
-87.085072505922895
 30
0.0
 11
-58.279181599167089
 21
-92.952827641938299
 31
0.0
  0
LINE
  5
57E4
  8
0
 10
-58.279181599167089
 20
-92.952827641938299
 30
0.0
 11
-61.092621599167103
 21
-93.706686617891734
 31
0.0
  0
LINE
  5
57E5
  8
0
 10
-58.279181599167089
 20
-92.952827641938299
 30
0.0
 11
-55.465741599166961
 21
-93.706686617891876
 31
0.0
  0
ARC
  5
57E6
  8
0
 62
     7
 10
-61.467181599167361
 20
-99.309475685010852
 30
0.0
 40
5.0
 50
138.6575713018799
 51
180.00000000000011
  0
LINE
  5
57E7
  8
0
 62
     7
 10
-47.625181599167149
 20
-87.085072505922895
 30
0.0
 11
-47.625181599167149
 21
-92.95282764193864
 31
0.0
  0
LINE
  5
57E8
  8
0
 62
     7
 10
-36.971181599167153
 20
-87.085072505922895
 30
0.0
 11
-36.971181599167153
 21
-92.95282764193864
 31
0.0
  0
LINE
  5
57E9
  8
0
 10
-47.625181599167149
 20
-92.95282764193864
 30
0.0
 11
-44.811741599167021
 21
-93.706686617892203
 31
0.0
  0
LINE
  5
57EA
  8
0
 10
-47.625181599167149
 20
-92.95282764193864
 30
0.0
 11
-50.43862159916717
 21
-93.706686617892075
 31
0.0
  0
LINE
  5
57EB
  8
0
 10
-36.971181599167153
 20
-92.95282764193864
 30
0.0
 11
-39.78462159916716
 21
-93.706686617892075
 31
0.0
  0
ARC
  5
57EC
  8
0
 62
     7
 10
-47.467181599167361
 20
-99.309475685010852
 30
0.0
 40
5.0
 50
0.0
 51
41.34242869812001
  0
TEXT
  5
57EE
  8
DIM
 10
-8.6263455831171996
 20
54.276874826875421
 30
0.0
 40
20.0
  1
MAR-300
  7
CHINESET
  0
LINE
  5
57EF
  8
0
 10
-73.376890054223509
 20
-73.575281313194608
 30
0.0
 11
-72.68636896694602
 21
-39.693996386712939
 31
0.0
  0
LINE
  5
57F0
  8
0
 10
-62.820975913276982
 20
-36.484948772933528
 30
0.0
 11
-62.820975913276982
 21
-72.006689768250794
 31
0.0
  0
LINE
  5
57F1
  8
0
 62
     7
 10
-61.012389460584188
 20
-36.484948772933528
 30
0.0
 11
-61.012389460584188
 21
-72.006689768250794
 31
0.0
  0
LINE
  5
57F2
  8
0
 62
     7
 10
-56.656903428538719
 20
-36.484948772933528
 30
0.0
 11
-56.656903428538961
 21
-72.006689768250794
 31
0.0
  0
LINE
  5
57F3
  8
0
 62
     7
 10
-52.81382751791125
 20
-36.484948772933528
 30
0.0
 11
-52.813827517911022
 21
-72.006689768250851
 31
0.0
  0
LINE
  5
57F4
  8
0
 62
     7
 10
-48.458341485865901
 20
-36.484948772933528
 30
0.0
 11
-48.458341485865837
 21
-72.006689768250851
 31
0.0
  0
LINE
  5
57F5
  8
0
 62
     7
 10
-45.981220058075174
 20
-36.484948772933528
 30
0.0
 11
-45.981220058075174
 21
-72.006689768250851
 31
0.0
  0
LINE
  5
57F6
  8
0
 62
     7
 10
-41.625734026029988
 20
-36.484948772933528
 30
0.0
 11
-41.625734026029988
 21
-72.006689768250851
 31
0.0
  0
LINE
  5
57F7
  8
0
 62
     7
 10
-39.533943763090633
 20
-36.484948772933528
 30
0.0
 11
-39.53394376309069
 21
-72.006689768250851
 31
0.0
  0
LINE
  5
57F8
  8
0
 62
     7
 10
-37.996713398839397
 20
-36.484948772933528
 30
0.0
 11
-37.996713398839681
 21
-72.006689768250851
 31
0.0
  0
LINE
  5
57F9
  8
0
 62
     7
 10
-35.55550654352686
 20
-73.573314712610397
 30
0.0
 11
-36.295993984495617
 21
-39.693996386712911
 31
0.0
  0
LINE
  5
57FA
  8
0
 10
-70.950957724754517
 20
-36.484948772933528
 30
0.0
 11
-70.950957724754446
 21
-72.006689768250794
 31
0.0
  0
LINE
  5
57FB
  8
0
 10
-69.41372736050306
 20
-36.484948772933528
 30
0.0
 11
-69.41372736050306
 21
-72.006689768250794
 31
0.0
  0
LINE
  5
57FC
  8
0
 10
-67.17646194532216
 20
-36.484948772933528
 30
0.0
 11
-67.17646194532216
 21
-72.006689768250794
 31
0.0
  0
ARC
  5
57FD
  8
0
 62
     7
 10
-79.967181599167304
 20
-119.98494877293351
 30
0.0
 40
1.0
 50
180.0
 51
270.0
  0
ARC
  5
57FE
  8
0
 10
-36.467181599167361
 20
-79.006686617892143
 30
0.0
 40
3.25
 50
90.0
 51
141.80673329071121
  0
ARC
  5
57FF
  8
0
 10
-36.467181599167361
 20
-79.006686617892143
 30
0.0
 40
3.25
 50
232.0201275551465
 51
270.0
  0
LINE
  5
5800
  8
0
 10
-72.967181599167361
 20
-73.984989768250799
 30
0.0
 11
-35.967181599167361
 21
-73.984989768250855
 31
0.0
  0
ARC
  5
5801
  8
0
 10
-72.467181599167233
 20
-79.006686617892228
 30
0.0
 40
3.2499999999999281
 50
269.99999999999801
 51
307.97987244485131
  0
LINE
  5
5802
  8
0
 10
-70.467181599167304
 20
-80.635061107262715
 30
0.0
 11
-70.467181599167304
 21
-83.831213529969332
 31
0.0
  0
LINE
  5
5803
  8
0
 10
-38.467181599167418
 20
-80.635061107262715
 30
0.0
 11
-38.467181599167418
 21
-83.831213529969332
 31
0.0
  0
ARC
  5
5804
  8
0
 10
-74.467181599167361
 20
-79.006686617892143
 30
0.0
 40
3.25
 50
91.782788341122185
 51
270.0
  0
LINE
  5
5805
  8
CENTER
  6
CENTER
 10
-73.467181599167361
 20
-84.254781028605564
 30
0.0
 11
-73.467181599167361
 21
-73.554496564867847
 31
0.0
  0
LINE
  5
5806
  8
0
 10
-80.967181599167361
 20
-78.006686617892157
 30
0.0
 11
-80.967181599167361
 21
-96.006686617892157
 31
0.0
  0
LINE
  5
5807
  8
0
 10
-68.933181599167142
 20
-87.085072505922895
 30
0.0
 11
-66.119741599167014
 21
-86.331213529969332
 31
0.0
  0
LINE
  5
5808
  8
0
 10
-70.467181599167304
 20
-83.831213529969332
 30
0.0
 11
-38.467181599167418
 21
-83.831213529969332
 31
0.0
  0
LINE
  5
5809
  8
0
 10
-71.967181599167361
 20
-84.697238933753752
 30
0.0
 11
-36.967181599167411
 21
-84.697238933753752
 31
0.0
  0
LINE
  5
580A
  8
0
 10
-70.817181599167327
 20
-86.331213529969332
 30
0.0
 11
-38.117181599167388
 21
-86.331213529969332
 31
0.0
  0
LINE
  5
580B
  8
0
 62
     7
 10
-80.967181599167233
 20
-96.0066866178921
 30
0.0
 11
-80.967181599167304
 21
-119.98494877293351
 31
0.0
  0
LINE
  5
580C
  8
0
 10
-79.31718159916727
 20
-93.706686617892203
 30
0.0
 11
-79.317181599167384
 21
-87.094868728398026
 31
0.0
  0
LINE
  5
580D
  8
0
 10
-70.467181599167304
 20
-83.831213529969332
 30
0.0
 11
-71.967181599167361
 21
-84.697238933753752
 31
0.0
  0
LINE
  5
580E
  8
0
 10
-71.967181599167361
 20
-84.697238933753752
 30
0.0
 11
-71.967181599167361
 21
-86.331213529969332
 31
0.0
  0
LINE
  5
5810
  8
0
 10
-76.467181599167361
 20
-86.331213529969332
 30
0.0
 11
-79.317181599167384
 21
-87.094868728398026
 31
0.0
  0
LINE
  5
5811
  8
0
 10
-68.933181599167142
 20
-87.085072505922895
 30
0.0
 11
-71.746621599167156
 21
-86.331213529969446
 31
0.0
  0
LINE
  5
5812
  8
0
 10
-74.467181599167361
 20
-82.256686617892157
 30
0.0
 11
-72.467181599167361
 21
-82.256686617892157
 31
0.0
  0
LINE
  5
5813
  8
0
 62
     7
 10
-58.279181599167138
 20
-87.085072505922895
 30
0.0
 11
-61.09262159916716
 21
-86.331213529969446
 31
0.0
  0
LINE
  5
5814
  8
0
 62
     7
 10
-58.279181599167138
 20
-87.085072505922895
 30
0.0
 11
-55.465741599167131
 21
-86.331213529969332
 31
0.0
  0
LINE
  5
5815
  8
0
 62
     7
 10
-47.625181599167149
 20
-87.085072505922895
 30
0.0
 11
-44.811741599167362
 21
-86.331213529969446
 31
0.0
  0
LINE
  5
5816
  8
0
 62
     7
 10
-47.625181599167149
 20
-87.085072505922895
 30
0.0
 11
-50.43862159916717
 21
-86.331213529969446
 31
0.0
  0
LINE
  5
5817
  8
0
 10
-38.467181599167418
 20
-83.831213529969332
 30
0.0
 11
-36.967181599167411
 21
-84.697238933753752
 31
0.0
  0
LINE
  5
5819
  8
0
 10
-36.967181599167411
 20
-84.697238933753752
 30
0.0
 11
-36.967181599167411
 21
-86.331213529969332
 31
0.0
  0
LINE
  5
581A
  8
0
 62
     7
 10
-36.971181599167153
 20
-87.085072505922895
 30
0.0
 11
-39.78462159916716
 21
-86.331213529969446
 31
0.0
  0
LINE
  5
581B
  8
0
 10
-68.547181599167274
 20
-76.631213529969344
 30
0.0
 11
-40.38718159916732
 21
-76.631213529969344
 31
0.0
  0
LINE
  5
581C
  8
0
 10
-67.467181599167361
 20
-79.831213529969332
 30
0.0
 11
-41.467181599167361
 21
-79.831213529969332
 31
0.0
  0
LINE
  5
581D
  8
0
 10
-68.547181599167459
 20
-79.831213529969332
 30
0.0
 11
-40.387181599167263
 21
-79.831213529969332
 31
0.0
  0
LINE
  5
581E
  8
0
 10
-70.467181599167304
 20
-80.635061107262715
 30
0.0
 11
-38.467181599167418
 21
-80.635061107262715
 31
0.0
  0
LINE
  5
581F
  8
0
 10
-67.176461945322103
 20
-72.006689768250851
 30
0.0
 11
-62.820975913276918
 21
-72.006689768250965
 31
0.0
  0
LINE
  5
5820
  8
CENTER
 10
-80.071215179816136
 20
-79.006686617892143
 30
0.0
 11
-66.863148018518473
 21
-79.006686617892143
 31
0.0
  0
ARC
  5
5821
  8
0
 10
-75.967181599167361
 20
-78.006686617892157
 30
0.0
 40
5.0
 50
90.0
 51
180.0
  0
LINE
  5
5822
  8
0
 10
-75.967181599167361
 20
-73.006686617892157
 30
0.0
 11
-73.365301750294861
 21
-73.006686617892257
 31
0.0
  0
ARC
  5
5823
  8
0
 10
-72.467181599167361
 20
-79.006686617892143
 30
0.0
 40
3.25
 50
334.96622297407401
 51
348.84856523942631
  0
ARC
  5
5824
  8
0
 10
-72.467181599167361
 20
-79.006686617892143
 30
0.0
 40
3.25
 50
38.193266709287791
 51
88.217211658877829
  0
LINE
  5
5825
  8
0
 10
-74.568290742944441
 20
-75.758259776935958
 30
0.0
 11
-72.366072455390281
 21
-75.758259776935958
 31
0.0
  0
LINE
  5
5826
  8
0
 10
-70.347783199167338
 20
-77.113683274579572
 30
0.0
 11
-68.547181599167274
 21
-76.631213529969344
 31
0.0
  0
LINE
  5
5827
  8
0
 10
-70.347783199167338
 20
-77.113683274579572
 30
0.0
 11
-70.347783199167338
 21
-79.348743785359048
 31
0.0
  0
LINE
  5
5828
  8
0
 10
-70.347783199167338
 20
-79.348743785359048
 30
0.0
 11
-68.547181599167274
 21
-79.831213529969332
 31
0.0
  0
LINE
  5
5829
  8
0
 10
-67.467181599167361
 20
-79.831213529969332
 30
0.0
 11
-70.467181599167304
 21
-80.635061107262715
 31
0.0
  0
ARC
  5
582A
  8
0
 10
-72.967181599167304
 20
-73.575281313194608
 30
0.0
 40
0.4097084550561834
 50
179.99999999999929
 51
270.0
  0
LINE
  5
582B
  8
0
 10
-70.950957724754403
 20
-72.006689768250851
 30
0.0
 11
-69.413727360503003
 21
-72.006689768250851
 31
0.0
  0
LINE
  5
582C
  8
0
 62
     7
 10
-50.088301599167153
 20
-77.113683274579572
 30
0.0
 11
-51.888903199167153
 21
-76.631213529969401
 31
0.0
  0
LINE
  5
582D
  8
0
 10
-50.088301599167153
 20
-79.348743785359048
 30
0.0
 11
-51.888903199167153
 21
-79.831213529969219
 31
0.0
  0
LINE
  5
582E
  8
0
 62
     7
 10
-52.813827517910909
 20
-72.00668976825159
 30
0.0
 11
-48.458341485865731
 21
-72.006689768250851
 31
0.0
  0
LINE
  5
582F
  8
0
 10
-64.467181599167304
 20
-73.984989768250813
 30
0.0
 11
-64.467181599167304
 21
-76.631213529969344
 31
0.0
  0
LINE
  5
5830
  8
0
 62
     7
 10
-56.906861599167136
 20
-77.113683274579572
 30
0.0
 11
-58.707463199167137
 21
-76.631213529969401
 31
0.0
  0
LINE
  5
5831
  8
0
 62
     7
 10
-56.906861599167136
 20
-77.113683274579572
 30
0.0
 11
-55.10625999916715
 21
-76.631213529969344
 31
0.0
  0
LINE
  5
5832
  8
0
 62
     7
 10
-56.906861599167136
 20
-77.113683274579572
 30
0.0
 11
-56.90686159916708
 21
-79.34874378535882
 31
0.0
  0
LINE
  5
5833
  8
0
 10
-56.90686159916708
 20
-79.34874378535882
 30
0.0
 11
-58.707463199167137
 21
-79.831213529968991
 31
0.0
  0
LINE
  5
5834
  8
0
 10
-56.90686159916708
 20
-79.34874378535882
 30
0.0
 11
-55.106259999167037
 21
-79.831213529969105
 31
0.0
  0
LINE
  5
5835
  8
0
 10
-63.725421599167127
 20
-77.113683274579572
 30
0.0
 11
-65.526023199167184
 21
-76.631213529969401
 31
0.0
  0
LINE
  5
5836
  8
0
 10
-63.725421599167127
 20
-77.113683274579572
 30
0.0
 11
-61.924819999167077
 21
-76.631213529969344
 31
0.0
  0
LINE
  5
5837
  8
0
 10
-63.725421599167127
 20
-77.113683274579572
 30
0.0
 11
-63.725421599167127
 21
-79.348743785359048
 31
0.0
  0
LINE
  5
5838
  8
0
 10
-63.725421599167127
 20
-79.348743785359048
 30
0.0
 11
-65.526023199167184
 21
-79.831213529969219
 31
0.0
  0
LINE
  5
5839
  8
0
 10
-63.725421599167127
 20
-79.348743785359048
 30
0.0
 11
-61.924819999167077
 21
-79.831213529969332
 31
0.0
  0
LINE
  5
583A
  8
0
 62
     7
 10
-61.012389460584131
 20
-72.006689768250851
 30
0.0
 11
-56.656903428538961
 21
-72.006689768250965
 31
0.0
  0
ARC
  5
583B
  8
0
 10
-36.467181599167361
 20
-79.006686617892143
 30
0.0
 40
3.25
 50
191.15143476057469
 51
205.0337770259261
  0
LINE
  5
583C
  8
0
 10
-40.387181599167263
 20
-76.631213529969344
 30
0.0
 11
-38.563181599167251
 21
-77.119952856963735
 31
0.0
  0
LINE
  5
583D
  8
0
 10
-44.467181599167361
 20
-75.631216680327739
 30
0.0
 11
-44.467181599167361
 21
-76.631213529969344
 31
0.0
  0
LINE
  5
583E
  8
0
 62
     7
 10
-43.269741599167162
 20
-77.113683274579572
 30
0.0
 11
-41.469139999167282
 21
-76.631213529969401
 31
0.0
  0
LINE
  5
583F
  8
0
 10
-43.269741599167162
 20
-77.113683274579572
 30
0.0
 11
-45.070343199167148
 21
-76.631213529969401
 31
0.0
  0
LINE
  5
5840
  8
0
 10
-38.563181599167251
 20
-79.342474202974941
 30
0.0
 11
-38.563181599167251
 21
-77.119952856963735
 31
0.0
  0
LINE
  5
5841
  8
0
 62
     7
 10
-43.269741599167162
 20
-77.113683274579572
 30
0.0
 11
-43.269741599167162
 21
-79.348743785359048
 31
0.0
  0
LINE
  5
5842
  8
0
 10
-41.467181599167361
 20
-79.831213529969332
 30
0.0
 11
-38.467181599167418
 21
-80.635061107262715
 31
0.0
  0
LINE
  5
5843
  8
0
 10
-40.38718159916732
 20
-79.831213529969332
 30
0.0
 11
-38.563181599167251
 21
-79.342474202974941
 31
0.0
  0
LINE
  5
5844
  8
0
 10
-43.269741599167162
 20
-79.348743785359048
 30
0.0
 11
-41.469139999167048
 21
-79.831213529969332
 31
0.0
  0
LINE
  5
5845
  8
0
 10
-43.269741599167162
 20
-79.348743785359048
 30
0.0
 11
-45.070343199167148
 21
-79.831213529969219
 31
0.0
  0
LINE
  5
5846
  8
0
 62
     7
 10
-50.088301599167153
 20
-77.113683274579572
 30
0.0
 11
-48.287699999167273
 21
-76.631213529969401
 31
0.0
  0
LINE
  5
5847
  8
0
 62
     7
 10
-50.088301599167153
 20
-77.113683274579572
 30
0.0
 11
-50.088301599167153
 21
-79.348743785359048
 31
0.0
  0
LINE
  5
5848
  8
0
 10
-50.088301599167153
 20
-79.348743785359048
 30
0.0
 11
-48.287699999167103
 21
-79.831213529969332
 31
0.0
  0
LINE
  5
5849
  8
0
 62
     7
 10
-39.533943763090633
 20
-72.006689768250851
 30
0.0
 11
-37.996713398839681
 21
-72.006689768250851
 31
0.0
  0
LINE
  5
584A
  8
0
 62
     7
 10
-45.981220058075102
 20
-72.00668976825159
 30
0.0
 11
-41.625734026029932
 21
-72.006689768250851
 31
0.0
  0
LINE
  5
584B
  8
0
 10
-44.467181599167297
 20
-73.984989768250841
 30
0.0
 11
-44.467181599167297
 21
-76.006686617892058
 31
0.0
  0
LINE
  5
584C
  8
CENTER
  6
CENTER
 10
-35.467181599167361
 20
-84.254781028605564
 30
0.0
 11
-35.467181599167361
 21
-73.554496564867847
 31
0.0
  0
ARC
  5
584D
  8
0
 62
     7
 10
-35.967181599167297
 20
-73.573314712610397
 30
0.0
 40
0.4116750556404531
 50
270.0
 51
0.0
  0
LINE
  5
584E
  8
0
 10
-38.410260500282668
 20
34.330714878229173
 30
0.0
 11
-40.38325099008761
 21
33.708078599391001
 31
0.0
  0
ARC
  5
584F
  8
0
 10
-54.184103540833341
 20
24.664491430984071
 30
0.0
 40
16.5
 50
33.236501575937893
 51
56.763498424062099
  0
LINE
  5
5850
  8
0
 10
-69.957946581384064
 20
34.330714878229173
 30
0.0
 11
-67.984956091579079
 21
33.708078599391001
 31
0.0
  0
ARC
  5
5851
  8
0
 10
-54.184103540833341
 20
24.664491430984071
 30
0.0
 40
16.5
 50
123.23650157593789
 51
146.76349842406211
  0
CIRCLE
  5
5852
  8
0
 10
-54.184103540833341
 20
24.664491430984071
 30
0.0
 40
18.5
  0
TEXT
  5
5853
  8
0
 10
-53.104240294096591
 20
32.873146769547922
 30
0.0
 40
2.5
  1
L
 50
353.55787005909031
  7
DAYUS
  0
TEXT
  5
5854
  8
0
 10
-50.795336988413283
 20
32.218588885491037
 30
0.0
 40
2.5
  1
O
 50
336.89120339242362
  7
DAYUS
  0
TEXT
  5
5855
  8
0
 10
-56.841719675615423
 20
32.505741559575419
 30
0.0
 40
2.5
  1
H
 50
19.775136245498739
  7
DAYUS
  0
CIRCLE
  5
5856
  8
0
 10
-54.184103540833341
 20
24.664491430984071
 30
0.0
 40
11.0
  0
POLYLINE
  5
5857
  8
0
 66
     1
 10
0.0
 20
0.0
 30
0.0
  0
VERTEX
  5
5BF3
  8
0
 10
-29.044448571671008
 20
31.18881888811779
 30
0.0
  0
VERTEX
  5
5BF4
  8
0
 10
-35.869860418131111
 20
43.010778988769282
 30
0.0
  0
SEQEND
  5
5BF5
  8
0
  0
POLYLINE
  5
5858
  8
0
 66
     1
 10
0.0
 20
0.0
 30
0.0
  0
VERTEX
  5
5BF6
  8
0
 10
-72.176258340259608
 20
43.324925659374337
 30
0.0
  0
VERTEX
  5
5BF7
  8
0
 10
-79.434773345621181
 20
30.752808882587029
 30
0.0
  0
SEQEND
  5
5BF8
  8
0
  0
LINE
  5
5859
  8
0
 10
-80.684103540833348
 20
57.36449143098401
 30
0.0
 11
-79.375578536458931
 21
24.476896321042091
 31
0.0
  0
LINE
  5
585A
  8
0
 10
-27.684103540833341
 20
57.36449143098411
 30
0.0
 11
-28.992628545207591
 21
24.476896321042091
 31
0.0
  0
LINE
  5
585B
  8
CENTER
 10
-54.184103540833341
 20
65.710671350951657
 30
0.0
 11
-54.184103540833341
 21
-3.4844986419369661
 31
0.0
  0
LINE
  5
585D
  8
0
 62
     7
 10
-80.684103540833348
 20
37.329100842141308
 30
0.0
 11
-80.684103540833348
 21
11.999882019826771
 31
0.0
  0
LINE
  5
585E
  8
0
 62
     7
 10
-27.684103540833341
 20
37.329100842141308
 30
0.0
 11
-27.684103540833341
 21
11.999882019826771
 31
0.0
  0
ARC
  5
585F
  8
0
 10
-38.330490883585689
 20
-37.877957520124141
 30
0.0
 40
1.638833820224733
 50
11.309932474019019
 51
58.211669382920412
  0
LINE
  5
5860
  8
0
 10
-36.195260013476343
 20
20.34575219964978
 30
0.0
 11
-38.030645303013209
 21
21.3005968192283
 31
0.0
  0
LINE
  5
5861
  8
0
 10
-36.195260013476343
 20
28.983230662318189
 30
0.0
 11
-38.030645303013209
 21
28.028386042739839
 31
0.0
  0
ARC
  5
5862
  8
0
 10
-54.184103540833341
 20
24.773243803868802
 30
0.0
 40
26.0
 50
285.50012861430332
 51
314.78060427706259
  0
LINE
  5
5863
  8
0
 10
-31.545305884736759
 20
15.46679837515563
 30
0.0
 11
-37.551269590401262
 21
4.7895295650853882
 31
0.0
  0
LINE
  5
5864
  8
CENTER
 10
-82.445762472752847
 20
24.664491430984071
 30
0.0
 11
-26.61559867036771
 21
24.664491430984071
 31
0.0
  0
LINE
  5
5865
  8
CENTER
 10
-81.684103540833334
 20
24.664491430984071
 30
0.0
 11
-26.684103540833341
 21
24.664491430984071
 31
0.0
  0
LINE
  5
5866
  8
0
 10
-71.467181599167361
 20
-36.484948772933528
 30
0.0
 11
-37.467181599167361
 21
-36.484948772933528
 31
0.0
  0
ARC
  5
5867
  8
0
 10
-70.651872067856061
 20
-37.87795752012417
 30
0.0
 40
1.638833820224733
 50
123.55730976182529
 51
168.69006752598091
  0
LINE
  5
5868
  8
0
 10
-72.258880842637154
 20
-37.556555765167978
 30
0.0
 11
-72.68636896694602
 21
-39.693996386712939
 31
0.0
  0
ARC
  5
5869
  8
0
 10
-54.184103540833412
 20
24.664491430984071
 30
0.0
 40
16.5
 50
213.23650157593781
 51
236.76349842406211
  0
ARC
  5
586A
  8
0
 10
-54.184103540833341
 20
24.773243803868802
 30
0.0
 40
26.0
 50
226.21089200081971
 51
254.49987138569679
  0
POLYLINE
  5
586B
  8
0
 66
     1
 10
0.0
 20
0.0
 30
0.0
  0
VERTEX
  5
5BF9
  8
0
 10
-72.176258340259608
 20
6.0040572025936854
 30
0.0
  0
VERTEX
  5
5BFA
  8
0
 10
-79.434773345621181
 20
18.57617397938105
 30
0.0
  0
SEQEND
  5
5BFB
  8
0
  0
LINE
  5
586C
  8
0
 10
-76.82290119692982
 20
15.46679837515569
 30
0.0
 11
-70.825861681391586
 21
4.805394791976652
 31
0.0
  0
ARC
  5
586D
  8
0
 62
     7
 10
-79.684103540833348
 20
11.999882019826771
 30
0.0
 40
1.0
 50
180.0
 51
259.75012916923947
  0
LINE
  5
586E
  8
0
 62
     7
 10
-79.862044867857321
 20
11.015840921022059
 30
0.0
 11
-74.511179509202066
 21
10.0482592988701
 31
0.0
  0
LINE
  5
586F
  8
0
 10
-69.957946581384064
 20
14.998267983738909
 30
0.0
 11
-67.984956091579079
 21
15.62090426257708
 31
0.0
  0
LINE
  5
5870
  8
0
 10
-72.17294706819041
 20
28.983230662318189
 30
0.0
 11
-70.337561778653523
 21
28.028386042739839
 31
0.0
  0
LINE
  5
5871
  8
0
 10
-72.17294706819041
 20
20.34575219964978
 30
0.0
 11
-70.337561778653523
 21
21.3005968192283
 31
0.0
  0
ARC
  5
5872
  8
0
 10
-54.184103540833341
 20
24.664491430984071
 30
0.0
 40
16.5
 50
168.23650157593789
 51
191.76349842406211
  0
ARC
  5
5873
  8
0
 10
-54.184103540833341
 20
24.773243803868802
 30
0.0
 40
26.0
 50
180.2396565441494
 51
193.7891079991802
  0
ARC
  5
5874
  8
0
 10
-54.184103540833341
 20
24.555739058099331
 30
0.0
 40
26.0
 50
166.21089200081971
 51
179.76034345585049
  0
ARC
  5
5875
  8
0
 10
-59.391390454438863
 20
25.272023167806871
 30
0.0
 40
20.0
 50
182.27847110648261
 51
209.3577535427909
  0
LINE
  5
5876
  8
0
 10
-76.822901196929877
 20
15.46679837515574
 30
0.0
 11
-76.615614283324362
 21
15.09828830652361
 31
0.0
  0
ARC
  5
5877
  8
0
 10
-54.184103540833341
 20
24.664491430984071
 30
0.0
 40
16.5
 50
303.23650157593789
 51
326.76349842406211
  0
ARC
  5
5878
  8
0
 10
-54.184103540833341
 20
24.664491430984071
 30
0.0
 40
10.0
 50
225.0
 51
314.99999999999989
  0
ARC
  5
5879
  8
0
 10
-54.184103540833341
 20
24.664491430984071
 30
0.0
 40
16.5
 50
258.23650157593778
 51
281.76349842406211
  0
POLYLINE
  5
587A
  8
0
 66
     1
 10
0.0
 20
0.0
 30
0.0
  0
VERTEX
  5
5BFC
  8
0
 10
-47.235849522144179
 20
-0.2811323825736167
 30
0.0
  0
VERTEX
  5
5BFD
  8
0
 10
-61.132357559522518
 20
-0.2811323825736167
 30
0.0
  0
SEQEND
  5
5BFE
  8
0
  0
LINE
  5
587B
  8
0
 10
-58.502842772167583
 20
6.6756479036269516
 30
0.0
 11
-57.547998152589123
 21
8.5110331931638825
 31
0.0
  0
LINE
  5
587C
  8
0
 10
-63.85032698807845
 20
8.8906483904333413
 30
0.0
 11
-63.227690709240328
 21
10.86363888023828
 31
0.0
  0
LINE
  5
587D
  8
0
 10
-44.517880093588303
 20
8.8906483904333413
 30
0.0
 11
-45.140516372426418
 21
10.86363888023828
 31
0.0
  0
LINE
  5
587E
  8
0
 10
-49.865364309499107
 20
6.6756479036269516
 30
0.0
 11
-50.82020892907758
 21
8.5110331931638825
 31
0.0
  0
ARC
  5
587F
  8
0
 10
-54.184103540833341
 20
24.664491430984071
 30
0.0
 40
9.0
 50
235.0
 51
304.99999999999977
  0
CIRCLE
  5
5880
  8
CENTER
  6
CENTER
 10
-54.184103540833341
 20
24.664491430984071
 30
0.0
 40
8.0
  0
CIRCLE
  5
5881
  8
0
 10
-54.184103540833341
 20
24.664491430984071
 30
0.0
 40
7.5
  0
TEXT
  5
5884
  8
0
 10
-58.978967811091188
 20
31.414113918856401
 30
0.0
 40
2.5
  1
S
 50
36.441802912165407
  7
DAYUS
  0
TEXT
  5
5885
  8
0
 10
-60.713346773817982
 20
29.755376413333799
 30
0.0
 40
2.5
  1
U
 50
53.108469578832043
  7
DAYUS
  0
TEXT
  5
5886
  8
0
 10
-61.899132351687683
 20
27.668897786102431
 30
0.0
 40
2.5
  1
P
 50
69.775136245498729
  7
DAYUS
  0
LINE
  5
5887
  8
0
 10
-61.255171352698817
 20
17.593423619118479
 30
0.0
 11
-58.772715031641717
 21
18.11127507667214
 31
0.0
  0
LINE
  5
5888
  8
0
 10
-58.772715031641717
 20
18.11127507667214
 30
0.0
 11
-59.346291467992778
 21
17.292123032383131
 31
0.0
  0
ARC
  5
5889
  8
0
 10
-54.184103540833341
 20
24.664491430984071
 30
0.0
 40
16.5
 50
348.23650157593778
 51
11.763498424062099
  0
LINE
  5
588A
  8
0
 10
-38.410260500282668
 20
14.998267983738909
 30
0.0
 11
-40.38325099008761
 21
15.62090426257708
 31
0.0
  0
TEXT
  5
588B
  8
0
 10
-47.201786018089187
 20
29.113690135309291
 30
0.0
 40
2.5
  1
K
 50
303.55787005909031
  7
DAYUS
  0
TEXT
  5
588C
  8
0
 10
-48.771161153762193
 20
30.929328365273481
 30
0.0
 40
2.5
  1
C
 50
320.22453672575699
  7
CHINESET
  0
LINE
  5
588D
  8
0
 10
-49.595492050024973
 20
18.11127507667214
 30
0.0
 11
-47.113035728967873
 21
17.593423619118479
 31
0.0
  0
LINE
  5
588E
  8
0
 10
-49.595492050024973
 20
18.11127507667214
 30
0.0
 11
-49.021915613673912
 21
17.292123032383131
 31
0.0
  0
LINE
  5
588F
  8
0
 62
     7
 10
-36.723482108804603
 20
-37.556555765167957
 30
0.0
 11
-36.295993984495617
 21
-39.693996386712911
 31
0.0
  0
POLYLINE
  5
5890
  8
0
 66
     1
 10
0.0
 20
0.0
 30
0.0
  0
VERTEX
  5
5BFF
  8
0
 10
-29.044448571671008
 20
18.140163973850171
 30
0.0
  0
VERTEX
  5
5C00
  8
0
 10
-35.869860418131111
 20
6.3182038731987973
 30
0.0
  0
SEQEND
  5
5C01
  8
0
  0
ARC
  5
5892
  8
0
 62
     7
 10
-28.684103540833348
 20
11.999882019826771
 30
0.0
 40
1.0
 50
280.24987083076041
 51
0.0000000000000636
  0
LINE
  5
5893
  8
0
 62
     7
 10
-28.506162213809372
 20
11.015840921022059
 30
0.0
 11
-33.69990860035886
 21
10.07667067155676
 31
0.0
  0
ARC
  5
5894
  8
0
 10
-54.184103540833341
 20
24.773243803868802
 30
0.0
 40
26.0
 50
345.21939572291529
 51
359.76034345585049
  0
ARC
  5
5895
  8
0
 10
-54.184103540833341
 20
24.555739058099331
 30
0.0
 40
26.0
 50
0.2396565441494257
 51
14.78060427708462
  0
ARC
  5
5896
  8
0
 10
-48.97681662722772
 20
25.272023167806761
 30
0.0
 40
20.0
 50
330.64224645720873
 51
357.72152889351742
  0
LINE
  5
5897
  8
0
 10
-31.545305884736759
 20
15.46679837515563
 30
0.0
 11
-31.752592798342331
 21
15.0982883065235
 31
0.0
  0
DIMENSION
  5
5898
  8
0
  2
*D164
 10
-35.467181599167361
 20
72.245551478036305
 30
0.0
 11
-54.467181599167361
 21
74.745551478036305
 31
0.0
 12
372.47659837875278
 22
0.0
 32
0.0
 70
     0
 13
-73.467181599167361
 23
61.664491430984071
 33
0.0
 14
-35.467181599167361
 24
61.664491430984071
 34
0.0
1001
ACAD
1000
DSTYLE
1002
{
1070
   144
1040
0.947368421
1002
}
  0
DIMENSION
  5
5899
  8
0
  2
*D165
 10
-27.684103540833341
 20
79.390348839836065
 30
0.0
 11
-54.184103540833341
 21
81.890348839836065
 31
0.0
 70
     0
 13
-80.684103540833348
 23
59.664491430984071
 33
0.0
 14
-27.684103540833341
 24
59.664491430984071
 34
0.0
  0
ARC
  5
589A
  8
0
 10
-54.184103540833341
 20
24.555739058099331
 30
0.0
 40
26.0
 50
45.219395722937307
 51
74.499871385696622
  0
LINE
  5
589B
  8
0
 10
-80.684103540833348
 20
57.36449143098401
 30
0.0
 11
-27.684103540833341
 21
57.36449143098411
 31
0.0
  0
LINE
  5
589C
  8
0
 10
-80.684103540833348
 20
59.664491430984071
 30
0.0
 11
-27.684103540833341
 21
59.664491430984071
 31
0.0
  0
ARC
  5
589D
  8
0
 10
-54.184103540833341
 20
24.555739058099331
 30
0.0
 40
26.0
 50
105.50012861430309
 51
133.7891079991802
  0
ARC
  5
589E
  8
0
 62
     7
 10
-79.684103540833348
 20
37.329100842141308
 30
0.0
 40
1.0
 50
100.2498708307604
 51
180.0
  0
LINE
  5
589F
  8
0
 62
     7
 10
-79.862044867857321
 20
38.313141940946018
 30
0.0
 11
-74.511179509201952
 21
39.280723563098029
 31
0.0
  0
LINE
  5
58A0
  8
CENTER
  6
CENTER
 10
-73.467181599167361
 20
54.742231439485749
 30
0.0
 11
-73.467181599167361
 21
61.664491430984071
 31
0.0
  0
LINE
  5
58A1
  8
HIDDEN
 10
-69.217181599167361
 20
57.36449143098401
 30
0.0
 11
-69.217181599167361
 21
59.664491430984071
 31
0.0
  0
LINE
  5
58A2
  8
HIDDEN
 10
-77.717181599167361
 20
57.36449143098401
 30
0.0
 11
-77.717181599167361
 21
59.664491430984071
 31
0.0
  0
LINE
  5
58A3
  8
0
 10
-80.684103540833348
 20
57.36449143098401
 30
0.0
 11
-80.684103540833348
 21
59.664491430984071
 31
0.0
  0
ARC
  5
58A4
  8
0
 10
-54.184103540833341
 20
24.664491430984071
 30
0.0
 40
16.5
 50
78.236501575937893
 51
101.76349842406211
  0
POLYLINE
  5
58A5
  8
0
 66
     1
 10
0.0
 20
0.0
 30
0.0
  0
VERTEX
  5
5C02
  8
0
 10
-47.235849522144179
 20
49.610115244541703
 30
0.0
  0
VERTEX
  5
5C03
  8
0
 10
-61.132357559522518
 20
49.610115244541703
 30
0.0
  0
SEQEND
  5
5C04
  8
0
  0
LINE
  5
58A6
  8
0
 10
-63.85032698807845
 20
40.438334471534738
 30
0.0
 11
-63.227690709240328
 21
38.465343981729802
 31
0.0
  0
LINE
  5
58A7
  8
0
 10
-58.502842772167583
 20
42.653334958341013
 30
0.0
 11
-57.547998152589123
 21
40.817949668804197
 31
0.0
  0
LINE
  5
58A8
  8
0
 10
-44.517880093588303
 20
40.438334471534738
 30
0.0
 11
-45.140516372426418
 21
38.465343981729802
 31
0.0
  0
LINE
  5
58A9
  8
0
 10
-49.865364309499107
 20
42.653334958341013
 30
0.0
 11
-50.82020892907758
 21
40.817949668804197
 31
0.0
  0
LINE
  5
58AA
  8
HIDDEN
 10
-39.717181599167361
 20
57.364491430984089
 30
0.0
 11
-39.717181599167361
 21
59.664491430984071
 31
0.0
  0
ARC
  5
58AC
  8
0
 62
     7
 10
-28.684103540833348
 20
37.329100842141308
 30
0.0
 40
1.0
 50
0.0
 51
79.750129169239585
  0
LINE
  5
58AD
  8
0
 62
     7
 10
-28.506162213809372
 20
38.313141940946018
 30
0.0
 11
-33.69990860035886
 21
39.252312190411317
 31
0.0
  0
LINE
  5
58AE
  8
CENTER
  6
CENTER
 10
-35.467181599167361
 20
54.600091194899498
 30
0.0
 11
-35.467181599167361
 21
62.559971414999829
 31
0.0
  0
LINE
  5
58AF
  8
HIDDEN
 10
-31.217181599167361
 20
57.36449143098411
 30
0.0
 11
-31.217181599167301
 21
59.664491430984071
 31
0.0
  0
LINE
  5
58B0
  8
0
 10
-27.684103540833341
 20
57.36449143098411
 30
0.0
 11
-27.684103540833341
 21
59.664491430984071
 31
0.0
  0
LINE
  5
5911
  8
0
 10
48.553663194558453
 20
-36.484948772933528
 30
0.0
 11
82.553663194558453
 21
-36.484948772933528
 31
0.0
  0
TEXT
  5
5970
  8
LOGO
 62
     6
 10
120.45274036208529
 20
-188.6298034642256
 30
0.0
 40
5.7662109999196121
  1
配管口徑
 41
0.9
  7
CHINESET
 72
     4
 11
130.88597839006491
 21
-185.74669796426579
 31
0.0
  0
LINE
  5
5971
  8
LOGO
 62
     6
 10
145.7760781442467
 20
-196.55834358911511
 30
0.0
 11
115.9958786358831
 21
-196.55834358911511
 31
0.0
  0
LINE
  5
5972
  8
LOGO
 62
     6
 10
145.7760781442467
 20
-180.70126333933609
 30
0.0
 11
115.9958786358831
 21
-180.70126333933609
 31
0.0
  0
TEXT
  5
5973
  8
LOGO
  6
CONTINUOUS
 62
     6
 10
121.0010452473456
 20
-194.7564026516402
 30
0.0
 40
3.603881874949757
  1
Bore size
 41
0.8
  7
CHINESET
 72
     4
 11
130.88597839006491
 21
-192.95446171416529
 31
0.0
  0
TEXT
  5
5974
  8
LOGO
  6
CONTINUOUS
 62
     7
 10
125.7238468234145
 20
-171.41290695957181
 30
0.0
 40
7.2077637498995148
  1
?A
  7
CHINESET
 72
     1
 11
131.5587031923807
 21
-167.80902508462211
 31
0.0
 73
     2
  0
LINE
  5
5975
  8
LOGO
 62
     6
 10
142.89297264428691
 20
-161.2403012146074
 30
0.0
 11
118.8789841358429
 21
-161.2403012146074
 31
0.0
  0
LINE
  5
5976
  8
LOGO
 62
     6
 10
142.8929726442868
 20
-174.21427596442661
 30
0.0
 11
118.8789841358429
 21
-174.21427596442649
 31
0.0
  0
LINE
  5
5977
  8
LOGO
 62
     1
 10
148.27839972233781
 20
-156.91564296466771
 30
0.0
 11
-98.717935698230576
 21
-156.91564296466771
 31
0.0
  0
LINE
  5
5978
  8
LOGO
 62
     1
 10
148.27839972233781
 20
-200.16222546406479
 30
0.0
 11
-98.717935698230576
 21
-200.16222546406479
 31
0.0
  0
LINE
  5
5979
  8
LOGO
  6
CONTINUOUS
 62
     6
 10
-16.49129415762415
 20
-168.40914447960751
 30
0.0
 11
-8.6194584030500181
 21
-167.36936886794749
 31
0.0
  0
LINE
  5
597A
  8
LOGO
  6
CONTINUOUS
 62
     6
 10
-16.49129415762415
 20
-171.35158999807891
 30
0.0
 11
-8.6194584030500181
 21
-172.3913656097389
 31
0.0
  0
LINE
  5
597B
  8
LOGO
 62
     1
 10
-3.575454199557015
 20
-165.56495946454709
 30
0.0
 11
-67.003775198672713
 21
-165.56495946454709
 31
0.0
  0
LINE
  5
597C
  8
LOGO
 62
     1
 10
-3.575454199557015
 20
-174.21427596442649
 30
0.0
 11
-67.003775198672713
 21
-174.21427596442649
 31
0.0
  0
TEXT
  5
597D
  8
LOGO
 62
     6
 10
-25.918808745465771
 20
-163.40263033957731
 30
0.0
 40
4.3246582499397093
  1
1 : 1
  7
CHINESET
 72
     1
 11
-18.299172781286281
 21
-161.2403012146074
 31
0.0
 73
     2
  0
TEXT
  5
597E
  8
LOGO
 62
     6
 10
-25.918808745465778
 20
-180.70126333933609
 30
0.0
 40
4.3246582499397093
  1
m/m
  7
CHINESET
 72
     1
 11
-18.299172781286281
 21
-178.53893421436629
 31
0.0
 73
     2
  0
LINE
  5
597F
  8
LOGO
 62
     1
 10
-3.575454199557015
 20
-182.8635924643059
 30
0.0
 11
-98.717935698230605
 21
-182.8635924643059
 31
0.0
  0
TEXT
  5
5980
  8
LOGO
  6
CONTINUOUS
 62
     5
 10
-97.302402035036209
 20
-191.66649959684179
 30
0.0
 40
6.486987374909563
  1
金器工業股份有限公司
 41
0.8
  7
LOGO
  0
TEXT
  5
5981
  8
LOGO
  6
CONTINUOUS
 62
     5
 10
-95.444920108635259
 20
-198.15475791267741
 30
0.0
 40
4.3246582499397093
  1
MINDMAN INDUSTRIAL CO.,LTD
 41
0.85
  7
CHINESET
  0
SOLID
  5
5982
  8
LOGO
 62
     5
 10
-94.231033358431873
 20
-175.67446369040991
 30
0.0
 11
-92.361164610190514
 21
-175.67446369041051
 31
0.0
 12
-84.559298453734215
 22
-157.9429496984647
 32
0.0
 13
-82.689429705493026
 23
-157.94294969846601
 33
0.0
  0
SOLID
  5
5983
  8
LOGO
 62
     5
 10
-91.587425817813596
 20
-175.67446369040991
 30
0.0
 11
-89.717557069572393
 21
-175.67446369040991
 31
0.0
 12
-82.689429705493026
 22
-159.36147081782099
 32
0.0
 13
-84.559298453734215
 23
-166.21765622804
 33
0.0
  0
SOLID
  5
5984
  8
LOGO
 62
     2
 10
-92.361164610190514
 20
-175.67446369041051
 30
0.0
 11
-91.587425817813596
 21
-175.67446369040991
 31
0.0
 12
-82.689429705493026
 22
-157.94294969846601
 32
0.0
 13
-81.915690913116663
 23
-157.94294969846601
 33
0.0
  0
SOLID
  5
5985
  8
LOGO
 62
     5
 10
-92.307812418646307
 20
-178.8983753253091
 30
0.0
 11
-91.663030091667125
 21
-178.8983753253091
 31
0.0
 12
-92.307812418646307
 22
-182.1222869602077
 32
0.0
 13
-91.663030091667125
 23
-182.1222869602077
 33
0.0
  0
SOLID
  5
5986
  8
LOGO
 62
     5
 10
-97.228891509848765
 20
-182.1222869602077
 30
0.0
 11
-96.584109182868275
 21
-182.1222869602077
 31
0.0
 12
-94.768351964247941
 22
-178.8983753253091
 32
0.0
 13
-94.123569637268588
 23
-178.8983753253091
 33
0.0
  0
SOLID
  5
5987
  8
LOGO
 62
     5
 10
-94.768351964247941
 20
-178.8983753253091
 30
0.0
 11
-94.123569637268588
 21
-178.8983753253091
 31
0.0
 12
-94.768351964247941
 22
-182.1222869602077
 32
0.0
 13
-94.123569637268588
 23
-182.1222869602077
 33
0.0
  0
SOLID
  5
5988
  8
LOGO
 62
     5
 10
-94.768351964247941
 20
-182.1222869602077
 30
0.0
 11
-94.123569637268588
 21
-182.1222869602077
 31
0.0
 12
-92.307812418646307
 22
-178.8983753253091
 32
0.0
 13
-91.663030091667125
 23
-178.8983753253091
 33
0.0
  0
LINE
  5
5989
  8
LOGO
 62
     1
 10
-98.717935698230576
 20
-200.16222546406479
 30
0.0
 11
-98.717935698230576
 21
-156.91564296466771
 31
0.0
  0
TEXT
  5
598A
  8
LOGO
 62
     6
 10
-63.437862793476889
 20
-163.4005020628795
 30
0.0
 40
4.3246582499397093
  1
比例 Scale:
 41
0.9
  7
CHINESET
 72
     4
 11
-49.705142198913883
 21
-161.2403012146074
 31
0.0
  0
TEXT
  5
598B
  8
LOGO
 62
     6
 10
-61.926163057002427
 20
-171.99111359717779
 30
0.0
 40
4.3246582499397093
  1
投影 View:
 41
0.9
  7
CHINESET
 72
     4
 11
-49.705142198913883
 21
-169.8896177144868
 31
0.0
  0
TEXT
  5
598C
  8
LOGO
 62
     6
 10
-61.503350487030637
 20
-180.70126333933609
 30
0.0
 40
4.3246582499397093
  1
單位 Unit:
 41
0.9
  7
CHINESET
 72
     4
 11
-49.705142198913883
 21
-178.53893421436629
 31
0.0
  0
POLYLINE
  5
598D
  8
LOGO
 62
     5
 66
     1
 10
0.0
 20
0.0
 30
0.0
 70
     1
 40
0.6458156319909966
 41
0.6458156319909966
  0
VERTEX
  5
5C05
  8
LOGO
 62
     5
 10
-76.609006712184168
 20
-180.5103311427587
 30
0.0
 42
1.0
  0
VERTEX
  5
5C06
  8
LOGO
 62
     5
 10
-74.02574418422023
 20
-180.5103311427587
 30
0.0
 42
1.0
  0
SEQEND
  5
5C07
  8
LOGO
 62
     5
  0
LINE
  5
598E
  8
LOGO
 62
     5
 10
-70.374087260178555
 20
-182.1222869602077
 30
0.0
 11
-70.374087260178555
 21
-180.1879399792688
 31
0.0
  0
SOLID
  5
598F
  8
LOGO
 62
     5
 10
-74.350266435963718
 20
-178.8983753253091
 30
0.0
 11
-73.70548410898445
 21
-178.8983753253091
 31
0.0
 12
-74.350266435963718
 22
-182.1222869602077
 32
0.0
 13
-73.70548410898445
 23
-182.1222869602077
 33
0.0
  0
SOLID
  5
5990
  8
LOGO
 62
     5
 10
-72.953216568097872
 20
-182.1222869602077
 30
0.0
 11
-72.308434241117482
 21
-182.1222869602077
 31
0.0
 12
-72.953216568097872
 22
-178.8983753253091
 32
0.0
 13
-72.308434241117482
 23
-178.8983753253091
 33
0.0
  0
SOLID
  5
5991
  8
LOGO
 62
     5
 10
-71.018869587157724
 20
-180.1879399792688
 30
0.0
 11
-70.374087260178555
 21
-180.18793997926889
 31
0.0
 12
-71.018869587157724
 22
-182.1222869602077
 32
0.0
 13
-70.374087260178555
 23
-182.1222869602077
 33
0.0
  0
SOLID
  5
5992
  8
LOGO
 62
     5
 10
-83.592189441496771
 20
-177.93120183483899
 30
0.0
 11
-82.947407114517574
 21
-177.93120183483899
 31
0.0
 12
-83.592189441496771
 22
-182.1222869602077
 32
0.0
 13
-82.947407114517574
 23
-182.1222869602077
 33
0.0
  0
SOLID
  5
5993
  8
LOGO
 62
     5
 10
-82.195139573629106
 20
-178.8983753253091
 30
0.0
 11
-81.550357246649853
 21
-178.8983753253091
 31
0.0
 12
-82.195139573629106
 22
-182.1222869602077
 32
0.0
 13
-81.550357246649853
 23
-182.1222869602077
 33
0.0
  0
SOLID
  5
5994
  8
LOGO
 62
     5
 10
-80.260792592690194
 20
-180.1879399792688
 30
0.0
 11
-79.616010265710926
 21
-180.1879399792688
 31
0.0
 12
-80.260792592690194
 22
-182.1222869602077
 32
0.0
 13
-79.616010265710926
 23
-182.1222869602077
 33
0.0
  0
SOLID
  5
5995
  8
LOGO
 62
     5
 10
-78.326445611751183
 20
-180.1879399792688
 30
0.0
 11
-77.681663284772014
 21
-180.1879399792688
 31
0.0
 12
-78.326445611751183
 22
-182.1222869602089
 32
0.0
 13
-77.681663284772014
 23
-182.1222869602089
 33
0.0
  0
LINE
  5
5996
  8
LOGO
 62
     1
 10
-67.003775198672713
 20
-182.86359246430601
 30
0.0
 11
-67.003775198672713
 21
-156.91564296466771
 31
0.0
  0
SOLID
  5
5997
  8
LOGO
 62
     5
 10
-89.502715598222579
 20
-178.8983753253091
 30
0.0
 11
-88.857933271243411
 21
-178.8983753253091
 31
0.0
 12
-89.502715598222579
 22
-182.1222869602077
 32
0.0
 13
-88.857933271243411
 23
-182.1222869602077
 33
0.0
  0
SOLID
  5
5998
  8
LOGO
 62
     5
 10
-87.568368617283824
 20
-180.1879399792688
 30
0.0
 11
-86.923586290303405
 21
-180.1879399792688
 31
0.0
 12
-87.568368617283824
 22
-182.1222869602077
 32
0.0
 13
-86.923586290303405
 23
-182.1222869602077
 33
0.0
  0
SOLID
  5
5999
  8
LOGO
 62
     5
 10
-90.899765466090386
 20
-178.8983753253091
 30
0.0
 11
-90.254983139109328
 21
-178.8983753253091
 31
0.0
 12
-90.899765466090386
 22
-182.1222869602089
 32
0.0
 13
-90.254983139109328
 23
-182.1222869602077
 33
0.0
  0
POLYLINE
  5
599A
  8
LOGO
 62
     5
 66
     1
 10
0.0
 20
0.0
 30
0.0
 70
     1
 40
0.6458156319909966
 41
0.6458156319909966
  0
VERTEX
  5
5C08
  8
LOGO
 62
     5
 10
-85.850929717716625
 20
-180.5103311427587
 30
0.0
 42
1.0
  0
VERTEX
  5
5C09
  8
LOGO
 62
     5
 10
-83.267667189752615
 20
-180.5103311427587
 30
0.0
 42
1.0
  0
SEQEND
  5
5C0A
  8
LOGO
 62
     5
  0
POLYLINE
  5
599B
  8
LOGO
 62
     5
 66
     1
 10
0.0
 20
0.0
 30
0.0
 40
0.6458156319909966
 41
0.6458156319909966
  0
VERTEX
  5
5C0B
  8
LOGO
 62
     5
 10
-70.694928466151026
 20
-180.1879399792688
 30
0.0
 42
1.0
  0
VERTEX
  5
5C0C
  8
LOGO
 62
     5
 10
-72.632375362124094
 20
-180.1879399792688
 30
0.0
 42
1.0
  0
SEQEND
  5
5C0D
  8
LOGO
 62
     5
  0
SOLID
  5
599C
  8
LOGO
 62
     5
 10
-72.243956008419758
 20
-175.67446369041051
 30
0.0
 11
-70.374087260178555
 21
-175.67446369041051
 31
0.0
 12
-72.243956008419758
 22
-157.94294969846601
 32
0.0
 13
-70.374087260178555
 23
-157.9429496984647
 33
0.0
  0
SOLID
  5
599D
  8
LOGO
 62
     5
 10
-81.915690913116663
 20
-157.94294969846601
 30
0.0
 11
-80.045822164875545
 21
-157.9429496984647
 31
0.0
 12
-81.915690913116663
 22
-174.2559425710549
 32
0.0
 13
-80.045822164875545
 23
-167.39975716083589
 33
0.0
  0
SOLID
  5
599E
  8
LOGO
 62
     5
 10
-81.915690913116663
 20
-174.2559425710549
 30
0.0
 11
-80.045822164875545
 21
-167.39975716083589
 31
0.0
 12
-73.017694800796093
 22
-157.9429496984647
 32
0.0
 13
-74.887563549037452
 23
-157.9429496984647
 33
0.0
  0
SOLID
  5
599F
  8
LOGO
 62
     5
 10
-73.017694800796093
 20
-159.36147081782099
 30
0.0
 11
-74.887563549037452
 21
-166.21765622804
 31
0.0
 12
-73.017694800796093
 22
-175.67446369041051
 32
0.0
 13
-74.887563549037452
 23
-175.67446369041051
 33
0.0
  0
SOLID
  5
59A0
  8
LOGO
 62
     2
 10
-73.017694800796093
 20
-157.9429496984647
 30
0.0
 11
-72.243956008419758
 21
-157.94294969846601
 31
0.0
 12
-73.017694800796093
 22
-175.67446369041051
 32
0.0
 13
-72.243956008419758
 23
-175.67446369041051
 33
0.0
  0
SOLID
  5
59A1
  8
LOGO
 62
     5
 10
-84.559298453734215
 20
-175.67446369040991
 30
0.0
 11
-82.689429705493026
 21
-175.67446369040991
 31
0.0
 12
-84.559298453734215
 22
-166.21765622804
 32
0.0
 13
-82.689429705493026
 23
-159.36147081782099
 33
0.0
  0
SOLID
  5
59A2
  8
LOGO
 62
     2
 10
-82.689429705493026
 20
-157.94294969846601
 30
0.0
 11
-81.915690913116663
 21
-157.94294969846601
 31
0.0
 12
-82.689429705493026
 22
-175.67446369040991
 32
0.0
 13
-81.915690913116663
 23
-175.67446369040991
 33
0.0
  0
SOLID
  5
59A3
  8
LOGO
 62
     5
 10
-81.915690913116663
 20
-175.67446369040991
 30
0.0
 11
-80.045822164875545
 21
-175.67446369040991
 31
0.0
 12
-73.017694800796093
 22
-159.36147081782099
 32
0.0
 13
-74.887563549037452
 23
-166.21765622804
 33
0.0
  0
SOLID
  5
59A4
  8
LOGO
 62
     2
 10
-82.689429705493026
 20
-175.67446369040991
 30
0.0
 11
-81.915690913116663
 21
-175.67446369040991
 31
0.0
 12
-73.017694800796093
 22
-157.9429496984647
 32
0.0
 13
-72.243956008419758
 23
-157.94294969846601
 33
0.0
  0
POLYLINE
  5
59A5
  8
LOGO
 62
     5
 66
     1
 10
0.0
 20
0.0
 30
0.0
 40
0.6458156319909966
 41
0.6458156319909966
  0
VERTEX
  5
5C0E
  8
LOGO
 62
     5
 10
-79.936851471683497
 20
-180.1879399792688
 30
0.0
 42
1.0
  0
VERTEX
  5
5C0F
  8
LOGO
 62
     5
 10
-81.874298367656564
 20
-180.1879399792688
 30
0.0
 42
1.0
  0
SEQEND
  5
5C10
  8
LOGO
 62
     5
  0
POLYLINE
  5
59A6
  8
LOGO
 62
     5
 66
     1
 10
0.0
 20
0.0
 30
0.0
 40
0.6458156319909966
 41
0.6458156319909966
  0
VERTEX
  5
5C11
  8
LOGO
 62
     5
 10
-87.244427496276955
 20
-180.1879399792688
 30
0.0
 42
1.0
  0
VERTEX
  5
5C12
  8
LOGO
 62
     5
 10
-89.181874392250023
 20
-180.1879399792688
 30
0.0
 42
1.0
  0
SEQEND
  5
5C13
  8
LOGO
 62
     5
  0
SOLID
  5
59A7
  8
LOGO
 62
     5
 10
-90.899765466090386
 20
-178.4470276964235
 30
0.0
 11
-90.254983139109328
 21
-178.4470276964235
 31
0.0
 12
-90.899765466090386
 22
-177.93120183483899
 32
0.0
 13
-90.254983139109328
 23
-177.93120183483899
 33
0.0
  0
POLYLINE
  5
59A8
  8
LOGO
 62
     5
 66
     1
 10
0.0
 20
0.0
 30
0.0
 70
     1
  0
VERTEX
  5
5C14
  8
LOGO
 62
     5
 10
-76.284548938671662
 20
-180.51033114275839
 30
0.0
 42
1.0000000573306349
  0
VERTEX
  5
5C15
  8
LOGO
 62
     5
 10
-74.350201957731926
 20
-180.51033114275839
 30
0.0
 42
1.0000000573306349
  0
SEQEND
  5
5C16
  8
LOGO
 62
     5
  0
CIRCLE
  5
59A9
  8
LOGO
 62
     5
 10
-75.31737544820183
 20
-180.51033114275839
 30
0.0
 40
0.9671734904697167
  0
POLYLINE
  5
59AA
  8
LOGO
 62
     5
 66
     1
 10
0.0
 20
0.0
 30
0.0
 40
0.6458156319909966
 41
0.6458156319909966
  0
VERTEX
  5
5C17
  8
LOGO
 62
     5
 10
-78.00250449074457
 20
-180.1879399792688
 30
0.0
 42
1.0
  0
VERTEX
  5
5C18
  8
LOGO
 62
     5
 10
-79.939951386717624
 20
-180.1879399792688
 30
0.0
 42
1.0
  0
SEQEND
  5
5C19
  8
LOGO
 62
     5
  0
LINE
  5
59AB
  8
LOGO
 62
     1
 10
-32.406509199155039
 20
-182.86359246430601
 30
0.0
 11
-32.406509199155039
 21
-156.91564296466771
 31
0.0
  0
CIRCLE
  5
59AC
  8
LOGO
  6
CONTINUOUS
 62
     6
 10
-24.398863529688409
 20
-169.88036723884321
 30
0.0
 40
2.5109983708956651
  0
CIRCLE
  5
59AD
  8
LOGO
  6
CONTINUOUS
 62
     6
 10
-24.398863529688409
 20
-169.88036723884321
 30
0.0
 40
1.4712227592357321
  0
LINE
  5
59AE
  8
LOGO
 62
     6
 10
-16.491294157624068
 20
-171.35158999807891
 30
0.0
 11
-16.49129415762415
 21
-168.40914447960739
 31
0.0
  0
TEXT
  5
59AF
  8
LOGO
  6
CONTINUOUS
 62
     6
 10
75.316048328338212
 20
-194.7564026516402
 30
0.0
 40
3.603881874949757
  1
Model
  7
CHINESET
 72
     4
 11
82.180585233004422
 21
-192.95446171416529
 31
0.0
  0
TEXT
  5
59B0
  8
LOGO
  6
CONTINUOUS
 62
     7
 10
60.988044354215269
 20
-171.33117046446679
 30
0.0
 40
7.2077637498995148
  1
MAR300
  7
CHINESET
 72
     1
 11
81.753268490830536
 21
-167.727288589517
 31
0.0
 73
     2
  0
LINE
  5
59B1
  8
LOGO
 62
     6
 10
108.4528698184136
 20
-161.2403012146074
 30
0.0
 11
55.90830064759519
 21
-161.2403012146074
 31
0.0
  0
LINE
  5
59B2
  8
LOGO
 62
     6
 10
108.4528698184136
 20
-174.21427596442649
 30
0.0
 11
55.90830064759519
 21
-174.21427596442649
 31
0.0
  0
LINE
  5
59B3
  8
LOGO
 62
     6
 10
96.596112732803476
 20
-180.70126333933609
 30
0.0
 11
67.765057733205424
 21
-180.70126333933609
 31
0.0
  0
LINE
  5
59B4
  8
LOGO
 62
     6
 10
96.596112732803476
 20
-196.55834358911511
 30
0.0
 11
67.765057733205424
 21
-196.55834358911511
 31
0.0
  0
TEXT
  5
59B5
  8
LOGO
 62
     7
 10
-0.0355100242179987
 20
-167.74360367550429
 30
0.0
 40
8.6493164998794185
  1
訂購代號:
  7
CHINESET
  0
TEXT
  5
59B6
  8
LOGO
 62
     7
 10
-1.07001596222841
 20
-175.8612348541694
 30
0.0
 40
5.7662109999196121
  1
Order example:
 41
0.8
  7
CHINESET
  0
LINE
  5
59B7
  8
LOGO
 62
     1
 10
-3.575454199557015
 20
-200.16222546406479
 30
0.0
 11
-3.575454199557015
 21
-156.91564296466771
 31
0.0
  0
LINE
  5
59B8
  8
LOGO
 62
     6
 10
-8.6194584030500181
 20
-172.3913656097389
 30
0.0
 11
-8.6194584030500181
 21
-167.36936886794749
 31
0.0
  0
LINE
  5
59B9
  8
LOGO
 62
     6
 10
67.765057733205424
 20
-180.70126333933609
 30
0.0
 11
67.765057733205424
 21
-196.55834358911511
 31
0.0
  0
LINE
  5
59BA
  8
LOGO
 62
     6
 10
55.90830064759519
 20
-161.2403012146074
 30
0.0
 11
55.90830064759519
 21
-174.21427596442649
 31
0.0
  0
LINE
  5
59BB
  8
LOGO
 62
     6
 10
96.596112732803476
 20
-180.70126333933609
 30
0.0
 11
96.596112732803476
 21
-196.55834358911511
 31
0.0
  0
TEXT
  5
59BC
  8
LOGO
 62
     6
 10
76.414374233084814
 20
-188.48224294651109
 30
0.0
 40
5.7662109999196121
  1
型式
  7
CHINESET
 72
     4
 11
82.180585233004422
 21
-185.74669796426579
 31
0.0
  0
LINE
  5
59BD
  8
LOGO
 62
     6
 10
82.180585233004422
 20
-174.21427596442649
 30
0.0
 11
82.180585233004422
 21
-180.70126333933609
 31
0.0
  0
LINE
  5
59BE
  8
LOGO
 62
     6
 10
108.4528698184137
 20
-161.2403012146074
 30
0.0
 11
108.4528698184137
 21
-174.21427596442649
 31
0.0
  0
LINE
  5
59BF
  8
LOGO
 62
     6
 10
115.9958786358831
 20
-180.70126333933609
 30
0.0
 11
115.9958786358831
 21
-196.55834358911511
 31
0.0
  0
LINE
  5
59C0
  8
LOGO
  6
CONTINUOUS
 62
     7
 10
110.9065017290435
 20
-167.77324445845341
 30
0.0
 11
116.6353355792606
 21
-167.77324445845341
 31
0.0
  0
LINE
  5
59C1
  8
LOGO
 62
     6
 10
118.8789841358429
 20
-161.2403012146074
 30
0.0
 11
118.8789841358429
 21
-174.21427596442649
 31
0.0
  0
LINE
  5
59C2
  8
LOGO
 62
     6
 10
131.19128617342119
 20
-174.21427596442649
 30
0.0
 11
131.19128617342119
 21
-180.70126333933609
 31
0.0
  0
LINE
  5
59C3
  8
LOGO
 62
     6
 10
145.7760781442467
 20
-180.70126333933609
 30
0.0
 11
145.7760781442467
 21
-196.61813529613829
 31
0.0
  0
LINE
  5
59C4
  8
LOGO
 62
     6
 10
142.89297264428691
 20
-161.2403012146074
 30
0.0
 11
142.8929726442868
 21
-174.21427596442661
 31
0.0
  0
LINE
  5
59C5
  8
LOGO
 62
     1
 10
148.27839972233781
 20
-200.16222546406479
 30
0.0
 11
148.27839972233781
 21
-156.91564296466771
 31
0.0
  0
ENDSEC
  0
EOF
