  0
SECTION
  2
HEADER
  9
$ACADVER
  1
AC1015
  9
$ACADMAINTVER
 70
    20
  9
$DWGCODEPAGE
  3
ANSI_950
  9
$INSBASE
 10
0.0
 20
0.0
 30
0.0
  9
$EXTMIN
 10
562.241946632399
 20
-262.1623570965489
 30
-0.0000000000000051
  9
$EXTMAX
 10
944.8744191269666
 20
373.616939452469
 30
0.0000000000000102
  9
$LIMMIN
 10
0.0
 20
0.0
  9
$LIMMAX
 10
420.0
 20
297.0
  9
$ORTHOMODE
 70
     1
  9
$REGENMODE
 70
     1
  9
$FILLMODE
 70
     1
  9
$QTEXTMODE
 70
     0
  9
$MIRRTEXT
 70
     1
  9
$LTSCALE
 40
30.0
  9
$ATTMODE
 70
     1
  9
$TEXTSIZE
 40
5.25
  9
$TRACEWID
 40
1.0
  9
$TEXTSTYLE
  7
DAYUS
  9
$CLAYER
  8
0
  9
$CELTYPE
  6
ByLayer
  9
$CECOLOR
 62
   256
  9
$CELTSCALE
 40
1.0
  9
$DISPSILH
 70
     0
  9
$DIMSCALE
 40
1.0
  9
$DIMASZ
 40
3.0
  9
$DIMEXO
 40
2.0
  9
$DIMDLI
 40
10.5
  9
$DIMRND
 40
0.0
  9
$DIMDLE
 40
0.0
  9
$DIMEXE
 40
1.0
  9
$DIMTP
 40
0.01
  9
$DIMTM
 40
0.01
  9
$DIMTXT
 40
3.5
  9
$DIMCEN
 40
3.0
  9
$DIMTSZ
 40
0.0
  9
$DIMTOL
 70
     0
  9
$DIMLIM
 70
     0
  9
$DIMTIH
 70
     0
  9
$DIMTOH
 70
     0
  9
$DIMSE1
 70
     0
  9
$DIMSE2
 70
     0
  9
$DIMTAD
 70
     1
  9
$DIMZIN
 70
     8
  9
$DIMBLK
  1

  9
$DIMASO
 70
     1
  9
$DIMSHO
 70
     1
  9
$DIMPOST
  1

  9
$DIMAPOST
  1

  9
$DIMALT
 70
     0
  9
$DIMALTD
 70
     2
  9
$DIMALTF
 40
25.4
  9
$DIMLFAC
 40
1.0
  9
$DIMTOFL
 70
     1
  9
$DIMTVP
 40
0.0
  9
$DIMTIX
 70
     0
  9
$DIMSOXD
 70
     0
  9
$DIMSAH
 70
     0
  9
$DIMBLK1
  1

  9
$DIMBLK2
  1

  9
$DIMSTYLE
  2
STANDARD
  9
$DIMCLRD
 70
   256
  9
$DIMCLRE
 70
   256
  9
$DIMCLRT
 70
   256
  9
$DIMTFAC
 40
0.6
  9
$DIMGAP
 40
0.8
  9
$DIMJUST
 70
     0
  9
$DIMSD1
 70
     0
  9
$DIMSD2
 70
     0
  9
$DIMTOLJ
 70
     0
  9
$DIMTZIN
 70
     8
  9
$DIMALTZ
 70
     0
  9
$DIMALTTZ
 70
     0
  9
$DIMUPT
 70
     0
  9
$DIMDEC
 70
     2
  9
$DIMTDEC
 70
     8
  9
$DIMALTU
 70
     2
  9
$DIMALTTD
 70
     2
  9
$DIMTXSTY
  7
STANDARD
  9
$DIMAUNIT
 70
     0
  9
$DIMADEC
 70
     0
  9
$DIMALTRND
 40
0.0
  9
$DIMAZIN
 70
     2
  9
$DIMDSEP
 70
    46
  9
$DIMATFIT
 70
     3
  9
$DIMFRAC
 70
     0
  9
$DIMLDRBLK
  1

  9
$DIMLUNIT
 70
     2
  9
$DIMLWD
 70
    -1
  9
$DIMLWE
 70
    -1
  9
$DIMTMOVE
 70
     0
  9
$LUNITS
 70
     2
  9
$LUPREC
 70
     2
  9
$SKETCHINC
 40
1.0
  9
$FILLETRAD
 40
0.5
  9
$AUNITS
 70
     0
  9
$AUPREC
 70
     0
  9
$MENU
  1
.
  9
$ELEVATION
 40
0.0
  9
$PELEVATION
 40
0.0
  9
$THICKNESS
 40
0.0
  9
$LIMCHECK
 70
     0
  9
$CHAMFERA
 40
2.5
  9
$CHAMFERB
 40
2.5
  9
$CHAMFERC
 40
20.0
  9
$CHAMFERD
 40
0.0
  9
$SKPOLY
 70
     0
  9
$TDCREATE
 40
2452292.457678334
  9
$TDUCREATE
 40
2452292.124345000
  9
$TDUPDATE
 40
2453971.582048970
  9
$TDUUPDATE
 40
2453971.248715637
  9
$TDINDWG
 40
3.0881632639
  9
$TDUSRTIMER
 40
3.0881631481
  9
$USRTIMER
 70
     1
  9
$ANGBASE
 50
0.0
  9
$ANGDIR
 70
     0
  9
$PDMODE
 70
     0
  9
$PDSIZE
 40
0.0
  9
$PLINEWID
 40
0.0
  9
$SPLFRAME
 70
     0
  9
$SPLINETYPE
 70
     6
  9
$SPLINESEGS
 70
     8
  9
$HANDSEED
  5
11B70
  9
$SURFTAB1
 70
     6
  9
$SURFTAB2
 70
     6
  9
$SURFTYPE
 70
     6
  9
$SURFU
 70
     6
  9
$SURFV
 70
     6
  9
$UCSBASE
  2

  9
$UCSNAME
  2

  9
$UCSORG
 10
0.0
 20
0.0
 30
0.0
  9
$UCSXDIR
 10
1.0
 20
0.0
 30
0.0
  9
$UCSYDIR
 10
0.0
 20
1.0
 30
0.0
  9
$UCSORTHOREF
  2

  9
$UCSORTHOVIEW
 70
     0
  9
$UCSORGTOP
 10
0.0
 20
0.0
 30
0.0
  9
$UCSORGBOTTOM
 10
0.0
 20
0.0
 30
0.0
  9
$UCSORGLEFT
 10
0.0
 20
0.0
 30
0.0
  9
$UCSORGRIGHT
 10
0.0
 20
0.0
 30
0.0
  9
$UCSORGFRONT
 10
0.0
 20
0.0
 30
0.0
  9
$UCSORGBACK
 10
0.0
 20
0.0
 30
0.0
  9
$PUCSBASE
  2

  9
$PUCSNAME
  2

  9
$PUCSORG
 10
0.0
 20
0.0
 30
0.0
  9
$PUCSXDIR
 10
1.0
 20
0.0
 30
0.0
  9
$PUCSYDIR
 10
0.0
 20
1.0
 30
0.0
  9
$PUCSORTHOREF
  2

  9
$PUCSORTHOVIEW
 70
     0
  9
$PUCSORGTOP
 10
0.0
 20
0.0
 30
0.0
  9
$PUCSORGBOTTOM
 10
0.0
 20
0.0
 30
0.0
  9
$PUCSORGLEFT
 10
0.0
 20
0.0
 30
0.0
  9
$PUCSORGRIGHT
 10
0.0
 20
0.0
 30
0.0
  9
$PUCSORGFRONT
 10
0.0
 20
0.0
 30
0.0
  9
$PUCSORGBACK
 10
0.0
 20
0.0
 30
0.0
  9
$USERI1
 70
     0
  9
$USERI2
 70
     0
  9
$USERI3
 70
     0
  9
$USERI4
 70
     0
  9
$USERI5
 70
     0
  9
$USERR1
 40
0.0
  9
$USERR2
 40
0.0
  9
$USERR3
 40
0.0
  9
$USERR4
 40
0.0
  9
$USERR5
 40
0.0
  9
$WORLDVIEW
 70
     1
  9
$SHADEDGE
 70
     3
  9
$SHADEDIF
 70
    70
  9
$TILEMODE
 70
     1
  9
$MAXACTVP
 70
    48
  9
$PINSBASE
 10
0.0
 20
0.0
 30
0.0
  9
$PLIMCHECK
 70
     0
  9
$PEXTMIN
 10
1.000000000000000E+20
 20
1.000000000000000E+20
 30
1.000000000000000E+20
  9
$PEXTMAX
 10
-1.000000000000000E+20
 20
-1.000000000000000E+20
 30
-1.000000000000000E+20
  9
$PLIMMIN
 10
0.0
 20
0.0
  9
$PLIMMAX
 10
420.0
 20
297.0
  9
$UNITMODE
 70
     0
  9
$VISRETAIN
 70
     1
  9
$PLINEGEN
 70
     0
  9
$PSLTSCALE
 70
     1
  9
$TREEDEPTH
 70
  3020
  9
$CMLSTYLE
  2
Standard
  9
$CMLJUST
 70
     0
  9
$CMLSCALE
 40
20.0
  9
$PROXYGRAPHICS
 70
     1
  9
$MEASUREMENT
 70
     1
  9
$CELWEIGHT
370
    -1
  9
$ENDCAPS
280
     0
  9
$JOINSTYLE
280
     0
  9
$LWDISPLAY
290
     0
  9
$INSUNITS
 70
     4
  9
$HYPERLINKBASE
  1

  9
$STYLESHEET
  1
彩色出圖.ctb
  9
$XEDIT
290
     1
  9
$CEPSNTYPE
380
     0
  9
$PSTYLEMODE
290
     1
  9
$FINGERPRINTGUID
  2
{FFD16DF6-0AF5-11D6-9EBA-0050BAE3FAE1}
  9
$VERSIONGUID
  2
{5E1543BC-B969-4D02-BDA0-30B2B4259311}
  9
$EXTNAMES
290
     1
  9
$PSVPSCALE
 40
0.0
  9
$OLESTARTUP
290
     0
  0
ENDSEC
  0
SECTION
  2
CLASSES
  0
CLASS
  1
ACDBDICTIONARYWDFLT
  2
AcDbDictionaryWithDefault
  3
ObjectDBX Classes
 90
        0
280
     0
281
     0
  0
CLASS
  1
ACDBPLACEHOLDER
  2
AcDbPlaceHolder
  3
ObjectDBX Classes
 90
        0
280
     0
281
     0
  0
CLASS
  1
LAYOUT
  2
AcDbLayout
  3
ObjectDBX Classes
 90
        0
280
     0
281
     0
  0
CLASS
  1
AMGSETTINGSOBJ
  2
AmgSettingsObj
  3
"AcadM|Product Description: AutoCAD Mechanical 2000|Company: Autodesk"
 90
        0
280
     0
281
     0
  0
CLASS
  1
ACME_DOCUMENT
  2
AcMeDbDoc
  3
AcMeServices
 90
        0
280
     0
281
     0
  0
CLASS
  1
ACMESCOPE
  2
AcMeScope
  3
AcMeServices
 90
        0
280
     0
281
     0
  0
CLASS
  1
ACMECOMMANDHISTORY
  2
AcMeCommandHistory
  3
AcMeServices
 90
        0
280
     0
281
     0
  0
CLASS
  1
DICTIONARYVAR
  2
AcDbDictionaryVar
  3
ObjectDBX Classes
 90
        0
280
     0
281
     0
  0
CLASS
  1
ACIMSYSVARMAN
  2
AcImSysVarManager
  3
AcMeServices
 90
        0
280
     0
281
     0
  0
CLASS
  1
ACIMREALSYSVAR
  2
AcImRealSysVar
  3
AcMeServices
 90
        0
280
     0
281
     0
  0
CLASS
  1
ACIMINTSYSVAR
  2
AcImIntSysVar
  3
AcMeServices
 90
        0
280
     0
281
     0
  0
CLASS
  1
ACMEDRAWINGMAN
  2
AcMeDrawingMan
  3
AcMeServices
 90
        0
280
     0
281
     0
  0
CLASS
  1
ACMEVIEW
  2
AcMeView
  3
AcMeServices
 90
        0
280
     0
281
     0
  0
CLASS
  1
ACDBENTITYCACHE
  2
AcMeEntityCache
  3
AcMeServices
 90
        0
280
     0
281
     0
  0
CLASS
  1
GSMANAGER
  2
AcMeGSManager
  3
AcMeServices
 90
        0
280
     0
281
     0
  0
CLASS
  1
AMDTINTERNALREACTOR
  2
AmdtInternalReactor
  3
AcMeServices
 90
        0
280
     0
281
     0
  0
CLASS
  1
ACMESTATEMGR
  2
AcMeStateMgr
  3
AcMeServices
 90
        0
280
     0
281
     0
  0
CLASS
  1
ACME_DATABASE
  2
AcMeDbDatabase
  3
AcMeServices
 90
        0
280
     0
281
     0
  0
CLASS
  1
ACRFINSADJUSTERMGR
  2
AcRfInsAdjusterMgr
  3
AcMeServices
 90
        0
280
     0
281
     0
  0
CLASS
  1
ACMDATADICTIONARY
  2
AcmDataDictionary
  3
"AcmSymBB|Product Description: AutoCAD Mechanical 2004 DX|Company: Autodesk"
 90
        0
280
     0
281
     0
  0
CLASS
  1
ACMDATAENTRYBLOCK
  2
AcmDataEntryBlock
  3
"AcmSymBB|Product Description: AutoCAD Mechanical 2004 DX|Company: Autodesk"
 90
    32768
280
     0
281
     0
  0
CLASS
  1
AMGOBJPROPCFG
  2
AmgObjPropCfg
  3
"AmgLay|Product Description: AutoCAD Mechanical 2000|Company: Autodesk"
 90
        1
280
     0
281
     0
  0
CLASS
  1
ACAMGFILTERDAT
  2
AcAmgFilterDat
  3
"AcadM|Product Description: AutoCAD Mechanical 2000|Company: Autodesk"
 90
    32768
280
     0
281
     0
  0
CLASS
  1
LAYER_INDEX
  2
AcDbLayerIndex
  3
ObjectDBX Classes
 90
        0
280
     0
281
     0
  0
CLASS
  1
IDBUFFER
  2
AcDbIdBuffer
  3
ObjectDBX Classes
 90
        0
280
     0
281
     0
  0
CLASS
  1
ACIMSTRSYSVAR
  2
AcImStrSysVar
  3
AcMeServices
 90
        0
280
     0
281
     0
  0
CLASS
  1
ACMSTANDARDISO
  2
AcmStandardISO
  3
"Amdt_StdImp|Product Description: AutoCAD Mechanical 2004 DX|Company: Autodesk"
 90
        0
280
     0
281
     0
  0
CLASS
  1
AMDTEDGESTANDARDISO
  2
AmdtEdgeStdISO
  3
"Amdt_StdImp|Product Description: AutoCAD Mechanical 2004 DX|Company: Autodesk"
 90
    32768
280
     0
281
     0
  0
CLASS
  1
ACMSURFSTANDARDISO
  2
AcmSurfTextStdISO
  3
"Amdt_StdImp|Product Description: AutoCAD Mechanical 2004 DX|Company: Autodesk"
 90
        0
280
     0
281
     0
  0
CLASS
  1
ACMFCFSTANDARDISO
  2
AcmFCFStdISO
  3
"Amdt_StdImp|Product Description: AutoCAD Mechanical 2004 DX|Company: Autodesk"
 90
        0
280
     0
281
     0
  0
CLASS
  1
ACMWELDSTANDARDISO
  2
AcmWeldingStdISO
  3
"Amdt_StdImp|Product Description: AutoCAD Mechanical 2004 DX|Company: Autodesk"
 90
        0
280
     0
281
     0
  0
CLASS
  1
ACMIDSTANDARDISO
  2
AcmIdStdISO
  3
"Amdt_StdImp|Product Description: AutoCAD Mechanical 2004 DX|Company: Autodesk"
 90
        0
280
     0
281
     0
  0
CLASS
  1
ACMDATUMSTANDARDISO
  2
AcmDatumStdISO
  3
"Amdt_StdImp|Product Description: AutoCAD Mechanical 2004 DX|Company: Autodesk"
 90
        0
280
     0
281
     0
  0
CLASS
  1
ACMBOMSTANDARDISO
  2
AcmBOMStdISO
  3
"Amdt_StdImp|Product Description: AutoCAD Mechanical 2004 DX|Company: Autodesk"
 90
        0
280
     0
281
     0
  0
CLASS
  1
AMDTNOTE
  2
AmdtNote
  3
"AcmSymBB|Product Description: AutoCAD Mechanical 2004 DX|Company: Autodesk"
 90
    33791
280
     0
281
     1
  0
CLASS
  1
ACGREFMASTER
  2
AcGrefMaster
  3
AcAttribServices
 90
        0
280
     0
281
     0
  0
CLASS
  1
ACGREFACADMASTER
  2
AcGrefacadMaster
  3
AcGrefServices
 90
        0
280
     0
281
     0
  0
CLASS
  1
AMIMASTER
  2
AmiMaster
  3
AmiServices
 90
        0
280
     0
281
     0
  0
CLASS
  1
ACAMGTITLESTD
  2
AcAmgTitleStd
  3
"TITLEAPP"
 90
        0
280
     0
281
     0
  0
CLASS
  1
ACMDETAILSTANDARDISO
  2
AmdtDetailSymStdISO
  3
"Amdt_StdImp|Product Description: AutoCAD Mechanical 2004 DX|Company: Autodesk"
 90
        0
280
     0
281
     0
  0
CLASS
  1
ACMSECTIONSTANDARDISO
  2
AmdtSectionSymStdISO
  3
"Amdt_StdImp|Product Description: AutoCAD Mechanical 2004 DX|Company: Autodesk"
 90
        0
280
     0
281
     0
  0
CLASS
  1
ACMCENTERLINESTANDARDISO
  2
AmdtCenterLineStdISO
  3
"Amdt_StdImp|Product Description: AutoCAD Mechanical 2004 DX|Company: Autodesk"
 90
        0
280
     0
281
     0
  0
CLASS
  1
ACMNOTESTANDARDISO
  2
AmdtNoteStdISO
  3
"Amdt_StdImp|Product Description: AutoCAD Mechanical 2004 DX|Company: Autodesk"
 90
        0
280
     0
281
     0
  0
CLASS
  1
ACAMGLAYSTD
  2
AcAmgLayStd
  3
"AcAmgLayStd|Product Description: AutoCAD Mechanical 2000|Company: Autodesk"
 90
        0
280
     0
281
     0
  0
CLASS
  1
ACAMGDIMSTD
  2
AcAmgDimStd
  3
"AcAmgDimStd|Product Description: AutoCAD Mechanical 2000|Company: Autodesk"
 90
        0
280
     0
281
     0
  0
CLASS
  1
ACAMGHOLECHARTSTDISO
  2
AcAmgHoleChartStdISO
  3
ACMSYMBB_MODULE_NAME
 90
        0
280
     0
281
     0
  0
CLASS
  1
AMDTFORMULAUPDATEDISPATCHER
  2
AmdtFormulaUpdateDispatcher
  3
AcMeServices
 90
    32768
280
     0
281
     0
  0
CLASS
  1
ACMSTANDARDANSI
  2
AcmStandardANSI
  3
"Amdt_StdImp|Product Description: AutoCAD Mechanical 2004 DX|Company: Autodesk"
 90
    32768
280
     0
281
     0
  0
CLASS
  1
ACMSURFSTANDARDANSI
  2
AcmSurfTextStdANSI
  3
"Amdt_StdImp|Product Description: AutoCAD Mechanical 2004 DX|Company: Autodesk"
 90
    32768
280
     0
281
     0
  0
CLASS
  1
ACMFCFSTANDARDANSI
  2
AcmFCFStdANSI
  3
"Amdt_StdImp|Product Description: AutoCAD Mechanical 2004 DX|Company: Autodesk"
 90
    32768
280
     0
281
     0
  0
CLASS
  1
ACMWELDSTANDARDANSI
  2
AcmWeldingStdANSI
  3
"Amdt_StdImp|Product Description: AutoCAD Mechanical 2004 DX|Company: Autodesk"
 90
    32768
280
     0
281
     0
  0
CLASS
  1
ACMIDSTANDARDANSI
  2
AcmIdStdANSI
  3
"Amdt_StdImp|Product Description: AutoCAD Mechanical 2004 DX|Company: Autodesk"
 90
    32768
280
     0
281
     0
  0
CLASS
  1
ACMDATUMSTANDARDANSI
  2
AcmDatumStdANSI
  3
"Amdt_StdImp|Product Description: AutoCAD Mechanical 2004 DX|Company: Autodesk"
 90
    32768
280
     0
281
     0
  0
CLASS
  1
ACMBOMSTANDARDANSI
  2
AcmBOMStdANSI
  3
"Amdt_StdImp|Product Description: AutoCAD Mechanical 2004 DX|Company: Autodesk"
 90
    32768
280
     0
281
     0
  0
CLASS
  1
ACMDETAILSTANDARDANSI
  2
AmdtDetailSymStdANSI
  3
"Amdt_StdImp|Product Description: AutoCAD Mechanical 2004 DX|Company: Autodesk"
 90
    32768
280
     0
281
     0
  0
CLASS
  1
ACMSECTIONSTANDARDANSI
  2
AmdtSectionSymStdANSI
  3
"Amdt_StdImp|Product Description: AutoCAD Mechanical 2004 DX|Company: Autodesk"
 90
    32768
280
     0
281
     0
  0
CLASS
  1
ACMCENTERLINESTANDARDANSI
  2
AmdtCenterLineStdANSI
  3
"Amdt_StdImp|Product Description: AutoCAD Mechanical 2004 DX|Company: Autodesk"
 90
    32768
280
     0
281
     0
  0
CLASS
  1
ACMNOTESTANDARDANSI
  2
AmdtNoteStdANSI
  3
"Amdt_StdImp|Product Description: AutoCAD Mechanical 2004 DX|Company: Autodesk"
 90
    32768
280
     0
281
     0
  0
CLASS
  1
ACAMGHOLECHARTSTDANSI
  2
AcAmgHoleChartStdANSI
  3
ACMSYMBB_MODULE_NAME
 90
    32768
280
     0
281
     0
  0
CLASS
  1
STDPART2D
  2
AmgStdPart
  3
"AmgStdPart|Product Description: AutoCAD Mechanical 2000|Company: Autodesk"
 90
    33791
280
     0
281
     1
  0
CLASS
  1
ACMDATAENTRYPART
  2
AcmDataEntryPart
  3
"AcmSymBB|Product Description: AutoCAD Mechanical 2004 DX|Company: Autodesk"
 90
    32768
280
     0
281
     0
  0
CLASS
  1
ACMPARTREF
  2
AcmPartRef
  3
"AcmSymBB|Product Description: AutoCAD Mechanical 2004 DX|Company: Autodesk"
 90
    33791
280
     0
281
     1
  0
CLASS
  1
ACDBSTDPARTRES_LINE
  2
AcDbStdPartRes_Line
  3
"AcDbStdPartRes_Line|Product Description: AutoCAD Mechanical 2000|Company: Autodesk"
 90
    32768
280
     0
281
     0
  0
CLASS
  1
RASTERVARIABLES
  2
AcDbRasterVariables
  3
ISM
 90
        0
280
     0
281
     0
  0
CLASS
  1
IMAGEDEF
  2
AcDbRasterImageDef
  3
ISM
 90
    32768
280
     0
281
     0
  0
CLASS
  1
IMAGEDEF_REACTOR
  2
AcDbRasterImageDefReactor
  3
ISM
 90
    32769
280
     0
281
     0
  0
CLASS
  1
IMAGE
  2
AcDbRasterImage
  3
ISM
 90
    32895
280
     0
281
     1
  0
CLASS
  1
DIMASSOC
  2
AcDbDimAssoc
  3
"AcDbDimAssoc|Product Desc:     AcDim ARX App For Dimension|Company:          Autodesk, Inc.|WEB Address:      www.autodesk.com"
 90
        0
280
     0
281
     0
  0
CLASS
  1
TABLESTYLE
  2
AcDbTableStyle
  3
ObjectDBX Classes
 90
     2047
280
     0
281
     0
  0
CLASS
  1
AM_DRAWING_MGR
  2
AcDmDwgMgr
  3
AcMechDwgViewMgmt
 90
        0
280
     0
281
     0
  0
CLASS
  1
AM_DWG_DOCUMENT
  2
AcDmDwgDocument
  3
AcMechDwgViewMgmt
 90
        0
280
     0
281
     0
  0
CLASS
  1
AM_DWG_SHEET
  2
AcDmSheet
  3
AcMechDwgViewMgmt
 90
        0
280
     0
281
     0
  0
CLASS
  1
AM_VIEWDIMPARMAP
  2
AcDmViewDimParMap
  3
AcMechDwgViewMgmt
 90
        0
280
     0
281
     0
  0
CLASS
  1
AM_DWGMGR_NAME
  2
AcDmDwgMgrName
  3
AcMechDwgViewMgmt
 90
        0
280
     0
281
     0
  0
CLASS
  1
AMDTMENUSTATEMGR
  2
AmdtMenuStateMgr
  3
McadcomServices
 90
        0
280
     0
281
     0
  0
CLASS
  1
AMDTMCOMMENUSTATE
  2
AmdtMcomMenuState
  3
McadcomServices
 90
        0
280
     0
281
     0
  0
CLASS
  1
MAPIAMMOUDLE
  2
MApiAmModule
  3
MApiAmServices
 90
        0
280
     0
281
     0
  0
CLASS
  1
AMDTADMENUSTATE
  2
AmdtAdMenuState
  3
DesignerServices
 90
        0
280
     0
281
     0
  0
CLASS
  1
ADAPPL
  2
AcAdAppl
  3
DesignerServices
 90
        0
280
     0
281
     0
  0
CLASS
  1
DEPMGR
  2
AcAdDepMgr
  3
DesignerServices
 90
        0
280
     0
281
     0
  0
CLASS
  1
PARAMMGR
  2
AcAdParamMgr
  3
DesignerServices
 90
        0
280
     0
281
     0
  0
CLASS
  1
PARAMSCOPE
  2
AcAdParamScope
  3
DesignerServices
 90
        0
280
     0
281
     0
  0
CLASS
  1
NAMEDAPPL
  2
AcAdNamedAppl
  3
DesignerServices
 90
        0
280
     0
281
     0
  0
CLASS
  1
AMDTDMMENUSTATE
  2
AmdtDmMenuState
  3
AcMechDwgViewMgmt
 90
        0
280
     0
281
     0
  0
CLASS
  1
AMDTAMMENUSTATE
  2
AmdtAmMenuState
  3
DesignerAssemblies
 90
        0
280
     0
281
     0
  0
CLASS
  1
ACAMPROJECT
  2
AcAmProject
  3
DesignerAssemblies
 90
        0
280
     0
281
     0
  0
CLASS
  1
ACAMGRCOMPDEF
  2
AcAmGrCompDef
  3
DesignerAssemblies
 90
        0
280
     0
281
     0
  0
CLASS
  1
ACCMCONTEXT
  2
AcCmContext
  3
DesignerAssemblies
 90
        0
280
     0
281
     0
  0
CLASS
  1
ACAMCOMPDEF
  2
AcAmCompDef
  3
DesignerAssemblies
 90
        0
280
     0
281
     0
  0
CLASS
  1
ACAMCOMPDEFMGR
  2
AcAmCompDefMgr
  3
DesignerAssemblies
 90
        0
280
     0
281
     0
  0
CLASS
  1
AMCONTEXTMGR
  2
AcAmContextMgr
  3
DesignerAssemblies
 90
        0
280
     0
281
     0
  0
CLASS
  1
ACAMCONTEXTMODELER
  2
AcAmContextModeler
  3
DesignerAssemblies
 90
        0
280
     0
281
     0
  0
CLASS
  1
CATALOGSTATE
  2
AcAmCatalogState
  3
DesignerAssemblies
 90
        0
280
     0
281
     0
  0
CLASS
  1
ACAMGRCOMPDEFSET
  2
AcAmGrCompDefSet
  3
DesignerAssemblies
 90
        0
280
     0
281
     0
  0
CLASS
  1
AMDTBROWSERDBTAB
  2
AmdtBrowserDbTab
  3
McadcomServices
 90
        0
280
     0
281
     0
  0
CLASS
  1
CBROWSERAPPOBJECT
  2
CBrowserAppObject
  3
McadcomServices
 90
        0
280
     0
281
     0
  0
CLASS
  1
DM_PLACEHOLDER
  2
AcDmSelsetPlaceholder
  3
AcMechDwgViewMgmt
 90
        0
280
     0
281
     0
  0
CLASS
  1
AMDTEDGESTANDARDISO13715
  2
AmdtEdgeStdISO13715
  3
"Amdt_StdImp|Product Description: AutoCAD Mechanical 2004 DX|Company: Autodesk"
 90
        0
280
     0
281
     0
  0
CLASS
  1
ACMTHREADLINESTANDARDISO
  2
AmdtThreadLineStdISO
  3
"Amdt_StdImp|Product Description: AutoCAD Mechanical 2004 DX|Company: Autodesk"
 90
        0
280
     0
281
     0
  0
CLASS
  1
AMDTNOTETEMPLATEDB
  2
AmdtNoteTemplateDB
  3
AMDT_STDIMP_MODULE_NAME
 90
        0
280
     0
281
     0
  0
CLASS
  1
SORTENTSTABLE
  2
AcDbSortentsTable
  3
ObjectDBX Classes
 90
        0
280
     0
281
     0
  0
CLASS
  1
ACRFATTGENMGR
  2
AcRfAttGeneralMgr
  3
AcAttribServices
 90
        0
280
     0
281
     0
  0
ENDSEC
  0
SECTION
  2
TABLES
  0
TABLE
  2
VPORT
  5
8
330
0
100
AcDbSymbolTable
 70
     6
  0
VPORT
  5
11B67
330
8
100
AcDbSymbolTableRecord
100
AcDbViewportTableRecord
  2
*Active
 70
     0
 10
0.0
 20
0.0
 11
1.0
 21
1.0
 12
753.5581828796826
 22
55.72729117796007
 13
0.0
 23
0.0
 14
2.5
 24
2.5
 15
10.0
 25
10.0
 16
0.0
 26
0.0
 36
1.0
 17
0.0
 27
0.0
 37
0.0
 40
640.7920111078801
 41
1.609210526315789
 42
50.0
 43
0.0
 44
0.0
 50
0.0
 51
0.0
 71
     0
 72
   100
 73
     1
 74
     3
 75
     0
 76
     0
 77
     0
 78
     0
281
     0
 65
     1
110
0.0
120
0.0
130
0.0
111
1.0
121
0.0
131
0.0
112
0.0
122
1.0
132
0.0
 79
     0
146
0.0
  0
ENDTAB
  0
TABLE
  2
LTYPE
  5
5
330
0
100
AcDbSymbolTable
 70
    16
  0
LTYPE
  5
14
330
5
100
AcDbSymbolTableRecord
100
AcDbLinetypeTableRecord
  2
ByBlock
 70
     0
  3

 72
    65
 73
     0
 40
0.0
  0
LTYPE
  5
15
330
5
100
AcDbSymbolTableRecord
100
AcDbLinetypeTableRecord
  2
ByLayer
 70
     0
  3

 72
    65
 73
     0
 40
0.0
  0
LTYPE
  5
16
330
5
100
AcDbSymbolTableRecord
100
AcDbLinetypeTableRecord
  2
Continuous
 70
     0
  3
Solid line
 72
    65
 73
     0
 40
0.0
  0
LTYPE
  5
4B
330
5
100
AcDbSymbolTableRecord
100
AcDbLinetypeTableRecord
  2
AM_ISO02W050
 70
     0
  3
__ __ __ __ __ __ __ __ __ __ __ __ __ __ __
 72
    65
 73
     2
 40
7.5
 49
6.0
 74
     0
 49
-1.5
 74
     0
  0
LTYPE
  5
4C
330
5
100
AcDbSymbolTableRecord
100
AcDbLinetypeTableRecord
  2
AM_ISO08W050
 70
     0
  3
____ . ____ . ____ . ____ . ____ . ____ . ____
 72
    65
 73
     4
 40
18.0
 49
12.0
 74
     0
 49
-1.5
 74
     0
 49
3.0
 74
     0
 49
-1.5
 74
     0
  0
LTYPE
  5
4D
330
5
100
AcDbSymbolTableRecord
100
AcDbLinetypeTableRecord
  2
AM_ISO09W050
 70
     0
  3
_____ . . _____ . . _____ . . ____ .. ____
 72
    65
 73
     6
 40
22.5
 49
12.0
 74
     0
 49
-1.5
 74
     0
 49
3.0
 74
     0
 49
-1.5
 74
     0
 49
3.0
 74
     0
 49
-1.5
 74
     0
  0
LTYPE
  5
4E
330
5
100
AcDbSymbolTableRecord
100
AcDbLinetypeTableRecord
  2
Amconstr
 70
     0
  3
_______________________
 72
    65
 73
     2
 40
9999.0
 49
9999.0
 74
     0
 49
0.0
 74
     0
  0
LTYPE
  5
4F
330
5
100
AcDbSymbolTableRecord
100
AcDbLinetypeTableRecord
  2
AM_ISO02W050x2
 70
     0
  3
 _ _ _ _ _ _ _ _ _ _ _ _
 72
    65
 73
     2
 40
3.75
 49
3.0
 74
     0
 49
-0.75
 74
     0
  0
LTYPE
  5
50
330
5
100
AcDbSymbolTableRecord
100
AcDbLinetypeTableRecord
  2
AM_ISO08W050x2
 70
     0
  3
__ . __ . __ . __ . __ . __
 72
    65
 73
     4
 40
9.0
 49
6.0
 74
     0
 49
-0.75
 74
     0
 49
1.5
 74
     0
 49
-0.75
 74
     0
  0
LTYPE
  5
53
330
5
100
AcDbSymbolTableRecord
100
AcDbLinetypeTableRecord
  2
Amzigzag
 70
     0
  3
/\/-/\/-/\/-/\/-/\/-/\/
 72
    65
 73
     2
 40
11.0001
 49
0.0001
 74
     4
 75
   135
340
52
 46
0.04
 50
0.0
 44
0.0
 45
0.0
 49
-11.0
 74
     0
  0
LTYPE
  5
144B
330
5
100
AcDbSymbolTableRecord
100
AcDbLinetypeTableRecord
  2
ACISOWELD
 70
     0
  3
_ _ _ _ _
 72
    65
 73
     2
 40
2.0
 49
2.0
 74
     0
 49
-1.0
 74
     0
  0
LTYPE
  5
144C
330
5
100
AcDbSymbolTableRecord
100
AcDbLinetypeTableRecord
  2
ACISOTGB
 70
     0
  3
__ . . __ . .
 72
    65
 73
     6
 40
9.0
 49
4.0
 74
     0
 49
-1.0
 74
     0
 49
1.0
 74
     0
 49
-1.0
 74
     0
 49
1.0
 74
     0
 49
-1.0
 74
     0
  0
LTYPE
  5
144D
330
5
100
AcDbSymbolTableRecord
100
AcDbLinetypeTableRecord
  2
ACISOTGL
 70
     0
  3
_ _ _ _ _
 72
    65
 73
     2
 40
3.0
 49
2.0
 74
     0
 49
-1.0
 74
     0
  0
LTYPE
  5
1C35
330
5
100
AcDbSymbolTableRecord
100
AcDbLinetypeTableRecord
  2
CENTER
 70
     0
  3
Center ____ _ ____ _ ____ _ ____ _ ____ _ ____
 72
    65
 73
     4
 40
2.0
 49
1.25
 74
     0
 49
-0.25
 74
     0
 49
0.25
 74
     0
 49
-0.25
 74
     0
  0
LTYPE
  5
B899
330
5
100
AcDbSymbolTableRecord
100
AcDbLinetypeTableRecord
  2
PHANTOM2
 70
     0
  3
Phantom (.5x) ___ _ _ ___ _ _ ___ _ _ ___ _ _
 72
    65
 73
     6
 40
31.75
 49
15.875
 74
     0
 49
-3.174999999999999
 74
     0
 49
3.174999999999999
 74
     0
 49
-3.174999999999999
 74
     0
 49
3.174999999999999
 74
     0
 49
-3.174999999999999
 74
     0
  0
LTYPE
  5
11AB2
330
5
100
AcDbSymbolTableRecord
100
AcDbLinetypeTableRecord
  2
HIDDEN
 70
     0
  3
Hidden __ __ __ __ __ __ __ __ __ __ __ __ __ _
 72
    65
 73
     2
 40
9.524999999999998
 49
6.349999999999999
 74
     0
 49
-3.174999999999999
 74
     0
  0
ENDTAB
  0
TABLE
  2
LAYER
  5
2
330
0
100
AcDbSymbolTable
 70
    10
  0
LAYER
  5
10
330
2
100
AcDbSymbolTableRecord
100
AcDbLayerTableRecord
  2
0
 70
     0
 62
     7
  6
Continuous
370
    -3
390
F
  0
LAYER
  5
D0
330
2
100
AcDbSymbolTableRecord
100
AcDbLayerTableRecord
  2
圖層2
 70
     0
 62
     3
  6
Continuous
370
    -3
390
F
  0
LAYER
  5
450
330
2
100
AcDbSymbolTableRecord
100
AcDbLayerTableRecord
  2
Defpoints
 70
     0
 62
    -7
  6
Continuous
290
     0
370
    -3
390
F
  0
LAYER
  5
989
330
2
100
AcDbSymbolTableRecord
100
AcDbLayerTableRecord
  2
AM_5
 70
     0
 62
     5
  6
Continuous
370
    25
390
F
  0
LAYER
  5
1C3A
330
2
100
AcDbSymbolTableRecord
100
AcDbLayerTableRecord
  2
AM_REFDIM
 70
     0
 62
     5
  6
Continuous
370
    25
390
F
  0
LAYER
  5
DF31
330
2
100
AcDbSymbolTableRecord
100
AcDbLayerTableRecord
  2
AM_7
 70
     0
 62
     1
  6
AM_ISO08W050
370
    25
390
F
  0
LAYER
  5
1093C
330
2
100
AcDbSymbolTableRecord
100
AcDbLayerTableRecord
  2
cen
 70
     0
 62
     1
  6
CENTER
370
    -3
390
F
  0
LAYER
  5
1093D
330
2
100
AcDbSymbolTableRecord
100
AcDbLayerTableRecord
  2
drg
 70
     0
 62
     7
  6
Continuous
370
    -3
390
F
  0
LAYER
  5
1093E
330
2
100
AcDbSymbolTableRecord
100
AcDbLayerTableRecord
  2
hatch
 70
     0
 62
     4
  6
Continuous
370
    -3
390
F
  0
LAYER
  5
118BC
330
2
100
AcDbSymbolTableRecord
100
AcDbLayerTableRecord
  2
LOGO
 70
     0
 62
     7
  6
Continuous
370
    -3
390
F
  0
ENDTAB
  0
TABLE
  2
STYLE
  5
3
330
0
100
AcDbSymbolTable
 70
    11
  0
STYLE
  5
11
330
3
100
AcDbSymbolTableRecord
100
AcDbTextStyleTableRecord
  2
STANDARD
 70
     0
 40
0.0
 41
1.0
 50
0.0
 71
     0
 42
3.0
  3
ISOCP.SHX
  4
CHINESET.SHX
  0
STYLE
  5
52
330
3
100
AcDbSymbolTableRecord
100
AcDbTextStyleTableRecord
  2

 70
     1
 40
0.0
 41
1.0
 50
0.0
 71
     0
 42
2.5
  3
ltypeshp.shx
  4

  0
STYLE
  5
D3
330
3
100
AcDbSymbolTableRecord
100
AcDbTextStyleTableRecord
  2
ROMAND
 70
     0
 40
0.0
 41
1.0
 50
0.0
 71
     0
 42
6.0
  3
romand.shx
  4
chineset.shx
  0
STYLE
  5
1442
330
3
100
AcDbSymbolTableRecord
100
AcDbTextStyleTableRecord
  2
ACISOTS
 70
     0
 40
1.0
 41
1.0
 50
0.0
 71
     0
 42
1.0
  3
isocp.shx
  4
chineset.shx
  0
STYLE
  5
144A
330
3
100
AcDbSymbolTableRecord
100
AcDbTextStyleTableRecord
  2
ACISOGDT
 70
     0
 40
0.0
 41
1.0
 50
0.0
 71
     0
 42
2.5
  3
amgdt.shx
  4

  0
STYLE
  5
167B
330
3
100
AcDbSymbolTableRecord
100
AcDbTextStyleTableRecord
  2
DAYUS
 70
     0
 40
0.0
 41
1.0
 50
0.0
 71
     0
 42
5.25
  3
simplex
  4
dayus
  0
STYLE
  5
118BD
330
3
100
AcDbSymbolTableRecord
100
AcDbTextStyleTableRecord
  2
CHINESET
 70
     0
 40
0.0
 41
1.0
 50
0.0
 71
     0
 42
25.0
  3
simplex.shx
  4
chineset.shx
  0
STYLE
  5
118BE
330
3
100
AcDbSymbolTableRecord
100
AcDbTextStyleTableRecord
  2
LOGO
 70
     0
 40
0.0
 41
1.0
 50
0.0
 71
     0
 42
5.0
  3
LEI00DP.TTF
  4

1001
ACAD
1000
文鼎中粗隸
1071
    34865
  0
ENDTAB
  0
TABLE
  2
VIEW
  5
6
330
0
100
AcDbSymbolTable
 70
     0
  0
ENDTAB
  0
TABLE
  2
UCS
  5
7
330
0
100
AcDbSymbolTable
 70
     0
  0
ENDTAB
  0
TABLE
  2
APPID
  5
9
330
0
100
AcDbSymbolTable
 70
    22
  0
APPID
  5
12
330
9
100
AcDbSymbolTableRecord
100
AcDbRegAppTableRecord
  2
ACAD
 70
     0
  0
APPID
  5
30
330
9
100
AcDbSymbolTableRecord
100
AcDbRegAppTableRecord
  2
MCAD_NO_VIS
 70
     0
  0
APPID
  5
31
330
9
100
AcDbSymbolTableRecord
100
AcDbRegAppTableRecord
  2
ACAD_TEMP_GRAPHIC
 70
     0
  0
APPID
  5
455
330
9
100
AcDbSymbolTableRecord
100
AcDbRegAppTableRecord
  2
GENIUS_GENDTOL_13
 70
     0
  0
APPID
  5
6B34
330
9
100
AcDbSymbolTableRecord
100
AcDbRegAppTableRecord
  2
ACATTRIBSERVICES
 70
     0
  0
APPID
  5
DF34
330
9
100
AcDbSymbolTableRecord
100
AcDbRegAppTableRecord
  2
GENIUS_GENOREF_13
 70
     0
  0
APPID
  5
E304
330
9
100
AcDbSymbolTableRecord
100
AcDbRegAppTableRecord
  2
GENIUS_GENREC_14
 70
     0
  0
APPID
  5
E305
330
9
100
AcDbSymbolTableRecord
100
AcDbRegAppTableRecord
  2
GENIUS_GENODEF_13
 70
     0
  0
APPID
  5
E306
330
9
100
AcDbSymbolTableRecord
100
AcDbRegAppTableRecord
  2
GENIUS_GENOBJ-N-REC_13
 70
     0
  0
APPID
  5
E7E4
330
9
100
AcDbSymbolTableRecord
100
AcDbRegAppTableRecord
  2
GEVID1067829771
 70
     0
  0
APPID
  5
E7E5
330
9
100
AcDbSymbolTableRecord
100
AcDbRegAppTableRecord
  2
GEVDC
 70
     0
  0
APPID
  5
E7E6
330
9
100
AcDbSymbolTableRecord
100
AcDbRegAppTableRecord
  2
GEVRADREF
 70
     0
  0
APPID
  5
E7E9
330
9
100
AcDbSymbolTableRecord
100
AcDbRegAppTableRecord
  2
GENIUS_GENBH_13
 70
     0
  0
APPID
  5
E7EC
330
9
100
AcDbSymbolTableRecord
100
AcDbRegAppTableRecord
  2
GENIUS_GENOBJ-NBEHI-BHF_13
 70
     0
  0
APPID
  5
E7ED
330
9
100
AcDbSymbolTableRecord
100
AcDbRegAppTableRecord
  2
GENIUS_GENOENT_13
 70
     0
  0
APPID
  5
E7EE
330
9
100
AcDbSymbolTableRecord
100
AcDbRegAppTableRecord
  2
GENIUS_GENOLIS_13
 70
     0
  0
APPID
  5
E7F0
330
9
100
AcDbSymbolTableRecord
100
AcDbRegAppTableRecord
  2
GENIUS_GENOBJ-NBEHI-BHB_13
 70
     0
  0
APPID
  5
E805
330
9
100
AcDbSymbolTableRecord
100
AcDbRegAppTableRecord
  2
GEVID1067829772
 70
     0
  0
APPID
  5
11AB4
330
9
100
AcDbSymbolTableRecord
100
AcDbRegAppTableRecord
  2
AD_DRAW
 70
     0
  0
APPID
  5
11AD2
330
9
100
AcDbSymbolTableRecord
100
AcDbRegAppTableRecord
  2
DESIGNERASSEMBLIES
 70
     0
  0
APPID
  5
11AD7
330
9
100
AcDbSymbolTableRecord
100
AcDbRegAppTableRecord
  2
ACADM_DIM_EDIT
 70
     0
  0
APPID
  5
11AD8
330
9
100
AcDbSymbolTableRecord
100
AcDbRegAppTableRecord
  2
AMDT_DM_ADJ
 70
     0
  0
ENDTAB
  0
TABLE
  2
DIMSTYLE
  5
A
330
0
100
AcDbSymbolTable
 70
    15
100
AcDbDimStyleTable
 71
     1
340
B991
  0
DIMSTYLE
105
98A
102
{ACAD_REACTORS
330
10B3B
330
10AE1
330
10DD7
330
10E51
330
10E2D
330
10E09
102
}
330
A
100
AcDbSymbolTableRecord
100
AcDbDimStyleTableRecord
  2
AM_ISO
 70
     0
  4
"
 40
0.6
 41
3.0
 42
2.0
 43
10.0
 44
1.5
 47
0.1
 48
0.1
 73
     0
 74
     0
 77
     1
 78
     8
 79
     2
140
3.0
141
0.0
143
0.0393701
146
0.71
147
0.8
172
     1
176
     5
177
   256
178
     5
271
     2
272
     2
283
     0
340
11
371
    -1
372
    -1
  0
DIMSTYLE
105
98B
330
A
100
AcDbSymbolTableRecord
100
AcDbDimStyleTableRecord
  2
AM_ISO$3
 70
     0
  4
"
 40
0.6
 41
3.0
 42
2.0
 43
10.0
 44
1.5
 47
0.1
 48
0.1
 73
     0
 77
     1
 78
     8
 79
     2
140
3.0
141
0.0
143
0.0393701
146
0.71
147
0.8
176
     5
177
   256
178
     5
271
     2
272
     2
283
     0
288
     1
289
     0
340
11
371
    -1
372
    -1
  0
DIMSTYLE
105
98C
330
A
100
AcDbSymbolTableRecord
100
AcDbDimStyleTableRecord
  2
AM_ISO$4
 70
     0
  4
"
 40
0.6
 41
3.0
 42
2.0
 43
10.0
 44
1.5
 47
0.1
 48
0.1
 73
     0
 77
     1
 78
     8
 79
     2
140
3.0
141
0.0
143
0.0393701
146
0.71
147
0.8
176
     5
177
   256
178
     5
271
     2
272
     2
283
     0
288
     1
289
     0
340
11
371
    -1
372
    -1
  0
DIMSTYLE
105
98D
330
A
100
AcDbSymbolTableRecord
100
AcDbDimStyleTableRecord
  2
AM_ISO$6
 70
     0
  4
"
 40
0.6
 41
3.0
 42
2.0
 43
10.0
 44
1.5
 47
0.1
 48
0.1
 73
     0
 74
     0
 78
     8
 79
     2
140
3.0
141
0.0
143
0.0393701
146
0.71
147
0.8
172
     1
176
     5
177
   256
178
     5
271
     2
272
     2
283
     0
340
11
371
    -1
372
    -1
  0
DIMSTYLE
105
98E
330
A
100
AcDbSymbolTableRecord
100
AcDbDimStyleTableRecord
  2
AM_ISO$7
 70
     0
  4
"
 40
0.6
 41
3.0
 42
2.0
 43
10.0
 44
1.5
 47
0.1
 48
0.1
 73
     0
 74
     0
 77
     1
 78
     8
 79
     2
140
5.0
141
0.0
143
0.0393701
146
0.71
147
0.8
172
     1
176
     5
177
   256
178
     5
271
     2
272
     2
283
     0
340
11
371
    -1
372
    -1
  0
DIMSTYLE
105
98F
330
A
100
AcDbSymbolTableRecord
100
AcDbDimStyleTableRecord
  2
AM_ISO$SF
 70
     0
  4
"
 40
0.5
 41
2.5
 42
1.0
 43
10.0
 44
1.0
 47
0.1
 48
0.1
 73
     0
 74
     0
 75
     1
 76
     1
 77
     1
 78
     8
 79
     2
140
3.5
141
0.0
143
0.0393701
146
0.71
147
1.5
172
     1
176
   256
177
   256
178
     2
271
     2
272
     2
283
     0
340
11
371
    -1
372
    -1
  0
DIMSTYLE
105
994
330
A
100
AcDbSymbolTableRecord
100
AcDbDimStyleTableRecord
  2
AM_ISO$SH
 70
     0
  4
"
 40
0.5
 41
2.5
 42
1.0
 43
10.0
 44
1.0
 47
0.1
 48
0.1
 73
     0
 74
     0
 75
     1
 76
     1
 77
     1
 78
     8
 79
     2
140
3.5
141
0.0
143
0.0393701
144
2.0
146
0.71
147
1.5
172
     1
173
     1
176
   256
177
   256
178
     2
271
     2
272
     2
283
     0
340
11
341
990
343
990
371
    -1
372
    -1
  0
DIMSTYLE
105
B991
330
A
100
AcDbSymbolTableRecord
100
AcDbDimStyleTableRecord
  2
STANDARD
 70
     0
 41
3.0
 42
2.0
 43
10.5
 44
1.0
 47
0.01
 48
0.01
 73
     0
 74
     0
 77
     1
 78
     8
 79
     2
140
3.5
141
3.0
146
0.6
147
0.8
172
     1
176
   256
177
   256
178
   256
271
     2
272
     2
283
     0
284
     8
340
11
371
    -1
372
    -1
  0
ENDTAB
  0
TABLE
  2
BLOCK_RECORD
  5
1
330
0
100
AcDbSymbolTable
 70
    11
  0
BLOCK_RECORD
  5
1F
102
{ACAD_XDICTIONARY
360
3A4
102
}
330
1
100
AcDbSymbolTableRecord
100
AcDbBlockTableRecord
  2
*Model_Space
340
22
  0
BLOCK_RECORD
  5
1B
102
{ACAD_XDICTIONARY
360
119FB
102
}
330
1
100
AcDbSymbolTableRecord
100
AcDbBlockTableRecord
  2
*Paper_Space
340
1E
  0
BLOCK_RECORD
  5
23
102
{ACAD_XDICTIONARY
360
119FD
102
}
330
1
100
AcDbSymbolTableRecord
100
AcDbBlockTableRecord
  2
*Paper_Space0
340
26
  0
BLOCK_RECORD
  5
990
330
1
100
AcDbSymbolTableRecord
100
AcDbBlockTableRecord
  2
GENAXEH
340
0
  0
BLOCK_RECORD
  5
10C7A
330
1
100
AcDbSymbolTableRecord
100
AcDbBlockTableRecord
  2
*D2
340
0
  0
BLOCK_RECORD
  5
10C86
330
1
100
AcDbSymbolTableRecord
100
AcDbBlockTableRecord
  2
*D3
340
0
  0
BLOCK_RECORD
  5
10DD8
330
1
100
AcDbSymbolTableRecord
100
AcDbBlockTableRecord
  2
*D4
340
0
  0
BLOCK_RECORD
  5
10E0A
330
1
100
AcDbSymbolTableRecord
100
AcDbBlockTableRecord
  2
*D5
340
0
  0
BLOCK_RECORD
  5
10E2E
330
1
100
AcDbSymbolTableRecord
100
AcDbBlockTableRecord
  2
*D6
340
0
  0
BLOCK_RECORD
  5
10E52
330
1
100
AcDbSymbolTableRecord
100
AcDbBlockTableRecord
  2
*D7
340
0
  0
BLOCK_RECORD
  5
11A69
330
1
100
AcDbSymbolTableRecord
100
AcDbBlockTableRecord
  2
*S8
340
0
102
{BLKREFS
331
11812
102
}
  0
ENDTAB
  0
ENDSEC
  0
SECTION
  2
BLOCKS
  0
BLOCK
  5
20
330
1F
100
AcDbEntity
  8
0
100
AcDbBlockBegin
  2
*Model_Space
 70
     0
 10
0.0
 20
0.0
 30
0.0
  3
*Model_Space
  1

  0
ENDBLK
  5
21
330
1F
100
AcDbEntity
  8
0
100
AcDbBlockEnd
  0
BLOCK
  5
1C
330
1B
100
AcDbEntity
 67
     1
  8
0
100
AcDbBlockBegin
  2
*Paper_Space
 70
     0
 10
0.0
 20
0.0
 30
0.0
  3
*Paper_Space
  1

  0
ENDBLK
  5
1D
330
1B
100
AcDbEntity
 67
     1
  8
0
100
AcDbBlockEnd
  0
BLOCK
  5
24
330
23
100
AcDbEntity
  8
0
100
AcDbBlockBegin
  2
*Paper_Space0
 70
     0
 10
0.0
 20
0.0
 30
0.0
  3
*Paper_Space0
  1

  0
ENDBLK
  5
25
330
23
100
AcDbEntity
  8
0
100
AcDbBlockEnd
  0
BLOCK
  5
992
330
990
100
AcDbEntity
  8
0
100
AcDbBlockBegin
  2
GENAXEH
 70
     0
 10
0.0
 20
0.0
 30
0.0
  3
GENAXEH
  1

  0
LINE
  5
991
330
990
100
AcDbEntity
  8
0
100
AcDbLine
 10
-1.0
 20
0.0
 30
0.0
 11
1.0
 21
0.0
 31
0.0
  0
ENDBLK
  5
993
330
990
100
AcDbEntity
  8
0
100
AcDbBlockEnd
  0
BLOCK
  5
10C84
330
10C7A
100
AcDbEntity
  8
0
100
AcDbBlockBegin
  2
*D2
 70
     1
 10
0.0
 20
0.0
 30
0.0
  3
*D2
  1

  0
LINE
  5
11B03
330
10C7A
100
AcDbEntity
  8
AM_5
100
AcDbLine
 10
832.602780679603
 20
104.0127880704698
 30
0.0
 11
851.3239185575642
 21
104.0127880704698
 31
0.0
  0
LINE
  5
11B04
330
10C7A
100
AcDbEntity
  8
AM_5
100
AcDbLine
 10
759.4333088419228
 20
-151.4916473689025
 30
0.0
 11
851.3239185575642
 21
-151.4916473689025
 31
0.0
  0
LINE
  5
11B05
330
10C7A
100
AcDbEntity
  8
AM_5
 62
     5
100
AcDbLine
 10
846.8239185575642
 20
95.01278807046981
 30
0.0
 11
846.8239185575642
 21
-142.4916473689025
 31
0.0
  0
SOLID
  5
11B06
330
10C7A
100
AcDbEntity
  8
AM_5
 62
     5
100
AcDbTrace
 10
845.3239185575641
 20
95.01278807046981
 30
0.0
 11
848.3239185575641
 21
95.01278807046981
 31
0.0
 12
846.8239185575642
 22
104.0127880704698
 32
0.0
 13
846.8239185575642
 23
104.0127880704698
 33
0.0
  0
SOLID
  5
11B07
330
10C7A
100
AcDbEntity
  8
AM_5
 62
     5
100
AcDbTrace
 10
845.3239185575641
 20
-142.4916473689025
 30
0.0
 11
848.3239185575641
 21
-142.4916473689025
 31
0.0
 12
846.8239185575642
 22
-151.4916473689025
 32
0.0
 13
846.8239185575642
 23
-151.4916473689025
 33
0.0
  0
MTEXT
  5
11B08
330
10C7A
100
AcDbEntity
  8
AM_5
 62
     5
100
AcDbMText
 10
839.9230327307925
 20
-23.73942964921621
 30
0.0
 40
9.0
 41
0.0
 71
     5
 72
     1
  1
256
 11
0.0000000000000001
 21
1.0
 31
0.0
 73
     1
 44
1.0
1001
ACAD
1000
MTEXTBEGIN
1070
    73
1070
     1
1070
    44
1040
1.0
1070
    74
1070
     0
1000
MTEXTEND
  0
POINT
  5
11B09
330
10C7A
100
AcDbEntity
  8
Defpoints
 62
     0
100
AcDbPoint
 10
826.602780679603
 20
104.0127880704698
 30
0.0
  0
POINT
  5
11B0A
330
10C7A
100
AcDbEntity
  8
Defpoints
 62
     0
100
AcDbPoint
 10
753.4333088419227
 20
-151.4916473689025
 30
0.0
  0
POINT
  5
11B0B
330
10C7A
100
AcDbEntity
  8
Defpoints
 62
     0
100
AcDbPoint
 10
846.8239185575642
 20
-151.4916473689025
 30
0.0
  0
ENDBLK
  5
10C85
330
10C7A
100
AcDbEntity
  8
0
100
AcDbBlockEnd
  0
BLOCK
  5
10C90
330
10C86
100
AcDbEntity
  8
0
100
AcDbBlockBegin
  2
*D3
 70
     1
 10
0.0
 20
0.0
 30
0.0
  3
*D3
  1

  0
LINE
  5
11AFA
330
10C86
100
AcDbEntity
  8
AM_5
100
AcDbLine
 10
774.3948526666883
 20
160.3920710033629
 30
0.0
 11
851.3239185575642
 21
160.3920710033629
 31
0.0
  0
LINE
  5
11AFB
330
10C86
100
AcDbEntity
  8
AM_5
100
AcDbLine
 10
832.602780679603
 20
104.0127880704698
 30
0.0
 11
851.3239185575642
 21
104.0127880704698
 31
0.0
  0
LINE
  5
11AFC
330
10C86
100
AcDbEntity
  8
AM_5
 62
     5
100
AcDbLine
 10
846.8239185575642
 20
151.3920710033629
 30
0.0
 11
846.8239185575642
 21
113.0127880704698
 31
0.0
  0
SOLID
  5
11AFD
330
10C86
100
AcDbEntity
  8
AM_5
 62
     5
100
AcDbTrace
 10
845.3239185575641
 20
151.3920710033629
 30
0.0
 11
848.3239185575641
 21
151.3920710033629
 31
0.0
 12
846.8239185575642
 22
160.3920710033629
 32
0.0
 13
846.8239185575642
 23
160.3920710033629
 33
0.0
  0
SOLID
  5
11AFE
330
10C86
100
AcDbEntity
  8
AM_5
 62
     5
100
AcDbTrace
 10
845.3239185575641
 20
113.0127880704698
 30
0.0
 11
848.3239185575641
 21
113.0127880704698
 31
0.0
 12
846.8239185575642
 22
104.0127880704698
 32
0.0
 13
846.8239185575642
 23
104.0127880704698
 33
0.0
  0
MTEXT
  5
11AFF
330
10C86
100
AcDbEntity
  8
AM_5
 62
     5
100
AcDbMText
 10
839.9239185575641
 20
132.2024295369165
 30
0.0
 40
9.0
 41
0.0
 71
     5
 72
     1
  1
56
 11
0.0000000000000001
 21
1.0
 31
0.0
 73
     1
 44
1.0
1001
ACAD
1000
MTEXTBEGIN
1070
    73
1070
     1
1070
    44
1040
1.0
1070
    74
1070
     0
1000
MTEXTEND
  0
POINT
  5
11B00
330
10C86
100
AcDbEntity
  8
Defpoints
 62
     0
100
AcDbPoint
 10
768.3948526666884
 20
160.3920710033629
 30
0.0
  0
POINT
  5
11B01
330
10C86
100
AcDbEntity
  8
Defpoints
 62
     0
100
AcDbPoint
 10
826.602780679603
 20
104.0127880704698
 30
0.0
  0
POINT
  5
11B02
330
10C86
100
AcDbEntity
  8
Defpoints
 62
     0
100
AcDbPoint
 10
846.8239185575642
 20
104.0127880704698
 30
0.0
  0
ENDBLK
  5
10C91
330
10C86
100
AcDbEntity
  8
0
100
AcDbBlockEnd
  0
BLOCK
  5
10DE2
330
10DD8
100
AcDbEntity
  8
0
100
AcDbBlockBegin
  2
*D4
 70
     1
 10
0.0
 20
0.0
 30
0.0
  3
*D4
  1

  0
LINE
  5
119A7
330
10DD8
100
AcDbEntity
  8
AM_5
100
AcDbLine
 10
774.3948526666883
 20
160.3920710033629
 30
0.0
 11
876.3168962497784
 21
160.3920710033629
 31
0.0
  0
LINE
  5
119A8
330
10DD8
100
AcDbEntity
  8
AM_5
100
AcDbLine
 10
759.4333088419228
 20
-151.4916473689025
 30
0.0
 11
876.3168962497784
 21
-151.4916473689025
 31
0.0
  0
LINE
  5
119A9
330
10DD8
100
AcDbEntity
  8
AM_5
 62
     5
100
AcDbLine
 10
871.8168962497784
 20
151.3920710033629
 30
0.0
 11
871.8168962497784
 21
-142.4916473689025
 31
0.0
  0
SOLID
  5
119AA
330
10DD8
100
AcDbEntity
  8
AM_5
 62
     5
100
AcDbTrace
 10
870.3168962497784
 20
151.3920710033629
 30
0.0
 11
873.3168962497783
 21
151.3920710033629
 31
0.0
 12
871.8168962497784
 22
160.3920710033629
 32
0.0
 13
871.8168962497784
 23
160.3920710033629
 33
0.0
  0
SOLID
  5
119AB
330
10DD8
100
AcDbEntity
  8
AM_5
 62
     5
100
AcDbTrace
 10
870.3168962497784
 20
-142.4916473689025
 30
0.0
 11
873.3168962497783
 21
-142.4916473689025
 31
0.0
 12
871.8168962497784
 22
-151.4916473689025
 32
0.0
 13
871.8168962497784
 23
-151.4916473689025
 33
0.0
  0
MTEXT
  5
119AC
330
10DD8
100
AcDbEntity
  8
AM_5
 62
     5
100
AcDbMText
 10
864.9160104230068
 20
4.450211817230357
 30
0.0
 40
9.0
 41
0.0
 71
     5
 72
     1
  1
312
 11
0.0000000000000001
 21
1.0
 31
0.0
 73
     1
 44
1.0
1001
ACAD
1000
MTEXTBEGIN
1070
    73
1070
     1
1070
    44
1040
1.0
1070
    74
1070
     0
1000
MTEXTEND
  0
POINT
  5
119AD
330
10DD8
100
AcDbEntity
  8
Defpoints
 62
     0
100
AcDbPoint
 10
768.3948526666884
 20
160.3920710033629
 30
0.0
  0
POINT
  5
119AE
330
10DD8
100
AcDbEntity
  8
Defpoints
 62
     0
100
AcDbPoint
 10
753.4333088419227
 20
-151.4916473689025
 30
0.0
  0
POINT
  5
119AF
330
10DD8
100
AcDbEntity
  8
Defpoints
 62
     0
100
AcDbPoint
 10
871.8168962497784
 20
-151.4916473689025
 30
0.0
  0
ENDBLK
  5
10DE3
330
10DD8
100
AcDbEntity
  8
0
100
AcDbBlockEnd
  0
BLOCK
  5
10E14
330
10E0A
100
AcDbEntity
  8
0
100
AcDbBlockBegin
  2
*D5
 70
     1
 10
0.0
 20
0.0
 30
0.0
  3
*D5
  1

  0
LINE
  5
11B15
330
10E0A
100
AcDbEntity
  8
AM_5
100
AcDbLine
 10
752.6355088419279
 20
323.879317762386
 30
0.0
 11
849.0182494042098
 21
323.879317762386
 31
0.0
  0
LINE
  5
11B16
330
10E0A
100
AcDbEntity
  8
AM_5
100
AcDbLine
 10
752.6355088419279
 20
214.162508921106
 30
0.0
 11
849.0182494042096
 21
214.162508921106
 31
0.0
  0
LINE
  5
11B17
330
10E0A
100
AcDbEntity
  8
AM_5
 62
     5
100
AcDbLine
 10
844.5182494042096
 20
314.879317762386
 30
0.0
 11
844.5182494042096
 21
223.162508921106
 31
0.0
  0
SOLID
  5
11B18
330
10E0A
100
AcDbEntity
  8
AM_5
 62
     5
100
AcDbTrace
 10
843.0182494042098
 20
314.879317762386
 30
0.0
 11
846.0182494042097
 21
314.879317762386
 31
0.0
 12
844.5182494042096
 22
323.879317762386
 32
0.0
 13
844.5182494042096
 23
323.879317762386
 33
0.0
  0
SOLID
  5
11B19
330
10E0A
100
AcDbEntity
  8
AM_5
 62
     5
100
AcDbTrace
 10
843.0182494042096
 20
223.162508921106
 30
0.0
 11
846.0182494042097
 21
223.162508921106
 31
0.0
 12
844.5182494042096
 22
214.162508921106
 32
0.0
 13
844.5182494042096
 23
214.162508921106
 33
0.0
  0
MTEXT
  5
11B1A
330
10E0A
100
AcDbEntity
  8
AM_5
 62
     5
100
AcDbMText
 10
837.6182494042096
 20
269.0209133417461
 30
0.0
 40
9.0
 41
0.0
 71
     5
 72
     1
  1
%%c110
 11
0.0000000000000001
 21
1.0
 31
0.0
 73
     1
 44
1.0
1001
ACAD
1000
MTEXTBEGIN
1070
    73
1070
     1
1070
    44
1040
1.0
1070
    74
1070
     0
1000
MTEXTEND
  0
POINT
  5
11B1B
330
10E0A
100
AcDbEntity
  8
Defpoints
 62
     0
100
AcDbPoint
 10
746.6355088419279
 20
323.879317762386
 30
0.0
  0
POINT
  5
11B1C
330
10E0A
100
AcDbEntity
  8
Defpoints
 62
     0
100
AcDbPoint
 10
746.6355088419279
 20
214.162508921106
 30
0.0
  0
POINT
  5
11B1D
330
10E0A
100
AcDbEntity
  8
Defpoints
 62
     0
100
AcDbPoint
 10
844.5182494042096
 20
214.162508921106
 30
0.0
  0
ENDBLK
  5
10E15
330
10E0A
100
AcDbEntity
  8
0
100
AcDbBlockEnd
  0
BLOCK
  5
10E38
330
10E2E
100
AcDbEntity
  8
0
100
AcDbBlockBegin
  2
*D6
 70
     1
 10
0.0
 20
0.0
 30
0.0
  3
*D6
  1

  0
LINE
  5
11B33
330
10E2E
100
AcDbEntity
  8
AM_5
100
AcDbLine
 10
673.6355088419279
 20
299.2438305920054
 30
0.0
 11
656.9456462704612
 21
299.2438305920054
 31
0.0
  0
LINE
  5
11B34
330
10E2E
100
AcDbEntity
  8
AM_5
100
AcDbLine
 10
673.6355088419279
 20
238.7979960914866
 30
0.0
 11
656.9456462704611
 21
238.7979960914866
 31
0.0
  0
LINE
  5
11B35
330
10E2E
100
AcDbEntity
  8
AM_5
 62
     5
100
AcDbLine
 10
661.4456462704612
 20
290.2438305920053
 30
0.0
 11
661.4456462704611
 21
247.7979960914867
 31
0.0
  0
SOLID
  5
11B36
330
10E2E
100
AcDbEntity
  8
AM_5
 62
     5
100
AcDbTrace
 10
659.9456462704612
 20
290.2438305920053
 30
0.0
 11
662.9456462704612
 21
290.2438305920053
 31
0.0
 12
661.4456462704612
 22
299.2438305920054
 32
0.0
 13
661.4456462704612
 23
299.2438305920054
 33
0.0
  0
SOLID
  5
11B37
330
10E2E
100
AcDbEntity
  8
AM_5
 62
     5
100
AcDbTrace
 10
659.9456462704611
 20
247.7979960914867
 30
0.0
 11
662.945646270461
 21
247.7979960914867
 31
0.0
 12
661.4456462704611
 22
238.7979960914866
 32
0.0
 13
661.4456462704611
 23
238.7979960914866
 33
0.0
  0
MTEXT
  5
11B38
330
10E2E
100
AcDbEntity
  8
AM_5
 62
     5
100
AcDbMText
 10
654.5456462704611
 20
269.0209133417461
 30
0.0
 40
9.0
 41
0.0
 71
     5
 72
     1
  1
60
 11
0.0000000000000001
 21
1.0
 31
0.0
 73
     1
 44
1.0
1001
ACAD
1000
MTEXTBEGIN
1070
    73
1070
     1
1070
    44
1040
1.0
1070
    74
1070
     0
1000
MTEXTEND
  0
POINT
  5
11B39
330
10E2E
100
AcDbEntity
  8
Defpoints
 62
     0
100
AcDbPoint
 10
679.635508841928
 20
299.2438305920054
 30
0.0
  0
POINT
  5
11B3A
330
10E2E
100
AcDbEntity
  8
Defpoints
 62
     0
100
AcDbPoint
 10
679.635508841928
 20
238.7979960914866
 30
0.0
  0
POINT
  5
11B3B
330
10E2E
100
AcDbEntity
  8
Defpoints
 62
     0
100
AcDbPoint
 10
661.4456462704611
 20
238.7979960914866
 30
0.0
  0
ENDBLK
  5
10E39
330
10E2E
100
AcDbEntity
  8
0
100
AcDbBlockEnd
  0
BLOCK
  5
10E5C
330
10E52
100
AcDbEntity
  8
0
100
AcDbBlockBegin
  2
*D7
 70
     1
 10
0.0
 20
0.0
 30
0.0
  3
*D7
  1

  0
LINE
  5
11B2A
330
10E52
100
AcDbEntity
  8
AM_5
100
AcDbLine
 10
679.635508841928
 20
232.7979960914866
 30
0.0
 11
679.635508841928
 21
180.4011169915798
 31
0.0
  0
LINE
  5
11B2B
330
10E52
100
AcDbEntity
  8
AM_5
100
AcDbLine
 10
803.6452037484343
 20
232.7979960914857
 30
0.0
 11
803.6452037484343
 21
180.4011169915798
 31
0.0
  0
LINE
  5
11B2C
330
10E52
100
AcDbEntity
  8
AM_5
 62
     5
100
AcDbLine
 10
688.6355088419279
 20
184.9011169915798
 30
0.0
 11
794.6452037484343
 21
184.9011169915798
 31
0.0
  0
SOLID
  5
11B2D
330
10E52
100
AcDbEntity
  8
AM_5
 62
     5
100
AcDbTrace
 10
688.6355088419279
 20
186.4011169915798
 30
0.0
 11
688.6355088419279
 21
183.4011169915798
 31
0.0
 12
679.635508841928
 22
184.9011169915798
 32
0.0
 13
679.635508841928
 23
184.9011169915798
 33
0.0
  0
SOLID
  5
11B2E
330
10E52
100
AcDbEntity
  8
AM_5
 62
     5
100
AcDbTrace
 10
794.6452037484343
 20
186.4011169915798
 30
0.0
 11
794.6452037484343
 21
183.4011169915798
 31
0.0
 12
803.6452037484343
 22
184.9011169915798
 32
0.0
 13
803.6452037484343
 23
184.9011169915798
 33
0.0
  0
MTEXT
  5
11B2F
330
10E52
100
AcDbEntity
  8
AM_5
 62
     5
100
AcDbMText
 10
741.6403562951812
 20
191.8020028183514
 30
0.0
 40
9.0
 41
0.0
 71
     5
 72
     1
  1
124
 73
     1
 44
1.0
1001
ACAD
1000
MTEXTBEGIN
1070
    73
1070
     1
1070
    44
1040
1.0
1070
    74
1070
     0
1000
MTEXTEND
  0
POINT
  5
11B30
330
10E52
100
AcDbEntity
  8
Defpoints
 62
     0
100
AcDbPoint
 10
679.635508841928
 20
238.7979960914866
 30
0.0
  0
POINT
  5
11B31
330
10E52
100
AcDbEntity
  8
Defpoints
 62
     0
100
AcDbPoint
 10
803.6452037484343
 20
238.7979960914857
 30
0.0
  0
POINT
  5
11B32
330
10E52
100
AcDbEntity
  8
Defpoints
 62
     0
100
AcDbPoint
 10
803.6452037484343
 20
184.9011169915798
 30
0.0
  0
ENDBLK
  5
10E5D
330
10E52
100
AcDbEntity
  8
0
100
AcDbBlockEnd
  0
BLOCK
  5
11A6E
330
11A69
100
AcDbEntity
  8
0
100
AcDbBlockBegin
  2
*S8
 70
     1
 10
0.0
 20
0.0
 30
0.0
  3
*S8
  1

  0
LINE
  5
11A6A
330
11A69
100
AcDbEntity
  8
AM_5
100
AcDbLine
 10
616.0869244055836
 20
77.24256016950807
 30
0.0
 11
671.3791942958398
 21
77.24256016950807
 31
0.0
  0
LINE
  5
11A6B
330
11A69
100
AcDbEntity
  8
AM_5
100
AcDbLine
 10
671.3791942958398
 20
77.24256016950807
 30
0.0
 11
684.4994603437717
 21
96.12218553586007
 31
0.0
  0
TRACE
  5
11A6C
330
11A69
100
AcDbEntity
  8
AM_5
100
AcDbTrace
 10
685.4724516217876
 20
95.44601192636468
 30
0.0
 11
683.5264690657557
 21
96.79835914535544
 31
0.0
 12
689.6355088419279
 22
103.5127880704702
 32
0.0
 13
689.6355088419279
 23
103.5127880704702
 33
0.0
  0
MTEXT
  5
11A6D
330
11A69
100
AcDbEntity
  8
AM_5
 62
     2
100
AcDbMText
 10
616.0869244055836
 20
72.50971978096934
 30
0.0
 40
17.5
 41
0.0
 71
     7
 72
     5
  1

  7
ACISOTS
210
0.0
220
0.0
230
-1.0
 11
-1.0
 21
0.0
 31
0.0
 73
     1
 44
1.0
1001
ACAD
1000
MTEXTBEGIN
1070
    73
1070
     1
1070
    44
1040
1.0
1070
    74
1070
     0
1000
MTEXTEND
  0
ENDBLK
  5
11A6F
330
11A69
100
AcDbEntity
  8
0
100
AcDbBlockEnd
  0
ENDSEC
  0
SECTION
  2
ENTITIES
  0
MTEXT
  5
20A1
330
1F
100
AcDbEntity
  8
AM_REFDIM
370
     9
100
AcDbMText
 10
561.1885018225272
 20
211.9777653808242
 30
0.0
 40
5.0
 41
0.0
 71
     9
 72
     1
  1

  7
DAYUS
 73
     1
 44
1.0
1001
ACAD
1000
MTEXTBEGIN
1070
    73
1070
     1
1070
    44
1040
1.0
1070
    74
1070
     0
1000
MTEXTEND
  0
MTEXT
  5
21E1
330
1F
100
AcDbEntity
  8
AM_REFDIM
370
     9
100
AcDbMText
 10
755.6608394056113
 20
277.1617022919268
 30
0.0
 40
5.0
 41
0.0
 71
     9
 72
     1
  1

  7
DAYUS
 73
     1
 44
1.0
1001
ACAD
1000
MTEXTBEGIN
1070
    73
1070
     1
1070
    44
1040
1.0
1070
    74
1070
     0
1000
MTEXTEND
  0
MTEXT
  5
21E8
330
1F
100
AcDbEntity
  8
AM_REFDIM
370
     9
100
AcDbMText
 10
749.57448324194
 20
209.4269307825009
 30
0.0
 40
5.0
 41
0.0
 71
     9
 72
     1
  1

  7
DAYUS
 73
     1
 44
1.0
1001
ACAD
1000
MTEXTBEGIN
1070
    73
1070
     1
1070
    44
1040
1.0
1070
    74
1070
     0
1000
MTEXTEND
  0
MTEXT
  5
950E
330
1F
100
AcDbEntity
  8
AM_REFDIM
370
     9
100
AcDbMText
 10
883.1481342807478
 20
-16.56429920726828
 30
0.0
 40
5.0
 41
0.0
 71
     9
 72
     1
  1

  7
DAYUS
 73
     1
 44
1.0
1001
ACAD
1000
MTEXTBEGIN
1070
    73
1070
     1
1070
    44
1040
1.0
1070
    74
1070
     0
1000
MTEXTEND
  0
MTEXT
  5
9515
330
1F
100
AcDbEntity
  8
AM_REFDIM
370
     9
100
AcDbMText
 10
877.0617781170765
 20
-84.29907071669413
 30
0.0
 40
5.0
 41
0.0
 71
     9
 72
     1
  1

  7
DAYUS
 73
     1
 44
1.0
1001
ACAD
1000
MTEXTBEGIN
1070
    73
1070
     1
1070
    44
1040
1.0
1070
    74
1070
     0
1000
MTEXTEND
  0
MTEXT
  5
9538
330
1F
100
AcDbEntity
  8
AM_REFDIM
370
     9
100
AcDbMText
 10
688.6757966976639
 20
-81.74823611837087
 30
0.0
 40
5.0
 41
0.0
 71
     9
 72
     1
  1

  7
DAYUS
 73
     1
 44
1.0
1001
ACAD
1000
MTEXTBEGIN
1070
    73
1070
     1
1070
    44
1040
1.0
1070
    74
1070
     0
1000
MTEXTEND
  0
MTEXT
  5
D169
330
1F
100
AcDbEntity
  8
圖層2
100
AcDbMText
 10
715.61673495723
 20
206.7204113137814
 30
0.0
 40
2.4
 41
0.0
 71
     1
 72
     1
  1

  7
DAYUS
 73
     1
 44
1.0
1001
ACAD
1000
MTEXTBEGIN
1070
    73
1070
     1
1070
    44
1040
1.0
1070
    74
1070
     0
1000
MTEXTEND
  0
MTEXT
  5
D16D
330
1F
100
AcDbEntity
  8
圖層2
100
AcDbMText
 10
487.3356342227076
 20
201.0088069192021
 30
0.0
 40
2.4
 41
0.0
 71
     9
 72
     1
  1

  7
DAYUS
 73
     1
 44
1.0
1001
ACAD
1000
MTEXTBEGIN
1070
    73
1070
     1
1070
    44
1040
1.0
1070
    74
1070
     0
1000
MTEXTEND
  0
MTEXT
  5
D622
330
1F
100
AcDbEntity
  8
AM_5
 62
     2
100
AcDbMText
 10
364.1980009625231
 20
217.5933376591914
 30
0.0
 40
3.5
 41
0.0
 71
     7
 72
     5
  1

  7
ACISOTS
 73
     1
 44
1.0
1001
ACAD
1000
MTEXTBEGIN
1070
    73
1070
     1
1070
    44
1040
1.0
1070
    74
1070
     0
1000
MTEXTEND
  0
MTEXT
  5
D62D
330
1F
100
AcDbEntity
  8
AM_5
 62
     2
100
AcDbMText
 10
375.2854589832455
 20
224.3263974052412
 30
0.0
 40
3.5
 41
0.0
 71
     9
 72
     5
  1

  7
ACISOTS
 73
     1
 44
1.0
1001
ACAD
1000
MTEXTBEGIN
1070
    73
1070
     1
1070
    44
1040
1.0
1070
    74
1070
     0
1000
MTEXTEND
  0
MTEXT
  5
DBAB
330
1F
100
AcDbEntity
  8
圖層2
100
AcDbMText
 10
403.5453401996071
 20
241.6457643110566
 30
0.0
 40
6.0
 41
29.7
 71
     1
 72
     5
  1

  7
ROMAND
 73
     1
 44
1.0
1001
ACAD
1000
MTEXTBEGIN
1070
    73
1070
     1
1070
    44
1040
1.0
1070
    74
1070
     0
1000
MTEXTEND
  0
MTEXT
  5
DBAC
330
1F
100
AcDbEntity
  8
圖層2
100
AcDbMText
 10
405.9710179574619
 20
231.7492930806484
 30
0.0
 40
4.3125
 41
25.29
 71
     1
 72
     5
  1
{\fArial|b0|i0|c0|p32;}
  7
ROMAND
 73
     1
 44
1.0
1001
ACAD
1000
MTEXTBEGIN
1070
    73
1070
     1
1070
    44
1040
1.0
1070
    74
1070
     0
1000
MTEXTEND
  0
LINE
  5
10AE0
330
1F
100
AcDbEntity
  8
cen
370
     9
100
AcDbLine
 10
746.6355088419279
 20
-159.2382958200364
 30
0.0
 11
746.6355088419279
 21
41.27478807046862
 31
0.0
  0
DIMENSION
  5
10AE1
102
{ACAD_XDICTIONARY
360
10AE2
102
}
102
{ACAD_REACTORS
330
10AE3
102
}
330
1F
100
AcDbEntity
  8
AM_5
100
AcDbDimension
  2
*D2
 10
846.8239185575642
 20
-151.4916473689025
 30
0.0
 11
839.9230327307925
 21
-23.73942964921621
 31
0.0
 70
    32
 71
     5
 42
255.5044354393723
  3
AM_ISO
100
AcDbAlignedDimension
 13
826.602780679603
 23
104.0127880704698
 33
0.0
 14
753.4333088419227
 24
-151.4916473689025
 34
0.0
 50
90.0
100
AcDbRotatedDimension
1001
ACAD
1000
DSTYLE
1002
{
1070
    40
1040
3.0
1070
   271
1070
     0
1070
   272
1070
     8
1002
}
  0
LINE
  5
10AE4
330
1F
100
AcDbEntity
  8
drg
370
     9
100
AcDbLine
 10
740.2855088435155
 20
-144.0380124010528
 30
0.0
 11
740.2855088435155
 21
41.02078807053146
 31
0.0
  0
LINE
  5
10AE5
330
1F
100
AcDbEntity
  8
drg
370
     9
100
AcDbLine
 10
752.9855088403403
 20
-144.0380124010528
 30
0.0
 11
752.9855088403403
 21
41.02078807053146
 31
0.0
  0
LINE
  5
10AE6
330
1F
100
AcDbEntity
  8
drg
370
     9
100
AcDbLine
 10
733.9355088451031
 20
-102.7392118951777
 30
0.0
 11
733.9355088451031
 21
40.27870183314678
 31
0.0
  0
LINE
  5
10AE7
330
1F
100
AcDbEntity
  8
drg
370
     9
100
AcDbLine
 10
759.3355088387454
 20
-102.7392118951777
 30
0.0
 11
759.3355088387454
 21
40.27870183314678
 31
0.0
  0
LINE
  5
10AE8
330
1F
100
AcDbEntity
  8
drg
370
     9
100
AcDbLine
 10
788.6343888688554
 20
-115.1820200737759
 30
0.0
 11
792.4751633590769
 21
41.27478807046862
 31
0.0
  0
LINE
  5
10AE9
330
1F
100
AcDbEntity
  8
drg
370
     9
100
AcDbLine
 10
688.3305011560062
 20
18.81736618920001
 30
0.0
 11
688.3305011560062
 21
-105.8926338107996
 31
0.0
  0
LINE
  5
10AEA
330
1F
100
AcDbEntity
  8
drg
370
     9
100
AcDbLine
 10
695.6965011559934
 20
18.81736618920001
 30
0.0
 11
695.696501156008
 21
-105.8926338107996
 31
0.0
  0
LINE
  5
10AEB
330
1F
100
AcDbEntity
  8
drg
370
     9
100
AcDbLine
 10
699.4040213181054
 20
26.19425799490489
 30
0.0
 11
699.4040213181054
 21
-114.0847009103747
 31
0.0
  0
LINE
  5
10AEC
330
1F
100
AcDbEntity
  8
drg
370
     9
100
AcDbLine
 10
695.6965011559934
 20
-110.6132118932103
 30
0.0
 11
695.6965011559934
 21
23.53794427161154
 31
0.0
  0
LINE
  5
10AED
330
1F
100
AcDbEntity
  8
drg
370
     9
100
AcDbLine
 10
704.3356477713662
 20
28.57478807364202
 30
0.0
 11
709.3666950953177
 21
-115.6843424802803
 31
0.0
  0
ARC
  5
10AEE
330
1F
100
AcDbEntity
  8
drg
370
     9
100
AcDbCircle
 10
830.1102062636694
 20
-109.089211893591
 30
0.0
 40
96.38410098938685
100
AcDbArc
 50
176.2224899232402
 51
201.2599095085815
  0
ARC
  5
10AEF
330
1F
100
AcDbEntity
  8
drg
370
     9
100
AcDbCircle
 10
663.1608114201792
 20
-109.089211893591
 30
0.0
 40
96.38410098938685
100
AcDbArc
 50
338.7400904914169
 51
3.777510076759725
  0
ARC
  5
10AF0
330
1F
100
AcDbEntity
  8
drg
370
     9
100
AcDbCircle
 10
759.0277112662427
 20
-114.4232118922575
 30
0.0
 40
29.61639999259589
100
AcDbArc
 50
270.5954747822184
 51
358.5318518001571
  0
ARC
  5
10AF1
330
1F
100
AcDbEntity
  8
drg
370
     9
100
AcDbCircle
 10
734.2433064176132
 20
-114.4232118922575
 30
0.0
 40
29.61639999259589
100
AcDbArc
 50
197.5803846496976
 51
269.4045252177815
  0
LINE
  5
10AF2
330
1F
100
AcDbEntity
  8
drg
370
     9
100
AcDbLine
 10
738.837708841924
 20
-150.4916473689025
 30
0.0
 11
754.4333088419228
 21
-150.4916473688822
 31
0.0
  0
LINE
  5
10AF3
102
{ACAD_REACTORS
330
10AE3
102
}
330
1F
100
AcDbEntity
  8
drg
370
     9
100
AcDbLine
 10
739.837708841924
 20
-151.4916473689025
 30
0.0
 11
753.4333088419227
 21
-151.4916473689025
 31
0.0
  0
LINE
  5
10AF4
330
1F
100
AcDbEntity
  8
drg
370
     9
100
AcDbLine
 10
758.5354088419319
 20
-146.1732118843204
 30
0.0
 11
734.7356088419167
 21
-146.1732118843204
 31
0.0
  0
LINE
  5
10AF5
330
1F
100
AcDbEntity
  8
drg
370
     9
100
AcDbLine
 10
758.5354088419319
 20
-149.0942118843206
 30
0.0
 11
734.7356088419167
 21
-149.0942118843206
 31
0.0
  0
LINE
  5
10AF6
330
1F
100
AcDbEntity
  8
drg
370
     9
100
AcDbLine
 10
758.0655088390687
 20
-146.1732118843204
 30
0.0
 11
735.2055088447798
 21
-146.1732118843204
 31
0.0
  0
LINE
  5
10AF7
330
1F
100
AcDbEntity
  8
drg
370
     9
100
AcDbLine
 10
759.3355088387454
 20
-144.0380124010528
 30
0.0
 11
733.9355088451031
 21
-144.0380124010528
 31
0.0
  0
LINE
  5
10AF9
330
1F
100
AcDbEntity
  8
drg
370
     9
100
AcDbLine
 10
739.4600088419158
 20
-146.1732118843204
 30
0.0
 11
739.4600088419158
 21
-149.0942118843206
 31
0.0
  0
LINE
  5
10AFB
330
1F
100
AcDbEntity
  8
drg
370
     9
100
AcDbLine
 10
737.8852088419137
 20
-146.1732118843204
 30
0.0
 11
737.8852088419137
 21
-149.0942118843206
 31
0.0
  0
LINE
  5
10AFC
330
1F
100
AcDbEntity
  8
drg
370
     9
100
AcDbLine
 10
736.3104088419188
 20
-146.1732118843204
 30
0.0
 11
736.3104088419188
 21
-149.0942118843206
 31
0.0
  0
LINE
  5
10AFE
330
1F
100
AcDbEntity
  8
drg
370
     9
100
AcDbLine
 10
734.7356088419167
 20
-146.1732118843204
 30
0.0
 11
734.7356088419167
 21
-149.0942118843206
 31
0.0
  0
LINE
  5
10AFF
330
1F
100
AcDbEntity
  8
drg
370
     9
100
AcDbLine
 10
738.837708841924
 20
-150.4916473689025
 30
0.0
 11
739.837708841924
 21
-151.4916473689025
 31
0.0
  0
LINE
  5
10B00
330
1F
100
AcDbEntity
  8
drg
370
     9
100
AcDbLine
 10
739.3108281504048
 20
-150.4916473689019
 30
0.0
 11
739.3108281504012
 21
-149.0942118843206
 31
0.0
  0
LINE
  5
10B01
330
1F
100
AcDbEntity
  8
drg
370
     9
100
AcDbLine
 10
738.837708841924
 20
-150.4916473689025
 30
0.0
 11
738.8377088419276
 21
-149.0942118843206
 31
0.0
  0
ARC
  5
10B02
330
1F
100
AcDbEntity
  8
drg
370
     9
100
AcDbCircle
 10
735.2055088447798
 20
-144.9032118846382
 30
0.0
 40
1.2699999996825
100
AcDbArc
 50
180.0
 51
270.0
  0
LINE
  5
10B03
330
1F
100
AcDbEntity
  8
drg
370
     9
100
AcDbLine
 10
733.9355088451031
 20
-144.9032118846382
 30
0.0
 11
733.9355088451031
 21
-144.0380124010528
 31
0.0
  0
LINE
  5
10B05
330
1F
100
AcDbEntity
  8
drg
370
     9
100
AcDbLine
 10
742.6096088419129
 20
-146.1732118843204
 30
0.0
 11
742.6096088419129
 21
-149.0942118843206
 31
0.0
  0
LINE
  5
10B06
330
1F
100
AcDbEntity
  8
drg
370
     9
100
AcDbLine
 10
744.1844088419077
 20
-146.1732118843204
 30
0.0
 11
744.1844088419077
 21
-149.0942118843206
 31
0.0
  0
LINE
  5
10B09
330
1F
100
AcDbEntity
  8
drg
370
     9
100
AcDbLine
 10
747.3340088419047
 20
-146.1732118843204
 30
0.0
 11
747.3340088419047
 21
-149.0942118843206
 31
0.0
  0
LINE
  5
10B0A
330
1F
100
AcDbEntity
  8
drg
370
     9
100
AcDbLine
 10
745.7592088419098
 20
-146.1732118843204
 30
0.0
 11
745.7592088419098
 21
-149.0942118843206
 31
0.0
  0
LINE
  5
10B0C
330
1F
100
AcDbEntity
  8
drg
370
     9
100
AcDbLine
 10
741.0348088419107
 20
-146.1732118843204
 30
0.0
 11
741.0348088419107
 21
-149.0942118843206
 31
0.0
  0
LINE
  5
10B0E
330
1F
100
AcDbEntity
  8
drg
370
     9
100
AcDbLine
 10
750.4836088418945
 20
-146.1732118843204
 30
0.0
 11
750.4836088418945
 21
-149.0942118843206
 31
0.0
  0
LINE
  5
10B11
330
1F
100
AcDbEntity
  8
drg
370
     9
100
AcDbLine
 10
753.6332088418914
 20
-146.1732118843204
 30
0.0
 11
753.6332088418914
 21
-149.0942118843206
 31
0.0
  0
LINE
  5
10B12
330
1F
100
AcDbEntity
  8
drg
370
     9
100
AcDbLine
 10
752.0584088418965
 20
-146.1732118843204
 30
0.0
 11
752.0584088418965
 21
-149.0942118843206
 31
0.0
  0
LINE
  5
10B15
330
1F
100
AcDbEntity
  8
drg
370
     9
100
AcDbLine
 10
755.2080088418863
 20
-146.1732118843204
 30
0.0
 11
755.2080088418863
 21
-149.0942118843206
 31
0.0
  0
LINE
  5
10B18
330
1F
100
AcDbEntity
  8
drg
370
     9
100
AcDbLine
 10
748.9088088418923
 20
-146.1732118843204
 30
0.0
 11
748.9088088418923
 21
-149.0942118843206
 31
0.0
  0
LINE
  5
10B19
330
1F
100
AcDbEntity
  8
drg
370
     9
100
AcDbLine
 10
753.4333088419227
 20
-151.4916473689025
 30
0.0
 11
754.4333088419228
 21
-150.4916473689025
 31
0.0
  0
LINE
  5
10B1A
330
1F
100
AcDbEntity
  8
drg
370
     9
100
AcDbLine
 10
753.9601895334365
 20
-150.4916473688829
 30
0.0
 11
753.9601895334328
 21
-149.0942118843206
 31
0.0
  0
LINE
  5
10B1B
330
1F
100
AcDbEntity
  8
drg
370
     9
100
AcDbLine
 10
754.4333088419228
 20
-150.4916473689025
 30
0.0
 11
754.4333088419209
 21
-149.0942118843206
 31
0.0
  0
LINE
  5
10B1C
330
1F
100
AcDbEntity
  8
drg
370
     9
100
AcDbLine
 10
758.5354088419319
 20
-146.1732118843204
 30
0.0
 11
758.5354088419319
 21
-149.0942118843206
 31
0.0
  0
LINE
  5
10B1E
330
1F
100
AcDbEntity
  8
drg
370
     9
100
AcDbLine
 10
756.7828088418885
 20
-146.1732118843204
 30
0.0
 11
756.7828088418885
 21
-149.0942118843206
 31
0.0
  0
ARC
  5
10B1F
330
1F
100
AcDbEntity
  8
drg
370
     9
100
AcDbCircle
 10
758.0655088390687
 20
-144.9032118846382
 30
0.0
 40
1.2699999996825
100
AcDbArc
 50
270.0
 51
0.0
  0
LINE
  5
10B20
330
1F
100
AcDbEntity
  8
drg
370
     9
100
AcDbLine
 10
759.3355088387454
 20
-144.9032118846382
 30
0.0
 11
759.3355088387454
 21
-144.0380124010528
 31
0.0
  0
ARC
  5
10B21
330
1F
100
AcDbEntity
  8
drg
370
     9
100
AcDbCircle
 10
694.2894241755113
 20
-115.8692194615535
 30
0.0
 40
5.416974283728682
100
AcDbArc
 50
19.23423526836707
 51
104.00259804102
  0
LINE
  5
10B22
330
1F
100
AcDbEntity
  8
drg
370
     9
100
AcDbLine
 10
703.2601768067891
 20
-121.1647244544995
 30
0.0
 11
696.8980661050866
 21
-120.608111892004
 31
0.0
  0
LINE
  5
10B23
330
1F
100
AcDbEntity
  8
cen
370
     9
100
AcDbLine
 10
721.0786172288774
 20
-115.4392118920034
 30
0.0
 11
685.7941366026773
 21
-115.4392118920034
 31
0.0
  0
LINE
  5
10B24
330
1F
100
AcDbEntity
  8
drg
370
     9
100
AcDbLine
 10
692.9787011566861
 20
-120.2652118907965
 30
0.0
 11
692.9787011566861
 21
-110.6132118932103
 31
0.0
  0
LINE
  5
10B25
330
1F
100
AcDbEntity
  8
drg
370
     9
100
AcDbLine
 10
689.5825782185696
 20
-117.9392118920034
 30
0.0
 11
689.5825782185696
 21
-120.608111892004
 31
0.0
  0
LINE
  5
10B26
330
1F
100
AcDbEntity
  8
drg
370
     9
100
AcDbLine
 10
688.3051011566842
 20
-107.1461118920044
 30
0.0
 11
688.3051011566842
 21
-120.608111892004
 31
0.0
  0
LINE
  5
10B27
330
1F
100
AcDbEntity
  8
drg
370
     9
100
AcDbLine
 10
690.692701156686
 20
-107.1461118920044
 30
0.0
 11
690.692701156686
 21
-120.608111892004
 31
0.0
  0
LINE
  5
10B28
330
1F
100
AcDbEntity
  8
drg
370
     9
100
AcDbLine
 10
692.9787011566861
 20
-107.1461118920044
 30
0.0
 11
692.9787011566861
 21
-120.608111892004
 31
0.0
  0
LINE
  5
10B29
330
1F
100
AcDbEntity
  8
drg
370
     9
100
AcDbLine
 10
696.8980661050866
 20
-120.608111892004
 30
0.0
 11
688.3051011566842
 21
-120.608111892004
 31
0.0
  0
LINE
  5
10B2A
330
1F
100
AcDbEntity
  8
drg
370
     9
100
AcDbLine
 10
693.9559023125314
 20
-105.8926338107996
 30
0.0
 11
693.9559023125314
 21
-107.1461118920044
 31
0.0
  0
LINE
  5
10B2B
330
1F
100
AcDbEntity
  8
drg
370
     9
100
AcDbLine
 10
693.1311011566852
 20
-107.1461118920044
 30
0.0
 11
688.3051011566842
 21
-107.1461118920044
 31
0.0
  0
LINE
  5
10B2C
330
1F
100
AcDbEntity
  8
drg
370
     9
100
AcDbLine
 10
690.692701156686
 20
-117.9392118920034
 30
0.0
 11
688.5051011566886
 21
-117.9392118920034
 31
0.0
  0
LINE
  5
10B2D
330
1F
100
AcDbEntity
  8
drg
370
     9
100
AcDbLine
 10
690.692701156686
 20
-112.9392118920034
 30
0.0
 11
688.5051011566886
 21
-112.9392118920034
 31
0.0
  0
LINE
  5
10B2E
330
1F
100
AcDbEntity
  8
drg
370
     9
100
AcDbLine
 10
689.5825782185696
 20
-107.1461118920044
 30
0.0
 11
689.5825782185696
 21
-112.9392118920034
 31
0.0
  0
LINE
  5
10B2F
330
1F
100
AcDbEntity
  8
drg
370
     9
100
AcDbLine
 10
688.5051011566886
 20
-114.9392118920034
 30
0.0
 11
688.5051011566886
 21
-112.9392118920034
 31
0.0
  0
LINE
  5
10B30
330
1F
100
AcDbEntity
  8
drg
370
     9
100
AcDbLine
 10
688.5051011566886
 20
-117.9392118920034
 30
0.0
 11
688.5051011566886
 21
-115.9392118920034
 31
0.0
  0
LINE
  5
10B31
330
1F
100
AcDbEntity
  8
drg
370
     9
100
AcDbLine
 10
690.0051011566813
 20
-115.9392118920034
 30
0.0
 11
690.0051011566813
 21
-114.9392118920034
 31
0.0
  0
LINE
  5
10B32
330
1F
100
AcDbEntity
  8
drg
370
     9
100
AcDbLine
 10
690.0051011566813
 20
-115.9392118920034
 30
0.0
 11
688.5051011566886
 21
-115.9392118920034
 31
0.0
  0
LINE
  5
10B33
330
1F
100
AcDbEntity
  8
drg
370
     9
100
AcDbLine
 10
690.0051011566813
 20
-114.9392118920034
 30
0.0
 11
688.5051011566886
 21
-114.9392118920034
 31
0.0
  0
LINE
  5
10B34
330
1F
100
AcDbEntity
  8
drg
370
     9
100
AcDbLine
 10
692.9787011566861
 20
-114.425125654868
 30
0.0
 11
690.692701156686
 21
-114.425125654868
 31
0.0
  0
LINE
  5
10B35
330
1F
100
AcDbEntity
  8
drg
370
     9
100
AcDbLine
 10
693.1311011566852
 20
-107.1461118920044
 30
0.0
 11
695.6965011559934
 21
-107.1461118920044
 31
0.0
  0
LINE
  5
10B36
330
1F
100
AcDbEntity
  8
drg
370
     9
100
AcDbLine
 10
688.3305011560062
 20
-105.8926338107996
 30
0.0
 11
695.696501156008
 21
-105.8926338107996
 31
0.0
  0
ARC
  5
10B37
330
1F
100
AcDbEntity
  8
drg
370
     9
100
AcDbCircle
 10
701.7364119589458
 20
-114.0166280711712
 30
0.0
 40
7.810409214091027
100
AcDbArc
 50
288.7264187130131
 51
347.6710174905298
  0
ARC
  5
10B38
330
1F
100
AcDbEntity
  8
drg
370
     9
100
AcDbCircle
 10
702.983457323635
 20
-124.3276426201494
 30
0.0
 40
3.174999999206249
100
AcDbArc
 50
17.58038464969762
 51
85.00000000002634
  0
LINE
  5
10B39
330
1F
100
AcDbEntity
  8
AM_7
  6
CENTER
100
AcDbLine
 10
746.6355088419279
 20
208.4188306825867
 30
0.0
 11
746.6355088419279
 21
329.4986396221451
 31
0.0
  0
ARC
  5
10B3A
330
1F
100
AcDbEntity
  8
drg
 48
10.0
100
AcDbCircle
 10
746.6355088419279
 20
269.020913341746
 30
0.0
 40
54.85840442064
100
AcDbArc
 50
33.43055857010622
 51
146.5694414298937
  0
DIMENSION
  5
10B3B
102
{ACAD_XDICTIONARY
360
10B3C
102
}
102
{ACAD_REACTORS
330
10B3D
102
}
330
1F
100
AcDbEntity
  8
AM_5
100
AcDbDimension
  2
*D3
 10
846.8239185575642
 20
104.0127880704698
 30
0.0
 11
839.9239185575641
 21
132.2024295369165
 31
0.0
 70
    32
 71
     5
 42
56.37928293289313
  3
AM_ISO
100
AcDbAlignedDimension
 13
768.3948526666884
 23
160.3920710033629
 33
0.0
 14
826.602780679603
 24
104.0127880704698
 34
0.0
 50
90.0
100
AcDbRotatedDimension
1001
ACAD
1000
DSTYLE
1002
{
1070
    40
1040
3.0
1070
   271
1070
     0
1070
   272
1070
     8
1002
}
  0
LINE
  5
10B3E
330
1F
100
AcDbEntity
  8
drg
370
    20
100
AcDbLine
 10
773.514590661189
 20
135.7627880704671
 30
0.0
 11
773.514590661189
 21
137.3200545646599
 31
0.0
  0
LINE
  5
10B3F
330
1F
100
AcDbEntity
  8
drg
370
    20
100
AcDbLine
 10
767.1150357088065
 20
135.7627880704671
 30
0.0
 11
767.1150357088065
 21
137.3200545646599
 31
0.0
  0
LINE
  5
10B40
330
1F
100
AcDbEntity
  8
drg
370
    20
100
AcDbLine
 10
768.3949466992837
 20
135.7627880704671
 30
0.0
 11
768.3949466992837
 21
137.3200545646599
 31
0.0
  0
LINE
  5
10B41
330
1F
100
AcDbEntity
  8
drg
370
    20
100
AcDbLine
 10
769.674857689761
 20
135.7627880704671
 30
0.0
 11
769.674857689761
 21
137.3200545646599
 31
0.0
  0
LINE
  5
10B42
330
1F
100
AcDbEntity
  8
drg
370
    20
100
AcDbLine
 10
769.674857689761
 20
135.7627880704671
 30
0.0
 11
769.674857689761
 21
137.3200545646599
 31
0.0
  0
LINE
  5
10B43
330
1F
100
AcDbEntity
  8
drg
370
    20
100
AcDbLine
 10
770.9547686802346
 20
135.7627880704671
 30
0.0
 11
770.9547686802346
 21
137.3200545646599
 31
0.0
  0
LINE
  5
10B44
330
1F
100
AcDbEntity
  8
drg
370
    20
100
AcDbLine
 10
772.2346796707154
 20
135.7627880704671
 30
0.0
 11
772.2346796707154
 21
137.3200545646599
 31
0.0
  0
LINE
  5
10B45
330
1F
100
AcDbEntity
  8
drg
370
    20
100
AcDbLine
 10
759.6354618256212
 20
135.7627880704671
 30
0.0
 11
759.6354618256212
 21
137.3200545646599
 31
0.0
  0
LINE
  5
10B46
330
1F
100
AcDbEntity
  8
drg
370
    20
100
AcDbLine
 10
760.715480756424
 20
135.7627880704671
 30
0.0
 11
760.715480756424
 21
137.3200545646599
 31
0.0
  0
LINE
  5
10B47
330
1F
100
AcDbEntity
  8
drg
370
    20
100
AcDbLine
 10
761.9953917468976
 20
135.7627880704671
 30
0.0
 11
761.9953917468976
 21
137.3200545646599
 31
0.0
  0
LINE
  5
10B48
330
1F
100
AcDbEntity
  8
drg
370
    20
100
AcDbLine
 10
763.2753027373785
 20
135.7627880704671
 30
0.0
 11
763.2753027373785
 21
137.3200545646599
 31
0.0
  0
LINE
  5
10B49
330
1F
100
AcDbEntity
  8
drg
370
    20
100
AcDbLine
 10
764.5552137278557
 20
135.7627880704671
 30
0.0
 11
764.5552137278557
 21
137.3200545646599
 31
0.0
  0
LINE
  5
10B4A
330
1F
100
AcDbEntity
  8
drg
370
    20
100
AcDbLine
 10
761.9953917468976
 20
135.7627880704671
 30
0.0
 11
761.9953917468976
 21
137.3200545646599
 31
0.0
  0
LINE
  5
10B4B
330
1F
100
AcDbEntity
  8
drg
370
    20
100
AcDbLine
 10
765.8351247183293
 20
135.7627880704671
 30
0.0
 11
765.8351247183293
 21
137.3200545646599
 31
0.0
  0
LINE
  5
10B4C
330
1F
100
AcDbEntity
  8
drg
370
    20
100
AcDbLine
 10
765.8351247183293
 20
135.7627880704671
 30
0.0
 11
765.8351247183293
 21
137.3200545646599
 31
0.0
  0
LINE
  5
10B4D
330
1F
100
AcDbEntity
  8
drg
370
    20
100
AcDbLine
 10
759.6355558582165
 20
135.7627880704671
 30
0.0
 11
759.6355558582165
 21
137.3200545646599
 31
0.0
  0
LINE
  5
10B4E
330
1F
100
AcDbEntity
  8
cen
100
AcDbLine
 10
746.6355088419279
 20
154.7964305656436
 30
0.0
 11
746.6355088419279
 21
119.3718162767962
 31
0.0
  0
LINE
  5
10B4F
330
1F
100
AcDbEntity
  8
drg
100
AcDbLine
 10
758.8910088419273
 20
149.8440380704663
 30
0.0
 11
758.8910088419273
 21
134.7627880704661
 31
0.0
  0
LINE
  5
10B50
330
1F
100
AcDbEntity
  8
drg
100
AcDbLine
 10
753.6751484179115
 20
149.8440380704663
 30
0.0
 11
753.6751484179115
 21
134.7627880704661
 31
0.0
  0
LINE
  5
10B51
330
1F
100
AcDbEntity
  8
drg
100
AcDbLine
 10
751.8036442890664
 20
149.8440380704777
 30
0.0
 11
751.8036442890664
 21
134.7627880704661
 31
0.0
  0
LINE
  5
10B52
330
1F
100
AcDbEntity
  8
drg
100
AcDbLine
 10
741.4673733947859
 20
149.8440380704777
 30
0.0
 11
741.4673733947859
 21
134.7627880704661
 31
0.0
  0
LINE
  5
10B53
330
1F
100
AcDbEntity
  8
drg
100
AcDbLine
 10
739.5958692659444
 20
149.8440380704663
 30
0.0
 11
739.5958692659444
 21
134.7627880704661
 31
0.0
  0
LINE
  5
10B54
330
1F
100
AcDbEntity
  8
drg
100
AcDbLine
 10
734.3800088419268
 20
149.8440380704663
 30
0.0
 11
734.3800088419268
 21
134.7627880704661
 31
0.0
  0
LINE
  5
10B55
330
1F
100
AcDbEntity
  8
cen
370
     9
100
AcDbLine
 10
746.6355088419279
 20
142.555646014879
 30
0.0
 11
746.6355088419279
 21
29.54913234769117
 31
0.0
  0
LINE
  5
10B59
330
1F
100
AcDbEntity
  8
drg
370
     9
100
AcDbLine
 10
802.0480088419338
 20
127.684202445275
 30
0.0
 11
778.0367193310942
 21
127.6842024452729
 31
0.0
  0
LINE
  5
10B5A
330
1F
100
AcDbEntity
  8
drg
370
     9
100
AcDbLine
 10
802.0480088419338
 20
133.2387880704683
 30
0.0
 11
776.3069152477385
 21
133.2387880704704
 31
0.0
  0
LINE
  5
10B5B
330
1F
100
AcDbEntity
  8
drg
370
     9
100
AcDbLine
 10
802.0480088419374
 20
79.34137369566485
 30
0.0
 11
792.0114776570247
 21
79.34137369566485
 31
0.0
  0
ARC
  5
10B5C
330
1F
100
AcDbEntity
  8
drg
370
     9
100
AcDbCircle
 10
809.8945836022233
 20
99.00753705066689
 30
0.0
 40
26.58126143269126
100
AcDbArc
 50
222.2349126982789
 51
251.5892657864989
  0
LINE
  5
10B5D
330
1F
100
AcDbEntity
  8
drg
370
     9
100
AcDbLine
 10
693.359008841928
 20
41.27478807046862
 30
0.0
 11
799.9120088419279
 21
41.2747880704668
 31
0.0
  0
LINE
  5
10B5E
102
{ACAD_REACTORS
330
10B3D
330
10AE3
102
}
330
1F
100
AcDbEntity
  8
cen
370
     9
100
AcDbLine
 10
670.52092317252
 20
104.0127880704698
 30
0.0
 11
826.602780679603
 21
104.0127880704698
 31
0.0
  0
LINE
  5
10B5F
330
1F
100
AcDbEntity
  8
drg
370
     9
100
AcDbLine
 10
691.7715088419265
 20
73.78678807047106
 30
0.0
 11
691.7715088419265
 21
42.86228807046825
 31
0.0
  0
LINE
  5
10B60
330
1F
100
AcDbEntity
  8
drg
370
     9
100
AcDbLine
 10
793.1175088302973
 20
41.27478807046862
 30
0.0
 11
700.1535088535513
 21
41.27478807046862
 31
0.0
  0
ARC
  5
10B61
330
1F
100
AcDbEntity
  8
drg
370
     9
100
AcDbCircle
 10
697.7292822592264
 20
37.00353804747226
 30
0.0
 40
3.174999999206249
100
AcDbArc
 50
274.9999999999736
 51
1.468148199842941
  0
ARC
  5
10B62
330
1F
100
AcDbEntity
  8
drg
370
     9
100
AcDbCircle
 10
694.7082236718836
 20
28.86837477028928
 30
0.0
 40
5.403833459935146
100
AcDbArc
 50
251.3337646162229
 51
330.3397768905031
  0
LINE
  5
10B63
330
1F
100
AcDbEntity
  8
cen
370
     9
100
AcDbLine
 10
713.7168561380588
 20
28.57478807364202
 30
0.0
 11
684.556485093961
 21
28.57478807364202
 31
0.0
  0
LINE
  5
10B64
330
1F
100
AcDbEntity
  8
drg
370
     9
100
AcDbLine
 10
689.5825782185696
 20
20.28168807364307
 30
0.0
 11
689.5825782185696
 21
26.07478807364203
 31
0.0
  0
LINE
  5
10B65
330
1F
100
AcDbEntity
  8
drg
370
     9
100
AcDbLine
 10
688.3051011566842
 20
20.28168807364307
 30
0.0
 11
688.3051011566842
 21
33.7436880736426
 31
0.0
  0
LINE
  5
10B66
330
1F
100
AcDbEntity
  8
drg
370
     9
100
AcDbLine
 10
690.692701156686
 20
20.28168807364307
 30
0.0
 11
690.692701156686
 21
33.7436880736426
 31
0.0
  0
LINE
  5
10B67
330
1F
100
AcDbEntity
  8
drg
370
     9
100
AcDbLine
 10
692.9787011566861
 20
20.28168807364307
 30
0.0
 11
692.9787011566861
 21
33.7436880736426
 31
0.0
  0
LINE
  5
10B68
330
1F
100
AcDbEntity
  8
drg
370
     9
100
AcDbLine
 10
695.6965011559934
 20
18.81736618920001
 30
0.0
 11
688.3305011560062
 21
18.81736618920001
 31
0.0
  0
LINE
  5
10B69
330
1F
100
AcDbEntity
  8
drg
370
     9
100
AcDbLine
 10
695.6965011559934
 20
20.28168807364307
 30
0.0
 11
688.3051011566842
 21
20.28168807364307
 31
0.0
  0
LINE
  5
10B6A
330
1F
100
AcDbEntity
  8
drg
370
     9
100
AcDbLine
 10
693.9559023125314
 20
18.81736618920001
 30
0.0
 11
693.9559023125314
 21
20.28168807364307
 31
0.0
  0
LINE
  5
10B6B
330
1F
100
AcDbEntity
  8
drg
370
     9
100
AcDbLine
 10
689.5825782185696
 20
31.07478807364203
 30
0.0
 11
689.5825782185696
 21
33.7436880736426
 31
0.0
  0
LINE
  5
10B6C
330
1F
100
AcDbEntity
  8
drg
370
     9
100
AcDbLine
 10
692.9787011566861
 20
23.7487880748489
 30
0.0
 11
692.9787011566861
 21
33.40078807243697
 31
0.0
  0
LINE
  5
10B6D
330
1F
100
AcDbEntity
  8
drg
370
     9
100
AcDbLine
 10
690.692701156686
 20
31.07478807364203
 30
0.0
 11
688.5051011566886
 21
31.07478807364203
 31
0.0
  0
LINE
  5
10B6E
330
1F
100
AcDbEntity
  8
drg
370
     9
100
AcDbLine
 10
690.692701156686
 20
26.07478807364203
 30
0.0
 11
688.5051011566886
 21
26.07478807364203
 31
0.0
  0
LINE
  5
10B6F
330
1F
100
AcDbEntity
  8
drg
370
     9
100
AcDbLine
 10
688.5051011566886
 20
26.07478807364203
 30
0.0
 11
688.5051011566886
 21
28.07478807364294
 31
0.0
  0
LINE
  5
10B70
330
1F
100
AcDbEntity
  8
drg
370
     9
100
AcDbLine
 10
690.0051011566813
 20
28.07478807364294
 30
0.0
 11
688.5051011566886
 21
28.07478807364294
 31
0.0
  0
LINE
  5
10B71
330
1F
100
AcDbEntity
  8
drg
370
     9
100
AcDbLine
 10
690.0051011566813
 20
29.07478807364384
 30
0.0
 11
688.5051011566886
 21
29.07478807364384
 31
0.0
  0
LINE
  5
10B72
330
1F
100
AcDbEntity
  8
drg
370
     9
100
AcDbLine
 10
690.0051011566813
 20
28.07478807364294
 30
0.0
 11
690.0051011566813
 21
29.07478807364384
 31
0.0
  0
LINE
  5
10B73
330
1F
100
AcDbEntity
  8
drg
370
     9
100
AcDbLine
 10
688.5051011566886
 20
29.07478807364384
 30
0.0
 11
688.5051011566886
 21
31.07478807364203
 31
0.0
  0
LINE
  5
10B74
330
1F
100
AcDbEntity
  8
drg
370
     9
100
AcDbLine
 10
692.9787011566861
 20
27.56070183650661
 30
0.0
 11
690.692701156686
 21
27.56070183650661
 31
0.0
  0
LINE
  5
10B75
330
1F
100
AcDbEntity
  8
drg
370
     9
100
AcDbLine
 10
696.8980661050866
 20
33.7436880736426
 30
0.0
 11
688.3051011566842
 21
33.7436880736426
 31
0.0
  0
LINE
  5
10B76
330
1F
100
AcDbEntity
  8
drg
370
     9
100
AcDbLine
 10
698.0060017423804
 20
33.84061988182236
 30
0.0
 11
696.8980661050866
 21
33.7436880736426
 31
0.0
  0
ARC
  5
10B77
330
1F
100
AcDbEntity
  8
drg
370
     9
100
AcDbCircle
 10
693.359008841928
 20
42.86228807046825
 30
0.0
 40
1.587499999999999
100
AcDbArc
 50
180.0
 51
270.0
  0
ARC
  5
10B78
330
1F
100
AcDbEntity
  8
drg
370
     9
100
AcDbCircle
 10
696.7053646349943
 20
26.90707366453478
 30
0.0
 40
7.810409214091027
100
AcDbArc
 50
12.32898250947024
 51
70.34994416777663
  0
LINE
  5
10B79
330
1F
100
AcDbEntity
  8
drg
370
     9
100
AcDbLine
 10
700.9032399781992
 20
37.08488540827091
 30
0.0
 11
700.7958543247789
 21
41.27478807046862
 31
0.0
  0
LINE
  5
10B7A
330
1F
100
AcDbEntity
  8
drg
370
     9
100
AcDbLine
 10
758.8478126023531
 20
40.78629592005052
 30
0.0
 11
746.6355088419279
 21
41.27478807046862
 31
0.0
  0
LINE
  5
10B7B
330
1F
100
AcDbEntity
  8
drg
370
     9
100
AcDbLine
 10
746.6355088419279
 20
41.27478807046862
 30
0.0
 11
734.4232050815028
 21
40.78629592005052
 31
0.0
  0
ARC
  5
10B7C
330
1F
100
AcDbEntity
  8
drg
370
     9
100
AcDbCircle
 10
734.4435088449811
 20
40.27870183314678
 30
0.0
 40
0.5079999998729999
100
AcDbArc
 50
92.2906100426395
 51
180.0
  0
ARC
  5
10B7D
330
1F
100
AcDbEntity
  8
drg
370
     9
100
AcDbCircle
 10
758.8275088388748
 20
40.27870183314678
 30
0.0
 40
0.5079999998729999
100
AcDbArc
 50
0.0
 51
87.70938995736051
  0
LINE
  5
10B7E
330
1F
100
AcDbEntity
  8
drg
370
     9
100
AcDbLine
 10
704.2324484708935
 20
81.66078807048268
 30
0.0
 11
789.0385692129768
 21
81.66078807046176
 31
0.0
  0
LINE
  5
10B7F
330
1F
100
AcDbEntity
  8
drg
370
     9
100
AcDbLine
 10
713.8389039917804
 20
134.7627880704643
 30
0.0
 11
779.4321136920755
 21
134.7627880704698
 31
0.0
  0
LINE
  5
10B80
330
1F
100
AcDbEntity
  8
drg
370
     9
100
AcDbLine
 10
679.635508841928
 20
131.651288070468
 30
0.0
 11
679.635508841928
 21
75.37428807047252
 31
0.0
  0
LINE
  5
10B81
330
1F
100
AcDbEntity
  8
drg
370
     9
100
AcDbLine
 10
716.9638533583841
 20
133.2317949315424
 30
0.0
 11
715.3095287228918
 21
87.78476062616789
 31
0.0
  0
LINE
  5
10B82
330
1F
100
AcDbEntity
  8
drg
370
     9
100
AcDbLine
 10
681.2230088419221
 20
79.34137369566485
 30
0.0
 11
701.2595400268312
 21
79.34137369566485
 31
0.0
  0
ARC
  5
10B83
330
1F
100
AcDbEntity
  8
drg
370
     9
100
AcDbCircle
 10
683.3764340816253
 20
99.00753705066689
 30
0.0
 40
26.58126143269126
100
AcDbArc
 50
288.4107342135012
 51
317.7650873017757
  0
ARC
  5
10B84
330
1F
100
AcDbEntity
  8
drg
370
     9
100
AcDbCircle
 10
681.2230088419221
 20
80.92887369566359
 30
0.0
 40
1.587499999999999
100
AcDbArc
 50
180.0
 51
270.0
  0
ARC
  5
10B85
330
1F
100
AcDbEntity
  8
drg
370
     9
100
AcDbCircle
 10
681.2230088419221
 20
75.37428807047252
 30
0.0
 40
1.587499999999999
100
AcDbArc
 50
180.0
 51
270.0
  0
LINE
  5
10B86
330
1F
100
AcDbEntity
  8
drg
370
     9
100
AcDbLine
 10
691.7715088419265
 20
73.78678807047197
 30
0.0
 11
681.2230088419221
 21
73.78678807047197
 31
0.0
  0
ARC
  5
10B87
330
1F
100
AcDbEntity
  8
drg
370
     9
100
AcDbCircle
 10
708.9635527069824
 20
88.01078807046758
 30
0.0
 40
6.349999999999999
100
AcDbArc
 50
270.0
 51
357.9601330931068
  0
ARC
  5
10B88
330
1F
100
AcDbEntity
  8
drg
370
     9
100
AcDbCircle
 10
704.2324484708935
 20
80.07328807048395
 30
0.0
 40
1.587499999999999
100
AcDbArc
 50
90.0
 51
137.7650873017769
  0
LINE
  5
10B89
330
1F
100
AcDbEntity
  8
drg
370
     9
100
AcDbLine
 10
681.2230088419221
 20
127.6842024452747
 30
0.0
 11
715.2342983527471
 21
127.6842024452729
 31
0.0
  0
LINE
  5
10B8A
330
1F
100
AcDbEntity
  8
drg
370
     9
100
AcDbLine
 10
716.9641024361101
 20
133.2387880704722
 30
0.0
 11
681.2230088419221
 21
133.2387880704676
 31
0.0
  0
ARC
  5
10B8B
330
1F
100
AcDbEntity
  8
drg
370
     9
100
AcDbCircle
 10
681.2230088419221
 20
131.651288070468
 30
0.0
 40
1.587499999999999
100
AcDbArc
 50
90.0
 51
180.0
  0
ARC
  5
10B8C
330
1F
100
AcDbEntity
  8
drg
370
     9
100
AcDbCircle
 10
681.2230088419221
 20
126.0967024452742
 30
0.0
 40
1.587499999999999
100
AcDbArc
 50
90.0
 51
180.0
  0
ARC
  5
10B8D
330
1F
100
AcDbEntity
  8
drg
370
     9
100
AcDbCircle
 10
715.2342983527471
 20
129.2717024452735
 30
0.0
 40
1.587499999999999
100
AcDbArc
 50
270.0
 51
357.9601330931035
  0
ARC
  5
10B8E
330
1F
100
AcDbEntity
  8
drg
370
     9
100
AcDbCircle
 10
713.8389039917804
 20
125.2377880704692
 30
0.0
 40
9.524999999999998
100
AcDbArc
 50
90.0
 51
122.8598803788397
  0
ARC
  5
10B8F
330
1F
100
AcDbEntity
  8
drg
370
     9
100
AcDbCircle
 10
718.5503473623523
 20
133.1752880704665
 30
0.0
 40
1.587499999999999
100
AcDbArc
 50
90.0
 51
177.9601330931067
  0
LINE
  5
10B90
330
1F
100
AcDbEntity
  8
drg
370
     9
100
AcDbLine
 10
776.3071643254718
 20
133.2317949315433
 30
0.0
 11
777.961488960964
 21
87.78476062616425
 31
0.0
  0
ARC
  5
10B91
330
1F
100
AcDbEntity
  8
drg
370
     9
100
AcDbCircle
 10
784.3074649768734
 20
88.01078807046394
 30
0.0
 40
6.349999999999999
100
AcDbArc
 50
182.0398669068948
 51
270.0
  0
ARC
  5
10B92
330
1F
100
AcDbEntity
  8
drg
370
     9
100
AcDbCircle
 10
789.0385692129768
 20
80.07328807046395
 30
0.0
 40
1.587499999999999
100
AcDbArc
 50
42.23491269831751
 51
90.0
  0
LINE
  5
10B93
330
1F
100
AcDbEntity
  8
drg
370
    20
100
AcDbLine
 10
773.514590661189
 20
135.7627880704634
 30
0.0
 11
759.635508841917
 21
135.7627880704671
 31
0.0
  0
LINE
  5
10B94
330
1F
100
AcDbEntity
  8
drg
100
AcDbLine
 10
758.8910088419273
 20
134.7627880704661
 30
0.0
 11
734.3800088419268
 21
134.7627880704661
 31
0.0
  0
LINE
  5
10B95
330
1F
100
AcDbEntity
  8
drg
370
    20
100
AcDbLine
 10
758.8910088419273
 20
135.7627880704668
 30
0.0
 11
759.635508841917
 21
135.7627880704671
 31
0.0
  0
ARC
  5
10B96
330
1F
100
AcDbEntity
  8
drg
370
     9
100
AcDbCircle
 10
779.4321136920755
 20
125.2377880704692
 30
0.0
 40
9.524999999999998
100
AcDbArc
 50
57.14011962115939
 51
90.0
  0
ARC
  5
10B97
330
1F
100
AcDbEntity
  8
drg
370
     9
100
AcDbCircle
 10
778.0367193310942
 20
129.2717024452735
 30
0.0
 40
1.587499999999999
100
AcDbArc
 50
182.0398669068948
 51
270.0
  0
LINE
  5
10B98
330
1F
100
AcDbEntity
  8
hatch
370
     5
100
AcDbLine
 10
773.514590661189
 20
135.7627880704634
 30
0.0
 11
773.514590661189
 21
134.7627880704671
 31
0.0
  0
ARC
  5
10B99
330
1F
100
AcDbEntity
  8
drg
370
     9
100
AcDbCircle
 10
774.720670321489
 20
133.1752880704683
 30
0.0
 40
1.587499999999999
100
AcDbArc
 50
2.039866906896496
 51
90.0
  0
LINE
  5
10B9A
330
1F
100
AcDbEntity
  8
drg
370
     9
100
AcDbLine
 10
801.4995088419221
 20
73.78678807047129
 30
0.0
 11
801.4995088419221
 21
42.86228807046825
 31
0.0
  0
ARC
  5
10B9B
330
1F
100
AcDbEntity
  8
drg
370
     9
100
AcDbCircle
 10
799.9120088419279
 20
42.86228807046825
 30
0.0
 40
1.587499999999999
100
AcDbArc
 50
270.0
 51
0.0
  0
LINE
  5
10B9C
330
1F
100
AcDbEntity
  8
drg
370
     9
100
AcDbLine
 10
803.6355088419279
 20
131.6512880704707
 30
0.0
 11
803.6355088419316
 21
75.37428807047525
 31
0.0
  0
ARC
  5
10B9D
330
1F
100
AcDbEntity
  8
drg
370
     9
100
AcDbCircle
 10
802.0480088419374
 20
80.9288736956662
 30
0.0
 40
1.587499999999999
100
AcDbArc
 50
270.0
 51
0.0000000000032569
  0
ARC
  5
10B9E
330
1F
100
AcDbEntity
  8
drg
370
     9
100
AcDbCircle
 10
802.0480088419374
 20
75.37428807047513
 30
0.0
 40
1.587499999999999
100
AcDbArc
 50
270.0
 51
0.0000000000032569
  0
LINE
  5
10B9F
330
1F
100
AcDbEntity
  8
drg
370
     9
100
AcDbLine
 10
801.4995088419329
 20
73.78678807047447
 30
0.0
 11
802.0480088419374
 21
73.78678807047458
 31
0.0
  0
ARC
  5
10BA0
330
1F
100
AcDbEntity
  8
drg
370
     9
100
AcDbCircle
 10
802.0480088419338
 20
126.0967024452768
 30
0.0
 40
1.587499999999999
100
AcDbArc
 50
0.0000000000032569
 51
90.0
  0
ARC
  5
10BA1
330
1F
100
AcDbEntity
  8
drg
370
     9
100
AcDbCircle
 10
802.0480088419338
 20
131.6512880704706
 30
0.0
 40
1.587499999999999
100
AcDbArc
 50
0.0000000000032569
 51
90.0
  0
LINE
  5
10BA2
330
1F
100
AcDbEntity
  8
drg
 48
10.0
100
AcDbLine
 10
776.1957702947094
 20
299.2438305920054
 30
0.0
 11
803.6452037484343
 21
299.2438305920044
 31
0.0
  0
LINE
  5
10BA3
330
1F
100
AcDbEntity
  8
drg
 48
10.0
100
AcDbLine
 10
803.6452037484343
 20
238.7979960914857
 30
0.0
 11
776.1957702947094
 21
238.7979960914866
 31
0.0
  0
LINE
  5
10BA4
330
1F
100
AcDbEntity
  8
cen
370
     9
100
AcDbLine
 10
673.6486838194703
 20
269.0209133417451
 30
0.0
 11
808.0848004458466
 21
269.0209133417451
 31
0.0
  0
ARC
  5
10BA5
330
1F
100
AcDbEntity
  8
drg
100
AcDbCircle
 10
746.6355088419279
 20
240.3011652079884
 30
0.0
 40
12.2555
100
AcDbArc
 50
294.9419162988156
 51
305.0580837011617
  0
ARC
  5
10BA6
330
1F
100
AcDbEntity
  8
drg
100
AcDbCircle
 10
746.6355088419279
 20
240.3011652079884
 30
0.0
 40
12.2555
100
AcDbArc
 50
234.9419162988262
 51
245.0580837011844
  0
CIRCLE
  5
10BA7
330
1F
100
AcDbEntity
  8
drg
100
AcDbCircle
 10
746.6355088419279
 20
240.3011652079884
 30
0.0
 40
11.1125000000006
  0
LINE
  5
10BA8
330
1F
100
AcDbEntity
  8
0
  6
CENTER
 62
     1
100
AcDbLine
 10
746.6355088419261
 20
253.4486138404381
 30
0.0
 11
746.6355088419279
 21
227.5491758312609
 31
0.0
  0
ARC
  5
10BA9
330
1F
100
AcDbEntity
  8
drg
 48
10.0
100
AcDbCircle
 10
746.6355088419279
 20
269.020913341746
 30
0.0
 40
42.2756878628
100
AcDbArc
 50
225.6350586650953
 51
314.3649413349047
  0
ARC
  5
10BAA
330
1F
100
AcDbEntity
  8
drg
 48
10.0
100
AcDbCircle
 10
746.6355088419279
 20
269.020913341746
 30
0.0
 40
43.68354426088
100
AcDbArc
 50
223.7775618312014
 51
316.2224381687987
  0
ARC
  5
10BAB
330
1F
100
AcDbEntity
  8
drg
 48
10.0
100
AcDbCircle
 10
746.6355088419279
 20
269.020913341746
 30
0.0
 40
54.85840442064
100
AcDbArc
 50
213.4305585701062
 51
326.5694414298938
  0
LINE
  5
10BAC
330
1F
100
AcDbEntity
  8
drg
370
    20
100
AcDbLine
 10
765.1950751904971
 20
153.9925160509768
 30
0.0
 11
761.3553422190691
 21
153.9925160509768
 31
0.0
  0
LINE
  5
10BAD
330
1F
100
AcDbEntity
  8
drg
370
    20
100
AcDbLine
 10
759.6354618256212
 20
148.2671317376829
 30
0.0
 11
768.3948526666884
 21
148.2671317376829
 31
0.0
  0
LINE
  5
10BAE
330
1F
100
AcDbEntity
  8
drg
370
    20
100
AcDbLine
 10
759.6354618256212
 20
150.3149893224493
 30
0.0
 11
770.9546746476428
 21
150.3149893224493
 31
0.0
  0
LINE
  5
10BAF
330
1F
100
AcDbEntity
  8
drg
370
    20
100
AcDbLine
 10
759.6354618256212
 20
152.874811303402
 30
0.0
 11
770.9546746476428
 21
152.874811303402
 31
0.0
  0
LINE
  5
10BB0
330
1F
100
AcDbEntity
  8
drg
370
    20
100
AcDbLine
 10
770.9546746476428
 20
157.8322490224067
 30
0.0
 11
759.6354618256212
 21
157.8322490224067
 31
0.0
  0
LINE
  5
10BB1
102
{ACAD_REACTORS
330
10B3D
102
}
330
1F
100
AcDbEntity
  8
drg
370
    20
100
AcDbLine
 10
759.6354618256212
 20
160.3920710033629
 30
0.0
 11
768.3948526666884
 21
160.3920710033629
 31
0.0
  0
LINE
  5
10BB4
330
1F
100
AcDbEntity
  8
drg
370
    20
100
AcDbLine
 10
759.6354618256212
 20
145.7073097567294
 30
0.0
 11
770.9546746476428
 21
145.7073097567294
 31
0.0
  0
LINE
  5
10BB5
330
1F
100
AcDbEntity
  8
drg
370
    20
100
AcDbLine
 10
759.6355558582165
 20
137.320054564659
 30
0.0
 11
773.514590661189
 21
137.3200545646599
 31
0.0
  0
ARC
  5
10BB6
330
1F
100
AcDbEntity
  8
drg
370
    20
100
AcDbCircle
 10
750.8760709845539
 20
157.8322490224067
 30
0.0
 40
2.559821980954586
100
AcDbArc
 50
90.0
 51
180.0
  0
LINE
  5
10BB7
330
1F
100
AcDbEntity
  8
drg
370
    20
100
AcDbLine
 10
746.7497949203264
 20
152.2348558081643
 30
0.0
 11
748.3162490035994
 21
152.874811303402
 31
0.0
  0
LINE
  5
10BB8
330
1F
100
AcDbEntity
  8
drg
100
AcDbLine
 10
758.8910088419273
 20
149.8440380704663
 30
0.0
 11
734.3800088419286
 21
149.8440380704663
 31
0.0
  0
LINE
  5
10BB9
330
1F
100
AcDbEntity
  8
drg
100
AcDbLine
 10
758.0972588419265
 20
150.6377880704661
 30
0.0
 11
735.1737588419293
 21
150.6377880704661
 31
0.0
  0
LINE
  5
10BBC
330
1F
100
AcDbEntity
  8
drg
100
AcDbLine
 10
735.1737588419257
 20
150.6377880704661
 30
0.0
 11
734.3800088419268
 21
149.8440380704663
 31
0.0
  0
LINE
  5
10BBD
330
1F
100
AcDbEntity
  8
drg
370
    20
100
AcDbLine
 10
746.7497949203264
 20
152.2348558081643
 30
0.0
 11
746.7497949203264
 21
150.9549448176861
 31
0.0
  0
LINE
  5
10BBE
330
1F
100
AcDbEntity
  8
drg
370
    20
100
AcDbLine
 10
746.7497949203264
 20
150.9549448176861
 30
0.0
 11
747.5261168449272
 21
150.6377880704661
 31
0.0
  0
LINE
  5
10BBF
330
1F
100
AcDbEntity
  8
drg
370
    20
100
AcDbLine
 10
760.0754312285955
 20
150.3149893224493
 30
0.0
 11
760.0754312285955
 21
148.2671317376829
 31
0.0
  0
LINE
  5
10BC1
330
1F
100
AcDbEntity
  8
drg
370
    20
100
AcDbLine
 10
763.9151642000236
 20
150.3149893224493
 30
0.0
 11
763.9151642000236
 21
148.2671317376829
 31
0.0
  0
LINE
  5
10BC3
330
1F
100
AcDbEntity
  8
drg
370
    20
100
AcDbLine
 10
761.3553422190691
 20
150.3149893224493
 30
0.0
 11
761.3553422190691
 21
148.2671317376829
 31
0.0
  0
LINE
  5
10BC5
330
1F
100
AcDbEntity
  8
drg
370
    20
100
AcDbLine
 10
762.6352532095427
 20
150.3149893224493
 30
0.0
 11
762.6352532095427
 21
148.2671317376829
 31
0.0
  0
LINE
  5
10BC7
330
1F
100
AcDbEntity
  8
drg
370
    20
100
AcDbLine
 10
759.6354618256212
 20
137.320054564659
 30
0.0
 11
759.635508841917
 21
137.320054564659
 31
0.0
  0
LINE
  5
10BC8
330
1F
100
AcDbEntity
  8
drg
370
    20
100
AcDbLine
 10
759.6355558582165
 20
137.320054564659
 30
0.0
 11
759.635508841917
 21
137.320054564659
 31
0.0
  0
LINE
  5
10BC9
330
1F
100
AcDbEntity
  8
drg
370
    20
100
AcDbLine
 10
759.6354618256212
 20
137.320054564659
 30
0.0
 11
758.8910088419273
 21
137.320054564659
 31
0.0
  0
LINE
  5
10BCA
330
1F
100
AcDbEntity
  8
drg
370
    20
100
AcDbLine
 10
759.6354618256212
 20
148.2671317376829
 30
0.0
 11
758.8910088419273
 21
148.2671317376829
 31
0.0
  0
LINE
  5
10BCB
330
1F
100
AcDbEntity
  8
drg
370
    20
100
AcDbLine
 10
759.6354618256212
 20
145.7073097567294
 30
0.0
 11
758.8910088419273
 21
145.7073097567294
 31
0.0
  0
LINE
  5
10BCC
330
1F
100
AcDbEntity
  8
drg
370
    20
100
AcDbLine
 10
759.6354618256212
 20
160.3920710033629
 30
0.0
 11
750.8760709845539
 21
160.3920710033629
 31
0.0
  0
LINE
  5
10BCD
330
1F
100
AcDbEntity
  8
drg
370
    20
100
AcDbLine
 10
754.0758484607452
 20
153.9925160509768
 30
0.0
 11
757.9155814321731
 21
153.9925160509768
 31
0.0
  0
LINE
  5
10BCE
330
1F
100
AcDbEntity
  8
drg
370
    20
100
AcDbLine
 10
759.6354618256212
 20
152.874811303402
 30
0.0
 11
748.3162490035994
 21
152.874811303402
 31
0.0
  0
LINE
  5
10BCF
330
1F
100
AcDbEntity
  8
drg
370
    20
100
AcDbLine
 10
748.3162490035994
 20
157.8322490224067
 30
0.0
 11
759.6354618256212
 21
157.8322490224067
 31
0.0
  0
LINE
  5
10BD0
330
1F
100
AcDbEntity
  8
drg
370
    20
100
AcDbLine
 10
753.0469951119323
 20
157.8322490224067
 30
0.0
 11
754.0758484607452
 21
153.9925160509768
 31
0.0
  0
LINE
  5
10BD1
330
1F
100
AcDbEntity
  8
drg
370
    20
100
AcDbLine
 10
751.2649688381627
 20
157.8322490224067
 30
0.0
 11
750.2361154893135
 21
153.9925160509768
 31
0.0
  0
LINE
  5
10BD2
330
1F
100
AcDbEntity
  8
drg
370
    20
100
AcDbLine
 10
748.3162490035994
 20
157.8322490224067
 30
0.0
 11
748.3162490035994
 21
152.874811303402
 31
0.0
  0
LINE
  5
10BD3
330
1F
100
AcDbEntity
  8
drg
370
    20
100
AcDbLine
 10
748.3162490035994
 20
153.9925160509768
 30
0.0
 11
750.2361154893135
 21
153.9925160509768
 31
0.0
  0
LINE
  5
10BD4
330
1F
100
AcDbEntity
  8
drg
370
    20
100
AcDbLine
 10
760.3264888702599
 20
157.8322490224067
 30
0.0
 11
761.3553422190691
 21
153.9925160509768
 31
0.0
  0
LINE
  5
10BD5
330
1F
100
AcDbEntity
  8
drg
370
    20
100
AcDbLine
 10
758.9444347810224
 20
157.8322490224067
 30
0.0
 11
757.9155814321731
 21
153.9925160509768
 31
0.0
  0
LINE
  5
10BD6
330
1F
100
AcDbEntity
  8
drg
100
AcDbLine
 10
758.0972588419265
 20
150.6377880704661
 30
0.0
 11
758.8910088419273
 21
149.8440380704663
 31
0.0
  0
LINE
  5
10BD7
330
1F
100
AcDbEntity
  8
drg
370
    20
100
AcDbLine
 10
758.55553692741
 20
150.3149893224493
 30
0.0
 11
758.55553692741
 21
150.1795099849821
 31
0.0
  0
LINE
  5
10BD8
330
1F
100
AcDbEntity
  8
drg
370
    20
100
AcDbLine
 10
759.6354618256212
 20
150.3149893224493
 30
0.0
 11
758.4200575899451
 21
150.3149893224493
 31
0.0
  0
ARC
  5
10BD9
330
1F
100
AcDbEntity
  8
drg
370
    20
100
AcDbCircle
 10
768.3948526666884
 20
157.8322490224067
 30
0.0
 40
2.559821980954586
100
AcDbArc
 50
0.0
 51
90.0
  0
LINE
  5
10BDA
330
1F
100
AcDbEntity
  8
drg
370
    20
100
AcDbLine
 10
768.3948526666884
 20
150.3149893224493
 30
0.0
 11
768.3948526666884
 21
148.2671317376829
 31
0.0
  0
LINE
  5
10BDB
330
1F
100
AcDbEntity
  8
drg
370
    20
100
AcDbLine
 10
767.7548971714515
 20
150.3149893224493
 30
0.0
 11
767.7548971714515
 21
148.2671317376829
 31
0.0
  0
LINE
  5
10BDD
330
1F
100
AcDbEntity
  8
drg
370
    20
100
AcDbLine
 10
766.474986180978
 20
150.3149893224493
 30
0.0
 11
766.474986180978
 21
148.2671317376829
 31
0.0
  0
LINE
  5
10BDE
330
1F
100
AcDbEntity
  8
drg
370
    20
100
AcDbLine
 10
765.1950751904971
 20
150.3149893224493
 30
0.0
 11
765.1950751904971
 21
148.2671317376829
 31
0.0
  0
LINE
  5
10BE1
330
1F
100
AcDbEntity
  8
drg
370
    20
100
AcDbLine
 10
770.9546746476428
 20
145.7073097567294
 30
0.0
 11
770.9546746476428
 21
137.3200545646599
 31
0.0
  0
LINE
  5
10BE2
330
1F
100
AcDbEntity
  8
drg
370
    20
100
AcDbLine
 10
770.9546746476428
 20
145.7073097567294
 30
0.0
 11
768.3948526666884
 21
148.2671317376829
 31
0.0
  0
LINE
  5
10BE3
330
1F
100
AcDbEntity
  8
drg
370
    20
100
AcDbLine
 10
770.9546746476428
 20
157.8322490224067
 30
0.0
 11
770.9546746476428
 21
152.874811303402
 31
0.0
  0
LINE
  5
10BE4
330
1F
100
AcDbEntity
  8
drg
370
    20
100
AcDbLine
 10
768.0059548131196
 20
157.8322490224067
 30
0.0
 11
769.0348081619288
 21
153.9925160509768
 31
0.0
  0
LINE
  5
10BE5
330
1F
100
AcDbEntity
  8
drg
370
    20
100
AcDbLine
 10
766.2239285393864
 20
157.8322490224067
 30
0.0
 11
765.1950751904971
 21
153.9925160509768
 31
0.0
  0
LINE
  5
10BE6
330
1F
100
AcDbEntity
  8
drg
370
    20
100
AcDbLine
 10
772.5211287309122
 20
152.2348558081643
 30
0.0
 11
772.5211287309122
 21
150.9549448176861
 31
0.0
  0
LINE
  5
10BE7
330
1F
100
AcDbEntity
  8
drg
370
    20
100
AcDbLine
 10
770.9546746476428
 20
153.9925160509768
 30
0.0
 11
769.0348081619288
 21
153.9925160509768
 31
0.0
  0
LINE
  5
10BE8
330
1F
100
AcDbEntity
  8
drg
370
    20
100
AcDbLine
 10
772.5211287309122
 20
150.9549448176861
 30
0.0
 11
770.9546746476428
 21
150.3149893224493
 31
0.0
  0
LINE
  5
10BE9
330
1F
100
AcDbEntity
  8
drg
370
    20
100
AcDbLine
 10
772.5211287309122
 20
152.2348558081643
 30
0.0
 11
770.9546746476428
 21
152.874811303402
 31
0.0
  0
LWPOLYLINE
  5
10BEA
330
1F
100
AcDbEntity
  8
drg
100
AcDbPolyline
 90
        2
 70
     0
 43
0.0
 10
741.4673733947859
 20
229.1886652079855
 10
751.8036442890681
 20
229.1886652079855
  0
LINE
  5
10BEB
330
1F
100
AcDbEntity
  8
drg
100
AcDbLine
 10
697.6504029780183
 20
269.0209133417448
 30
0.0
 11
692.8879029780193
 21
265.2584133417448
 31
0.0
  0
LINE
  5
10BEC
330
1F
100
AcDbEntity
  8
drg
100
AcDbLine
 10
697.6504029780183
 20
269.0209133417448
 30
0.0
 11
692.8879029780193
 21
272.7834133417456
 31
0.0
  0
ARC
  5
10BED
330
1F
100
AcDbEntity
  8
drg
 48
10.0
100
AcDbCircle
 10
746.6355088419279
 20
269.020913341746
 30
0.0
 40
43.68354426088
100
AcDbArc
 50
43.77756183120136
 51
136.2224381687986
  0
LINE
  5
10BEE
330
1F
100
AcDbEntity
  8
drg
100
AcDbLine
 10
679.635508841928
 20
238.7979960914866
 30
0.0
 11
679.635508841928
 21
299.2438305920054
 31
0.0
  0
LINE
  5
10BEF
330
1F
100
AcDbEntity
  8
drg
100
AcDbLine
 10
679.635508841928
 20
285.6898258933783
 30
0.0
 11
679.635508841928
 21
252.3520007901119
 31
0.0
  0
LINE
  5
10BF0
330
1F
100
AcDbEntity
  8
drg
 48
10.0
100
AcDbLine
 10
717.0752473891464
 20
238.7979960914866
 30
0.0
 11
679.635508841928
 21
238.7979960914866
 31
0.0
  0
LINE
  5
10BF1
330
1F
100
AcDbEntity
  8
drg
100
AcDbLine
 10
692.8879029780193
 20
267.4334133417456
 30
0.0
 11
692.8879029780193
 21
265.2584133417448
 31
0.0
  0
LINE
  5
10BF2
330
1F
100
AcDbEntity
  8
drg
100
AcDbLine
 10
692.8879029780193
 20
270.6084133417448
 30
0.0
 11
692.8879029780193
 21
272.7834133417456
 31
0.0
  0
LINE
  5
10BF3
330
1F
100
AcDbEntity
  8
drg
100
AcDbLine
 10
685.0744311095284
 20
270.6084133417448
 30
0.0
 11
692.8879029780193
 21
270.6084133417448
 31
0.0
  0
LINE
  5
10BF4
330
1F
100
AcDbEntity
  8
drg
100
AcDbLine
 10
685.0744311095284
 20
267.4334133417456
 30
0.0
 11
692.8879029780193
 21
267.4334133417456
 31
0.0
  0
LINE
  5
10BF5
330
1F
100
AcDbEntity
  8
drg
100
AcDbLine
 10
685.0744311095284
 20
269.0209133417448
 30
0.0
 11
685.0744311095284
 21
270.6084133417448
 31
0.0
  0
LINE
  5
10BF6
330
1F
100
AcDbEntity
  8
drg
100
AcDbLine
 10
685.0744311095284
 20
269.0209133417448
 30
0.0
 11
685.0744311095284
 21
267.4334133417456
 31
0.0
  0
LINE
  5
10BF7
330
1F
100
AcDbEntity
  8
drg
 48
10.0
100
AcDbLine
 10
679.635508841928
 20
299.2438305920054
 30
0.0
 11
717.0752473891464
 21
299.2438305920054
 31
0.0
  0
CIRCLE
  5
10BF8
330
1F
100
AcDbEntity
  8
0
100
AcDbCircle
 10
760.0975088419202
 20
288.3249133417452
 30
0.0
 40
17.72327418001239
  0
CIRCLE
  5
10BF9
330
1F
100
AcDbEntity
  8
0
100
AcDbCircle
 10
760.0975088419275
 20
288.3249133417452
 30
0.0
 40
16.15840800000001
  0
CIRCLE
  5
10BFA
330
1F
100
AcDbEntity
  8
0
100
AcDbCircle
 10
760.0975088419275
 20
288.3249133417452
 30
0.0
 40
15.00423599999999
  0
CIRCLE
  5
10BFB
330
1F
100
AcDbEntity
  8
0
100
AcDbCircle
 10
760.0975088419202
 20
288.3249133417452
 30
0.0
 40
15.004236
  0
LINE
  5
10BFC
330
1F
100
AcDbEntity
  8
AM_7
  6
CENTER
100
AcDbLine
 10
760.0975088419202
 20
305.0531444348644
 30
0.0
 11
760.0975088419202
 21
271.5043410784456
 31
0.0
  0
LINE
  5
10BFE
330
1F
100
AcDbEntity
  8
AM_7
  6
CENTER
100
AcDbLine
 10
760.455829437553
 20
240.3011652079884
 30
0.0
 11
733.1083127799067
 21
240.3011652079875
 31
0.0
  0
LWPOLYLINE
  5
10BFF
330
1F
100
AcDbEntity
  8
drg
100
AcDbPolyline
 90
        2
 70
     0
 43
0.0
 10
751.8036442890681
 20
251.4136652079914
 10
741.4673733947859
 20
251.4136652079914
  0
LWPOLYLINE
  5
10C00
330
1F
100
AcDbEntity
  8
drg
100
AcDbPolyline
 90
        2
 70
     0
 43
0.0
 10
739.5958692659408
 20
250.3331517954056
 10
734.4277338188024
 20
241.3816786205579
  0
LWPOLYLINE
  5
10C01
330
1F
100
AcDbEntity
  8
drg
100
AcDbPolyline
 90
        2
 70
     0
 43
0.0
 10
734.4277338188024
 20
239.2206517954181
 10
739.5958692659408
 20
230.2691786205686
  0
ARC
  5
10C02
330
1F
100
AcDbEntity
  8
drg
100
AcDbCircle
 10
746.6355088419279
 20
240.3011652079884
 30
0.0
 40
12.2555
100
AcDbArc
 50
174.9419162988152
 51
185.0580837011848
  0
ARC
  5
10C03
330
1F
100
AcDbEntity
  8
drg
100
AcDbCircle
 10
746.6355088419279
 20
240.3011652079884
 30
0.0
 40
12.2555
100
AcDbArc
 50
114.9419162988156
 51
125.0580837011737
  0
LWPOLYLINE
  5
10C04
330
1F
100
AcDbEntity
  8
drg
100
AcDbPolyline
 90
        2
 70
     0
 43
0.0
 10
758.8432838650517
 20
241.381678620557
 10
753.6751484179096
 20
250.3331517954065
  0
LWPOLYLINE
  5
10C05
330
1F
100
AcDbEntity
  8
drg
100
AcDbPolyline
 90
        2
 70
     0
 43
0.0
 10
753.6751484179096
 20
230.2691786205695
 10
758.8432838650517
 20
239.2206517954172
  0
ARC
  5
10C06
330
1F
100
AcDbEntity
  8
drg
100
AcDbCircle
 10
746.6355088419279
 20
240.3011652079884
 30
0.0
 40
12.2555
100
AcDbArc
 50
354.9419162988152
 51
5.058083701184835
  0
ARC
  5
10C07
330
1F
100
AcDbEntity
  8
drg
100
AcDbCircle
 10
746.6355088419279
 20
240.3011652079884
 30
0.0
 40
12.2555
100
AcDbArc
 50
54.94191629883829
 51
65.05808370118436
  0
ARC
  5
10C08
330
1F
100
AcDbEntity
  8
0
100
AcDbCircle
 10
752.6377622010097
 20
275.4760347535579
 30
0.0
 40
2.390439917341776
100
AcDbArc
 50
210.0000000000207
 51
270.0
  0
LINE
  5
10C09
330
1F
100
AcDbEntity
  8
0
100
AcDbLine
 10
750.5675805063713
 20
274.2808147948866
 30
0.0
 11
749.5443792611243
 21
276.0530513380258
 31
0.0
  0
LINE
  5
10C0C
330
1F
100
AcDbEntity
  8
0
100
AcDbLine
 10
752.6377622010097
 20
273.0855948362163
 30
0.0
 11
754.6841646915002
 21
273.0855948362163
 31
0.0
  0
ARC
  5
10C0D
330
1F
100
AcDbEntity
  8
0
100
AcDbCircle
 10
760.0560657126863
 20
273.4883063183955
 30
0.0
 40
2.390439917341776
100
AcDbArc
 50
239.9999999999998
 51
300.0000000000001
  0
LINE
  5
10C0E
330
1F
100
AcDbEntity
  8
0
100
AcDbLine
 10
758.8608457540161
 20
271.4181246237571
 30
0.0
 11
757.0886092108906
 21
272.4413258689996
 31
0.0
  0
LINE
  5
10C0F
330
1F
100
AcDbEntity
  8
0
100
AcDbLine
 10
761.2512856713567
 20
271.4181246237571
 30
0.0
 11
763.0235222144749
 21
272.441325868995
 31
0.0
  0
ARC
  5
10C10
330
1F
100
AcDbEntity
  8
0
100
AcDbCircle
 10
767.4743692243594
 20
275.4760347535579
 30
0.0
 40
2.390439917341776
100
AcDbArc
 50
270.0
 51
329.9999999999792
  0
LINE
  5
10C13
330
1F
100
AcDbEntity
  8
0
100
AcDbLine
 10
767.4743692243594
 20
273.0855948362163
 30
0.0
 11
765.4279667338908
 21
273.0855948362163
 31
0.0
  0
LINE
  5
10C14
330
1F
100
AcDbEntity
  8
0
100
AcDbLine
 10
769.5445509189978
 20
274.2808147948866
 30
0.0
 11
770.5677521642266
 21
276.053051337993
 31
0.0
  0
LINE
  5
10C1A
330
1F
100
AcDbEntity
  8
AM_7
  6
CENTER
100
AcDbLine
 10
777.313923082491
 20
288.3249133417453
 30
0.0
 11
742.1072617405136
 21
288.3249133417453
 31
0.0
  0
CIRCLE
  5
10C1D
330
1F
100
AcDbEntity
  8
0
100
AcDbCircle
 10
760.0975088419275
 20
288.3249133417452
 30
0.0
 40
11.84949920000002
  0
LINE
  5
10C22
330
1F
100
AcDbEntity
  8
0
100
AcDbLine
 10
746.8165599698097
 20
286.632127741745
 30
0.0
 11
748.3695461798399
 21
286.632127741745
 31
0.0
  0
LINE
  5
10C23
330
1F
100
AcDbEntity
  8
0
100
AcDbLine
 10
746.8165599698097
 20
290.0176989417454
 30
0.0
 11
748.3695461798399
 21
290.0176989417454
 31
0.0
  0
ARC
  5
10C25
330
1F
100
AcDbEntity
  8
0
100
AcDbCircle
 10
760.0975088419275
 20
288.3249133417452
 30
0.0
 40
13.38839519999999
100
AcDbArc
 50
172.7362643236268
 51
187.2637356763732
  0
ARC
  5
10C26
330
1F
100
AcDbEntity
  8
0
100
AcDbCircle
 10
745.2194586893368
 20
288.3249133417434
 30
0.0
 40
2.390439917341776
100
AcDbArc
 50
149.9999999999793
 51
210.0000000000207
  0
LINE
  5
10C27
330
1F
100
AcDbEntity
  8
0
100
AcDbLine
 10
744.8167472071566
 20
280.9066098300694
 30
0.0
 11
744.8167472071566
 21
282.9530123205753
 31
0.0
  0
ARC
  5
10C28
330
1F
100
AcDbEntity
  8
0
100
AcDbCircle
 10
747.2071871245009
 20
280.9066098300694
 30
0.0
 40
2.390439917341776
100
AcDbArc
 50
180.0
 51
239.9999999999998
  0
LINE
  5
10C29
330
1F
100
AcDbEntity
  8
0
100
AcDbLine
 10
746.0119671658269
 20
278.8364281354319
 30
0.0
 11
747.7842037089742
 21
277.8132268901749
 31
0.0
  0
LINE
  5
10C2A
330
1F
100
AcDbEntity
  8
0
100
AcDbLine
 10
743.1492769946983
 20
287.1296933830721
 30
0.0
 11
744.1724782399526
 21
285.3574568399257
 31
0.0
  0
LINE
  5
10C2D
330
1F
100
AcDbEntity
  8
0
100
AcDbLine
 10
744.8167472071566
 20
295.7432168534182
 30
0.0
 11
744.8167472071566
 21
293.6968143629159
 31
0.0
  0
LINE
  5
10C2E
330
1F
100
AcDbEntity
  8
0
100
AcDbLine
 10
743.1492769946983
 20
289.5201333004137
 30
0.0
 11
744.1724782399489
 21
291.2923698435592
 31
0.0
  0
LINE
  5
10C31
330
1F
100
AcDbEntity
  8
0
100
AcDbLine
 10
746.0119671658269
 20
297.8133985480557
 30
0.0
 11
747.7842037089633
 21
298.8365997933037
 31
0.0
  0
ARC
  5
10C32
330
1F
100
AcDbEntity
  8
0
100
AcDbCircle
 10
747.2071871245009
 20
295.7432168534182
 30
0.0
 40
2.390439917341776
100
AcDbArc
 50
120.0000000000001
 51
180.0
  0
CIRCLE
  5
10C33
330
1F
100
AcDbEntity
  8
0
100
AcDbCircle
 10
760.0975088419202
 20
288.3249133417452
 30
0.0
 40
2.462233600000029
  0
CIRCLE
  5
10C34
330
1F
100
AcDbEntity
  8
0
100
AcDbCircle
 10
760.0975088419202
 20
288.3249133417452
 30
0.0
 40
4.308908799999908
  0
ARC
  5
10C4C
330
1F
100
AcDbEntity
  8
0
100
AcDbCircle
 10
752.6377622010097
 20
301.1737919299288
 30
0.0
 40
2.390439917341776
100
AcDbArc
 50
90.0
 51
149.9999999999793
  0
LINE
  5
10C4D
330
1F
100
AcDbEntity
  8
0
100
AcDbLine
 10
750.5675805063713
 20
302.369011888601
 30
0.0
 11
749.5443792611243
 21
300.5967753454673
 31
0.0
  0
LINE
  5
10C50
330
1F
100
AcDbEntity
  8
0
100
AcDbLine
 10
752.6377622010097
 20
303.5642318472714
 30
0.0
 11
754.6841646914892
 21
303.5642318472714
 31
0.0
  0
ARC
  5
10C51
330
1F
100
AcDbEntity
  8
drg
100
AcDbCircle
 10
760.0560657126863
 20
303.1615203650921
 30
0.0
 40
2.390439917341776
100
AcDbArc
 50
59.99999999999986
 51
120.0000000000001
  0
LINE
  5
10C52
330
1F
100
AcDbEntity
  8
drg
100
AcDbLine
 10
758.8608457540161
 20
305.2317020597296
 30
0.0
 11
757.0886092108978
 21
304.2085008144917
 31
0.0
  0
LINE
  5
10C53
330
1F
100
AcDbEntity
  8
drg
100
AcDbLine
 10
761.2512856713567
 20
305.2317020597296
 30
0.0
 11
763.0235222144603
 21
304.208500814498
 31
0.0
  0
ARC
  5
10C57
330
1F
100
AcDbEntity
  8
0
100
AcDbCircle
 10
774.892672736036
 20
288.3249133417434
 30
0.0
 40
2.390439917341776
100
AcDbArc
 50
329.9999999999792
 51
30.00000000002073
  0
ARC
  5
10C58
330
1F
100
AcDbEntity
  8
0
100
AcDbCircle
 10
760.0975088419275
 20
288.3249133417452
 30
0.0
 40
13.38839519999999
100
AcDbArc
 50
352.7362643236268
 51
7.263735676373189
  0
LINE
  5
10C5B
330
1F
100
AcDbEntity
  8
0
100
AcDbLine
 10
771.8254715040077
 20
286.632127741745
 30
0.0
 11
773.3784577140452
 21
286.632127741745
 31
0.0
  0
LINE
  5
10C5C
330
1F
100
AcDbEntity
  8
0
100
AcDbLine
 10
774.1001642595422
 20
278.8364281354319
 30
0.0
 11
772.3279277164386
 21
277.8132268902012
 31
0.0
  0
LINE
  5
10C62
330
1F
100
AcDbEntity
  8
0
100
AcDbLine
 10
775.2953842182161
 20
280.9066098300694
 30
0.0
 11
775.2953842182161
 21
282.9530123205262
 31
0.0
  0
ARC
  5
10C63
330
1F
100
AcDbEntity
  8
0
100
AcDbCircle
 10
772.9049443008719
 20
280.9066098300694
 30
0.0
 40
2.390439917341776
100
AcDbArc
 50
300.0000000000001
 51
0.0
  0
LINE
  5
10C64
330
1F
100
AcDbEntity
  8
0
100
AcDbLine
 10
776.9628544306745
 20
287.1296933830721
 30
0.0
 11
775.9396531854457
 21
285.3574568399693
 31
0.0
  0
LINE
  5
10C67
330
1F
100
AcDbEntity
  8
0
100
AcDbLine
 10
774.1001642595422
 20
297.8133985480557
 30
0.0
 11
772.3279277164459
 21
298.8365997932773
 31
0.0
  0
LINE
  5
10C68
330
1F
100
AcDbEntity
  8
0
100
AcDbLine
 10
771.8254715040077
 20
290.0176989417454
 30
0.0
 11
773.3784577140452
 21
290.0176989417454
 31
0.0
  0
LINE
  5
10C6E
330
1F
100
AcDbEntity
  8
0
100
AcDbLine
 10
775.2953842182161
 20
295.7432168534182
 30
0.0
 11
775.2953842182161
 21
293.696814362965
 31
0.0
  0
LINE
  5
10C6F
330
1F
100
AcDbEntity
  8
0
100
AcDbLine
 10
776.9628544306745
 20
289.5201333004137
 30
0.0
 11
775.9396531854457
 21
291.2923698435201
 31
0.0
  0
ARC
  5
10C72
330
1F
100
AcDbEntity
  8
0
100
AcDbCircle
 10
772.9049443008719
 20
295.7432168534182
 30
0.0
 40
2.390439917341776
100
AcDbArc
 50
0.0
 51
59.99999999999986
  0
ARC
  5
10C73
330
1F
100
AcDbEntity
  8
0
100
AcDbCircle
 10
767.4743692243594
 20
301.1737919299288
 30
0.0
 40
2.390439917341776
100
AcDbArc
 50
30.00000000002073
 51
90.0
  0
LINE
  5
10C76
330
1F
100
AcDbEntity
  8
0
100
AcDbLine
 10
767.4743692243594
 20
303.5642318472714
 30
0.0
 11
765.4279667338981
 21
303.5642318472714
 31
0.0
  0
LINE
  5
10C77
330
1F
100
AcDbEntity
  8
0
100
AcDbLine
 10
769.5445509189978
 20
302.369011888601
 30
0.0
 11
770.5677521642194
 21
300.5967753455019
 31
0.0
  0
LINE
  5
10C78
330
1F
100
AcDbEntity
  8
drg
100
AcDbLine
 10
803.6355088419297
 20
238.7979960914857
 30
0.0
 11
803.6355088419297
 21
299.2438305920044
 31
0.0
  0
LINE
  5
10C79
330
1F
100
AcDbEntity
  8
drg
100
AcDbLine
 10
803.6355088419297
 20
285.6898258933774
 30
0.0
 11
803.6355088419297
 21
252.3520007901128
 31
0.0
  0
DIMENSION
  5
10DD7
330
1F
100
AcDbEntity
  8
AM_5
100
AcDbDimension
  2
*D4
 10
871.8168962497784
 20
-151.4916473689025
 30
0.0
 11
864.9160104230068
 21
4.450211817230357
 31
0.0
 70
    32
 71
     5
 42
-1.0
  3
AM_ISO
100
AcDbAlignedDimension
 13
768.3948526666884
 23
160.3920710033629
 33
0.0
 14
753.4333088419227
 24
-151.4916473689025
 34
0.0
 50
90.00000000000003
100
AcDbRotatedDimension
1001
ACAD
1000
DSTYLE
1002
{
1070
    40
1040
3.0
1070
   271
1070
     0
1070
   272
1070
     8
1002
}
  0
DIMENSION
  5
10E09
330
1F
100
AcDbEntity
  8
AM_5
100
AcDbDimension
  2
*D5
 10
844.5182494042096
 20
214.162508921106
 30
0.0
 11
837.6182494042096
 21
269.0209133417461
 31
0.0
 70
    32
  1
%%c<>
 71
     5
 42
109.71680884128
  3
AM_ISO
100
AcDbAlignedDimension
 13
746.6355088419279
 23
323.879317762386
 33
0.0
 14
746.6355088419279
 24
214.162508921106
 34
0.0
 50
90.0
100
AcDbRotatedDimension
1001
ACAD
1000
DSTYLE
1002
{
1070
    40
1040
3.0
1070
   271
1070
     0
1070
   272
1070
     8
1002
}
  0
DIMENSION
  5
10E2D
330
1F
100
AcDbEntity
  8
AM_5
100
AcDbDimension
  2
*D6
 10
661.4456462704611
 20
238.7979960914866
 30
0.0
 11
654.5456462704611
 21
269.0209133417461
 31
0.0
 70
    32
 71
     5
 42
60.44583450051871
  3
AM_ISO
100
AcDbAlignedDimension
 13
679.635508841928
 23
299.2438305920054
 33
0.0
 14
679.635508841928
 24
238.7979960914866
 34
0.0
 50
90.0
100
AcDbRotatedDimension
1001
ACAD
1000
DSTYLE
1002
{
1070
    40
1040
3.0
1070
   271
1070
     0
1070
   272
1070
     8
1002
}
  0
DIMENSION
  5
10E51
330
1F
100
AcDbEntity
  8
AM_5
100
AcDbDimension
  2
*D7
 10
803.6452037484343
 20
184.9011169915798
 30
0.0
 11
741.6403562951812
 21
191.8020028183514
 31
0.0
 70
    32
 71
     5
 42
124.0096949065064
  3
AM_ISO
100
AcDbAlignedDimension
 13
679.635508841928
 23
238.7979960914866
 33
0.0
 14
803.6452037484343
 24
238.7979960914857
 34
0.0
 50
0.0000000000001018
100
AcDbRotatedDimension
1001
ACAD
1000
DSTYLE
1002
{
1070
    40
1040
3.0
1070
   271
1070
     0
1070
   272
1070
     8
1002
}
  0
INSERT
  5
11812
330
1F
100
AcDbEntity
  8
AM_5
100
AcDbBlockReference
  2
*S8
 10
-10.0
 20
0.0
 30
0.0
  0
TEXT
  5
11814
330
1F
100
AcDbEntity
  8
AM_5
100
AcDbText
 10
610.8944619811507
 20
82.03170957744948
 30
0.0
 40
8.316
  1
2-PT 1  
 41
0.75
  7
DAYUS
 11
610.8944619811507
 21
82.03170957744948
 31
0.0
100
AcDbText
 73
     1
  0
TEXT
  5
11815
330
1F
100
AcDbEntity
  8
AM_5
100
AcDbText
 10
648.4858600049946
 20
85.79152779542335
 30
0.0
 40
5.8212
  1
1
100
AcDbText
  0
TEXT
  5
11816
330
1F
100
AcDbEntity
  8
AM_5
100
AcDbText
 10
645.2231027045698
 20
82.77843323571749
 30
0.0
 40
5.8212
  1
-
100
AcDbText
  0
TEXT
  5
11817
330
1F
100
AcDbEntity
  8
AM_5
100
AcDbText
 10
651.0765573100668
 20
84.38173150234263
 30
0.0
 40
5.8212
  1
/
100
AcDbText
  0
TEXT
  5
11818
330
1F
100
AcDbEntity
  8
AM_5
100
AcDbText
 10
653.4767437496054
 20
80.97655940638128
 30
0.0
 40
5.8212
  1
2
100
AcDbText
  0
POLYLINE
  5
11936
330
1F
100
AcDbEntity
  8
0
 62
     4
100
AcDb2dPolyline
 66
     1
 10
0.0
 20
0.0
 30
0.0
 70
     1
  0
VERTEX
  5
11937
330
11936
100
AcDbEntity
  8
0
 62
     4
100
AcDbVertex
100
AcDb2dVertex
 10
944.8399929016487
 20
-195.1503609725557
 30
0.0
  0
VERTEX
  5
11938
330
11936
100
AcDbEntity
  8
0
 62
     4
100
AcDbVertex
100
AcDb2dVertex
 10
562.2715301945341
 20
-195.1503609725557
 30
0.0
  0
VERTEX
  5
11939
330
11936
100
AcDbEntity
  8
0
 62
     4
100
AcDbVertex
100
AcDb2dVertex
 10
562.2715301945341
 20
373.5723804912382
 30
0.0
  0
VERTEX
  5
1193A
330
11936
100
AcDbEntity
  8
0
 62
     4
100
AcDbVertex
100
AcDb2dVertex
 10
944.8399929016487
 20
373.5723804912382
 30
0.0
  0
SEQEND
  5
1193B
330
11936
100
AcDbEntity
  8
0
 62
     4
  0
TEXT
  5
1193C
330
1F
100
AcDbEntity
  8
LOGO
 62
     6
100
AcDbText
 10
619.9125742622111
 20
-231.9915076469698
 30
0.0
 40
6.698390304438913
  1
單位 Unit:
 41
0.9
  7
CHINESET
 72
     4
 11
638.1866203115086
 21
-228.6423124947504
 31
0.0
100
AcDbText
  0
TEXT
  5
1193D
330
1F
100
AcDbEntity
  8
LOGO
 62
     6
100
AcDbText
 10
619.2576869958396
 20
-218.5005034540032
 30
0.0
 40
6.698390304438913
  1
投影 View:
 41
0.9
  7
CHINESET
 72
     4
 11
638.1866203115086
 21
-215.2455318858726
 31
0.0
100
AcDbText
  0
LINE
  5
1193E
330
1F
100
AcDbEntity
  8
LOGO
 62
     1
100
AcDbLine
 10
709.6361168921903
 20
-235.3407027991892
 30
0.0
 11
562.2715301945341
 21
-235.3407027991892
 31
0.0
  0
TEXT
  5
1193F
330
1F
100
AcDbEntity
  8
LOGO
  6
Continuous
 62
     5
100
AcDbText
 10
584.9192786178766
 20
-248.9753773513984
 30
0.0
 40
10.04758545665837
  1
金器工業股份有限公司
  7
CHINESET
100
AcDbText
  0
TEXT
  5
11940
330
1F
100
AcDbEntity
  8
LOGO
  6
Continuous
 62
     5
100
AcDbText
 10
567.3410488997238
 20
-259.0249313470451
 30
0.0
 40
6.698390304438913
  1
MINDMAN INDUSTRIAL CO.,LTD
 41
0.85
  7
CHINESET
100
AcDbText
  0
TEXT
  5
11941
330
1F
100
AcDbEntity
  8
LOGO
 62
     6
100
AcDbText
 10
616.9162407421005
 20
-205.1946499772927
 30
0.0
 40
6.698390304438913
  1
比例 Scale:
 41
0.9
  7
CHINESET
 72
     4
 11
638.1866203115086
 21
-201.8487512769947
 31
0.0
100
AcDbText
  0
LINE
  5
11942
330
1F
100
AcDbEntity
  8
LOGO
 62
     1
100
AcDbLine
 10
709.6361168921903
 20
-208.5471415814336
 30
0.0
 11
611.3930590937526
 21
-208.5471415814336
 31
0.0
  0
LINE
  5
11943
330
1F
100
AcDbEntity
  8
LOGO
 62
     1
100
AcDbLine
 10
709.6361168921903
 20
-221.9439221903115
 30
0.0
 11
611.3930590937526
 21
-221.9439221903115
 31
0.0
  0
LINE
  5
11944
330
1F
100
AcDbEntity
  8
LOGO
 62
     1
100
AcDbLine
 10
944.8399929016487
 20
-195.1503609725557
 30
0.0
 11
562.2715301945341
 21
-195.1503609725557
 31
0.0
  0
LINE
  5
11945
330
1F
100
AcDbEntity
  8
LOGO
 62
     1
100
AcDbLine
 10
944.8399929016487
 20
-262.1342640169449
 30
0.0
 11
562.2715301945341
 21
-262.1342640169449
 31
0.0
  0
POLYLINE
  5
11946
330
1F
100
AcDbEntity
  8
LOGO
 62
     5
100
AcDb2dPolyline
 66
     1
 10
0.0
 20
0.0
 30
0.0
 70
     1
 40
1.000292952129544
 41
1.000292952129544
  0
VERTEX
  5
11947
330
11946
100
AcDbEntity
  8
LOGO
 62
     5
100
AcDbVertex
100
AcDb2dVertex
 10
596.5156778248645
 20
-231.6957759843865
 30
0.0
 42
1.0
  0
VERTEX
  5
11948
330
11946
100
AcDbEntity
  8
LOGO
 62
     5
100
AcDbVertex
100
AcDb2dVertex
 10
600.5168496333825
 20
-231.6957759843865
 30
0.0
 42
1.0
  0
SEQEND
  5
11949
330
11946
100
AcDbEntity
  8
LOGO
 62
     5
  0
POLYLINE
  5
1194A
330
1F
100
AcDbEntity
  8
LOGO
 62
     5
100
AcDb2dPolyline
 66
     1
 10
0.0
 20
0.0
 30
0.0
 70
     1
  0
VERTEX
  5
1194B
330
1194A
100
AcDbEntity
  8
LOGO
 62
     5
100
AcDbVertex
100
AcDb2dVertex
 10
597.0182250040148
 20
-231.695775984386
 30
0.0
 42
1.000000057330635
  0
VERTEX
  5
1194C
330
1194A
100
AcDbEntity
  8
LOGO
 62
     5
100
AcDbVertex
100
AcDb2dVertex
 10
600.0143024542335
 20
-231.695775984386
 30
0.0
 42
1.000000057330635
  0
SEQEND
  5
1194D
330
1194A
100
AcDbEntity
  8
LOGO
 62
     5
  0
CIRCLE
  5
1194E
330
1F
100
AcDbEntity
  8
LOGO
 62
     5
100
AcDbCircle
 10
598.5162637291242
 20
-231.695775984386
 30
0.0
 40
1.498038725109206
  0
SOLID
  5
1194F
330
1F
100
AcDbEntity
  8
LOGO
 62
     5
100
AcDbTrace
 10
588.2962440694362
 20
-222.0084588953475
 30
0.0
 11
591.1924522713133
 21
-211.389028821795
 31
0.0
 12
602.0782003404397
 22
-196.7415390651708
 32
0.0
 13
599.1819921385618
 23
-196.7415390651708
 33
0.0
  0
SOLID
  5
11950
330
1F
100
AcDbEntity
  8
LOGO
 62
     5
100
AcDbTrace
 10
588.2962440694362
 20
-224.2055823588401
 30
0.0
 11
591.1924522713133
 21
-224.2055823588401
 31
0.0
 12
602.0782003404397
 22
-198.9386625286653
 32
0.0
 13
599.1819921385618
 23
-209.5580926022178
 33
0.0
  0
SOLID
  5
11951
330
1F
100
AcDbEntity
  8
LOGO
 62
     2
100
AcDbTrace
 10
587.0978130893481
 20
-224.2055823588401
 30
0.0
 11
588.2962440694362
 21
-224.2055823588401
 31
0.0
 12
602.0782003404397
 22
-196.7415390651708
 32
0.0
 13
603.2766313205279
 23
-196.7415390651727
 33
0.0
  0
SOLID
  5
11952
330
1F
100
AcDbEntity
  8
LOGO
 62
     5
100
AcDbTrace
 10
602.0782003404397
 20
-198.9386625286653
 30
0.0
 11
599.1819921385618
 21
-209.5580926022178
 31
0.0
 12
602.0782003404397
 22
-224.2055823588411
 32
0.0
 13
599.1819921385618
 23
-224.2055823588411
 33
0.0
  0
SOLID
  5
11953
330
1F
100
AcDbEntity
  8
LOGO
 62
     5
100
AcDbTrace
 10
584.2016048874704
 20
-224.2055823588401
 30
0.0
 11
587.0978130893481
 21
-224.2055823588401
 31
0.0
 12
584.2016048874704
 22
-209.5580926022178
 32
0.0
 13
587.0978130893481
 23
-198.9386625286653
 33
0.0
  0
SOLID
  5
11954
330
1F
100
AcDbEntity
  8
LOGO
 62
     5
100
AcDbTrace
 10
569.2212176363776
 20
-224.2055823588401
 30
0.0
 11
572.1174258382554
 21
-224.2055823588411
 31
0.0
 12
584.2016048874704
 22
-196.7415390651708
 32
0.0
 13
587.0978130893481
 23
-196.7415390651727
 33
0.0
  0
SOLID
  5
11955
330
1F
100
AcDbEntity
  8
LOGO
 62
     5
100
AcDbTrace
 10
573.3158568183446
 20
-224.2055823588401
 30
0.0
 11
576.2120650202219
 21
-224.2055823588401
 31
0.0
 12
587.0978130893481
 22
-198.9386625286653
 32
0.0
 13
584.2016048874704
 23
-209.5580926022178
 33
0.0
  0
SOLID
  5
11956
330
1F
100
AcDbEntity
  8
LOGO
 62
     2
100
AcDbTrace
 10
572.1174258382554
 20
-224.2055823588411
 30
0.0
 11
573.3158568183446
 21
-224.2055823588401
 31
0.0
 12
587.0978130893481
 22
-196.7415390651727
 32
0.0
 13
588.2962440694362
 23
-196.7415390651727
 33
0.0
  0
SOLID
  5
11957
330
1F
100
AcDbEntity
  8
LOGO
 62
     5
100
AcDbTrace
 10
588.2962440694362
 20
-196.7415390651727
 30
0.0
 11
591.1924522713133
 21
-196.7415390651708
 31
0.0
 12
588.2962440694362
 22
-222.0084588953475
 32
0.0
 13
591.1924522713133
 23
-211.389028821795
 33
0.0
  0
SOLID
  5
11958
330
1F
100
AcDbEntity
  8
LOGO
 62
     2
100
AcDbTrace
 10
587.0978130893481
 20
-196.7415390651727
 30
0.0
 11
588.2962440694362
 21
-196.7415390651727
 31
0.0
 12
587.0978130893481
 22
-224.2055823588401
 32
0.0
 13
588.2962440694362
 23
-224.2055823588401
 33
0.0
  0
LINE
  5
11959
330
1F
100
AcDbEntity
  8
LOGO
 62
     1
100
AcDbLine
 10
562.2715301945341
 20
-262.1342640169449
 30
0.0
 11
562.2715301945341
 21
-195.1503609725557
 31
0.0
  0
SOLID
  5
1195A
330
1F
100
AcDbEntity
  8
LOGO
 62
     5
100
AcDbTrace
 10
572.2000621488968
 20
-229.199044775871
 30
0.0
 11
573.1987546323018
 21
-229.199044775871
 31
0.0
 12
572.2000621488968
 22
-234.192507192901
 32
0.0
 13
573.1987546323018
 23
-234.192507192901
 33
0.0
  0
SOLID
  5
1195B
330
1F
100
AcDbEntity
  8
LOGO
 62
     5
100
AcDbTrace
 10
568.3889739002067
 20
-234.192507192901
 30
0.0
 11
569.3876663836122
 21
-234.192507192901
 31
0.0
 12
572.2000621488968
 22
-229.199044775871
 32
0.0
 13
573.1987546323018
 23
-229.199044775871
 33
0.0
  0
SOLID
  5
1195C
330
1F
100
AcDbEntity
  8
LOGO
 62
     5
100
AcDbTrace
 10
564.5778856515175
 20
-234.192507192901
 30
0.0
 11
565.5765781349247
 21
-234.192507192901
 31
0.0
 12
568.3889739002067
 22
-229.199044775871
 32
0.0
 13
569.3876663836122
 23
-229.199044775871
 33
0.0
  0
SOLID
  5
1195D
330
1F
100
AcDbEntity
  8
LOGO
 62
     5
100
AcDbTrace
 10
568.3889739002067
 20
-229.199044775871
 30
0.0
 11
569.3876663836122
 21
-229.199044775871
 31
0.0
 12
568.3889739002067
 22
-234.192507192901
 32
0.0
 13
569.3876663836122
 23
-234.192507192901
 33
0.0
  0
POLYLINE
  5
1195E
330
1F
100
AcDbEntity
  8
LOGO
 62
     5
100
AcDb2dPolyline
 66
     1
 10
0.0
 20
0.0
 30
0.0
 70
     1
 40
1.000292952129544
 41
1.000292952129544
  0
VERTEX
  5
1195F
330
1195E
100
AcDbEntity
  8
LOGO
 62
     5
100
AcDbVertex
100
AcDb2dVertex
 10
582.2010189832109
 20
-231.6957759843865
 30
0.0
 42
1.0
  0
VERTEX
  5
11960
330
1195E
100
AcDbEntity
  8
LOGO
 62
     5
100
AcDbVertex
100
AcDb2dVertex
 10
586.2021907917291
 20
-231.6957759843865
 30
0.0
 42
1.0
  0
SEQEND
  5
11961
330
1195E
100
AcDbEntity
  8
LOGO
 62
     5
  0
SOLID
  5
11962
330
1F
100
AcDbEntity
  8
LOGO
 62
     5
100
AcDbTrace
 10
585.6995437433323
 20
-227.7010060507612
 30
0.0
 11
586.6982362267371
 21
-227.7010060507612
 31
0.0
 12
585.6995437433323
 22
-234.192507192901
 32
0.0
 13
586.6982362267371
 23
-234.192507192901
 33
0.0
  0
POLYLINE
  5
11963
330
1F
100
AcDbEntity
  8
LOGO
 62
     5
100
AcDb2dPolyline
 66
     1
 10
0.0
 20
0.0
 30
0.0
 40
1.000292952129544
 41
1.000292952129544
  0
VERTEX
  5
11964
330
11963
100
AcDbEntity
  8
LOGO
 62
     5
100
AcDbVertex
100
AcDb2dVertex
 10
580.0426537506986
 20
-231.1964297426833
 30
0.0
 42
1.0
  0
VERTEX
  5
11965
330
11963
100
AcDbEntity
  8
LOGO
 62
     5
100
AcDbVertex
100
AcDb2dVertex
 10
577.04177489431
 20
-231.1964297426833
 30
0.0
 42
1.0
  0
SEQEND
  5
11966
330
11963
100
AcDbEntity
  8
LOGO
 62
     5
  0
SOLID
  5
11967
330
1F
100
AcDbEntity
  8
LOGO
 62
     5
100
AcDbTrace
 10
574.3809623518962
 20
-229.199044775871
 30
0.0
 11
575.3796548353043
 21
-229.199044775871
 31
0.0
 12
574.3809623518962
 22
-234.1925071929028
 32
0.0
 13
575.3796548353043
 23
-234.192507192901
 33
0.0
  0
SOLID
  5
11968
330
1F
100
AcDbEntity
  8
LOGO
 62
     5
100
AcDbTrace
 10
576.544829355693
 20
-229.199044775871
 30
0.0
 11
577.5435218390982
 21
-229.199044775871
 31
0.0
 12
576.544829355693
 22
-234.192507192901
 32
0.0
 13
577.5435218390982
 23
-234.192507192901
 33
0.0
  0
SOLID
  5
11969
330
1F
100
AcDbEntity
  8
LOGO
 62
     5
100
AcDbTrace
 10
574.3809623518962
 20
-228.4999600374872
 30
0.0
 11
575.3796548353043
 21
-228.4999600374872
 31
0.0
 12
574.3809623518962
 22
-227.7010060507612
 32
0.0
 13
575.3796548353043
 23
-227.7010060507612
 33
0.0
  0
SOLID
  5
1196A
330
1F
100
AcDbEntity
  8
LOGO
 62
     5
100
AcDbTrace
 10
579.5409068059106
 20
-231.1964297426833
 30
0.0
 11
580.5395992893173
 21
-231.1964297426833
 31
0.0
 12
579.5409068059106
 22
-234.192507192901
 32
0.0
 13
580.5395992893173
 23
-234.192507192901
 33
0.0
  0
POLYLINE
  5
1196B
330
1F
100
AcDbEntity
  8
LOGO
 62
     5
100
AcDb2dPolyline
 66
     1
 10
0.0
 20
0.0
 30
0.0
 40
1.000292952129544
 41
1.000292952129544
  0
VERTEX
  5
1196C
330
1196B
100
AcDbEntity
  8
LOGO
 62
     5
100
AcDbVertex
100
AcDb2dVertex
 10
594.3573125923523
 20
-231.1964297426833
 30
0.0
 42
1.0
  0
VERTEX
  5
1196D
330
1196B
100
AcDbEntity
  8
LOGO
 62
     5
100
AcDbVertex
100
AcDb2dVertex
 10
591.3564337359636
 20
-231.1964297426833
 30
0.0
 42
1.0
  0
SEQEND
  5
1196E
330
1196B
100
AcDbEntity
  8
LOGO
 62
     5
  0
SOLID
  5
1196F
330
1F
100
AcDbEntity
  8
LOGO
 62
     5
100
AcDbTrace
 10
587.8634107471289
 20
-229.199044775871
 30
0.0
 11
588.8621032305344
 21
-229.199044775871
 31
0.0
 12
587.8634107471289
 22
-234.192507192901
 32
0.0
 13
588.8621032305344
 23
-234.192507192901
 33
0.0
  0
SOLID
  5
11970
330
1F
100
AcDbEntity
  8
LOGO
 62
     5
100
AcDbTrace
 10
590.8594881973467
 20
-231.1964297426833
 30
0.0
 11
591.858180680752
 21
-231.1964297426833
 31
0.0
 12
590.8594881973467
 22
-234.192507192901
 32
0.0
 13
591.858180680752
 23
-234.192507192901
 33
0.0
  0
POLYLINE
  5
11971
330
1F
100
AcDbEntity
  8
LOGO
 62
     5
100
AcDb2dPolyline
 66
     1
 10
0.0
 20
0.0
 30
0.0
 40
1.000292952129544
 41
1.000292952129544
  0
VERTEX
  5
11972
330
11971
100
AcDbEntity
  8
LOGO
 62
     5
100
AcDbVertex
100
AcDb2dVertex
 10
591.3612351421347
 20
-231.1964297426833
 30
0.0
 42
1.0
  0
VERTEX
  5
11973
330
11971
100
AcDbEntity
  8
LOGO
 62
     5
100
AcDbVertex
100
AcDb2dVertex
 10
588.3603562857461
 20
-231.1964297426833
 30
0.0
 42
1.0
  0
SEQEND
  5
11974
330
11971
100
AcDbEntity
  8
LOGO
 62
     5
  0
SOLID
  5
11975
330
1F
100
AcDbEntity
  8
LOGO
 62
     5
100
AcDbTrace
 10
593.8555656475645
 20
-231.1964297426833
 30
0.0
 11
594.8542581309692
 21
-231.1964297426833
 31
0.0
 12
593.8555656475645
 22
-234.1925071929028
 32
0.0
 13
594.8542581309692
 23
-234.1925071929028
 33
0.0
  0
LINE
  5
11976
330
1F
100
AcDbEntity
  8
LOGO
 62
     1
100
AcDbLine
 10
611.3930590937526
 20
-235.3407027991893
 30
0.0
 11
611.3930590937526
 21
-195.1503609725557
 31
0.0
  0
SOLID
  5
11977
330
1F
100
AcDbEntity
  8
LOGO
 62
     5
100
AcDbTrace
 10
603.2766313205279
 20
-224.2055823588411
 30
0.0
 11
606.1728395224053
 21
-224.2055823588411
 31
0.0
 12
603.2766313205279
 22
-196.7415390651727
 32
0.0
 13
606.1728395224053
 23
-196.7415390651708
 33
0.0
  0
SOLID
  5
11978
330
1F
100
AcDbEntity
  8
LOGO
 62
     2
100
AcDbTrace
 10
602.0782003404397
 20
-196.7415390651708
 30
0.0
 11
603.2766313205279
 21
-196.7415390651727
 31
0.0
 12
602.0782003404397
 22
-224.2055823588411
 32
0.0
 13
603.2766313205279
 23
-224.2055823588411
 33
0.0
  0
SOLID
  5
11979
330
1F
100
AcDbEntity
  8
LOGO
 62
     5
100
AcDbTrace
 10
605.1741470390001
 20
-231.1964297426833
 30
0.0
 11
606.1728395224053
 21
-231.1964297426835
 31
0.0
 12
605.1741470390001
 22
-234.192507192901
 32
0.0
 13
606.1728395224053
 23
-234.192507192901
 33
0.0
  0
POLYLINE
  5
1197A
330
1F
100
AcDbEntity
  8
LOGO
 62
     5
100
AcDb2dPolyline
 66
     1
 10
0.0
 20
0.0
 30
0.0
 40
1.000292952129544
 41
1.000292952129544
  0
VERTEX
  5
1197B
330
1197A
100
AcDbEntity
  8
LOGO
 62
     5
100
AcDbVertex
100
AcDb2dVertex
 10
605.6758939837881
 20
-231.1964297426833
 30
0.0
 42
1.0
  0
VERTEX
  5
1197C
330
1197A
100
AcDbEntity
  8
LOGO
 62
     5
100
AcDbVertex
100
AcDb2dVertex
 10
602.6750151273995
 20
-231.1964297426833
 30
0.0
 42
1.0
  0
SEQEND
  5
1197D
330
1197A
100
AcDbEntity
  8
LOGO
 62
     5
  0
SOLID
  5
1197E
330
1F
100
AcDbEntity
  8
LOGO
 62
     5
100
AcDbTrace
 10
602.1780695887805
 20
-234.192507192901
 30
0.0
 11
603.1767620721875
 21
-234.192507192901
 31
0.0
 12
602.1780695887805
 22
-229.199044775871
 32
0.0
 13
603.1767620721875
 23
-229.199044775871
 33
0.0
  0
SOLID
  5
1197F
330
1F
100
AcDbEntity
  8
LOGO
 62
     5
100
AcDbTrace
 10
600.0142025849864
 20
-229.199044775871
 30
0.0
 11
601.0128950683918
 21
-229.199044775871
 31
0.0
 12
600.0142025849864
 22
-234.192507192901
 32
0.0
 13
601.0128950683918
 23
-234.192507192901
 33
0.0
  0
LINE
  5
11980
330
1F
100
AcDbEntity
  8
LOGO
 62
     5
100
AcDbLine
 10
606.1728395224053
 20
-234.192507192901
 30
0.0
 11
606.1728395224053
 21
-231.1964297426833
 31
0.0
  0
TEXT
  5
11981
330
1F
100
AcDbEntity
  8
LOGO
  6
Continuous
 62
     7
100
AcDbText
 10
810.7006686365979
 20
-217.4783286540189
 30
0.0
 40
11.16398384073152
  1
MAL900
  7
CHINESET
 72
     1
 11
841.8003379072072
 21
-211.8963367336531
 31
0.0
100
AcDbText
 73
     2
  0
LINE
  5
11982
330
1F
100
AcDbEntity
  8
LOGO
 62
     6
100
AcDbLine
 10
883.1549005868271
 20
-201.8487512769947
 30
0.0
 11
801.7695026332109
 21
-201.8487512769947
 31
0.0
  0
LINE
  5
11983
330
1F
100
AcDbEntity
  8
LOGO
 62
     6
100
AcDbLine
 10
883.1549005868271
 20
-221.9439221903115
 30
0.0
 11
801.7695026332109
 21
-221.9439221903115
 31
0.0
  0
TEXT
  5
11984
330
1F
100
AcDbEntity
  8
LOGO
 62
     7
100
AcDbText
 10
715.1190767868078
 20
-211.9216068954734
 30
0.0
 40
13.39678060887783
  1
訂購代號:
  7
CHINESET
100
AcDbText
  0
TEXT
  5
11985
330
1F
100
AcDbEntity
  8
LOGO
 62
     7
100
AcDbText
 10
713.5167479680736
 20
-224.494869067794
 30
0.0
 40
8.931187072585219
  1
Order example:
 41
0.8
  7
CHINESET
100
AcDbText
  0
LINE
  5
11986
330
1F
100
AcDbEntity
  8
LOGO
  6
Continuous
 62
     6
100
AcDbLine
 10
689.6309899784025
 20
-212.9524518343712
 30
0.0
 11
701.8235437593425
 21
-211.3419609069015
 31
0.0
  0
CIRCLE
  5
11987
330
1F
100
AcDbEntity
  8
LOGO
  6
Continuous
 62
     6
100
AcDbCircle
 10
677.3830889993477
 20
-215.2312039799938
 30
0.0
 40
3.889243073092288
  0
LINE
  5
11988
330
1F
100
AcDbEntity
  8
LOGO
 62
     6
100
AcDbLine
 10
701.8235437593425
 20
-219.1204470530861
 30
0.0
 11
701.8235437593425
 21
-211.3419609069015
 31
0.0
  0
LINE
  5
11989
330
1F
100
AcDbEntity
  8
LOGO
 62
     1
100
AcDbLine
 10
664.9801815292638
 20
-235.3407027991893
 30
0.0
 11
664.9801815292638
 21
-195.1503609725557
 31
0.0
  0
TEXT
  5
1198A
330
1F
100
AcDbEntity
  8
LOGO
 62
     6
100
AcDbText
 10
675.0288714616305
 20
-231.9915076469698
 30
0.0
 40
6.698390304438913
  1
m/m
  7
CHINESET
 72
     1
 11
686.830797236118
 21
-228.6423124947504
 31
0.0
100
AcDbText
 73
     2
  0
CIRCLE
  5
1198B
330
1F
100
AcDbEntity
  8
LOGO
  6
Continuous
 62
     6
100
AcDbCircle
 10
677.3830889993477
 20
-215.2312039799938
 30
0.0
 40
2.278752145622578
  0
LINE
  5
1198C
330
1F
100
AcDbEntity
  8
LOGO
  6
Continuous
 62
     6
100
AcDbLine
 10
689.6309899784025
 20
-217.5099561256164
 30
0.0
 11
701.8235437593425
 21
-219.1204470530861
 31
0.0
  0
LINE
  5
1198D
330
1F
100
AcDbEntity
  8
LOGO
 62
     6
100
AcDbLine
 10
689.6309899784025
 20
-217.5099561256164
 30
0.0
 11
689.6309899784025
 21
-212.9524518343711
 31
0.0
  0
TEXT
  5
1198E
330
1F
100
AcDbEntity
  8
LOGO
 62
     6
100
AcDbText
 10
675.0288714616305
 20
-205.1979464292141
 30
0.0
 40
6.698390304438913
  1
1 : 1
  7
CHINESET
 72
     1
 11
686.830797236118
 21
-201.8487512769947
 31
0.0
100
AcDbText
 73
     2
  0
LINE
  5
1198F
330
1F
100
AcDbEntity
  8
LOGO
 62
     1
100
AcDbLine
 10
709.6361168921903
 20
-262.1342640169449
 30
0.0
 11
709.6361168921903
 21
-195.1503609725557
 31
0.0
  0
LINE
  5
11990
330
1F
100
AcDbEntity
  8
LOGO
 62
     6
100
AcDbLine
 10
801.7695026332109
 20
-201.8487512769947
 30
0.0
 11
801.7695026332109
 21
-221.9439221903115
 31
0.0
  0
TEXT
  5
11991
330
1F
100
AcDbEntity
  8
LOGO
  6
Continuous
 62
     6
100
AcDbText
 10
831.8298360474178
 20
-253.7612761363963
 30
0.0
 40
5.581991920365762
  1
Model
  7
CHINESET
 72
     4
 11
842.4622016100192
 21
-250.9702801762135
 31
0.0
100
AcDbText
  0
LINE
  5
11992
330
1F
100
AcDbEntity
  8
LOGO
 62
     6
100
AcDbLine
 10
864.7901692914825
 20
-231.9915076469698
 30
0.0
 11
820.134233928556
 21
-231.9915076469698
 31
0.0
  0
LINE
  5
11993
330
1F
100
AcDbEntity
  8
LOGO
 62
     6
100
AcDbLine
 10
864.7901692914825
 20
-256.5522720965792
 30
0.0
 11
820.134233928556
 21
-256.5522720965792
 31
0.0
  0
TEXT
  5
11994
330
1F
100
AcDbEntity
  8
LOGO
 62
     6
100
AcDbText
 10
833.5310145374341
 20
-244.0433358718856
 30
0.0
 40
8.931187072585219
  1
型式
  7
CHINESET
 72
     4
 11
842.4622016100192
 21
-239.8062963354819
 31
0.0
100
AcDbText
  0
LINE
  5
11995
330
1F
100
AcDbEntity
  8
LOGO
 62
     6
100
AcDbLine
 10
820.134233928556
 20
-231.9915076469698
 30
0.0
 11
820.134233928556
 21
-256.5522720965792
 31
0.0
  0
LINE
  5
11996
330
1F
100
AcDbEntity
  8
LOGO
 62
     6
100
AcDbLine
 10
842.4622016100192
 20
-221.9439221903115
 30
0.0
 11
842.4622016100192
 21
-231.9915076469698
 31
0.0
  0
LINE
  5
11997
330
1F
100
AcDbEntity
  8
LOGO
 62
     6
100
AcDbLine
 10
864.7901692914825
 20
-231.9915076469698
 30
0.0
 11
864.7901692914825
 21
-256.5522720965791
 31
0.0
  0
LINE
  5
11998
330
1F
100
AcDbEntity
  8
LOGO
 62
     6
100
AcDbLine
 10
936.498595630459
 20
-201.8487512769947
 30
0.0
 11
899.3037334010299
 21
-201.8487512769947
 31
0.0
  0
LINE
  5
11999
330
1F
100
AcDbEntity
  8
LOGO
 62
     6
100
AcDbLine
 10
940.9641891667513
 20
-231.9915076469698
 30
0.0
 11
894.8381398647375
 21
-231.9915076469698
 31
0.0
  0
LINE
  5
1199A
330
1F
100
AcDbEntity
  8
LOGO
 62
     6
100
AcDbLine
 10
936.4985956304582
 20
-221.9439221903115
 30
0.0
 11
899.3037334010299
 21
-221.9439221903115
 31
0.0
  0
LINE
  5
1199B
330
1F
100
AcDbEntity
  8
LOGO
 62
     6
100
AcDbLine
 10
940.9641891667513
 20
-256.5522720965791
 30
0.0
 11
894.8381398647375
 21
-256.5522720965792
 31
0.0
  0
TEXT
  5
1199C
330
1F
100
AcDbEntity
  8
LOGO
  6
Continuous
 62
     6
100
AcDbText
 10
902.5905581055981
 20
-253.7612761363963
 30
0.0
 40
5.581991920365762
  1
Bore size
 41
0.8
  7
CHINESET
 72
     4
 11
917.9011645157443
 21
-250.9702801762135
 31
0.0
100
AcDbText
  0
TEXT
  5
1199D
330
1F
100
AcDbEntity
  8
LOGO
 62
     6
100
AcDbText
 10
901.7412979062854
 20
-244.2718898717745
 30
0.0
 40
8.931187072585219
  1
配管口徑
 41
0.9
  7
CHINESET
 72
     4
 11
917.9011645157443
 21
-239.8062963354819
 31
0.0
100
AcDbText
  0
TEXT
  5
1199E
330
1F
100
AcDbEntity
  8
LOGO
  6
Continuous
 62
     7
100
AcDbText
 10
909.9056259002319
 20
-217.6049289342464
 30
0.0
 40
11.16398384073152
  1
?A
  7
CHINESET
 72
     1
 11
918.9431366284431
 21
-212.0229370138806
 31
0.0
100
AcDbText
 73
     2
  0
LINE
  5
1199F
330
1F
100
AcDbEntity
  8
LOGO
 62
     6
100
AcDbLine
 10
899.3037334010299
 20
-201.8487512769947
 30
0.0
 11
899.3037334010299
 21
-221.9439221903115
 31
0.0
  0
LINE
  5
119A0
330
1F
100
AcDbEntity
  8
LOGO
 62
     6
100
AcDbLine
 10
883.1549005868275
 20
-201.8487512769947
 30
0.0
 11
883.1549005868275
 21
-221.9439221903115
 31
0.0
  0
LINE
  5
119A1
330
1F
100
AcDbEntity
  8
LOGO
 62
     6
100
AcDbLine
 10
894.8381398647375
 20
-231.9915076469698
 30
0.0
 11
894.8381398647375
 21
-256.5522720965792
 31
0.0
  0
LINE
  5
119A2
330
1F
100
AcDbEntity
  8
LOGO
 62
     6
100
AcDbLine
 10
918.3740505977672
 20
-221.9439221903115
 30
0.0
 11
918.3740505977672
 21
-231.9915076469698
 31
0.0
  0
LINE
  5
119A3
330
1F
100
AcDbEntity
  8
LOGO
  6
Continuous
 62
     7
100
AcDbLine
 10
886.9552897160843
 20
-211.9675170048155
 30
0.0
 11
895.8285839512006
 21
-211.9675170048155
 31
0.0
  0
LINE
  5
119A4
330
1F
100
AcDbEntity
  8
LOGO
 62
     1
100
AcDbLine
 10
944.8399929016487
 20
-262.1342640169449
 30
0.0
 11
944.8399929016487
 21
-195.1503609725557
 31
0.0
  0
LINE
  5
119A5
330
1F
100
AcDbEntity
  8
LOGO
 62
     6
100
AcDbLine
 10
936.498595630459
 20
-201.8487512769947
 30
0.0
 11
936.4985956304582
 21
-221.9439221903115
 31
0.0
  0
LINE
  5
119A6
330
1F
100
AcDbEntity
  8
LOGO
 62
     6
100
AcDbLine
 10
940.9641891667513
 20
-231.9915076469698
 30
0.0
 11
940.9641891667513
 21
-256.6448824642576
 31
0.0
  0
ARC
  5
11B1E
330
1F
100
AcDbEntity
  8
drg
 48
10.0
100
AcDbCircle
 10
746.6355088419279
 20
269.020913341746
 30
0.0
 40
42.2756878628
100
AcDbArc
 50
45.63505866509531
 51
134.3649413349046
  0
ENDSEC
  0
SECTION
  2
OBJECTS
  0
DICTIONARY
  5
C
330
0
100
AcDbDictionary
281
     1
  3
ACAD_COLOR
350
11A74
  3
ACAD_GROUP
350
D
  3
ACAD_IMAGE_DICT
350
F32A
  3
ACAD_IMAGE_VARS
350
F32B
  3
ACAD_LAYOUT
350
1A
  3
ACAD_MATERIAL
350
11A73
  3
ACAD_MLINESTYLE
350
17
  3
ACAD_PLOTSETTINGS
350
19
  3
ACAD_PLOTSTYLENAME
350
E
  3
ACAD_TABLESTYLE
350
11A75
  3
ACDBHEADERROUNDTRIPXREC
350
11B69
  3
AcDbVariableDictionary
350
34
  3
AcmDictionary
350
43
  3
AMG
350
2B
  3
AMGSNAPSETTINGS
350
240
  3
DWGPROPS
350
11B68
  0
DICTIONARY
  5
3A4
330
1F
100
AcDbDictionary
280
     1
281
     1
  3
ACAD_INDEX
360
10FD5
  3
ACAD_LAYOUTSELFREF
360
11A3F
  3
ACAD_SORTENTS
360
11B1F
  0
DICTIONARY
  5
119FB
330
1B
100
AcDbDictionary
280
     1
281
     1
  3
ACAD_LAYOUTSELFREF
360
11A3E
  0
DICTIONARY
  5
119FD
330
23
100
AcDbDictionary
280
     1
281
     1
  3
ACAD_LAYOUTSELFREF
360
11A40
  0
DICTIONARY
  5
10AE2
330
10AE1
100
AcDbDictionary
280
     1
281
     1
  3
ACAD_DIMASSOC
360
10AE3
  0
DICTIONARY
  5
10B3C
330
10B3B
100
AcDbDictionary
280
     1
281
     1
  3
ACAD_DIMASSOC
360
10B3D
  0
DICTIONARY
  5
11A74
102
{ACAD_REACTORS
330
C
102
}
330
C
100
AcDbDictionary
281
     1
  0
DICTIONARY
  5
D
102
{ACAD_REACTORS
330
C
102
}
330
C
100
AcDbDictionary
281
     1
  0
DICTIONARY
  5
F32A
102
{ACAD_REACTORS
330
C
102
}
330
C
100
AcDbDictionary
281
     1
  0
RASTERVARIABLES
  5
F32B
102
{ACAD_REACTORS
330
C
102
}
330
C
100
AcDbRasterVariables
 90
        0
 70
     0
 71
     1
 72
     1
  0
DICTIONARY
  5
1A
102
{ACAD_REACTORS
330
C
102
}
330
C
100
AcDbDictionary
281
     1
  3
Model
350
22
  3
配置1
350
1E
  3
配置2
350
26
  0
DICTIONARY
  5
11A73
102
{ACAD_REACTORS
330
C
102
}
330
C
100
AcDbDictionary
281
     1
  0
DICTIONARY
  5
17
102
{ACAD_REACTORS
330
C
102
}
330
C
100
AcDbDictionary
281
     1
  3
Standard
350
18
  0
DICTIONARY
  5
19
102
{ACAD_REACTORS
330
C
102
}
330
C
100
AcDbDictionary
281
     1
  0
ACDBDICTIONARYWDFLT
  5
E
102
{ACAD_REACTORS
330
C
102
}
330
C
100
AcDbDictionary
281
     1
  3
Normal
350
F
100
AcDbDictionaryWithDefault
340
F
  0
DICTIONARY
  5
11A75
102
{ACAD_REACTORS
330
C
102
}
330
C
100
AcDbDictionary
281
     1
  3
Standard
350
11A76
  0
DICTIONARY
  5
11B69
102
{ACAD_REACTORS
330
C
102
}
330
C
100
AcDbDictionary
281
     1
  0
DICTIONARY
  5
34
102
{ACAD_REACTORS
330
C
102
}
330
C
100
AcDbDictionary
281
     1
  3
CTABLESTYLE
350
11AF9
  3
DIMASSOC
350
6992
  3
INDEXCTL
350
35
  3
PROJECTNAME
350
11B66
  0
DICTIONARY
  5
43
102
{ACAD_REACTORS
330
C
102
}
330
C
100
AcDbDictionary
281
     1
  3
AcmStdDictionary
350
1440
  3
AMDTSECTSYM_ARROWCOLOR
350
11AED
  0
DICTIONARY
  5
2B
102
{ACAD_REACTORS
330
C
102
}
330
C
100
AcDbDictionary
281
     1
  0
DICTIONARY
  5
240
102
{ACAD_REACTORS
330
C
102
}
330
C
100
AcDbDictionary
281
     1
  0
XRECORD
  5
11B68
102
{ACAD_REACTORS
330
C
102
}
330
C
100
AcDbXrecord
280
     1
  1
DWGPROPS COOKIE
  2

  3

  4

  6

  7

  8

  9

300
AmdtFileType=84
301
=
302
=
303
=
304
=
305
=
306
=
307
=
308
=
309
=
 40
3.088162893518518
 41
2452292.457678334
 42
2453971.58204897
  1

 90
        1
  0
DICTIONARY
  5
10FD5
102
{ACAD_REACTORS
330
3A4
102
}
330
3A4
100
AcDbDictionary
281
     1
  3
*A1
350
10FD6
  0
XRECORD
  5
11A3F
102
{ACAD_REACTORS
330
3A4
102
}
330
3A4
100
AcDbXrecord
280
     1
340
1F
  0
SORTENTSTABLE
  5
11B1F
102
{ACAD_REACTORS
330
3A4
102
}
330
3A4
100
AcDbSortentsTable
330
1F
331
10BB1
  5
10BB4
331
11936
  5
1193C
331
11958
  5
11959
331
10C5B
  5
10C5C
331
10C31
  5
10C32
331
10C0F
  5
10C10
331
10BED
  5
10BEE
331
10BCB
  5
10BCC
331
11995
  5
11996
331
10B7E
  5
10B7E
331
10B5C
  5
10B5C
331
10B1A
  5
10B1A
331
10BA0
  5
10BA0
331
11984
  5
11985
331
10BFE
  5
10BFF
331
119A6
  5
11B1E
331
10B8F
  5
10B8F
331
10B6D
  5
10B6D
331
10B4D
  5
10B4D
331
10B2B
  5
10B2B
331
10B09
  5
10B09
331
10AE7
  5
10AE7
331
D169
  5
D169
331
10BC9
  5
10BCA
331
11971
  5
11975
331
11956
  5
11957
331
10C0D
  5
10C0E
331
10BEB
  5
10BEC
331
11993
  5
11994
331
10B7C
  5
10B7C
331
10B5A
  5
10B5A
331
10B3A
  5
10B3A
331
10B18
  5
10B18
331
10B9E
  5
10B9E
331
10BDA
  5
10BDB
331
11967
  5
11968
331
11945
  5
11946
331
10BFC
  5
10BFE
331
10B4B
  5
10B4B
331
10B29
  5
10B29
331
10AE5
  5
10AE5
331
11982
  5
11983
331
119A4
  5
119A5
331
10B8D
  5
10B8D
331
10B6B
  5
10B6B
331
10BAF
  5
10BB0
331
10AF6
  5
10AF6
331
21E1
  5
21E1
331
11954
  5
11955
331
1196F
  5
11970
331
11991
  5
11992
331
10C79
  5
10DD7
331
10C57
  5
10C58
331
10C2D
  5
10C2E
331
10BE9
  5
10BEA
331
10E2D
  5
10E51
331
10B9C
  5
10B9C
331
10B7A
  5
10B7A
331
10B38
  5
10B38
331
10BBE
  5
10BBF
331
10BD8
  5
10BD9
331
11980
  5
11981
331
11943
  5
11944
331
10C68
  5
10C6E
331
10BFA
  5
10BFB
331
119A2
  5
119A3
331
10B8B
  5
10B8B
331
10B69
  5
10B69
331
10B49
  5
10B49
331
10B27
  5
10B27
331
10B05
  5
10B05
331
10BAD
  5
10BAE
331
10AF4
  5
10AF4
331
1198F
  5
11990
331
11952
  5
11953
331
10C77
  5
10C78
331
10C09
  5
10C0C
331
10B78
  5
10B78
331
10B9A
  5
10B9A
331
10BBC
  5
10BBD
331
11817
  5
11818
331
10BD6
  5
10BD7
331
11941
  5
11942
331
11963
  5
11967
331
1197E
  5
1197F
331
10C4C
  5
10C4D
331
10C1A
  5
10C1D
331
10BF8
  5
10BF9
331
119A0
  5
119A1
331
10B89
  5
10B89
331
10B67
  5
10B67
331
10B47
  5
10B47
331
10B25
  5
10B25
331
10B03
  5
10B03
331
10BAB
  5
10BAC
331
10BE7
  5
10BE8
331
10B36
  5
10B36
331
10AF2
  5
10AF2
331
10AE1
  5
10AE1
331
11950
  5
11951
331
1196B
  5
1196F
331
10C53
  5
10C57
331
10C29
  5
10C2A
331
1198D
  5
1198E
331
10B76
  5
10B76
331
10B54
  5
10B54
331
10DD7
  5
10E09
331
10B98
  5
10B98
331
10B01
  5
10B01
331
11815
  5
11816
331
10BD4
  5
10BD5
331
1193F
  5
11940
331
10C64
  5
10C67
331
10BF6
  5
10BF7
331
1199E
  5
1199F
331
10B87
  5
10B87
331
10B65
  5
10B65
331
10B45
  5
10B45
331
10B23
  5
10B23
331
10BA9
  5
10BA9
331
10B12
  5
10B12
331
10AF0
  5
10AF0
331
10C07
  5
10C08
331
10BE5
  5
10BE6
331
10B34
  5
10B34
331
DBAB
  5
DBAB
331
D622
  5
D622
331
950E
  5
950E
331
11969
  5
1196A
331
10C51
  5
10C52
331
1198B
  5
1198C
331
10C73
  5
10C76
331
10B96
  5
10B96
331
10B74
  5
10B74
331
10B52
  5
10B52
331
10BB8
  5
10BB9
331
10BD2
  5
10BD3
331
1193D
  5
1193E
331
10BF4
  5
10BF5
331
10B43
  5
10B43
331
10B21
  5
10B21
331
10AFF
  5
10AFF
331
1197A
  5
1197E
331
10C62
  5
10C63
331
1199C
  5
1199D
331
10B85
  5
10B85
331
10B63
  5
10B63
331
10BA7
  5
10BA7
331
1194E
  5
1194F
331
10C27
  5
10C28
331
10C05
  5
10C06
331
10BE3
  5
10BE4
331
10B32
  5
10B32
331
10AEE
  5
10AEE
331
20A1
  5
20A1
331
10B50
  5
10B50
331
11989
  5
1198A
331
10BB6
  5
10BB7
331
10B94
  5
10B94
331
10B72
  5
10B72
331
10BD0
  5
10BD1
331
11978
  5
11979
331
1195D
  5
1195E
331
10C14
  5
10C1A
331
10BF2
  5
10BF3
331
1199A
  5
1199B
331
10B83
  5
10B83
331
10B61
  5
10B61
331
10B41
  5
10B41
331
10B1F
  5
10B1F
331
10BA5
  5
10BA5
331
10BC7
  5
10BC8
331
10C25
  5
10C26
331
10C03
  5
10C04
331
10BE1
  5
10BE2
331
10B30
  5
10B30
331
10B0E
  5
10B0E
331
10AEC
  5
10AEC
331
21E8
  5
21E8
331
10B92
  5
10B92
331
10B70
  5
10B70
331
10BCE
  5
10BCF
331
10BB4
  5
10BB5
331
1195B
  5
1195C
331
11976
  5
11977
331
10C34
  5
10C4C
331
10BF0
  5
10BF1
331
11998
  5
11999
331
10B81
  5
10B81
331
10B5F
  5
10B5F
331
10B3F
  5
10B3F
331
10AFB
  5
10AFB
331
10BA3
  5
10BA3
331
10BC5
  5
10BC7
331
10B0C
  5
10B0C
331
10AEA
  5
10AEA
331
1194A
  5
1194E
331
11987
  5
11988
331
10C6F
  5
10C72
331
10C23
  5
10C25
331
10C01
  5
10C02
331
10B2E
  5
10B2E
331
D62D
  5
D62D
331
10B90
  5
10B90
331
11959
  5
1195A
331
10C5C
  5
10C62
331
10C32
  5
10C33
331
10C10
  5
10C13
331
10BEE
  5
10BEF
331
10BCC
  5
10BCD
331
11996
  5
11997
331
10B7F
  5
10B7F
331
10B5D
  5
10B5D
331
10B1B
  5
10B1B
331
10AF9
  5
10AF9
331
10BA1
  5
10BA1
331
10BC3
  5
10BC5
331
10BDD
  5
10BDE
331
11985
  5
11986
331
10BFF
  5
10C00
331
10B6E
  5
10B6E
331
10B4E
  5
10B4E
331
10B2C
  5
10B2C
331
10B0A
  5
10B0A
331
10AE8
  5
10AE8
331
10E51
  5
11812
331
10BB0
  5
10BB1
331
10BCA
  5
10BCB
331
11957
  5
11958
331
10C0E
  5
10C0F
331
10BEC
  5
10BED
331
11994
  5
11995
331
10B7D
  5
10B7D
331
10B5B
  5
10B5B
331
10B3B
  5
10B3B
331
10B19
  5
10B19
331
10BC1
  5
10BC3
331
10B9F
  5
10B9F
331
10BDB
  5
10BDD
331
11983
  5
11984
331
11946
  5
1194A
331
119A5
  5
119A6
331
10B8E
  5
10B8E
331
10B6C
  5
10B6C
331
10B4C
  5
10B4C
331
10B2A
  5
10B2A
331
10AF7
  5
10AF7
331
10AE6
  5
10AE6
331
9515
  5
9515
331
10BC8
  5
10BC9
331
11955
  5
11956
331
11970
  5
11971
331
10C58
  5
10C5B
331
10C2E
  5
10C31
331
10C0C
  5
10C0D
331
10BEA
  5
10BEB
331
11992
  5
11993
331
10B7B
  5
10B7B
331
10B59
  5
10B59
331
10B39
  5
10B39
331
10B9D
  5
10B9D
331
10BBF
  5
10BC1
331
10BD9
  5
10BDA
331
11944
  5
11945
331
11981
  5
11982
331
10C1D
  5
10C22
331
10BFB
  5
10BFC
331
119A3
  5
119A4
331
10B8C
  5
10B8C
331
10B6A
  5
10B6A
331
10B4A
  5
10B4A
331
10B28
  5
10B28
331
10B06
  5
10B06
331
10BAE
  5
10BAF
331
10AF5
  5
10AF5
331
10AE4
  5
10AE4
331
11990
  5
11991
331
11953
  5
11954
331
10C78
  5
10C79
331
10BE8
  5
10BE9
331
10BBD
  5
10BBE
331
10B9B
  5
10B9B
331
10B79
  5
10B79
331
11818
  5
11936
331
10BD7
  5
10BD8
331
11942
  5
11943
331
1197F
  5
11980
331
10C67
  5
10C68
331
10C4D
  5
10C50
331
10BF9
  5
10BFA
331
119A1
  5
119A2
331
10B8A
  5
10B8A
331
10B68
  5
10B68
331
10B48
  5
10B48
331
10B26
  5
10B26
331
10BAC
  5
10BAD
331
10B37
  5
10B37
331
10B15
  5
10B15
331
10AF3
  5
10AF3
331
11951
  5
11952
331
10C2A
  5
10C2D
331
10C08
  5
10C09
331
1198E
  5
1198F
331
10C76
  5
10C77
331
10B77
  5
10B77
331
10B55
  5
10B55
331
10B99
  5
10B99
331
11816
  5
11817
331
10BD5
  5
10BD6
331
11962
  5
11963
331
11940
  5
11941
331
10BF7
  5
10BF8
331
1199F
  5
119A0
331
10E09
  5
10E2D
331
10B88
  5
10B88
331
10B66
  5
10B66
331
10B46
  5
10B46
331
10B24
  5
10B24
331
10B02
  5
10B02
331
10BAA
  5
10BAB
331
10AF1
  5
10AF1
331
10AE0
  5
10AE0
331
10BE6
  5
10BE7
331
11B1E
  5
10BAA
331
10B35
  5
10B35
331
DBAC
  5
DBAC
331
1196A
  5
1196B
331
10C52
  5
10C53
331
10C28
  5
10C29
331
1198C
  5
1198D
331
10B97
  5
10B97
331
10B75
  5
10B75
331
10B53
  5
10B53
331
10BB9
  5
10BBC
331
11814
  5
11815
331
10BD3
  5
10BD4
331
1193E
  5
1193F
331
10C63
  5
10C64
331
10BF5
  5
10BF6
331
1199D
  5
1199E
331
10B86
  5
10B86
331
10B64
  5
10B64
331
10B44
  5
10B44
331
10B22
  5
10B22
331
10B00
  5
10B00
331
10BA8
  5
10BA8
331
1194F
  5
11950
331
10C06
  5
10C07
331
10BE4
  5
10BE5
331
10B33
  5
10B33
331
10B11
  5
10B11
331
10AEF
  5
10AEF
331
11968
  5
11969
331
10C50
  5
10C51
331
1198A
  5
1198B
331
10C72
  5
10C73
331
10B95
  5
10B95
331
10B73
  5
10B73
331
10B51
  5
10B51
331
10BB7
  5
10BB8
331
11812
  5
11814
331
10BD1
  5
10BD2
331
11979
  5
1197A
331
1195E
  5
11962
331
1193C
  5
1193D
331
10BF3
  5
10BF4
331
1199B
  5
1199C
331
10B84
  5
10B84
331
10B62
  5
10B62
331
10B42
  5
10B42
331
10B20
  5
10B20
331
10AFE
  5
10AFE
331
10BA6
  5
10BA6
331
10C26
  5
10C27
331
10C04
  5
10C05
331
10BE2
  5
10BE3
331
10B31
  5
10B31
331
10AED
  5
10AED
331
11988
  5
11989
331
10B93
  5
10B93
331
10B71
  5
10B71
331
10BB5
  5
10BB6
331
10AFC
  5
10AFC
331
10BCF
  5
10BD0
331
11977
  5
11978
331
1195C
  5
1195D
331
10C13
  5
10C14
331
10BF1
  5
10BF2
331
11999
  5
1199A
331
10B82
  5
10B82
331
10B60
  5
10B60
331
10B40
  5
10B40
331
10B1E
  5
10B1E
331
10BA4
  5
10BA4
331
10C02
  5
10C03
331
10B2F
  5
10B2F
331
10AEB
  5
10AEB
331
D16D
  5
D16D
331
10B91
  5
10B91
331
10BCD
  5
10BCE
331
1195A
  5
1195B
331
11975
  5
11976
331
10C33
  5
10C34
331
10BEF
  5
10BF0
331
11997
  5
11998
331
10B80
  5
10B80
331
10B5E
  5
10B5E
331
10B3E
  5
10B3E
331
10B1C
  5
10B1C
331
10BA2
  5
10BA2
331
10BDE
  5
10BE1
331
11986
  5
11987
331
10C6E
  5
10C6F
331
10C22
  5
10C23
331
10C00
  5
10C01
331
10B6F
  5
10B6F
331
10B4F
  5
10B4F
331
10B2D
  5
10B2D
331
10AE9
  5
10AE9
331
9538
  5
9538
  0
XRECORD
  5
11A3E
102
{ACAD_REACTORS
330
119FB
102
}
330
119FB
100
AcDbXrecord
280
     1
340
1B
  0
XRECORD
  5
11A40
102
{ACAD_REACTORS
330
119FD
102
}
330
119FD
100
AcDbXrecord
280
     1
340
23
  0
DIMASSOC
  5
10AE3
102
{ACAD_REACTORS
330
10AE2
102
}
330
10AE2
100
AcDbDimAssoc
330
10AE1
 90
        3
 70
     0
 71
     0
  1
AcDbOsnapPointRef
 72
     1
331
10B5E
 73
     0
 91
        0
 40
0.0
 10
816.602780679603
 20
104.0127880704698
 30
0.0
 75
     0
  1
AcDbOsnapPointRef
 72
     1
331
10AF3
 73
     0
 91
        0
 40
0.0
 10
753.4333088419227
 20
-151.4916473689025
 30
0.0
 75
     0
  0
DIMASSOC
  5
10B3D
102
{ACAD_REACTORS
330
10B3C
102
}
330
10B3C
100
AcDbDimAssoc
330
10B3B
 90
        3
 70
     0
 71
     0
  1
AcDbOsnapPointRef
 72
     1
331
10BB1
 73
     0
 91
        0
 40
0.0
 10
768.3948526666884
 20
160.3920710033629
 30
0.0
 75
     0
  1
AcDbOsnapPointRef
 72
     1
331
10B5E
 73
     0
 91
        0
 40
0.0
 10
816.602780679603
 20
104.0127880704698
 30
0.0
 75
     0
  0
LAYOUT
  5
22
102
{ACAD_XDICTIONARY
360
11B6C
102
}
102
{ACAD_REACTORS
330
1A
102
}
330
1A
100
AcDbPlotSettings
  1

  2
DWF eView (optimized for viewing).pc3
  4
ISO_A1_(594.00_x_841.00_MM)
  6

 40
5.793749809265136
 41
17.79375076293945
 42
5.79376220703125
 43
17.79376220703125
 44
594.0
 45
841.0
 46
99.89
 47
84.83
 48
0.0
 49
0.0
140
0.0
141
0.0
142
1.0
143
1.0
 70
 11924
 72
     1
 73
     0
 74
     1
  7
彩色出圖.ctb
 75
    16
147
1.0
148
-562.2505240618474
149
262.1720611311432
100
AcDbLayout
  1
Model
 70
     1
 71
     0
 10
0.0
 20
0.0
 11
12.0
 21
9.0
 12
0.0
 22
0.0
 32
0.0
 14
0.0
 24
0.0
 34
0.0
 15
0.0
 25
0.0
 35
0.0
146
0.0
 13
0.0
 23
0.0
 33
0.0
 16
1.0
 26
0.0
 36
0.0
 17
0.0
 27
1.0
 37
0.0
 76
     0
330
1F
  0
LAYOUT
  5
1E
102
{ACAD_XDICTIONARY
360
11B6A
102
}
102
{ACAD_REACTORS
330
1A
102
}
330
1A
100
AcDbPlotSettings
  1

  2
\\USER2\EPSON Stylus Photo 750 單色
  4

  6

 40
0.0
 41
0.0
 42
0.0
 43
0.0
 44
0.0
 45
0.0
 46
0.0
 47
0.0
 48
0.0
 49
0.0
140
0.0
141
0.0
142
1.0
143
1.0
 70
   688
 72
     0
 73
     0
 74
     5
  7
彩色出圖.ctb
 75
    16
147
1.0
148
0.0
149
0.0
100
AcDbLayout
  1
配置1
 70
     1
 71
     1
 10
0.0
 20
0.0
 11
420.0
 21
297.0
 12
0.0
 22
0.0
 32
0.0
 14
1.000000000000000E+20
 24
1.000000000000000E+20
 34
1.000000000000000E+20
 15
-1.000000000000000E+20
 25
-1.000000000000000E+20
 35
-1.000000000000000E+20
146
0.0
 13
0.0
 23
0.0
 33
0.0
 16
1.0
 26
0.0
 36
0.0
 17
0.0
 27
1.0
 37
0.0
 76
     0
330
1B
  0
LAYOUT
  5
26
102
{ACAD_XDICTIONARY
360
11B6E
102
}
102
{ACAD_REACTORS
330
1A
102
}
330
1A
100
AcDbPlotSettings
  1

  2
\\USER2\EPSON Stylus Photo 750 單色
  4

  6

 40
0.0
 41
0.0
 42
0.0
 43
0.0
 44
0.0
 45
0.0
 46
0.0
 47
0.0
 48
0.0
 49
0.0
140
0.0
141
0.0
142
1.0
143
1.0
 70
   688
 72
     0
 73
     0
 74
     5
  7
彩色出圖.ctb
 75
    16
147
1.0
148
0.0
149
0.0
100
AcDbLayout
  1
配置2
 70
     1
 71
     2
 10
0.0
 20
0.0
 11
12.0
 21
9.0
 12
0.0
 22
0.0
 32
0.0
 14
0.0
 24
0.0
 34
0.0
 15
0.0
 25
0.0
 35
0.0
146
0.0
 13
0.0
 23
0.0
 33
0.0
 16
1.0
 26
0.0
 36
0.0
 17
0.0
 27
1.0
 37
0.0
 76
     0
330
23
  0
MLINESTYLE
  5
18
102
{ACAD_REACTORS
330
17
102
}
330
17
100
AcDbMlineStyle
  2
STANDARD
 70
     0
  3

 62
   256
 51
90.0
 52
90.0
 71
     2
 49
0.5
 62
   256
  6
BYLAYER
 49
-0.5
 62
   256
  6
BYLAYER
  0
ACDBPLACEHOLDER
  5
F
102
{ACAD_REACTORS
330
E
102
}
330
E
  0
TABLESTYLE
  5
11A76
102
{ACAD_REACTORS
330
11A75
102
}
330
11A75
100
AcDbTableStyle
  3
Standard
 70
     0
 71
     0
 40
1.5
 41
1.5
280
     0
281
     0
  7
STANDARD
140
4.5
170
     2
 62
     0
 63
     7
283
     0
274
    -2
284
     1
 64
     0
275
    -2
285
     1
 65
     0
276
    -2
286
     1
 66
     0
277
    -2
287
     1
 67
     0
278
    -2
288
     1
 68
     0
279
    -2
289
     1
 69
     0
  7
STANDARD
140
6.0
170
     5
 62
     0
 63
     7
283
     0
274
    -2
284
     1
 64
     0
275
    -2
285
     1
 65
     0
276
    -2
286
     1
 66
     0
277
    -2
287
     1
 67
     0
278
    -2
288
     1
 68
     0
279
    -2
289
     1
 69
     0
  7
STANDARD
140
4.5
170
     5
 62
     0
 63
     7
283
     0
274
    -2
284
     1
 64
     0
275
    -2
285
     1
 65
     0
276
    -2
286
     1
 66
     0
277
    -2
287
     1
 67
     0
278
    -2
288
     1
 68
     0
279
    -2
289
     1
 69
     0
  0
DICTIONARYVAR
  5
11AF9
102
{ACAD_REACTORS
330
34
102
}
330
34
100
DictionaryVariables
280
     0
  1
STANDARD
  0
DICTIONARYVAR
  5
6992
102
{ACAD_REACTORS
330
34
102
}
330
34
100
DictionaryVariables
280
     0
  1
1
  0
DICTIONARYVAR
  5
35
102
{ACAD_REACTORS
330
34
102
}
330
34
100
DictionaryVariables
280
     0
  1
1
  0
DICTIONARYVAR
  5
11B66
102
{ACAD_REACTORS
330
34
102
}
330
34
100
DictionaryVariables
280
     0
  1

  0
DICTIONARY
  5
1440
102
{ACAD_REACTORS
330
43
102
}
330
43
100
AcDbDictionary
281
     1
  0
XRECORD
  5
11AED
102
{ACAD_REACTORS
330
43
102
}
330
43
100
AcDbXrecord
280
     1
 90
-1023410169
  0
LAYER_INDEX
  5
10FD6
102
{ACAD_REACTORS
330
10FD5
102
}
330
10FD5
100
AcDbIndex
 40
2453971.58204897
100
AcDbLayerIndex
  8
0
360
11B5C
 90
       48
  8
圖層2
360
11B5D
 90
        4
  8
Defpoints
360
11B5E
 90
        0
  8
AM_5
360
11B5F
 90
       14
  8
AM_REFDIM
360
11B60
 90
        6
  8
AM_7
360
11B61
 90
        4
  8
cen
360
11B62
 90
        7
  8
drg
360
11B63
 90
      250
  8
hatch
360
11B64
 90
        1
  8
LOGO
360
11B65
 90
       86
  0
DICTIONARY
  5
11B6C
330
22
100
AcDbDictionary
280
     1
281
     1
  3
ACAD_XREC_ROUNDTRIP
360
11B6D
  0
DICTIONARY
  5
11B6A
330
1E
100
AcDbDictionary
280
     1
281
     1
  3
ACAD_XREC_ROUNDTRIP
360
11B6B
  0
DICTIONARY
  5
11B6E
330
26
100
AcDbDictionary
280
     1
281
     1
  3
ACAD_XREC_ROUNDTRIP
360
11B6F
  0
IDBUFFER
  5
11B5C
330
0
100
AcDbIdBuffer
330
10C23
330
10C25
330
10C26
330
10C27
330
10C28
330
10C29
330
10C2A
330
10C2D
330
10C2E
330
10C31
330
10C32
330
10C33
330
10C34
330
10C4C
330
10C4D
330
10C50
330
10C57
330
10C58
330
10C5B
330
10C5C
330
10C62
330
10C63
330
10C64
330
10C67
330
10C68
330
10C6E
330
10C6F
330
10C72
330
10C73
330
10C76
330
10C77
330
11936
330
10BA8
330
10BF8
330
10BF9
330
10BFA
330
10BFB
330
10C08
330
10C09
330
10C0C
330
10C0D
330
10C0E
330
10C0F
330
10C10
330
10C13
330
10C14
330
10C1D
330
10C22
  0
IDBUFFER
  5
11B5D
330
0
100
AcDbIdBuffer
330
D169
330
D16D
330
DBAB
330
DBAC
  0
IDBUFFER
  5
11B5E
330
0
100
AcDbIdBuffer
  0
IDBUFFER
  5
11B5F
330
0
100
AcDbIdBuffer
330
D622
330
D62D
330
10AE1
330
10B3B
330
10DD7
330
10E09
330
10E2D
330
10E51
330
11812
330
11814
330
11815
330
11816
330
11817
330
11818
  0
IDBUFFER
  5
11B60
330
0
100
AcDbIdBuffer
330
20A1
330
21E1
330
21E8
330
950E
330
9515
330
9538
  0
IDBUFFER
  5
11B61
330
0
100
AcDbIdBuffer
330
10B39
330
10BFC
330
10BFE
330
10C1A
  0
IDBUFFER
  5
11B62
330
0
100
AcDbIdBuffer
330
10AE0
330
10B23
330
10B4E
330
10B55
330
10B5E
330
10B63
330
10BA4
  0
IDBUFFER
  5
11B63
330
0
100
AcDbIdBuffer
330
10C04
330
10C05
330
10C06
330
10C07
330
10C51
330
10C52
330
10C53
330
10C78
330
10C79
330
11B1E
330
10AE4
330
10AE5
330
10AE6
330
10AE7
330
10AE8
330
10AE9
330
10AEA
330
10AEB
330
10AEC
330
10AED
330
10AEE
330
10AEF
330
10AF0
330
10AF1
330
10AF2
330
10AF3
330
10AF4
330
10AF5
330
10AF6
330
10AF7
330
10AF9
330
10AFB
330
10AFC
330
10AFE
330
10AFF
330
10B00
330
10B01
330
10B02
330
10B03
330
10B05
330
10B06
330
10B09
330
10B0A
330
10B0C
330
10B0E
330
10B11
330
10B12
330
10B15
330
10B18
330
10B19
330
10B1A
330
10B1B
330
10B1C
330
10B1E
330
10B1F
330
10B20
330
10B21
330
10B22
330
10B24
330
10B25
330
10B26
330
10B27
330
10B28
330
10B29
330
10B2A
330
10B2B
330
10B2C
330
10B2D
330
10B2E
330
10B2F
330
10B30
330
10B31
330
10B32
330
10B33
330
10B34
330
10B35
330
10B36
330
10B37
330
10B38
330
10B3A
330
10B3E
330
10B3F
330
10B40
330
10B41
330
10B42
330
10B43
330
10B44
330
10B45
330
10B46
330
10B47
330
10B48
330
10B49
330
10B4A
330
10B4B
330
10B4C
330
10B4D
330
10B4F
330
10B50
330
10B51
330
10B52
330
10B53
330
10B54
330
10B59
330
10B5A
330
10B5B
330
10B5C
330
10B5D
330
10B5F
330
10B60
330
10B61
330
10B62
330
10B64
330
10B65
330
10B66
330
10B67
330
10B68
330
10B69
330
10B6A
330
10B6B
330
10B6C
330
10B6D
330
10B6E
330
10B6F
330
10B70
330
10B71
330
10B72
330
10B73
330
10B74
330
10B75
330
10B76
330
10B77
330
10B78
330
10B79
330
10B7A
330
10B7B
330
10B7C
330
10B7D
330
10B7E
330
10B7F
330
10B80
330
10B81
330
10B82
330
10B83
330
10B84
330
10B85
330
10B86
330
10B87
330
10B88
330
10B89
330
10B8A
330
10B8B
330
10B8C
330
10B8D
330
10B8E
330
10B8F
330
10B90
330
10B91
330
10B92
330
10B93
330
10B94
330
10B95
330
10B96
330
10B97
330
10B99
330
10B9A
330
10B9B
330
10B9C
330
10B9D
330
10B9E
330
10B9F
330
10BA0
330
10BA1
330
10BA2
330
10BA3
330
10BA5
330
10BA6
330
10BA7
330
10BA9
330
10BAA
330
10BAB
330
10BAC
330
10BAD
330
10BAE
330
10BAF
330
10BB0
330
10BB1
330
10BB4
330
10BB5
330
10BB6
330
10BB7
330
10BB8
330
10BB9
330
10BBC
330
10BBD
330
10BBE
330
10BBF
330
10BC1
330
10BC3
330
10BC5
330
10BC7
330
10BC8
330
10BC9
330
10BCA
330
10BCB
330
10BCC
330
10BCD
330
10BCE
330
10BCF
330
10BD0
330
10BD1
330
10BD2
330
10BD3
330
10BD4
330
10BD5
330
10BD6
330
10BD7
330
10BD8
330
10BD9
330
10BDA
330
10BDB
330
10BDD
330
10BDE
330
10BE1
330
10BE2
330
10BE3
330
10BE4
330
10BE5
330
10BE6
330
10BE7
330
10BE8
330
10BE9
330
10BEA
330
10BEB
330
10BEC
330
10BED
330
10BEE
330
10BEF
330
10BF0
330
10BF1
330
10BF2
330
10BF3
330
10BF4
330
10BF5
330
10BF6
330
10BF7
330
10BFF
330
10C00
330
10C01
330
10C02
330
10C03
  0
IDBUFFER
  5
11B64
330
0
100
AcDbIdBuffer
330
10B98
  0
IDBUFFER
  5
11B65
330
0
100
AcDbIdBuffer
330
11981
330
11982
330
11983
330
11984
330
11985
330
11986
330
11987
330
11988
330
11989
330
1198A
330
1198B
330
1198C
330
1198D
330
1198E
330
1198F
330
11990
330
11991
330
11992
330
11993
330
11994
330
11995
330
11996
330
11997
330
11998
330
11999
330
1199A
330
1199B
330
1199C
330
1199D
330
1199E
330
1199F
330
119A0
330
119A1
330
119A2
330
119A3
330
119A4
330
119A5
330
119A6
330
1193C
330
1193D
330
1193E
330
1193F
330
11940
330
11941
330
11942
330
11943
330
11944
330
11945
330
11946
330
1194A
330
1194E
330
1194F
330
11950
330
11951
330
11952
330
11953
330
11954
330
11955
330
11956
330
11957
330
11958
330
11959
330
1195A
330
1195B
330
1195C
330
1195D
330
1195E
330
11962
330
11963
330
11967
330
11968
330
11969
330
1196A
330
1196B
330
1196F
330
11970
330
11971
330
11975
330
11976
330
11977
330
11978
330
11979
330
1197A
330
1197E
330
1197F
330
11980
  0
XRECORD
  5
11B6D
102
{ACAD_REACTORS
330
11B6C
102
}
330
11B6C
100
AcDbXrecord
280
     1
102
SHADEPLOT
 70
     0
102
SHADEPLOTRESLEVEL
 70
     2
102
SHADEPLOTCUSTOMDPI
 70
   300
  0
XRECORD
  5
11B6B
102
{ACAD_REACTORS
330
11B6A
102
}
330
11B6A
100
AcDbXrecord
280
     1
102
SHADEPLOT
 70
     0
102
SHADEPLOTRESLEVEL
 70
     2
102
SHADEPLOTCUSTOMDPI
 70
   300
  0
XRECORD
  5
11B6F
102
{ACAD_REACTORS
330
11B6E
102
}
330
11B6E
100
AcDbXrecord
280
     1
102
SHADEPLOT
 70
     0
102
SHADEPLOTRESLEVEL
 70
     2
102
SHADEPLOTCUSTOMDPI
 70
   300
  0
ENDSEC
  0
EOF
