  0
SECTION
  2
HEADER
  9
$ACADVER
  1
AC1015
  9
$ACADMAINTVER
 70
    20
  9
$DWGCODEPAGE
  3
ANSI_950
  9
$INSBASE
 10
0.0
 20
0.0
 30
0.0
  9
$EXTMIN
 10
257.6936105264001
 20
101.3725468017658
 30
-0.0230939595653581
  9
$EXTMAX
 10
719.7474870418232
 20
736.6652256473776
 30
302.7433479156456
  9
$LIMMIN
 10
0.0
 20
0.0
  9
$LIMMAX
 10
420.0
 20
297.0
  9
$ORTHOMODE
 70
     1
  9
$REGENMODE
 70
     1
  9
$FILLMODE
 70
     1
  9
$QTEXTMODE
 70
     0
  9
$MIRRTEXT
 70
     1
  9
$LTSCALE
 40
5.0
  9
$ATTMODE
 70
     1
  9
$TEXTSIZE
 40
3.0
  9
$TRACEWID
 40
1.0
  9
$TEXTSTYLE
  7
CHINESET
  9
$CLAYER
  8
0
  9
$CELTYPE
  6
ByLayer
  9
$CECOLOR
 62
   256
  9
$CELTSCALE
 40
1.0
  9
$DISPSILH
 70
     0
  9
$DIMSCALE
 40
1.0
  9
$DIMASZ
 40
3.0
  9
$DIMEXO
 40
1.0
  9
$DIMDLI
 40
15.0
  9
$DIMRND
 40
0.0
  9
$DIMDLE
 40
0.0
  9
$DIMEXE
 40
1.5
  9
$DIMTP
 40
0.1
  9
$DIMTM
 40
0.1
  9
$DIMTXT
 40
3.5
  9
$DIMCEN
 40
0.0
  9
$DIMTSZ
 40
0.0
  9
$DIMTOL
 70
     0
  9
$DIMLIM
 70
     0
  9
$DIMTIH
 70
     0
  9
$DIMTOH
 70
     0
  9
$DIMSE1
 70
     0
  9
$DIMSE2
 70
     0
  9
$DIMTAD
 70
     1
  9
$DIMZIN
 70
     8
  9
$DIMBLK
  1

  9
$DIMASO
 70
     1
  9
$DIMSHO
 70
     1
  9
$DIMPOST
  1

  9
$DIMAPOST
  1
"
  9
$DIMALT
 70
     0
  9
$DIMALTD
 70
     2
  9
$DIMALTF
 40
0.0393701
  9
$DIMLFAC
 40
1.0
  9
$DIMTOFL
 70
     1
  9
$DIMTVP
 40
0.0
  9
$DIMTIX
 70
     0
  9
$DIMSOXD
 70
     0
  9
$DIMSAH
 70
     0
  9
$DIMBLK1
  1

  9
$DIMBLK2
  1

  9
$DIMSTYLE
  2
AM_ISO
  9
$DIMCLRD
 70
   256
  9
$DIMCLRE
 70
   256
  9
$DIMCLRT
 70
   256
  9
$DIMTFAC
 40
0.6
  9
$DIMGAP
 40
0.8
  9
$DIMJUST
 70
     0
  9
$DIMSD1
 70
     0
  9
$DIMSD2
 70
     0
  9
$DIMTOLJ
 70
     0
  9
$DIMTZIN
 70
     8
  9
$DIMALTZ
 70
     0
  9
$DIMALTTZ
 70
     0
  9
$DIMUPT
 70
     0
  9
$DIMDEC
 70
     2
  9
$DIMTDEC
 70
     8
  9
$DIMALTU
 70
     2
  9
$DIMALTTD
 70
     2
  9
$DIMTXSTY
  7
CHINESET
  9
$DIMAUNIT
 70
     0
  9
$DIMADEC
 70
     0
  9
$DIMALTRND
 40
0.0
  9
$DIMAZIN
 70
     2
  9
$DIMDSEP
 70
    46
  9
$DIMATFIT
 70
     3
  9
$DIMFRAC
 70
     0
  9
$DIMLDRBLK
  1

  9
$DIMLUNIT
 70
     2
  9
$DIMLWD
 70
    -1
  9
$DIMLWE
 70
    -1
  9
$DIMTMOVE
 70
     0
  9
$LUNITS
 70
     2
  9
$LUPREC
 70
     2
  9
$SKETCHINC
 40
1.0
  9
$FILLETRAD
 40
2.0
  9
$AUNITS
 70
     0
  9
$AUPREC
 70
     0
  9
$MENU
  1
.
  9
$ELEVATION
 40
0.0
  9
$PELEVATION
 40
0.0
  9
$THICKNESS
 40
0.0
  9
$LIMCHECK
 70
     0
  9
$CHAMFERA
 40
2.5
  9
$CHAMFERB
 40
2.5
  9
$CHAMFERC
 40
20.0
  9
$CHAMFERD
 40
0.0
  9
$SKPOLY
 70
     0
  9
$TDCREATE
 40
2454314.367237952
  9
$TDUCREATE
 40
2454314.033904618
  9
$TDUPDATE
 40
2454319.664184560
  9
$TDUUPDATE
 40
2454319.330851227
  9
$TDINDWG
 40
0.1611563194
  9
$TDUSRTIMER
 40
0.1611563194
  9
$USRTIMER
 70
     1
  9
$ANGBASE
 50
0.0
  9
$ANGDIR
 70
     0
  9
$PDMODE
 70
     0
  9
$PDSIZE
 40
0.0
  9
$PLINEWID
 40
0.0
  9
$SPLFRAME
 70
     0
  9
$SPLINETYPE
 70
     6
  9
$SPLINESEGS
 70
     8
  9
$HANDSEED
  5
2449
  9
$SURFTAB1
 70
     6
  9
$SURFTAB2
 70
     6
  9
$SURFTYPE
 70
     6
  9
$SURFU
 70
     6
  9
$SURFV
 70
     6
  9
$UCSBASE
  2

  9
$UCSNAME
  2

  9
$UCSORG
 10
0.0
 20
0.0
 30
0.0
  9
$UCSXDIR
 10
1.0
 20
0.0
 30
0.0
  9
$UCSYDIR
 10
0.0
 20
1.0
 30
0.0
  9
$UCSORTHOREF
  2

  9
$UCSORTHOVIEW
 70
     0
  9
$UCSORGTOP
 10
0.0
 20
0.0
 30
0.0
  9
$UCSORGBOTTOM
 10
0.0
 20
0.0
 30
0.0
  9
$UCSORGLEFT
 10
0.0
 20
0.0
 30
0.0
  9
$UCSORGRIGHT
 10
0.0
 20
0.0
 30
0.0
  9
$UCSORGFRONT
 10
0.0
 20
0.0
 30
0.0
  9
$UCSORGBACK
 10
0.0
 20
0.0
 30
0.0
  9
$PUCSBASE
  2

  9
$PUCSNAME
  2

  9
$PUCSORG
 10
0.0
 20
0.0
 30
0.0
  9
$PUCSXDIR
 10
1.0
 20
0.0
 30
0.0
  9
$PUCSYDIR
 10
0.0
 20
1.0
 30
0.0
  9
$PUCSORTHOREF
  2

  9
$PUCSORTHOVIEW
 70
     0
  9
$PUCSORGTOP
 10
0.0
 20
0.0
 30
0.0
  9
$PUCSORGBOTTOM
 10
0.0
 20
0.0
 30
0.0
  9
$PUCSORGLEFT
 10
0.0
 20
0.0
 30
0.0
  9
$PUCSORGRIGHT
 10
0.0
 20
0.0
 30
0.0
  9
$PUCSORGFRONT
 10
0.0
 20
0.0
 30
0.0
  9
$PUCSORGBACK
 10
0.0
 20
0.0
 30
0.0
  9
$USERI1
 70
     0
  9
$USERI2
 70
     0
  9
$USERI3
 70
     0
  9
$USERI4
 70
     0
  9
$USERI5
 70
     0
  9
$USERR1
 40
0.0
  9
$USERR2
 40
0.0
  9
$USERR3
 40
0.0
  9
$USERR4
 40
0.0
  9
$USERR5
 40
0.0
  9
$WORLDVIEW
 70
     1
  9
$SHADEDGE
 70
     3
  9
$SHADEDIF
 70
    70
  9
$TILEMODE
 70
     1
  9
$MAXACTVP
 70
    64
  9
$PINSBASE
 10
0.0
 20
0.0
 30
0.0
  9
$PLIMCHECK
 70
     0
  9
$PEXTMIN
 10
1.000000000000000E+20
 20
1.000000000000000E+20
 30
1.000000000000000E+20
  9
$PEXTMAX
 10
-1.000000000000000E+20
 20
-1.000000000000000E+20
 30
-1.000000000000000E+20
  9
$PLIMMIN
 10
0.0
 20
0.0
  9
$PLIMMAX
 10
420.0
 20
297.0
  9
$UNITMODE
 70
     0
  9
$VISRETAIN
 70
     1
  9
$PLINEGEN
 70
     0
  9
$PSLTSCALE
 70
     1
  9
$TREEDEPTH
 70
  3020
  9
$CMLSTYLE
  2
Standard
  9
$CMLJUST
 70
     0
  9
$CMLSCALE
 40
20.0
  9
$PROXYGRAPHICS
 70
     1
  9
$MEASUREMENT
 70
     1
  9
$CELWEIGHT
370
    -1
  9
$ENDCAPS
280
     0
  9
$JOINSTYLE
280
     0
  9
$LWDISPLAY
290
     0
  9
$INSUNITS
 70
     4
  9
$HYPERLINKBASE
  1

  9
$STYLESHEET
  1
彩色出圖.ctb
  9
$XEDIT
290
     1
  9
$CEPSNTYPE
380
     0
  9
$PSTYLEMODE
290
     1
  9
$FINGERPRINTGUID
  2
{D74E9C25-DA55-4DB5-BCDF-9149035F1FE2}
  9
$VERSIONGUID
  2
{0616D868-E146-41AC-8258-E4208D9FB75D}
  9
$EXTNAMES
290
     1
  9
$PSVPSCALE
 40
0.0
  9
$OLESTARTUP
290
     0
  0
ENDSEC
  0
SECTION
  2
CLASSES
  0
CLASS
  1
ACDBDICTIONARYWDFLT
  2
AcDbDictionaryWithDefault
  3
ObjectDBX Classes
 90
        0
280
     0
281
     0
  0
CLASS
  1
ACDBPLACEHOLDER
  2
AcDbPlaceHolder
  3
ObjectDBX Classes
 90
        0
280
     0
281
     0
  0
CLASS
  1
LAYOUT
  2
AcDbLayout
  3
ObjectDBX Classes
 90
        0
280
     0
281
     0
  0
CLASS
  1
ACME_DOCUMENT
  2
AcMeDbDoc
  3
AcMeServices
 90
        0
280
     0
281
     0
  0
CLASS
  1
AMGSETTINGSOBJ
  2
AmgSettingsObj
  3
"AcadM|Product Description: AutoCAD Mechanical 2000|Company: Autodesk"
 90
        0
280
     0
281
     0
  0
CLASS
  1
ACMESCOPE
  2
AcMeScope
  3
AcMeServices
 90
        0
280
     0
281
     0
  0
CLASS
  1
ACMECOMMANDHISTORY
  2
AcMeCommandHistory
  3
AcMeServices
 90
        0
280
     0
281
     0
  0
CLASS
  1
ACIMSYSVARMAN
  2
AcImSysVarManager
  3
AcMeServices
 90
        0
280
     0
281
     0
  0
CLASS
  1
ACIMREALSYSVAR
  2
AcImRealSysVar
  3
AcMeServices
 90
        0
280
     0
281
     0
  0
CLASS
  1
ACIMINTSYSVAR
  2
AcImIntSysVar
  3
AcMeServices
 90
        0
280
     0
281
     0
  0
CLASS
  1
ACMEDRAWINGMAN
  2
AcMeDrawingMan
  3
AcMeServices
 90
        0
280
     0
281
     0
  0
CLASS
  1
ACMEVIEW
  2
AcMeView
  3
AcMeServices
 90
        0
280
     0
281
     0
  0
CLASS
  1
ACDBENTITYCACHE
  2
AcMeEntityCache
  3
AcMeServices
 90
        0
280
     0
281
     0
  0
CLASS
  1
GSMANAGER
  2
AcMeGSManager
  3
AcMeServices
 90
        0
280
     0
281
     0
  0
CLASS
  1
AMDTINTERNALREACTOR
  2
AmdtInternalReactor
  3
AcMeServices
 90
        0
280
     0
281
     0
  0
CLASS
  1
ACMESTATEMGR
  2
AcMeStateMgr
  3
AcMeServices
 90
        0
280
     0
281
     0
  0
CLASS
  1
ACGREFMASTER
  2
AcGrefMaster
  3
AcAttribServices
 90
        0
280
     0
281
     0
  0
CLASS
  1
ACME_DATABASE
  2
AcMeDbDatabase
  3
AcMeServices
 90
        0
280
     0
281
     0
  0
CLASS
  1
ACRFINSADJUSTERMGR
  2
AcRfInsAdjusterMgr
  3
AcMeServices
 90
        0
280
     0
281
     0
  0
CLASS
  1
ACGREFACADMASTER
  2
AcGrefacadMaster
  3
AcGrefServices
 90
        0
280
     0
281
     0
  0
CLASS
  1
AMIMASTER
  2
AmiMaster
  3
AmiServices
 90
        0
280
     0
281
     0
  0
CLASS
  1
ACMDATADICTIONARY
  2
AcmDataDictionary
  3
"AcmSymBB|Product Description: AutoCAD Mechanical 2004 DX|Company: Autodesk"
 90
        0
280
     0
281
     0
  0
CLASS
  1
ACMDATAENTRYBLOCK
  2
AcmDataEntryBlock
  3
"AcmSymBB|Product Description: AutoCAD Mechanical 2004 DX|Company: Autodesk"
 90
        0
280
     0
281
     0
  0
CLASS
  1
ACIMSTRSYSVAR
  2
AcImStrSysVar
  3
AcMeServices
 90
        0
280
     0
281
     0
  0
CLASS
  1
ACMSTANDARDISO
  2
AcmStandardISO
  3
"Amdt_StdImp|Product Description: AutoCAD Mechanical 2004 DX|Company: Autodesk"
 90
        0
280
     0
281
     0
  0
CLASS
  1
AMGOBJPROPCFG
  2
AmgObjPropCfg
  3
"AmgLay|Product Description: AutoCAD Mechanical 2000|Company: Autodesk"
 90
        1
280
     0
281
     0
  0
CLASS
  1
AMDTEDGESTANDARDISO
  2
AmdtEdgeStdISO
  3
"Amdt_StdImp|Product Description: AutoCAD Mechanical 2004 DX|Company: Autodesk"
 90
        0
280
     0
281
     0
  0
CLASS
  1
ACMSURFSTANDARDISO
  2
AcmSurfTextStdISO
  3
"Amdt_StdImp|Product Description: AutoCAD Mechanical 2004 DX|Company: Autodesk"
 90
        0
280
     0
281
     0
  0
CLASS
  1
ACMFCFSTANDARDISO
  2
AcmFCFStdISO
  3
"Amdt_StdImp|Product Description: AutoCAD Mechanical 2004 DX|Company: Autodesk"
 90
        0
280
     0
281
     0
  0
CLASS
  1
ACMWELDSTANDARDISO
  2
AcmWeldingStdISO
  3
"Amdt_StdImp|Product Description: AutoCAD Mechanical 2004 DX|Company: Autodesk"
 90
        0
280
     0
281
     0
  0
CLASS
  1
ACMIDSTANDARDISO
  2
AcmIdStdISO
  3
"Amdt_StdImp|Product Description: AutoCAD Mechanical 2004 DX|Company: Autodesk"
 90
        0
280
     0
281
     0
  0
CLASS
  1
ACMDATUMSTANDARDISO
  2
AcmDatumStdISO
  3
"Amdt_StdImp|Product Description: AutoCAD Mechanical 2004 DX|Company: Autodesk"
 90
        0
280
     0
281
     0
  0
CLASS
  1
ACMBOMSTANDARDISO
  2
AcmBOMStdISO
  3
"Amdt_StdImp|Product Description: AutoCAD Mechanical 2004 DX|Company: Autodesk"
 90
        0
280
     0
281
     0
  0
CLASS
  1
ACMDETAILSTANDARDISO
  2
AmdtDetailSymStdISO
  3
"Amdt_StdImp|Product Description: AutoCAD Mechanical 2004 DX|Company: Autodesk"
 90
        0
280
     0
281
     0
  0
CLASS
  1
ACMSECTIONSTANDARDISO
  2
AmdtSectionSymStdISO
  3
"Amdt_StdImp|Product Description: AutoCAD Mechanical 2004 DX|Company: Autodesk"
 90
        0
280
     0
281
     0
  0
CLASS
  1
ACMCENTERLINESTANDARDISO
  2
AmdtCenterLineStdISO
  3
"Amdt_StdImp|Product Description: AutoCAD Mechanical 2004 DX|Company: Autodesk"
 90
        0
280
     0
281
     0
  0
CLASS
  1
ACMNOTESTANDARDISO
  2
AmdtNoteStdISO
  3
"Amdt_StdImp|Product Description: AutoCAD Mechanical 2004 DX|Company: Autodesk"
 90
        0
280
     0
281
     0
  0
CLASS
  1
ACAMGLAYSTD
  2
AcAmgLayStd
  3
"AcAmgLayStd|Product Description: AutoCAD Mechanical 2000|Company: Autodesk"
 90
        0
280
     0
281
     0
  0
CLASS
  1
ACAMGDIMSTD
  2
AcAmgDimStd
  3
"AcAmgDimStd|Product Description: AutoCAD Mechanical 2000|Company: Autodesk"
 90
        0
280
     0
281
     0
  0
CLASS
  1
ACAMGHOLECHARTSTDISO
  2
AcAmgHoleChartStdISO
  3
ACMSYMBB_MODULE_NAME
 90
        0
280
     0
281
     0
  0
CLASS
  1
ACAMGTITLESTD
  2
AcAmgTitleStd
  3
"TITLEAPP"
 90
        0
280
     0
281
     0
  0
CLASS
  1
LAYER_INDEX
  2
AcDbLayerIndex
  3
ObjectDBX Classes
 90
    32768
280
     0
281
     0
  0
CLASS
  1
IDBUFFER
  2
AcDbIdBuffer
  3
ObjectDBX Classes
 90
    32768
280
     0
281
     0
  0
CLASS
  1
DICTIONARYVAR
  2
AcDbDictionaryVar
  3
ObjectDBX Classes
 90
        0
280
     0
281
     0
  0
CLASS
  1
AM_DRAWING_MGR
  2
AcDmDwgMgr
  3
AcMechDwgViewMgmt
 90
        0
280
     0
281
     0
  0
CLASS
  1
AM_DWG_DOCUMENT
  2
AcDmDwgDocument
  3
AcMechDwgViewMgmt
 90
        0
280
     0
281
     0
  0
CLASS
  1
AM_DWG_SHEET
  2
AcDmSheet
  3
AcMechDwgViewMgmt
 90
        0
280
     0
281
     0
  0
CLASS
  1
AM_VIEWDIMPARMAP
  2
AcDmViewDimParMap
  3
AcMechDwgViewMgmt
 90
        0
280
     0
281
     0
  0
CLASS
  1
AM_DWGMGR_NAME
  2
AcDmDwgMgrName
  3
AcMechDwgViewMgmt
 90
        0
280
     0
281
     0
  0
CLASS
  1
AMDTMENUSTATEMGR
  2
AmdtMenuStateMgr
  3
McadcomServices
 90
        0
280
     0
281
     0
  0
CLASS
  1
AMDTMCOMMENUSTATE
  2
AmdtMcomMenuState
  3
McadcomServices
 90
        0
280
     0
281
     0
  0
CLASS
  1
MAPIAMMOUDLE
  2
MApiAmModule
  3
MApiAmServices
 90
        0
280
     0
281
     0
  0
CLASS
  1
AMDTADMENUSTATE
  2
AmdtAdMenuState
  3
DesignerServices
 90
        0
280
     0
281
     0
  0
CLASS
  1
ADAPPL
  2
AcAdAppl
  3
DesignerServices
 90
        0
280
     0
281
     0
  0
CLASS
  1
DEPMGR
  2
AcAdDepMgr
  3
DesignerServices
 90
        0
280
     0
281
     0
  0
CLASS
  1
PARAMMGR
  2
AcAdParamMgr
  3
DesignerServices
 90
        0
280
     0
281
     0
  0
CLASS
  1
PARAMSCOPE
  2
AcAdParamScope
  3
DesignerServices
 90
        0
280
     0
281
     0
  0
CLASS
  1
NAMEDAPPL
  2
AcAdNamedAppl
  3
DesignerServices
 90
        0
280
     0
281
     0
  0
CLASS
  1
AMDTDMMENUSTATE
  2
AmdtDmMenuState
  3
AcMechDwgViewMgmt
 90
        0
280
     0
281
     0
  0
CLASS
  1
AMDTAMMENUSTATE
  2
AmdtAmMenuState
  3
DesignerAssemblies
 90
        0
280
     0
281
     0
  0
CLASS
  1
ACAMPROJECT
  2
AcAmProject
  3
DesignerAssemblies
 90
        0
280
     0
281
     0
  0
CLASS
  1
ACAMGRCOMPDEF
  2
AcAmGrCompDef
  3
DesignerAssemblies
 90
        0
280
     0
281
     0
  0
CLASS
  1
ACCMCONTEXT
  2
AcCmContext
  3
DesignerAssemblies
 90
        0
280
     0
281
     0
  0
CLASS
  1
ACAMCOMPDEF
  2
AcAmCompDef
  3
DesignerAssemblies
 90
        0
280
     0
281
     0
  0
CLASS
  1
ACAMCOMPDEFMGR
  2
AcAmCompDefMgr
  3
DesignerAssemblies
 90
        0
280
     0
281
     0
  0
CLASS
  1
AMCONTEXTMGR
  2
AcAmContextMgr
  3
DesignerAssemblies
 90
        0
280
     0
281
     0
  0
CLASS
  1
ACAMCONTEXTMODELER
  2
AcAmContextModeler
  3
DesignerAssemblies
 90
        0
280
     0
281
     0
  0
CLASS
  1
ACMTHREADLINESTANDARDISO
  2
AmdtThreadLineStdISO
  3
"Amdt_StdImp|Product Description: AutoCAD Mechanical 2004 DX|Company: Autodesk"
 90
        0
280
     0
281
     0
  0
CLASS
  1
CATALOGSTATE
  2
AcAmCatalogState
  3
DesignerAssemblies
 90
        0
280
     0
281
     0
  0
CLASS
  1
ACAMGRCOMPDEFSET
  2
AcAmGrCompDefSet
  3
DesignerAssemblies
 90
        0
280
     0
281
     0
  0
CLASS
  1
AMDTBROWSERDBTAB
  2
AmdtBrowserDbTab
  3
McadcomServices
 90
        0
280
     0
281
     0
  0
CLASS
  1
CBROWSERAPPOBJECT
  2
CBrowserAppObject
  3
McadcomServices
 90
        0
280
     0
281
     0
  0
CLASS
  1
DM_PLACEHOLDER
  2
AcDmSelsetPlaceholder
  3
AcMechDwgViewMgmt
 90
        0
280
     0
281
     0
  0
CLASS
  1
TABLESTYLE
  2
AcDbTableStyle
  3
ObjectDBX Classes
 90
     2047
280
     0
281
     0
  0
CLASS
  1
VAACXREFPANELOBJECT
  2
VaAcXREFPanelObject
  3
VAAC_ADDIN
 90
    32768
280
     0
281
     0
  0
CLASS
  1
VAACIMAGEINVENTORY
  2
VaAcImageInventory
  3
VAAC_ADDIN
 90
    32768
280
     0
281
     0
  0
CLASS
  1
AMDTNOTETEMPLATEDB
  2
AmdtNoteTemplateDB
  3
AMDT_STDIMP_MODULE_NAME
 90
        0
280
     0
281
     0
  0
CLASS
  1
ACMBOM
  2
AcmBom
  3
"AcmSymBB|Product Description: AutoCAD Mechanical 2004 DX|Company: Autodesk"
 90
    32768
280
     0
281
     0
  0
CLASS
  1
AMDTFORMULAUPDATEDISPATCHER
  2
AmdtFormulaUpdateDispatcher
  3
AcMeServices
 90
    32768
280
     0
281
     0
  0
CLASS
  1
ACMPARTLIST
  2
AcmPartList
  3
"AcmSymBB|Product Description: AutoCAD Mechanical 2004 DX|Company: Autodesk"
 90
    33791
280
     0
281
     1
  0
CLASS
  1
ACAMGFILTERDAT
  2
AcAmgFilterDat
  3
"AcadM|Product Description: AutoCAD Mechanical 2000|Company: Autodesk"
 90
        0
280
     0
281
     0
  0
CLASS
  1
DIMASSOC
  2
AcDbDimAssoc
  3
"AcDbDimAssoc|Product Desc:     AcDim ARX App For Dimension|Company:          Autodesk, Inc.|WEB Address:      www.autodesk.com"
 90
        0
280
     0
281
     0
  0
CLASS
  1
SORTENTSTABLE
  2
AcDbSortentsTable
  3
ObjectDBX Classes
 90
        0
280
     0
281
     0
  0
CLASS
  1
ACMSTANDARDANSI
  2
AcmStandardANSI
  3
"Amdt_StdImp|Product Description: AutoCAD Mechanical 2004 DX|Company: Autodesk"
 90
        0
280
     0
281
     0
  0
CLASS
  1
ACMSURFSTANDARDANSI
  2
AcmSurfTextStdANSI
  3
"Amdt_StdImp|Product Description: AutoCAD Mechanical 2004 DX|Company: Autodesk"
 90
        0
280
     0
281
     0
  0
CLASS
  1
ACMFCFSTANDARDANSI
  2
AcmFCFStdANSI
  3
"Amdt_StdImp|Product Description: AutoCAD Mechanical 2004 DX|Company: Autodesk"
 90
        0
280
     0
281
     0
  0
CLASS
  1
ACMWELDSTANDARDANSI
  2
AcmWeldingStdANSI
  3
"Amdt_StdImp|Product Description: AutoCAD Mechanical 2004 DX|Company: Autodesk"
 90
        0
280
     0
281
     0
  0
CLASS
  1
ACMIDSTANDARDANSI
  2
AcmIdStdANSI
  3
"Amdt_StdImp|Product Description: AutoCAD Mechanical 2004 DX|Company: Autodesk"
 90
        0
280
     0
281
     0
  0
CLASS
  1
ACMDATUMSTANDARDANSI
  2
AcmDatumStdANSI
  3
"Amdt_StdImp|Product Description: AutoCAD Mechanical 2004 DX|Company: Autodesk"
 90
        0
280
     0
281
     0
  0
CLASS
  1
ACMBOMSTANDARDANSI
  2
AcmBOMStdANSI
  3
"Amdt_StdImp|Product Description: AutoCAD Mechanical 2004 DX|Company: Autodesk"
 90
        0
280
     0
281
     0
  0
CLASS
  1
ACMDETAILSTANDARDANSI
  2
AmdtDetailSymStdANSI
  3
"Amdt_StdImp|Product Description: AutoCAD Mechanical 2004 DX|Company: Autodesk"
 90
        0
280
     0
281
     0
  0
CLASS
  1
ACMSECTIONSTANDARDANSI
  2
AmdtSectionSymStdANSI
  3
"Amdt_StdImp|Product Description: AutoCAD Mechanical 2004 DX|Company: Autodesk"
 90
        0
280
     0
281
     0
  0
CLASS
  1
ACMCENTERLINESTANDARDANSI
  2
AmdtCenterLineStdANSI
  3
"Amdt_StdImp|Product Description: AutoCAD Mechanical 2004 DX|Company: Autodesk"
 90
        0
280
     0
281
     0
  0
CLASS
  1
ACMTHREADLINESTANDARDANSI
  2
AmdtThreadLineStdANSI
  3
"Amdt_StdImp|Product Description: AutoCAD Mechanical 2004 DX|Company: Autodesk"
 90
        0
280
     0
281
     0
  0
CLASS
  1
ACMNOTESTANDARDANSI
  2
AmdtNoteStdANSI
  3
"Amdt_StdImp|Product Description: AutoCAD Mechanical 2004 DX|Company: Autodesk"
 90
        0
280
     0
281
     0
  0
CLASS
  1
ACAMGHOLECHARTSTDANSI
  2
AcAmgHoleChartStdANSI
  3
ACMSYMBB_MODULE_NAME
 90
        0
280
     0
281
     0
  0
CLASS
  1
AMDTNOTE
  2
AmdtNote
  3
"AcmSymBB|Product Description: AutoCAD Mechanical 2004 DX|Company: Autodesk"
 90
     1023
280
     0
281
     1
  0
CLASS
  1
ACRFATTGENMGR
  2
AcRfAttGeneralMgr
  3
AcAttribServices
 90
        0
280
     0
281
     0
  0
ENDSEC
  0
SECTION
  2
TABLES
  0
TABLE
  2
VPORT
  5
8
330
0
100
AcDbSymbolTable
 70
     3
  0
VPORT
  5
2440
330
8
100
AcDbSymbolTableRecord
100
AcDbViewportTableRecord
  2
*Active
 70
     0
 10
0.0
 20
0.0
 11
1.0
 21
1.0
 12
488.7205487841116
 22
419.0188862245717
 13
0.0
 23
0.0
 14
2.5
 24
2.5
 15
10.0
 25
10.0
 16
0.0
 26
0.0
 36
1.0
 17
0.0
 27
0.0
 37
0.0
 40
640.4646680899452
 41
1.661684782608695
 42
50.0
 43
0.0
 44
0.0
 50
0.0
 51
0.0
 71
     0
 72
   100
 73
     1
 74
     3
 75
     0
 76
     0
 77
     0
 78
     0
281
     0
 65
     1
110
0.0
120
0.0
130
0.0
111
1.0
121
0.0
131
0.0
112
0.0
122
1.0
132
0.0
 79
     0
146
0.0
  0
ENDTAB
  0
TABLE
  2
LTYPE
  5
5
330
0
100
AcDbSymbolTable
 70
    16
  0
LTYPE
  5
14
330
5
100
AcDbSymbolTableRecord
100
AcDbLinetypeTableRecord
  2
ByBlock
 70
     0
  3

 72
    65
 73
     0
 40
0.0
  0
LTYPE
  5
15
330
5
100
AcDbSymbolTableRecord
100
AcDbLinetypeTableRecord
  2
ByLayer
 70
     0
  3

 72
    65
 73
     0
 40
0.0
  0
LTYPE
  5
16
330
5
100
AcDbSymbolTableRecord
100
AcDbLinetypeTableRecord
  2
Continuous
 70
     0
  3
Solid line
 72
    65
 73
     0
 40
0.0
  0
LTYPE
  5
64
330
5
100
AcDbSymbolTableRecord
100
AcDbLinetypeTableRecord
  2
AM_ISO02W050
 70
     0
  3
__ __ __ __ __ __ __ __ __ __ __ __ __ __ __
 72
    65
 73
     2
 40
7.5
 49
6.0
 74
     0
 49
-1.5
 74
     0
  0
LTYPE
  5
65
330
5
100
AcDbSymbolTableRecord
100
AcDbLinetypeTableRecord
  2
AM_ISO08W050
 70
     0
  3
____ . ____ . ____ . ____ . ____ . ____ . ____
 72
    65
 73
     4
 40
18.0
 49
12.0
 74
     0
 49
-1.5
 74
     0
 49
3.0
 74
     0
 49
-1.5
 74
     0
  0
LTYPE
  5
66
330
5
100
AcDbSymbolTableRecord
100
AcDbLinetypeTableRecord
  2
AM_ISO09W050
 70
     0
  3
_____ . . _____ . . _____ . . ____ .. ____
 72
    65
 73
     6
 40
22.5
 49
12.0
 74
     0
 49
-1.5
 74
     0
 49
3.0
 74
     0
 49
-1.5
 74
     0
 49
3.0
 74
     0
 49
-1.5
 74
     0
  0
LTYPE
  5
67
330
5
100
AcDbSymbolTableRecord
100
AcDbLinetypeTableRecord
  2
Amconstr
 70
     0
  3
_______________________
 72
    65
 73
     2
 40
9999.0
 49
9999.0
 74
     0
 49
0.0
 74
     0
  0
LTYPE
  5
68
330
5
100
AcDbSymbolTableRecord
100
AcDbLinetypeTableRecord
  2
AM_ISO08W050x2
 70
     0
  3
__ . __ . __ . __ . __ . __
 72
    65
 73
     4
 40
9.0
 49
6.0
 74
     0
 49
-0.75
 74
     0
 49
1.5
 74
     0
 49
-0.75
 74
     0
  0
LTYPE
  5
69
330
5
100
AcDbSymbolTableRecord
100
AcDbLinetypeTableRecord
  2
AM_ISO02W050x2
 70
     0
  3
 _ _ _ _ _ _ _ _ _ _ _ _
 72
    65
 73
     2
 40
3.75
 49
3.0
 74
     0
 49
-0.75
 74
     0
  0
LTYPE
  5
6C
330
5
100
AcDbSymbolTableRecord
100
AcDbLinetypeTableRecord
  2
Amzigzag
 70
     0
  3
/\/-/\/-/\/-/\/-/\/-/\/
 72
    65
 73
     2
 40
11.0001
 49
0.0001
 74
     4
 75
   135
340
6B
 46
0.04
 50
0.0
 44
0.0
 45
0.0
 49
-11.0
 74
     0
  0
LTYPE
  5
7A
330
5
100
AcDbSymbolTableRecord
100
AcDbLinetypeTableRecord
  2
ACISOWELD
 70
     0
  3
_ _ _ _ _
 72
    65
 73
     2
 40
2.0
 49
2.0
 74
     0
 49
-1.0
 74
     0
  0
LTYPE
  5
7B
330
5
100
AcDbSymbolTableRecord
100
AcDbLinetypeTableRecord
  2
ACISOTGB
 70
     0
  3
__ . . __ . .
 72
    65
 73
     6
 40
9.0
 49
4.0
 74
     0
 49
-1.0
 74
     0
 49
1.0
 74
     0
 49
-1.0
 74
     0
 49
1.0
 74
     0
 49
-1.0
 74
     0
  0
LTYPE
  5
7C
330
5
100
AcDbSymbolTableRecord
100
AcDbLinetypeTableRecord
  2
ACISOTGL
 70
     0
  3
_ _ _ _ _
 72
    65
 73
     2
 40
3.0
 49
2.0
 74
     0
 49
-1.0
 74
     0
  0
LTYPE
  5
7E
330
5
100
AcDbSymbolTableRecord
100
AcDbLinetypeTableRecord
  2
CENTER
 70
     0
  3
__ . __
 72
    65
 73
     4
 40
7.0
 49
4.0
 74
     0
 49
-1.0
 74
     0
 49
1.0
 74
     0
 49
-1.0
 74
     0
  0
LTYPE
  5
D8
330
5
100
AcDbSymbolTableRecord
100
AcDbLinetypeTableRecord
  2
HIDDEN
 70
     0
  3
Hidden __ __ __ __ __ __ __ __ __ __ __ __ __ _
 72
    65
 73
     2
 40
9.524999999999998
 49
6.349999999999999
 74
     0
 49
-3.174999999999999
 74
     0
  0
LTYPE
  5
D9
330
5
100
AcDbSymbolTableRecord
100
AcDbLinetypeTableRecord
  2
PHANTOM2
 70
     0
  3
Phantom (.5x) ___ _ _ ___ _ _ ___ _ _ ___ _ _
 72
    65
 73
     6
 40
31.75
 49
15.875
 74
     0
 49
-3.174999999999999
 74
     0
 49
3.174999999999999
 74
     0
 49
-3.174999999999999
 74
     0
 49
3.174999999999999
 74
     0
 49
-3.174999999999999
 74
     0
  0
LTYPE
  5
1106
330
5
100
AcDbSymbolTableRecord
100
AcDbLinetypeTableRecord
  2
ACANSTGB
 70
     0
  3
__ . . __ . .
 72
    65
 73
     6
 40
0.35433070866
 49
0.15748031496
 74
     0
 49
-0.03937007874
 74
     0
 49
0.03937007874
 74
     0
 49
-0.03937007874
 74
     0
 49
0.03937007874
 74
     0
 49
-0.03937007874
 74
     0
  0
LTYPE
  5
1107
330
5
100
AcDbSymbolTableRecord
100
AcDbLinetypeTableRecord
  2
ACANSTGL
 70
     0
  3
_ _ _ _ _
 72
    65
 73
     2
 40
0.11811023622
 49
0.07874015748
 74
     0
 49
-0.03937007874
 74
     0
  0
ENDTAB
  0
TABLE
  2
LAYER
  5
2
102
{ACAD_XDICTIONARY
360
3F9
102
}
330
0
100
AcDbSymbolTable
 70
     8
  0
LAYER
  5
10
330
2
100
AcDbSymbolTableRecord
100
AcDbLayerTableRecord
  2
0
 70
     0
 62
     7
  6
Continuous
370
    -3
390
F
  0
LAYER
  5
C42
330
2
100
AcDbSymbolTableRecord
100
AcDbLayerTableRecord
  2
AM_VIS
 70
     0
 62
     7
  6
Continuous
370
    50
390
F
  0
LAYER
  5
10C2
330
2
100
AcDbSymbolTableRecord
100
AcDbLayerTableRecord
  2
AM_7
 70
     0
 62
     1
  6
CENTER
370
    25
390
F
  0
LAYER
  5
162B
330
2
100
AcDbSymbolTableRecord
100
AcDbLayerTableRecord
  2
LOGO
 70
     0
 62
     7
  6
Continuous
370
    -3
390
F
  0
LAYER
  5
171C
330
2
100
AcDbSymbolTableRecord
100
AcDbLayerTableRecord
  2
AM_5
 70
     0
 62
     5
  6
Continuous
370
    50
390
F
  0
LAYER
  5
1731
330
2
100
AcDbSymbolTableRecord
100
AcDbLayerTableRecord
  2
Defpoints
 70
     0
 62
     7
  6
Continuous
290
     0
370
    -3
390
F
  0
LAYER
  5
22EE
330
2
100
AcDbSymbolTableRecord
100
AcDbLayerTableRecord
  2
AM_0
 70
     0
 62
     7
  6
Continuous
370
    50
390
F
  0
LAYER
  5
22EF
330
2
100
AcDbSymbolTableRecord
100
AcDbLayerTableRecord
  2
AM_4
 70
     0
 62
     3
  6
Continuous
370
    25
390
F
  0
ENDTAB
  0
TABLE
  2
STYLE
  5
3
330
0
100
AcDbSymbolTable
 70
     8
  0
STYLE
  5
11
330
3
100
AcDbSymbolTableRecord
100
AcDbTextStyleTableRecord
  2
STANDARD
 70
     0
 40
0.0
 41
1.0
 50
0.0
 71
     0
 42
3.0
  3
ISOCP.SHX
  4
CHINESET.SHX
  0
STYLE
  5
6B
330
3
100
AcDbSymbolTableRecord
100
AcDbTextStyleTableRecord
  2

 70
     1
 40
0.0
 41
1.0
 50
0.0
 71
     0
 42
2.5
  3
ltypeshp.shx
  4

  0
STYLE
  5
6D
330
3
100
AcDbSymbolTableRecord
100
AcDbTextStyleTableRecord
  2
ACISOTS
 70
     0
 40
1.0
 41
1.0
 50
0.0
 71
     0
 42
1.0
  3
isocp.shx
  4
chineset.shx
  0
STYLE
  5
79
330
3
100
AcDbSymbolTableRecord
100
AcDbTextStyleTableRecord
  2
ACISOGDT
 70
     0
 40
0.0
 41
1.0
 50
0.0
 71
     0
 42
2.5
  3
amgdt.shx
  4
chineset.shx
  0
STYLE
  5
60C
330
3
100
AcDbSymbolTableRecord
100
AcDbTextStyleTableRecord
  2
CHINESET
 70
     0
 40
0.0
 41
0.75
 50
0.0
 71
     0
 42
3.0
  3
simplex.shx
  4
CHINESET.SHX
  0
STYLE
  5
1109
330
3
100
AcDbSymbolTableRecord
100
AcDbTextStyleTableRecord
  2
ACANSTS
 70
     0
 40
1.0
 41
1.0
 50
0.0
 71
     0
 42
4.0
  3
romans.shx
  4
chineset.shx
  0
STYLE
  5
110A
330
3
100
AcDbSymbolTableRecord
100
AcDbTextStyleTableRecord
  2
ACANSGDT
 70
     0
 40
0.0
 41
1.0
 50
0.0
 71
     0
 42
4.0
  3
amgdtans.shx
  4

  0
ENDTAB
  0
TABLE
  2
VIEW
  5
6
330
0
100
AcDbSymbolTable
 70
     0
  0
ENDTAB
  0
TABLE
  2
UCS
  5
7
330
0
100
AcDbSymbolTable
 70
     0
  0
ENDTAB
  0
TABLE
  2
APPID
  5
9
330
0
100
AcDbSymbolTable
 70
    20
  0
APPID
  5
12
330
9
100
AcDbSymbolTableRecord
100
AcDbRegAppTableRecord
  2
ACAD
 70
     0
  0
APPID
  5
46
330
9
100
AcDbSymbolTableRecord
100
AcDbRegAppTableRecord
  2
MCAD_NO_VIS
 70
     0
  0
APPID
  5
47
330
9
100
AcDbSymbolTableRecord
100
AcDbRegAppTableRecord
  2
ACAD_TEMP_GRAPHIC
 70
     0
  0
APPID
  5
58
330
9
100
AcDbSymbolTableRecord
100
AcDbRegAppTableRecord
  2
ACATTRIBSERVICES
 70
     0
  0
APPID
  5
EE
330
9
100
AcDbSymbolTableRecord
100
AcDbRegAppTableRecord
  2
AD_DRAW
 70
     0
  0
APPID
  5
10C
330
9
100
AcDbSymbolTableRecord
100
AcDbRegAppTableRecord
  2
DESIGNERASSEMBLIES
 70
     0
  0
APPID
  5
111
330
9
100
AcDbSymbolTableRecord
100
AcDbRegAppTableRecord
  2
ACADM_DIM_EDIT
 70
     0
  0
APPID
  5
112
330
9
100
AcDbSymbolTableRecord
100
AcDbRegAppTableRecord
  2
AMDT_DM_ADJ
 70
     0
  0
APPID
  5
22C
330
9
100
AcDbSymbolTableRecord
100
AcDbRegAppTableRecord
  2
ACAD_DSTYLE_DIMTEXT_FILL
 70
     0
  0
APPID
  5
452
330
9
100
AcDbSymbolTableRecord
100
AcDbRegAppTableRecord
  2
GENIUS_GENOENT_13
 70
     0
  0
APPID
  5
453
330
9
100
AcDbSymbolTableRecord
100
AcDbRegAppTableRecord
  2
GENIUS_GENOBJ-N-CRS_13
 70
     0
  0
APPID
  5
454
330
9
100
AcDbSymbolTableRecord
100
AcDbRegAppTableRecord
  2
GENIUS_GENOLIS_13
 70
     0
  0
APPID
  5
455
330
9
100
AcDbSymbolTableRecord
100
AcDbRegAppTableRecord
  2
GENIUS_GENODEF_13
 70
     0
  0
APPID
  5
456
330
9
100
AcDbSymbolTableRecord
100
AcDbRegAppTableRecord
  2
GENIUS_GENOREF_13
 70
     0
  0
APPID
  5
6F3
330
9
100
AcDbSymbolTableRecord
100
AcDbRegAppTableRecord
  2
ACAD_PSEXT
 70
     0
  0
APPID
  5
808
330
9
100
AcDbSymbolTableRecord
100
AcDbRegAppTableRecord
  2
GENIUS_GENDTOL_13
 70
     0
  0
APPID
  5
10D9
330
9
100
AcDbSymbolTableRecord
100
AcDbRegAppTableRecord
  2
GENIUS_GENOBJ-N-CEN_13
 70
     0
  0
APPID
  5
10DA
330
9
100
AcDbSymbolTableRecord
100
AcDbRegAppTableRecord
  2
GENIUS_GENCEN_19
 70
     0
  0
APPID
  5
162C
330
9
100
AcDbSymbolTableRecord
100
AcDbRegAppTableRecord
  2
GENIUS_GENREC_14
 70
     0
  0
APPID
  5
162D
330
9
100
AcDbSymbolTableRecord
100
AcDbRegAppTableRecord
  2
GENIUS_GENOBJ-N-REC_13
 70
     0
  0
ENDTAB
  0
TABLE
  2
DIMSTYLE
  5
A
330
0
100
AcDbSymbolTable
 70
    15
100
AcDbDimStyleTable
 71
     3
340
81
340
8B
340
86
  0
DIMSTYLE
105
81
330
A
100
AcDbSymbolTableRecord
100
AcDbDimStyleTableRecord
  2
AM_ISO
 70
     0
  4
"
 41
3.0
 42
1.0
 43
15.0
 44
1.5
 47
0.1
 48
0.1
 73
     0
 74
     0
 77
     1
 78
     8
 79
     2
140
3.5
141
0.0
143
0.0393701
146
0.6
147
0.8
172
     1
176
   256
177
   256
178
   256
271
     2
272
     2
283
     0
284
     8
340
60C
371
    -1
372
    -1
  0
DIMSTYLE
105
82
330
A
100
AcDbSymbolTableRecord
100
AcDbDimStyleTableRecord
  2
AM_ISO$3
 70
     0
  4
"
 41
3.0
 42
1.0
 43
15.0
 44
1.5
 47
0.1
 48
0.1
 73
     0
 77
     1
 78
     8
 79
     2
140
3.5
141
0.0
143
0.0393701
146
0.6
147
0.8
176
   256
177
   256
178
   256
271
     2
272
     2
283
     0
284
     8
288
     1
289
     0
340
60C
371
    -1
372
    -1
  0
DIMSTYLE
105
83
330
A
100
AcDbSymbolTableRecord
100
AcDbDimStyleTableRecord
  2
AM_ISO$4
 70
     0
  4
"
 41
3.0
 42
1.0
 43
15.0
 44
1.5
 47
0.1
 48
0.1
 73
     0
 77
     1
 78
     8
 79
     2
140
3.5
141
0.0
143
0.0393701
146
0.6
147
0.8
176
   256
177
   256
178
   256
271
     2
272
     2
283
     0
284
     8
288
     1
289
     0
340
60C
371
    -1
372
    -1
  0
DIMSTYLE
105
84
330
A
100
AcDbSymbolTableRecord
100
AcDbDimStyleTableRecord
  2
AM_ISO$6
 70
     0
  4
"
 41
3.0
 42
1.0
 43
15.0
 44
1.5
 47
0.1
 48
0.1
 73
     0
 74
     0
 78
     8
 79
     2
140
3.5
141
0.0
143
0.0393701
146
0.6
147
0.8
172
     1
176
   256
177
   256
178
   256
271
     2
272
     2
283
     0
284
     8
340
60C
371
    -1
372
    -1
  0
DIMSTYLE
105
85
330
A
100
AcDbSymbolTableRecord
100
AcDbDimStyleTableRecord
  2
AM_ISO$7
 70
     0
  4
"
 41
3.0
 42
1.0
 43
15.0
 44
1.5
 47
0.1
 48
0.1
 73
     0
 74
     0
 77
     1
 78
     8
 79
     2
140
5.0
141
0.0
143
0.0393701
146
0.6
147
0.8
172
     1
176
   256
177
   256
178
   256
271
     2
272
     2
283
     0
284
     8
340
60C
371
    -1
372
    -1
  0
DIMSTYLE
105
86
330
A
100
AcDbSymbolTableRecord
100
AcDbDimStyleTableRecord
  2
AM_ISO$SF
 70
     0
  4
"
 41
2.5
 42
1.0
 43
10.0
 44
1.0
 47
0.1
 48
0.1
 73
     0
 74
     0
 75
     1
 76
     1
 77
     1
 78
     8
 79
     2
140
3.5
141
0.0
143
0.0393701
146
0.71
147
1.5
172
     1
176
   256
177
   256
178
     2
271
     2
272
     3
274
     4
283
     0
284
     8
340
11
371
    -1
372
    -1
  0
DIMSTYLE
105
8B
330
A
100
AcDbSymbolTableRecord
100
AcDbDimStyleTableRecord
  2
AM_ISO$SH
 70
     0
  4
"
 41
2.5
 42
1.0
 43
10.0
 44
1.0
 47
0.1
 48
0.1
 73
     0
 74
     0
 75
     1
 76
     1
 77
     1
 78
     8
 79
     2
140
3.5
141
0.0
143
0.0393701
144
2.0
146
0.71
147
1.5
172
     1
173
     1
176
   256
177
   256
178
     2
271
     2
272
     3
274
     4
283
     0
284
     8
340
11
343
87
371
    -1
372
    -1
  0
DIMSTYLE
105
40B
102
{ACAD_REACTORS
330
2148
330
2172
330
2113
330
21C3
330
21F6
102
}
330
A
100
AcDbSymbolTableRecord
100
AcDbDimStyleTableRecord
  2
AM_ISO$0
 70
     0
  4
"
 41
3.0
 42
1.0
 43
15.0
 44
1.5
 47
0.1
 48
0.1
 73
     0
 74
     0
 77
     1
 78
     8
 79
     2
140
3.5
141
0.0
143
0.0393701
146
0.6
147
0.8
172
     1
176
   256
177
   256
178
   256
271
     2
272
     2
283
     0
284
     8
340
60C
371
    -1
372
    -1
  0
DIMSTYLE
105
110C
330
A
100
AcDbSymbolTableRecord
100
AcDbDimStyleTableRecord
  2
AM_ANSI
 70
     0
  4
mm
 41
0.1
 42
0.05
 43
0.5
 44
0.1
 47
0.1
 48
0.1
 78
     7
 79
     2
140
0.12
141
0.0
146
0.71
147
0.06
176
   256
177
   256
178
     2
274
     4
284
     7
340
11
371
    -1
372
    -1
  0
DIMSTYLE
105
110D
330
A
100
AcDbSymbolTableRecord
100
AcDbDimStyleTableRecord
  2
AM_ANSI$3
 70
     0
  4
mm
 41
0.1
 42
0.05
 43
0.5
 44
0.1
 47
0.1
 48
0.1
 78
     7
 79
     2
140
0.12
141
0.0
146
0.71
147
0.06
176
   256
177
   256
178
     2
274
     4
284
     7
288
     1
289
     0
340
11
371
    -1
372
    -1
  0
DIMSTYLE
105
110E
330
A
100
AcDbSymbolTableRecord
100
AcDbDimStyleTableRecord
  2
AM_ANSI$4
 70
     0
  4
mm
 41
0.1
 42
0.05
 43
0.5
 44
0.1
 47
0.1
 48
0.1
 78
     7
 79
     2
140
0.12
141
0.0
146
0.71
147
0.06
176
   256
177
   256
178
     2
274
     4
284
     7
288
     1
289
     0
340
11
371
    -1
372
    -1
  0
DIMSTYLE
105
110F
330
A
100
AcDbSymbolTableRecord
100
AcDbDimStyleTableRecord
  2
AM_ANSI$7
 70
     0
  4
mm
 41
0.1
 42
0.05
 43
0.5
 44
0.1
 47
0.1
 48
0.1
 78
     7
 79
     2
140
0.24
141
0.0
146
0.71
147
0.06
176
   256
177
   256
178
     2
274
     4
284
     7
340
11
371
    -1
372
    -1
  0
DIMSTYLE
105
1110
330
A
100
AcDbSymbolTableRecord
100
AcDbDimStyleTableRecord
  2
AM_ANSI$SF
 70
     0
  4
mm
 41
0.1
 42
0.05
 43
0.5
 44
0.1
 47
0.1
 48
0.1
 75
     1
 76
     1
 78
     7
 79
     2
140
0.12
141
0.0
146
0.71
147
0.06
176
   256
177
   256
178
     2
274
     4
284
     7
340
11
371
    -1
372
    -1
  0
DIMSTYLE
105
1111
330
A
100
AcDbSymbolTableRecord
100
AcDbDimStyleTableRecord
  2
AM_ANSI$SH
 70
     0
  4
mm
 41
0.1
 42
0.05
 43
0.5
 44
0.1
 47
0.1
 48
0.1
 75
     1
 76
     1
 78
     7
 79
     2
140
0.12
141
0.0
146
0.71
147
0.06
173
     1
176
   256
177
   256
178
     2
274
     4
284
     7
340
11
343
87
371
    -1
372
    -1
  0
ENDTAB
  0
TABLE
  2
BLOCK_RECORD
  5
1
330
0
100
AcDbSymbolTable
 70
    11
  0
BLOCK_RECORD
  5
1F
102
{ACAD_XDICTIONARY
360
8F
102
}
330
1
100
AcDbSymbolTableRecord
100
AcDbBlockTableRecord
  2
*Model_Space
340
22
  0
BLOCK_RECORD
  5
1B
330
1
100
AcDbSymbolTableRecord
100
AcDbBlockTableRecord
  2
*Paper_Space
340
1E
  0
BLOCK_RECORD
  5
23
330
1
100
AcDbSymbolTableRecord
100
AcDbBlockTableRecord
  2
*Paper_Space0
340
26
  0
BLOCK_RECORD
  5
87
330
1
100
AcDbSymbolTableRecord
100
AcDbBlockTableRecord
  2
GENAXEH
340
0
  0
BLOCK_RECORD
  5
2114
330
1
100
AcDbSymbolTableRecord
100
AcDbBlockTableRecord
  2
*D3
340
0
  0
BLOCK_RECORD
  5
2149
330
1
100
AcDbSymbolTableRecord
100
AcDbBlockTableRecord
  2
*D4
340
0
  0
BLOCK_RECORD
  5
2173
330
1
100
AcDbSymbolTableRecord
100
AcDbBlockTableRecord
  2
*D5
340
0
  0
BLOCK_RECORD
  5
21C4
330
1
100
AcDbSymbolTableRecord
100
AcDbBlockTableRecord
  2
*D6
340
0
  0
BLOCK_RECORD
  5
21F7
330
1
100
AcDbSymbolTableRecord
100
AcDbBlockTableRecord
  2
*D7
340
0
  0
BLOCK_RECORD
  5
22FF
102
{ACAD_XDICTIONARY
360
2309
102
}
330
1
100
AcDbSymbolTableRecord
100
AcDbBlockTableRecord
  2
A$C2D7524DD
340
0
  0
BLOCK_RECORD
  5
2436
330
1
100
AcDbSymbolTableRecord
100
AcDbBlockTableRecord
  2
*S10
340
0
  0
ENDTAB
  0
ENDSEC
  0
SECTION
  2
BLOCKS
  0
BLOCK
  5
20
330
1F
100
AcDbEntity
  8
0
100
AcDbBlockBegin
  2
*Model_Space
 70
     0
 10
0.0
 20
0.0
 30
0.0
  3
*Model_Space
  1

  0
ENDBLK
  5
21
330
1F
100
AcDbEntity
  8
0
100
AcDbBlockEnd
  0
BLOCK
  5
1C
330
1B
100
AcDbEntity
 67
     1
  8
0
100
AcDbBlockBegin
  2
*Paper_Space
 70
     0
 10
0.0
 20
0.0
 30
0.0
  3
*Paper_Space
  1

  0
ENDBLK
  5
1D
330
1B
100
AcDbEntity
 67
     1
  8
0
100
AcDbBlockEnd
  0
BLOCK
  5
24
330
23
100
AcDbEntity
  8
0
100
AcDbBlockBegin
  2
*Paper_Space0
 70
     0
 10
0.0
 20
0.0
 30
0.0
  3
*Paper_Space0
  1

  0
ENDBLK
  5
25
330
23
100
AcDbEntity
  8
0
100
AcDbBlockEnd
  0
BLOCK
  5
89
330
87
100
AcDbEntity
  8
0
100
AcDbBlockBegin
  2
GENAXEH
 70
     0
 10
0.0
 20
0.0
 30
0.0
  3
GENAXEH
  1

  0
LINE
  5
88
330
87
100
AcDbEntity
  8
0
100
AcDbLine
 10
-1.0
 20
0.0
 30
0.0
 11
1.0
 21
0.0
 31
0.0
  0
ENDBLK
  5
8A
330
87
100
AcDbEntity
  8
0
100
AcDbBlockEnd
  0
BLOCK
  5
211E
330
2114
100
AcDbEntity
  8
0
100
AcDbBlockBegin
  2
*D3
 70
     1
 10
0.0
 20
0.0
 30
0.0
  3
*D3
  1

  0
LINE
  5
235A
330
2114
100
AcDbEntity
  8
AM_5
100
AcDbLine
 10
569.1518933562374
 20
217.5151367001747
 30
0.0
 11
625.9018933562376
 21
217.5151367001747
 31
0.0
  0
LINE
  5
235B
330
2114
100
AcDbEntity
  8
AM_5
100
AcDbLine
 10
580.6518933562374
 20
427.5151367001747
 30
0.0
 11
625.9018933562376
 21
427.5151367001747
 31
0.0
  0
LINE
  5
235C
330
2114
100
AcDbEntity
  8
AM_5
100
AcDbLine
 10
623.6518933562376
 20
222.0151367001747
 30
0.0
 11
623.6518933562376
 21
423.0151367001747
 31
0.0
  0
SOLID
  5
235D
330
2114
100
AcDbEntity
  8
AM_5
100
AcDbTrace
 10
622.9018933562375
 20
222.0151367001747
 30
0.0
 11
624.4018933562375
 21
222.0151367001747
 31
0.0
 12
623.6518933562376
 22
217.5151367001747
 32
0.0
 13
623.6518933562376
 23
217.5151367001747
 33
0.0
  0
SOLID
  5
235E
330
2114
100
AcDbEntity
  8
AM_5
100
AcDbTrace
 10
622.9018933562376
 20
423.0151367001747
 30
0.0
 11
624.4018933562377
 21
423.0151367001747
 31
0.0
 12
623.6518933562376
 22
427.5151367001747
 32
0.0
 13
623.6518933562376
 23
427.5151367001747
 33
0.0
  0
MTEXT
  5
235F
330
2114
100
AcDbEntity
  8
AM_5
100
AcDbMText
 10
619.8268933562375
 20
322.5151367001747
 30
0.0
 40
5.25
 41
0.0
 71
     5
 72
     1
  1
210
  7
CHINESET
 11
0.0000000000000001
 21
1.0
 31
0.0
 73
     1
 44
1.0
1001
ACAD
1000
MTEXTBEGIN
1070
    73
1070
     1
1070
    44
1040
1.0
1070
    74
1070
     0
1000
MTEXTEND
  0
POINT
  5
2360
330
2114
100
AcDbEntity
  8
Defpoints
 62
     0
100
AcDbPoint
 10
567.6518933562374
 20
217.5151367001747
 30
0.0
  0
POINT
  5
2361
330
2114
100
AcDbEntity
  8
Defpoints
 62
     0
100
AcDbPoint
 10
579.1518933562374
 20
427.5151367001747
 30
0.0
  0
POINT
  5
2362
330
2114
100
AcDbEntity
  8
Defpoints
 62
     0
100
AcDbPoint
 10
623.6518933562376
 20
427.5151367001747
 30
0.0
  0
ENDBLK
  5
211F
330
2114
100
AcDbEntity
  8
0
100
AcDbBlockEnd
  0
BLOCK
  5
2153
330
2149
100
AcDbEntity
  8
0
100
AcDbBlockBegin
  2
*D4
 70
     1
 10
0.0
 20
0.0
 30
0.0
  3
*D4
  1

  0
LINE
  5
2363
330
2149
100
AcDbEntity
  8
AM_5
100
AcDbLine
 10
580.6518933562374
 20
427.5151367001747
 30
0.0
 11
625.9018933562374
 21
427.5151367001747
 31
0.0
  0
LINE
  5
2364
330
2149
100
AcDbEntity
  8
AM_5
100
AcDbLine
 10
560.1518933562374
 20
478.5151367001747
 30
0.0
 11
625.9018933562374
 21
478.5151367001747
 31
0.0
  0
LINE
  5
2365
330
2149
100
AcDbEntity
  8
AM_5
100
AcDbLine
 10
623.6518933562374
 20
432.0151367001747
 30
0.0
 11
623.6518933562374
 21
474.0151367001747
 31
0.0
  0
SOLID
  5
2366
330
2149
100
AcDbEntity
  8
AM_5
100
AcDbTrace
 10
622.9018933562374
 20
432.0151367001747
 30
0.0
 11
624.4018933562374
 21
432.0151367001747
 31
0.0
 12
623.6518933562374
 22
427.5151367001747
 32
0.0
 13
623.6518933562374
 23
427.5151367001747
 33
0.0
  0
SOLID
  5
2367
330
2149
100
AcDbEntity
  8
AM_5
100
AcDbTrace
 10
622.9018933562374
 20
474.0151367001747
 30
0.0
 11
624.4018933562374
 21
474.0151367001747
 31
0.0
 12
623.6518933562374
 22
478.5151367001747
 32
0.0
 13
623.6518933562374
 23
478.5151367001747
 33
0.0
  0
MTEXT
  5
2368
330
2149
100
AcDbEntity
  8
AM_5
100
AcDbMText
 10
619.8268933562372
 20
453.0151367001748
 30
0.0
 40
5.25
 41
0.0
 71
     5
 72
     1
  1
51
  7
CHINESET
 11
0.0000000000000001
 21
1.0
 31
0.0
 73
     1
 44
1.0
1001
ACAD
1000
MTEXTBEGIN
1070
    73
1070
     1
1070
    44
1040
1.0
1070
    74
1070
     0
1000
MTEXTEND
  0
POINT
  5
2369
330
2149
100
AcDbEntity
  8
Defpoints
 62
     0
100
AcDbPoint
 10
579.1518933562374
 20
427.5151367001747
 30
0.0
  0
POINT
  5
236A
330
2149
100
AcDbEntity
  8
Defpoints
 62
     0
100
AcDbPoint
 10
558.6518933562374
 20
478.5151367001747
 30
0.0
  0
POINT
  5
236B
330
2149
100
AcDbEntity
  8
Defpoints
 62
     0
100
AcDbPoint
 10
623.6518933562374
 20
478.5151367001747
 30
0.0
  0
ENDBLK
  5
2154
330
2149
100
AcDbEntity
  8
0
100
AcDbBlockEnd
  0
BLOCK
  5
217D
330
2173
100
AcDbEntity
  8
0
100
AcDbBlockBegin
  2
*D5
 70
     1
 10
0.0
 20
0.0
 30
0.0
  3
*D5
  1

  0
LINE
  5
236C
330
2173
100
AcDbEntity
  8
AM_5
100
AcDbLine
 10
569.1518933562374
 20
217.5151367001747
 30
0.0
 11
640.9018933562375
 21
217.5151367001747
 31
0.0
  0
LINE
  5
236D
330
2173
100
AcDbEntity
  8
AM_5
100
AcDbLine
 10
560.6518933562374
 20
478.5151367001747
 30
0.0
 11
640.9018933562377
 21
478.5151367001746
 31
0.0
  0
LINE
  5
236E
330
2173
100
AcDbEntity
  8
AM_5
100
AcDbLine
 10
638.6518933562375
 20
222.0151367001747
 30
0.0
 11
638.6518933562377
 21
474.0151367001747
 31
0.0
  0
SOLID
  5
236F
330
2173
100
AcDbEntity
  8
AM_5
100
AcDbTrace
 10
637.9018933562376
 20
222.0151367001747
 30
0.0
 11
639.4018933562375
 21
222.0151367001747
 31
0.0
 12
638.6518933562375
 22
217.5151367001747
 32
0.0
 13
638.6518933562375
 23
217.5151367001747
 33
0.0
  0
SOLID
  5
2370
330
2173
100
AcDbEntity
  8
AM_5
100
AcDbTrace
 10
637.9018933562377
 20
474.0151367001747
 30
0.0
 11
639.4018933562376
 21
474.0151367001747
 31
0.0
 12
638.6518933562377
 22
478.5151367001747
 32
0.0
 13
638.6518933562377
 23
478.5151367001747
 33
0.0
  0
MTEXT
  5
2371
330
2173
100
AcDbEntity
  8
AM_5
100
AcDbMText
 10
634.8268933562374
 20
348.0151367001748
 30
0.0
 40
5.25
 41
0.0
 71
     5
 72
     1
  1
261
  7
CHINESET
 11
0.0000000000000001
 21
1.0
 31
0.0
 73
     1
 44
1.0
1001
ACAD
1000
MTEXTBEGIN
1070
    73
1070
     1
1070
    44
1040
1.0
1070
    74
1070
     0
1000
MTEXTEND
  0
POINT
  5
2372
330
2173
100
AcDbEntity
  8
Defpoints
 62
     0
100
AcDbPoint
 10
567.6518933562374
 20
217.5151367001747
 30
0.0
  0
POINT
  5
2373
330
2173
100
AcDbEntity
  8
Defpoints
 62
     0
100
AcDbPoint
 10
559.1518933562374
 20
478.5151367001747
 30
0.0
  0
POINT
  5
2374
330
2173
100
AcDbEntity
  8
Defpoints
 62
     0
100
AcDbPoint
 10
638.6518933562377
 20
478.5151367001747
 30
0.0
  0
ENDBLK
  5
217E
330
2173
100
AcDbEntity
  8
0
100
AcDbBlockEnd
  0
BLOCK
  5
21CE
330
21C4
100
AcDbEntity
  8
0
100
AcDbBlockBegin
  2
*D6
 70
     1
 10
0.0
 20
0.0
 30
0.0
  3
*D6
  1

  0
LINE
  5
2375
330
21C4
100
AcDbEntity
  8
AM_5
100
AcDbLine
 10
444.0827228282059
 20
554.4059587636106
 30
0.0
 11
477.8730654264881
 21
554.4059587636106
 31
0.0
  0
LINE
  5
2376
330
21C4
100
AcDbEntity
  8
AM_5
100
AcDbLine
 10
444.0827228282059
 20
644.4059587636107
 30
0.0
 11
477.8730654264882
 21
644.4059587636107
 31
0.0
  0
LINE
  5
2377
330
21C4
100
AcDbEntity
  8
AM_5
100
AcDbLine
 10
475.6230654264881
 20
558.9059587636106
 30
0.0
 11
475.6230654264881
 21
639.9059587636107
 31
0.0
  0
SOLID
  5
2378
330
21C4
100
AcDbEntity
  8
AM_5
100
AcDbTrace
 10
474.8730654264881
 20
558.9059587636106
 30
0.0
 11
476.3730654264882
 21
558.9059587636106
 31
0.0
 12
475.6230654264881
 22
554.4059587636106
 32
0.0
 13
475.6230654264881
 23
554.4059587636106
 33
0.0
  0
SOLID
  5
2379
330
21C4
100
AcDbEntity
  8
AM_5
100
AcDbTrace
 10
474.8730654264881
 20
639.9059587636107
 30
0.0
 11
476.3730654264882
 21
639.9059587636107
 31
0.0
 12
475.6230654264881
 22
644.4059587636107
 32
0.0
 13
475.6230654264881
 23
644.4059587636107
 33
0.0
  0
MTEXT
  5
237A
330
21C4
100
AcDbEntity
  8
AM_5
100
AcDbMText
 10
471.7980654264881
 20
599.4059587636107
 30
0.0
 40
5.25
 41
0.0
 71
     5
 72
     1
  1
90
  7
CHINESET
 11
0.0000000000000001
 21
1.0
 31
0.0
 73
     1
 44
1.0
1001
ACAD
1000
MTEXTBEGIN
1070
    73
1070
     1
1070
    44
1040
1.0
1070
    74
1070
     0
1000
MTEXTEND
  0
POINT
  5
237B
330
21C4
100
AcDbEntity
  8
Defpoints
 62
     0
100
AcDbPoint
 10
442.5827228282059
 20
554.4059587636106
 30
0.0
  0
POINT
  5
237C
330
21C4
100
AcDbEntity
  8
Defpoints
 62
     0
100
AcDbPoint
 10
442.5827228282059
 20
644.4059587636107
 30
0.0
  0
POINT
  5
237D
330
21C4
100
AcDbEntity
  8
Defpoints
 62
     0
100
AcDbPoint
 10
475.6230654264881
 20
644.4059587636107
 30
0.0
  0
ENDBLK
  5
21CF
330
21C4
100
AcDbEntity
  8
0
100
AcDbBlockEnd
  0
BLOCK
  5
2201
330
21F7
100
AcDbEntity
  8
0
100
AcDbBlockBegin
  2
*D7
 70
     1
 10
0.0
 20
0.0
 30
0.0
  3
*D7
  1

  0
LINE
  5
237E
330
21F7
100
AcDbEntity
  8
AM_5
100
AcDbLine
 10
365.6230654264881
 20
570.9059587636106
 30
0.0
 11
365.6230654264881
 21
532.1559587636108
 31
0.0
  0
LINE
  5
237F
330
21F7
100
AcDbEntity
  8
AM_5
100
AcDbLine
 10
455.6230654264882
 20
570.9059587636106
 30
0.0
 11
455.6230654264882
 21
532.1559587636108
 31
0.0
  0
LINE
  5
2380
330
21F7
100
AcDbEntity
  8
AM_5
100
AcDbLine
 10
370.1230654264881
 20
534.4059587636108
 30
0.0
 11
451.1230654264882
 21
534.4059587636108
 31
0.0
  0
SOLID
  5
2381
330
21F7
100
AcDbEntity
  8
AM_5
100
AcDbTrace
 10
370.1230654264881
 20
535.1559587636107
 30
0.0
 11
370.1230654264881
 21
533.6559587636108
 31
0.0
 12
365.6230654264881
 22
534.4059587636108
 32
0.0
 13
365.6230654264881
 23
534.4059587636108
 33
0.0
  0
SOLID
  5
2382
330
21F7
100
AcDbEntity
  8
AM_5
100
AcDbTrace
 10
451.1230654264882
 20
535.1559587636107
 30
0.0
 11
451.1230654264882
 21
533.6559587636108
 31
0.0
 12
455.6230654264882
 22
534.4059587636108
 32
0.0
 13
455.6230654264882
 23
534.4059587636108
 33
0.0
  0
MTEXT
  5
2383
330
21F7
100
AcDbEntity
  8
AM_5
100
AcDbMText
 10
410.6230654264881
 20
538.2309587636108
 30
0.0
 40
5.25
 41
0.0
 71
     5
 72
     1
  1
90
  7
CHINESET
 73
     1
 44
1.0
1001
ACAD
1000
MTEXTBEGIN
1070
    73
1070
     1
1070
    44
1040
1.0
1070
    74
1070
     0
1000
MTEXTEND
  0
POINT
  5
2384
330
21F7
100
AcDbEntity
  8
Defpoints
 62
     0
100
AcDbPoint
 10
365.6230654264881
 20
572.4059587636106
 30
0.0
  0
POINT
  5
2385
330
21F7
100
AcDbEntity
  8
Defpoints
 62
     0
100
AcDbPoint
 10
455.6230654264882
 20
572.4059587636106
 30
0.0
  0
POINT
  5
2386
330
21F7
100
AcDbEntity
  8
Defpoints
 62
     0
100
AcDbPoint
 10
455.6230654264882
 20
534.4059587636108
 30
0.0
  0
ENDBLK
  5
2202
330
21F7
100
AcDbEntity
  8
0
100
AcDbBlockEnd
  0
BLOCK
  5
230B
330
22FF
100
AcDbEntity
  8
0
100
AcDbBlockBegin
  2
A$C2D7524DD
 70
     0
 10
0.0
 20
0.0
 30
0.0
  3
A$C2D7524DD
  1

  0
LINE
  5
2300
330
22FF
100
AcDbEntity
  8
AM_VIS
100
AcDbLine
 10
4.5
 20
-12.0
 30
0.0
 11
4.5
 21
0.0
 31
0.0
  0
LINE
  5
2301
330
22FF
100
AcDbEntity
  8
AM_VIS
100
AcDbLine
 10
3.5
 20
-12.0
 30
0.0
 11
3.5
 21
0.0
 31
0.0
  0
LINE
  5
2302
330
22FF
100
AcDbEntity
  8
AM_VIS
100
AcDbLine
 10
2.5
 20
-12.0
 30
0.0
 11
2.5
 21
0.0
 31
0.0
  0
LINE
  5
2303
330
22FF
100
AcDbEntity
  8
AM_VIS
100
AcDbLine
 10
1.5
 20
-12.0
 30
0.0
 11
1.5
 21
0.0
 31
0.0
  0
LINE
  5
2304
330
22FF
100
AcDbEntity
  8
AM_VIS
100
AcDbLine
 10
5.5
 20
-12.0
 30
0.0
 11
5.5
 21
0.0
 31
0.0
  0
LINE
  5
2305
330
22FF
100
AcDbEntity
  8
AM_VIS
100
AcDbLine
 10
6.5
 20
-12.0
 30
0.0
 11
6.5
 21
0.0
 31
0.0
  0
LINE
  5
2306
330
22FF
100
AcDbEntity
  8
AM_VIS
100
AcDbLine
 10
7.5
 20
-12.0
 30
0.0
 11
7.5
 21
0.0
 31
0.0
  0
LINE
  5
2307
330
22FF
100
AcDbEntity
  8
AM_VIS
100
AcDbLine
 10
8.5
 20
-12.0
 30
0.0
 11
8.5
 21
0.0
 31
0.0
  0
LINE
  5
2308
330
22FF
100
AcDbEntity
  8
AM_VIS
100
AcDbLine
 10
0.5
 20
-12.0
 30
0.0
 11
0.5
 21
0.0
 31
0.0
  0
ENDBLK
  5
230C
330
22FF
100
AcDbEntity
  8
0
100
AcDbBlockEnd
  0
BLOCK
  5
243B
330
2436
100
AcDbEntity
  8
0
100
AcDbBlockBegin
  2
*S10
 70
     1
 10
0.0
 20
0.0
 30
0.0
  3
*S10
  1

  0
LINE
  5
2437
330
2436
100
AcDbEntity
  8
AM_5
 62
     5
100
AcDbLine
 10
483.3943024846717
 20
463.2271754442642
 30
0.0
 11
508.5617864428025
 21
463.2271754442642
 31
0.0
  0
LINE
  5
2438
330
2436
100
AcDbEntity
  8
AM_5
 62
     5
100
AcDbLine
 10
508.5617864428025
 20
463.2271754442642
 30
0.0
 11
541.1463182286103
 21
440.7214597646576
 31
0.0
  0
TRACE
  5
2439
330
2436
100
AcDbEntity
  8
AM_5
 62
     5
370
    35
100
AcDbTrace
 10
540.7535174457456
 20
440.1527495855654
 30
0.0
 11
541.539119011475
 21
441.2901699437496
 31
0.0
 12
545.4661009296715
 22
437.7378415894193
 32
0.0
 13
545.4661009296715
 23
437.7378415894193
 33
0.0
  0
MTEXT
  5
243A
330
2436
100
AcDbEntity
  8
AM_5
 62
     5
100
AcDbMText
 10
483.3943024846717
 20
470.347113619004
 30
0.0
 40
5.25
 41
0.0
 71
     7
 72
     5
  1

  7
ACISOTS
210
0.0
220
0.0
230
-1.0
 11
-1.0
 21
0.0
 31
0.0
 73
     1
 44
1.0
1001
ACAD
1000
MTEXTBEGIN
1070
    73
1070
     1
1070
    44
1040
1.0
1070
    74
1070
     0
1000
MTEXTEND
  0
ENDBLK
  5
243C
330
2436
100
AcDbEntity
  8
0
100
AcDbBlockEnd
  0
ENDSEC
  0
SECTION
  2
ENTITIES
  0
LWPOLYLINE
  5
16A5
330
1F
100
AcDbEntity
  8
LOGO
 62
     4
100
AcDbPolyline
 90
        4
 70
     1
 43
0.0
 10
257.7371887543434
 20
147.6085300515055
 10
719.7371887543432
 20
147.6085300515055
 10
719.7371887543432
 20
736.6652196442649
 10
257.7371887543434
 20
736.6652196442649
1001
GENIUS_GENREC_14
1002
{
1000
PYDIR
1011
257.7371887543434
1021
736.6652196442649
1031
0.0
1002
}
1002
{
1000
PXDIR
1011
719.7371887543432
1021
147.6085300515055
1031
0.0
1002
}
1002
{
1000
PORI
1011
257.7371887543434
1021
147.6085300515055
1031
0.0
1002
}
1002
{
1000
PINS
1011
257.7371887543434
1021
147.6085300515055
1031
0.0
1002
}
1002
{
1000
PINS2
1011
719.7371887543432
1021
736.6652196442649
1031
0.0
1002
}
1002
{
1000
C
1070
     1
1002
}
1001
GENIUS_GENODEF_13
1002
{
1000
HIER
1070
     0
1002
}
1002
{
1000
MANEDIT
1070
     0
1002
}
1002
{
1000
NOSEL
1070
     0
1002
}
1002
{
1000
BEHIND
1070
     0
1002
}
1002
{
1000
OTHER
1070
     0
1002
}
1002
{
1000
REACTOR
1002
}
1001
GENIUS_GENOBJ-N-REC_13
1002
{
1000
OWNER
1000
GEN
1002
}
  0
LWPOLYLINE
  5
16A6
330
1F
100
AcDbEntity
  8
LOGO
 62
     4
100
AcDbPolyline
 90
        4
 70
     1
 43
0.0
 10
257.7371887543434
 20
147.6085300515055
 10
719.7371887543432
 20
147.6085300515055
 10
719.7371887543432
 20
101.4152196442649
 10
257.7371887543434
 20
101.4152196442649
1001
GENIUS_GENREC_14
1002
{
1000
PYDIR
1011
257.7371887543434
1021
101.4152196442649
1031
0.0
1002
}
1002
{
1000
PXDIR
1011
719.7371887543432
1021
147.6085300515055
1031
0.0
1002
}
1002
{
1000
PORI
1011
257.7371887543434
1021
147.6085300515055
1031
0.0
1002
}
1002
{
1000
PINS
1011
257.7371887543434
1021
147.6085300515055
1031
0.0
1002
}
1002
{
1000
PINS2
1011
719.7371887543432
1021
101.4152196442649
1031
0.0
1002
}
1002
{
1000
C
1070
     1
1002
}
1001
GENIUS_GENOBJ-N-REC_13
1002
{
1000
OWNER
1000
GEN
1002
}
1001
GENIUS_GENODEF_13
1002
{
1000
HIER
1070
     0
1002
}
1002
{
1000
MANEDIT
1070
     0
1002
}
1002
{
1000
NOSEL
1070
     0
1002
}
1002
{
1000
BEHIND
1070
     0
1002
}
1002
{
1000
OTHER
1070
     0
1002
}
1002
{
1000
REACTOR
1002
}
  0
TEXT
  5
16A7
330
1F
100
AcDbEntity
  8
LOGO
 62
     7
100
AcDbText
 10
362.0386249903572
 20
127.3720268084379
 30
0.0
 40
6.159108054298641
  1
Order example:
 41
0.8
  7
CHINESET
100
AcDbText
  0
TEXT
  5
16A8
330
1F
100
AcDbEntity
  8
LOGO
 62
     7
100
AcDbText
 10
363.14361990905
 20
136.0427756892955
 30
0.0
 40
9.238662081447962
  1
訂購代號：
  7
CHINESET
100
AcDbText
  0
LINE
  5
16A9
330
1F
100
AcDbEntity
  8
LOGO
 62
     4
100
AcDbLine
 10
359.3624716502709
 20
101.4152196442654
 30
0.0
 11
359.3624716502709
 21
147.6085300515055
 31
0.0
  0
TEXT
  5
16AA
330
1F
100
AcDbEntity
  8
LOGO
  6
Continuous
100
AcDbText
 10
274.3300334955716
 20
110.4898257619842
 30
0.0
 40
6.928996561085973
  1
金器工業股份有限公司
  7
CHINESET
100
AcDbText
  0
TEXT
  5
16AB
330
1F
100
AcDbEntity
  8
LOGO
  6
Continuous
100
AcDbText
 10
261.6028376472239
 20
103.5594716608266
 30
0.0
 40
4.619331040723981
  1
MINDMAN INDUSTRIAL CO., LTD.
 41
0.85
  7
CHINESET
100
AcDbText
  0
LINE
  5
16AC
330
1F
100
AcDbEntity
  8
LOGO
 62
     4
100
AcDbLine
 10
359.3624716502709
 20
138.3698679700575
 30
0.0
 11
291.6122830529856
 21
138.3698679700575
 31
0.0
  0
LINE
  5
16AD
330
1F
100
AcDbEntity
  8
LOGO
 62
     4
100
AcDbLine
 10
359.3624716502709
 20
129.1312058886095
 30
0.0
 11
291.6122830529856
 21
129.1312058886095
 31
0.0
  0
LINE
  5
16AE
330
1F
100
AcDbEntity
  8
LOGO
 62
     4
100
AcDbLine
 10
359.3624716502709
 20
119.892543807162
 30
0.0
 11
257.7371887543433
 21
119.892543807162
 31
0.0
  0
LINE
  5
16AF
330
1F
100
AcDbEntity
  8
LOGO
 62
     4
100
AcDbLine
 10
291.6122830529856
 20
119.892543807162
 30
0.0
 11
291.6122830529856
 21
147.6085300515055
 31
0.0
  0
TEXT
  5
16B0
330
1F
100
AcDbEntity
  8
LOGO
100
AcDbText
 10
337.9163391990362
 20
122.2022093275232
 30
0.0
 40
4.619331040723981
  1
mm
  7
CHINESET
 72
     1
 11
343.6355109637422
 21
124.5118748478852
 31
0.0
100
AcDbText
 73
     2
  0
TEXT
  5
16B1
330
1F
100
AcDbEntity
  8
LOGO
100
AcDbText
 10
335.4966896062761
 20
140.6795334904193
 30
0.0
 40
4.619331040723981
  1
1 : 1
  7
CHINESET
 72
     1
 11
343.6355109637422
 21
142.9891990107813
 31
0.0
100
AcDbText
 73
     2
  0
LINE
  5
16B2
330
1F
100
AcDbEntity
  8
LOGO
 62
     4
100
AcDbLine
 10
328.5669313787775
 20
119.892543807162
 30
0.0
 11
328.5669313787775
 21
147.6085300515055
 31
0.0
  0
CIRCLE
  5
16B3
330
1F
100
AcDbEntity
  8
LOGO
  6
Continuous
100
AcDbCircle
 10
337.1202005774709
 20
133.7604177122332
 30
0.0
 40
2.682092329040658
  0
CIRCLE
  5
16B4
330
1F
100
AcDbEntity
  8
LOGO
  6
Continuous
100
AcDbCircle
 10
337.1202005774709
 20
133.7604177122332
 30
0.0
 40
1.571468672617529
  0
LINE
  5
16B5
330
1F
100
AcDbEntity
  8
LOGO
100
AcDbLine
 10
353.9747799899954
 20
131.078325383192
 30
0.0
 11
353.9747799899954
 21
136.4425100412744
 31
0.0
  0
LINE
  5
16B6
330
1F
100
AcDbEntity
  8
LOGO
100
AcDbLine
 10
345.5665744978992
 20
132.1889490396159
 30
0.0
 11
345.5665744978992
 21
135.331886384851
 31
0.0
  0
LINE
  5
16B7
330
1F
100
AcDbEntity
  8
LOGO
  6
Continuous
100
AcDbLine
 10
345.5665744978992
 20
135.331886384851
 30
0.0
 11
353.9747799899954
 21
136.4425100412744
 31
0.0
  0
LINE
  5
16B8
330
1F
100
AcDbEntity
  8
LOGO
  6
Continuous
100
AcDbLine
 10
345.5665744978992
 20
132.1889490396159
 30
0.0
 11
353.9747799899954
 21
131.078325383192
 31
0.0
  0
TEXT
  5
16B9
330
1F
100
AcDbEntity
  8
LOGO
100
AcDbText
 10
295.4211689602254
 20
140.6818067832543
 30
302.7433465057151
 40
4.619331040723981
  1
比例 Scale:
 41
0.9
  7
CHINESET
 72
     4
 11
310.0896072158815
 21
142.9891990107813
 31
302.7433465057151
100
AcDbText
  0
TEXT
  5
16BA
330
1F
100
AcDbEntity
  8
LOGO
100
AcDbText
 10
295.1551449851123
 20
131.5058496958384
 30
302.7433465057151
 40
4.619331040723981
  1
投影  View:
 41
0.9
  7
CHINESET
 72
     4
 11
310.0896072158815
 21
133.7505369293332
 31
302.7433465057151
100
AcDbText
  0
TEXT
  5
16BB
330
1F
100
AcDbEntity
  8
LOGO
100
AcDbText
 10
295.6067670823974
 20
122.2022093275232
 30
302.7433465057151
 40
4.619331040723981
  1
單位  Unit:
 41
0.9
  7
CHINESET
 72
     4
 11
310.0896072158815
 21
124.5118748478852
 31
302.7433465057151
100
AcDbText
  0
SOLID
  5
16BC
330
1F
100
AcDbEntity
  8
LOGO
 62
     5
100
AcDbTrace
 10
262.5298188437185
 20
127.5715241523676
 30
0.0
 11
264.5270963744811
 21
127.5715241523671
 31
0.0
 12
272.8605646924899
 22
146.5112248751162
 32
0.0
 13
274.8578422232535
 23
146.5112248751152
 33
0.0
  0
SOLID
  5
16BD
330
1F
100
AcDbEntity
  8
LOGO
 62
     5
100
AcDbTrace
 10
265.3535560423849
 20
127.5715241523676
 30
0.0
 11
267.3508335731474
 21
127.5715241523676
 31
0.0
 12
274.8578422232535
 22
144.9960488172956
 32
0.0
 13
272.8605646924899
 23
137.6726978711662
 33
0.0
  0
SOLID
  5
16BE
330
1F
100
AcDbEntity
  8
LOGO
 62
     2
100
AcDbTrace
 10
264.5270963744811
 20
127.5715241523671
 30
0.0
 11
265.3535560423849
 21
127.5715241523676
 31
0.0
 12
274.8578422232535
 22
146.5112248751152
 32
0.0
 13
275.6843018911562
 23
146.5112248751152
 33
0.0
  0
SOLID
  5
16BF
330
1F
100
AcDbEntity
  8
LOGO
 62
     5
100
AcDbTrace
 10
259.3276931694595
 20
120.6843602531868
 30
0.0
 11
260.0164095593783
 21
120.6843602531868
 31
0.0
 12
261.9558885187874
 22
124.1279422027769
 32
0.0
 13
262.6446049087042
 23
124.1279422027769
 33
0.0
  0
SOLID
  5
16C0
330
1F
100
AcDbEntity
  8
LOGO
 62
     5
100
AcDbTrace
 10
261.9558885187874
 20
124.1279422027769
 30
0.0
 11
262.6446049087042
 21
124.1279422027769
 31
0.0
 12
261.9558885187874
 22
120.6843602531868
 32
0.0
 13
262.6446049087042
 23
120.6843602531868
 33
0.0
  0
SOLID
  5
16C1
330
1F
100
AcDbEntity
  8
LOGO
 62
     5
100
AcDbTrace
 10
261.9558885187874
 20
120.6843602531868
 30
0.0
 11
262.6446049087042
 21
120.6843602531868
 31
0.0
 12
264.5840838681165
 22
124.1279422027769
 32
0.0
 13
265.2728002580342
 23
124.1279422027769
 33
0.0
  0
SOLID
  5
16C2
330
1F
100
AcDbEntity
  8
LOGO
 62
     5
100
AcDbTrace
 10
264.5840838681165
 20
124.1279422027769
 30
0.0
 11
265.2728002580342
 21
124.1279422027769
 31
0.0
 12
264.5840838681165
 22
120.6843602531868
 32
0.0
 13
265.2728002580342
 23
120.6843602531868
 33
0.0
  0
POLYLINE
  5
16C3
330
1F
100
AcDbEntity
  8
LOGO
 62
     5
100
AcDb2dPolyline
 66
     1
 10
0.0
 20
0.0
 30
0.0
 40
0.6898201020814479
 41
0.6898201020814479
  0
VERTEX
  5
16C4
330
16C3
100
AcDbEntity
  8
LOGO
 62
     5
100
AcDbVertex
100
AcDb2dVertex
 10
287.6696226439763
 20
122.7505094229409
 30
0.0
 42
1.0
  0
VERTEX
  5
16C5
330
16C3
100
AcDbEntity
  8
LOGO
 62
     5
100
AcDbVertex
100
AcDb2dVertex
 10
285.6001623377315
 20
122.7505094229409
 30
0.0
 42
1.0
  0
SEQEND
  5
16C6
330
16C3
100
AcDbEntity
  8
LOGO
 62
     5
  0
POLYLINE
  5
16C7
330
1F
100
AcDbEntity
  8
LOGO
 62
     5
100
AcDb2dPolyline
 66
     1
 10
0.0
 20
0.0
 30
0.0
 70
     1
  0
VERTEX
  5
16C8
330
16C7
100
AcDbEntity
  8
LOGO
 62
     5
100
AcDbVertex
100
AcDb2dVertex
 10
281.6991376108654
 20
122.4061512279814
 30
0.0
 42
1.000000057330635
  0
VERTEX
  5
16C9
330
16C7
100
AcDbEntity
  8
LOGO
 62
     5
100
AcDbVertex
100
AcDb2dVertex
 10
283.7652867806199
 20
122.4061512279814
 30
0.0
 42
1.000000057330635
  0
SEQEND
  5
16CA
330
16C7
100
AcDbEntity
  8
LOGO
 62
     5
  0
CIRCLE
  5
16CB
330
1F
100
AcDbEntity
  8
LOGO
 62
     5
100
AcDbCircle
 10
282.7322121957442
 20
122.4061512279814
 30
0.0
 40
1.033074584877176
  0
POLYLINE
  5
16CC
330
1F
100
AcDbEntity
  8
LOGO
 62
     5
100
AcDb2dPolyline
 66
     1
 10
0.0
 20
0.0
 30
0.0
 70
     1
 40
0.6898201020814479
 41
0.6898201020814479
  0
VERTEX
  5
16CD
330
16CC
100
AcDbEntity
  8
LOGO
 62
     5
100
AcDbVertex
100
AcDb2dVertex
 10
281.3525719915803
 20
122.4061512279814
 30
0.0
 42
1.0
  0
VERTEX
  5
16CE
330
16CC
100
AcDbEntity
  8
LOGO
 62
     5
100
AcDbVertex
100
AcDb2dVertex
 10
284.111852399906
 20
122.4061512279814
 30
0.0
 42
1.0
  0
SEQEND
  5
16CF
330
16CC
100
AcDbEntity
  8
LOGO
 62
     5
  0
LINE
  5
16D0
330
1F
100
AcDbEntity
  8
LOGO
100
AcDbLine
 10
288.012325270689
 20
120.6843602531868
 30
0.0
 11
288.012325270689
 21
122.7505094229409
 31
0.0
  0
SOLID
  5
16D1
330
1F
100
AcDbEntity
  8
LOGO
 62
     5
100
AcDbTrace
 10
283.7652179089839
 20
124.1279422027769
 30
0.0
 11
284.4539342989007
 21
124.1279422027769
 31
0.0
 12
283.7652179089839
 22
120.6843602531868
 32
0.0
 13
284.4539342989007
 23
120.6843602531868
 33
0.0
  0
SOLID
  5
16D2
330
1F
100
AcDbEntity
  8
LOGO
 62
     5
100
AcDbTrace
 10
285.2574597110168
 20
120.6843602531868
 30
0.0
 11
285.9461761009357
 21
120.6843602531868
 31
0.0
 12
285.2574597110168
 22
124.1279422027769
 32
0.0
 13
285.9461761009357
 23
124.1279422027769
 33
0.0
  0
SOLID
  5
16D3
330
1F
100
AcDbEntity
  8
LOGO
 62
     5
100
AcDbTrace
 10
287.3236088807723
 20
122.7505094229409
 30
0.0
 11
288.012325270689
 21
122.7505094229409
 31
0.0
 12
287.3236088807723
 22
120.6843602531868
 32
0.0
 13
288.012325270689
 23
120.6843602531868
 33
0.0
  0
SOLID
  5
16D4
330
1F
100
AcDbEntity
  8
LOGO
 62
     5
100
AcDbTrace
 10
285.1885880720248
 20
144.9960488172956
 30
0.0
 11
283.1913105412633
 21
137.6726978711662
 31
0.0
 12
285.1885880720248
 22
127.5715241523671
 32
0.0
 13
283.1913105412633
 23
127.5715241523671
 33
0.0
  0
SOLID
  5
16D5
330
1F
100
AcDbEntity
  8
LOGO
 62
     5
100
AcDbTrace
 10
286.0150477399276
 20
127.5715241523671
 30
0.0
 11
288.012325270689
 21
127.5715241523671
 31
0.0
 12
286.0150477399276
 22
146.5112248751152
 32
0.0
 13
288.012325270689
 23
146.5112248751162
 33
0.0
  0
SOLID
  5
16D6
330
1F
100
AcDbEntity
  8
LOGO
 62
     2
100
AcDbTrace
 10
285.1885880720248
 20
146.5112248751162
 30
0.0
 11
286.0150477399276
 21
146.5112248751152
 31
0.0
 12
285.1885880720248
 22
127.5715241523671
 32
0.0
 13
286.0150477399276
 23
127.5715241523671
 33
0.0
  0
POLYLINE
  5
16D7
330
1F
100
AcDbEntity
  8
LOGO
 62
     5
100
AcDb2dPolyline
 66
     1
 10
0.0
 20
0.0
 30
0.0
 40
0.6898201020814479
 41
0.6898201020814479
  0
VERTEX
  5
16D8
330
16D7
100
AcDbEntity
  8
LOGO
 62
     5
100
AcDbVertex
100
AcDb2dVertex
 10
277.7979751407241
 20
122.7505094229409
 30
0.0
 42
1.0
  0
VERTEX
  5
16D9
330
16D7
100
AcDbEntity
  8
LOGO
 62
     5
100
AcDbVertex
100
AcDb2dVertex
 10
275.7285148344794
 20
122.7505094229409
 30
0.0
 42
1.0
  0
SEQEND
  5
16DA
330
16D7
100
AcDbEntity
  8
LOGO
 62
     5
  0
POLYLINE
  5
16DB
330
1F
100
AcDbEntity
  8
LOGO
 62
     5
100
AcDb2dPolyline
 66
     1
 10
0.0
 20
0.0
 30
0.0
 40
0.6898201020814479
 41
0.6898201020814479
  0
VERTEX
  5
16DC
330
16DB
100
AcDbEntity
  8
LOGO
 62
     5
100
AcDbVertex
100
AcDb2dVertex
 10
279.8641243104766
 20
122.7505094229409
 30
0.0
 42
1.0
  0
VERTEX
  5
16DD
330
16DB
100
AcDbEntity
  8
LOGO
 62
     5
100
AcDbVertex
100
AcDb2dVertex
 10
277.7946640042328
 20
122.7505094229409
 30
0.0
 42
1.0
  0
SEQEND
  5
16DE
330
16DB
100
AcDbEntity
  8
LOGO
 62
     5
  0
POLYLINE
  5
16DF
330
1F
100
AcDbEntity
  8
LOGO
 62
     5
100
AcDb2dPolyline
 66
     1
 10
0.0
 20
0.0
 30
0.0
 40
0.6898201020814479
 41
0.6898201020814479
  0
VERTEX
  5
16E0
330
16DF
100
AcDbEntity
  8
LOGO
 62
     5
100
AcDbVertex
100
AcDb2dVertex
 10
269.9924768072244
 20
122.7505094229409
 30
0.0
 42
1.0
  0
VERTEX
  5
16E1
330
16DF
100
AcDbEntity
  8
LOGO
 62
     5
100
AcDbVertex
100
AcDb2dVertex
 10
267.9230165009808
 20
122.7505094229409
 30
0.0
 42
1.0
  0
SEQEND
  5
16E2
330
16DF
100
AcDbEntity
  8
LOGO
 62
     5
  0
SOLID
  5
16E3
330
1F
100
AcDbEntity
  8
LOGO
 62
     5
100
AcDbTrace
 10
267.5803138742669
 20
124.1279422027769
 30
0.0
 11
268.2690302641837
 21
124.1279422027769
 31
0.0
 12
267.5803138742669
 22
120.6843602531868
 32
0.0
 13
268.2690302641837
 23
120.6843602531868
 33
0.0
  0
SOLID
  5
16E4
330
1F
100
AcDbEntity
  8
LOGO
 62
     5
100
AcDbTrace
 10
269.6464630440214
 20
122.7505094229409
 30
0.0
 11
270.3351794339401
 21
122.7505094229409
 31
0.0
 12
269.6464630440214
 22
120.6843602531868
 32
0.0
 13
270.3351794339401
 23
120.6843602531868
 33
0.0
  0
POLYLINE
  5
16E5
330
1F
100
AcDbEntity
  8
LOGO
 62
     5
100
AcDb2dPolyline
 66
     1
 10
0.0
 20
0.0
 30
0.0
 70
     1
 40
0.6898201020814479
 41
0.6898201020814479
  0
VERTEX
  5
16E6
330
16E5
100
AcDbEntity
  8
LOGO
 62
     5
100
AcDbVertex
100
AcDb2dVertex
 10
271.480924488327
 20
122.4061512279814
 30
0.0
 42
1.0
  0
VERTEX
  5
16E7
330
16E5
100
AcDbEntity
  8
LOGO
 62
     5
100
AcDbVertex
100
AcDb2dVertex
 10
274.2402048966538
 20
122.4061512279814
 30
0.0
 42
1.0
  0
SEQEND
  5
16E8
330
16E5
100
AcDbEntity
  8
LOGO
 62
     5
  0
SOLID
  5
16E9
330
1F
100
AcDbEntity
  8
LOGO
 62
     5
100
AcDbTrace
 10
273.8935704057297
 20
125.1610167876547
 30
0.0
 11
274.5822867956474
 21
125.1610167876547
 31
0.0
 12
273.8935704057297
 22
120.6843602531868
 32
0.0
 13
274.5822867956474
 23
120.6843602531868
 33
0.0
  0
SOLID
  5
16EA
330
1F
100
AcDbEntity
  8
LOGO
 62
     5
100
AcDbTrace
 10
275.3858122077667
 20
124.1279422027769
 30
0.0
 11
276.0745285976835
 21
124.1279422027769
 31
0.0
 12
275.3858122077667
 22
120.6843602531868
 32
0.0
 13
276.0745285976835
 23
120.6843602531868
 33
0.0
  0
SOLID
  5
16EB
330
1F
100
AcDbEntity
  8
LOGO
 62
     5
100
AcDbTrace
 10
277.4519613775191
 20
122.7505094229409
 30
0.0
 11
278.1406777674379
 21
122.7505094229409
 31
0.0
 12
277.4519613775191
 22
120.6843602531868
 32
0.0
 13
278.1406777674379
 23
120.6843602531868
 33
0.0
  0
SOLID
  5
16EC
330
1F
100
AcDbEntity
  8
LOGO
 62
     5
100
AcDbTrace
 10
279.5181105472736
 20
122.7505094229409
 30
0.0
 11
280.2068269371913
 21
122.7505094229409
 31
0.0
 12
279.5181105472736
 22
120.6843602531858
 32
0.0
 13
280.2068269371913
 23
120.6843602531858
 33
0.0
  0
SOLID
  5
16ED
330
1F
100
AcDbEntity
  8
LOGO
 62
     5
100
AcDbTrace
 10
266.0880720722309
 20
124.6100436757199
 30
0.0
 11
266.7767884621508
 21
124.6100436757199
 31
0.0
 12
266.0880720722309
 22
125.1610167876547
 32
0.0
 13
266.7767884621508
 23
125.1610167876547
 33
0.0
  0
SOLID
  5
16EE
330
1F
100
AcDbEntity
  8
LOGO
 62
     5
100
AcDbTrace
 10
266.0880720722309
 20
124.1279422027769
 30
0.0
 11
266.7767884621508
 21
124.1279422027769
 31
0.0
 12
266.0880720722309
 22
120.6843602531858
 32
0.0
 13
266.7767884621508
 23
120.6843602531868
 33
0.0
  0
SOLID
  5
16EF
330
1F
100
AcDbEntity
  8
LOGO
 62
     5
100
AcDbTrace
 10
272.8605646924899
 20
127.5715241523676
 30
0.0
 11
274.8578422232535
 21
127.5715241523676
 31
0.0
 12
272.8605646924899
 22
137.6726978711662
 32
0.0
 13
274.8578422232535
 23
144.9960488172956
 33
0.0
  0
SOLID
  5
16F0
330
1F
100
AcDbEntity
  8
LOGO
 62
     5
100
AcDbTrace
 10
275.6843018911562
 20
146.5112248751152
 30
0.0
 11
277.6815794219178
 21
146.5112248751162
 31
0.0
 12
275.6843018911562
 22
129.0867002101872
 32
0.0
 13
277.6815794219178
 23
136.4100511563166
 33
0.0
  0
SOLID
  5
16F1
330
1F
100
AcDbEntity
  8
LOGO
 62
     2
100
AcDbTrace
 10
274.8578422232535
 20
146.5112248751152
 30
0.0
 11
275.6843018911562
 21
146.5112248751152
 31
0.0
 12
274.8578422232535
 22
127.5715241523676
 32
0.0
 13
275.6843018911562
 23
127.5715241523676
 33
0.0
  0
SOLID
  5
16F2
330
1F
100
AcDbEntity
  8
LOGO
 62
     5
100
AcDbTrace
 10
275.6843018911562
 20
129.0867002101872
 30
0.0
 11
277.6815794219178
 21
136.4100511563166
 31
0.0
 12
285.1885880720248
 22
146.5112248751162
 32
0.0
 13
283.1913105412633
 23
146.5112248751162
 33
0.0
  0
SOLID
  5
16F3
330
1F
100
AcDbEntity
  8
LOGO
 62
     5
100
AcDbTrace
 10
275.6843018911562
 20
127.5715241523676
 30
0.0
 11
277.6815794219178
 21
127.5715241523676
 31
0.0
 12
285.1885880720248
 22
144.9960488172956
 32
0.0
 13
283.1913105412633
 23
137.6726978711662
 33
0.0
  0
SOLID
  5
16F4
330
1F
100
AcDbEntity
  8
LOGO
 62
     2
100
AcDbTrace
 10
274.8578422232535
 20
127.5715241523676
 30
0.0
 11
275.6843018911562
 21
127.5715241523676
 31
0.0
 12
285.1885880720248
 22
146.5112248751162
 32
0.0
 13
286.0150477399276
 23
146.5112248751152
 33
0.0
  0
LINE
  5
16F5
330
1F
100
AcDbEntity
  8
LOGO
 62
     4
100
AcDbLine
 10
467.0908081396811
 20
122.2022093275242
 30
0.0
 11
467.0908081396811
 21
105.264662178202
 31
0.0
  0
LINE
  5
16F6
330
1F
100
AcDbEntity
  8
LOGO
 62
     4
100
AcDbLine
 10
436.2952678681875
 20
122.2022093275242
 30
0.0
 11
436.2952678681875
 21
105.264662178202
 31
0.0
  0
LINE
  5
16F7
330
1F
100
AcDbEntity
  8
LOGO
 62
     4
100
AcDbLine
 10
467.0908081396811
 20
105.264662178202
 30
0.0
 11
436.2952678681875
 21
105.264662178202
 31
0.0
  0
LINE
  5
16F8
330
1F
100
AcDbEntity
  8
LOGO
 62
     4
100
AcDbLine
 10
476.1057674015222
 20
142.9891990107813
 30
0.0
 11
422.8993199522364
 21
142.9891990107813
 31
0.0
  0
LINE
  5
16F9
330
1F
100
AcDbEntity
  8
LOGO
 62
     4
100
AcDbLine
 10
476.1057674015222
 20
129.1312058886095
 30
0.0
 11
422.8993199522364
 21
129.1312058886095
 31
0.0
  0
LINE
  5
16FA
330
1F
100
AcDbEntity
  8
LOGO
 62
     4
100
AcDbLine
 10
422.8993199522364
 20
142.9891990107813
 30
0.0
 11
422.8993199522364
 21
129.1312058886095
 31
0.0
  0
LINE
  5
16FB
330
1F
100
AcDbEntity
  8
LOGO
 62
     4
100
AcDbLine
 10
476.1057674015222
 20
142.9891990107813
 30
0.0
 11
476.1057674015222
 21
129.1312058886095
 31
0.0
  0
LINE
  5
16FC
330
1F
100
AcDbEntity
  8
LOGO
 62
     4
100
AcDbLine
 10
453.2997917176605
 20
129.1312058886095
 30
0.0
 11
453.2997917176605
 21
122.2022093275242
 31
0.0
  0
TEXT
  5
16FD
330
1F
100
AcDbEntity
  8
LOGO
  6
Continuous
 62
     7
100
AcDbText
 10
426.0785512981741
 20
132.024041692479
 30
0.0
 40
8.085
  1
MAL500
  7
CHINESET
100
AcDbText
  0
LINE
  5
16FE
330
1F
100
AcDbEntity
  8
LOGO
 62
     4
100
AcDbLine
 10
467.0908081396811
 20
122.2022093275242
 30
0.0
 11
436.2952678681875
 21
122.2022093275242
 31
0.0
  0
TEXT
  5
16FF
330
1F
100
AcDbEntity
  8
LOGO
  6
Continuous
100
AcDbText
 10
446.1774592441131
 20
107.6553610414257
 30
302.7433465057151
 40
3.464999999999999
  1
Model
 41
0.8
  7
CHINESET
100
AcDbText
  0
TEXT
  5
1700
330
1F
100
AcDbEntity
  8
LOGO
100
AcDbText
 10
445.255188884335
 20
114.0787242806279
 30
302.7433465057151
 40
5.775
  1
型號
  7
CHINESET
100
AcDbText
  0
LINE
  5
1701
330
1F
100
AcDbEntity
  8
LOGO
  6
Continuous
 62
     7
100
AcDbLine
 10
479.139057119991
 20
136.0111152479763
 30
0.0
 11
485.258241227041
 21
136.0111152479763
 31
0.0
  0
LINE
  5
1702
330
1F
100
AcDbEntity
  8
LOGO
 62
     4
100
AcDbLine
 10
525.1301499160077
 20
122.2022093275242
 30
0.0
 11
525.1301499160077
 21
105.264662178202
 31
0.0
  0
LINE
  5
1703
330
1F
100
AcDbEntity
  8
LOGO
 62
     4
100
AcDbLine
 10
479.9946065197253
 20
122.2022093275242
 30
0.0
 11
479.9946065197253
 21
105.264662178202
 31
0.0
  0
LINE
  5
1704
330
1F
100
AcDbEntity
  8
LOGO
 62
     4
100
AcDbLine
 10
525.1301499160077
 20
105.264662178202
 30
0.0
 11
479.9946065197253
 21
105.264662178202
 31
0.0
  0
LINE
  5
1705
330
1F
100
AcDbEntity
  8
LOGO
 62
     4
100
AcDbLine
 10
525.1406512698229
 20
142.9891990107813
 30
0.0
 11
488.5198009638464
 21
142.9891990107813
 31
0.0
  0
LINE
  5
1706
330
1F
100
AcDbEntity
  8
LOGO
 62
     4
100
AcDbLine
 10
525.1406512698229
 20
129.1312058886095
 30
0.0
 11
488.5198009638464
 21
129.1312058886095
 31
0.0
  0
LINE
  5
1707
330
1F
100
AcDbEntity
  8
LOGO
 62
     4
100
AcDbLine
 10
488.5198009638464
 20
142.9891990107813
 30
0.0
 11
488.5198009638464
 21
129.1312058886095
 31
0.0
  0
LINE
  5
1708
330
1F
100
AcDbEntity
  8
LOGO
 62
     4
100
AcDbLine
 10
525.1406512698229
 20
142.9891990107813
 30
0.0
 11
525.1406512698229
 21
129.1312058886095
 31
0.0
  0
LINE
  5
1709
330
1F
100
AcDbEntity
  8
LOGO
 62
     4
100
AcDbLine
 10
506.8302261168353
 20
129.1312058886095
 30
0.0
 11
506.8302261168353
 21
122.2022093275242
 31
0.0
  0
TEXT
  5
170A
330
1F
100
AcDbEntity
  8
LOGO
  6
Continuous
 62
     7
100
AcDbText
 10
500.5616143297388
 20
132.024041692479
 30
0.0
 40
8.085
  1
*A
  7
CHINESET
100
AcDbText
  0
LINE
  5
170B
330
1F
100
AcDbEntity
  8
LOGO
 62
     4
100
AcDbLine
 10
525.1301499160077
 20
122.2022093275242
 30
0.0
 11
479.9946065197253
 21
122.2022093275242
 31
0.0
  0
TEXT
  5
170C
330
1F
100
AcDbEntity
  8
LOGO
  6
Continuous
100
AcDbText
 10
490.1479448328712
 20
107.6553610414257
 30
302.7433465057151
 40
3.464999999999999
  1
Bore size
 41
0.8
  7
CHINESET
100
AcDbText
  0
TEXT
  5
170D
330
1F
100
AcDbEntity
  8
LOGO
100
AcDbText
 10
484.3866223067671
 20
114.0787242806279
 30
302.7433465057151
 40
5.775
  1
配管口徑代號
  7
CHINESET
100
AcDbText
  0
TEXT
  5
170E
330
1F
100
AcDbEntity
  8
LOGO
100
AcDbText
 10
361.57976886603
 20
103.8726855257238
 30
0.0
 40
4.619999999999999
  1
10708016
 41
0.7
  7
CHINESET
 72
     1
 11
372.74476886603
 21
103.8726855257238
 31
0.0
100
AcDbText
  0
LINE
  5
170F
330
1F
100
AcDbEntity
  8
LOGO
 62
     4
100
AcDbLine
 10
387.082471650269
 20
110.6538817257145
 30
0.0
 11
387.0824716502709
 21
101.4152196442659
 31
0.0
  0
LINE
  5
1710
330
1F
100
AcDbEntity
  8
LOGO
 62
     4
100
AcDbLine
 10
387.082471650269
 20
110.6538817257145
 30
0.0
 11
359.3624716502709
 21
110.6538817257145
 31
0.0
  0
LINE
  5
1711
330
1F
100
AcDbEntity
  8
LOGO
  6
AM_ISO08W050x2
 48
0.3
100
AcDbLine
 10
333.4228961407183
 20
133.7604177122332
 30
0.0
 11
340.8175050142236
 21
133.7604177122332
 31
0.0
1001
GENIUS_GENOREF_13
1005
1716
  0
LINE
  5
1712
330
1F
100
AcDbEntity
  8
LOGO
  6
AM_ISO08W050x2
 48
0.3
100
AcDbLine
 10
337.1202005774709
 20
130.0631132754805
 30
0.0
 11
337.1202005774709
 21
137.4577221489858
 31
0.0
1001
GENIUS_GENOREF_13
1005
1715
  0
LINE
  5
1713
330
1F
100
AcDbEntity
  8
LOGO
  6
CENTER
 48
0.5
100
AcDbLine
 10
344.8941517635096
 20
133.7604177122332
 30
0.0
 11
354.8214590642849
 21
133.7604177122332
 31
0.0
1001
GENIUS_GENOREF_13
1005
1714
  0
POINT
  5
1714
330
1F
100
AcDbEntity
  8
0
 60
     1
100
AcDbPoint
 10
-1360.479362186603
 20
-737.9579180481117
 30
0.0
1001
GENIUS_GENOBJ-N-CRS_13
1002
{
1000
OWNER
1000
GEN
1002
}
1001
GENIUS_GENOLIS_13
1002
{
1000
ENT
1005
0
1005
0
1005
0
1005
1713
1002
}
1001
GENIUS_GENOENT_13
1002
{
1000
MYREF
1005
1714
1002
}
1002
{
1000
GRP
1005
0
1002
}
1001
GENIUS_GENODEF_13
1002
{
1000
HIER
1070
    10
1002
}
1002
{
1000
MANEDIT
1070
     1
1002
}
1002
{
1000
NOSEL
1070
     0
1002
}
1002
{
1000
BEHIND
1070
     0
1002
}
1002
{
1000
OTHER
1070
     0
1002
}
1002
{
1000
REACTOR
1002
}
  0
POINT
  5
1715
330
1F
100
AcDbEntity
  8
0
 60
     1
100
AcDbPoint
 10
-1371.803947409458
 20
-729.0823315694755
 30
0.0
1001
GENIUS_GENOBJ-N-CRS_13
1002
{
1000
OWNER
1000
GEN
1002
}
1001
GENIUS_GENOLIS_13
1002
{
1000
ENT
1005
0
1005
0
1005
0
1005
1712
1002
}
1001
GENIUS_GENOENT_13
1002
{
1000
MYREF
1005
1715
1002
}
1002
{
1000
GRP
1005
0
1002
}
1001
GENIUS_GENODEF_13
1002
{
1000
HIER
1070
    10
1002
}
1002
{
1000
MANEDIT
1070
     1
1002
}
1002
{
1000
NOSEL
1070
     0
1002
}
1002
{
1000
BEHIND
1070
     0
1002
}
1002
{
1000
OTHER
1070
     0
1002
}
1002
{
1000
REACTOR
1002
}
  0
POINT
  5
1716
330
1F
100
AcDbEntity
  8
0
 60
     1
100
AcDbPoint
 10
-1365.445273711621
 20
-737.9579180481117
 30
0.0
1001
GENIUS_GENOBJ-N-CRS_13
1002
{
1000
OWNER
1000
GEN
1002
}
1001
GENIUS_GENOLIS_13
1002
{
1000
ENT
1005
0
1005
0
1005
0
1005
1711
1002
}
1001
GENIUS_GENOENT_13
1002
{
1000
MYREF
1005
1716
1002
}
1002
{
1000
GRP
1005
0
1002
}
1001
GENIUS_GENODEF_13
1002
{
1000
HIER
1070
    10
1002
}
1002
{
1000
MANEDIT
1070
     1
1002
}
1002
{
1000
NOSEL
1070
     0
1002
}
1002
{
1000
BEHIND
1070
     0
1002
}
1002
{
1000
OTHER
1070
     0
1002
}
1002
{
1000
REACTOR
1002
}
  0
LINE
  5
1F83
330
1F
100
AcDbEntity
  8
AM_VIS
100
AcDbLine
 10
370.623065426488
 20
380.5151367001747
 30
0.0
 11
365.623065426488
 21
380.5151367001747
 31
0.0
  0
LINE
  5
1F84
330
1F
100
AcDbEntity
  8
AM_VIS
100
AcDbLine
 10
365.623065426488
 20
380.5151367001747
 30
0.0
 11
365.623065426488
 21
395.5151367001747
 31
0.0
  0
LINE
  5
1F85
330
1F
100
AcDbEntity
  8
AM_VIS
100
AcDbLine
 10
455.6230654264879
 20
395.5151367001747
 30
0.0
 11
455.6230654264879
 21
380.5151367001747
 31
0.0
  0
LINE
  5
1F86
330
1F
100
AcDbEntity
  8
AM_VIS
100
AcDbLine
 10
455.6230654264879
 20
380.5151367001747
 30
0.0
 11
450.623065426488
 21
380.5151367001747
 31
0.0
  0
LINE
  5
1F87
330
1F
100
AcDbEntity
  8
AM_VIS
100
AcDbLine
 10
450.623065426488
 20
380.5151367001747
 30
0.0
 11
450.623065426488
 21
395.5151367001747
 31
0.0
  0
LINE
  5
1F88
330
1F
100
AcDbEntity
  8
AM_VIS
100
AcDbLine
 10
446.4367944667255
 20
380.5151367001747
 30
0.0
 11
450.623065426488
 21
380.5151367001747
 31
0.0
  0
LINE
  5
1F89
330
1F
100
AcDbEntity
  8
AM_VIS
100
AcDbLine
 10
370.623065426488
 20
380.5151367001747
 30
0.0
 11
374.8093363862504
 21
380.5151367001747
 31
0.0
  0
LINE
  5
1F8A
330
1F
100
AcDbEntity
  8
AM_VIS
100
AcDbLine
 10
370.623065426488
 20
380.5151367001747
 30
0.0
 11
370.623065426488
 21
395.5151367001747
 31
0.0
  0
LINE
  5
1F8B
330
1F
100
AcDbEntity
  8
AM_VIS
100
AcDbLine
 10
378.6634080247702
 20
380.5151367001747
 30
0.0
 11
442.5827228282059
 21
380.5151367001747
 31
0.0
  0
LINE
  5
1F91
330
1F
100
AcDbEntity
  8
AM_VIS
100
AcDbLine
 10
448.5976182503882
 20
322.5139183542129
 30
0.0
 11
450.6230654264881
 21
380.5151367001747
 31
0.0
  0
LINE
  5
1F92
330
1F
100
AcDbEntity
  8
AM_VIS
100
AcDbLine
 10
372.6485126025878
 20
322.5139183542129
 30
0.0
 11
370.623065426488
 21
380.5151367001747
 31
0.0
  0
LINE
  5
1F93
330
1F
100
AcDbEntity
  8
AM_VIS
100
AcDbLine
 10
446.527819256983
 20
320.5151367001747
 30
0.0
 11
448.5976182503882
 21
322.5139183542129
 31
0.0
  0
LINE
  5
1F94
330
1F
100
AcDbEntity
  8
AM_VIS
100
AcDbLine
 10
374.7183115959929
 20
320.5151367001747
 30
0.0
 11
372.6485126025878
 21
322.5139183542129
 31
0.0
  0
LINE
  5
1F95
330
1F
100
AcDbEntity
  8
AM_VIS
100
AcDbLine
 10
378.6634080247701
 20
380.5151367001747
 30
0.0
 11
374.8093363862504
 21
380.5151367001747
 31
0.0
  0
LINE
  5
1F96
330
1F
100
AcDbEntity
  8
AM_VIS
100
AcDbLine
 10
446.4367944667255
 20
380.5151367001747
 30
0.0
 11
442.5827228282059
 21
380.5151367001747
 31
0.0
  0
LINE
  5
1F9A
330
1F
100
AcDbEntity
  8
AM_VIS
100
AcDbLine
 10
446.527819256983
 20
320.5151367001747
 30
0.0
 11
374.7183115959929
 21
320.5151367001747
 31
0.0
  0
LINE
  5
1F9B
330
1F
100
AcDbEntity
  8
AM_VIS
100
AcDbLine
 10
421.123065426488
 20
302.5151367001747
 30
0.0
 11
421.123065426488
 21
295.5151367001747
 31
0.0
  0
LINE
  5
1F9C
330
1F
100
AcDbEntity
  8
AM_VIS
100
AcDbLine
 10
421.123065426488
 20
295.5151367001747
 30
0.0
 11
400.123065426488
 21
295.5151367001747
 31
0.0
  0
LINE
  5
1F9D
330
1F
100
AcDbEntity
  8
AM_VIS
100
AcDbLine
 10
400.123065426488
 20
295.5151367001747
 30
0.0
 11
400.123065426488
 21
302.5151367001747
 31
0.0
  0
LINE
  5
1F9E
330
1F
100
AcDbEntity
  8
AM_VIS
100
AcDbLine
 10
400.123065426488
 20
302.5151367001747
 30
0.0
 11
400.123065426488
 21
320.5151367001747
 31
0.0
  0
LINE
  5
1F9F
330
1F
100
AcDbEntity
  8
AM_VIS
100
AcDbLine
 10
421.123065426488
 20
320.5151367001747
 30
0.0
 11
421.123065426488
 21
302.5151367001747
 31
0.0
  0
LINE
  5
1FA1
330
1F
100
AcDbEntity
  8
AM_VIS
100
AcDbLine
 10
399.623065426488
 20
224.5151367001747
 30
0.0
 11
399.623065426488
 21
219.5151367001747
 31
0.0
  0
LINE
  5
1FA2
330
1F
100
AcDbEntity
  8
AM_VIS
100
AcDbLine
 10
421.6230654264879
 20
224.5151367001747
 30
0.0
 11
421.6230654264879
 21
219.5151367001747
 31
0.0
  0
LINE
  5
1FA3
330
1F
100
AcDbEntity
  8
AM_VIS
100
AcDbLine
 10
380.623065426488
 20
320.5151367001747
 30
0.0
 11
380.623065426488
 21
232.5151367001747
 31
0.0
  0
LINE
  5
1FA4
330
1F
100
AcDbEntity
  8
AM_VIS
100
AcDbLine
 10
440.623065426488
 20
320.5151367001747
 30
0.0
 11
440.623065426488
 21
232.5151367001747
 31
0.0
  0
LINE
  5
1FA5
330
1F
100
AcDbEntity
  8
AM_VIS
100
AcDbLine
 10
419.6230654264879
 20
217.5151367001747
 30
0.0
 11
401.6230654264879
 21
217.5151367001747
 31
0.0
  0
LINE
  5
1FA6
330
1F
100
AcDbEntity
  8
AM_VIS
100
AcDbLine
 10
421.6230654264879
 20
224.5151367001747
 30
0.0
 11
399.623065426488
 21
224.5151367001747
 31
0.0
  0
ARC
  5
1FA8
330
1F
100
AcDbEntity
  8
AM_VIS
100
AcDbCircle
 10
401.6230654264879
 20
219.5151367001747
 30
0.0
 40
2.0
100
AcDbArc
 50
180.0
 51
270.0
  0
ARC
  5
1FA9
330
1F
100
AcDbEntity
  8
AM_VIS
100
AcDbCircle
 10
419.6230654264879
 20
219.5151367001747
 30
0.0
 40
2.0
100
AcDbArc
 50
270.0
 51
0.0
  0
ARC
  5
1FAA
330
1F
100
AcDbEntity
  8
AM_VIS
100
AcDbCircle
 10
399.623065426488
 20
251.0776367001747
 30
0.0
 40
26.56250000000001
100
AcDbArc
 50
224.3326916441644
 51
270.0
  0
ARC
  5
1FAB
330
1F
100
AcDbEntity
  8
AM_VIS
100
AcDbCircle
 10
421.6230654264879
 20
251.0776367001747
 30
0.0
 40
26.56250000000001
100
AcDbArc
 50
270.0
 51
315.6673083558356
  0
LINE
  5
1FAC
330
1F
100
AcDbEntity
  8
AM_VIS
100
AcDbLine
 10
365.6230654264881
 20
441.5151367001747
 30
0.0
 11
370.6230654264881
 21
441.5151367001747
 31
0.0
  0
LINE
  5
1FAD
330
1F
100
AcDbEntity
  8
AM_VIS
100
AcDbLine
 10
450.6230654264881
 20
441.5151367001747
 30
0.0
 11
450.6230654264881
 21
410.5151367001747
 31
0.0
  0
LINE
  5
1FAE
330
1F
100
AcDbEntity
  8
AM_VIS
100
AcDbLine
 10
370.6230654264881
 20
446.5151367001746
 30
0.0
 11
412.1230654264881
 21
446.5151367001746
 31
0.0
  0
LINE
  5
1FAF
330
1F
100
AcDbEntity
  8
AM_VIS
100
AcDbLine
 10
370.6230654264881
 20
410.5151367001747
 30
0.0
 11
370.6230654264881
 21
441.5151367001747
 31
0.0
  0
LINE
  5
1FB0
330
1F
100
AcDbEntity
  8
AM_VIS
100
AcDbLine
 10
370.6230654264881
 20
441.5151367001747
 30
0.0
 11
370.6230654264881
 21
446.5151367001746
 31
0.0
  0
LINE
  5
1FB1
330
1F
100
AcDbEntity
  8
AM_VIS
100
AcDbLine
 10
370.6230654264881
 20
410.5151367001747
 30
0.0
 11
370.6230654264881
 21
395.5151367001747
 31
0.0
  0
LINE
  5
1FB2
330
1F
100
AcDbEntity
  8
AM_VIS
100
AcDbLine
 10
374.8093363862504
 20
410.5151367001747
 30
0.0
 11
370.6230654264881
 21
410.5151367001747
 31
0.0
  0
LINE
  5
1FB3
330
1F
100
AcDbEntity
  8
AM_VIS
100
AcDbLine
 10
450.6230654264881
 20
410.5151367001747
 30
0.0
 11
446.4367944667258
 21
410.5151367001747
 31
0.0
  0
LINE
  5
1FB4
330
1F
100
AcDbEntity
  8
AM_VIS
100
AcDbLine
 10
450.6230654264881
 20
410.5151367001747
 30
0.0
 11
450.6230654264881
 21
395.5151367001747
 31
0.0
  0
LINE
  5
1FB5
330
1F
100
AcDbEntity
  8
AM_VIS
100
AcDbLine
 10
384.1230654264881
 20
410.5151367001747
 30
0.0
 11
384.1230654264881
 21
444.0151367001747
 31
0.0
  0
LINE
  5
1FB6
330
1F
100
AcDbEntity
  8
AM_VIS
100
AcDbLine
 10
442.5827228282059
 20
410.5151367001747
 30
0.0
 11
378.6634080247702
 21
410.5151367001747
 31
0.0
  0
LINE
  5
1FBC
330
1F
100
AcDbEntity
  8
AM_VIS
100
AcDbLine
 10
365.6230654264881
 20
399.0151367001747
 30
0.0
 11
365.6230654264881
 21
395.5151367001747
 31
0.0
  0
LINE
  5
1FBD
330
1F
100
AcDbEntity
  8
AM_VIS
100
AcDbLine
 10
455.6230654264882
 20
441.5151367001747
 30
0.0
 11
455.6230654264882
 21
403.0151367001747
 31
0.0
  0
LINE
  5
1FBE
330
1F
100
AcDbEntity
  8
AM_VIS
100
AcDbLine
 10
455.6230654264882
 20
441.5151367001747
 30
0.0
 11
455.6230654264882
 21
451.5151367001747
 31
0.0
  0
LINE
  5
1FBF
330
1F
100
AcDbEntity
  8
AM_VIS
100
AcDbLine
 10
450.6230654264881
 20
441.5151367001747
 30
0.0
 11
455.6230654264882
 21
441.5151367001747
 31
0.0
  0
LINE
  5
1FC0
330
1F
100
AcDbEntity
  8
AM_VIS
100
AcDbLine
 10
450.6230654264881
 20
446.5151367001746
 30
0.0
 11
450.6230654264881
 21
441.5151367001747
 31
0.0
  0
LINE
  5
1FC1
330
1F
100
AcDbEntity
  8
AM_VIS
100
AcDbLine
 10
437.1230654264881
 20
446.5151367001746
 30
0.0
 11
450.6230654264881
 21
446.5151367001746
 31
0.0
  0
LINE
  5
1FC2
330
1F
100
AcDbEntity
  8
AM_VIS
100
AcDbLine
 10
412.1230654264881
 20
444.0151367001747
 30
0.0
 11
412.1230654264881
 21
446.5151367001746
 31
0.0
  0
LINE
  5
1FC3
330
1F
100
AcDbEntity
  8
AM_VIS
100
AcDbLine
 10
412.1230654264881
 20
451.5151367001747
 30
0.0
 11
412.1230654264881
 21
446.5151367001746
 31
0.0
  0
LINE
  5
1FC4
330
1F
100
AcDbEntity
  8
AM_VIS
100
AcDbLine
 10
400.9807605810748
 20
457.0151367001747
 30
0.0
 11
400.9807605810748
 21
461.5151367001747
 31
0.0
  0
LINE
  5
1FC5
330
1F
100
AcDbEntity
  8
AM_VIS
100
AcDbLine
 10
406.1769130060747
 20
461.5151367001747
 30
0.0
 11
400.9807605810748
 21
461.5151367001747
 31
0.0
  0
LINE
  5
1FC6
330
1F
100
AcDbEntity
  8
AM_VIS
100
AcDbLine
 10
406.1769130060747
 20
457.0151367001747
 30
0.0
 11
406.1769130060747
 21
461.5151367001747
 31
0.0
  0
LINE
  5
1FC7
330
1F
100
AcDbEntity
  8
AM_VIS
100
AcDbLine
 10
416.5692178469013
 20
461.5151367001747
 30
0.0
 11
406.1769130060747
 21
461.5151367001747
 31
0.0
  0
LINE
  5
1FC8
330
1F
100
AcDbEntity
  8
AM_VIS
100
AcDbLine
 10
416.5692178469014
 20
460.5151367001747
 30
0.0
 11
416.5692178469014
 21
461.5151367001747
 31
0.0
  0
LINE
  5
1FC9
330
1F
100
AcDbEntity
  8
AM_VIS
100
AcDbLine
 10
421.7653702719012
 20
461.5151367001747
 30
0.0
 11
416.5692178469014
 21
461.5151367001747
 31
0.0
  0
LINE
  5
1FCA
330
1F
100
AcDbEntity
  8
AM_VIS
100
AcDbLine
 10
421.7653702719012
 20
460.5151367001747
 30
0.0
 11
421.7653702719012
 21
461.5151367001747
 31
0.0
  0
LINE
  5
1FCB
330
1F
100
AcDbEntity
  8
AM_VIS
100
AcDbLine
 10
388.6582314149842
 20
444.0151367001747
 30
0.0
 11
384.1230654264881
 21
444.0151367001747
 31
0.0
  0
LINE
  5
1FCC
330
1F
100
AcDbEntity
  8
AM_VIS
100
AcDbLine
 10
437.1230654264881
 20
446.5151367001746
 30
0.0
 11
437.1230654264881
 21
451.5151367001747
 31
0.0
  0
LINE
  5
1FCD
330
1F
100
AcDbEntity
  8
AM_VIS
100
AcDbLine
 10
437.1230654264881
 20
446.5151367001746
 30
0.0
 11
437.1230654264881
 21
410.5151367001747
 31
0.0
  0
LINE
  5
1FCE
330
1F
100
AcDbEntity
  8
AM_VIS
100
AcDbLine
 10
418.5489773782367
 20
444.0151367001747
 30
0.0
 11
390.5489773782367
 21
444.0151367001747
 31
0.0
  0
LINE
  5
1FCF
330
1F
100
AcDbEntity
  8
AM_VIS
100
AcDbLine
 10
416.6582314149842
 20
451.5151367001747
 30
0.0
 11
412.1230654264881
 21
451.5151367001747
 31
0.0
  0
LINE
  5
1FD0
330
1F
100
AcDbEntity
  8
AM_VIS
100
AcDbLine
 10
365.6230654264881
 20
451.5151367001747
 30
0.0
 11
412.1230654264881
 21
451.5151367001747
 31
0.0
  0
LINE
  5
1FD1
330
1F
100
AcDbEntity
  8
AM_VIS
100
AcDbLine
 10
437.1230654264881
 20
451.5151367001747
 30
0.0
 11
455.6230654264882
 21
451.5151367001747
 31
0.0
  0
LINE
  5
1FD2
330
1F
100
AcDbEntity
  8
AM_VIS
100
AcDbLine
 10
437.1230654264881
 20
451.5151367001747
 30
0.0
 11
432.5878994379918
 21
451.5151367001747
 31
0.0
  0
LINE
  5
1FD3
330
1F
100
AcDbEntity
  8
AM_VIS
100
AcDbLine
 10
430.6971534747394
 20
451.5151367001747
 30
0.0
 11
418.5489773782367
 21
451.5151367001747
 31
0.0
  0
LINE
  5
1FD4
330
1F
100
AcDbEntity
  8
AM_VIS
100
AcDbLine
 10
365.6230654264881
 20
451.5151367001747
 30
0.0
 11
365.6230654264881
 21
441.5151367001747
 31
0.0
  0
LINE
  5
1FD5
330
1F
100
AcDbEntity
  8
AM_VIS
100
AcDbLine
 10
365.6230654264881
 20
441.5151367001747
 30
0.0
 11
365.6230654264881
 21
403.0151367001747
 31
0.0
  0
LINE
  5
1FD6
330
1F
100
AcDbEntity
  8
AM_VIS
100
AcDbLine
 10
368.6230654264881
 20
399.0151367001747
 30
0.0
 11
365.6230654264881
 21
399.0151367001747
 31
0.0
  0
LINE
  5
1FD7
330
1F
100
AcDbEntity
  8
AM_VIS
100
AcDbLine
 10
365.6230654264881
 20
403.0151367001747
 30
0.0
 11
368.6230654264881
 21
403.0151367001747
 31
0.0
  0
LINE
  5
1FD8
330
1F
100
AcDbEntity
  8
AM_VIS
100
AcDbLine
 10
368.6230654264881
 20
403.0151367001747
 30
0.0
 11
368.6230654264881
 21
399.0151367001747
 31
0.0
  0
LINE
  5
1FD9
330
1F
100
AcDbEntity
  8
AM_VIS
100
AcDbLine
 10
455.6230654264882
 20
399.0151367001747
 30
0.0
 11
455.6230654264882
 21
395.5151367001747
 31
0.0
  0
LINE
  5
1FDA
330
1F
100
AcDbEntity
  8
AM_VIS
100
AcDbLine
 10
452.6230654264882
 20
403.0151367001747
 30
0.0
 11
455.6230654264882
 21
403.0151367001747
 31
0.0
  0
LINE
  5
1FDB
330
1F
100
AcDbEntity
  8
AM_VIS
100
AcDbLine
 10
455.6230654264882
 20
399.0151367001747
 30
0.0
 11
452.6230654264882
 21
399.0151367001747
 31
0.0
  0
LINE
  5
1FDC
330
1F
100
AcDbEntity
  8
AM_VIS
100
AcDbLine
 10
452.6230654264882
 20
399.0151367001747
 30
0.0
 11
452.6230654264882
 21
403.0151367001747
 31
0.0
  0
LINE
  5
1FDD
330
1F
100
AcDbEntity
  8
AM_VIS
100
AcDbLine
 10
399.6230654264881
 20
451.5151367001747
 30
0.0
 11
399.6230654264881
 21
457.0151367001747
 31
0.0
  0
LINE
  5
1FDE
330
1F
100
AcDbEntity
  8
AM_VIS
100
AcDbLine
 10
418.8730654264881
 20
461.5151367001747
 30
0.0
 11
418.8730654264881
 21
471.5151367001746
 31
0.0
  0
LINE
  5
1FDF
330
1F
100
AcDbEntity
  8
AM_VIS
100
AcDbLine
 10
403.873065426488
 20
461.5151367001747
 30
0.0
 11
403.873065426488
 21
471.5151367001746
 31
0.0
  0
LINE
  5
1FE0
330
1F
100
AcDbEntity
  8
AM_VIS
100
AcDbLine
 10
429.1230654264881
 20
460.5151367001747
 30
0.0
 11
429.1230654264881
 21
468.5151367001747
 31
0.0
  0
LINE
  5
1FE1
330
1F
100
AcDbEntity
  8
AM_VIS
100
AcDbLine
 10
420.1230654264882
 20
461.5151367001747
 30
0.0
 11
420.1230654264882
 21
468.5151367001747
 31
0.0
  0
LINE
  5
1FE2
330
1F
100
AcDbEntity
  8
AM_VIS
100
AcDbLine
 10
433.1230654264881
 20
451.5151367001747
 30
0.0
 11
433.1230654264881
 21
460.5151367001747
 31
0.0
  0
LINE
  5
1FE3
330
1F
100
AcDbEntity
  8
AM_VIS
100
AcDbLine
 10
416.1230654264881
 20
451.5151367001747
 30
0.0
 11
416.1230654264881
 21
460.5151367001747
 31
0.0
  0
LINE
  5
1FE4
330
1F
100
AcDbEntity
  8
AM_VIS
100
AcDbLine
 10
374.8093363862504
 20
410.5151367001747
 30
0.0
 11
378.6634080247702
 21
410.5151367001747
 31
0.0
  0
LINE
  5
1FE6
330
1F
100
AcDbEntity
  8
AM_VIS
100
AcDbLine
 10
442.5827228282059
 20
410.5151367001747
 30
0.0
 11
446.4367944667258
 21
410.5151367001747
 31
0.0
  0
LINE
  5
1FE8
330
1F
100
AcDbEntity
  8
AM_VIS
100
AcDbLine
 10
399.6230654264881
 20
457.0151367001747
 30
0.0
 11
416.1230654264881
 21
457.0151367001747
 31
0.0
  0
LINE
  5
1FE9
330
1F
100
AcDbEntity
  8
AM_VIS
100
AcDbLine
 10
410.873065426488
 20
478.5151367001747
 30
0.0
 11
411.873065426488
 21
478.5151367001747
 31
0.0
  0
LINE
  5
1FEA
330
1F
100
AcDbEntity
  8
AM_VIS
100
AcDbLine
 10
420.1230654264882
 20
468.5151367001747
 30
0.0
 11
429.1230654264881
 21
468.5151367001747
 31
0.0
  0
LINE
  5
1FEB
330
1F
100
AcDbEntity
  8
AM_VIS
100
AcDbLine
 10
416.1230654264881
 20
460.5151367001747
 30
0.0
 11
433.1230654264881
 21
460.5151367001747
 31
0.0
  0
LINE
  5
1FEC
330
1F
100
AcDbEntity
  8
AM_VIS
100
AcDbLine
 10
388.6582314149842
 20
444.0151367001747
 30
0.0
 11
390.5489773782368
 21
444.0151367001747
 31
0.0
  0
LINE
  5
1FED
330
1F
100
AcDbEntity
  8
AM_VIS
100
AcDbLine
 10
430.6971534747394
 20
451.5151367001747
 30
0.0
 11
432.587899437992
 21
451.5151367001747
 31
0.0
  0
LINE
  5
1FEE
330
1F
100
AcDbEntity
  8
AM_VIS
100
AcDbLine
 10
416.6582314149842
 20
451.5151367001747
 30
0.0
 11
418.5489773782367
 21
451.5151367001747
 31
0.0
  0
ARC
  5
1FEF
330
1F
100
AcDbEntity
  8
AM_VIS
100
AcDbCircle
 10
411.873065426488
 20
471.5151367001746
 30
0.0
 40
7.0
100
AcDbArc
 50
0.0
 51
90.0
  0
ARC
  5
1FF0
330
1F
100
AcDbEntity
  8
AM_VIS
100
AcDbCircle
 10
410.873065426488
 20
471.5151367001746
 30
0.0
 40
7.0
100
AcDbArc
 50
90.0
 51
180.0
  0
LINE
  5
1FF1
330
1F
100
AcDbEntity
  8
AM_VIS
100
AcDbLine
 10
531.6518933562374
 20
380.5151367001747
 30
0.0
 11
585.6518933562374
 21
380.5151367001747
 31
0.0
  0
LINE
  5
1FF2
330
1F
100
AcDbEntity
  8
AM_VIS
100
AcDbLine
 10
585.6518933562374
 20
380.5151367001747
 30
0.0
 11
585.6518933562374
 21
395.5151367001747
 31
0.0
  0
LINE
  5
1FF3
330
1F
100
AcDbEntity
  8
AM_VIS
100
AcDbLine
 10
531.6518933562374
 20
395.5151367001747
 30
0.0
 11
531.6518933562374
 21
380.5151367001747
 31
0.0
  0
LINE
  5
1FF4
330
1F
100
AcDbEntity
  8
AM_VIS
100
AcDbLine
 10
516.5813179010931
 20
380.5151367001747
 30
0.0
 11
531.6518933562374
 21
380.5151367001747
 31
0.0
  0
LINE
  5
1FF5
330
1F
100
AcDbEntity
  8
AM_VIS
100
AcDbLine
 10
585.6518933562374
 20
380.5151367001747
 30
0.0
 11
600.7224688113817
 21
380.5151367001747
 31
0.0
  0
LINE
  5
1FF6
330
1F
100
AcDbEntity
  8
AM_VIS
100
AcDbLine
 10
513.6518933562374
 20
395.5151367001747
 30
0.0
 11
513.6518933562374
 21
380.5151367001747
 31
0.0
  0
LINE
  5
1FF8
330
1F
100
AcDbEntity
  8
AM_VIS
100
AcDbLine
 10
585.6518933562374
 20
395.5151367001747
 30
0.0
 11
531.6518933562374
 21
395.5151367001747
 31
0.0
  0
LINE
  5
1FFA
330
1F
100
AcDbEntity
  8
AM_VIS
100
AcDbLine
 10
603.6518933562375
 20
380.5151367001747
 30
0.0
 11
603.6518933562375
 21
395.5151367001747
 31
0.0
  0
LINE
  5
1FFB
330
1F
100
AcDbEntity
  8
AM_VIS
100
AcDbLine
 10
596.6264461801377
 20
322.5139183542129
 30
0.0
 11
598.6518933562374
 21
380.5151367001747
 31
0.0
  0
LINE
  5
1FFC
330
1F
100
AcDbEntity
  8
AM_VIS
100
AcDbLine
 10
520.6773405323374
 20
322.5139183542129
 30
0.0
 11
518.6518933562374
 21
380.5151367001747
 31
0.0
  0
LINE
  5
1FFD
330
1F
100
AcDbEntity
  8
AM_VIS
100
AcDbLine
 10
594.5566471867327
 20
320.5151367001747
 30
0.0
 11
596.6264461801377
 21
322.5139183542129
 31
0.0
  0
LINE
  5
1FFE
330
1F
100
AcDbEntity
  8
AM_VIS
100
AcDbLine
 10
522.7471395257423
 20
320.5151367001747
 30
0.0
 11
520.6773405323374
 21
322.5139183542129
 31
0.0
  0
LINE
  5
1FFF
330
1F
100
AcDbEntity
  8
AM_VIS
100
AcDbLine
 10
516.5813179010931
 20
380.5151367001747
 30
0.0
 11
513.6518933562374
 21
380.5151367001747
 31
0.0
  0
LINE
  5
2001
330
1F
100
AcDbEntity
  8
AM_VIS
100
AcDbLine
 10
603.6518933562375
 20
380.5151367001747
 30
0.0
 11
600.7224688113817
 21
380.5151367001747
 31
0.0
  0
LINE
  5
2004
330
1F
100
AcDbEntity
  8
AM_VIS
100
AcDbLine
 10
594.5566471867327
 20
320.5151367001747
 30
0.0
 11
522.7471395257423
 21
320.5151367001747
 31
0.0
  0
LINE
  5
2005
330
1F
100
AcDbEntity
  8
AM_VIS
100
AcDbLine
 10
530.5494023634446
 20
320.5151367001747
 30
0.0
 11
530.5494023634446
 21
295.5151367001747
 31
0.0
  0
LINE
  5
2006
330
1F
100
AcDbEntity
  8
AM_VIS
100
AcDbLine
 10
530.5494023634446
 20
295.5151367001747
 30
0.0
 11
521.6518933562374
 21
295.5151367001747
 31
0.0
  0
LINE
  5
2007
330
1F
100
AcDbEntity
  8
AM_VIS
100
AcDbLine
 10
521.6518933562374
 20
302.5151367001747
 30
0.0
 11
521.6518933562374
 21
295.5151367001747
 31
0.0
  0
LINE
  5
2008
330
1F
100
AcDbEntity
  8
AM_VIS
100
AcDbLine
 10
524.6518933562374
 20
320.5151367001747
 30
0.0
 11
524.6518933562374
 21
302.5151367001747
 31
0.0
  0
LINE
  5
2009
330
1F
100
AcDbEntity
  8
AM_VIS
100
AcDbLine
 10
524.6518933562374
 20
302.5151367001747
 30
0.0
 11
521.6518933562374
 21
302.5151367001747
 31
0.0
  0
LINE
  5
200A
330
1F
100
AcDbEntity
  8
AM_VIS
100
AcDbLine
 10
547.6518933562374
 20
224.5151367001747
 30
0.0
 11
547.6518933562374
 21
219.5151367001747
 31
0.0
  0
LINE
  5
200B
330
1F
100
AcDbEntity
  8
AM_VIS
100
AcDbLine
 10
569.6518933562374
 20
224.5151367001747
 30
0.0
 11
569.6518933562374
 21
219.5151367001747
 31
0.0
  0
LINE
  5
200C
330
1F
100
AcDbEntity
  8
AM_VIS
100
AcDbLine
 10
528.6518933562375
 20
295.5151367001747
 30
0.0
 11
528.6518933562375
 21
232.5151367001747
 31
0.0
  0
LINE
  5
200D
330
1F
100
AcDbEntity
  8
AM_VIS
100
AcDbLine
 10
588.6518933562374
 20
320.5151367001747
 30
0.0
 11
588.6518933562374
 21
232.5151367001747
 31
0.0
  0
LINE
  5
200E
330
1F
100
AcDbEntity
  8
AM_VIS
100
AcDbLine
 10
567.6518933562374
 20
217.5151367001747
 30
0.0
 11
549.6518933562374
 21
217.5151367001747
 31
0.0
  0
LINE
  5
200F
330
1F
100
AcDbEntity
  8
AM_VIS
100
AcDbLine
 10
569.6518933562374
 20
224.5151367001747
 30
0.0
 11
547.6518933562374
 21
224.5151367001747
 31
0.0
  0
ARC
  5
2011
330
1F
100
AcDbEntity
  8
AM_VIS
100
AcDbCircle
 10
549.6518933562374
 20
219.5151367001747
 30
0.0
 40
2.0
100
AcDbArc
 50
180.0
 51
270.0
  0
ARC
  5
2012
102
{ACAD_REACTORS
330
2121
330
2180
102
}
330
1F
100
AcDbEntity
  8
AM_VIS
100
AcDbCircle
 10
567.6518933562374
 20
219.5151367001747
 30
0.0
 40
2.0
100
AcDbArc
 50
270.0
 51
0.0
  0
ARC
  5
2013
330
1F
100
AcDbEntity
  8
AM_VIS
100
AcDbCircle
 10
547.6518933562374
 20
251.0776367001747
 30
0.0
 40
26.56250000000001
100
AcDbArc
 50
224.3326916441644
 51
270.0
  0
ARC
  5
2014
330
1F
100
AcDbEntity
  8
AM_VIS
100
AcDbCircle
 10
569.6518933562374
 20
251.0776367001747
 30
0.0
 40
26.56250000000001
100
AcDbArc
 50
270.0
 51
315.6673083558356
  0
LINE
  5
2015
330
1F
100
AcDbEntity
  8
AM_VIS
100
AcDbLine
 10
531.6518933562374
 20
410.5151367001747
 30
0.0
 11
516.5813179010931
 21
410.5151367001747
 31
0.0
  0
LINE
  5
2016
330
1F
100
AcDbEntity
  8
AM_VIS
100
AcDbLine
 10
600.722468811382
 20
410.5151367001747
 30
0.0
 11
585.6518933562374
 21
410.5151367001747
 31
0.0
  0
LINE
  5
2017
330
1F
100
AcDbEntity
  8
AM_VIS
100
AcDbLine
 10
603.6518933562375
 20
395.5151367001747
 30
0.0
 11
603.6518933562375
 21
410.5151367001747
 31
0.0
  0
LINE
  5
201A
330
1F
100
AcDbEntity
  8
AM_VIS
100
AcDbLine
 10
513.6518933562374
 20
410.5151367001747
 30
0.0
 11
513.6518933562374
 21
395.5151367001747
 31
0.0
  0
LINE
  5
201B
330
1F
100
AcDbEntity
  8
AM_VIS
100
AcDbLine
 10
531.6518933562374
 20
441.5151367001747
 30
0.0
 11
531.6518933562374
 21
403.0151367001747
 31
0.0
  0
LINE
  5
201C
330
1F
100
AcDbEntity
  8
AM_VIS
100
AcDbLine
 10
575.6518933562374
 20
451.5151367001747
 30
0.0
 11
585.6518933562374
 21
441.5151367001747
 31
0.0
  0
LINE
  5
201D
330
1F
100
AcDbEntity
  8
AM_VIS
100
AcDbLine
 10
531.6518933562374
 20
441.5151367001747
 30
0.0
 11
541.6518933562374
 21
451.5151367001747
 31
0.0
  0
LINE
  5
201E
330
1F
100
AcDbEntity
  8
AM_VIS
100
AcDbLine
 10
549.6518933562374
 20
457.0151367001747
 30
0.0
 11
549.6518933562374
 21
461.5151367001747
 31
0.0
  0
LINE
  5
201F
330
1F
100
AcDbEntity
  8
AM_VIS
100
AcDbLine
 10
558.6518933602096
 20
461.5151367001747
 30
0.0
 11
549.6518933562374
 21
461.5151367001747
 31
0.0
  0
LINE
  5
2020
330
1F
100
AcDbEntity
  8
AM_VIS
100
AcDbLine
 10
567.6518933562374
 20
457.0151367001747
 30
0.0
 11
567.6518933562374
 21
461.5151367001747
 31
0.0
  0
LINE
  5
2021
330
1F
100
AcDbEntity
  8
AM_VIS
100
AcDbLine
 10
558.6518933602096
 20
457.0151367001747
 30
0.0
 11
558.6518933602096
 21
461.5151367001747
 31
0.0
  0
LINE
  5
2022
330
1F
100
AcDbEntity
  8
AM_VIS
100
AcDbLine
 10
567.6518933562374
 20
461.5151367001747
 30
0.0
 11
558.6518933602096
 21
461.5151367001747
 31
0.0
  0
LINE
  5
2023
330
1F
100
AcDbEntity
  8
AM_VIS
100
AcDbLine
 10
580.6518933562374
 20
451.5151367001747
 30
0.0
 11
580.6518933562374
 21
446.5151367001746
 31
0.0
  0
LINE
  5
2024
330
1F
100
AcDbEntity
  8
AM_VIS
100
AcDbLine
 10
595.1518933562375
 20
410.5151367001747
 30
0.0
 11
595.1518933562375
 21
451.5151367001747
 31
0.0
  0
LINE
  5
2025
330
1F
100
AcDbEntity
  8
AM_VIS
100
AcDbLine
 10
536.6518933562374
 20
446.5151367001746
 30
0.0
 11
536.6518933562374
 21
451.5151367001747
 31
0.0
  0
LINE
  5
2026
330
1F
100
AcDbEntity
  8
AM_VIS
100
AcDbLine
 10
522.1518933562374
 20
451.5151367001747
 30
0.0
 11
522.1518933562374
 21
410.5151367001747
 31
0.0
  0
LINE
  5
2027
330
1F
100
AcDbEntity
  8
AM_VIS
100
AcDbLine
 10
593.8038747228763
 20
451.5151367001747
 30
0.0
 11
580.6518933562374
 21
451.5151367001747
 31
0.0
  0
LINE
  5
2028
330
1F
100
AcDbEntity
  8
AM_VIS
100
AcDbLine
 10
580.6518933562374
 20
451.5151367001747
 30
0.0
 11
575.6518933562374
 21
451.5151367001747
 31
0.0
  0
LINE
  5
2029
330
1F
100
AcDbEntity
  8
AM_VIS
100
AcDbLine
 10
541.6518933562374
 20
451.5151367001747
 30
0.0
 11
575.6518933562374
 21
451.5151367001747
 31
0.0
  0
LINE
  5
202A
330
1F
100
AcDbEntity
  8
AM_VIS
100
AcDbLine
 10
541.6518933562374
 20
451.5151367001747
 30
0.0
 11
536.6518933562374
 21
451.5151367001747
 31
0.0
  0
LINE
  5
202B
330
1F
100
AcDbEntity
  8
AM_VIS
100
AcDbLine
 10
536.6518933562374
 20
451.5151367001747
 30
0.0
 11
523.4999119895987
 21
451.5151367001747
 31
0.0
  0
LINE
  5
202C
330
1F
100
AcDbEntity
  8
AM_VIS
100
AcDbLine
 10
531.6518933562374
 20
395.5151367001747
 30
0.0
 11
585.6518933562374
 21
395.5151367001747
 31
0.0
  0
LINE
  5
202D
330
1F
100
AcDbEntity
  8
AM_VIS
100
AcDbLine
 10
531.6518933562374
 20
399.0151367001747
 30
0.0
 11
531.6518933562374
 21
395.5151367001747
 31
0.0
  0
LINE
  5
202E
330
1F
100
AcDbEntity
  8
AM_VIS
100
AcDbLine
 10
585.6518933562374
 20
441.5151367001747
 30
0.0
 11
585.6518933562374
 21
403.0151367001747
 31
0.0
  0
LINE
  5
202F
330
1F
100
AcDbEntity
  8
AM_VIS
100
AcDbLine
 10
585.6518933562374
 20
399.0151367001747
 30
0.0
 11
585.6518933562374
 21
395.5151367001747
 31
0.0
  0
LINE
  5
2030
330
1F
100
AcDbEntity
  8
AM_VIS
100
AcDbLine
 10
531.6518933562374
 20
403.0151367001747
 30
0.0
 11
585.6518933562374
 21
403.0151367001747
 31
0.0
  0
LINE
  5
2031
330
1F
100
AcDbEntity
  8
AM_VIS
100
AcDbLine
 10
585.6518933562374
 20
399.0151367001747
 30
0.0
 11
531.6518933562374
 21
399.0151367001747
 31
0.0
  0
LINE
  5
2032
330
1F
100
AcDbEntity
  8
AM_VIS
100
AcDbLine
 10
531.6518933562374
 20
399.0151367001747
 30
0.0
 11
531.6518933562374
 21
403.0151367001747
 31
0.0
  0
LINE
  5
2033
330
1F
100
AcDbEntity
  8
AM_VIS
100
AcDbLine
 10
585.6518933562374
 20
403.0151367001747
 30
0.0
 11
585.6518933562374
 21
399.0151367001747
 31
0.0
  0
LINE
  5
2034
330
1F
100
AcDbEntity
  8
AM_VIS
100
AcDbLine
 10
570.4018933562374
 20
451.5151367001747
 30
0.0
 11
570.4018933562374
 21
457.0151367001747
 31
0.0
  0
LINE
  5
2035
330
1F
100
AcDbEntity
  8
AM_VIS
100
AcDbLine
 10
546.9018933562374
 20
451.5151367001747
 30
0.0
 11
546.9018933562374
 21
457.0151367001747
 31
0.0
  0
LINE
  5
2036
330
1F
100
AcDbEntity
  8
AM_VIS
100
AcDbLine
 10
566.1518933562375
 20
461.5151367001747
 30
0.0
 11
566.1518933562375
 21
471.5151367001746
 31
0.0
  0
LINE
  5
2037
330
1F
100
AcDbEntity
  8
AM_VIS
100
AcDbLine
 10
551.1518933562374
 20
461.5151367001747
 30
0.0
 11
551.1518933562374
 21
471.5151367001746
 31
0.0
  0
LINE
  5
2038
330
1F
100
AcDbEntity
  8
AM_VIS
100
AcDbLine
 10
588.1518933562374
 20
451.5151367001747
 30
0.0
 11
588.1518933562374
 21
456.5151367001747
 31
0.0
  0
LINE
  5
2039
330
1F
100
AcDbEntity
  8
AM_VIS
100
AcDbLine
 10
583.1518933562374
 20
451.5151367001747
 30
0.0
 11
583.1518933562374
 21
456.5151367001747
 31
0.0
  0
LINE
  5
203A
330
1F
100
AcDbEntity
  8
AM_VIS
100
AcDbLine
 10
590.1518933562374
 20
456.5151367001747
 30
0.0
 11
590.1518933562374
 21
468.5151367001747
 31
0.0
  0
LINE
  5
203B
330
1F
100
AcDbEntity
  8
AM_VIS
100
AcDbLine
 10
581.1518933562374
 20
456.5151367001747
 30
0.0
 11
581.1518933562374
 21
468.5151367001747
 31
0.0
  0
LINE
  5
203C
330
1F
100
AcDbEntity
  8
AM_VIS
100
AcDbLine
 10
545.1518933562375
 20
451.5151367001747
 30
0.0
 11
545.1518933562375
 21
460.5151367001747
 31
0.0
  0
LINE
  5
203D
330
1F
100
AcDbEntity
  8
AM_VIS
100
AcDbLine
 10
528.1518933562374
 20
451.5151367001747
 30
0.0
 11
528.1518933562374
 21
460.5151367001747
 31
0.0
  0
LINE
  5
203E
330
1F
100
AcDbEntity
  8
AM_VIS
100
AcDbLine
 10
600.722468811382
 20
410.5151367001747
 30
0.0
 11
603.6518933562375
 21
410.5151367001747
 31
0.0
  0
LINE
  5
2040
330
1F
100
AcDbEntity
  8
AM_VIS
100
AcDbLine
 10
513.6518933562374
 20
410.5151367001747
 30
0.0
 11
516.5813179010931
 21
410.5151367001747
 31
0.0
  0
LINE
  5
2044
330
1F
100
AcDbEntity
  8
AM_VIS
100
AcDbLine
 10
546.9018933562374
 20
457.0151367001747
 30
0.0
 11
570.4018933562374
 21
457.0151367001747
 31
0.0
  0
LINE
  5
2045
330
1F
100
AcDbEntity
  8
AM_VIS
100
AcDbLine
 10
558.1518933562374
 20
478.5151367001747
 30
0.0
 11
559.1518933562374
 21
478.5151367001747
 31
0.0
  0
LINE
  5
2046
330
1F
100
AcDbEntity
  8
AM_VIS
100
AcDbLine
 10
581.1518933562374
 20
468.5151367001747
 30
0.0
 11
590.1518933562374
 21
468.5151367001747
 31
0.0
  0
LINE
  5
2047
330
1F
100
AcDbEntity
  8
AM_VIS
100
AcDbLine
 10
590.1518933562374
 20
456.5151367001747
 30
0.0
 11
581.1518933562374
 21
456.5151367001747
 31
0.0
  0
LINE
  5
2048
330
1F
100
AcDbEntity
  8
AM_VIS
100
AcDbLine
 10
528.1518933562374
 20
460.5151367001747
 30
0.0
 11
545.1518933562375
 21
460.5151367001747
 31
0.0
  0
LINE
  5
2049
330
1F
100
AcDbEntity
  8
AM_VIS
100
AcDbLine
 10
593.8038747228763
 20
451.5151367001747
 30
0.0
 11
595.1518933562375
 21
451.5151367001747
 31
0.0
  0
LINE
  5
204A
330
1F
100
AcDbEntity
  8
AM_VIS
100
AcDbLine
 10
522.1518933562374
 20
451.5151367001747
 30
0.0
 11
523.4999119895987
 21
451.5151367001747
 31
0.0
  0
ARC
  5
204B
102
{ACAD_REACTORS
330
2180
102
}
330
1F
100
AcDbEntity
  8
AM_VIS
100
AcDbCircle
 10
559.1518933562374
 20
471.5151367001746
 30
0.0
 40
7.0
100
AcDbArc
 50
0.0
 51
90.0
  0
ARC
  5
204C
330
1F
100
AcDbEntity
  8
AM_VIS
100
AcDbCircle
 10
558.1518933562374
 20
471.5151367001746
 30
0.0
 40
7.0
100
AcDbArc
 50
90.0
 51
180.0
  0
LINE
  5
204D
330
1F
100
AcDbEntity
  8
AM_VIS
100
AcDbLine
 10
450.6230654264881
 20
626.4059587636106
 30
0.0
 11
450.6230654264881
 21
621.4059587636106
 31
0.0
  0
LINE
  5
204E
330
1F
100
AcDbEntity
  8
AM_VIS
100
AcDbLine
 10
365.6230654264881
 20
572.4059587636106
 30
0.0
 11
370.6230654264881
 21
572.4059587636106
 31
0.0
  0
LINE
  5
204F
330
1F
100
AcDbEntity
  8
AM_VIS
100
AcDbLine
 10
370.6230654264881
 20
577.4059587636107
 30
0.0
 11
412.1230654264881
 21
577.4059587636107
 31
0.0
  0
LINE
  5
2050
330
1F
100
AcDbEntity
  8
AM_VIS
100
AcDbLine
 10
370.6230654264881
 20
572.4059587636106
 30
0.0
 11
370.6230654264881
 21
577.4059587636107
 31
0.0
  0
LINE
  5
2051
330
1F
100
AcDbEntity
  8
AM_VIS
100
AcDbLine
 10
450.6230654264881
 20
621.4059587636106
 30
0.0
 11
437.1230654264881
 21
621.4059587636106
 31
0.0
  0
LINE
  5
2052
330
1F
100
AcDbEntity
  8
AM_VIS
100
AcDbLine
 10
374.8093363862504
 20
557.3353833084663
 30
0.0
 11
370.6230654264881
 21
572.4059587636106
 31
0.0
  0
LINE
  5
2053
330
1F
100
AcDbEntity
  8
AM_VIS
100
AcDbLine
 10
450.6230654264881
 20
572.4059587636106
 30
0.0
 11
446.4367944667258
 21
557.3353833084663
 31
0.0
  0
LINE
  5
2054
330
1F
100
AcDbEntity
  8
AM_VIS
100
AcDbLine
 10
446.4367944667258
 20
641.4765342187551
 30
0.0
 11
450.6230654264881
 21
626.4059587636106
 31
0.0
  0
LINE
  5
2055
330
1F
100
AcDbEntity
  8
AM_VIS
100
AcDbLine
 10
370.6230654264881
 20
626.4059587636106
 30
0.0
 11
374.8093363862504
 21
641.4765342187551
 31
0.0
  0
LINE
  5
2056
330
1F
100
AcDbEntity
  8
AM_VIS
100
AcDbLine
 10
378.6634080247702
 20
644.4059587636107
 30
0.0
 11
442.5827228282059
 21
644.4059587636107
 31
0.0
  0
LINE
  5
2057
330
1F
100
AcDbEntity
  8
AM_VIS
100
AcDbLine
 10
442.5827228282059
 20
554.4059587636106
 30
0.0
 11
378.6634080247702
 21
554.4059587636106
 31
0.0
  0
LINE
  5
2058
330
1F
100
AcDbEntity
  8
AM_VIS
100
AcDbLine
 10
455.6230654264882
 20
616.4059587636106
 30
0.0
 11
455.6230654264882
 21
626.4059587636106
 31
0.0
  0
LINE
  5
2059
330
1F
100
AcDbEntity
  8
AM_VIS
100
AcDbLine
 10
370.6230654264881
 20
621.4059587636106
 30
0.0
 11
370.6230654264881
 21
626.4059587636106
 31
0.0
  0
LINE
  5
205A
330
1F
100
AcDbEntity
  8
AM_VIS
100
AcDbLine
 10
412.1230654264881
 20
621.4059587636106
 30
0.0
 11
370.6230654264882
 21
621.4059587636106
 31
0.0
  0
LINE
  5
205B
330
1F
100
AcDbEntity
  8
AM_VIS
100
AcDbLine
 10
455.6230654264882
 20
572.4059587636106
 30
0.0
 11
455.6230654264882
 21
582.4059587636106
 31
0.0
  0
LINE
  5
205C
102
{ACAD_REACTORS
330
2204
102
}
330
1F
100
AcDbEntity
  8
AM_VIS
100
AcDbLine
 10
450.6230654264881
 20
572.4059587636106
 30
0.0
 11
455.6230654264882
 21
572.4059587636106
 31
0.0
  0
LINE
  5
205D
330
1F
100
AcDbEntity
  8
AM_VIS
100
AcDbLine
 10
450.6230654264881
 20
577.4059587636107
 30
0.0
 11
450.6230654264881
 21
572.4059587636106
 31
0.0
  0
LINE
  5
205E
330
1F
100
AcDbEntity
  8
AM_VIS
100
AcDbLine
 10
437.1230654264881
 20
577.4059587636107
 30
0.0
 11
450.6230654264881
 21
577.4059587636107
 31
0.0
  0
LINE
  5
205F
330
1F
100
AcDbEntity
  8
AM_VIS
100
AcDbLine
 10
406.1769130014881
 20
608.4059587636106
 30
0.0
 11
416.5692178514882
 21
608.4059587636106
 31
0.0
  0
LINE
  5
2060
330
1F
100
AcDbEntity
  8
AM_VIS
100
AcDbLine
 10
400.9807605810748
 20
599.4059587675828
 30
0.0
 11
406.1769130014881
 21
608.4059587636106
 31
0.0
  0
LINE
  5
2061
330
1F
100
AcDbEntity
  8
AM_VIS
100
AcDbLine
 10
406.1769130060748
 20
590.4059587636107
 30
0.0
 11
400.9807605810749
 21
599.4059587675828
 31
0.0
  0
LINE
  5
2062
330
1F
100
AcDbEntity
  8
AM_VIS
100
AcDbLine
 10
416.5692178469014
 20
590.4059587636107
 30
0.0
 11
406.1769130060748
 21
590.4059587636107
 31
0.0
  0
LINE
  5
2063
330
1F
100
AcDbEntity
  8
AM_VIS
100
AcDbLine
 10
421.7653702719014
 20
599.4059587675828
 30
0.0
 11
416.5692178469014
 21
590.4059587636107
 31
0.0
  0
LINE
  5
2064
330
1F
100
AcDbEntity
  8
AM_VIS
100
AcDbLine
 10
416.5692178514881
 20
608.4059587636106
 30
0.0
 11
421.7653702719014
 21
599.4059587675828
 31
0.0
  0
LINE
  5
2065
330
1F
100
AcDbEntity
  8
AM_VIS
100
AcDbLine
 10
422.313664347971
 20
581.4059587636107
 30
0.0
 11
426.932466505005
 21
581.4059587636107
 31
0.0
  0
LINE
  5
2066
330
1F
100
AcDbEntity
  8
AM_VIS
100
AcDbLine
 10
426.932466505005
 20
581.4059587636107
 30
0.0
 11
429.2418675800049
 21
577.4059587666565
 31
0.0
  0
LINE
  5
2067
330
1F
100
AcDbEntity
  8
AM_VIS
100
AcDbLine
 10
429.2418675800049
 20
577.4059587666565
 30
0.0
 11
426.932466501488
 21
573.4059587636107
 31
0.0
  0
LINE
  5
2068
330
1F
100
AcDbEntity
  8
AM_VIS
100
AcDbLine
 10
426.932466501488
 20
573.4059587636107
 30
0.0
 11
422.3136643514881
 21
573.4059587636107
 31
0.0
  0
LINE
  5
2069
330
1F
100
AcDbEntity
  8
AM_VIS
100
AcDbLine
 10
422.3136643514881
 20
573.4059587636107
 30
0.0
 11
420.004263272971
 21
577.4059587666565
 31
0.0
  0
LINE
  5
206A
330
1F
100
AcDbEntity
  8
AM_VIS
100
AcDbLine
 10
420.004263272971
 20
577.4059587666565
 30
0.0
 11
422.313664347971
 21
581.4059587636107
 31
0.0
  0
LINE
  5
206B
330
1F
100
AcDbEntity
  8
AM_VIS
100
AcDbLine
 10
384.1230654264881
 20
621.4059587636106
 30
0.0
 11
388.6582314149842
 21
634.5579401302494
 31
0.0
  0
LINE
  5
206C
330
1F
100
AcDbEntity
  8
AM_VIS
100
AcDbLine
 10
418.5489773782368
 20
635.9059587636107
 30
0.0
 11
390.5489773782368
 21
635.9059587636107
 31
0.0
  0
LINE
  5
206D
330
1F
100
AcDbEntity
  8
AM_VIS
100
AcDbLine
 10
388.6582314149842
 20
564.2539773969718
 30
0.0
 11
384.1230654264881
 21
577.4059587636107
 31
0.0
  0
LINE
  5
206E
330
1F
100
AcDbEntity
  8
AM_VIS
100
AcDbLine
 10
418.5489773782367
 20
562.9059587636106
 30
0.0
 11
390.5489773782367
 21
562.9059587636106
 31
0.0
  0
LINE
  5
206F
330
1F
100
AcDbEntity
  8
AM_VIS
100
AcDbLine
 10
416.6582314149842
 20
564.2539773969718
 30
0.0
 11
412.1230654264881
 21
577.4059587636107
 31
0.0
  0
LINE
  5
2070
330
1F
100
AcDbEntity
  8
AM_VIS
100
AcDbLine
 10
412.1230654264881
 20
577.4059587636107
 30
0.0
 11
412.1230654264881
 21
582.4059587636106
 31
0.0
  0
LINE
  5
2071
330
1F
100
AcDbEntity
  8
AM_VIS
100
AcDbLine
 10
365.6230654264881
 20
582.4059587636106
 30
0.0
 11
412.1230654264881
 21
582.4059587636106
 31
0.0
  0
LINE
  5
2072
330
1F
100
AcDbEntity
  8
AM_VIS
100
AcDbLine
 10
365.6230654264881
 20
616.4059587636106
 30
0.0
 11
412.1230654264881
 21
616.4059587636106
 31
0.0
  0
LINE
  5
2073
330
1F
100
AcDbEntity
  8
AM_VIS
100
AcDbLine
 10
412.1230654264881
 20
616.4059587636106
 30
0.0
 11
412.1230654264881
 21
621.4059587636106
 31
0.0
  0
LINE
  5
2074
330
1F
100
AcDbEntity
  8
AM_VIS
100
AcDbLine
 10
412.1230654264881
 20
621.4059587636106
 30
0.0
 11
416.6582314149843
 21
634.5579401302494
 31
0.0
  0
LINE
  5
2075
330
1F
100
AcDbEntity
  8
AM_VIS
100
AcDbLine
 10
418.5489773782368
 20
635.9059587636107
 30
0.0
 11
430.6971534747394
 21
635.9059587636107
 31
0.0
  0
LINE
  5
2076
330
1F
100
AcDbEntity
  8
AM_VIS
100
AcDbLine
 10
432.587899437992
 20
634.5579401302495
 30
0.0
 11
437.1230654264881
 21
621.4059587636106
 31
0.0
  0
LINE
  5
2077
330
1F
100
AcDbEntity
  8
AM_VIS
100
AcDbLine
 10
437.1230654264881
 20
621.4059587636106
 30
0.0
 11
437.1230654264881
 21
616.4059587636106
 31
0.0
  0
LINE
  5
2078
330
1F
100
AcDbEntity
  8
AM_VIS
100
AcDbLine
 10
437.1230654264881
 20
616.4059587636106
 30
0.0
 11
455.6230654264882
 21
616.4059587636106
 31
0.0
  0
LINE
  5
2079
330
1F
100
AcDbEntity
  8
AM_VIS
100
AcDbLine
 10
455.6230654264882
 20
582.4059587636106
 30
0.0
 11
455.6230654264882
 21
616.4059587636106
 31
0.0
  0
LINE
  5
207A
330
1F
100
AcDbEntity
  8
AM_VIS
100
AcDbLine
 10
437.1230654264881
 20
582.4059587636106
 30
0.0
 11
455.6230654264882
 21
582.4059587636106
 31
0.0
  0
LINE
  5
207B
330
1F
100
AcDbEntity
  8
AM_VIS
100
AcDbLine
 10
437.1230654264881
 20
582.4059587636106
 30
0.0
 11
437.1230654264881
 21
577.4059587636107
 31
0.0
  0
LINE
  5
207C
330
1F
100
AcDbEntity
  8
AM_VIS
100
AcDbLine
 10
437.1230654264881
 20
577.4059587636107
 30
0.0
 11
432.5878994379918
 21
564.2539773969718
 31
0.0
  0
LINE
  5
207D
330
1F
100
AcDbEntity
  8
AM_VIS
100
AcDbLine
 10
430.6971534747394
 20
562.9059587636106
 30
0.0
 11
418.5489773782367
 21
562.9059587636106
 31
0.0
  0
LINE
  5
207E
330
1F
100
AcDbEntity
  8
AM_VIS
100
AcDbLine
 10
371.6230654264881
 20
595.4059587636106
 30
0.0
 11
371.6230654264881
 21
603.4059587636106
 31
0.0
  0
LINE
  5
207F
330
1F
100
AcDbEntity
  8
AM_VIS
100
AcDbLine
 10
379.1230654264881
 20
599.4059587636106
 30
0.0
 11
371.6230654264881
 21
595.4059587636106
 31
0.0
  0
LINE
  5
2080
330
1F
100
AcDbEntity
  8
AM_VIS
100
AcDbLine
 10
371.6230654264881
 20
603.4059587636106
 30
0.0
 11
379.1230654264881
 21
599.4059587636106
 31
0.0
  0
LINE
  5
2081
330
1F
100
AcDbEntity
  8
AM_VIS
100
AcDbLine
 10
365.6230654264881
 20
626.4059587636106
 30
0.0
 11
365.6230654264881
 21
616.4059587636106
 31
0.0
  0
LINE
  5
2082
330
1F
100
AcDbEntity
  8
AM_VIS
100
AcDbLine
 10
365.6230654264881
 20
616.4059587636106
 30
0.0
 11
365.6230654264881
 21
582.4059587636106
 31
0.0
  0
LINE
  5
2083
102
{ACAD_REACTORS
330
2204
102
}
330
1F
100
AcDbEntity
  8
AM_VIS
100
AcDbLine
 10
365.6230654264881
 20
582.4059587636106
 30
0.0
 11
365.6230654264881
 21
572.4059587636106
 31
0.0
  0
LINE
  5
2084
330
1F
100
AcDbEntity
  8
AM_VIS
100
AcDbLine
 10
365.6230654264881
 20
626.4059587636106
 30
0.0
 11
370.6230654264881
 21
626.4059587636106
 31
0.0
  0
LINE
  5
2085
330
1F
100
AcDbEntity
  8
AM_VIS
100
AcDbLine
 10
450.6230654264881
 20
626.4059587636106
 30
0.0
 11
455.6230654264882
 21
626.4059587636106
 31
0.0
  0
ARC
  5
2086
330
1F
100
AcDbEntity
  8
AM_VIS
100
AcDbCircle
 10
378.6634080247702
 20
640.4059587636107
 30
0.0
 40
3.999999999999999
100
AcDbArc
 50
90.0
 51
164.4758890032445
  0
ARC
  5
2087
102
{ACAD_REACTORS
330
21D1
102
}
330
1F
100
AcDbEntity
  8
AM_VIS
100
AcDbCircle
 10
442.5827228282059
 20
640.4059587636107
 30
0.0
 40
3.999999999999999
100
AcDbArc
 50
15.52411099675548
 51
90.0
  0
ARC
  5
2088
330
1F
100
AcDbEntity
  8
AM_VIS
100
AcDbCircle
 10
378.6634080247702
 20
558.4059587636106
 30
0.0
 40
4.0
100
AcDbArc
 50
195.5241109967539
 51
270.0
  0
ARC
  5
2089
102
{ACAD_REACTORS
330
21D1
102
}
330
1F
100
AcDbEntity
  8
AM_VIS
100
AcDbCircle
 10
442.5827228282059
 20
558.4059587636106
 30
0.0
 40
3.999999999999999
100
AcDbArc
 50
270.0
 51
344.4758890032445
  0
CIRCLE
  5
208A
330
1F
100
AcDbEntity
  8
AM_VIS
100
AcDbCircle
 10
380.6230654264881
 20
561.4059587636107
 30
0.0
 40
2.75
  0
CIRCLE
  5
208B
330
1F
100
AcDbEntity
  8
AM_VIS
100
AcDbCircle
 10
440.6230654264882
 20
561.4059587636107
 30
0.0
 40
2.75
  0
CIRCLE
  5
208C
330
1F
100
AcDbEntity
  8
AM_VIS
100
AcDbCircle
 10
380.6230654264881
 20
637.4059587636106
 30
0.0
 40
2.75
  0
CIRCLE
  5
208D
330
1F
100
AcDbEntity
  8
AM_VIS
100
AcDbCircle
 10
440.6230654264882
 20
637.4059587636106
 30
0.0
 40
2.75
  0
CIRCLE
  5
208E
330
1F
100
AcDbEntity
  8
AM_VIS
100
AcDbCircle
 10
411.3730654264882
 20
599.4059587636106
 30
0.0
 40
11.75
  0
CIRCLE
  5
208F
330
1F
100
AcDbEntity
  8
AM_VIS
100
AcDbCircle
 10
411.3730654264882
 20
599.4059587636106
 30
0.0
 40
7.5
  0
CIRCLE
  5
2090
330
1F
100
AcDbEntity
  8
AM_VIS
100
AcDbCircle
 10
424.6230654264881
 20
626.4059587636106
 30
0.0
 40
4.5
  0
CIRCLE
  5
2091
330
1F
100
AcDbEntity
  8
AM_VIS
100
AcDbCircle
 10
424.6230654264881
 20
577.4059587636107
 30
0.0
 40
8.5
  0
ARC
  5
2092
330
1F
100
AcDbEntity
  8
AM_VIS
100
AcDbCircle
 10
390.5489773782368
 20
633.9059587636106
 30
0.0
 40
1.999999999999999
100
AcDbArc
 50
90.0
 51
160.9743939624325
  0
ARC
  5
2093
330
1F
100
AcDbEntity
  8
AM_VIS
100
AcDbCircle
 10
390.5489773782367
 20
564.9059587636107
 30
0.0
 40
1.999999999999999
100
AcDbArc
 50
199.0256060375675
 51
270.0
  0
ARC
  5
2094
330
1F
100
AcDbEntity
  8
AM_VIS
100
AcDbCircle
 10
418.5489773782368
 20
633.9059587636106
 30
0.0
 40
1.999999999999999
100
AcDbArc
 50
90.0
 51
160.9743939624325
  0
ARC
  5
2095
330
1F
100
AcDbEntity
  8
AM_VIS
100
AcDbCircle
 10
430.6971534747394
 20
633.9059587636106
 30
0.0
 40
2.0
100
AcDbArc
 50
19.02560603756905
 51
90.0
  0
ARC
  5
2096
330
1F
100
AcDbEntity
  8
AM_VIS
100
AcDbCircle
 10
430.6971534747394
 20
564.9059587636107
 30
0.0
 40
2.0
100
AcDbArc
 50
270.0
 51
340.9743939624325
  0
ARC
  5
2097
330
1F
100
AcDbEntity
  8
AM_VIS
100
AcDbCircle
 10
418.5489773782367
 20
564.9059587636107
 30
0.0
 40
2.0
100
AcDbArc
 50
199.025606037569
 51
270.0
  0
LINE
  5
20AC
330
1F
100
AcDbEntity
  8
AM_7
100
AcDbLine
 10
410.6230654264879
 20
215.5151367001747
 30
0.0
 11
410.6230654264879
 21
484.2004809982979
 31
0.0
1001
GENIUS_GENOBJ-N-CEN_13
1002
{
1000
OWNER
1000
GEN
1002
}
1001
GENIUS_GENODEF_13
1002
{
1000
HIER
1070
     0
1002
}
1002
{
1000
MANEDIT
1070
     0
1002
}
1002
{
1000
NOSEL
1070
     0
1002
}
1002
{
1000
BEHIND
1070
     0
1002
}
1002
{
1000
OTHER
1070
     0
1002
}
1002
{
1000
REACTOR
1002
}
1001
GENIUS_GENCEN_19
1002
{
1040
2.0
1002
}
  0
LINE
  5
20AD
330
1F
100
AcDbEntity
  8
AM_7
100
AcDbLine
 10
558.6518933562374
 20
215.5151367001747
 30
0.0
 11
558.6518933562374
 21
484.2004809982979
 31
0.0
1001
GENIUS_GENOBJ-N-CEN_13
1002
{
1000
OWNER
1000
GEN
1002
}
1001
GENIUS_GENODEF_13
1002
{
1000
HIER
1070
     0
1002
}
1002
{
1000
MANEDIT
1070
     0
1002
}
1002
{
1000
NOSEL
1070
     0
1002
}
1002
{
1000
BEHIND
1070
     0
1002
}
1002
{
1000
OTHER
1070
     0
1002
}
1002
{
1000
REACTOR
1002
}
1001
GENIUS_GENCEN_19
1002
{
1040
2.0
1002
}
  0
LINE
  5
20BB
330
1F
100
AcDbEntity
  8
AM_7
100
AcDbLine
 10
411.3730654264882
 20
599.4059587636106
 30
0.0
 11
425.1230654264881
 21
599.4059587636106
 31
0.0
1001
GENIUS_GENOREF_13
1005
20BF
  0
LINE
  5
20BC
330
1F
100
AcDbEntity
  8
AM_7
100
AcDbLine
 10
411.3730654264882
 20
599.4059587636106
 30
0.0
 11
411.3730654264882
 21
613.1559587636107
 31
0.0
1001
GENIUS_GENOREF_13
1005
20BF
  0
LINE
  5
20BD
330
1F
100
AcDbEntity
  8
AM_7
100
AcDbLine
 10
411.3730654264882
 20
599.4059587636106
 30
0.0
 11
397.6230654264882
 21
599.4059587636106
 31
0.0
1001
GENIUS_GENOREF_13
1005
20BF
  0
LINE
  5
20BE
330
1F
100
AcDbEntity
  8
AM_7
100
AcDbLine
 10
411.3730654264882
 20
599.4059587636106
 30
0.0
 11
411.3730654264882
 21
585.6559587636106
 31
0.0
1001
GENIUS_GENOREF_13
1005
20BF
  0
POINT
  5
20BF
330
1F
100
AcDbEntity
  8
0
 60
     1
100
AcDbPoint
 10
0.0
 20
0.0
 30
0.0
1001
GENIUS_GENOENT_13
1002
{
1000
MYREF
1005
20BF
1002
}
1002
{
1000
GRP
1005
0
1002
}
1001
GENIUS_GENOBJ-N-CRS_13
1002
{
1000
OWNER
1000
GEN
1002
}
1001
GENIUS_GENOLIS_13
1002
{
1000
ENT
1005
20BE
1005
20BD
1005
20BC
1005
20BB
1002
}
1001
GENIUS_GENODEF_13
1002
{
1000
HIER
1070
    10
1002
}
1002
{
1000
MANEDIT
1070
     0
1002
}
1002
{
1000
NOSEL
1070
     0
1002
}
1002
{
1000
BEHIND
1070
     0
1002
}
1002
{
1000
OTHER
1070
     0
1002
}
1002
{
1000
REACTOR
1002
}
  0
LINE
  5
20CD
330
1F
100
AcDbEntity
  8
AM_7
100
AcDbLine
 10
424.6230654264881
 20
577.4059587636107
 30
0.0
 11
435.1230654264882
 21
577.4059587636107
 31
0.0
1001
GENIUS_GENOREF_13
1005
20D1
  0
LINE
  5
20CE
330
1F
100
AcDbEntity
  8
AM_7
100
AcDbLine
 10
424.6230654264881
 20
577.4059587636107
 30
0.0
 11
424.6230654264881
 21
587.9059587636106
 31
0.0
1001
GENIUS_GENOREF_13
1005
20D1
  0
LINE
  5
20CF
330
1F
100
AcDbEntity
  8
AM_7
100
AcDbLine
 10
424.6230654264881
 20
577.4059587636107
 30
0.0
 11
414.1230654264882
 21
577.4059587636107
 31
0.0
1001
GENIUS_GENOREF_13
1005
20D1
  0
LINE
  5
20D0
330
1F
100
AcDbEntity
  8
AM_7
100
AcDbLine
 10
424.6230654264881
 20
577.4059587636107
 30
0.0
 11
424.6230654264881
 21
566.9059587636106
 31
0.0
1001
GENIUS_GENOREF_13
1005
20D1
  0
POINT
  5
20D1
330
1F
100
AcDbEntity
  8
0
 60
     1
100
AcDbPoint
 10
0.0
 20
0.0
 30
0.0
1001
GENIUS_GENOENT_13
1002
{
1000
MYREF
1005
20D1
1002
}
1002
{
1000
GRP
1005
0
1002
}
1001
GENIUS_GENOBJ-N-CRS_13
1002
{
1000
OWNER
1000
GEN
1002
}
1001
GENIUS_GENODEF_13
1002
{
1000
HIER
1070
    10
1002
}
1002
{
1000
MANEDIT
1070
     0
1002
}
1002
{
1000
NOSEL
1070
     0
1002
}
1002
{
1000
BEHIND
1070
     0
1002
}
1002
{
1000
OTHER
1070
     0
1002
}
1002
{
1000
REACTOR
1002
}
1001
GENIUS_GENOLIS_13
1002
{
1000
ENT
1005
20D0
1005
20CF
1005
20CE
1005
20CD
1002
}
  0
LINE
  5
20DF
330
1F
100
AcDbEntity
  8
AM_7
  6
AM_ISO08W050x2
100
AcDbLine
 10
424.6230654264881
 20
626.4059587636106
 30
0.0
 11
431.1230654264882
 21
626.4059587636106
 31
0.0
1001
GENIUS_GENOREF_13
1005
20E3
  0
LINE
  5
20E0
330
1F
100
AcDbEntity
  8
AM_7
  6
AM_ISO08W050x2
100
AcDbLine
 10
424.6230654264881
 20
626.4059587636106
 30
0.0
 11
424.6230654264881
 21
632.9059587636106
 31
0.0
1001
GENIUS_GENOREF_13
1005
20E3
  0
LINE
  5
20E1
330
1F
100
AcDbEntity
  8
AM_7
  6
AM_ISO08W050x2
100
AcDbLine
 10
424.6230654264881
 20
626.4059587636106
 30
0.0
 11
418.1230654264882
 21
626.4059587636106
 31
0.0
1001
GENIUS_GENOREF_13
1005
20E3
  0
LINE
  5
20E2
330
1F
100
AcDbEntity
  8
AM_7
  6
AM_ISO08W050x2
100
AcDbLine
 10
424.6230654264881
 20
626.4059587636106
 30
0.0
 11
424.6230654264881
 21
619.9059587636106
 31
0.0
1001
GENIUS_GENOREF_13
1005
20E3
  0
POINT
  5
20E3
330
1F
100
AcDbEntity
  8
0
 60
     1
100
AcDbPoint
 10
0.0
 20
0.0
 30
0.0
1001
GENIUS_GENOLIS_13
1002
{
1000
ENT
1005
20E2
1005
20E1
1005
20E0
1005
20DF
1002
}
1001
GENIUS_GENOENT_13
1002
{
1000
MYREF
1005
20E3
1002
}
1002
{
1000
GRP
1005
0
1002
}
1001
GENIUS_GENOBJ-N-CRS_13
1002
{
1000
OWNER
1000
GEN
1002
}
1001
GENIUS_GENODEF_13
1002
{
1000
HIER
1070
    10
1002
}
1002
{
1000
MANEDIT
1070
     0
1002
}
1002
{
1000
NOSEL
1070
     0
1002
}
1002
{
1000
BEHIND
1070
     0
1002
}
1002
{
1000
OTHER
1070
     0
1002
}
1002
{
1000
REACTOR
1002
}
  0
LINE
  5
20F0
330
1F
100
AcDbEntity
  8
AM_7
100
AcDbLine
 10
363.6230654264881
 20
599.4059587636106
 30
0.0
 11
457.6230654264882
 21
599.4059587636106
 31
0.0
1001
GENIUS_GENODEF_13
1002
{
1000
HIER
1070
     0
1002
}
1002
{
1000
MANEDIT
1070
     0
1002
}
1002
{
1000
NOSEL
1070
     0
1002
}
1002
{
1000
BEHIND
1070
     0
1002
}
1002
{
1000
OTHER
1070
     0
1002
}
1002
{
1000
REACTOR
1002
}
1001
GENIUS_GENOBJ-N-CEN_13
1002
{
1000
OWNER
1000
GEN
1002
}
1001
GENIUS_GENCEN_19
1002
{
1040
2.0
1002
}
  0
LINE
  5
20FE
102
{ACAD_REACTORS
330
2121
330
2156
102
}
330
1F
100
AcDbEntity
  8
AM_7
100
AcDbLine
 10
558.6518933562374
 20
427.5151367001747
 30
0.0
 11
579.1518933562374
 21
427.5151367001747
 31
0.0
1001
GENIUS_GENOREF_13
1005
2102
  0
LINE
  5
20FF
330
1F
100
AcDbEntity
  8
AM_7
100
AcDbLine
 10
558.6518933562374
 20
427.5151367001747
 30
0.0
 11
558.6518933562374
 21
448.0151367001747
 31
0.0
1001
GENIUS_GENOREF_13
1005
2102
  0
LINE
  5
2100
330
1F
100
AcDbEntity
  8
AM_7
100
AcDbLine
 10
558.6518933562374
 20
427.5151367001747
 30
0.0
 11
538.1518933562374
 21
427.5151367001747
 31
0.0
1001
GENIUS_GENOREF_13
1005
2102
  0
LINE
  5
2101
330
1F
100
AcDbEntity
  8
AM_7
100
AcDbLine
 10
558.6518933562374
 20
427.5151367001747
 30
0.0
 11
558.6518933562374
 21
407.0151367001747
 31
0.0
1001
GENIUS_GENOREF_13
1005
2102
  0
POINT
  5
2102
330
1F
100
AcDbEntity
  8
0
 60
     1
100
AcDbPoint
 10
0.0
 20
0.0
 30
0.0
1001
GENIUS_GENOENT_13
1002
{
1000
MYREF
1005
2102
1002
}
1002
{
1000
GRP
1005
0
1002
}
1001
GENIUS_GENOLIS_13
1002
{
1000
ENT
1005
2101
1005
2100
1005
20FF
1005
20FE
1002
}
1001
GENIUS_GENODEF_13
1002
{
1000
HIER
1070
    10
1002
}
1002
{
1000
MANEDIT
1070
     0
1002
}
1002
{
1000
NOSEL
1070
     0
1002
}
1002
{
1000
BEHIND
1070
     0
1002
}
1002
{
1000
OTHER
1070
     0
1002
}
1002
{
1000
REACTOR
1002
}
1001
GENIUS_GENOBJ-N-CRS_13
1002
{
1000
OWNER
1000
GEN
1002
}
  0
LINE
  5
2103
330
1F
100
AcDbEntity
  8
AM_7
100
AcDbLine
 10
460.9790326773609
 20
427.5151367001747
 30
0.0
 11
357.3769114031313
 21
427.5151367001747
 31
0.0
  0
DIMENSION
  5
2113
102
{ACAD_XDICTIONARY
360
2120
102
}
102
{ACAD_REACTORS
330
2121
102
}
330
1F
100
AcDbEntity
  8
AM_5
100
AcDbDimension
  2
*D3
 10
623.6518933562376
 20
427.5151367001747
 30
0.0
 11
619.8268933562375
 21
322.5151367001747
 31
0.0
 70
    32
 71
     5
 42
210.0
  3
AM_ISO$0
100
AcDbAlignedDimension
 13
567.6518933562374
 23
217.5151367001747
 33
0.0
 14
579.1518933562374
 24
427.5151367001747
 34
0.0
 50
90.0
100
AcDbRotatedDimension
1001
ACAD
1000
DSTYLE
1002
{
1070
    40
1040
1.5
1002
}
  0
DIMENSION
  5
2148
102
{ACAD_XDICTIONARY
360
2155
102
}
102
{ACAD_REACTORS
330
2156
102
}
330
1F
100
AcDbEntity
  8
AM_5
100
AcDbDimension
  2
*D4
 10
623.6518933562374
 20
478.5151367001747
 30
0.0
 11
619.8268933562372
 21
453.0151367001748
 31
0.0
 70
    32
 71
     5
 42
51.0
  3
AM_ISO$0
100
AcDbAlignedDimension
 13
579.1518933562374
 23
427.5151367001747
 33
0.0
 14
558.6518933562374
 24
478.5151367001747
 34
0.0
 50
90.0
100
AcDbRotatedDimension
1001
ACAD
1000
DSTYLE
1002
{
1070
    40
1040
1.5
1070
   144
1040
1.0
1002
}
  0
DIMENSION
  5
2172
102
{ACAD_XDICTIONARY
360
217F
102
}
102
{ACAD_REACTORS
330
2180
102
}
330
1F
100
AcDbEntity
  8
AM_5
100
AcDbDimension
  2
*D5
 10
638.6518933562377
 20
478.5151367001747
 30
0.0
 11
634.8268933562374
 21
348.0151367001748
 31
0.0
 70
    32
 71
     5
 42
261.0
  3
AM_ISO$0
100
AcDbAlignedDimension
 13
567.6518933562374
 23
217.5151367001747
 33
0.0
 14
559.1518933562374
 24
478.5151367001747
 34
0.0
 50
90.0
100
AcDbRotatedDimension
1001
ACAD
1000
DSTYLE
1002
{
1070
    40
1040
1.5
1002
}
  0
DIMENSION
  5
21C3
102
{ACAD_XDICTIONARY
360
21D0
102
}
102
{ACAD_REACTORS
330
21D1
102
}
330
1F
100
AcDbEntity
  8
AM_5
100
AcDbDimension
  2
*D6
 10
475.6230654264881
 20
644.4059587636107
 30
0.0
 11
471.7980654264881
 21
599.4059587636107
 31
0.0
 70
    32
  1
<>
 71
     5
 42
90.0
  3
AM_ISO$0
100
AcDbAlignedDimension
 13
442.5827228282059
 23
554.4059587636106
 33
0.0
 14
442.5827228282059
 24
644.4059587636107
 34
0.0
 50
90.0
100
AcDbRotatedDimension
1001
ACAD
1000
DSTYLE
1002
{
1070
    40
1040
1.5
1002
}
  0
DIMENSION
  5
21F6
102
{ACAD_XDICTIONARY
360
2203
102
}
102
{ACAD_REACTORS
330
2204
102
}
330
1F
100
AcDbEntity
  8
AM_5
100
AcDbDimension
  2
*D7
 10
455.6230654264882
 20
534.4059587636108
 30
0.0
 11
410.6230654264881
 21
538.2309587636108
 31
0.0
 70
    32
 71
     5
 42
90.00000000000012
  3
AM_ISO$0
100
AcDbAlignedDimension
 13
365.6230654264881
 23
572.4059587636106
 33
0.0
 14
455.6230654264882
 24
572.4059587636106
 34
0.0
 50
0.0000000000001018
100
AcDbRotatedDimension
1001
ACAD
1000
DSTYLE
1002
{
1070
    40
1040
1.5
1002
}
  0
LINE
  5
223A
330
1F
100
AcDbEntity
  8
0
100
AcDbLine
 10
410.6230654264879
 20
317.468793053904
 30
0.0
 11
411.623065426488
 21
317.468793053904
 31
0.0
  0
LINE
  5
223B
330
1F
100
AcDbEntity
  8
0
100
AcDbLine
 10
411.623065426488
 20
317.468793053904
 30
0.0
 11
411.623065426488
 21
309.468793053904
 31
0.0
  0
LINE
  5
223C
330
1F
100
AcDbEntity
  8
0
100
AcDbLine
 10
411.623065426488
 20
309.468793053904
 30
0.0
 11
413.6230654264879
 21
309.468793053904
 31
0.0
  0
LINE
  5
223D
330
1F
100
AcDbEntity
  8
0
100
AcDbLine
 10
413.6230654264879
 20
309.468793053904
 30
0.0
 11
410.6230654264881
 21
304.4234293909018
 31
0.0
  0
LINE
  5
223E
330
1F
100
AcDbEntity
  8
0
100
AcDbLine
 10
410.6230654264879
 20
317.468793053904
 30
0.0
 11
409.6230654264879
 21
317.468793053904
 31
0.0
  0
LINE
  5
223F
330
1F
100
AcDbEntity
  8
0
100
AcDbLine
 10
409.6230654264879
 20
317.468793053904
 30
0.0
 11
409.6230654264879
 21
309.468793053904
 31
0.0
  0
LINE
  5
2240
330
1F
100
AcDbEntity
  8
0
100
AcDbLine
 10
409.6230654264879
 20
309.468793053904
 30
0.0
 11
407.623065426488
 21
309.468793053904
 31
0.0
  0
LINE
  5
2241
330
1F
100
AcDbEntity
  8
0
100
AcDbLine
 10
407.623065426488
 20
309.468793053904
 30
0.0
 11
410.6230654264878
 21
304.4234293909018
 31
0.0
  0
ARC
  5
2242
330
1F
100
AcDbEntity
  8
0
100
AcDbCircle
 10
410.6230654264879
 20
329.0776367001748
 30
0.0
 40
28.56250000000006
100
AcDbArc
 50
248.4314042648749
 51
291.5685957351252
  0
LINE
  5
2243
330
1F
100
AcDbEntity
  8
0
100
AcDbLine
 10
408.1815833060631
 20
316.409555976023
 30
0.0
 11
408.1815833060631
 21
315.9095559760229
 31
0.0
  0
LINE
  5
2244
330
1F
100
AcDbEntity
  8
0
100
AcDbLine
 10
408.1815833060631
 20
315.9095559760229
 30
0.0
 11
404.181583306063
 21
315.9095559760229
 31
0.0
  0
LINE
  5
2245
330
1F
100
AcDbEntity
  8
0
100
AcDbLine
 10
404.181583306063
 20
315.9095559760229
 30
0.0
 11
404.181583306063
 21
314.909555976023
 31
0.0
  0
LINE
  5
2246
330
1F
100
AcDbEntity
  8
0
100
AcDbLine
 10
404.181583306063
 20
314.909555976023
 30
0.0
 11
401.658901474562
 21
316.4095559760229
 31
0.0
  0
LINE
  5
2247
330
1F
100
AcDbEntity
  8
0
100
AcDbLine
 10
408.1815833060631
 20
316.409555976023
 30
0.0
 11
408.1815833060631
 21
316.909555976023
 31
0.0
  0
LINE
  5
2248
330
1F
100
AcDbEntity
  8
0
100
AcDbLine
 10
408.1815833060631
 20
316.909555976023
 30
0.0
 11
404.181583306063
 21
316.909555976023
 31
0.0
  0
LINE
  5
2249
330
1F
100
AcDbEntity
  8
0
100
AcDbLine
 10
404.181583306063
 20
316.909555976023
 30
0.0
 11
404.181583306063
 21
317.909555976023
 31
0.0
  0
LINE
  5
224A
330
1F
100
AcDbEntity
  8
0
100
AcDbLine
 10
404.181583306063
 20
317.909555976023
 30
0.0
 11
401.658901474562
 21
316.409555976023
 31
0.0
  0
LINE
  5
224B
330
1F
100
AcDbEntity
  8
0
100
AcDbLine
 10
413.0645475469127
 20
316.409555976023
 30
0.0
 11
413.0645475469127
 21
315.9095559760229
 31
0.0
  0
LINE
  5
224C
330
1F
100
AcDbEntity
  8
0
100
AcDbLine
 10
413.0645475469127
 20
315.9095559760229
 30
0.0
 11
417.0645475469128
 21
315.9095559760229
 31
0.0
  0
LINE
  5
224D
330
1F
100
AcDbEntity
  8
0
100
AcDbLine
 10
417.0645475469128
 20
315.9095559760229
 30
0.0
 11
417.0645475469128
 21
314.909555976023
 31
0.0
  0
LINE
  5
224E
330
1F
100
AcDbEntity
  8
0
100
AcDbLine
 10
417.0645475469128
 20
314.909555976023
 30
0.0
 11
419.5872293784138
 21
316.4095559760229
 31
0.0
  0
LINE
  5
224F
330
1F
100
AcDbEntity
  8
0
100
AcDbLine
 10
413.0645475469127
 20
316.409555976023
 30
0.0
 11
413.0645475469127
 21
316.909555976023
 31
0.0
  0
LINE
  5
2250
330
1F
100
AcDbEntity
  8
0
100
AcDbLine
 10
413.0645475469127
 20
316.909555976023
 30
0.0
 11
417.0645475469128
 21
316.909555976023
 31
0.0
  0
LINE
  5
2251
330
1F
100
AcDbEntity
  8
0
100
AcDbLine
 10
417.0645475469128
 20
316.909555976023
 30
0.0
 11
417.0645475469128
 21
317.909555976023
 31
0.0
  0
LINE
  5
2252
330
1F
100
AcDbEntity
  8
0
100
AcDbLine
 10
417.0645475469128
 20
317.909555976023
 30
0.0
 11
419.5872293784138
 21
316.409555976023
 31
0.0
  0
TEXT
  5
2255
330
1F
100
AcDbEntity
  8
AM_5
100
AcDbText
 10
484.7179519827025
 20
465.2283884483637
 30
0.0
 40
4.5
  1
2-PT3/4
 41
0.75
  7
CHINESET
100
AcDbText
  0
TEXT
  5
2256
330
1F
100
AcDbEntity
  8
AM_5
100
AcDbText
 10
484.7179519827025
 20
457.0403080259105
 30
0.0
 40
4.5
  1
2-PT1
 41
0.75
  7
CHINESET
100
AcDbText
  0
INSERT
  5
2257
330
1F
100
AcDbEntity
  8
AM_5
100
AcDbBlockReference
  2
*S10
 10
0.0
 20
0.0
 30
0.0
  0
LINE
  5
225C
330
1F
100
AcDbEntity
  8
AM_VIS
100
AcDbLine
 10
585.6518933562374
 20
456.5151367001747
 30
0.0
 11
585.6518933562374
 21
468.5151367001747
 31
0.0
  0
LINE
  5
225D
330
1F
100
AcDbEntity
  8
AM_VIS
100
AcDbLine
 10
584.6518933562374
 20
456.5151367001747
 30
0.0
 11
584.6518933562374
 21
468.5151367001747
 31
0.0
  0
LINE
  5
225E
330
1F
100
AcDbEntity
  8
AM_VIS
100
AcDbLine
 10
583.6518933562374
 20
456.5151367001747
 30
0.0
 11
583.6518933562374
 21
468.5151367001747
 31
0.0
  0
LINE
  5
225F
330
1F
100
AcDbEntity
  8
AM_VIS
100
AcDbLine
 10
582.6518933562375
 20
456.5151367001747
 30
0.0
 11
582.6518933562375
 21
468.5151367001747
 31
0.0
  0
LINE
  5
2261
330
1F
100
AcDbEntity
  8
AM_VIS
100
AcDbLine
 10
586.6518933562374
 20
456.5151367001747
 30
0.0
 11
586.6518933562374
 21
468.5151367001747
 31
0.0
  0
LINE
  5
2262
330
1F
100
AcDbEntity
  8
AM_VIS
100
AcDbLine
 10
587.6518933562374
 20
456.5151367001747
 30
0.0
 11
587.6518933562374
 21
468.5151367001747
 31
0.0
  0
LINE
  5
2263
330
1F
100
AcDbEntity
  8
AM_VIS
100
AcDbLine
 10
588.6518933562374
 20
456.5151367001747
 30
0.0
 11
588.6518933562374
 21
468.5151367001747
 31
0.0
  0
LINE
  5
2264
330
1F
100
AcDbEntity
  8
AM_VIS
100
AcDbLine
 10
589.6518933562374
 20
456.5151367001747
 30
0.0
 11
589.6518933562374
 21
468.5151367001747
 31
0.0
  0
LINE
  5
2265
330
1F
100
AcDbEntity
  8
AM_VIS
100
AcDbLine
 10
581.6518933562374
 20
456.5151367001747
 30
0.0
 11
581.6518933562374
 21
468.5151367001747
 31
0.0
  0
LINE
  5
2266
330
1F
100
AcDbEntity
  8
AM_VIS
100
AcDbLine
 10
424.6230654264881
 20
460.5151367001747
 30
0.0
 11
424.6230654264881
 21
468.5151367001747
 31
0.0
  0
LINE
  5
2267
330
1F
100
AcDbEntity
  8
AM_VIS
100
AcDbLine
 10
423.6230654264882
 20
460.5151367001747
 30
0.0
 11
423.6230654264882
 21
468.5151367001747
 31
0.0
  0
LINE
  5
2268
330
1F
100
AcDbEntity
  8
AM_VIS
100
AcDbLine
 10
422.6230654264882
 20
460.5151367001747
 30
0.0
 11
422.6230654264882
 21
468.5151367001747
 31
0.0
  0
LINE
  5
2269
330
1F
100
AcDbEntity
  8
AM_VIS
100
AcDbLine
 10
421.6230654264881
 20
461.5151367001747
 30
0.0
 11
421.6230654264881
 21
468.5151367001747
 31
0.0
  0
LINE
  5
226A
330
1F
100
AcDbEntity
  8
AM_VIS
100
AcDbLine
 10
425.6230654264881
 20
460.5151367001747
 30
0.0
 11
425.6230654264881
 21
468.5151367001747
 31
0.0
  0
LINE
  5
226B
330
1F
100
AcDbEntity
  8
AM_VIS
100
AcDbLine
 10
426.6230654264882
 20
460.5151367001747
 30
0.0
 11
426.6230654264882
 21
468.5151367001747
 31
0.0
  0
LINE
  5
226C
330
1F
100
AcDbEntity
  8
AM_VIS
100
AcDbLine
 10
427.6230654264882
 20
460.5151367001747
 30
0.0
 11
427.6230654264882
 21
468.5151367001747
 31
0.0
  0
LINE
  5
226D
330
1F
100
AcDbEntity
  8
AM_VIS
100
AcDbLine
 10
428.6230654264882
 20
460.5151367001747
 30
0.0
 11
428.6230654264882
 21
468.5151367001747
 31
0.0
  0
LINE
  5
226E
330
1F
100
AcDbEntity
  8
AM_VIS
100
AcDbLine
 10
420.6230654264881
 20
461.5151367001747
 30
0.0
 11
420.6230654264881
 21
468.5151367001747
 31
0.0
  0
CIRCLE
  5
22F8
330
1F
100
AcDbEntity
  8
AM_0
100
AcDbCircle
 10
558.6518933562374
 20
427.5151367001747
 30
0.0
 40
15.1455
  0
ARC
  5
22F9
330
1F
100
AcDbEntity
  8
AM_4
100
AcDbCircle
 10
558.6518933562374
 20
427.5151367001747
 30
0.0
 40
17.0
100
AcDbArc
 50
260.0000000000014
 51
170.0000000000014
  0
SPLINE
  5
23C6
330
1F
100
AcDbEntity
  8
AM_VIS
100
AcDbSpline
210
0.0
220
0.0
230
1.0
 70
     8
 71
     3
 72
    22
 73
    18
 74
     0
 42
0.0000000001
 43
0.0000000001
 40
-3.789880580093354
 40
-3.789880580093354
 40
-3.789880580093354
 40
-3.789880580093354
 40
-3.313536700414658
 40
-3.313536700414658
 40
-2.83719282073596
 40
-2.83719282073596
 40
-2.360848941057263
 40
-2.360848941057263
 40
-1.884505061378566
 40
-1.884505061378566
 40
-1.413378796033924
 40
-1.413378796033924
 40
-0.9422525306892843
 40
-0.9422525306892843
 40
-0.4711262653446422
 40
-0.4711262653446422
 40
0.0
 40
0.0
 40
0.0
 40
0.0
 10
387.0798505141597
 20
310.5151367001747
 30
0.0
 10
386.9814406872823
 20
310.5151367001747
 30
0.0
 10
386.8806913910108
 20
310.4999782403744
 30
0.0
 10
386.6823672803861
 20
310.4362720988656
 30
0.0
 10
386.5847879215997
 20
310.3877404817025
 30
0.0
 10
386.3994156297666
 20
310.2594772285779
 30
0.0
 10
386.3114721166303
 20
310.179647427988
 30
0.0
 10
386.1501442500866
 20
309.9951403151969
 30
0.0
 10
386.0767547893315
 20
309.8904496805249
 30
0.0
 10
385.9483469864666
 20
309.6683651205264
 30
0.0
 10
385.8887779342256
 20
309.5435626747506
 30
0.0
 10
385.7842132830892
 20
309.2716154344902
 30
0.0
 10
385.739201415543
 20
309.1244762749381
 30
0.0
 10
385.6670785404685
 20
308.817308611759
 30
0.0
 10
385.6399026771782
 20
308.6570271414398
 30
0.0
 10
385.6042678417041
 20
308.3344637416943
 30
0.0
 10
385.5958150485421
 20
308.1721787886229
 30
0.0
 10
385.5958150485422
 20
308.0151367001747
 30
0.0
  0
SPLINE
  5
23C7
330
1F
100
AcDbEntity
  8
AM_VIS
100
AcDbSpline
210
0.0
220
0.0
230
1.0
 70
     8
 71
     3
 72
    22
 73
    18
 74
     0
 42
0.0000000001
 43
0.0000000001
 40
7.56366940383216
 40
7.56366940383216
 40
7.56366940383216
 40
7.56366940383216
 40
8.0347956691768
 40
8.0347956691768
 40
8.505921934521438
 40
8.505921934521438
 40
8.977048199866079
 40
8.977048199866079
 40
9.448174465210717
 40
9.448174465210717
 40
9.924518344889413
 40
9.924518344889413
 40
10.40086222456811
 40
10.40086222456811
 40
10.87720610424681
 40
10.87720610424681
 40
11.35354998392551
 40
11.35354998392551
 40
11.35354998392551
 40
11.35354998392551
 10
394.0810964227808
 20
308.0151367001747
 30
0.0
 10
394.0810964227808
 20
308.1721787886229
 30
0.0
 10
394.0682834418732
 20
308.3344637416943
 30
0.0
 10
394.0145550120102
 20
308.6570271414398
 30
0.0
 10
393.9736536187423
 20
308.817308611759
 30
0.0
 10
393.8660517659447
 20
309.1244762749381
 30
0.0
 10
393.7992716449965
 20
309.2716154344902
 30
0.0
 10
393.6459150397579
 20
309.5435626747506
 30
0.0
 10
393.5593396561431
 20
309.6683651205264
 30
0.0
 10
393.3751270268639
 20
309.8904496805249
 30
0.0
 10
393.2709667642431
 20
309.9951403151969
 30
0.0
 10
393.0456472535407
 20
310.179647427988
 30
0.0
 10
392.924502572116
 20
310.2594772285779
 30
0.0
 10
392.6735375446909
 20
310.3877404817025
 30
0.0
 10
392.5435283201871
 20
310.4362720988656
 30
0.0
 10
392.2838624759675
 20
310.4999782403744
 30
0.0
 10
392.1542053861483
 20
310.5151367001747
 30
0.0
 10
392.0295979824656
 20
310.5151367001747
 30
0.0
  0
SPLINE
  5
23C8
330
1F
100
AcDbEntity
  8
AM_VIS
100
AcDbSpline
210
0.0
220
0.0
230
1.0
 70
     8
 71
     3
 72
    22
 73
    18
 74
     0
 42
0.0000000001
 43
0.0000000001
 40
-3.789880580093354
 40
-3.789880580093354
 40
-3.789880580093354
 40
-3.789880580093354
 40
-3.313536700414658
 40
-3.313536700414658
 40
-2.83719282073596
 40
-2.83719282073596
 40
-2.360848941057264
 40
-2.360848941057264
 40
-1.884505061378568
 40
-1.884505061378568
 40
-1.413378796033926
 40
-1.413378796033926
 40
-0.9422525306892843
 40
-0.9422525306892843
 40
-0.4711262653446422
 40
-0.4711262653446422
 40
0.0
 40
0.0
 40
0.0
 40
0.0
 10
429.2165328705104
 20
310.5151367001747
 30
0.0
 10
429.0919254668276
 20
310.5151367001747
 30
0.0
 10
428.9622683770084
 20
310.4999782403744
 30
0.0
 10
428.7026025327889
 20
310.4362720988656
 30
0.0
 10
428.5725933082851
 20
310.3877404817025
 30
0.0
 10
428.32162828086
 20
310.2594772285779
 30
0.0
 10
428.2004835994353
 20
310.179647427988
 30
0.0
 10
427.9751640887329
 20
309.9951403151969
 30
0.0
 10
427.871003826112
 20
309.8904496805249
 30
0.0
 10
427.6867911968328
 20
309.6683651205264
 30
0.0
 10
427.600215813218
 20
309.5435626747506
 30
0.0
 10
427.4468592079795
 20
309.2716154344902
 30
0.0
 10
427.3800790870312
 20
309.1244762749381
 30
0.0
 10
427.2724772342336
 20
308.817308611759
 30
0.0
 10
427.2315758409657
 20
308.6570271414398
 30
0.0
 10
427.1778474111028
 20
308.3344637416943
 30
0.0
 10
427.1650344301952
 20
308.1721787886229
 30
0.0
 10
427.1650344301952
 20
308.0151367001747
 30
0.0
  0
SPLINE
  5
23C9
330
1F
100
AcDbEntity
  8
AM_VIS
100
AcDbSpline
210
0.0
220
0.0
230
1.0
 70
     8
 71
     3
 72
    22
 73
    18
 74
     0
 42
0.0000000001
 43
0.0000000001
 40
7.563669403832161
 40
7.563669403832161
 40
7.563669403832161
 40
7.563669403832161
 40
8.036264095368503
 40
8.036264095368503
 40
8.508858786904845
 40
8.508858786904845
 40
8.981453478441185
 40
8.981453478441185
 40
9.454048169977527
 40
9.454048169977527
 40
9.928924638628405
 40
9.928924638628405
 40
10.40380110727928
 40
10.40380110727928
 40
10.87867757593016
 40
10.87867757593016
 40
11.35355404458104
 40
11.35355404458104
 40
11.35355404458104
 40
11.35355404458104
 10
435.6503158044338
 20
308.0151367001747
 30
0.0
 10
435.6503158044338
 20
308.1726682640202
 30
0.0
 10
435.6418103575485
 20
308.33544206807
 30
0.0
 10
435.6059630366127
 20
308.6589209743047
 30
0.0
 10
435.5786274238737
 20
308.8196291531472
 30
0.0
 10
435.5060888716415
 20
309.1275362339497
 30
0.0
 10
435.4608203630732
 20
309.2749900013713
 30
0.0
 10
435.3556646200876
 20
309.5474185257416
 30
0.0
 10
435.295760915313
 20
309.6723875251472
 30
0.0
 10
435.1670345329625
 20
309.8939533740342
 30
0.0
 10
435.0937308848848
 20
309.9980737331531
 30
0.0
 10
434.9326641232093
 20
310.1815655577715
 30
0.0
 10
434.8448959155506
 20
310.2609501671535
 30
0.0
 10
434.6599469772085
 20
310.3884884988397
 30
0.0
 10
434.5626167823797
 20
310.4367393424355
 30
0.0
 10
434.3648390319792
 20
310.5000713656395
 30
0.0
 10
434.2643870072584
 20
310.5151367001747
 30
0.0
 10
434.1662803388162
 20
310.5151367001747
 30
0.0
  0
LINE
  5
23CA
330
1F
100
AcDbEntity
  8
AM_VIS
100
AcDbLine
 10
385.5958150485421
 20
243.0151367001747
 30
0.0
 11
385.5958150485421
 21
308.0151367001747
 31
0.0
  0
SPLINE
  5
23CB
330
1F
100
AcDbEntity
  8
AM_VIS
100
AcDbSpline
210
0.0
220
0.0
230
1.0
 70
     8
 71
     3
 72
    22
 73
    18
 74
     0
 42
0.0000000001
 43
0.0000000001
 40
0.0
 40
0.0
 40
0.0
 40
0.0
 40
0.4711262653446465
 40
0.4711262653446465
 40
0.9422525306892929
 40
0.9422525306892929
 40
1.413378796033939
 40
1.413378796033939
 40
1.884505061378585
 40
1.884505061378585
 40
2.36084894105728
 40
2.36084894105728
 40
2.837192820735974
 40
2.837192820735974
 40
3.313536700414669
 40
3.313536700414669
 40
3.789880580093363
 40
3.789880580093363
 40
3.789880580093363
 40
3.789880580093363
 10
385.5958150485421
 20
243.0151367001747
 30
0.0
 10
385.5958150485421
 20
242.8580946117265
 30
0.0
 10
385.6042678417041
 20
242.6958096586552
 30
0.0
 10
385.6399026771782
 20
242.3732462589096
 30
0.0
 10
385.6670785404685
 20
242.2129647885904
 30
0.0
 10
385.739201415543
 20
241.9057971254113
 30
0.0
 10
385.7842132830891
 20
241.7586579658593
 30
0.0
 10
385.8887779342255
 20
241.4867107255988
 30
0.0
 10
385.9483469864666
 20
241.361908279823
 30
0.0
 10
386.0767547893315
 20
241.1398237198245
 30
0.0
 10
386.1501442500866
 20
241.0351330851526
 30
0.0
 10
386.3114721166303
 20
240.8506259723614
 30
0.0
 10
386.3994156297666
 20
240.7707961717715
 30
0.0
 10
386.5847879215997
 20
240.642532918647
 30
0.0
 10
386.6823672803861
 20
240.5940013014838
 30
0.0
 10
386.8806913910108
 20
240.530295159975
 30
0.0
 10
386.9814406872823
 20
240.5151367001747
 30
0.0
 10
387.0798505141597
 20
240.5151367001747
 30
0.0
  0
LINE
  5
23CC
330
1F
100
AcDbEntity
  8
AM_VIS
100
AcDbLine
 10
394.0810964227808
 20
308.0151367001747
 30
0.0
 11
394.0810964227808
 21
243.0151367001747
 31
0.0
  0
LINE
  5
23CD
330
1F
100
AcDbEntity
  8
AM_VIS
100
AcDbLine
 10
427.1650344301952
 20
243.0151367001747
 30
0.0
 11
427.1650344301952
 21
308.0151367001747
 31
0.0
  0
SPLINE
  5
23CE
330
1F
100
AcDbEntity
  8
AM_VIS
100
AcDbSpline
210
0.0
220
0.0
230
1.0
 70
     8
 71
     3
 72
    22
 73
    18
 74
     0
 42
0.0000000001
 43
0.0000000001
 40
3.773788823738807
 40
3.773788823738807
 40
3.773788823738807
 40
3.773788823738807
 40
4.2501327034175
 40
4.2501327034175
 40
4.726476583096195
 40
4.726476583096195
 40
5.202820462774889
 40
5.202820462774889
 40
5.679164342453583
 40
5.679164342453583
 40
6.15029060779823
 40
6.15029060779823
 40
6.621416873142877
 40
6.621416873142877
 40
7.092543138487523
 40
7.092543138487523
 40
7.56366940383217
 40
7.56366940383217
 40
7.56366940383217
 40
7.56366940383217
 10
392.0295979824656
 20
240.5151367001747
 30
0.0
 10
392.1542053861483
 20
240.5151367001747
 30
0.0
 10
392.2838624759675
 20
240.530295159975
 30
0.0
 10
392.5435283201871
 20
240.5940013014838
 30
0.0
 10
392.6735375446909
 20
240.642532918647
 30
0.0
 10
392.924502572116
 20
240.7707961717716
 30
0.0
 10
393.0456472535407
 20
240.8506259723614
 30
0.0
 10
393.2709667642431
 20
241.0351330851526
 30
0.0
 10
393.3751270268639
 20
241.1398237198245
 30
0.0
 10
393.5593396561431
 20
241.361908279823
 30
0.0
 10
393.6459150397579
 20
241.4867107255988
 30
0.0
 10
393.7992716449965
 20
241.7586579658592
 30
0.0
 10
393.8660517659447
 20
241.9057971254113
 30
0.0
 10
393.9736536187423
 20
242.2129647885904
 30
0.0
 10
394.0145550120102
 20
242.3732462589096
 30
0.0
 10
394.0682834418732
 20
242.6958096586552
 30
0.0
 10
394.0810964227808
 20
242.8580946117265
 30
0.0
 10
394.0810964227808
 20
243.0151367001747
 30
0.0
  0
SPLINE
  5
23CF
330
1F
100
AcDbEntity
  8
AM_VIS
100
AcDbSpline
210
0.0
220
0.0
230
1.0
 70
     8
 71
     3
 72
    22
 73
    18
 74
     0
 42
0.0000000001
 43
0.0000000001
 40
0.0
 40
0.0
 40
0.0
 40
0.0
 40
0.4711262653446468
 40
0.4711262653446468
 40
0.9422525306892934
 40
0.9422525306892934
 40
1.41337879603394
 40
1.41337879603394
 40
1.884505061378586
 40
1.884505061378586
 40
2.36084894105728
 40
2.36084894105728
 40
2.837192820735975
 40
2.837192820735975
 40
3.313536700414668
 40
3.313536700414668
 40
3.789880580093362
 40
3.789880580093362
 40
3.789880580093362
 40
3.789880580093362
 10
427.1650344301952
 20
243.0151367001747
 30
0.0
 10
427.1650344301952
 20
242.8580946117265
 30
0.0
 10
427.1778474111028
 20
242.6958096586552
 30
0.0
 10
427.2315758409657
 20
242.3732462589096
 30
0.0
 10
427.2724772342336
 20
242.2129647885904
 30
0.0
 10
427.3800790870312
 20
241.9057971254113
 30
0.0
 10
427.4468592079795
 20
241.7586579658592
 30
0.0
 10
427.600215813218
 20
241.4867107255988
 30
0.0
 10
427.6867911968328
 20
241.361908279823
 30
0.0
 10
427.871003826112
 20
241.1398237198245
 30
0.0
 10
427.9751640887329
 20
241.0351330851526
 30
0.0
 10
428.2004835994353
 20
240.8506259723614
 30
0.0
 10
428.32162828086
 20
240.7707961717716
 30
0.0
 10
428.5725933082851
 20
240.642532918647
 30
0.0
 10
428.7026025327888
 20
240.5940013014838
 30
0.0
 10
428.9622683770083
 20
240.530295159975
 30
0.0
 10
429.0919254668276
 20
240.5151367001747
 30
0.0
 10
429.2165328705104
 20
240.5151367001747
 30
0.0
  0
LINE
  5
23D0
330
1F
100
AcDbEntity
  8
AM_VIS
100
AcDbLine
 10
435.6503158044338
 20
308.0151367001747
 30
0.0
 11
435.6503158044338
 21
243.0151367001747
 31
0.0
  0
SPLINE
  5
23D1
330
1F
100
AcDbEntity
  8
AM_VIS
100
AcDbSpline
210
0.0
220
0.0
230
1.0
 70
     8
 71
     3
 72
    22
 73
    18
 74
     0
 42
0.0000000001
 43
0.0000000001
 40
-3.789880580093361
 40
-3.789880580093361
 40
-3.789880580093361
 40
-3.789880580093361
 40
-3.313536700414669
 40
-3.313536700414669
 40
-2.837192820735975
 40
-2.837192820735975
 40
-2.36084894105728
 40
-2.36084894105728
 40
-1.884505061378588
 40
-1.884505061378588
 40
-1.413378796033942
 40
-1.413378796033942
 40
-0.942252530689295
 40
-0.942252530689295
 40
-0.4711262653446476
 40
-0.4711262653446476
 40
0.0
 40
0.0
 40
0.0
 40
0.0
 10
434.1662803388162
 20
240.5151367001747
 30
0.0
 10
434.2646901656936
 20
240.5151367001747
 30
0.0
 10
434.3654394619651
 20
240.530295159975
 30
0.0
 10
434.5637635725899
 20
240.5940013014838
 30
0.0
 10
434.6613429313762
 20
240.642532918647
 30
0.0
 10
434.8467152232093
 20
240.7707961717716
 30
0.0
 10
434.9346587363457
 20
240.8506259723614
 30
0.0
 10
435.0959866028894
 20
241.0351330851526
 30
0.0
 10
435.1693760636444
 20
241.1398237198245
 30
0.0
 10
435.2977838665093
 20
241.361908279823
 30
0.0
 10
435.3573529187504
 20
241.4867107255988
 30
0.0
 10
435.4619175698868
 20
241.7586579658593
 30
0.0
 10
435.5069294374329
 20
241.9057971254113
 30
0.0
 10
435.5790523125074
 20
242.2129647885904
 30
0.0
 10
435.6062281757978
 20
242.3732462589096
 30
0.0
 10
435.6418630112719
 20
242.6958096586552
 30
0.0
 10
435.6503158044338
 20
242.8580946117265
 30
0.0
 10
435.6503158044338
 20
243.0151367001747
 30
0.0
  0
LINE
  5
23D2
330
1F
100
AcDbEntity
  8
AM_VIS
100
AcDbLine
 10
392.0295979824656
 20
310.5151367001747
 30
0.0
 11
387.0798505141597
 21
310.5151367001747
 31
0.0
  0
LINE
  5
23D3
330
1F
100
AcDbEntity
  8
AM_VIS
100
AcDbLine
 10
434.1662803388162
 20
310.5151367001747
 30
0.0
 11
429.2165328705104
 21
310.5151367001747
 31
0.0
  0
LINE
  5
23D4
330
1F
100
AcDbEntity
  8
AM_VIS
100
AcDbLine
 10
429.2165328705104
 20
240.5151367001747
 30
0.0
 11
434.1662803388162
 21
240.5151367001747
 31
0.0
  0
LINE
  5
23D5
330
1F
100
AcDbEntity
  8
AM_VIS
100
AcDbLine
 10
387.0798505141597
 20
240.5151367001747
 30
0.0
 11
392.0295979824656
 21
240.5151367001747
 31
0.0
  0
SPLINE
  5
23ED
330
1F
100
AcDbEntity
  8
AM_VIS
100
AcDbSpline
210
0.0
220
0.0
230
1.0
 70
     8
 71
     3
 72
    22
 73
    18
 74
     0
 42
0.0000000001
 43
0.0000000001
 40
-3.789880580093354
 40
-3.789880580093354
 40
-3.789880580093354
 40
-3.789880580093354
 40
-3.313536700414658
 40
-3.313536700414658
 40
-2.83719282073596
 40
-2.83719282073596
 40
-2.360848941057263
 40
-2.360848941057263
 40
-1.884505061378566
 40
-1.884505061378566
 40
-1.413378796033924
 40
-1.413378796033924
 40
-0.9422525306892843
 40
-0.9422525306892843
 40
-0.4711262653446422
 40
-0.4711262653446422
 40
0.0
 40
0.0
 40
0.0
 40
0.0
 10
535.1086784439091
 20
310.5151367001747
 30
0.0
 10
535.0102686170317
 20
310.5151367001747
 30
0.0
 10
534.9095193207602
 20
310.4999782403744
 30
0.0
 10
534.7111952101355
 20
310.4362720988656
 30
0.0
 10
534.613615851349
 20
310.3877404817025
 30
0.0
 10
534.428243559516
 20
310.2594772285779
 30
0.0
 10
534.3403000463797
 20
310.179647427988
 30
0.0
 10
534.178972179836
 20
309.9951403151969
 30
0.0
 10
534.1055827190809
 20
309.8904496805249
 30
0.0
 10
533.977174916216
 20
309.6683651205264
 30
0.0
 10
533.917605863975
 20
309.5435626747506
 30
0.0
 10
533.8130412128387
 20
309.2716154344902
 30
0.0
 10
533.7680293452924
 20
309.1244762749381
 30
0.0
 10
533.6959064702179
 20
308.817308611759
 30
0.0
 10
533.6687306069276
 20
308.6570271414398
 30
0.0
 10
533.6330957714535
 20
308.3344637416943
 30
0.0
 10
533.6246429782915
 20
308.1721787886229
 30
0.0
 10
533.6246429782915
 20
308.0151367001747
 30
0.0
  0
SPLINE
  5
23EE
330
1F
100
AcDbEntity
  8
AM_VIS
100
AcDbSpline
210
0.0
220
0.0
230
1.0
 70
     8
 71
     3
 72
    22
 73
    18
 74
     0
 42
0.0000000001
 43
0.0000000001
 40
7.56366940383216
 40
7.56366940383216
 40
7.56366940383216
 40
7.56366940383216
 40
8.0347956691768
 40
8.0347956691768
 40
8.505921934521438
 40
8.505921934521438
 40
8.977048199866079
 40
8.977048199866079
 40
9.448174465210717
 40
9.448174465210717
 40
9.924518344889413
 40
9.924518344889413
 40
10.40086222456811
 40
10.40086222456811
 40
10.87720610424681
 40
10.87720610424681
 40
11.35354998392551
 40
11.35354998392551
 40
11.35354998392551
 40
11.35354998392551
 10
542.1099243525302
 20
308.0151367001747
 30
0.0
 10
542.1099243525302
 20
308.1721787886229
 30
0.0
 10
542.0971113716226
 20
308.3344637416943
 30
0.0
 10
542.0433829417596
 20
308.6570271414398
 30
0.0
 10
542.0024815484916
 20
308.817308611759
 30
0.0
 10
541.8948796956941
 20
309.1244762749381
 30
0.0
 10
541.8280995747458
 20
309.2716154344902
 30
0.0
 10
541.6747429695074
 20
309.5435626747506
 30
0.0
 10
541.5881675858925
 20
309.6683651205264
 30
0.0
 10
541.4039549566133
 20
309.8904496805249
 30
0.0
 10
541.2997946939925
 20
309.9951403151969
 30
0.0
 10
541.0744751832901
 20
310.179647427988
 30
0.0
 10
540.9533305018654
 20
310.2594772285779
 30
0.0
 10
540.7023654744403
 20
310.3877404817025
 30
0.0
 10
540.5723562499365
 20
310.4362720988656
 30
0.0
 10
540.3126904057168
 20
310.4999782403744
 30
0.0
 10
540.1830333158978
 20
310.5151367001747
 30
0.0
 10
540.0584259122149
 20
310.5151367001747
 30
0.0
  0
SPLINE
  5
23EF
330
1F
100
AcDbEntity
  8
AM_VIS
100
AcDbSpline
210
0.0
220
0.0
230
1.0
 70
     8
 71
     3
 72
    22
 73
    18
 74
     0
 42
0.0000000001
 43
0.0000000001
 40
-3.789880580093354
 40
-3.789880580093354
 40
-3.789880580093354
 40
-3.789880580093354
 40
-3.313536700414658
 40
-3.313536700414658
 40
-2.83719282073596
 40
-2.83719282073596
 40
-2.360848941057264
 40
-2.360848941057264
 40
-1.884505061378568
 40
-1.884505061378568
 40
-1.413378796033926
 40
-1.413378796033926
 40
-0.9422525306892843
 40
-0.9422525306892843
 40
-0.4711262653446422
 40
-0.4711262653446422
 40
0.0
 40
0.0
 40
0.0
 40
0.0
 10
577.2453608002599
 20
310.5151367001747
 30
0.0
 10
577.1207533965771
 20
310.5151367001747
 30
0.0
 10
576.9910963067579
 20
310.4999782403744
 30
0.0
 10
576.7314304625383
 20
310.4362720988656
 30
0.0
 10
576.6014212380346
 20
310.3877404817025
 30
0.0
 10
576.3504562106094
 20
310.2594772285779
 30
0.0
 10
576.2293115291847
 20
310.179647427988
 30
0.0
 10
576.0039920184823
 20
309.9951403151969
 30
0.0
 10
575.8998317558615
 20
309.8904496805249
 30
0.0
 10
575.7156191265822
 20
309.6683651205264
 30
0.0
 10
575.6290437429675
 20
309.5435626747506
 30
0.0
 10
575.4756871377289
 20
309.2716154344902
 30
0.0
 10
575.4089070167807
 20
309.1244762749381
 30
0.0
 10
575.3013051639832
 20
308.817308611759
 30
0.0
 10
575.2604037707152
 20
308.6570271414398
 30
0.0
 10
575.2066753408522
 20
308.3344637416943
 30
0.0
 10
575.1938623599446
 20
308.1721787886229
 30
0.0
 10
575.1938623599446
 20
308.0151367001747
 30
0.0
  0
SPLINE
  5
23F0
330
1F
100
AcDbEntity
  8
AM_VIS
100
AcDbSpline
210
0.0
220
0.0
230
1.0
 70
     8
 71
     3
 72
    22
 73
    18
 74
     0
 42
0.0000000001
 43
0.0000000001
 40
7.563669403832161
 40
7.563669403832161
 40
7.563669403832161
 40
7.563669403832161
 40
8.036264095368503
 40
8.036264095368503
 40
8.508858786904845
 40
8.508858786904845
 40
8.981453478441185
 40
8.981453478441185
 40
9.454048169977527
 40
9.454048169977527
 40
9.928924638628405
 40
9.928924638628405
 40
10.40380110727928
 40
10.40380110727928
 40
10.87867757593016
 40
10.87867757593016
 40
11.35355404458104
 40
11.35355404458104
 40
11.35355404458104
 40
11.35355404458104
 10
583.6791437341832
 20
308.0151367001747
 30
0.0
 10
583.6791437341832
 20
308.1726682640202
 30
0.0
 10
583.670638287298
 20
308.33544206807
 30
0.0
 10
583.6347909663621
 20
308.6589209743047
 30
0.0
 10
583.6074553536231
 20
308.8196291531472
 30
0.0
 10
583.5349168013911
 20
309.1275362339497
 30
0.0
 10
583.4896482928227
 20
309.2749900013713
 30
0.0
 10
583.3844925498371
 20
309.5474185257416
 30
0.0
 10
583.3245888450625
 20
309.6723875251472
 30
0.0
 10
583.195862462712
 20
309.8939533740342
 30
0.0
 10
583.1225588146343
 20
309.9980737331531
 30
0.0
 10
582.9614920529588
 20
310.1815655577715
 30
0.0
 10
582.8737238453
 20
310.2609501671535
 30
0.0
 10
582.688774906958
 20
310.3884884988397
 30
0.0
 10
582.5914447121292
 20
310.4367393424355
 30
0.0
 10
582.3936669617287
 20
310.5000713656395
 30
0.0
 10
582.2932149370078
 20
310.5151367001747
 30
0.0
 10
582.1951082685656
 20
310.5151367001747
 30
0.0
  0
LINE
  5
23F1
330
1F
100
AcDbEntity
  8
AM_VIS
100
AcDbLine
 10
533.6246429782915
 20
243.0151367001747
 30
0.0
 11
533.6246429782915
 21
308.0151367001747
 31
0.0
  0
SPLINE
  5
23F2
330
1F
100
AcDbEntity
  8
AM_VIS
100
AcDbSpline
210
0.0
220
0.0
230
1.0
 70
     8
 71
     3
 72
    22
 73
    18
 74
     0
 42
0.0000000001
 43
0.0000000001
 40
0.0
 40
0.0
 40
0.0
 40
0.0
 40
0.4711262653446465
 40
0.4711262653446465
 40
0.9422525306892929
 40
0.9422525306892929
 40
1.413378796033939
 40
1.413378796033939
 40
1.884505061378585
 40
1.884505061378585
 40
2.36084894105728
 40
2.36084894105728
 40
2.837192820735974
 40
2.837192820735974
 40
3.313536700414669
 40
3.313536700414669
 40
3.789880580093363
 40
3.789880580093363
 40
3.789880580093363
 40
3.789880580093363
 10
533.6246429782915
 20
243.0151367001747
 30
0.0
 10
533.6246429782915
 20
242.8580946117265
 30
0.0
 10
533.6330957714535
 20
242.6958096586552
 30
0.0
 10
533.6687306069276
 20
242.3732462589096
 30
0.0
 10
533.6959064702179
 20
242.2129647885904
 30
0.0
 10
533.7680293452924
 20
241.9057971254113
 30
0.0
 10
533.8130412128386
 20
241.7586579658593
 30
0.0
 10
533.917605863975
 20
241.4867107255988
 30
0.0
 10
533.977174916216
 20
241.361908279823
 30
0.0
 10
534.1055827190809
 20
241.1398237198245
 30
0.0
 10
534.178972179836
 20
241.0351330851526
 30
0.0
 10
534.3403000463797
 20
240.8506259723614
 30
0.0
 10
534.428243559516
 20
240.7707961717715
 30
0.0
 10
534.613615851349
 20
240.642532918647
 30
0.0
 10
534.7111952101355
 20
240.5940013014838
 30
0.0
 10
534.9095193207602
 20
240.530295159975
 30
0.0
 10
535.0102686170317
 20
240.5151367001747
 30
0.0
 10
535.1086784439091
 20
240.5151367001747
 30
0.0
  0
LINE
  5
23F3
330
1F
100
AcDbEntity
  8
AM_VIS
100
AcDbLine
 10
542.1099243525302
 20
308.0151367001747
 30
0.0
 11
542.1099243525302
 21
243.0151367001747
 31
0.0
  0
LINE
  5
23F4
330
1F
100
AcDbEntity
  8
AM_VIS
100
AcDbLine
 10
575.1938623599446
 20
243.0151367001747
 30
0.0
 11
575.1938623599446
 21
308.0151367001747
 31
0.0
  0
SPLINE
  5
23F5
330
1F
100
AcDbEntity
  8
AM_VIS
100
AcDbSpline
210
0.0
220
0.0
230
1.0
 70
     8
 71
     3
 72
    22
 73
    18
 74
     0
 42
0.0000000001
 43
0.0000000001
 40
3.773788823738807
 40
3.773788823738807
 40
3.773788823738807
 40
3.773788823738807
 40
4.2501327034175
 40
4.2501327034175
 40
4.726476583096195
 40
4.726476583096195
 40
5.202820462774889
 40
5.202820462774889
 40
5.679164342453583
 40
5.679164342453583
 40
6.15029060779823
 40
6.15029060779823
 40
6.621416873142877
 40
6.621416873142877
 40
7.092543138487523
 40
7.092543138487523
 40
7.56366940383217
 40
7.56366940383217
 40
7.56366940383217
 40
7.56366940383217
 10
540.0584259122149
 20
240.5151367001747
 30
0.0
 10
540.1830333158978
 20
240.5151367001747
 30
0.0
 10
540.312690405717
 20
240.530295159975
 30
0.0
 10
540.5723562499365
 20
240.5940013014838
 30
0.0
 10
540.7023654744403
 20
240.642532918647
 30
0.0
 10
540.9533305018654
 20
240.7707961717716
 30
0.0
 10
541.0744751832901
 20
240.8506259723614
 30
0.0
 10
541.2997946939925
 20
241.0351330851526
 30
0.0
 10
541.4039549566133
 20
241.1398237198245
 30
0.0
 10
541.5881675858925
 20
241.361908279823
 30
0.0
 10
541.6747429695074
 20
241.4867107255988
 30
0.0
 10
541.8280995747458
 20
241.7586579658592
 30
0.0
 10
541.8948796956941
 20
241.9057971254113
 30
0.0
 10
542.0024815484916
 20
242.2129647885904
 30
0.0
 10
542.0433829417596
 20
242.3732462589096
 30
0.0
 10
542.0971113716226
 20
242.6958096586552
 30
0.0
 10
542.1099243525302
 20
242.8580946117265
 30
0.0
 10
542.1099243525302
 20
243.0151367001747
 30
0.0
  0
SPLINE
  5
23F6
330
1F
100
AcDbEntity
  8
AM_VIS
100
AcDbSpline
210
0.0
220
0.0
230
1.0
 70
     8
 71
     3
 72
    22
 73
    18
 74
     0
 42
0.0000000001
 43
0.0000000001
 40
0.0
 40
0.0
 40
0.0
 40
0.0
 40
0.4711262653446468
 40
0.4711262653446468
 40
0.9422525306892934
 40
0.9422525306892934
 40
1.41337879603394
 40
1.41337879603394
 40
1.884505061378586
 40
1.884505061378586
 40
2.36084894105728
 40
2.36084894105728
 40
2.837192820735975
 40
2.837192820735975
 40
3.313536700414668
 40
3.313536700414668
 40
3.789880580093362
 40
3.789880580093362
 40
3.789880580093362
 40
3.789880580093362
 10
575.1938623599446
 20
243.0151367001747
 30
0.0
 10
575.1938623599446
 20
242.8580946117265
 30
0.0
 10
575.2066753408522
 20
242.6958096586552
 30
0.0
 10
575.2604037707152
 20
242.3732462589096
 30
0.0
 10
575.3013051639832
 20
242.2129647885904
 30
0.0
 10
575.4089070167807
 20
241.9057971254113
 30
0.0
 10
575.4756871377289
 20
241.7586579658592
 30
0.0
 10
575.6290437429675
 20
241.4867107255988
 30
0.0
 10
575.7156191265822
 20
241.361908279823
 30
0.0
 10
575.8998317558615
 20
241.1398237198245
 30
0.0
 10
576.0039920184823
 20
241.0351330851526
 30
0.0
 10
576.2293115291847
 20
240.8506259723614
 30
0.0
 10
576.3504562106094
 20
240.7707961717716
 30
0.0
 10
576.6014212380346
 20
240.642532918647
 30
0.0
 10
576.7314304625383
 20
240.5940013014838
 30
0.0
 10
576.9910963067578
 20
240.530295159975
 30
0.0
 10
577.1207533965771
 20
240.5151367001747
 30
0.0
 10
577.2453608002599
 20
240.5151367001747
 30
0.0
  0
LINE
  5
23F7
330
1F
100
AcDbEntity
  8
AM_VIS
100
AcDbLine
 10
583.6791437341832
 20
308.0151367001747
 30
0.0
 11
583.6791437341832
 21
243.0151367001747
 31
0.0
  0
SPLINE
  5
23F8
330
1F
100
AcDbEntity
  8
AM_VIS
100
AcDbSpline
210
0.0
220
0.0
230
1.0
 70
     8
 71
     3
 72
    22
 73
    18
 74
     0
 42
0.0000000001
 43
0.0000000001
 40
-3.789880580093361
 40
-3.789880580093361
 40
-3.789880580093361
 40
-3.789880580093361
 40
-3.313536700414669
 40
-3.313536700414669
 40
-2.837192820735975
 40
-2.837192820735975
 40
-2.36084894105728
 40
-2.36084894105728
 40
-1.884505061378588
 40
-1.884505061378588
 40
-1.413378796033942
 40
-1.413378796033942
 40
-0.942252530689295
 40
-0.942252530689295
 40
-0.4711262653446476
 40
-0.4711262653446476
 40
0.0
 40
0.0
 40
0.0
 40
0.0
 10
582.1951082685656
 20
240.5151367001747
 30
0.0
 10
582.2935180954431
 20
240.5151367001747
 30
0.0
 10
582.3942673917145
 20
240.530295159975
 30
0.0
 10
582.5925915023393
 20
240.5940013014838
 30
0.0
 10
582.6901708611258
 20
240.642532918647
 30
0.0
 10
582.8755431529588
 20
240.7707961717716
 30
0.0
 10
582.9634866660951
 20
240.8506259723614
 30
0.0
 10
583.1248145326388
 20
241.0351330851526
 30
0.0
 10
583.1982039933939
 20
241.1398237198245
 30
0.0
 10
583.3266117962588
 20
241.361908279823
 30
0.0
 10
583.3861808484998
 20
241.4867107255988
 30
0.0
 10
583.4907454996363
 20
241.7586579658593
 30
0.0
 10
583.5357573671824
 20
241.9057971254113
 30
0.0
 10
583.6078802422568
 20
242.2129647885904
 30
0.0
 10
583.6350561055472
 20
242.3732462589096
 30
0.0
 10
583.6706909410213
 20
242.6958096586552
 30
0.0
 10
583.6791437341832
 20
242.8580946117265
 30
0.0
 10
583.6791437341832
 20
243.0151367001747
 30
0.0
  0
LINE
  5
23F9
330
1F
100
AcDbEntity
  8
AM_VIS
100
AcDbLine
 10
540.0584259122149
 20
310.5151367001747
 30
0.0
 11
535.1086784439091
 21
310.5151367001747
 31
0.0
  0
LINE
  5
23FA
330
1F
100
AcDbEntity
  8
AM_VIS
100
AcDbLine
 10
582.1951082685656
 20
310.5151367001747
 30
0.0
 11
577.2453608002599
 21
310.5151367001747
 31
0.0
  0
LINE
  5
23FB
330
1F
100
AcDbEntity
  8
AM_VIS
100
AcDbLine
 10
577.2453608002599
 20
240.5151367001747
 30
0.0
 11
582.1951082685656
 21
240.5151367001747
 31
0.0
  0
LINE
  5
23FC
330
1F
100
AcDbEntity
  8
AM_VIS
100
AcDbLine
 10
535.1086784439091
 20
240.5151367001747
 30
0.0
 11
540.0584259122149
 21
240.5151367001747
 31
0.0
  0
ENDSEC
  0
SECTION
  2
OBJECTS
  0
DICTIONARY
  5
C
330
0
100
AcDbDictionary
281
     1
  3
ACAD_COLOR
350
BE
  3
ACAD_GROUP
350
D
  3
ACAD_LAYOUT
350
1A
  3
ACAD_MATERIAL
350
BD
  3
ACAD_MLINESTYLE
350
17
  3
ACAD_PLOTSETTINGS
350
19
  3
ACAD_PLOTSTYLENAME
350
E
  3
ACAD_TABLESTYLE
350
11A
  3
ACDBHEADERROUNDTRIPXREC
350
2442
  3
AcDbVariableDictionary
350
94
  3
AcmDictionary
350
5B
  3
AMG
350
41
  3
AMGSNAPSETTINGS
350
1B8
  3
DWGPROPS
350
2441
  0
DICTIONARY
  5
3F9
330
2
100
AcDbDictionary
280
     1
281
     1
  3
ACAD_LAYERFILTERS
360
209F
  3
ACAD_LAYERSTATES
360
C43
  3
ACLYDICTIONARY
360
209E
  0
DICTIONARY
  5
8F
330
1F
100
AcDbDictionary
280
     1
281
     1
  3
ACAD_SORTENTS
360
1A6B
  0
DICTIONARY
  5
2309
330
22FF
100
AcDbDictionary
280
     1
281
     1
  3
ACAD_SORTENTS
360
230A
  0
DICTIONARY
  5
2120
330
2113
100
AcDbDictionary
280
     1
281
     1
  3
ACAD_DIMASSOC
360
2121
  0
DICTIONARY
  5
2155
330
2148
100
AcDbDictionary
280
     1
281
     1
  3
ACAD_DIMASSOC
360
2156
  0
DICTIONARY
  5
217F
330
2172
100
AcDbDictionary
280
     1
281
     1
  3
ACAD_DIMASSOC
360
2180
  0
DICTIONARY
  5
21D0
330
21C3
100
AcDbDictionary
280
     1
281
     1
  3
ACAD_DIMASSOC
360
21D1
  0
DICTIONARY
  5
2203
330
21F6
100
AcDbDictionary
280
     1
281
     1
  3
ACAD_DIMASSOC
360
2204
  0
DICTIONARY
  5
BE
102
{ACAD_REACTORS
330
C
102
}
330
C
100
AcDbDictionary
281
     1
  0
DICTIONARY
  5
D
102
{ACAD_REACTORS
330
C
102
}
330
C
100
AcDbDictionary
281
     1
  0
DICTIONARY
  5
1A
102
{ACAD_REACTORS
330
C
102
}
330
C
100
AcDbDictionary
281
     1
  3
Model
350
22
  3
配置1
350
1E
  3
配置2
350
26
  0
DICTIONARY
  5
BD
102
{ACAD_REACTORS
330
C
102
}
330
C
100
AcDbDictionary
281
     1
  0
DICTIONARY
  5
17
102
{ACAD_REACTORS
330
C
102
}
330
C
100
AcDbDictionary
281
     1
  3
Standard
350
18
  0
DICTIONARY
  5
19
102
{ACAD_REACTORS
330
C
102
}
330
C
100
AcDbDictionary
281
     1
  0
ACDBDICTIONARYWDFLT
  5
E
102
{ACAD_REACTORS
330
C
102
}
330
C
100
AcDbDictionary
281
     1
  3
Normal
350
F
100
AcDbDictionaryWithDefault
340
F
  0
DICTIONARY
  5
11A
102
{ACAD_REACTORS
330
C
102
}
330
C
100
AcDbDictionary
281
     1
  3
Standard
350
11B
  0
DICTIONARY
  5
2442
102
{ACAD_REACTORS
330
C
102
}
330
C
100
AcDbDictionary
281
     1
  0
DICTIONARY
  5
94
102
{ACAD_REACTORS
330
C
102
}
330
C
100
AcDbDictionary
281
     1
  3
CTABLESTYLE
350
138
  3
DIMASSOC
350
96
  3
INDEXCTL
350
95
  3
PROJECTNAME
350
243F
  0
DICTIONARY
  5
5B
102
{ACAD_REACTORS
330
C
102
}
330
C
100
AcDbDictionary
281
     1
  3
AcmBOM
350
1B5
  3
AcmStdDictionary
350
61
  3
AMDTSECTSYM_ARROWCOLOR
350
123
  0
DICTIONARY
  5
41
102
{ACAD_REACTORS
330
C
102
}
330
C
100
AcDbDictionary
281
     1
  0
DICTIONARY
  5
1B8
102
{ACAD_REACTORS
330
C
102
}
330
C
100
AcDbDictionary
281
     1
  0
XRECORD
  5
2441
102
{ACAD_REACTORS
330
C
102
}
330
C
100
AcDbXrecord
280
     1
  1
DWGPROPS COOKIE
  2

  3

  4

  6

  7

  8

  9

300
AmdtFileType=84
301
=
302
=
303
=
304
=
305
=
306
=
307
=
308
=
309
=
 40
0.1611561342592592
 41
2454314.367237952
 42
2454319.66418456
  1

 90
        1
  0
DICTIONARY
  5
209F
102
{ACAD_REACTORS
330
3F9
102
}
330
3F9
100
AcDbDictionary
281
     1
  0
DICTIONARY
  5
C43
102
{ACAD_REACTORS
330
3F9
102
}
330
3F9
100
AcDbDictionary
281
     1
  0
DICTIONARY
  5
209E
102
{ACAD_REACTORS
330
3F9
102
}
330
3F9
100
AcDbDictionary
281
     1
1001
ACAD
1000
<All
  0
SORTENTSTABLE
  5
1A6B
102
{ACAD_REACTORS
330
8F
102
}
330
8F
100
AcDbSortentsTable
330
1F
331
16F2
  5
16F2
331
16BE
  5
16BE
331
16D4
  5
16D4
331
1710
  5
1710
331
1709
  5
1709
331
16B7
  5
16B7
331
16EB
  5
16EB
331
16FE
  5
16FE
331
16AC
  5
16AC
331
1711
  5
1711
331
16BF
  5
16BF
331
16D5
  5
16D5
331
16F3
  5
16F3
331
170A
  5
170A
331
16EC
  5
16EC
331
16CB
  5
16CB
331
16AD
  5
16AD
331
16FF
  5
16FF
331
16C0
  5
16C0
331
16D6
  5
16D6
331
16F4
  5
16F4
331
1712
  5
1712
331
16ED
  5
16ED
331
170B
  5
170B
331
1700
  5
1700
331
16AE
  5
16AE
331
16CC
  5
16CC
331
16C1
  5
16C1
331
16D7
  5
16D7
331
16F5
  5
16F5
331
1713
  5
1713
331
16EE
  5
16EE
331
170C
  5
170C
331
1701
  5
1701
331
16AF
  5
16AF
331
16E3
  5
16E3
331
16C2
  5
16C2
331
16F6
  5
16F6
331
16EF
  5
16EF
331
170D
  5
170D
331
1702
  5
1702
331
16B0
  5
16B0
331
16E4
  5
16E4
331
16C3
  5
16C3
331
16A5
  5
16A5
331
16F7
  5
16F7
331
16B8
  5
16B8
331
170E
  5
170E
331
16B1
  5
16B1
331
16E5
  5
16E5
331
1703
  5
1703
331
16F8
  5
16F8
331
16A6
  5
16A6
331
16B9
  5
16B9
331
170F
  5
170F
331
16B2
  5
16B2
331
1704
  5
1704
331
16F9
  5
16F9
331
16A7
  5
16A7
331
16DB
  5
16DB
331
16BA
  5
16BA
331
16D0
  5
16D0
331
16B3
  5
16B3
331
1705
  5
1705
331
16FA
  5
16FA
331
16A8
  5
16A8
331
16BB
  5
16BB
331
16D1
  5
16D1
331
1706
  5
1706
331
16B4
  5
16B4
331
16A9
  5
16A9
331
16C7
  5
16C7
331
16FB
  5
16FB
331
16D2
  5
16D2
331
16BC
  5
16BC
331
16F0
  5
16F0
331
16E9
  5
16E9
331
16B5
  5
16B5
331
1707
  5
1707
331
16AA
  5
16AA
331
16FC
  5
16FC
331
16F1
  5
16F1
331
16BD
  5
16BD
331
16D3
  5
16D3
331
16EA
  5
16EA
331
16B6
  5
16B6
331
1708
  5
1708
331
16AB
  5
16AB
331
16DF
  5
16DF
331
16FD
  5
16FD
  0
SORTENTSTABLE
  5
230A
102
{ACAD_REACTORS
330
2309
102
}
330
2309
100
AcDbSortentsTable
330
22FF
  0
DIMASSOC
  5
2121
102
{ACAD_REACTORS
330
2120
102
}
330
2120
100
AcDbDimAssoc
330
2113
 90
        3
 70
     0
 71
     0
  1
AcDbOsnapPointRef
 72
    13
331
2012
 73
     0
 91
        0
 40
0.0
 10
0.0
 20
0.0
 30
2.000000000000000E+50
 75
     0
  1
AcDbOsnapPointRef
 72
     1
331
20FE
 73
     0
 91
        0
 40
0.0
 10
0.0
 20
0.0
 30
2.000000000000000E+50
 75
     0
  0
DIMASSOC
  5
2156
102
{ACAD_REACTORS
330
2155
102
}
330
2155
100
AcDbDimAssoc
330
2148
 90
        1
 70
     0
 71
     0
  1
AcDbOsnapPointRef
 72
     1
331
20FE
 73
     0
 91
        0
 40
0.0
 10
0.0
 20
0.0
 30
2.000000000000000E+50
 75
     0
  0
DIMASSOC
  5
2180
102
{ACAD_REACTORS
330
217F
102
}
330
217F
100
AcDbDimAssoc
330
2172
 90
        3
 70
     0
 71
     0
  1
AcDbOsnapPointRef
 72
    13
331
2012
 73
     0
 91
        0
 40
0.0
 10
0.0
 20
0.0
 30
2.000000000000000E+50
 75
     0
  1
AcDbOsnapPointRef
 72
     1
331
204B
 73
     0
 91
        0
 40
0.0
 10
0.0
 20
0.0
 30
2.000000000000000E+50
 75
     0
  0
DIMASSOC
  5
21D1
102
{ACAD_REACTORS
330
21D0
102
}
330
21D0
100
AcDbDimAssoc
330
21C3
 90
        3
 70
     0
 71
     0
  1
AcDbOsnapPointRef
 72
    13
331
2089
 73
     0
 91
        0
 40
0.0
 10
0.0
 20
0.0
 30
2.000000000000000E+50
 75
     0
  1
AcDbOsnapPointRef
 72
     1
331
2087
 73
     0
 91
        0
 40
0.0
 10
0.0
 20
0.0
 30
2.000000000000000E+50
 75
     0
  0
DIMASSOC
  5
2204
102
{ACAD_REACTORS
330
2203
102
}
330
2203
100
AcDbDimAssoc
330
21F6
 90
        3
 70
     0
 71
     0
  1
AcDbOsnapPointRef
 72
     1
331
2083
 73
     0
 91
        0
 40
0.0
 10
0.0
 20
0.0
 30
2.000000000000000E+50
 75
     0
  1
AcDbOsnapPointRef
 72
     1
331
205C
 73
     0
 91
        0
 40
0.0
 10
0.0
 20
0.0
 30
2.000000000000000E+50
 75
     0
  0
LAYOUT
  5
22
102
{ACAD_XDICTIONARY
360
2445
102
}
102
{ACAD_REACTORS
330
1A
102
}
330
1A
100
AcDbPlotSettings
  1

  2
\\RD\EPSON Stylus C63 Series單色
  4
A4
  6

 40
3.757083177566528
 41
3.757076978683471
 42
3.757080078125
 43
3.757080078125
 44
209.9733276367187
 45
296.9683227539062
 46
0.0
 47
0.0
 48
0.0
 49
0.0
140
0.0
141
0.0
142
1.0
143
0.3405120737814363
 70
 11952
 72
     1
 73
     0
 74
     0
  7
單色出圖.ctb
 75
     0
147
2.936753428137963
148
-2047.07469463503
149
-1261.649717473083
100
AcDbLayout
  1
Model
 70
     1
 71
     0
 10
0.0
 20
0.0
 11
12.0
 21
9.0
 12
0.0
 22
0.0
 32
0.0
 14
0.0
 24
0.0
 34
0.0
 15
0.0
 25
0.0
 35
0.0
146
0.0
 13
0.0
 23
0.0
 33
0.0
 16
1.0
 26
0.0
 36
0.0
 17
0.0
 27
1.0
 37
0.0
 76
     0
330
1F
1001
ACAD_PSEXT
1000
\\RD\EPSON Stylus C63 Series單色
1000
EPSON Stylus C63 Series
1000
\\RD
1000

1070
     0
  0
LAYOUT
  5
1E
102
{ACAD_XDICTIONARY
360
2443
102
}
102
{ACAD_REACTORS
330
1A
102
}
330
1A
100
AcDbPlotSettings
  1

  2

  4

  6

 40
0.0
 41
0.0
 42
0.0
 43
0.0
 44
0.0
 45
0.0
 46
0.0
 47
0.0
 48
0.0
 49
0.0
140
0.0
141
0.0
142
1.0
143
1.0
 70
   688
 72
     0
 73
     0
 74
     5
  7
單色出圖.ctb
 75
    16
147
1.0
148
0.0
149
0.0
100
AcDbLayout
  1
配置1
 70
     1
 71
     1
 10
0.0
 20
0.0
 11
420.0
 21
297.0
 12
0.0
 22
0.0
 32
0.0
 14
1.000000000000000E+20
 24
1.000000000000000E+20
 34
1.000000000000000E+20
 15
-1.000000000000000E+20
 25
-1.000000000000000E+20
 35
-1.000000000000000E+20
146
0.0
 13
0.0
 23
0.0
 33
0.0
 16
1.0
 26
0.0
 36
0.0
 17
0.0
 27
1.0
 37
0.0
 76
     0
330
1B
  0
LAYOUT
  5
26
102
{ACAD_XDICTIONARY
360
2447
102
}
102
{ACAD_REACTORS
330
1A
102
}
330
1A
100
AcDbPlotSettings
  1

  2

  4

  6

 40
0.0
 41
0.0
 42
0.0
 43
0.0
 44
0.0
 45
0.0
 46
0.0
 47
0.0
 48
0.0
 49
0.0
140
0.0
141
0.0
142
1.0
143
1.0
 70
   688
 72
     0
 73
     0
 74
     5
  7
單色出圖.ctb
 75
    16
147
1.0
148
0.0
149
0.0
100
AcDbLayout
  1
配置2
 70
     1
 71
     2
 10
0.0
 20
0.0
 11
12.0
 21
9.0
 12
0.0
 22
0.0
 32
0.0
 14
0.0
 24
0.0
 34
0.0
 15
0.0
 25
0.0
 35
0.0
146
0.0
 13
0.0
 23
0.0
 33
0.0
 16
1.0
 26
0.0
 36
0.0
 17
0.0
 27
1.0
 37
0.0
 76
     0
330
23
  0
MLINESTYLE
  5
18
102
{ACAD_REACTORS
330
17
102
}
330
17
100
AcDbMlineStyle
  2
STANDARD
 70
     0
  3

 62
   256
 51
90.0
 52
90.0
 71
     2
 49
0.5
 62
   256
  6
BYLAYER
 49
-0.5
 62
   256
  6
BYLAYER
  0
ACDBPLACEHOLDER
  5
F
102
{ACAD_REACTORS
330
E
102
}
330
E
  0
TABLESTYLE
  5
11B
102
{ACAD_REACTORS
330
11A
102
}
330
11A
100
AcDbTableStyle
  3
Standard
 70
     0
 71
     0
 40
1.5
 41
1.5
280
     0
281
     0
  7
STANDARD
140
4.5
170
     2
 62
     0
 63
     7
283
     0
274
    -2
284
     1
 64
     0
275
    -2
285
     1
 65
     0
276
    -2
286
     1
 66
     0
277
    -2
287
     1
 67
     0
278
    -2
288
     1
 68
     0
279
    -2
289
     1
 69
     0
  7
STANDARD
140
6.0
170
     5
 62
     0
 63
     7
283
     0
274
    -2
284
     1
 64
     0
275
    -2
285
     1
 65
     0
276
    -2
286
     1
 66
     0
277
    -2
287
     1
 67
     0
278
    -2
288
     1
 68
     0
279
    -2
289
     1
 69
     0
  7
STANDARD
140
4.5
170
     5
 62
     0
 63
     7
283
     0
274
    -2
284
     1
 64
     0
275
    -2
285
     1
 65
     0
276
    -2
286
     1
 66
     0
277
    -2
287
     1
 67
     0
278
    -2
288
     1
 68
     0
279
    -2
289
     1
 69
     0
  0
DICTIONARYVAR
  5
138
102
{ACAD_REACTORS
330
94
102
}
330
94
100
DictionaryVariables
280
     0
  1
STANDARD
  0
DICTIONARYVAR
  5
96
102
{ACAD_REACTORS
330
94
102
}
330
94
100
DictionaryVariables
280
     0
  1
2
  0
DICTIONARYVAR
  5
95
102
{ACAD_REACTORS
330
94
102
}
330
94
100
DictionaryVariables
280
     0
  1
0
  0
DICTIONARYVAR
  5
243F
102
{ACAD_REACTORS
330
94
102
}
330
94
100
DictionaryVariables
280
     0
  1

  0
DICTIONARY
  5
1B5
102
{ACAD_REACTORS
330
5B
102
}
330
5B
100
AcDbDictionary
281
     1
  0
DICTIONARY
  5
61
102
{ACAD_REACTORS
330
5B
102
}
330
5B
100
AcDbDictionary
281
     1
  0
XRECORD
  5
123
102
{ACAD_REACTORS
330
5B
102
}
330
5B
100
AcDbXrecord
280
     1
 90
-1023410169
  0
DICTIONARY
  5
2445
330
22
100
AcDbDictionary
280
     1
281
     1
  3
ACAD_XREC_ROUNDTRIP
360
2446
  0
DICTIONARY
  5
2443
330
1E
100
AcDbDictionary
280
     1
281
     1
  3
ACAD_XREC_ROUNDTRIP
360
2444
  0
DICTIONARY
  5
2447
330
26
100
AcDbDictionary
280
     1
281
     1
  3
ACAD_XREC_ROUNDTRIP
360
2448
  0
XRECORD
  5
2446
102
{ACAD_REACTORS
330
2445
102
}
330
2445
100
AcDbXrecord
280
     1
102
SHADEPLOT
 70
     0
102
SHADEPLOTRESLEVEL
 70
     2
102
SHADEPLOTCUSTOMDPI
 70
   300
  0
XRECORD
  5
2444
102
{ACAD_REACTORS
330
2443
102
}
330
2443
100
AcDbXrecord
280
     1
102
SHADEPLOT
 70
     0
102
SHADEPLOTRESLEVEL
 70
     2
102
SHADEPLOTCUSTOMDPI
 70
   300
  0
XRECORD
  5
2448
102
{ACAD_REACTORS
330
2447
102
}
330
2447
100
AcDbXrecord
280
     1
102
SHADEPLOT
 70
     0
102
SHADEPLOTRESLEVEL
 70
     2
102
SHADEPLOTCUSTOMDPI
 70
   300
  0
ENDSEC
  0
EOF
