  0
SECTION
  2
HEADER
  9
$ACADVER
  1
AC1015
  9
$ACADMAINTVER
 70
    20
  9
$DWGCODEPAGE
  3
ANSI_950
  9
$INSBASE
 10
0.0
 20
0.0
 30
0.0
  9
$EXTMIN
 10
987.488728559742
 20
153.8202532628552
 30
-0.007846981364878
  9
$EXTMAX
 10
1188.511857681583
 20
453.2244616697385
 30
165.7312656371921
  9
$LIMMIN
 10
0.0
 20
0.0
  9
$LIMMAX
 10
420.0
 20
297.0
  9
$ORTHOMODE
 70
     1
  9
$REGENMODE
 70
     1
  9
$FILLMODE
 70
     1
  9
$QTEXTMODE
 70
     0
  9
$MIRRTEXT
 70
     1
  9
$LTSCALE
 40
1.0
  9
$ATTMODE
 70
     1
  9
$TEXTSIZE
 40
3.0
  9
$TRACEWID
 40
1.0
  9
$TEXTSTYLE
  7
STANDARD
  9
$CLAYER
  8
0
  9
$CELTYPE
  6
ByLayer
  9
$CECOLOR
 62
   256
  9
$CELTSCALE
 40
1.0
  9
$DISPSILH
 70
     0
  9
$DIMSCALE
 40
2.0
  9
$DIMASZ
 40
3.0
  9
$DIMEXO
 40
1.5
  9
$DIMDLI
 40
15.0
  9
$DIMRND
 40
0.0
  9
$DIMDLE
 40
0.0
  9
$DIMEXE
 40
1.5
  9
$DIMTP
 40
0.1
  9
$DIMTM
 40
0.1
  9
$DIMTXT
 40
3.5
  9
$DIMCEN
 40
0.0
  9
$DIMTSZ
 40
0.0
  9
$DIMTOL
 70
     0
  9
$DIMLIM
 70
     0
  9
$DIMTIH
 70
     0
  9
$DIMTOH
 70
     0
  9
$DIMSE1
 70
     0
  9
$DIMSE2
 70
     0
  9
$DIMTAD
 70
     1
  9
$DIMZIN
 70
     8
  9
$DIMBLK
  1

  9
$DIMASO
 70
     1
  9
$DIMSHO
 70
     1
  9
$DIMPOST
  1

  9
$DIMAPOST
  1
"
  9
$DIMALT
 70
     0
  9
$DIMALTD
 70
     2
  9
$DIMALTF
 40
0.0393701
  9
$DIMLFAC
 40
1.0
  9
$DIMTOFL
 70
     1
  9
$DIMTVP
 40
0.0
  9
$DIMTIX
 70
     0
  9
$DIMSOXD
 70
     0
  9
$DIMSAH
 70
     0
  9
$DIMBLK1
  1

  9
$DIMBLK2
  1

  9
$DIMSTYLE
  2
AM_ISO
  9
$DIMCLRD
 70
   256
  9
$DIMCLRE
 70
   256
  9
$DIMCLRT
 70
   256
  9
$DIMTFAC
 40
0.6
  9
$DIMGAP
 40
1.0
  9
$DIMJUST
 70
     0
  9
$DIMSD1
 70
     0
  9
$DIMSD2
 70
     0
  9
$DIMTOLJ
 70
     0
  9
$DIMTZIN
 70
     8
  9
$DIMALTZ
 70
     0
  9
$DIMALTTZ
 70
     0
  9
$DIMUPT
 70
     0
  9
$DIMDEC
 70
     2
  9
$DIMTDEC
 70
     8
  9
$DIMALTU
 70
     2
  9
$DIMALTTD
 70
     2
  9
$DIMTXSTY
  7
STANDARD
  9
$DIMAUNIT
 70
     0
  9
$DIMADEC
 70
     0
  9
$DIMALTRND
 40
0.0
  9
$DIMAZIN
 70
     2
  9
$DIMDSEP
 70
    46
  9
$DIMATFIT
 70
     3
  9
$DIMFRAC
 70
     0
  9
$DIMLDRBLK
  1

  9
$DIMLUNIT
 70
     2
  9
$DIMLWD
 70
    -1
  9
$DIMLWE
 70
    -1
  9
$DIMTMOVE
 70
     0
  9
$LUNITS
 70
     2
  9
$LUPREC
 70
     2
  9
$SKETCHINC
 40
1.0
  9
$FILLETRAD
 40
2.5
  9
$AUNITS
 70
     0
  9
$AUPREC
 70
     0
  9
$MENU
  1
.
  9
$ELEVATION
 40
0.0
  9
$PELEVATION
 40
0.0
  9
$THICKNESS
 40
0.0
  9
$LIMCHECK
 70
     0
  9
$CHAMFERA
 40
2.5
  9
$CHAMFERB
 40
2.5
  9
$CHAMFERC
 40
20.0
  9
$CHAMFERD
 40
0.0
  9
$SKPOLY
 70
     0
  9
$TDCREATE
 40
2454515.453502778
  9
$TDUCREATE
 40
2454515.120169445
  9
$TDUPDATE
 40
2454593.673954063
  9
$TDUUPDATE
 40
2454593.340620729
  9
$TDINDWG
 40
0.1744381134
  9
$TDUSRTIMER
 40
0.1744375694
  9
$USRTIMER
 70
     1
  9
$ANGBASE
 50
0.0
  9
$ANGDIR
 70
     0
  9
$PDMODE
 70
     0
  9
$PDSIZE
 40
0.0
  9
$PLINEWID
 40
0.0
  9
$SPLFRAME
 70
     0
  9
$SPLINETYPE
 70
     6
  9
$SPLINESEGS
 70
     8
  9
$HANDSEED
  5
1B44
  9
$SURFTAB1
 70
     6
  9
$SURFTAB2
 70
     6
  9
$SURFTYPE
 70
     6
  9
$SURFU
 70
     6
  9
$SURFV
 70
     6
  9
$UCSBASE
  2

  9
$UCSNAME
  2

  9
$UCSORG
 10
0.0
 20
0.0
 30
0.0
  9
$UCSXDIR
 10
1.0
 20
0.0
 30
0.0
  9
$UCSYDIR
 10
0.0
 20
1.0
 30
0.0
  9
$UCSORTHOREF
  2

  9
$UCSORTHOVIEW
 70
     0
  9
$UCSORGTOP
 10
0.0
 20
0.0
 30
0.0
  9
$UCSORGBOTTOM
 10
0.0
 20
0.0
 30
0.0
  9
$UCSORGLEFT
 10
0.0
 20
0.0
 30
0.0
  9
$UCSORGRIGHT
 10
0.0
 20
0.0
 30
0.0
  9
$UCSORGFRONT
 10
0.0
 20
0.0
 30
0.0
  9
$UCSORGBACK
 10
0.0
 20
0.0
 30
0.0
  9
$PUCSBASE
  2

  9
$PUCSNAME
  2

  9
$PUCSORG
 10
0.0
 20
0.0
 30
0.0
  9
$PUCSXDIR
 10
1.0
 20
0.0
 30
0.0
  9
$PUCSYDIR
 10
0.0
 20
1.0
 30
0.0
  9
$PUCSORTHOREF
  2

  9
$PUCSORTHOVIEW
 70
     0
  9
$PUCSORGTOP
 10
0.0
 20
0.0
 30
0.0
  9
$PUCSORGBOTTOM
 10
0.0
 20
0.0
 30
0.0
  9
$PUCSORGLEFT
 10
0.0
 20
0.0
 30
0.0
  9
$PUCSORGRIGHT
 10
0.0
 20
0.0
 30
0.0
  9
$PUCSORGFRONT
 10
0.0
 20
0.0
 30
0.0
  9
$PUCSORGBACK
 10
0.0
 20
0.0
 30
0.0
  9
$USERI1
 70
     0
  9
$USERI2
 70
     0
  9
$USERI3
 70
     0
  9
$USERI4
 70
     0
  9
$USERI5
 70
     0
  9
$USERR1
 40
0.0
  9
$USERR2
 40
0.0
  9
$USERR3
 40
0.0
  9
$USERR4
 40
0.0
  9
$USERR5
 40
0.0
  9
$WORLDVIEW
 70
     1
  9
$SHADEDGE
 70
     3
  9
$SHADEDIF
 70
    70
  9
$TILEMODE
 70
     1
  9
$MAXACTVP
 70
    64
  9
$PINSBASE
 10
0.0
 20
0.0
 30
0.0
  9
$PLIMCHECK
 70
     0
  9
$PEXTMIN
 10
1.000000000000000E+20
 20
1.000000000000000E+20
 30
1.000000000000000E+20
  9
$PEXTMAX
 10
-1.000000000000000E+20
 20
-1.000000000000000E+20
 30
-1.000000000000000E+20
  9
$PLIMMIN
 10
0.0
 20
0.0
  9
$PLIMMAX
 10
420.0
 20
297.0
  9
$UNITMODE
 70
     0
  9
$VISRETAIN
 70
     1
  9
$PLINEGEN
 70
     0
  9
$PSLTSCALE
 70
     1
  9
$TREEDEPTH
 70
  3020
  9
$CMLSTYLE
  2
Standard
  9
$CMLJUST
 70
     0
  9
$CMLSCALE
 40
20.0
  9
$PROXYGRAPHICS
 70
     1
  9
$MEASUREMENT
 70
     1
  9
$CELWEIGHT
370
    -1
  9
$ENDCAPS
280
     0
  9
$JOINSTYLE
280
     0
  9
$LWDISPLAY
290
     0
  9
$INSUNITS
 70
     4
  9
$HYPERLINKBASE
  1

  9
$STYLESHEET
  1
彩色出圖.CTB
  9
$XEDIT
290
     1
  9
$CEPSNTYPE
380
     0
  9
$PSTYLEMODE
290
     1
  9
$FINGERPRINTGUID
  2
{F1DF99D9-ABC2-411F-A2F5-BE733C51C81C}
  9
$VERSIONGUID
  2
{B4EF3727-714A-4342-AA38-27EFE2ABB405}
  9
$EXTNAMES
290
     1
  9
$PSVPSCALE
 40
0.0
  9
$OLESTARTUP
290
     0
  0
ENDSEC
  0
SECTION
  2
CLASSES
  0
CLASS
  1
ACDBDICTIONARYWDFLT
  2
AcDbDictionaryWithDefault
  3
ObjectDBX Classes
 90
        0
280
     0
281
     0
  0
CLASS
  1
ACDBPLACEHOLDER
  2
AcDbPlaceHolder
  3
ObjectDBX Classes
 90
        0
280
     0
281
     0
  0
CLASS
  1
LAYOUT
  2
AcDbLayout
  3
ObjectDBX Classes
 90
        0
280
     0
281
     0
  0
CLASS
  1
ACME_DOCUMENT
  2
AcMeDbDoc
  3
AcMeServices
 90
        0
280
     0
281
     0
  0
CLASS
  1
AMGSETTINGSOBJ
  2
AmgSettingsObj
  3
"AcadM|Product Description: AutoCAD Mechanical 2000|Company: Autodesk"
 90
        0
280
     0
281
     0
  0
CLASS
  1
ACMESCOPE
  2
AcMeScope
  3
AcMeServices
 90
        0
280
     0
281
     0
  0
CLASS
  1
ACMECOMMANDHISTORY
  2
AcMeCommandHistory
  3
AcMeServices
 90
        0
280
     0
281
     0
  0
CLASS
  1
ACIMSYSVARMAN
  2
AcImSysVarManager
  3
AcMeServices
 90
        0
280
     0
281
     0
  0
CLASS
  1
ACIMREALSYSVAR
  2
AcImRealSysVar
  3
AcMeServices
 90
        0
280
     0
281
     0
  0
CLASS
  1
ACIMINTSYSVAR
  2
AcImIntSysVar
  3
AcMeServices
 90
        0
280
     0
281
     0
  0
CLASS
  1
ACMEDRAWINGMAN
  2
AcMeDrawingMan
  3
AcMeServices
 90
        0
280
     0
281
     0
  0
CLASS
  1
ACMEVIEW
  2
AcMeView
  3
AcMeServices
 90
        0
280
     0
281
     0
  0
CLASS
  1
ACDBENTITYCACHE
  2
AcMeEntityCache
  3
AcMeServices
 90
        0
280
     0
281
     0
  0
CLASS
  1
GSMANAGER
  2
AcMeGSManager
  3
AcMeServices
 90
        0
280
     0
281
     0
  0
CLASS
  1
AMDTINTERNALREACTOR
  2
AmdtInternalReactor
  3
AcMeServices
 90
        0
280
     0
281
     0
  0
CLASS
  1
ACMESTATEMGR
  2
AcMeStateMgr
  3
AcMeServices
 90
        0
280
     0
281
     0
  0
CLASS
  1
ACGREFMASTER
  2
AcGrefMaster
  3
AcAttribServices
 90
        0
280
     0
281
     0
  0
CLASS
  1
ACME_DATABASE
  2
AcMeDbDatabase
  3
AcMeServices
 90
        0
280
     0
281
     0
  0
CLASS
  1
ACRFINSADJUSTERMGR
  2
AcRfInsAdjusterMgr
  3
AcMeServices
 90
        0
280
     0
281
     0
  0
CLASS
  1
ACGREFACADMASTER
  2
AcGrefacadMaster
  3
AcGrefServices
 90
        0
280
     0
281
     0
  0
CLASS
  1
AMIMASTER
  2
AmiMaster
  3
AmiServices
 90
        0
280
     0
281
     0
  0
CLASS
  1
ACMDATADICTIONARY
  2
AcmDataDictionary
  3
"AcmSymBB|Product Description: AutoCAD Mechanical 2004 DX|Company: Autodesk"
 90
        0
280
     0
281
     0
  0
CLASS
  1
ACMDATAENTRYBLOCK
  2
AcmDataEntryBlock
  3
"AcmSymBB|Product Description: AutoCAD Mechanical 2004 DX|Company: Autodesk"
 90
    32768
280
     0
281
     0
  0
CLASS
  1
ACIMSTRSYSVAR
  2
AcImStrSysVar
  3
AcMeServices
 90
        0
280
     0
281
     0
  0
CLASS
  1
ACMSTANDARDISO
  2
AcmStandardISO
  3
"Amdt_StdImp|Product Description: AutoCAD Mechanical 2004 DX|Company: Autodesk"
 90
        0
280
     0
281
     0
  0
CLASS
  1
AMGOBJPROPCFG
  2
AmgObjPropCfg
  3
"AmgLay|Product Description: AutoCAD Mechanical 2000|Company: Autodesk"
 90
        1
280
     0
281
     0
  0
CLASS
  1
AMDTEDGESTANDARDISO
  2
AmdtEdgeStdISO
  3
"Amdt_StdImp|Product Description: AutoCAD Mechanical 2004 DX|Company: Autodesk"
 90
    32768
280
     0
281
     0
  0
CLASS
  1
ACMSURFSTANDARDISO
  2
AcmSurfTextStdISO
  3
"Amdt_StdImp|Product Description: AutoCAD Mechanical 2004 DX|Company: Autodesk"
 90
        0
280
     0
281
     0
  0
CLASS
  1
ACMFCFSTANDARDISO
  2
AcmFCFStdISO
  3
"Amdt_StdImp|Product Description: AutoCAD Mechanical 2004 DX|Company: Autodesk"
 90
        0
280
     0
281
     0
  0
CLASS
  1
ACMWELDSTANDARDISO
  2
AcmWeldingStdISO
  3
"Amdt_StdImp|Product Description: AutoCAD Mechanical 2004 DX|Company: Autodesk"
 90
        0
280
     0
281
     0
  0
CLASS
  1
ACMIDSTANDARDISO
  2
AcmIdStdISO
  3
"Amdt_StdImp|Product Description: AutoCAD Mechanical 2004 DX|Company: Autodesk"
 90
        0
280
     0
281
     0
  0
CLASS
  1
ACMDATUMSTANDARDISO
  2
AcmDatumStdISO
  3
"Amdt_StdImp|Product Description: AutoCAD Mechanical 2004 DX|Company: Autodesk"
 90
        0
280
     0
281
     0
  0
CLASS
  1
ACMBOMSTANDARDISO
  2
AcmBOMStdISO
  3
"Amdt_StdImp|Product Description: AutoCAD Mechanical 2004 DX|Company: Autodesk"
 90
        0
280
     0
281
     0
  0
CLASS
  1
ACMDETAILSTANDARDISO
  2
AmdtDetailSymStdISO
  3
"Amdt_StdImp|Product Description: AutoCAD Mechanical 2004 DX|Company: Autodesk"
 90
        0
280
     0
281
     0
  0
CLASS
  1
ACMSECTIONSTANDARDISO
  2
AmdtSectionSymStdISO
  3
"Amdt_StdImp|Product Description: AutoCAD Mechanical 2004 DX|Company: Autodesk"
 90
        0
280
     0
281
     0
  0
CLASS
  1
ACMCENTERLINESTANDARDISO
  2
AmdtCenterLineStdISO
  3
"Amdt_StdImp|Product Description: AutoCAD Mechanical 2004 DX|Company: Autodesk"
 90
        0
280
     0
281
     0
  0
CLASS
  1
ACMNOTESTANDARDISO
  2
AmdtNoteStdISO
  3
"Amdt_StdImp|Product Description: AutoCAD Mechanical 2004 DX|Company: Autodesk"
 90
        0
280
     0
281
     0
  0
CLASS
  1
ACAMGLAYSTD
  2
AcAmgLayStd
  3
"AcAmgLayStd|Product Description: AutoCAD Mechanical 2000|Company: Autodesk"
 90
        0
280
     0
281
     0
  0
CLASS
  1
ACAMGDIMSTD
  2
AcAmgDimStd
  3
"AcAmgDimStd|Product Description: AutoCAD Mechanical 2000|Company: Autodesk"
 90
        0
280
     0
281
     0
  0
CLASS
  1
ACAMGHOLECHARTSTDISO
  2
AcAmgHoleChartStdISO
  3
ACMSYMBB_MODULE_NAME
 90
        0
280
     0
281
     0
  0
CLASS
  1
ACAMGTITLESTD
  2
AcAmgTitleStd
  3
"TITLEAPP"
 90
        0
280
     0
281
     0
  0
CLASS
  1
LAYER_INDEX
  2
AcDbLayerIndex
  3
ObjectDBX Classes
 90
        0
280
     0
281
     0
  0
CLASS
  1
IDBUFFER
  2
AcDbIdBuffer
  3
ObjectDBX Classes
 90
        0
280
     0
281
     0
  0
CLASS
  1
DICTIONARYVAR
  2
AcDbDictionaryVar
  3
ObjectDBX Classes
 90
        0
280
     0
281
     0
  0
CLASS
  1
AM_DRAWING_MGR
  2
AcDmDwgMgr
  3
AcMechDwgViewMgmt
 90
        0
280
     0
281
     0
  0
CLASS
  1
AM_DWG_DOCUMENT
  2
AcDmDwgDocument
  3
AcMechDwgViewMgmt
 90
        0
280
     0
281
     0
  0
CLASS
  1
AM_DWG_SHEET
  2
AcDmSheet
  3
AcMechDwgViewMgmt
 90
        0
280
     0
281
     0
  0
CLASS
  1
AM_VIEWDIMPARMAP
  2
AcDmViewDimParMap
  3
AcMechDwgViewMgmt
 90
        0
280
     0
281
     0
  0
CLASS
  1
AM_DWGMGR_NAME
  2
AcDmDwgMgrName
  3
AcMechDwgViewMgmt
 90
        0
280
     0
281
     0
  0
CLASS
  1
AMDTMENUSTATEMGR
  2
AmdtMenuStateMgr
  3
McadcomServices
 90
        0
280
     0
281
     0
  0
CLASS
  1
AMDTMCOMMENUSTATE
  2
AmdtMcomMenuState
  3
McadcomServices
 90
        0
280
     0
281
     0
  0
CLASS
  1
MAPIAMMOUDLE
  2
MApiAmModule
  3
MApiAmServices
 90
        0
280
     0
281
     0
  0
CLASS
  1
AMDTADMENUSTATE
  2
AmdtAdMenuState
  3
DesignerServices
 90
        0
280
     0
281
     0
  0
CLASS
  1
ADAPPL
  2
AcAdAppl
  3
DesignerServices
 90
        0
280
     0
281
     0
  0
CLASS
  1
DEPMGR
  2
AcAdDepMgr
  3
DesignerServices
 90
        0
280
     0
281
     0
  0
CLASS
  1
PARAMMGR
  2
AcAdParamMgr
  3
DesignerServices
 90
        0
280
     0
281
     0
  0
CLASS
  1
PARAMSCOPE
  2
AcAdParamScope
  3
DesignerServices
 90
        0
280
     0
281
     0
  0
CLASS
  1
NAMEDAPPL
  2
AcAdNamedAppl
  3
DesignerServices
 90
        0
280
     0
281
     0
  0
CLASS
  1
AMDTDMMENUSTATE
  2
AmdtDmMenuState
  3
AcMechDwgViewMgmt
 90
        0
280
     0
281
     0
  0
CLASS
  1
AMDTAMMENUSTATE
  2
AmdtAmMenuState
  3
DesignerAssemblies
 90
        0
280
     0
281
     0
  0
CLASS
  1
ACAMPROJECT
  2
AcAmProject
  3
DesignerAssemblies
 90
        0
280
     0
281
     0
  0
CLASS
  1
ACAMGRCOMPDEF
  2
AcAmGrCompDef
  3
DesignerAssemblies
 90
        0
280
     0
281
     0
  0
CLASS
  1
ACCMCONTEXT
  2
AcCmContext
  3
DesignerAssemblies
 90
        0
280
     0
281
     0
  0
CLASS
  1
ACAMCOMPDEF
  2
AcAmCompDef
  3
DesignerAssemblies
 90
        0
280
     0
281
     0
  0
CLASS
  1
ACAMCOMPDEFMGR
  2
AcAmCompDefMgr
  3
DesignerAssemblies
 90
        0
280
     0
281
     0
  0
CLASS
  1
AMCONTEXTMGR
  2
AcAmContextMgr
  3
DesignerAssemblies
 90
        0
280
     0
281
     0
  0
CLASS
  1
ACAMCONTEXTMODELER
  2
AcAmContextModeler
  3
DesignerAssemblies
 90
        0
280
     0
281
     0
  0
CLASS
  1
ACMTHREADLINESTANDARDISO
  2
AmdtThreadLineStdISO
  3
"Amdt_StdImp|Product Description: AutoCAD Mechanical 2004 DX|Company: Autodesk"
 90
        0
280
     0
281
     0
  0
CLASS
  1
CATALOGSTATE
  2
AcAmCatalogState
  3
DesignerAssemblies
 90
        0
280
     0
281
     0
  0
CLASS
  1
ACAMGRCOMPDEFSET
  2
AcAmGrCompDefSet
  3
DesignerAssemblies
 90
        0
280
     0
281
     0
  0
CLASS
  1
AMDTBROWSERDBTAB
  2
AmdtBrowserDbTab
  3
McadcomServices
 90
        0
280
     0
281
     0
  0
CLASS
  1
CBROWSERAPPOBJECT
  2
CBrowserAppObject
  3
McadcomServices
 90
        0
280
     0
281
     0
  0
CLASS
  1
DM_PLACEHOLDER
  2
AcDmSelsetPlaceholder
  3
AcMechDwgViewMgmt
 90
        0
280
     0
281
     0
  0
CLASS
  1
TABLESTYLE
  2
AcDbTableStyle
  3
ObjectDBX Classes
 90
     2047
280
     0
281
     0
  0
CLASS
  1
VAACXREFPANELOBJECT
  2
VaAcXREFPanelObject
  3
VAAC_ADDIN
 90
    32768
280
     0
281
     0
  0
CLASS
  1
VAACIMAGEINVENTORY
  2
VaAcImageInventory
  3
VAAC_ADDIN
 90
    32768
280
     0
281
     0
  0
CLASS
  1
AMDTNOTETEMPLATEDB
  2
AmdtNoteTemplateDB
  3
AMDT_STDIMP_MODULE_NAME
 90
        0
280
     0
281
     0
  0
CLASS
  1
ACMBOM
  2
AcmBom
  3
"AcmSymBB|Product Description: AutoCAD Mechanical 2004 DX|Company: Autodesk"
 90
    32768
280
     0
281
     0
  0
CLASS
  1
AMDTFORMULAUPDATEDISPATCHER
  2
AmdtFormulaUpdateDispatcher
  3
AcMeServices
 90
    32768
280
     0
281
     0
  0
CLASS
  1
ACMPARTLIST
  2
AcmPartList
  3
"AcmSymBB|Product Description: AutoCAD Mechanical 2004 DX|Company: Autodesk"
 90
    33791
280
     0
281
     1
  0
CLASS
  1
ACAMGFILTERDAT
  2
AcAmgFilterDat
  3
"AcadM|Product Description: AutoCAD Mechanical 2000|Company: Autodesk"
 90
    32768
280
     0
281
     0
  0
CLASS
  1
DIMASSOC
  2
AcDbDimAssoc
  3
"AcDbDimAssoc|Product Desc:     AcDim ARX App For Dimension|Company:          Autodesk, Inc.|WEB Address:      www.autodesk.com"
 90
        0
280
     0
281
     0
  0
CLASS
  1
SORTENTSTABLE
  2
AcDbSortentsTable
  3
ObjectDBX Classes
 90
        0
280
     0
281
     0
  0
CLASS
  1
STDPART2D
  2
AmgStdPart
  3
"AmgStdPart|Product Description: AutoCAD Mechanical 2000|Company: Autodesk"
 90
    33791
280
     0
281
     1
  0
CLASS
  1
ACAMSTDPCOMPDEF
  2
AcAmStdpCompDef
  3
DesignerAssemblies
 90
    32768
280
     0
281
     0
  0
CLASS
  1
ACRFATTGENMGR
  2
AcRfAttGeneralMgr
  3
AcAttribServices
 90
        0
280
     0
281
     0
  0
CLASS
  1
ACRFOBJATTMGR
  2
AcRfObjAttGroupMgr
  3
AcAttribServices
 90
    32768
280
     0
281
     0
  0
CLASS
  1
ACRFMCADAPIATTHOLDER
  2
AcRfMCADAPIAttHolder
  3
AcAttribServices
 90
    32768
280
     0
281
     0
  0
CLASS
  1
AMDTSYSATTR
  2
AmdtSystemAttribute
  3
AcAttribServices
 90
    32768
280
     0
281
     0
  0
CLASS
  1
ACAMCOMP
  2
AcAmComp
  3
DesignerAssemblies
 90
    32768
280
     0
281
     0
  0
CLASS
  1
AC_AM_STDP_VIEW_DEF
  2
AcAmStdpViewDef
  3
DesignerAssemblies
 90
    32768
280
     0
281
     0
  0
CLASS
  1
AC_AM_MVD_DEP_MGR
  2
AcAmMVDdepMgr
  3
DesignerAssemblies
 90
    32768
280
     0
281
     0
  0
CLASS
  1
AC_AM_MASTER_VIEW_DEF
  2
AcAmMasterViewDef
  3
DesignerAssemblies
 90
    32768
280
     0
281
     0
  0
CLASS
  1
AC_AM_DIRTY_NODES
  2
AcAmDirtyNodes
  3
DesignerAssemblies
 90
    32768
280
     0
281
     0
  0
CLASS
  1
AC_AM_MAPPER_CACHE
  2
AcAmMapperCache
  3
DesignerAssemblies
 90
    32768
280
     0
281
     0
  0
CLASS
  1
ACAMMVDBACKUPOBJECT
  2
AcAmMVDBackupObject
  3
DesignerAssemblies
 90
    32768
280
     0
281
     0
  0
CLASS
  1
AC_AM_COMP_VIEW_INST
  2
AcAmCompView
  3
DesignerAssemblies
 90
    32768
280
     0
281
     0
  0
CLASS
  1
AC_AM_2D_XREF_MGR
  2
AcAmXrefMgr2d
  3
DesignerAssemblies
 90
    32768
280
     0
281
     0
  0
CLASS
  1
AMDTNOTE
  2
AmdtNote
  3
"AcmSymBB|Product Description: AutoCAD Mechanical 2004 DX|Company: Autodesk"
 90
    33791
280
     0
281
     1
  0
CLASS
  1
ASAPP
  2
AcAsAppObject
  3
AutoSurfServices
 90
        0
280
     0
281
     0
  0
CLASS
  1
IM_STATIC_MAN
  2
AcImStaticVarManager
  3
AcMeServices
 90
    32768
280
     0
281
     0
  0
CLASS
  1
ACIMDBLSTATICVAR
  2
AcImDblStaticVar
  3
AcMeServices
 90
    32768
280
     0
281
     0
  0
CLASS
  1
ACIMSTRSTATICVAR
  2
AcImStrStaticVar
  3
AcMeServices
 90
    32768
280
     0
281
     0
  0
CLASS
  1
ACIMINTSTATICVAR
  2
AcImIntStaticVar
  3
AcMeServices
 90
    32768
280
     0
281
     0
  0
CLASS
  1
ACASGREFMASTER
  2
AcAsGrefMaster
  3
AutoSurfResolverServices
 90
        0
280
     0
281
     0
  0
CLASS
  1
ACADGREFMODULE
  2
AcAdGrefModule
  3
AdGrefServices
 90
        0
280
     0
281
     0
  0
CLASS
  1
AMDTMAPISURFMOUDULE
  2
AmdtMApiSurfModule
  3
MApiSurfServices
 90
        0
280
     0
281
     0
  0
CLASS
  1
MAPIADMODULE
  2
MApiAdModule
  3
MApiAdServices
 90
        0
280
     0
281
     0
  0
CLASS
  1
AMDTEDGESTANDARDISO13715
  2
AmdtEdgeStdISO13715
  3
"Amdt_StdImp|Product Description: AutoCAD Mechanical 2004 DX|Company: Autodesk"
 90
        0
280
     0
281
     0
  0
ENDSEC
  0
SECTION
  2
TABLES
  0
TABLE
  2
VPORT
  5
8
330
0
100
AcDbSymbolTable
 70
     5
  0
VPORT
  5
1B3B
330
8
100
AcDbSymbolTableRecord
100
AcDbViewportTableRecord
  2
*Active
 70
     0
 10
0.0
 20
0.0
 11
1.0
 21
1.0
 12
1088.000293120662
 22
303.5223574662968
 13
0.0
 23
0.0
 14
2.5
 24
2.5
 15
10.0
 25
10.0
 16
0.0
 26
0.0
 36
1.0
 17
0.0
 27
0.0
 37
0.0
 40
301.8155174678783
 41
1.276881720430107
 42
50.0
 43
0.0
 44
0.0
 50
0.0
 51
0.0
 71
     0
 72
   100
 73
     1
 74
     3
 75
     0
 76
     0
 77
     0
 78
     0
281
     0
 65
     0
110
0.0
120
0.0
130
0.0
111
1.0
121
0.0
131
0.0
112
0.0
122
1.0
132
0.0
 79
     0
146
0.0
  0
ENDTAB
  0
TABLE
  2
LTYPE
  5
5
330
0
100
AcDbSymbolTable
 70
    16
  0
LTYPE
  5
14
330
5
100
AcDbSymbolTableRecord
100
AcDbLinetypeTableRecord
  2
ByBlock
 70
     0
  3

 72
    65
 73
     0
 40
0.0
  0
LTYPE
  5
15
330
5
100
AcDbSymbolTableRecord
100
AcDbLinetypeTableRecord
  2
ByLayer
 70
     0
  3

 72
    65
 73
     0
 40
0.0
  0
LTYPE
  5
16
330
5
100
AcDbSymbolTableRecord
100
AcDbLinetypeTableRecord
  2
Continuous
 70
     0
  3
Solid line
 72
    65
 73
     0
 40
0.0
  0
LTYPE
  5
64
330
5
100
AcDbSymbolTableRecord
100
AcDbLinetypeTableRecord
  2
AM_ISO02W050
 70
     0
  3
__ __ __ __ __ __ __ __ __ __ __ __ __ __ __
 72
    65
 73
     2
 40
7.5
 49
6.0
 74
     0
 49
-1.5
 74
     0
  0
LTYPE
  5
65
330
5
100
AcDbSymbolTableRecord
100
AcDbLinetypeTableRecord
  2
AM_ISO08W050
 70
     0
  3
____ . ____ . ____ . ____ . ____ . ____ . ____
 72
    65
 73
     4
 40
18.0
 49
12.0
 74
     0
 49
-1.5
 74
     0
 49
3.0
 74
     0
 49
-1.5
 74
     0
  0
LTYPE
  5
66
330
5
100
AcDbSymbolTableRecord
100
AcDbLinetypeTableRecord
  2
AM_ISO09W050
 70
     0
  3
_____ . . _____ . . _____ . . ____ .. ____
 72
    65
 73
     6
 40
22.5
 49
12.0
 74
     0
 49
-1.5
 74
     0
 49
3.0
 74
     0
 49
-1.5
 74
     0
 49
3.0
 74
     0
 49
-1.5
 74
     0
  0
LTYPE
  5
67
330
5
100
AcDbSymbolTableRecord
100
AcDbLinetypeTableRecord
  2
Amconstr
 70
     0
  3
_______________________
 72
    65
 73
     2
 40
9999.0
 49
9999.0
 74
     0
 49
0.0
 74
     0
  0
LTYPE
  5
68
330
5
100
AcDbSymbolTableRecord
100
AcDbLinetypeTableRecord
  2
AM_ISO08W050x2
 70
     0
  3
__ . __ . __ . __ . __ . __
 72
    65
 73
     4
 40
9.0
 49
6.0
 74
     0
 49
-0.75
 74
     0
 49
1.5
 74
     0
 49
-0.75
 74
     0
  0
LTYPE
  5
69
330
5
100
AcDbSymbolTableRecord
100
AcDbLinetypeTableRecord
  2
AM_ISO02W050x2
 70
     0
  3
 _ _ _ _ _ _ _ _ _ _ _ _
 72
    65
 73
     2
 40
3.75
 49
3.0
 74
     0
 49
-0.75
 74
     0
  0
LTYPE
  5
6C
330
5
100
AcDbSymbolTableRecord
100
AcDbLinetypeTableRecord
  2
Amzigzag
 70
     0
  3
/\/-/\/-/\/-/\/-/\/-/\/
 72
    65
 73
     2
 40
11.0001
 49
0.0001
 74
     4
 75
   135
340
6B
 46
0.04
 50
0.0
 44
0.0
 45
0.0
 49
-11.0
 74
     0
  0
LTYPE
  5
7A
330
5
100
AcDbSymbolTableRecord
100
AcDbLinetypeTableRecord
  2
ACISOWELD
 70
     0
  3
_ _ _ _ _
 72
    65
 73
     2
 40
2.0
 49
2.0
 74
     0
 49
-1.0
 74
     0
  0
LTYPE
  5
7B
330
5
100
AcDbSymbolTableRecord
100
AcDbLinetypeTableRecord
  2
ACISOTGB
 70
     0
  3
__ . . __ . .
 72
    65
 73
     6
 40
9.0
 49
4.0
 74
     0
 49
-1.0
 74
     0
 49
1.0
 74
     0
 49
-1.0
 74
     0
 49
1.0
 74
     0
 49
-1.0
 74
     0
  0
LTYPE
  5
7C
330
5
100
AcDbSymbolTableRecord
100
AcDbLinetypeTableRecord
  2
ACISOTGL
 70
     0
  3
_ _ _ _ _
 72
    65
 73
     2
 40
3.0
 49
2.0
 74
     0
 49
-1.0
 74
     0
  0
LTYPE
  5
7E
330
5
100
AcDbSymbolTableRecord
100
AcDbLinetypeTableRecord
  2
CENTER
 70
     0
  3
__ . __
 72
    65
 73
     4
 40
7.0
 49
4.0
 74
     0
 49
-1.0
 74
     0
 49
1.0
 74
     0
 49
-1.0
 74
     0
  0
LTYPE
  5
D8
330
5
100
AcDbSymbolTableRecord
100
AcDbLinetypeTableRecord
  2
HIDDEN
 70
     0
  3
Hidden __ __ __ __ __ __ __ __ __ __ __ __ __ _
 72
    65
 73
     2
 40
9.524999999999996
 49
6.349999999999998
 74
     0
 49
-3.174999999999998
 74
     0
  0
LTYPE
  5
D9
330
5
100
AcDbSymbolTableRecord
100
AcDbLinetypeTableRecord
  2
PHANTOM2
 70
     0
  3
Phantom (.5x) ___ _ _ ___ _ _ ___ _ _ ___ _ _
 72
    65
 73
     6
 40
31.75
 49
15.875
 74
     0
 49
-3.174999999999998
 74
     0
 49
3.174999999999998
 74
     0
 49
-3.174999999999998
 74
     0
 49
3.174999999999998
 74
     0
 49
-3.174999999999998
 74
     0
  0
LTYPE
  5
1584
330
5
100
AcDbSymbolTableRecord
100
AcDbLinetypeTableRecord
  2
ASULTYPE
 70
     0
  3
實線
 72
    65
 73
     2
 40
3.0
 49
2.5
 74
     0
 49
0.5
 74
     0
  0
LTYPE
  5
1585
330
5
100
AcDbSymbolTableRecord
100
AcDbLinetypeTableRecord
  2
ASVLTYPE
 70
     0
  3
__ __ __ __ __ __ __ __ __ __ __ __ __ __ __ __ __ __ __ __ __
 72
    65
 73
     2
 40
0.75
 49
0.5
 74
     0
 49
-0.25
 74
     0
  0
ENDTAB
  0
TABLE
  2
LAYER
  5
2
102
{ACAD_XDICTIONARY
360
3F9
102
}
330
0
100
AcDbSymbolTable
 70
    11
  0
LAYER
  5
10
330
2
100
AcDbSymbolTableRecord
100
AcDbLayerTableRecord
  2
0
 70
     0
 62
     7
  6
Continuous
370
    -3
390
F
  0
LAYER
  5
BCC
330
2
100
AcDbSymbolTableRecord
100
AcDbLayerTableRecord
  2
M_0
 70
     0
 62
     7
  6
Continuous
370
    -3
390
F
  0
LAYER
  5
BCD
330
2
100
AcDbSymbolTableRecord
100
AcDbLayerTableRecord
  2
AM_8
 70
     0
 62
     1
  6
Continuous
370
    25
390
F
  0
LAYER
  5
C06
330
2
100
AcDbSymbolTableRecord
100
AcDbLayerTableRecord
  2
AM_VIS
 70
     0
 62
     7
  6
Continuous
370
    50
390
F
  0
LAYER
  5
C07
330
2
100
AcDbSymbolTableRecord
100
AcDbLayerTableRecord
  2
AM_7
 70
     0
 62
     1
  6
CENTER
370
    25
390
F
  0
LAYER
  5
E37
330
2
100
AcDbSymbolTableRecord
100
AcDbLayerTableRecord
  2
AM_5
 70
     0
 62
     5
  6
Continuous
370
    50
390
F
  0
LAYER
  5
E41
330
2
100
AcDbSymbolTableRecord
100
AcDbLayerTableRecord
  2
AM_0
 70
     0
 62
     7
  6
Continuous
370
    50
390
F
  0
LAYER
  5
E66
330
2
100
AcDbSymbolTableRecord
100
AcDbLayerTableRecord
  2
AM_4
 70
     0
 62
   150
  6
Continuous
370
    25
390
F
  0
LAYER
  5
E9D
330
2
100
AcDbSymbolTableRecord
100
AcDbLayerTableRecord
  2
Defpoints
 70
     0
 62
     7
  6
Continuous
290
     0
370
    -3
390
F
  0
LAYER
  5
15AC
330
2
100
AcDbSymbolTableRecord
100
AcDbLayerTableRecord
  2
底
 70
     0
 62
     6
  6
Continuous
370
    -3
390
F
1001
AcAecLayerStandard
1000

1000

  0
LAYER
  5
1758
330
2
100
AcDbSymbolTableRecord
100
AcDbLayerTableRecord
  2
LOGO
 70
     0
 62
     7
  6
Continuous
370
    -3
390
F
  0
ENDTAB
  0
TABLE
  2
STYLE
  5
3
330
0
100
AcDbSymbolTable
 70
     8
  0
STYLE
  5
11
330
3
100
AcDbSymbolTableRecord
100
AcDbTextStyleTableRecord
  2
STANDARD
 70
     0
 40
0.0
 41
1.0
 50
0.0
 71
     0
 42
3.0
  3
ISOCP.SHX
  4
CHINESET.SHX
  0
STYLE
  5
6B
330
3
100
AcDbSymbolTableRecord
100
AcDbTextStyleTableRecord
  2

 70
     1
 40
0.0
 41
1.0
 50
0.0
 71
     0
 42
2.5
  3
ltypeshp.shx
  4

  0
STYLE
  5
6D
330
3
100
AcDbSymbolTableRecord
100
AcDbTextStyleTableRecord
  2
ACISOTS
 70
     0
 40
1.0
 41
1.0
 50
0.0
 71
     0
 42
1.0
  3
isocp.shx
  4
chineset.shx
  0
STYLE
  5
79
330
3
100
AcDbSymbolTableRecord
100
AcDbTextStyleTableRecord
  2
ACISOGDT
 70
     0
 40
0.0
 41
1.0
 50
0.0
 71
     0
 42
2.5
  3
amgdt.shx
  4
chineset.shx
  0
STYLE
  5
BCE
330
3
100
AcDbSymbolTableRecord
100
AcDbTextStyleTableRecord
  2
ROMAND
 70
     0
 40
0.0
 41
1.0
 50
0.0
 71
     0
 42
6.0
  3
romand.shx
  4
chineset.shx
  0
STYLE
  5
BCF
330
3
100
AcDbSymbolTableRecord
100
AcDbTextStyleTableRecord
  2
DAYUS
 70
     0
 40
0.0
 41
1.0
 50
0.0
 71
     0
 42
2.5
  3
simplex
  4
dayus
  0
STYLE
  5
BD0
330
3
100
AcDbSymbolTableRecord
100
AcDbTextStyleTableRecord
  2
新細明體
 70
     0
 40
0.0
 41
1.0
 50
0.0
 71
     0
 42
2.5
  3
PMingLiU.ttf
  4

1001
ACAD
1000
PMingLiU
1071
    34834
  0
STYLE
  5
1759
330
3
100
AcDbSymbolTableRecord
100
AcDbTextStyleTableRecord
  2
CHINESET
 70
     0
 40
0.0
 41
0.75
 50
0.0
 71
     0
 42
3.0
  3
simplex.shx
  4
CHINESET.SHX
  0
ENDTAB
  0
TABLE
  2
VIEW
  5
6
330
0
100
AcDbSymbolTable
 70
     0
  0
ENDTAB
  0
TABLE
  2
UCS
  5
7
330
0
100
AcDbSymbolTable
 70
     0
  0
ENDTAB
  0
TABLE
  2
APPID
  5
9
330
0
100
AcDbSymbolTable
 70
    32
  0
APPID
  5
12
330
9
100
AcDbSymbolTableRecord
100
AcDbRegAppTableRecord
  2
ACAD
 70
     0
  0
APPID
  5
46
330
9
100
AcDbSymbolTableRecord
100
AcDbRegAppTableRecord
  2
MCAD_NO_VIS
 70
     0
  0
APPID
  5
47
330
9
100
AcDbSymbolTableRecord
100
AcDbRegAppTableRecord
  2
ACAD_TEMP_GRAPHIC
 70
     0
  0
APPID
  5
58
330
9
100
AcDbSymbolTableRecord
100
AcDbRegAppTableRecord
  2
ACATTRIBSERVICES
 70
     0
  0
APPID
  5
EE
330
9
100
AcDbSymbolTableRecord
100
AcDbRegAppTableRecord
  2
AD_DRAW
 70
     0
  0
APPID
  5
10C
330
9
100
AcDbSymbolTableRecord
100
AcDbRegAppTableRecord
  2
DESIGNERASSEMBLIES
 70
     0
  0
APPID
  5
111
330
9
100
AcDbSymbolTableRecord
100
AcDbRegAppTableRecord
  2
ACADM_DIM_EDIT
 70
     0
  0
APPID
  5
112
330
9
100
AcDbSymbolTableRecord
100
AcDbRegAppTableRecord
  2
AMDT_DM_ADJ
 70
     0
  0
APPID
  5
22C
330
9
100
AcDbSymbolTableRecord
100
AcDbRegAppTableRecord
  2
ACAD_DSTYLE_DIMTEXT_FILL
 70
     0
  0
APPID
  5
452
330
9
100
AcDbSymbolTableRecord
100
AcDbRegAppTableRecord
  2
GENIUS_GENOENT_13
 70
     0
  0
APPID
  5
453
330
9
100
AcDbSymbolTableRecord
100
AcDbRegAppTableRecord
  2
GENIUS_GENOBJ-N-CRS_13
 70
     0
  0
APPID
  5
454
330
9
100
AcDbSymbolTableRecord
100
AcDbRegAppTableRecord
  2
GENIUS_GENOLIS_13
 70
     0
  0
APPID
  5
455
330
9
100
AcDbSymbolTableRecord
100
AcDbRegAppTableRecord
  2
GENIUS_GENODEF_13
 70
     0
  0
APPID
  5
456
330
9
100
AcDbSymbolTableRecord
100
AcDbRegAppTableRecord
  2
GENIUS_GENOREF_13
 70
     0
  0
APPID
  5
6F3
330
9
100
AcDbSymbolTableRecord
100
AcDbRegAppTableRecord
  2
ACAD_PSEXT
 70
     0
  0
APPID
  5
808
330
9
100
AcDbSymbolTableRecord
100
AcDbRegAppTableRecord
  2
GENIUS_GENDTOL_13
 70
     0
  0
APPID
  5
BD1
330
9
100
AcDbSymbolTableRecord
100
AcDbRegAppTableRecord
  2
GENIUS_GENOBJ-N-HTC_13
 70
     0
  0
APPID
  5
BD2
330
9
100
AcDbSymbolTableRecord
100
AcDbRegAppTableRecord
  2
GENIUS_GENHATCH_13
 70
     0
  0
APPID
  5
E48
330
9
100
AcDbSymbolTableRecord
100
AcDbRegAppTableRecord
  2
GEVID1203295366
 70
     0
  0
APPID
  5
E49
330
9
100
AcDbSymbolTableRecord
100
AcDbRegAppTableRecord
  2
GEVDC
 70
     0
  0
APPID
  5
E52
330
9
100
AcDbSymbolTableRecord
100
AcDbRegAppTableRecord
  2
AMG_2DHIDE
 70
     0
  0
APPID
  5
E53
330
9
100
AcDbSymbolTableRecord
100
AcDbRegAppTableRecord
  2
AMG_2DSTRUCT_BTR
 70
     0
  0
APPID
  5
E64
330
9
100
AcDbSymbolTableRecord
100
AcDbRegAppTableRecord
  2
ACADM_2DVIEW_IGN_NOTIFY
 70
     0
  0
APPID
  5
E89
330
9
100
AcDbSymbolTableRecord
100
AcDbRegAppTableRecord
  2
GENIUS_GENOBJ-N-CEN_13
 70
     0
  0
APPID
  5
E8A
330
9
100
AcDbSymbolTableRecord
100
AcDbRegAppTableRecord
  2
GENIUS_GENCEN_19
 70
     0
  0
APPID
  5
1533
330
9
100
AcDbSymbolTableRecord
100
AcDbRegAppTableRecord
  2
GENIUS_GENDIM_13
 70
     0
  0
APPID
  5
1534
330
9
100
AcDbSymbolTableRecord
100
AcDbRegAppTableRecord
  2
GENIUS_GE3DTOL_13
 70
     0
  0
APPID
  5
1586
330
9
100
AcDbSymbolTableRecord
100
AcDbRegAppTableRecord
  2
ASURF_PCURVE_APPNAME
 70
     0
  0
APPID
  5
158A
330
9
100
AcDbSymbolTableRecord
100
AcDbRegAppTableRecord
  2
AMG_3D2D_5.0
 70
     0
  0
APPID
  5
15AD
330
9
100
AcDbSymbolTableRecord
100
AcDbRegAppTableRecord
  2
AcAecLayerStandard
 70
     0
  0
APPID
  5
175A
330
9
100
AcDbSymbolTableRecord
100
AcDbRegAppTableRecord
  2
GENIUS_GENREC_14
 70
     0
  0
APPID
  5
175B
330
9
100
AcDbSymbolTableRecord
100
AcDbRegAppTableRecord
  2
GENIUS_GENOBJ-N-REC_13
 70
     0
  0
ENDTAB
  0
TABLE
  2
DIMSTYLE
  5
A
330
0
100
AcDbSymbolTable
 70
    10
100
AcDbDimStyleTable
 71
     3
340
81
340
8B
340
86
  0
DIMSTYLE
105
81
330
A
100
AcDbSymbolTableRecord
100
AcDbDimStyleTableRecord
  2
AM_ISO
 70
     0
  4
"
 40
2.0
 41
3.0
 42
1.5
 43
15.0
 44
1.5
 47
0.1
 48
0.1
 73
     0
 74
     0
 77
     1
 78
     8
 79
     2
140
3.5
141
0.0
143
0.0393701
146
0.6
147
1.0
172
     1
176
   256
177
   256
178
   256
271
     2
272
     2
283
     0
284
     8
340
11
371
    -1
372
    -1
  0
DIMSTYLE
105
82
330
A
100
AcDbSymbolTableRecord
100
AcDbDimStyleTableRecord
  2
AM_ISO$3
 70
     0
  4
"
 40
2.0
 41
3.0
 42
1.5
 43
15.0
 44
1.5
 47
0.1
 48
0.1
 73
     0
 77
     1
 78
     8
 79
     2
140
3.5
141
0.0
143
0.0393701
146
0.6
147
1.0
176
   256
177
   256
178
   256
271
     2
272
     2
283
     0
284
     8
288
     1
289
     0
340
11
371
    -1
372
    -1
  0
DIMSTYLE
105
83
330
A
100
AcDbSymbolTableRecord
100
AcDbDimStyleTableRecord
  2
AM_ISO$4
 70
     0
  4
"
 40
2.0
 41
3.0
 42
1.5
 43
15.0
 44
1.5
 47
0.1
 48
0.1
 73
     0
 77
     1
 78
     8
 79
     2
140
3.5
141
0.0
143
0.0393701
146
0.6
147
1.0
176
   256
177
   256
178
   256
271
     2
272
     2
283
     0
284
     8
288
     1
289
     0
340
11
371
    -1
372
    -1
  0
DIMSTYLE
105
84
330
A
100
AcDbSymbolTableRecord
100
AcDbDimStyleTableRecord
  2
AM_ISO$6
 70
     0
  4
"
 40
2.0
 41
3.0
 42
1.5
 43
15.0
 44
1.5
 47
0.1
 48
0.1
 73
     0
 74
     0
 78
     8
 79
     2
140
3.5
141
0.0
143
0.0393701
146
0.6
147
1.0
172
     1
176
   256
177
   256
178
   256
271
     2
272
     2
283
     0
284
     8
340
11
371
    -1
372
    -1
  0
DIMSTYLE
105
85
330
A
100
AcDbSymbolTableRecord
100
AcDbDimStyleTableRecord
  2
AM_ISO$7
 70
     0
  4
"
 40
2.0
 41
3.0
 42
1.5
 43
15.0
 44
1.5
 47
0.1
 48
0.1
 73
     0
 74
     0
 77
     1
 78
     8
 79
     2
140
5.0
141
0.0
143
0.0393701
146
0.6
147
1.0
172
     1
176
   256
177
   256
178
   256
271
     2
272
     2
283
     0
284
     8
340
11
371
    -1
372
    -1
  0
DIMSTYLE
105
86
330
A
100
AcDbSymbolTableRecord
100
AcDbDimStyleTableRecord
  2
AM_ISO$SF
 70
     0
  4
"
 41
2.5
 42
1.0
 43
10.0
 44
1.0
 47
0.1
 48
0.1
 73
     0
 74
     0
 75
     1
 76
     1
 77
     1
 78
     8
 79
     2
140
3.5
141
0.0
143
0.0393701
146
0.71
147
1.5
172
     1
176
   256
177
   256
178
     2
271
     2
272
     3
274
     4
283
     0
284
     8
340
11
371
    -1
372
    -1
  0
DIMSTYLE
105
8B
330
A
100
AcDbSymbolTableRecord
100
AcDbDimStyleTableRecord
  2
AM_ISO$SH
 70
     0
  4
"
 41
2.5
 42
1.0
 43
10.0
 44
1.0
 47
0.1
 48
0.1
 73
     0
 74
     0
 75
     1
 76
     1
 77
     1
 78
     8
 79
     2
140
3.5
141
0.0
143
0.0393701
144
2.0
146
0.71
147
1.5
172
     1
173
     1
176
   256
177
   256
178
     2
271
     2
272
     3
274
     4
283
     0
284
     8
340
11
343
87
371
    -1
372
    -1
  0
DIMSTYLE
105
40B
102
{ACAD_REACTORS
330
13E7
330
13EA
330
1438
330
1464
102
}
330
A
100
AcDbSymbolTableRecord
100
AcDbDimStyleTableRecord
  2
AM_ISO$0
 70
     0
  4
"
 40
2.0
 41
3.0
 42
1.5
 43
15.0
 44
1.5
 47
0.1
 48
0.1
 73
     0
 74
     0
 77
     1
 78
     8
 79
     2
140
3.5
141
0.0
143
0.0393701
146
0.6
147
1.0
172
     1
176
   256
177
   256
178
   256
271
     2
272
     2
283
     0
284
     8
340
11
371
    -1
372
    -1
  0
DIMSTYLE
105
10EC
330
A
100
AcDbSymbolTableRecord
100
AcDbDimStyleTableRecord
  2
AM_ANSI
 70
     0
  4
mm
 41
0.1
 42
0.05
 43
0.5
 44
0.1
 47
0.1
 48
0.1
 78
     7
 79
     2
140
0.12
141
0.0
146
0.71
147
0.06
176
   256
177
   256
178
     2
274
     4
284
     7
340
11
371
    -1
372
    -1
  0
DIMSTYLE
105
10ED
330
A
100
AcDbSymbolTableRecord
100
AcDbDimStyleTableRecord
  2
AM_ANSI$SF
 70
     0
  4
mm
 41
0.1
 42
0.05
 43
0.5
 44
0.1
 47
0.1
 48
0.1
 75
     1
 76
     1
 78
     7
 79
     2
140
0.12
141
0.0
146
0.71
147
0.06
176
   256
177
   256
178
     2
274
     4
284
     7
340
11
371
    -1
372
    -1
  0
ENDTAB
  0
TABLE
  2
BLOCK_RECORD
  5
1
330
0
100
AcDbSymbolTable
 70
    13
  0
BLOCK_RECORD
  5
1F
102
{ACAD_XDICTIONARY
360
8F
102
}
330
1
100
AcDbSymbolTableRecord
100
AcDbBlockTableRecord
  2
*Model_Space
340
22
  0
BLOCK_RECORD
  5
1B
330
1
100
AcDbSymbolTableRecord
100
AcDbBlockTableRecord
  2
*Paper_Space
340
1E
  0
BLOCK_RECORD
  5
23
330
1
100
AcDbSymbolTableRecord
100
AcDbBlockTableRecord
  2
*Paper_Space0
340
26
  0
BLOCK_RECORD
  5
87
330
1
100
AcDbSymbolTableRecord
100
AcDbBlockTableRecord
  2
GENAXEH
340
0
  0
BLOCK_RECORD
  5
ACA
330
1
100
AcDbSymbolTableRecord
100
AcDbBlockTableRecord
  2
A$C09F21E84
340
0
  0
BLOCK_RECORD
  5
B2D
330
1
100
AcDbSymbolTableRecord
100
AcDbBlockTableRecord
  2
A$C0AED3F82
340
0
  0
BLOCK_RECORD
  5
B52
330
1
100
AcDbSymbolTableRecord
100
AcDbBlockTableRecord
  2
A$C3F2B26CD
340
0
102
{BLKREFS
331
BCA
102
}
  0
BLOCK_RECORD
  5
BC8
330
1
100
AcDbSymbolTableRecord
100
AcDbBlockTableRecord
  2
A$C1730210C
340
0
  0
BLOCK_RECORD
  5
13F0
330
1
100
AcDbSymbolTableRecord
100
AcDbBlockTableRecord
  2
*D6
340
0
  0
BLOCK_RECORD
  5
13FC
330
1
100
AcDbSymbolTableRecord
100
AcDbBlockTableRecord
  2
*D7
340
0
  0
BLOCK_RECORD
  5
143B
330
1
100
AcDbSymbolTableRecord
100
AcDbBlockTableRecord
  2
*D8
340
0
  0
BLOCK_RECORD
  5
1465
330
1
100
AcDbSymbolTableRecord
100
AcDbBlockTableRecord
  2
*D9
340
0
  0
BLOCK_RECORD
  5
1868
330
1
100
AcDbSymbolTableRecord
100
AcDbBlockTableRecord
  2
*S1110
340
0
102
{BLKREFS
331
13D1
102
}
  0
BLOCK_RECORD
  5
1A30
330
1
100
AcDbSymbolTableRecord
100
AcDbBlockTableRecord
  2
*U11
340
0
  0
ENDTAB
  0
ENDSEC
  0
SECTION
  2
BLOCKS
  0
BLOCK
  5
20
330
1F
100
AcDbEntity
  8
0
100
AcDbBlockBegin
  2
*Model_Space
 70
     0
 10
0.0
 20
0.0
 30
0.0
  3
*Model_Space
  1

  0
ENDBLK
  5
21
330
1F
100
AcDbEntity
  8
0
100
AcDbBlockEnd
  0
BLOCK
  5
1C
330
1B
100
AcDbEntity
 67
     1
  8
0
100
AcDbBlockBegin
  2
*Paper_Space
 70
     0
 10
0.0
 20
0.0
 30
0.0
  3
*Paper_Space
  1

  0
ENDBLK
  5
1D
330
1B
100
AcDbEntity
 67
     1
  8
0
100
AcDbBlockEnd
  0
BLOCK
  5
24
330
23
100
AcDbEntity
  8
0
100
AcDbBlockBegin
  2
*Paper_Space0
 70
     0
 10
0.0
 20
0.0
 30
0.0
  3
*Paper_Space0
  1

  0
ENDBLK
  5
25
330
23
100
AcDbEntity
  8
0
100
AcDbBlockEnd
  0
BLOCK
  5
89
330
87
100
AcDbEntity
  8
0
100
AcDbBlockBegin
  2
GENAXEH
 70
     0
 10
0.0
 20
0.0
 30
0.0
  3
GENAXEH
  1

  0
LINE
  5
88
330
87
100
AcDbEntity
  8
0
100
AcDbLine
 10
-1.0
 20
0.0
 30
0.0
 11
1.0
 21
0.0
 31
0.0
  0
ENDBLK
  5
8A
330
87
100
AcDbEntity
  8
0
100
AcDbBlockEnd
  0
BLOCK
  5
ACB
330
ACA
100
AcDbEntity
  8
0
100
AcDbBlockBegin
  2
A$C09F21E84
 70
     0
 10
0.0
 20
0.0
 30
0.0
  3
A$C09F21E84
  1

  0
LWPOLYLINE
  5
ACC
330
ACA
100
AcDbEntity
  8
M_0
 62
     5
100
AcDbPolyline
 90
        2
 70
     0
 43
0.999999
 10
12.48259795562535
 20
2.999997438803147
 42
-1.0
 10
15.48259495562524
 20
2.999997438803147
 42
-0.0000000000000001
  0
ARC
  5
ACD
330
ACA
100
AcDbEntity
  8
M_0
 62
     5
100
AcDbCircle
 10
13.9825964556253
 20
2.999997438803177
 30
0.0
 40
1.999997999999999
100
AcDbArc
 50
0.0
 51
120.0000000000009
  0
ARC
  5
ACE
330
ACA
100
AcDbEntity
  8
M_0
 62
     5
100
AcDbCircle
 10
13.9825964556253
 20
2.999997438803177
 30
0.0
 40
0.999999
100
AcDbArc
 50
0.0
 51
180.0
  0
LINE
  5
ACF
330
ACA
100
AcDbEntity
  8
M_0
 62
     5
100
AcDbLine
 10
9.815900622325216
 20
5.69999473880307
 30
0.0
 11
9.815900622325216
 21
6.499993938803157
 31
0.0
  0
LINE
  5
AD0
330
ACA
100
AcDbEntity
  8
M_0
 62
     5
100
AcDbLine
 10
10.8158996223251
 20
5.69999473880307
 30
0.0
 11
10.8158996223251
 21
6.499993938803157
 31
0.0
  0
SOLID
  5
AD1
330
ACA
100
AcDbEntity
  8
M_0
 62
     5
100
AcDbTrace
 10
10.8158996223251
 20
6.499993938803157
 30
0.0
 11
10.8158996223251
 21
5.69999473880307
 31
0.0
 12
9.815900622325216
 22
6.499993938803157
 32
0.0
 13
9.815900622325216
 23
5.69999473880307
 33
0.0
  0
SOLID
  5
AD2
330
ACA
100
AcDbEntity
  8
M_0
 62
     5
100
AcDbTrace
 10
7.632147306527485
 20
4.999995438803153
 30
0.0
 11
7.632147306527485
 21
3.689750937042731
 31
0.0
 12
3.816073288825236
 22
0.0000004388031698
 32
0.0
 13
4.816072288825124
 23
0.0000004388031698
 33
0.0
  0
LINE
  5
AD3
330
ACA
100
AcDbEntity
  8
M_0
 62
     5
100
AcDbLine
 10
4.816072288825124
 20
0.0000004388031698
 30
0.0
 11
7.632147306527485
 21
3.689750937042731
 31
0.0
  0
LINE
  5
AD4
330
ACA
100
AcDbEntity
  8
M_0
 62
     5
100
AcDbLine
 10
4.816072288825124
 20
1.310244940563507
 30
0.0
 11
7.632147306527485
 21
4.999995438803153
 31
0.0
  0
SOLID
  5
AD5
330
ACA
100
AcDbEntity
  8
M_0
 62
     5
100
AcDbTrace
 10
4.816072288825124
 20
4.999995438803238
 30
0.0
 11
4.816072288825124
 21
1.310244940563507
 31
0.0
 12
3.816073288825236
 22
4.999995438803238
 32
0.0
 13
3.816073288825236
 23
0.0000004388031698
 33
0.0
  0
LINE
  5
AD6
330
ACA
100
AcDbEntity
  8
M_0
 62
     5
100
AcDbLine
 10
3.816073288825236
 20
0.0000004388031698
 30
0.0
 11
3.816073288825236
 21
3.689750937042731
 31
0.0
  0
LINE
  5
AD7
330
ACA
100
AcDbEntity
  8
M_0
 62
     5
100
AcDbLine
 10
4.816072288825124
 20
4.999995438803238
 30
0.0
 11
4.816072288825124
 21
1.310244940563507
 31
0.0
  0
LINE
  5
AD8
330
ACA
100
AcDbEntity
  8
M_0
 62
     5
100
AcDbLine
 10
3.816073288825236
 20
0.0000004388031698
 30
0.0
 11
4.816072288825124
 21
0.0000004388031698
 31
0.0
  0
LINE
  5
AD9
330
ACA
100
AcDbEntity
  8
M_0
 62
     5
100
AcDbLine
 10
3.816073288825236
 20
4.999995438803238
 30
0.0
 11
4.816072288825124
 21
4.999995438803238
 31
0.0
  0
LINE
  5
ADA
330
ACA
100
AcDbEntity
  8
M_0
 62
     5
100
AcDbLine
 10
-0.0000007288765573
 20
0.0000004388031698
 30
0.0
 11
0.9999982711233316
 21
0.0000004388031698
 31
0.0
  0
LINE
  5
ADB
330
ACA
100
AcDbEntity
  8
M_0
 62
     5
100
AcDbLine
 10
0.9999982711233316
 20
0.0000004388031698
 30
0.0
 11
3.816073288825236
 21
3.689750937042731
 31
0.0
  0
LINE
  5
ADC
330
ACA
100
AcDbEntity
  8
M_0
 62
     5
100
AcDbLine
 10
-0.0000007288765573
 20
0.0000004388031698
 30
0.0
 11
3.816073288825236
 21
4.999995438803153
 31
0.0
  0
SOLID
  5
ADD
330
ACA
100
AcDbEntity
  8
M_0
 62
     5
100
AcDbTrace
 10
3.816073288825236
 20
4.999995438803238
 30
0.0
 11
3.816073288825236
 21
3.689750937042731
 31
0.0
 12
-0.0000007288765573
 22
0.0000004388031698
 32
0.0
 13
0.9999982711233316
 23
0.0000004388031698
 33
0.0
  0
LWPOLYLINE
  5
ADE
330
ACA
100
AcDbEntity
  8
M_0
 62
     5
100
AcDbPolyline
 90
        2
 70
     0
 43
0.999999
 10
12.48259795562535
 20
0.0000004388032835
 10
12.48259795562535
 20
4.999995438803266
  0
LINE
  5
ADF
330
ACA
100
AcDbEntity
  8
M_0
 62
     5
100
AcDbLine
 10
9.815900622325216
 20
0.0000004388030277
 30
0.0
 11
9.815900622325216
 21
4.999995438803153
 31
0.0
  0
LINE
  5
AE0
330
ACA
100
AcDbEntity
  8
M_0
 62
     5
100
AcDbLine
 10
10.8158996223251
 20
0.0000004388030277
 30
0.0
 11
10.8158996223251
 21
4.999995438803153
 31
0.0
  0
LINE
  5
AE1
330
ACA
100
AcDbEntity
  8
M_0
 62
     5
100
AcDbLine
 10
11.98259845562529
 20
0.0000004388031698
 30
0.0
 11
11.98259845562529
 21
4.999995438803238
 31
0.0
  0
SOLID
  5
AE2
330
ACA
100
AcDbEntity
  8
M_0
 62
     5
100
AcDbTrace
 10
10.8158996223251
 20
4.999995438803153
 30
0.0
 11
10.8158996223251
 21
0.0000004388031698
 31
0.0
 12
9.815900622325216
 22
4.999995438803153
 32
0.0
 13
9.815900622325216
 23
0.0000004388031698
 33
0.0
  0
LINE
  5
AE3
330
ACA
100
AcDbEntity
  8
M_0
 62
     5
100
AcDbLine
 10
12.98259745562541
 20
0.0000004388031698
 30
0.0
 11
12.98259745562541
 21
2.999997438803177
 31
0.0
  0
LINE
  5
AE4
330
ACA
100
AcDbEntity
  8
M_0
 62
     5
100
AcDbLine
 10
11.98259845562529
 20
0.0000004388032551
 30
0.0
 11
12.98259745562541
 21
0.0000004388032551
 31
0.0
  0
LINE
  5
AE5
330
ACA
100
AcDbEntity
  8
M_0
 62
     5
100
AcDbLine
 10
9.815900622325216
 20
0.0000004388031698
 30
0.0
 11
10.8158996223251
 21
0.0000004388031698
 31
0.0
  0
LINE
  5
AE6
330
ACA
100
AcDbEntity
  8
M_0
 62
     5
100
AcDbLine
 10
11.98259845562529
 20
4.999995438803238
 30
0.0
 11
12.98259745562541
 21
4.999995438803238
 31
0.0
  0
LINE
  5
AE7
330
ACA
100
AcDbEntity
  8
M_0
 62
     5
100
AcDbLine
 10
12.98259745562541
 20
2.999997438803177
 30
0.0
 11
11.98259845562529
 21
2.999997438803177
 31
0.0
  0
LINE
  5
AE8
330
ACA
100
AcDbEntity
  8
M_0
 62
     5
100
AcDbLine
 10
9.815900622325216
 20
4.999995438803153
 30
0.0
 11
10.8158996223251
 21
4.999995438803153
 31
0.0
  0
LINE
  5
AE9
330
ACA
100
AcDbEntity
  8
M_0
 62
     5
100
AcDbLine
 10
9.815900622325216
 20
5.69999473880307
 30
0.0
 11
10.8158996223251
 21
5.69999473880307
 31
0.0
  0
LINE
  5
AEA
330
ACA
100
AcDbEntity
  8
M_0
 62
     5
100
AcDbLine
 10
12.98259745562541
 20
4.732046514320983
 30
0.0
 11
12.98259745562541
 21
4.999995438803238
 31
0.0
  0
LINE
  5
AEB
330
ACA
100
AcDbEntity
  8
M_0
 62
     5
100
AcDbLine
 10
7.632147306527485
 20
0.0000004388031698
 30
0.0
 11
7.632147306527485
 21
3.689750937042731
 31
0.0
  0
LINE
  5
AEC
330
ACA
100
AcDbEntity
  8
M_0
 62
     5
100
AcDbLine
 10
8.632146306527602
 20
0.0000004388031698
 30
0.0
 11
8.632146306527602
 21
4.999995438803153
 31
0.0
  0
SOLID
  5
AED
330
ACA
100
AcDbEntity
  8
M_0
 62
     5
100
AcDbTrace
 10
8.632146306527602
 20
4.999995438803153
 30
0.0
 11
8.632146306527602
 21
0.0000004388031698
 31
0.0
 12
7.632147306527485
 22
4.999995438803153
 32
0.0
 13
7.632147306527485
 23
0.0000004388031698
 33
0.0
  0
LINE
  5
AEE
330
ACA
100
AcDbEntity
  8
M_0
 62
     5
100
AcDbLine
 10
7.632147306527485
 20
0.0000004388031698
 30
0.0
 11
8.632146306527602
 21
0.0000004388031698
 31
0.0
  0
LINE
  5
AEF
330
ACA
100
AcDbEntity
  8
M_0
 62
     5
100
AcDbLine
 10
7.632147306527485
 20
4.999995438803153
 30
0.0
 11
8.632146306527602
 21
4.999995438803153
 31
0.0
  0
LINE
  5
AF0
330
ACA
100
AcDbEntity
  8
M_0
 62
     5
100
AcDbLine
 10
9.815900622325216
 20
6.499993938803157
 30
0.0
 11
10.8158996223251
 21
6.499993938803157
 31
0.0
  0
ARC
  5
AF1
330
ACA
100
AcDbEntity
  8
M_0
 62
     5
100
AcDbCircle
 10
33.98277645542544
 20
2.499997938803175
 30
0.0
 40
2.499997499999999
100
AcDbArc
 50
53.13296708943612
 51
306.8670329105639
  0
LWPOLYLINE
  5
AF2
330
ACA
100
AcDbEntity
  8
M_0
 62
     5
100
AcDbPolyline
 90
        2
 70
     1
 43
0.999999
 10
31.98277845542566
 20
2.499997938803147
 42
1.0
 10
35.98277445542567
 20
2.499997938803147
 42
1.0
  0
CIRCLE
  5
AF3
330
ACA
100
AcDbEntity
  8
M_0
 62
     5
100
AcDbCircle
 10
33.98277645542544
 20
2.499997938803175
 30
0.0
 40
1.4999985
  0
LINE
  5
AF4
330
ACA
100
AcDbEntity
  8
M_0
 62
     5
100
AcDbLine
 10
22.14928828892562
 20
0.0000004388031698
 30
0.0
 11
22.14928828892562
 21
6.499993938803157
 31
0.0
  0
LWPOLYLINE
  5
AF5
330
ACA
100
AcDbEntity
  8
M_0
 62
     5
100
AcDbPolyline
 90
        2
 70
     0
 43
0.999999
 10
21.64928878892533
 20
0.0000004388031698
 10
21.64928878892533
 20
6.499993938803157
  0
LINE
  5
AF6
330
ACA
100
AcDbEntity
  8
M_0
 62
     5
100
AcDbLine
 10
21.14928928892573
 20
4.500070934823241
 30
0.0
 11
21.14928928892573
 21
6.499993938803157
 31
0.0
  0
LWPOLYLINE
  5
AF7
330
ACA
100
AcDbEntity
  8
M_0
 62
     5
100
AcDbPolyline
 90
        2
 70
     0
 43
0.999999
 10
23.81598662222541
 20
0.0000004388031698
 10
23.81598662222541
 20
4.999995438803153
  0
LINE
  5
AF8
330
ACA
100
AcDbEntity
  8
M_0
 62
     5
100
AcDbLine
 10
23.31598712222558
 20
0.0000004388031698
 30
0.0
 11
24.31598612222547
 21
0.0000004388031698
 31
0.0
  0
LINE
  5
AF9
330
ACA
100
AcDbEntity
  8
M_0
 62
     5
100
AcDbLine
 10
23.31598712222558
 20
4.999995438803153
 30
0.0
 11
24.31598612222547
 21
4.999995438803153
 31
0.0
  0
LINE
  5
AFA
330
ACA
100
AcDbEntity
  8
M_0
 62
     5
100
AcDbLine
 10
23.31598712222558
 20
2.999997438803006
 30
0.0
 11
24.31598612222547
 21
2.999997438803006
 31
0.0
  0
LWPOLYLINE
  5
AFB
330
ACA
100
AcDbEntity
  8
M_0
 62
     5
100
AcDbPolyline
 90
        2
 70
     0
 43
0.999999
 10
26.8159836222253
 20
2.999997438803034
 42
1.0
 10
23.81598662222541
 20
2.999997438803034
 42
1.0
  0
LINE
  5
AFC
330
ACA
100
AcDbEntity
  8
M_0
 62
     5
100
AcDbLine
 10
23.31598712222558
 20
0.0000004388031698
 30
0.0
 11
23.31598712222558
 21
4.999995438803153
 31
0.0
  0
ARC
  5
AFD
330
ACA
100
AcDbEntity
  8
M_0
 62
     5
100
AcDbCircle
 10
19.64939078882526
 20
2.499997938803175
 30
0.0
 40
2.499997499999999
100
AcDbArc
 50
53.13296708943612
 51
306.8670329105639
  0
LWPOLYLINE
  5
AFE
330
ACA
100
AcDbEntity
  8
M_0
 62
     5
100
AcDbPolyline
 90
        2
 70
     1
 43
0.999999
 10
17.64939278882548
 20
2.499997938803147
 42
1.0
 10
21.64938878882549
 20
2.499997938803147
 42
1.0
  0
CIRCLE
  5
AFF
330
ACA
100
AcDbEntity
  8
M_0
 62
     5
100
AcDbCircle
 10
19.64939078882526
 20
2.499997938803175
 30
0.0
 40
1.4999985
  0
LINE
  5
B00
330
ACA
100
AcDbEntity
  8
M_0
 62
     5
100
AcDbLine
 10
21.14928928892573
 20
0.0000004388031698
 30
0.0
 11
21.14928928892573
 21
0.4999249427829966
 31
0.0
  0
LINE
  5
B01
330
ACA
100
AcDbEntity
  8
M_0
 62
     5
100
AcDbLine
 10
21.14928928892573
 20
0.0000004388031698
 30
0.0
 11
22.14928828892562
 21
0.0000004388031698
 31
0.0
  0
LINE
  5
B02
330
ACA
100
AcDbEntity
  8
M_0
 62
     5
100
AcDbLine
 10
14.98259545562541
 20
0.0000004388031698
 30
0.0
 11
14.98259545562541
 21
2.999997438803177
 31
0.0
  0
LINE
  5
B03
330
ACA
100
AcDbEntity
  8
M_0
 62
     5
100
AcDbLine
 10
15.9825944556253
 20
0.0000004388031698
 30
0.0
 11
15.9825944556253
 21
2.999997438803177
 31
0.0
  0
LWPOLYLINE
  5
B04
330
ACA
100
AcDbEntity
  8
M_0
 62
     5
100
AcDbPolyline
 90
        2
 70
     0
 43
0.999999
 10
15.48259495562524
 20
2.999997438803147
 10
15.48259495562524
 20
0.0000004388031698
  0
LINE
  5
B05
330
ACA
100
AcDbEntity
  8
M_0
 62
     5
100
AcDbLine
 10
14.98259545562541
 20
0.0000004388031698
 30
0.0
 11
15.9825944556253
 21
0.0000004388031698
 31
0.0
  0
LINE
  5
B06
330
ACA
100
AcDbEntity
  8
M_0
 62
     5
100
AcDbLine
 10
15.9825944556253
 20
2.999997438803177
 30
0.0
 11
14.98259545562541
 21
2.999997438803177
 31
0.0
  0
LINE
  5
B07
330
ACA
100
AcDbEntity
  8
M_0
 62
     5
100
AcDbLine
 10
30.31598012222548
 20
0.0000004388030277
 30
0.0
 11
30.31598012222548
 21
2.999997438803006
 31
0.0
  0
LINE
  5
B08
330
ACA
100
AcDbEntity
  8
M_0
 62
     5
100
AcDbLine
 10
29.31598112222537
 20
0.0000004388030277
 30
0.0
 11
29.31598112222537
 21
2.999997438803006
 31
0.0
  0
LWPOLYLINE
  5
B09
330
ACA
100
AcDbEntity
  8
M_0
 62
     5
100
AcDbPolyline
 90
        2
 70
     0
 43
0.999999
 10
29.81598062222543
 20
0.0000004388030561
 10
29.81598062222543
 20
2.999997438803034
  0
LWPOLYLINE
  5
B0A
330
ACA
100
AcDbEntity
  8
M_0
 62
     5
100
AcDbPolyline
 90
        2
 70
     0
 43
0.999999
 10
26.8159836222253
 20
0.0000004388031698
 10
26.8159836222253
 20
2.999997438803034
  0
LINE
  5
B0B
330
ACA
100
AcDbEntity
  8
M_0
 62
     5
100
AcDbLine
 10
26.31598412222547
 20
0.0000004388031698
 30
0.0
 11
26.31598412222547
 21
2.999997438803006
 31
0.0
  0
LINE
  5
B0C
330
ACA
100
AcDbEntity
  8
M_0
 62
     5
100
AcDbLine
 10
27.31598312222536
 20
0.0000004388031698
 30
0.0
 11
27.31598312222536
 21
2.999997438803006
 31
0.0
  0
LINE
  5
B0D
330
ACA
100
AcDbEntity
  8
M_0
 62
     5
100
AcDbLine
 10
24.31598612222547
 20
0.0000004388031698
 30
0.0
 11
24.31598612222547
 21
2.999997438803006
 31
0.0
  0
LINE
  5
B0E
330
ACA
100
AcDbEntity
  8
M_0
 62
     5
100
AcDbLine
 10
29.31598112222537
 20
0.0000004388030277
 30
0.0
 11
30.31598012222548
 21
0.0000004388030277
 31
0.0
  0
LINE
  5
B0F
330
ACA
100
AcDbEntity
  8
M_0
 62
     5
100
AcDbLine
 10
26.31598412222547
 20
0.0000004388031698
 30
0.0
 11
27.31598312222536
 21
0.0000004388031698
 31
0.0
  0
LINE
  5
B10
330
ACA
100
AcDbEntity
  8
M_0
 62
     5
100
AcDbLine
 10
29.31598112222537
 20
2.999997438803006
 30
0.0
 11
30.31598012222548
 21
2.999997438803006
 31
0.0
  0
LINE
  5
B11
330
ACA
100
AcDbEntity
  8
M_0
 62
     5
100
AcDbLine
 10
26.31598412222547
 20
2.999997438803006
 30
0.0
 11
27.31598312222536
 21
2.999997438803006
 31
0.0
  0
LINE
  5
B12
330
ACA
100
AcDbEntity
  8
M_0
 62
     5
100
AcDbLine
 10
24.31598612222547
 20
4.732046514320813
 30
0.0
 11
24.31598612222547
 21
4.999995438803153
 31
0.0
  0
ARC
  5
B13
330
ACA
100
AcDbEntity
  8
M_0
 62
     5
100
AcDbCircle
 10
25.31598512222536
 20
2.999997438803006
 30
0.0
 40
1.999997999999999
100
AcDbArc
 50
41.40962210927096
 51
120.0000000000009
  0
ARC
  5
B14
330
ACA
100
AcDbEntity
  8
M_0
 62
     5
100
AcDbCircle
 10
25.31598512222536
 20
2.999997438803006
 30
0.0
 40
0.999999
100
AcDbArc
 50
0.0
 51
180.0
  0
ARC
  5
B15
330
ACA
100
AcDbEntity
  8
M_0
 62
     5
100
AcDbCircle
 10
28.31598212222548
 20
2.999997438803006
 30
0.0
 40
1.999997999999999
100
AcDbArc
 50
0.0
 51
138.590377890729
  0
ARC
  5
B16
330
ACA
100
AcDbEntity
  8
M_0
 62
     5
100
AcDbCircle
 10
28.31598212222548
 20
2.999997438803006
 30
0.0
 40
0.999999
100
AcDbArc
 50
0.0
 51
180.0
  0
LWPOLYLINE
  5
B17
330
ACA
100
AcDbEntity
  8
M_0
 62
     5
100
AcDbPolyline
 90
        2
 70
     0
 43
0.999999
 10
29.81598062222543
 20
2.999997438803034
 42
1.0
 10
26.8159836222253
 20
2.999997438803034
 42
1.0
  0
LINE
  5
B18
330
ACA
100
AcDbEntity
  8
M_0
 62
     5
100
AcDbLine
 10
21.14928928892573
 20
6.499993938803157
 30
0.0
 11
22.14928828892562
 21
6.499993938803157
 31
0.0
  0
ARC
  5
B19
330
ACA
100
AcDbEntity
  8
M_0
 62
     5
100
AcDbCircle
 10
39.64937078882531
 20
2.999997438803177
 30
0.0
 40
1.999997999999999
100
AcDbArc
 50
0.0
 51
120.0000000000009
  0
LINE
  5
B1A
330
ACA
100
AcDbEntity
  8
M_0
 62
     5
100
AcDbLine
 10
41.64936878882531
 20
0.0000004388031698
 30
0.0
 11
41.64936878882531
 21
2.999997438803177
 31
0.0
  0
LINE
  5
B1B
330
ACA
100
AcDbEntity
  8
M_0
 62
     5
100
AcDbLine
 10
40.6493697888252
 20
0.0000004388031698
 30
0.0
 11
40.6493697888252
 21
2.999997438803177
 31
0.0
  0
LWPOLYLINE
  5
B1C
330
ACA
100
AcDbEntity
  8
M_0
 62
     5
100
AcDbPolyline
 90
        2
 70
     0
 43
0.999999
 10
41.14936928882571
 20
2.999997438803147
 10
41.14936928882571
 20
0.0000004388031698
  0
LINE
  5
B1D
330
ACA
100
AcDbEntity
  8
M_0
 62
     5
100
AcDbLine
 10
38.64937178882519
 20
0.0000004388031698
 30
0.0
 11
38.64937178882519
 21
2.999997438803177
 31
0.0
  0
LINE
  5
B1E
330
ACA
100
AcDbEntity
  8
M_0
 62
     5
100
AcDbLine
 10
40.6493697888252
 20
0.0000004388031698
 30
0.0
 11
41.64936878882531
 21
0.0000004388031698
 31
0.0
  0
LINE
  5
B1F
330
ACA
100
AcDbEntity
  8
M_0
 62
     5
100
AcDbLine
 10
38.64937178882519
 20
4.732046514320983
 30
0.0
 11
38.64937178882519
 21
4.999995438803238
 31
0.0
  0
ARC
  5
B20
330
ACA
100
AcDbEntity
  8
M_0
 62
     5
100
AcDbCircle
 10
39.64937078882531
 20
2.999997438803177
 30
0.0
 40
0.999999
100
AcDbArc
 50
0.0
 51
180.0
  0
LWPOLYLINE
  5
B21
330
ACA
100
AcDbEntity
  8
M_0
 62
     5
100
AcDbPolyline
 90
        2
 70
     0
 43
0.999999
 10
35.98267445552482
 20
0.0000004388031698
 10
35.98267445552482
 20
4.999995438803266
  0
LINE
  5
B22
330
ACA
100
AcDbEntity
  8
M_0
 62
     5
100
AcDbLine
 10
37.64937278882531
 20
0.0000004388031698
 30
0.0
 11
37.64937278882531
 21
4.999995438803238
 31
0.0
  0
LINE
  5
B23
330
ACA
100
AcDbEntity
  8
M_0
 62
     5
100
AcDbLine
 10
36.48267395552512
 20
0.0000004388031698
 30
0.0
 11
36.48267395552512
 21
4.999995438803238
 31
0.0
  0
LINE
  5
B24
330
ACA
100
AcDbEntity
  8
M_0
 62
     5
100
AcDbLine
 10
35.48267495552523
 20
0.0000004388031698
 30
0.0
 11
36.48267395552512
 21
0.0000004388031698
 31
0.0
  0
LINE
  5
B25
330
ACA
100
AcDbEntity
  8
M_0
 62
     5
100
AcDbLine
 10
35.48267495552523
 20
0.0000004388031698
 30
0.0
 11
35.48267495552523
 21
0.4999249427829966
 31
0.0
  0
LINE
  5
B26
330
ACA
100
AcDbEntity
  8
M_0
 62
     5
100
AcDbLine
 10
35.48267495552523
 20
4.999995438803238
 30
0.0
 11
36.48267395552512
 21
4.999995438803238
 31
0.0
  0
LINE
  5
B27
330
ACA
100
AcDbEntity
  8
M_0
 62
     5
100
AcDbLine
 10
35.48267495552523
 20
4.500070934823241
 30
0.0
 11
35.48267495552523
 21
4.999995438803238
 31
0.0
  0
LWPOLYLINE
  5
B28
330
ACA
100
AcDbEntity
  8
M_0
 62
     5
100
AcDbPolyline
 90
        2
 70
     0
 43
0.999999
 10
38.14937228882559
 20
0.0000004388032835
 10
38.14937228882559
 20
4.999995438803266
  0
LINE
  5
B29
330
ACA
100
AcDbEntity
  8
M_0
 62
     5
100
AcDbLine
 10
37.64937278882531
 20
0.0000004388032551
 30
0.0
 11
38.64937178882519
 21
0.0000004388032551
 31
0.0
  0
LINE
  5
B2A
330
ACA
100
AcDbEntity
  8
M_0
 62
     5
100
AcDbLine
 10
37.64937278882531
 20
4.999995438803238
 30
0.0
 11
38.64937178882519
 21
4.999995438803238
 31
0.0
  0
LWPOLYLINE
  5
B2B
330
ACA
100
AcDbEntity
  8
M_0
 62
     5
100
AcDbPolyline
 90
        2
 70
     0
 43
0.999999
 10
38.14937228882559
 20
2.999997438803147
 42
-1.0
 10
41.14936928882571
 20
2.999997438803147
 42
-0.0000000000000001
  0
ENDBLK
  5
B2C
330
ACA
100
AcDbEntity
  8
0
100
AcDbBlockEnd
  0
BLOCK
  5
B2E
330
B2D
100
AcDbEntity
  8
0
100
AcDbBlockBegin
  2
A$C0AED3F82
 70
     0
 10
0.0
 20
0.0
 30
0.0
  3
A$C0AED3F82
  1

  0
LINE
  5
B2F
330
B2D
100
AcDbEntity
  8
M_0
 62
     5
100
AcDbLine
 10
11.09998897711853
 20
8.249992188803162
 30
0.0
 11
11.09998897711853
 21
0.0000004388031698
 31
0.0
  0
LINE
  5
B30
330
B2D
100
AcDbEntity
  8
M_0
 62
     5
100
AcDbLine
 10
9.869990207118688
 20
7.589992848803148
 30
0.0
 11
9.869990207118688
 21
0.0000004388031698
 31
0.0
  0
LINE
  5
B31
330
B2D
100
AcDbEntity
  8
M_0
 62
     5
100
AcDbLine
 10
10.22998984711853
 20
8.249992188803162
 30
0.0
 11
10.22998984711853
 21
0.0000004388031698
 31
0.0
  0
SOLID
  5
B32
330
B2D
100
AcDbEntity
  8
M_0
 62
     5
100
AcDbTrace
 10
5.369994707118847
 20
7.589992848803148
 30
0.0
 11
4.499995577118625
 21
4.399996038803094
 31
0.0
 12
5.369994707118847
 22
0.0000004388031698
 32
0.0
 13
4.499995577118625
 23
0.0000004388031698
 33
0.0
  0
LINE
  5
B33
330
B2D
100
AcDbEntity
  8
M_0
 62
     5
100
AcDbLine
 10
5.369994707118847
 20
7.589992848803148
 30
0.0
 11
5.369994707118847
 21
0.0000004388031698
 31
0.0
  0
LINE
  5
B34
330
B2D
100
AcDbEntity
  8
M_0
 62
     5
100
AcDbLine
 10
5.729994347118462
 20
8.249992188803162
 30
0.0
 11
5.729994347118462
 21
0.6599997788030976
 31
0.0
  0
SOLID
  5
B35
330
B2D
100
AcDbEntity
  8
M_0
 62
     5
100
AcDbTrace
 10
6.599993477118458
 20
8.249992188803162
 30
0.0
 11
6.599993477118458
 21
3.849996588803151
 31
0.0
 12
5.729994347118462
 22
8.249992188803162
 32
0.0
 13
5.729994347118462
 23
0.6599997788030976
 33
0.0
  0
LINE
  5
B36
330
B2D
100
AcDbEntity
  8
M_0
 62
     5
100
AcDbLine
 10
1.229998847118394
 20
0.0000004388031698
 30
0.0
 11
5.369994707118847
 21
7.589992848803148
 31
0.0
  0
SOLID
  5
B37
330
B2D
100
AcDbEntity
  8
M_0
 62
     5
100
AcDbTrace
 10
5.369994707118847
 20
7.589992848803148
 30
0.0
 11
4.499995577118625
 21
4.399996038803094
 31
0.0
 12
1.229998847118394
 22
0.0000004388031698
 32
0.0
 13
2.099997977118619
 23
0.0000004388031698
 33
0.0
  0
SOLID
  5
B38
330
B2D
100
AcDbEntity
  8
M_0
 62
     5
100
AcDbTrace
 10
9.869990207118688
 20
7.589992848803148
 30
0.0
 11
8.999991077118693
 21
4.399996038803094
 31
0.0
 12
9.869990207118688
 22
0.0000004388031698
 32
0.0
 13
8.999991077118693
 23
0.0000004388031698
 33
0.0
  0
LINE
  5
B39
330
B2D
100
AcDbEntity
  8
M_0
 62
     5
100
AcDbLine
 10
5.729994347118462
 20
0.0000004388031698
 30
0.0
 11
9.869990207118688
 21
7.589992848803148
 31
0.0
  0
LINE
  5
B3A
330
B2D
100
AcDbEntity
  8
M_0
 62
     5
100
AcDbLine
 10
5.729994347118462
 20
0.6599997788030976
 30
0.0
 11
9.869990207118688
 21
8.249992188803162
 31
0.0
  0
SOLID
  5
B3B
330
B2D
100
AcDbEntity
  8
M_0
 62
     5
100
AcDbTrace
 10
8.999991077118693
 20
8.249992188803162
 30
0.0
 11
6.599993477118458
 21
3.849996588803151
 31
0.0
 12
9.869990207118688
 22
8.249992188803162
 32
0.0
 13
5.729994347118462
 23
0.6599997788030976
 33
0.0
  0
SOLID
  5
B3C
330
B2D
100
AcDbEntity
  8
M_0
 62
     5
100
AcDbTrace
 10
9.869990207118688
 20
7.589992848803148
 30
0.0
 11
8.999991077118693
 21
4.399996038803094
 31
0.0
 12
5.729994347118462
 22
0.0000004388031698
 32
0.0
 13
6.599993477118458
 23
0.0000004388031698
 33
0.0
  0
LINE
  5
B3D
330
B2D
100
AcDbEntity
  8
M_0
 62
     5
100
AcDbLine
 10
0.8699992071187805
 20
0.0000004388031698
 30
0.0
 11
5.369994707118847
 21
8.249992188803162
 31
0.0
  0
SOLID
  5
B3E
330
B2D
100
AcDbEntity
  8
M_0
 62
     5
100
AcDbTrace
 10
5.369994707118847
 20
8.249992188803162
 30
0.0
 11
4.499995577118625
 21
8.249992188803162
 31
0.0
 12
0.8699992071187805
 22
0.0000004388031698
 32
0.0
 13
0.0000000771185569
 23
0.0000004388031698
 33
0.0
  0
LINE
  5
B3F
330
B2D
100
AcDbEntity
  8
M_0
 62
     5
100
AcDbLine
 10
0.0000000771185569
 20
0.0000004388031698
 30
0.0
 11
4.499995577118625
 21
8.249992188803162
 31
0.0
  0
SOLID
  5
B40
330
B2D
100
AcDbEntity
  8
M_0
 62
     5
100
AcDbTrace
 10
11.09998897711853
 20
8.249992188803162
 30
0.0
 11
11.09998897711853
 21
0.0000004388031698
 31
0.0
 12
10.22998984711853
 22
8.249992188803162
 32
0.0
 13
10.22998984711853
 23
0.0000004388031698
 33
0.0
  0
LINE
  5
B41
330
B2D
100
AcDbEntity
  8
M_0
 62
     5
100
AcDbLine
 10
6.599993477118458
 20
8.249992188803162
 30
0.0
 11
6.599993477118458
 21
3.849996588803151
 31
0.0
  0
LINE
  5
B42
330
B2D
100
AcDbEntity
  8
M_0
 62
     5
100
AcDbLine
 10
6.599993477118458
 20
3.849996588803151
 30
0.0
 11
8.999991077118693
 21
8.249992188803162
 31
0.0
  0
LINE
  5
B43
330
B2D
100
AcDbEntity
  8
M_0
 62
     5
100
AcDbLine
 10
6.599993477118458
 20
0.0000004388031698
 30
0.0
 11
8.999991077118693
 21
4.399996038803094
 31
0.0
  0
LINE
  5
B44
330
B2D
100
AcDbEntity
  8
M_0
 62
     5
100
AcDbLine
 10
5.729994347118462
 20
0.0000004388031698
 30
0.0
 11
6.599993477118458
 21
0.0000004388031698
 31
0.0
  0
LINE
  5
B45
330
B2D
100
AcDbEntity
  8
M_0
 62
     5
100
AcDbLine
 10
2.099997977118619
 20
0.0000004388031698
 30
0.0
 11
4.499995577118625
 21
4.399996038803094
 31
0.0
  0
LINE
  5
B46
330
B2D
100
AcDbEntity
  8
M_0
 62
     5
100
AcDbLine
 10
4.499995577118625
 20
4.399996038803094
 30
0.0
 11
4.499995577118625
 21
0.0000004388031698
 31
0.0
  0
LINE
  5
B47
330
B2D
100
AcDbEntity
  8
M_0
 62
     5
100
AcDbLine
 10
1.229998847118394
 20
0.0000004388031698
 30
0.0
 11
2.099997977118619
 21
0.0000004388031698
 31
0.0
  0
LINE
  5
B48
330
B2D
100
AcDbEntity
  8
M_0
 62
     5
100
AcDbLine
 10
0.0000000771185569
 20
0.0000004388031698
 30
0.0
 11
0.8699992071187805
 21
0.0000004388031698
 31
0.0
  0
LINE
  5
B49
330
B2D
100
AcDbEntity
  8
M_0
 62
     5
100
AcDbLine
 10
4.499995577118625
 20
0.0000004388031698
 30
0.0
 11
5.369994707118847
 21
0.0000004388031698
 31
0.0
  0
LINE
  5
B4A
330
B2D
100
AcDbEntity
  8
M_0
 62
     5
100
AcDbLine
 10
8.999991077118693
 20
4.399996038803094
 30
0.0
 11
8.999991077118693
 21
0.0000004388031698
 31
0.0
  0
LINE
  5
B4B
330
B2D
100
AcDbEntity
  8
M_0
 62
     5
100
AcDbLine
 10
8.999991077118693
 20
0.0000004388031698
 30
0.0
 11
9.869990207118688
 21
0.0000004388031698
 31
0.0
  0
LINE
  5
B4C
330
B2D
100
AcDbEntity
  8
M_0
 62
     5
100
AcDbLine
 10
10.22998984711853
 20
0.0000004388031698
 30
0.0
 11
11.09998897711853
 21
0.0000004388031698
 31
0.0
  0
LINE
  5
B4D
330
B2D
100
AcDbEntity
  8
M_0
 62
     5
100
AcDbLine
 10
5.729994347118462
 20
8.249992188803162
 30
0.0
 11
6.599993477118458
 21
8.249992188803162
 31
0.0
  0
LINE
  5
B4E
330
B2D
100
AcDbEntity
  8
M_0
 62
     5
100
AcDbLine
 10
4.499995577118625
 20
8.249992188803162
 30
0.0
 11
5.369994707118847
 21
8.249992188803162
 31
0.0
  0
LINE
  5
B4F
330
B2D
100
AcDbEntity
  8
M_0
 62
     5
100
AcDbLine
 10
8.999991077118693
 20
8.249992188803162
 30
0.0
 11
9.869990207118688
 21
8.249992188803162
 31
0.0
  0
LINE
  5
B50
330
B2D
100
AcDbEntity
  8
M_0
 62
     5
100
AcDbLine
 10
10.22998984711853
 20
8.249992188803162
 30
0.0
 11
11.09998897711853
 21
8.249992188803162
 31
0.0
  0
ENDBLK
  5
B51
330
B2D
100
AcDbEntity
  8
0
100
AcDbBlockEnd
  0
BLOCK
  5
B53
330
B52
100
AcDbEntity
  8
0
100
AcDbBlockBegin
  2
A$C3F2B26CD
 70
     0
 10
0.0
 20
0.0
 30
0.0
  3
A$C3F2B26CD
  1

  0
LINE
  5
B54
330
B52
100
AcDbEntity
  8
M_0
 62
     5
100
AcDbLine
 10
-8.950000000000045
 20
13.75
 30
0.0
 11
-7.5
 21
13.75000000000005
 31
0.0
  0
LWPOLYLINE
  5
B55
330
B52
100
AcDbEntity
  8
M_0
 62
     5
100
AcDbPolyline
 90
        2
 70
     0
 43
0.5
 10
-7.416699999999991
 20
-2.741910220509679
 42
1.0
 10
-8.916699999999991
 20
-2.741910220509679
 42
1.0
  0
LINE
  5
B56
330
B52
100
AcDbEntity
  8
M_0
 62
     5
100
AcDbLine
 10
-9.166699999999991
 20
-1.741910220509623
 30
0.0
 11
-8.666699999999991
 21
-1.741910220509623
 31
0.0
  0
LINE
  5
B57
330
B52
100
AcDbEntity
  8
M_0
 62
     5
100
AcDbLine
 10
-9.166699999999991
 20
-2.741910220509679
 30
0.0
 11
-8.666699999999991
 21
-2.741910220509679
 31
0.0
  0
LINE
  5
B58
330
B52
100
AcDbEntity
  8
M_0
 62
     5
100
AcDbLine
 10
-8.950000000000045
 20
0.0000000000000568
 30
0.0
 11
-7.5
 21
0.0000000000000568
 31
0.0
  0
LINE
  5
B59
330
B52
100
AcDbEntity
  8
M_0
 62
     5
100
AcDbLine
 10
-9.166699999999991
 20
-4.241910220509622
 30
0.0
 11
-8.666699999999991
 21
-4.241910220509622
 31
0.0
  0
LWPOLYLINE
  5
B5A
330
B52
100
AcDbEntity
  8
M_0
 62
     5
100
AcDbPolyline
 90
        2
 70
     0
 43
0.5
 10
-8.916699999999991
 20
-4.241910220509622
 10
-8.916699999999991
 20
-1.741910220509623
  0
SOLID
  5
B5B
330
B52
100
AcDbEntity
  8
M_0
 62
     5
100
AcDbTrace
 10
-2.049999999999954
 20
12.65000000000009
 30
0.0
 11
-3.5
 21
7.33333333333337
 31
0.0
 12
-8.950000000000045
 22
0.0
 32
0.0
 13
-7.5
 23
0.0000000000000568
 33
0.0
  0
SOLID
  5
B5C
330
B52
100
AcDbEntity
  8
M_0
 62
     5
100
AcDbTrace
 10
-3.5
 20
13.75000000000005
 30
0.0
 11
-7.5
 21
6.416666666666742
 31
0.0
 12
-2.049999999999954
 22
13.75000000000005
 32
0.0
 13
-8.950000000000045
 23
1.100000000000021
 33
0.0
  0
SOLID
  5
B5D
330
B52
100
AcDbEntity
  8
M_0
 62
     5
100
AcDbTrace
 10
-7.5
 20
13.75000000000005
 30
0.0
 11
-7.5
 21
6.416666666666742
 31
0.0
 12
-8.950000000000045
 22
13.75
 32
0.0
 13
-8.950000000000045
 23
1.100000000000021
 33
0.0
  0
LINE
  5
B5E
330
B52
100
AcDbEntity
  8
M_0
 62
     5
100
AcDbLine
 10
-8.950000000000045
 20
1.100000000000021
 30
0.0
 11
-2.049999999999954
 21
13.75000000000005
 31
0.0
  0
LINE
  5
B5F
330
B52
100
AcDbEntity
  8
M_0
 62
     5
100
AcDbLine
 10
-8.950000000000045
 20
0.0000000000000568
 30
0.0
 11
-2.049999999999954
 21
12.65000000000009
 31
0.0
  0
SOLID
  5
B60
330
B52
100
AcDbEntity
  8
M_0
 62
     5
100
AcDbTrace
 10
-9.549999999999952
 20
12.65000000000003
 30
0.0
 11
-11.0
 21
7.33333333333337
 31
0.0
 12
-9.549999999999952
 22
0.0
 32
0.0
 13
-11.0
 23
0.0000000000000568
 33
0.0
  0
SOLID
  5
B61
330
B52
100
AcDbEntity
  8
M_0
 62
     5
100
AcDbTrace
 10
-9.549999999999952
 20
12.65000000000009
 30
0.0
 11
-11.0
 21
7.33333333333337
 31
0.0
 12
-16.45000000000004
 22
0.0000000000000568
 32
0.0
 13
-15.0
 23
0.0000000000000568
 33
0.0
  0
SOLID
  5
B62
330
B52
100
AcDbEntity
  8
M_0
 62
     5
100
AcDbTrace
 10
-9.549999999999952
 20
13.75
 30
0.0
 11
-11.0
 21
13.75
 31
0.0
 12
-17.04999999999995
 22
0.0
 32
0.0
 13
-18.5
 23
0.0000000000000568
 33
0.0
  0
LINE
  5
B63
330
B52
100
AcDbEntity
  8
M_0
 62
     5
100
AcDbLine
 10
-16.45000000000004
 20
0.0000000000000568
 30
0.0
 11
-9.549999999999952
 21
12.65000000000003
 31
0.0
  0
LINE
  5
B64
330
B52
100
AcDbEntity
  8
M_0
 62
     5
100
AcDbLine
 10
-17.04999999999995
 20
0.0
 30
0.0
 11
-9.549999999999952
 21
13.75
 31
0.0
  0
LINE
  5
B65
330
B52
100
AcDbEntity
  8
M_0
 62
     5
100
AcDbLine
 10
-18.5
 20
0.0000000000000568
 30
0.0
 11
-11.0
 21
13.75000000000005
 31
0.0
  0
LINE
  5
B66
330
B52
100
AcDbEntity
  8
M_0
 62
     5
100
AcDbLine
 10
-8.950000000000045
 20
13.75
 30
0.0
 11
-8.950000000000045
 21
1.100000000000021
 31
0.0
  0
LINE
  5
B67
330
B52
100
AcDbEntity
  8
M_0
 62
     5
100
AcDbLine
 10
-9.549999999999952
 20
12.65000000000003
 30
0.0
 11
-9.549999999999952
 21
0.0000000000000568
 31
0.0
  0
LINE
  5
B68
330
B52
100
AcDbEntity
  8
M_0
 62
     5
100
AcDbLine
 10
-17.00862774977668
 20
-1.741910220509623
 30
0.0
 11
-16.50862774977668
 21
-1.741910220509623
 31
0.0
  0
SOLID
  5
B69
330
B52
100
AcDbEntity
  8
M_0
 62
     5
100
AcDbTrace
 10
-16.50862774977668
 20
-1.741910220509623
 30
0.0
 11
-16.50862774977668
 21
-4.241910220509622
 31
0.0
 12
-17.00862774977668
 22
-1.741910220509623
 32
0.0
 13
-17.00862774977668
 23
-4.241910220509622
 33
0.0
  0
LINE
  5
B6A
330
B52
100
AcDbEntity
  8
M_0
 62
     5
100
AcDbLine
 10
-18.91666666666674
 20
-1.741910220509565
 30
0.0
 11
-18.41666666666674
 21
-1.741910220509565
 31
0.0
  0
LINE
  5
B6B
330
B52
100
AcDbEntity
  8
M_0
 62
     5
100
AcDbLine
 10
-18.5
 20
0.0000000000000568
 30
0.0
 11
-17.04999999999995
 21
0.0
 31
0.0
  0
SOLID
  5
B6C
330
B52
100
AcDbEntity
  8
M_0
 62
     5
100
AcDbTrace
 10
-17.00862774977668
 20
-1.741910220509623
 30
0.0
 11
-17.00862774977668
 21
-2.397033126512724
 31
0.0
 12
-18.91666666666674
 22
-4.241910220509622
 32
0.0
 13
-18.41666666666674
 23
-4.241910220509622
 33
0.0
  0
SOLID
  5
B6D
330
B52
100
AcDbEntity
  8
M_0
 62
     5
100
AcDbTrace
 10
-18.41666666666674
 20
-1.741910220509565
 30
0.0
 11
-18.41666666666674
 21
-3.586787314506523
 31
0.0
 12
-18.91666666666674
 22
-1.741910220509565
 32
0.0
 13
-18.91666666666674
 23
-4.241910220509622
 33
0.0
  0
SOLID
  5
B6E
330
B52
100
AcDbEntity
  8
M_0
 62
     5
100
AcDbTrace
 10
-18.91666666666674
 20
-1.741910220509565
 30
0.0
 11
-18.91666666666674
 21
-2.397033126512724
 31
0.0
 12
-20.82470558355658
 22
-4.241910220509622
 32
0.0
 13
-20.32470558355658
 23
-4.241910220509622
 33
0.0
  0
LINE
  5
B6F
330
B52
100
AcDbEntity
  8
M_0
 62
     5
100
AcDbLine
 10
-20.82470558355658
 20
-4.241910220509622
 30
0.0
 11
-18.91666666666674
 21
-1.741910220509623
 31
0.0
  0
LINE
  5
B70
330
B52
100
AcDbEntity
  8
M_0
 62
     5
100
AcDbLine
 10
-18.41666666666674
 20
-3.586787314506523
 30
0.0
 11
-17.00862774977668
 21
-1.741910220509623
 31
0.0
  0
LINE
  5
B71
330
B52
100
AcDbEntity
  8
M_0
 62
     5
100
AcDbLine
 10
-18.41666666666674
 20
-1.741910220509565
 30
0.0
 11
-18.41666666666674
 21
-3.586787314506523
 31
0.0
  0
LINE
  5
B72
330
B52
100
AcDbEntity
  8
M_0
 62
     5
100
AcDbLine
 10
-11.0
 20
7.33333333333337
 30
0.0
 11
-11.0
 21
0.0
 31
0.0
  0
LINE
  5
B73
330
B52
100
AcDbEntity
  8
M_0
 62
     5
100
AcDbLine
 10
-15.0
 20
0.0000000000000568
 30
0.0
 11
-11.0
 21
7.33333333333337
 31
0.0
  0
LWPOLYLINE
  5
B74
330
B52
100
AcDbEntity
  8
M_0
 62
     5
100
AcDbPolyline
 90
        2
 70
     0
 43
0.5
 10
-13.08339999999998
 20
-4.241910220509566
 10
-13.08339999999998
 20
-2.741910220509623
  0
LINE
  5
B75
330
B52
100
AcDbEntity
  8
M_0
 62
     5
100
AcDbLine
 10
-13.33339999999998
 20
-2.741910220509623
 30
0.0
 11
-12.83339999999998
 21
-2.741910220509623
 31
0.0
  0
ARC
  5
B76
330
B52
100
AcDbEntity
  8
M_0
 62
     5
100
AcDbCircle
 10
-13.83339999999998
 20
-2.741910220509623
 30
0.0
 40
1.0
100
AcDbArc
 50
0.0
 51
120.0000000000033
  0
LWPOLYLINE
  5
B77
330
B52
100
AcDbEntity
  8
M_0
 62
     5
100
AcDbPolyline
 90
        2
 70
     0
 43
0.5
 10
-14.58339999999998
 20
-2.741910220509623
 42
-1.0
 10
-13.08339999999998
 20
-2.741910220509623
 42
-0.0000000000000001
  0
LINE
  5
B78
330
B52
100
AcDbEntity
  8
M_0
 62
     5
100
AcDbLine
 10
-14.33339999999998
 20
-1.875884816725316
 30
0.0
 11
-14.33339999999998
 21
-1.741910220509565
 31
0.0
  0
SOLID
  5
B79
330
B52
100
AcDbEntity
  8
M_0
 62
     5
100
AcDbTrace
 10
-15.41675000000009
 20
-0.9919102205096235
 30
0.0
 11
-15.41675000000009
 21
-1.391910220509656
 31
0.0
 12
-15.91675000000009
 22
-0.9919102205096235
 32
0.0
 13
-15.91675000000009
 23
-1.391910220509656
 33
0.0
  0
LINE
  5
B7A
330
B52
100
AcDbEntity
  8
M_0
 62
     5
100
AcDbLine
 10
-15.91675000000009
 20
-1.391910220509656
 30
0.0
 11
-15.41675000000009
 21
-1.391910220509656
 31
0.0
  0
LINE
  5
B7B
330
B52
100
AcDbEntity
  8
M_0
 62
     5
100
AcDbLine
 10
-15.41675000000009
 20
-1.391910220509656
 30
0.0
 11
-15.41675000000009
 21
-0.9919102205096235
 31
0.0
  0
LINE
  5
B7C
330
B52
100
AcDbEntity
  8
M_0
 62
     5
100
AcDbLine
 10
-15.91675000000009
 20
-1.391910220509656
 30
0.0
 11
-15.91675000000009
 21
-0.9919102205096235
 31
0.0
  0
LINE
  5
B7D
330
B52
100
AcDbEntity
  8
M_0
 62
     5
100
AcDbLine
 10
-15.91675000000009
 20
-0.9919102205096235
 30
0.0
 11
-15.41675000000009
 21
-0.9919102205096235
 31
0.0
  0
LINE
  5
B7E
330
B52
100
AcDbEntity
  8
M_0
 62
     5
100
AcDbLine
 10
-15.91675000000009
 20
-1.741910220509623
 30
0.0
 11
-15.41675000000009
 21
-1.741910220509623
 31
0.0
  0
LINE
  5
B7F
330
B52
100
AcDbEntity
  8
M_0
 62
     5
100
AcDbLine
 10
-16.45000000000004
 20
0.0000000000000568
 30
0.0
 11
-15.0
 21
0.0000000000000568
 31
0.0
  0
SOLID
  5
B80
330
B52
100
AcDbEntity
  8
M_0
 62
     5
100
AcDbTrace
 10
-15.41675000000009
 20
-1.741910220509623
 30
0.0
 11
-15.41675000000009
 21
-4.241910220509622
 31
0.0
 12
-15.91675000000009
 22
-1.741910220509623
 32
0.0
 13
-15.91675000000009
 23
-4.241910220509622
 33
0.0
  0
LINE
  5
B81
330
B52
100
AcDbEntity
  8
M_0
 62
     5
100
AcDbLine
 10
-14.83339999999998
 20
-4.241910220509622
 30
0.0
 11
-14.83339999999998
 21
-1.741910220509565
 31
0.0
  0
LINE
  5
B82
330
B52
100
AcDbEntity
  8
M_0
 62
     5
100
AcDbLine
 10
-15.41675000000009
 20
-4.241910220509679
 30
0.0
 11
-15.41675000000009
 21
-1.741910220509623
 31
0.0
  0
LINE
  5
B83
330
B52
100
AcDbEntity
  8
M_0
 62
     5
100
AcDbLine
 10
-15.91675000000009
 20
-4.241910220509679
 30
0.0
 11
-15.91675000000009
 21
-1.741910220509623
 31
0.0
  0
LINE
  5
B84
330
B52
100
AcDbEntity
  8
M_0
 62
     5
100
AcDbLine
 10
-16.50862774977668
 20
-4.241910220509622
 30
0.0
 11
-16.50862774977668
 21
-1.741910220509623
 31
0.0
  0
LINE
  5
B85
330
B52
100
AcDbEntity
  8
M_0
 62
     5
100
AcDbLine
 10
-14.83339999999998
 20
-1.741910220509565
 30
0.0
 11
-14.33339999999998
 21
-1.741910220509565
 31
0.0
  0
LWPOLYLINE
  5
B86
330
B52
100
AcDbEntity
  8
M_0
 62
     5
100
AcDbPolyline
 90
        2
 70
     0
 43
0.5
 10
-14.58339999999998
 20
-4.241910220509566
 10
-14.58339999999998
 20
-1.741910220509565
  0
LINE
  5
B87
330
B52
100
AcDbEntity
  8
M_0
 62
     5
100
AcDbLine
 10
-10.25004999999987
 20
-0.9919102205096235
 30
0.0
 11
-9.750049999999873
 21
-0.9919102205096235
 31
0.0
  0
LINE
  5
B88
330
B52
100
AcDbEntity
  8
M_0
 62
     5
100
AcDbLine
 10
-10.25004999999987
 20
-1.991872722462061
 30
0.0
 11
-10.25004999999987
 21
-0.9919102205096235
 31
0.0
  0
LINE
  5
B89
330
B52
100
AcDbEntity
  8
M_0
 62
     5
100
AcDbLine
 10
-11.0
 20
0.0000000000000568
 30
0.0
 11
-9.549999999999952
 21
0.0000000000000568
 31
0.0
  0
LINE
  5
B8A
330
B52
100
AcDbEntity
  8
M_0
 62
     5
100
AcDbLine
 10
-10.25004999999987
 20
-4.241910220509622
 30
0.0
 11
-9.750049999999873
 21
-4.241910220509622
 31
0.0
  0
LINE
  5
B8B
330
B52
100
AcDbEntity
  8
M_0
 62
     5
100
AcDbLine
 10
-10.25004999999987
 20
-4.241910220509622
 30
0.0
 11
-10.25004999999987
 21
-3.991947718557183
 31
0.0
  0
CIRCLE
  5
B8C
330
B52
100
AcDbEntity
  8
M_0
 62
     5
100
AcDbCircle
 10
-11.0
 20
-2.991910220509623
 30
0.0
 40
0.75
  0
LWPOLYLINE
  5
B8D
330
B52
100
AcDbEntity
  8
M_0
 62
     5
100
AcDbPolyline
 90
        2
 70
     0
 43
0.5
 10
-10.00004999999987
 20
-4.241910220509622
 10
-10.00004999999987
 20
-0.9919102205096235
  0
LWPOLYLINE
  5
B8E
330
B52
100
AcDbEntity
  8
M_0
 62
     5
100
AcDbPolyline
 90
        2
 70
     1
 43
0.5
 10
-12.0
 20
-2.991910220509623
 42
1.0
 10
-10.0
 20
-2.991910220509623
 42
1.0
  0
ARC
  5
B8F
330
B52
100
AcDbEntity
  8
M_0
 62
     5
100
AcDbCircle
 10
-11.0
 20
-2.991910220509623
 30
0.0
 40
1.25
100
AcDbArc
 50
53.1329670894371
 51
306.8670329105628
  0
LINE
  5
B90
330
B52
100
AcDbEntity
  8
M_0
 62
     5
100
AcDbLine
 10
-9.750049999999873
 20
-4.241910220509622
 30
0.0
 11
-9.750049999999873
 21
-0.9919102205096235
 31
0.0
  0
LINE
  5
B91
330
B52
100
AcDbEntity
  8
M_0
 62
     5
100
AcDbLine
 10
-9.166699999999991
 20
-4.241910220509622
 30
0.0
 11
-9.166699999999991
 21
-1.741910220509623
 31
0.0
  0
LINE
  5
B92
330
B52
100
AcDbEntity
  8
M_0
 62
     5
100
AcDbLine
 10
-11.0
 20
13.75000000000005
 30
0.0
 11
-9.549999999999952
 21
13.75
 31
0.0
  0
SOLID
  5
B93
330
B52
100
AcDbEntity
  8
M_0
 62
     5
100
AcDbTrace
 10
0.0
 20
13.75
 30
0.0
 11
0.0
 21
0.0
 31
0.0
 12
-1.450000000000045
 22
13.75
 32
0.0
 13
-1.450000000000045
 23
0.0000000000000568
 33
0.0
  0
SOLID
  5
B94
330
B52
100
AcDbEntity
  8
M_0
 62
     5
100
AcDbTrace
 10
-2.049999999999954
 20
12.65000000000009
 30
0.0
 11
-3.5
 21
7.33333333333337
 31
0.0
 12
-2.049999999999954
 22
0.0
 32
0.0
 13
-3.5
 23
0.0000000000000568
 33
0.0
  0
LINE
  5
B95
330
B52
100
AcDbEntity
  8
M_0
 62
     5
100
AcDbLine
 10
0.0
 20
13.75000000000005
 30
0.0
 11
0.0
 21
0.0
 31
0.0
  0
LINE
  5
B96
330
B52
100
AcDbEntity
  8
M_0
 62
     5
100
AcDbLine
 10
-1.450000000000045
 20
13.75
 30
0.0
 11
-1.450000000000045
 21
0.0
 31
0.0
  0
LINE
  5
B97
330
B52
100
AcDbEntity
  8
M_0
 62
     5
100
AcDbLine
 10
-7.5
 20
6.416666666666742
 30
0.0
 11
-3.5
 21
13.75000000000005
 31
0.0
  0
LINE
  5
B98
330
B52
100
AcDbEntity
  8
M_0
 62
     5
100
AcDbLine
 10
-2.049999999999954
 20
12.65000000000009
 30
0.0
 11
-2.049999999999954
 21
0.0
 31
0.0
  0
LINE
  5
B99
330
B52
100
AcDbEntity
  8
M_0
 62
     5
100
AcDbLine
 10
-7.5
 20
13.75000000000005
 30
0.0
 11
-7.5
 21
6.416666666666742
 31
0.0
  0
ARC
  5
B9A
330
B52
100
AcDbEntity
  8
M_0
 62
     5
100
AcDbCircle
 10
-1.0
 20
-2.741910220509623
 30
0.0
 40
0.5
100
AcDbArc
 50
0.0
 51
180.0
  0
LWPOLYLINE
  5
B9B
330
B52
100
AcDbEntity
  8
M_0
 62
     5
100
AcDbPolyline
 90
        2
 70
     0
 43
0.5
 10
-1.75
 20
-2.741910220509623
 42
-1.0
 10
-0.25
 20
-2.741910220509623
 42
-0.0000000000000001
  0
ARC
  5
B9C
330
B52
100
AcDbEntity
  8
M_0
 62
     5
100
AcDbCircle
 10
-1.0
 20
-2.741910220509623
 30
0.0
 40
1.0
100
AcDbArc
 50
0.0
 51
120.0000000000033
  0
LINE
  5
B9D
330
B52
100
AcDbEntity
  8
M_0
 62
     5
100
AcDbLine
 10
-1.450000000000045
 20
0.0
 30
0.0
 11
0.0
 21
0.0
 31
0.0
  0
LINE
  5
B9E
330
B52
100
AcDbEntity
  8
M_0
 62
     5
100
AcDbLine
 10
-3.5
 20
7.33333333333337
 30
0.0
 11
-3.5
 21
0.0
 31
0.0
  0
LINE
  5
B9F
330
B52
100
AcDbEntity
  8
M_0
 62
     5
100
AcDbLine
 10
-7.5
 20
0.0000000000000568
 30
0.0
 11
-3.5
 21
7.33333333333337
 31
0.0
  0
LWPOLYLINE
  5
BA0
330
B52
100
AcDbEntity
  8
M_0
 62
     5
100
AcDbPolyline
 90
        2
 70
     1
 43
0.5
 10
-4.833300000000007
 20
-2.991910220509623
 42
1.0
 10
-2.833300000000008
 20
-2.991910220509623
 42
1.0
  0
ARC
  5
BA1
330
B52
100
AcDbEntity
  8
M_0
 62
     5
100
AcDbCircle
 10
-3.833300000000008
 20
-2.991910220509623
 30
0.0
 40
1.25
100
AcDbArc
 50
53.1329670894371
 51
306.8670329105628
  0
LINE
  5
BA2
330
B52
100
AcDbEntity
  8
M_0
 62
     5
100
AcDbLine
 10
-6.166699999999991
 20
-2.741910220509679
 30
0.0
 11
-5.666699999999991
 21
-2.741910220509679
 31
0.0
  0
LINE
  5
BA3
330
B52
100
AcDbEntity
  8
M_0
 62
     5
100
AcDbLine
 10
-6.166699999999991
 20
-4.241910220509679
 30
0.0
 11
-5.666699999999991
 21
-4.241910220509679
 31
0.0
  0
LWPOLYLINE
  5
BA4
330
B52
100
AcDbEntity
  8
M_0
 62
     5
100
AcDbPolyline
 90
        2
 70
     0
 43
0.5
 10
-5.916699999999991
 20
-4.241910220509679
 10
-5.916699999999991
 20
-2.741910220509679
  0
LINE
  5
BA5
330
B52
100
AcDbEntity
  8
M_0
 62
     5
100
AcDbLine
 10
-6.166699999999991
 20
-4.241910220509679
 30
0.0
 11
-6.166699999999991
 21
-2.741910220509679
 31
0.0
  0
LINE
  5
BA6
330
B52
100
AcDbEntity
  8
M_0
 62
     5
100
AcDbLine
 10
-5.666699999999991
 20
-4.241910220509679
 30
0.0
 11
-5.666699999999991
 21
-2.741910220509679
 31
0.0
  0
ARC
  5
BA7
330
B52
100
AcDbEntity
  8
M_0
 62
     5
100
AcDbCircle
 10
-8.166699999999991
 20
-2.741910220509679
 30
0.0
 40
1.0
100
AcDbArc
 50
41.40962210926974
 51
120.0000000000033
  0
LINE
  5
BA8
330
B52
100
AcDbEntity
  8
M_0
 62
     5
100
AcDbLine
 10
-7.666699999999991
 20
-2.741910220509679
 30
0.0
 11
-7.166699999999991
 21
-2.741910220509679
 31
0.0
  0
LINE
  5
BA9
330
B52
100
AcDbEntity
  8
M_0
 62
     5
100
AcDbLine
 10
-8.666699999999991
 20
-1.875884816725374
 30
0.0
 11
-8.666699999999991
 21
-1.741910220509623
 31
0.0
  0
ARC
  5
BAA
330
B52
100
AcDbEntity
  8
M_0
 62
     5
100
AcDbCircle
 10
-8.166699999999991
 20
-2.741910220509679
 30
0.0
 40
0.5
100
AcDbArc
 50
0.0
 51
180.0
  0
LINE
  5
BAB
330
B52
100
AcDbEntity
  8
M_0
 62
     5
100
AcDbLine
 10
-7.666699999999991
 20
-4.241910220509622
 30
0.0
 11
-7.166699999999991
 21
-4.241910220509622
 31
0.0
  0
LWPOLYLINE
  5
BAC
330
B52
100
AcDbEntity
  8
M_0
 62
     5
100
AcDbPolyline
 90
        2
 70
     0
 43
0.5
 10
-7.416699999999991
 20
-4.241910220509622
 10
-7.416699999999991
 20
-2.741910220509679
  0
LINE
  5
BAD
330
B52
100
AcDbEntity
  8
M_0
 62
     5
100
AcDbLine
 10
-7.666699999999991
 20
-4.241910220509622
 30
0.0
 11
-7.666699999999991
 21
-2.741910220509679
 31
0.0
  0
LINE
  5
BAE
330
B52
100
AcDbEntity
  8
M_0
 62
     5
100
AcDbLine
 10
-8.666699999999991
 20
-4.241910220509622
 30
0.0
 11
-8.666699999999991
 21
-2.741910220509679
 31
0.0
  0
LINE
  5
BAF
330
B52
100
AcDbEntity
  8
M_0
 62
     5
100
AcDbLine
 10
-7.166699999999991
 20
-4.241910220509622
 30
0.0
 11
-7.166699999999991
 21
-2.741910220509679
 31
0.0
  0
LWPOLYLINE
  5
BB0
330
B52
100
AcDbEntity
  8
M_0
 62
     5
100
AcDbPolyline
 90
        2
 70
     0
 43
0.5
 10
-5.916699999999991
 20
-2.741910220509679
 42
1.0
 10
-7.416699999999991
 20
-2.741910220509679
 42
1.0
  0
ARC
  5
BB1
330
B52
100
AcDbEntity
  8
M_0
 62
     5
100
AcDbCircle
 10
-6.666699999999991
 20
-2.741910220509679
 30
0.0
 40
0.5
100
AcDbArc
 50
0.0
 51
180.0
  0
ARC
  5
BB2
330
B52
100
AcDbEntity
  8
M_0
 62
     5
100
AcDbCircle
 10
-6.666699999999991
 20
-2.741910220509679
 30
0.0
 40
1.0
100
AcDbArc
 50
0.0
 51
138.5903778907278
  0
LINE
  5
BB3
330
B52
100
AcDbEntity
  8
M_0
 62
     5
100
AcDbLine
 10
-2.0
 20
-1.741910220509565
 30
0.0
 11
-1.5
 21
-1.741910220509565
 31
0.0
  0
LINE
  5
BB4
330
B52
100
AcDbEntity
  8
M_0
 62
     5
100
AcDbLine
 10
-1.5
 20
-1.875884816725316
 30
0.0
 11
-1.5
 21
-1.741910220509565
 31
0.0
  0
LINE
  5
BB5
330
B52
100
AcDbEntity
  8
M_0
 62
     5
100
AcDbLine
 10
-3.083350000000109
 20
-1.991872722462061
 30
0.0
 11
-3.083350000000109
 21
-1.741910220509565
 31
0.0
  0
LINE
  5
BB6
330
B52
100
AcDbEntity
  8
M_0
 62
     5
100
AcDbLine
 10
-3.083350000000109
 20
-1.741910220509565
 30
0.0
 11
-2.583350000000108
 21
-1.741910220509565
 31
0.0
  0
LINE
  5
BB7
330
B52
100
AcDbEntity
  8
M_0
 62
     5
100
AcDbLine
 10
-3.5
 20
0.0000000000000568
 30
0.0
 11
-2.049999999999954
 21
0.0
 31
0.0
  0
LINE
  5
BB8
330
B52
100
AcDbEntity
  8
M_0
 62
     5
100
AcDbLine
 10
-2.0
 20
-4.241910220509566
 30
0.0
 11
-1.5
 21
-4.241910220509566
 31
0.0
  0
LINE
  5
BB9
330
B52
100
AcDbEntity
  8
M_0
 62
     5
100
AcDbLine
 10
-3.083350000000109
 20
-4.241910220509622
 30
0.0
 11
-3.083350000000109
 21
-3.991947718557183
 31
0.0
  0
LINE
  5
BBA
330
B52
100
AcDbEntity
  8
M_0
 62
     5
100
AcDbLine
 10
-3.083350000000109
 20
-4.241910220509622
 30
0.0
 11
-2.583350000000108
 21
-4.241910220509622
 31
0.0
  0
CIRCLE
  5
BBB
330
B52
100
AcDbEntity
  8
M_0
 62
     5
100
AcDbCircle
 10
-3.833300000000008
 20
-2.991910220509623
 30
0.0
 40
0.75
  0
LINE
  5
BBC
330
B52
100
AcDbEntity
  8
M_0
 62
     5
100
AcDbLine
 10
-1.5
 20
-4.241910220509622
 30
0.0
 11
-1.5
 21
-2.741910220509623
 31
0.0
  0
LWPOLYLINE
  5
BBD
330
B52
100
AcDbEntity
  8
M_0
 62
     5
100
AcDbPolyline
 90
        2
 70
     0
 43
0.5
 10
-1.75
 20
-4.241910220509566
 10
-1.75
 20
-1.741910220509565
  0
LINE
  5
BBE
330
B52
100
AcDbEntity
  8
M_0
 62
     5
100
AcDbLine
 10
-2.583350000000108
 20
-4.241910220509622
 30
0.0
 11
-2.583350000000108
 21
-1.741910220509565
 31
0.0
  0
LINE
  5
BBF
330
B52
100
AcDbEntity
  8
M_0
 62
     5
100
AcDbLine
 10
-2.0
 20
-4.241910220509622
 30
0.0
 11
-2.0
 21
-1.741910220509565
 31
0.0
  0
LWPOLYLINE
  5
BC0
330
B52
100
AcDbEntity
  8
M_0
 62
     5
100
AcDbPolyline
 90
        2
 70
     0
 43
0.5
 10
-2.833350000000109
 20
-4.241910220509622
 10
-2.833350000000109
 20
-1.741910220509565
  0
LINE
  5
BC1
330
B52
100
AcDbEntity
  8
M_0
 62
     5
100
AcDbLine
 10
-0.5
 20
-4.241910220509622
 30
0.0
 11
0.0
 21
-4.241910220509622
 31
0.0
  0
LWPOLYLINE
  5
BC2
330
B52
100
AcDbEntity
  8
M_0
 62
     5
100
AcDbPolyline
 90
        2
 70
     0
 43
0.5
 10
-0.25
 20
-2.741910220509623
 10
-0.25
 20
-4.241910220509622
  0
LINE
  5
BC3
330
B52
100
AcDbEntity
  8
M_0
 62
     5
100
AcDbLine
 10
-0.5
 20
-4.241910220509622
 30
0.0
 11
-0.5
 21
-2.741910220509623
 31
0.0
  0
LINE
  5
BC4
330
B52
100
AcDbEntity
  8
M_0
 62
     5
100
AcDbLine
 10
0.0
 20
-4.241910220509622
 30
0.0
 11
0.0
 21
-2.741910220509623
 31
0.0
  0
LINE
  5
BC5
330
B52
100
AcDbEntity
  8
M_0
 62
     5
100
AcDbLine
 10
-1.450000000000045
 20
13.75
 30
0.0
 11
0.0
 21
13.75000000000005
 31
0.0
  0
LINE
  5
BC6
330
B52
100
AcDbEntity
  8
M_0
 62
     5
100
AcDbLine
 10
-3.5
 20
13.75000000000005
 30
0.0
 11
-2.049999999999954
 21
13.75000000000005
 31
0.0
  0
ENDBLK
  5
BC7
330
B52
100
AcDbEntity
  8
0
100
AcDbBlockEnd
  0
BLOCK
  5
BC9
330
BC8
100
AcDbEntity
  8
0
100
AcDbBlockBegin
  2
A$C1730210C
 70
     0
 10
0.0
 20
0.0
 30
0.0
  3
A$C1730210C
  1

  0
INSERT
  5
BCA
330
BC8
100
AcDbEntity
  8
M_0
100
AcDbBlockReference
  2
A$C3F2B26CD
 10
41.64936870834731
 20
8.483811380151108
 30
0.0
 41
1.999998000000004
 42
1.999998000000004
 43
1.999997999999999
  0
ENDBLK
  5
BCB
330
BC8
100
AcDbEntity
  8
0
100
AcDbBlockEnd
  0
BLOCK
  5
13FA
330
13F0
100
AcDbEntity
  8
0
100
AcDbBlockBegin
  2
*D6
 70
     1
 10
0.0
 20
0.0
 30
0.0
  3
*D6
  1

  0
LINE
  5
19F9
330
13F0
100
AcDbEntity
  8
AM_5
100
AcDbLine
 10
1021.840716022325
 20
334.3580271885941
 30
0.0
 11
1009.840715022325
 21
334.3580271885941
 31
0.0
  0
LINE
  5
19FA
330
13F0
100
AcDbEntity
  8
AM_5
100
AcDbLine
 10
1017.585584008758
 20
316.8580271885941
 30
0.0
 11
1009.840715022325
 21
316.8580271885941
 31
0.0
  0
LINE
  5
19FB
330
13F0
100
AcDbEntity
  8
AM_5
100
AcDbLine
 10
1012.840715022325
 20
328.3580271885941
 30
0.0
 11
1012.840715022325
 21
322.8580271885941
 31
0.0
  0
LINE
  5
19FC
330
13F0
100
AcDbEntity
  8
AM_5
100
AcDbLine
 10
1012.840715022325
 20
316.8580271885941
 30
0.0
 11
1012.840715022325
 21
293.2680776949329
 31
0.0
  0
SOLID
  5
19FD
330
13F0
100
AcDbEntity
  8
AM_5
100
AcDbTrace
 10
1011.840715022325
 20
328.3580271885941
 30
0.0
 11
1013.840715022325
 21
328.3580271885941
 31
0.0
 12
1012.840715022325
 22
334.3580271885941
 32
0.0
 13
1012.840715022325
 23
334.3580271885941
 33
0.0
  0
SOLID
  5
19FE
330
13F0
100
AcDbEntity
  8
AM_5
100
AcDbTrace
 10
1011.840715022325
 20
322.8580271885941
 30
0.0
 11
1013.840715022325
 21
322.8580271885941
 31
0.0
 12
1012.840715022325
 22
316.8580271885941
 32
0.0
 13
1012.840715022325
 23
316.8580271885941
 33
0.0
  0
MTEXT
  5
19FF
330
13F0
100
AcDbEntity
  8
AM_5
100
AcDbMText
 10
1007.340715022325
 20
302.0630524417637
 30
0.0
 40
7.0
 41
0.0
 71
     5
 72
     1
  1
17.5
 11
0.0000000000000001
 21
1.0
 31
0.0
 73
     1
 44
1.0
1001
ACAD
1000
MTEXTBEGIN
1070
    73
1070
     1
1070
    44
1040
1.0
1070
    74
1070
     0
1000
MTEXTEND
  0
POINT
  5
1A00
330
13F0
100
AcDbEntity
  8
Defpoints
 62
     0
100
AcDbPoint
 10
1024.840716022325
 20
334.3580271885941
 30
0.0
  0
POINT
  5
1A01
330
13F0
100
AcDbEntity
  8
Defpoints
 62
     0
100
AcDbPoint
 10
1020.585584008758
 20
316.8580271885941
 30
0.0
  0
POINT
  5
1A02
330
13F0
100
AcDbEntity
  8
Defpoints
 62
     0
100
AcDbPoint
 10
1012.840715022325
 20
316.8580271885941
 30
0.0
  0
ENDBLK
  5
13FB
330
13F0
100
AcDbEntity
  8
0
100
AcDbBlockEnd
  0
BLOCK
  5
1406
330
13FC
100
AcDbEntity
  8
0
100
AcDbBlockBegin
  2
*D7
 70
     1
 10
0.0
 20
0.0
 30
0.0
  3
*D7
  1

  0
LINE
  5
1A1E
330
13FC
100
AcDbEntity
  8
AM_5
100
AcDbLine
 10
1021.840716022325
 20
334.3580271885941
 30
0.0
 11
998.0689217413623
 21
334.3580271885941
 31
0.0
  0
LINE
  5
1A1F
330
13FC
100
AcDbEntity
  8
AM_5
100
AcDbLine
 10
1047.840716022325
 20
182.358027188594
 30
0.0
 11
998.0689217413623
 21
182.358027188594
 31
0.0
  0
LINE
  5
1A20
330
13FC
100
AcDbEntity
  8
AM_5
100
AcDbLine
 10
1001.068921741362
 20
328.3580271885941
 30
0.0
 11
1001.068921741362
 21
188.358027188594
 31
0.0
  0
SOLID
  5
1A21
330
13FC
100
AcDbEntity
  8
AM_5
100
AcDbTrace
 10
1000.068921741362
 20
328.3580271885941
 30
0.0
 11
1002.068921741362
 21
328.3580271885941
 31
0.0
 12
1001.068921741362
 22
334.3580271885941
 32
0.0
 13
1001.068921741362
 23
334.3580271885941
 33
0.0
  0
SOLID
  5
1A22
330
13FC
100
AcDbEntity
  8
AM_5
100
AcDbTrace
 10
1000.068921741362
 20
188.358027188594
 30
0.0
 11
1002.068921741362
 21
188.358027188594
 31
0.0
 12
1001.068921741362
 22
182.358027188594
 32
0.0
 13
1001.068921741362
 23
182.358027188594
 33
0.0
  0
MTEXT
  5
1A23
330
13FC
100
AcDbEntity
  8
AM_5
100
AcDbMText
 10
995.5682327649844
 20
258.5730954022484
 30
0.0
 40
7.0
 41
0.0
 71
     5
 72
     1
  1
152
 11
0.0000000000000001
 21
1.0
 31
0.0
 73
     1
 44
1.0
1001
ACAD
1000
MTEXTBEGIN
1070
    73
1070
     1
1070
    44
1040
1.0
1070
    74
1070
     0
1000
MTEXTEND
  0
POINT
  5
1A24
330
13FC
100
AcDbEntity
  8
Defpoints
 62
     0
100
AcDbPoint
 10
1024.840716022325
 20
334.3580271885941
 30
0.0
  0
POINT
  5
1A25
330
13FC
100
AcDbEntity
  8
Defpoints
 62
     0
100
AcDbPoint
 10
1050.840716022325
 20
182.358027188594
 30
0.0
  0
POINT
  5
1A26
330
13FC
100
AcDbEntity
  8
Defpoints
 62
     0
100
AcDbPoint
 10
1001.068921741362
 20
182.358027188594
 30
0.0
  0
ENDBLK
  5
1407
330
13FC
100
AcDbEntity
  8
0
100
AcDbBlockEnd
  0
BLOCK
  5
1445
330
143B
100
AcDbEntity
  8
0
100
AcDbBlockBegin
  2
*D8
 70
     1
 10
0.0
 20
0.0
 30
0.0
  3
*D8
  1

  0
LINE
  5
1A70
330
143B
100
AcDbEntity
  8
AM_5
100
AcDbLine
 10
1086.983598787059
 20
378.9422188731109
 30
0.0
 11
1113.204712244461
 21
378.9422188731109
 31
0.0
  0
LINE
  5
1A71
330
143B
100
AcDbEntity
  8
AM_5
100
AcDbLine
 10
1086.983598787059
 20
448.9422188731108
 30
0.0
 11
1113.204712244461
 21
448.9422188731108
 31
0.0
  0
LINE
  5
1A72
330
143B
100
AcDbEntity
  8
AM_5
100
AcDbLine
 10
1110.204712244461
 20
384.9422188731109
 30
0.0
 11
1110.204712244461
 21
442.9422188731107
 31
0.0
  0
SOLID
  5
1A73
330
143B
100
AcDbEntity
  8
AM_5
100
AcDbTrace
 10
1109.204712244461
 20
384.9422188731109
 30
0.0
 11
1111.204712244461
 21
384.9422188731109
 31
0.0
 12
1110.204712244461
 22
378.9422188731109
 32
0.0
 13
1110.204712244461
 23
378.9422188731109
 33
0.0
  0
SOLID
  5
1A74
330
143B
100
AcDbEntity
  8
AM_5
100
AcDbTrace
 10
1109.204712244461
 20
442.9422188731107
 30
0.0
 11
1111.204712244461
 21
442.9422188731107
 31
0.0
 12
1110.204712244461
 22
448.9422188731108
 32
0.0
 13
1110.204712244461
 23
448.9422188731108
 33
0.0
  0
MTEXT
  5
1A75
330
143B
100
AcDbEntity
  8
AM_5
100
AcDbMText
 10
1104.704712244461
 20
413.9422188731109
 30
0.0
 40
7.0
 41
0.0
 71
     5
 72
     1
  1
70
 11
0.0000000000000001
 21
1.0
 31
0.0
 73
     1
 44
1.0
1001
ACAD
1000
MTEXTBEGIN
1070
    73
1070
     1
1070
    44
1040
1.0
1070
    74
1070
     0
1000
MTEXTEND
  0
POINT
  5
1A76
330
143B
100
AcDbEntity
  8
Defpoints
 62
     0
100
AcDbPoint
 10
1083.983598787059
 20
378.9422188731109
 30
0.0
  0
POINT
  5
1A77
330
143B
100
AcDbEntity
  8
Defpoints
 62
     0
100
AcDbPoint
 10
1083.983598787059
 20
448.9422188731108
 30
0.0
  0
POINT
  5
1A78
330
143B
100
AcDbEntity
  8
Defpoints
 62
     0
100
AcDbPoint
 10
1110.204712244461
 20
448.9422188731108
 30
0.0
  0
ENDBLK
  5
1446
330
143B
100
AcDbEntity
  8
0
100
AcDbBlockEnd
  0
BLOCK
  5
146F
330
1465
100
AcDbEntity
  8
0
100
AcDbBlockBegin
  2
*D9
 70
     1
 10
0.0
 20
0.0
 30
0.0
  3
*D9
  1

  0
LINE
  5
1A67
330
1465
100
AcDbEntity
  8
AM_5
100
AcDbLine
 10
1024.840716022325
 20
392.9422188731109
 30
0.0
 11
1024.840716022325
 21
363.443036267834
 31
0.0
  0
LINE
  5
1A68
330
1465
100
AcDbEntity
  8
AM_5
100
AcDbLine
 10
1094.840716022325
 20
392.9422188731109
 30
0.0
 11
1094.840716022325
 21
363.443036267834
 31
0.0
  0
LINE
  5
1A69
330
1465
100
AcDbEntity
  8
AM_5
100
AcDbLine
 10
1030.840716022325
 20
366.443036267834
 30
0.0
 11
1088.840716022325
 21
366.443036267834
 31
0.0
  0
SOLID
  5
1A6A
330
1465
100
AcDbEntity
  8
AM_5
100
AcDbTrace
 10
1030.840716022325
 20
367.443036267834
 30
0.0
 11
1030.840716022325
 21
365.443036267834
 31
0.0
 12
1024.840716022325
 22
366.443036267834
 32
0.0
 13
1024.840716022325
 23
366.443036267834
 33
0.0
  0
SOLID
  5
1A6B
330
1465
100
AcDbEntity
  8
AM_5
100
AcDbTrace
 10
1088.840716022325
 20
367.443036267834
 30
0.0
 11
1088.840716022325
 21
365.443036267834
 31
0.0
 12
1094.840716022325
 22
366.443036267834
 32
0.0
 13
1094.840716022325
 23
366.443036267834
 33
0.0
  0
MTEXT
  5
1A6C
330
1465
100
AcDbEntity
  8
AM_5
100
AcDbMText
 10
1059.840716022325
 20
371.943036267834
 30
0.0
 40
7.0
 41
0.0
 71
     5
 72
     1
  1
70
 73
     1
 44
1.0
1001
ACAD
1000
MTEXTBEGIN
1070
    73
1070
     1
1070
    44
1040
1.0
1070
    74
1070
     0
1000
MTEXTEND
  0
POINT
  5
1A6D
330
1465
100
AcDbEntity
  8
Defpoints
 62
     0
100
AcDbPoint
 10
1024.840716022325
 20
395.9422188731108
 30
0.0
  0
POINT
  5
1A6E
330
1465
100
AcDbEntity
  8
Defpoints
 62
     0
100
AcDbPoint
 10
1094.840716022325
 20
395.9422188731108
 30
0.0
  0
POINT
  5
1A6F
330
1465
100
AcDbEntity
  8
Defpoints
 62
     0
100
AcDbPoint
 10
1094.840716022325
 20
366.443036267834
 30
0.0
  0
ENDBLK
  5
1470
330
1465
100
AcDbEntity
  8
0
100
AcDbBlockEnd
  0
BLOCK
  5
186D
330
1868
100
AcDbEntity
  8
0
100
AcDbBlockBegin
  2
*S1110
 70
     1
 10
0.0
 20
0.0
 30
0.0
  3
*S1110
  1

  0
LINE
  5
1869
330
1868
100
AcDbEntity
  8
AM_5
 62
     5
100
AcDbLine
 10
839.5576708565826
 20
333.2218838931471
 30
0.0
 11
873.3217328582323
 21
333.2218838931471
 31
0.0
  0
LINE
  5
186A
330
1868
100
AcDbEntity
  8
AM_5
 62
     5
100
AcDbLine
 10
873.3217328582323
 20
333.2218838931471
 30
0.0
 11
886.9593914448401
 21
309.3162247062328
 31
0.0
  0
TRACE
  5
186B
330
1868
100
AcDbEntity
  8
AM_5
 62
     5
370
    35
100
AcDbTrace
 10
886.3190137430292
 20
308.9509031564068
 30
0.0
 11
887.5997691466515
 21
309.6815462560589
 31
0.0
 12
889.7342841217795
 22
304.4520731223008
 32
0.0
 13
889.7342841217795
 23
304.4520731223008
 33
0.0
  0
MTEXT
  5
186C
330
1868
100
AcDbEntity
  8
AM_5
 62
     5
100
AcDbMText
 10
839.5576708565826
 20
343.2101691774898
 30
0.0
 40
5.599999999999999
 41
0.0
 71
     9
 72
     5
  1

  7
ACISOTS
 73
     1
 44
1.0
1001
ACAD
1000
MTEXTBEGIN
1070
    73
1070
     1
1070
    44
1040
1.0
1070
    74
1070
     0
1000
MTEXTEND
  0
ENDBLK
  5
186E
330
1868
100
AcDbEntity
  8
0
100
AcDbBlockEnd
  0
BLOCK
  5
1A31
330
1A30
100
AcDbEntity
  8
0
100
AcDbBlockBegin
  2
*U11
 70
     1
 10
0.0
 20
0.0
 30
0.0
  3
*U11
  1

  0
ENDBLK
  5
1A32
330
1A30
100
AcDbEntity
  8
0
100
AcDbBlockEnd
  0
ENDSEC
  0
SECTION
  2
ENTITIES
  0
LINE
  5
1255
330
1F
100
AcDbEntity
  8
AM_VIS
100
AcDbLine
 10
1169.55748098861
 20
334.3580271885941
 30
0.0
 11
1169.55748098861
 21
335.8580271885941
 31
0.0
  0
LINE
  5
1256
330
1F
100
AcDbEntity
  8
AM_VIS
100
AcDbLine
 10
1165.55748098861
 20
334.3580271885941
 30
0.0
 11
1165.55748098861
 21
335.8580271885941
 31
0.0
  0
LINE
  5
1257
330
1F
100
AcDbEntity
  8
AM_VIS
100
AcDbLine
 10
1172.05748098861
 20
335.8580271885941
 30
0.0
 11
1172.05748098861
 21
347.358027188594
 31
0.0
  0
LINE
  5
1258
330
1F
100
AcDbEntity
  8
AM_VIS
100
AcDbLine
 10
1163.05748098861
 20
335.8580271885941
 30
0.0
 11
1163.05748098861
 21
347.358027188594
 31
0.0
  0
LINE
  5
1259
330
1F
100
AcDbEntity
  8
AM_VIS
100
AcDbLine
 10
1163.55748098861
 20
347.8580271885941
 30
0.0
 11
1163.05748098861
 21
347.358027188594
 31
0.0
  0
LINE
  5
125A
330
1F
100
AcDbEntity
  8
AM_VIS
100
AcDbLine
 10
1171.55748098861
 20
347.8580271885941
 30
0.0
 11
1172.05748098861
 21
347.358027188594
 31
0.0
  0
LINE
  5
125C
330
1F
100
AcDbEntity
  8
AM_VIS
100
AcDbLine
 10
1114.55748098861
 20
304.8580271885941
 30
0.0
 11
1116.781023853302
 21
304.8580271885941
 31
0.0
  0
LINE
  5
125D
330
1F
100
AcDbEntity
  8
AM_VIS
100
AcDbLine
 10
1182.333938123917
 20
304.8580271885941
 30
0.0
 11
1184.55748098861
 21
304.8580271885941
 31
0.0
  0
LINE
  5
125E
330
1F
100
AcDbEntity
  8
AM_VIS
100
AcDbLine
 10
1116.781023853302
 20
283.3580271885941
 30
0.0
 11
1114.55748098861
 21
283.3580271885941
 31
0.0
  0
LINE
  5
125F
330
1F
100
AcDbEntity
  8
AM_VIS
100
AcDbLine
 10
1184.55748098861
 20
283.3580271885941
 30
0.0
 11
1182.333938123917
 21
283.3580271885941
 31
0.0
  0
LINE
  5
1260
330
1F
100
AcDbEntity
  8
AM_VIS
100
AcDbLine
 10
1175.075119078815
 20
334.3580271885941
 30
0.0
 11
1176.55748098861
 21
334.3580271885941
 31
0.0
  0
LINE
  5
1261
330
1F
100
AcDbEntity
  8
AM_VIS
100
AcDbLine
 10
1122.55748098861
 20
334.3580271885941
 30
0.0
 11
1124.039842898405
 21
334.3580271885941
 31
0.0
  0
LINE
  5
1262
330
1F
100
AcDbEntity
  8
AM_VIS
100
AcDbLine
 10
1140.05748098861
 20
339.3580271885941
 30
0.0
 11
1140.55748098861
 21
339.3580271885941
 31
0.0
  0
LINE
  5
1263
330
1F
100
AcDbEntity
  8
AM_VIS
100
AcDbLine
 10
1141.282563768416
 20
339.3580271885941
 30
0.0
 11
1148.83239821079
 21
339.3580271885941
 31
0.0
  0
LINE
  5
1264
330
1F
100
AcDbEntity
  8
AM_VIS
100
AcDbLine
 10
1150.282563775519
 20
339.3580271885941
 30
0.0
 11
1157.832398203687
 21
339.3580271885941
 31
0.0
  0
LINE
  5
1265
330
1F
100
AcDbEntity
  8
AM_VIS
100
AcDbLine
 10
1158.55748098861
 20
339.3580271885941
 30
0.0
 11
1159.55748098861
 21
339.3580271885941
 31
0.0
  0
LINE
  5
1266
330
1F
100
AcDbEntity
  8
AM_VIS
100
AcDbLine
 10
1158.55748098861
 20
341.3580271885941
 30
0.0
 11
1157.832398203687
 21
341.3580271885941
 31
0.0
  0
LINE
  5
1268
330
1F
100
AcDbEntity
  8
AM_VIS
100
AcDbLine
 10
1141.282563768416
 20
341.3580271885941
 30
0.0
 11
1140.55748098861
 21
341.3580271885941
 31
0.0
  0
LINE
  5
1269
330
1F
100
AcDbEntity
  8
AM_VIS
100
AcDbLine
 10
1143.55748098861
 20
355.858027188594
 30
0.0
 11
1155.55748098861
 21
355.858027188594
 31
0.0
  0
LINE
  5
126A
330
1F
100
AcDbEntity
  8
AM_VIS
100
AcDbLine
 10
1123.05748098861
 20
344.3580271885941
 30
0.0
 11
1140.05748098861
 21
344.3580271885941
 31
0.0
  0
LINE
  5
126B
330
1F
100
AcDbEntity
  8
AM_VIS
100
AcDbLine
 10
1172.05748098861
 20
335.8580271885941
 30
0.0
 11
1163.05748098861
 21
335.8580271885941
 31
0.0
  0
LINE
  5
126D
330
1F
100
AcDbEntity
  8
AM_VIS
100
AcDbLine
 10
1163.55748098861
 20
347.8580271885941
 30
0.0
 11
1171.55748098861
 21
347.8580271885941
 31
0.0
  0
ARC
  5
126E
330
1F
100
AcDbEntity
  8
AM_VIS
100
AcDbCircle
 10
1155.55748098861
 20
354.8580271885941
 30
0.0
 40
1.0
100
AcDbArc
 50
0.0
 51
90.0
  0
ARC
  5
126F
330
1F
100
AcDbEntity
  8
AM_VIS
100
AcDbCircle
 10
1143.55748098861
 20
354.8580271885941
 30
0.0
 40
1.0
100
AcDbArc
 50
90.0
 51
180.0
  0
LINE
  5
1270
330
1F
100
AcDbEntity
  8
AM_VIS
100
AcDbLine
 10
1120.921838862057
 20
258.3580271885941
 30
0.0
 11
1112.05748098861
 21
258.3580271885941
 31
0.0
  0
LINE
  5
1271
330
1F
100
AcDbEntity
  8
AM_VIS
100
AcDbLine
 10
1112.05748098861
 20
265.3580271885941
 30
0.0
 11
1112.05748098861
 21
258.3580271885941
 31
0.0
  0
LINE
  5
1272
330
1F
100
AcDbEntity
  8
AM_VIS
100
AcDbLine
 10
1115.05748098861
 20
283.3580271885941
 30
0.0
 11
1115.05748098861
 21
265.3580271885941
 31
0.0
  0
LINE
  5
1273
330
1F
100
AcDbEntity
  8
AM_VIS
100
AcDbLine
 10
1115.05748098861
 20
265.3580271885941
 30
0.0
 11
1112.05748098861
 21
265.3580271885941
 31
0.0
  0
LINE
  5
1274
330
1F
100
AcDbEntity
  8
AM_VIS
100
AcDbLine
 10
1174.043176040128
 20
270.8580271885941
 30
0.0
 11
1174.043176040128
 21
205.858027188594
 31
0.0
  0
SPLINE
  5
1275
330
1F
100
AcDbEntity
  8
AM_VIS
100
AcDbSpline
210
0.0
220
0.0
230
1.0
 70
     8
 71
     3
 72
    22
 73
    18
 74
     0
 42
0.0000000001
 43
0.0000000001
 40
7.565255714219516
 40
7.565255714219516
 40
7.565255714219516
 40
7.565255714219516
 40
8.036397367716562
 40
8.036397367716562
 40
8.507539021213611
 40
8.507539021213611
 40
8.978680674710663
 40
8.978680674710663
 40
9.44982232820771
 40
9.44982232820771
 40
9.926456835766039
 40
9.926456835766039
 40
10.40309134332436
 40
10.40309134332436
 40
10.87972585088269
 40
10.87972585088269
 40
11.35636035844102
 40
11.35636035844102
 40
11.35636035844102
 40
11.35636035844102
 10
1174.043176040128
 20
205.858027188594
 30
0.0
 10
1174.043176040128
 20
205.7009799707617
 30
0.0
 10
1174.034780998097
 20
205.5386963336654
 30
0.0
 10
1173.999390211255
 20
205.216149664114
 30
0.0
 10
1173.972400549241
 20
205.0558835861086
 30
0.0
 10
1173.900765384515
 20
204.7487587071273
 30
0.0
 10
1173.856055187022
 20
204.6016465333057
 30
0.0
 10
1173.752175787237
 20
204.3297575709936
 30
0.0
 10
1173.69299009386
 20
204.2049863077689
 30
0.0
 10
1173.565350412585
 20
203.9828957368212
 30
0.0
 10
1173.492363891718
 20
203.8781769987721
 30
0.0
 10
1173.331870553192
 20
203.6936210327729
 30
0.0
 10
1173.244358336463
 20
203.6137703875092
 30
0.0
 10
1173.059830277521
 20
203.4854702352518
 30
0.0
 10
1172.962664524683
 20
203.436922746201
 30
0.0
 10
1172.765111030116
 20
203.3731931236891
 30
0.0
 10
1172.664718664708
 20
203.3580271885941
 30
0.0
 10
1172.566624858319
 20
203.3580271885941
 30
0.0
  0
SPLINE
  5
1276
330
1F
100
AcDbEntity
  8
AM_VIS
100
AcDbSpline
210
0.0
220
0.0
230
1.0
 70
     8
 71
     3
 72
    22
 73
    18
 74
     0
 42
0.0000000001
 43
0.0000000001
 40
3.774151069998002
 40
3.774151069998002
 40
3.774151069998002
 40
3.774151069998002
 40
4.25078557755633
 40
4.25078557755633
 40
4.727420085114657
 40
4.727420085114657
 40
5.204054592672983
 40
5.204054592672983
 40
5.68068910023131
 40
5.68068910023131
 40
6.15183075372836
 40
6.15183075372836
 40
6.62297240722541
 40
6.62297240722541
 40
7.094114060722462
 40
7.094114060722462
 40
7.565255714219513
 40
7.565255714219513
 40
7.565255714219513
 40
7.565255714219513
 10
1172.566624858319
 20
273.3580271885941
 30
0.0
 10
1172.664718664708
 20
273.3580271885941
 30
0.0
 10
1172.765111030116
 20
273.3428612534991
 30
0.0
 10
1172.962664524683
 20
273.2791316309872
 30
0.0
 10
1173.059830277521
 20
273.2305841419364
 30
0.0
 10
1173.244358336463
 20
273.102283989679
 30
0.0
 10
1173.331870553192
 20
273.0224333444153
 30
0.0
 10
1173.492363891718
 20
272.8378773784161
 30
0.0
 10
1173.565350412585
 20
272.7331586403669
 30
0.0
 10
1173.69299009386
 20
272.5110680694192
 30
0.0
 10
1173.752175787237
 20
272.3862968061947
 30
0.0
 10
1173.856055187021
 20
272.1144078438824
 30
0.0
 10
1173.900765384515
 20
271.9672956700608
 30
0.0
 10
1173.972400549241
 20
271.6601707910795
 30
0.0
 10
1173.999390211255
 20
271.4999047130741
 30
0.0
 10
1174.034780998097
 20
271.1773580435227
 30
0.0
 10
1174.043176040128
 20
271.0150744064264
 30
0.0
 10
1174.043176040128
 20
270.8580271885941
 30
0.0
  0
LINE
  5
1277
330
1F
100
AcDbEntity
  8
AM_VIS
100
AcDbLine
 10
1125.071785937092
 20
205.858027188594
 30
0.0
 11
1125.071785937092
 21
270.8580271885941
 31
0.0
  0
SPLINE
  5
1278
330
1F
100
AcDbEntity
  8
AM_VIS
100
AcDbSpline
210
0.0
220
0.0
230
1.0
 70
     8
 71
     3
 72
    22
 73
    18
 74
     0
 42
0.0000000001
 43
0.0000000001
 40
0.0
 40
0.0
 40
0.0
 40
0.0
 40
0.4711416534970506
 40
0.4711416534970506
 40
0.9422833069941011
 40
0.9422833069941011
 40
1.41342496049115
 40
1.41342496049115
 40
1.884566613988202
 40
1.884566613988202
 40
2.361201121546526
 40
2.361201121546526
 40
2.837835629104853
 40
2.837835629104853
 40
3.314470136663179
 40
3.314470136663179
 40
3.791104644221503
 40
3.791104644221503
 40
3.791104644221503
 40
3.791104644221503
 10
1125.071785937092
 20
270.8580271885941
 30
0.0
 10
1125.071785937092
 20
271.0150744064264
 30
0.0
 10
1125.080180979123
 20
271.1773580435228
 30
0.0
 10
1125.115571765965
 20
271.4999047130741
 30
0.0
 10
1125.142561427979
 20
271.6601707910795
 30
0.0
 10
1125.214196592706
 20
271.9672956700608
 30
0.0
 10
1125.258906790199
 20
272.1144078438824
 30
0.0
 10
1125.362786189983
 20
272.3862968061947
 30
0.0
 10
1125.42197188336
 20
272.5110680694192
 30
0.0
 10
1125.549611564635
 20
272.7331586403669
 30
0.0
 10
1125.622598085501
 20
272.8378773784161
 30
0.0
 10
1125.783091424028
 20
273.0224333444153
 30
0.0
 10
1125.870603640757
 20
273.102283989679
 30
0.0
 10
1126.055131699699
 20
273.2305841419364
 30
0.0
 10
1126.152297452537
 20
273.2791316309872
 30
0.0
 10
1126.349850947105
 20
273.3428612534991
 30
0.0
 10
1126.450243312512
 20
273.3580271885941
 30
0.0
 10
1126.548337118901
 20
273.3580271885941
 30
0.0
  0
SPLINE
  5
1279
330
1F
100
AcDbEntity
  8
AM_VIS
100
AcDbSpline
210
0.0
220
0.0
230
1.0
 70
     8
 71
     3
 72
    22
 73
    18
 74
     0
 42
0.0000000001
 43
0.0000000001
 40
-3.791104644221506
 40
-3.791104644221506
 40
-3.791104644221506
 40
-3.791104644221506
 40
-3.314470136663178
 40
-3.314470136663178
 40
-2.83783562910485
 40
-2.83783562910485
 40
-2.361201121546524
 40
-2.361201121546524
 40
-1.884566613988198
 40
-1.884566613988198
 40
-1.413424960491148
 40
-1.413424960491148
 40
-0.9422833069940992
 40
-0.9422833069940992
 40
-0.4711416534970497
 40
-0.4711416534970497
 40
0.0
 40
0.0
 40
0.0
 40
0.0
 10
1126.548337118901
 20
203.3580271885941
 30
0.0
 10
1126.450243312512
 20
203.3580271885941
 30
0.0
 10
1126.349850947105
 20
203.3731931236891
 30
0.0
 10
1126.152297452537
 20
203.436922746201
 30
0.0
 10
1126.055131699699
 20
203.4854702352518
 30
0.0
 10
1125.870603640757
 20
203.6137703875092
 30
0.0
 10
1125.783091424028
 20
203.6936210327728
 30
0.0
 10
1125.622598085501
 20
203.878176998772
 30
0.0
 10
1125.549611564635
 20
203.9828957368212
 30
0.0
 10
1125.42197188336
 20
204.2049863077689
 30
0.0
 10
1125.362786189983
 20
204.3297575709935
 30
0.0
 10
1125.258906790199
 20
204.6016465333056
 30
0.0
 10
1125.214196592706
 20
204.7487587071273
 30
0.0
 10
1125.142561427979
 20
205.0558835861086
 30
0.0
 10
1125.115571765965
 20
205.216149664114
 30
0.0
 10
1125.080180979123
 20
205.5386963336653
 30
0.0
 10
1125.071785937092
 20
205.7009799707617
 30
0.0
 10
1125.071785937092
 20
205.858027188594
 30
0.0
  0
SPLINE
  5
127A
330
1F
100
AcDbEntity
  8
AM_VIS
100
AcDbSpline
210
0.0
220
0.0
230
1.0
 70
     8
 71
     3
 72
    22
 73
    18
 74
     0
 42
0.0000000001
 43
0.0000000001
 40
7.562677872244871
 40
7.562677872244871
 40
7.562677872244871
 40
7.562677872244871
 40
8.03379458069395
 40
8.03379458069395
 40
8.504911289143031
 40
8.504911289143031
 40
8.976027997592112
 40
8.976027997592112
 40
9.447144706041193
 40
9.447144706041193
 40
9.923306923661693
 40
9.923306923661693
 40
10.39946914128219
 40
10.39946914128219
 40
10.87563135890269
 40
10.87563135890269
 40
11.35179357652319
 40
11.35179357652319
 40
11.35179357652319
 40
11.35179357652319
 10
1166.460170755281
 20
270.8580271885941
 30
0.0
 10
1166.460170755281
 20
271.0150660914104
 30
0.0
 10
1166.472945976161
 20
271.1773518781884
 30
0.0
 10
1166.526522243887
 20
271.4999257457188
 30
0.0
 10
1166.567309334965
 20
271.6602168365357
 30
0.0
 10
1166.674622722928
 20
271.9674112396676
 30
0.0
 10
1166.741228553002
 20
272.1145672646803
 30
0.0
 10
1166.894204195672
 20
272.3865509355139
 30
0.0
 10
1166.980573078681
 20
272.5113728778837
 30
0.0
 10
1167.164338331103
 20
272.7334536634403
 30
0.0
 10
1167.268234625037
 20
272.8381267136228
 30
0.0
 10
1167.493005541475
 20
273.0226032689543
 30
0.0
 10
1167.613865734213
 20
273.1024200370313
 30
0.0
 10
1167.864265543492
 20
273.230660226545
 30
0.0
 10
1167.993993853245
 20
273.2791819266775
 30
0.0
 10
1168.253121993893
 20
273.3428733981317
 30
0.0
 10
1168.382522304478
 20
273.3580271885941
 30
0.0
 10
1168.506892540086
 20
273.3580271885941
 30
0.0
  0
SPLINE
  5
127B
330
1F
100
AcDbEntity
  8
AM_VIS
100
AcDbSpline
210
0.0
220
0.0
230
1.0
 70
     8
 71
     3
 72
    22
 73
    18
 74
     0
 42
0.0000000001
 43
0.0000000001
 40
3.773562071924166
 40
3.773562071924166
 40
3.773562071924166
 40
3.773562071924166
 40
4.248305562462991
 40
4.248305562462991
 40
4.723049053001815
 40
4.723049053001815
 40
5.197792543540641
 40
5.197792543540641
 40
5.672536034079465
 40
5.672536034079465
 40
6.145072416928004
 40
6.145072416928004
 40
6.617608799776546
 40
6.617608799776546
 40
7.090145182625085
 40
7.090145182625085
 40
7.562681565473624
 40
7.562681565473624
 40
7.562681565473624
 40
7.562681565473624
 10
1168.506892540086
 20
203.3580271885941
 30
0.0
 10
1168.382892866053
 20
203.3580271885941
 30
0.0
 10
1168.253868352329
 20
203.3730909313205
 30
0.0
 10
1167.995455377346
 20
203.4364206143317
 30
0.0
 10
1167.866066444776
 20
203.4846707853861
 30
0.0
 10
1167.616265048829
 20
203.612209917668
 30
0.0
 10
1167.495665229322
 20
203.6915961467835
 30
0.0
 10
1167.271301557549
 20
203.8750908765467
 30
0.0
 10
1167.167551948952
 20
203.9792124680626
 30
0.0
 10
1166.983398060386
 20
204.2007917362262
 30
0.0
 10
1166.896578966855
 20
204.3257747802043
 30
0.0
 10
1166.742793321143
 20
204.5982239532103
 30
0.0
 10
1166.675827658636
 20
204.7456842598525
 30
0.0
 10
1166.56792473582
 20
205.0535937531527
 30
0.0
 10
1166.526907107332
 20
205.2142974873142
 30
0.0
 10
1166.473023039913
 20
205.5377566106607
 30
0.0
 10
1166.460170755281
 20
205.7005150609779
 30
0.0
 10
1166.460170755281
 20
205.858027188594
 30
0.0
  0
SPLINE
  5
127C
330
1F
100
AcDbEntity
  8
AM_VIS
100
AcDbSpline
210
0.0
220
0.0
230
1.0
 70
     8
 71
     3
 72
    22
 73
    18
 74
     0
 42
0.0000000001
 43
0.0000000001
 40
-3.789115704278325
 40
-3.789115704278325
 40
-3.789115704278325
 40
-3.789115704278325
 40
-3.312953486657824
 40
-3.312953486657824
 40
-2.836791269037325
 40
-2.836791269037325
 40
-2.360629051416824
 40
-2.360629051416824
 40
-1.884466833796325
 40
-1.884466833796325
 40
-1.413350125347244
 40
-1.413350125347244
 40
-0.9422334168981636
 40
-0.9422334168981636
 40
-0.4711167084490829
 40
-0.4711167084490829
 40
0.0
 40
0.0
 40
0.0
 40
0.0
 10
1130.608069437134
 20
273.3580271885941
 30
0.0
 10
1130.732439672742
 20
273.3580271885941
 30
0.0
 10
1130.861839983327
 20
273.3428733981317
 30
0.0
 10
1131.120968123976
 20
273.2791819266775
 30
0.0
 10
1131.250696433727
 20
273.230660226545
 30
0.0
 10
1131.501096243007
 20
273.1024200370313
 30
0.0
 10
1131.621956435745
 20
273.0226032689543
 30
0.0
 10
1131.846727352183
 20
272.8381267136228
 30
0.0
 10
1131.950623646117
 20
272.7334536634403
 30
0.0
 10
1132.134388898538
 20
272.5113728778837
 30
0.0
 10
1132.220757781548
 20
272.3865509355139
 30
0.0
 10
1132.373733424218
 20
272.1145672646803
 30
0.0
 10
1132.440339254292
 20
271.9674112396676
 30
0.0
 10
1132.547652642255
 20
271.6602168365357
 30
0.0
 10
1132.588439733333
 20
271.4999257457188
 30
0.0
 10
1132.642016001059
 20
271.1773518781884
 30
0.0
 10
1132.654791221939
 20
271.0150660914105
 30
0.0
 10
1132.654791221939
 20
270.8580271885941
 30
0.0
  0
SPLINE
  5
127D
330
1F
100
AcDbEntity
  8
AM_VIS
100
AcDbSpline
210
0.0
220
0.0
230
1.0
 70
     8
 71
     3
 72
    22
 73
    18
 74
     0
 42
0.0000000001
 43
0.0000000001
 40
0.0
 40
0.0
 40
0.0
 40
0.0
 40
0.4711167084490839
 40
0.4711167084490839
 40
0.9422334168981675
 40
0.9422334168981675
 40
1.41335012534725
 40
1.41335012534725
 40
1.884466833796334
 40
1.884466833796334
 40
2.360629051416834
 40
2.360629051416834
 40
2.836791269037331
 40
2.836791269037331
 40
3.312953486657831
 40
3.312953486657831
 40
3.789115704278328
 40
3.789115704278328
 40
3.789115704278328
 40
3.789115704278328
 10
1132.654791221939
 20
205.858027188594
 30
0.0
 10
1132.654791221939
 20
205.7009882857777
 30
0.0
 10
1132.642016001059
 20
205.5387024989997
 30
0.0
 10
1132.588439733333
 20
205.2161286314693
 30
0.0
 10
1132.547652642255
 20
205.0558375406524
 30
0.0
 10
1132.440339254292
 20
204.7486431375205
 30
0.0
 10
1132.373733424218
 20
204.6014871125079
 30
0.0
 10
1132.220757781548
 20
204.3295034416743
 30
0.0
 10
1132.134388898538
 20
204.2046814993045
 30
0.0
 10
1131.950623646117
 20
203.9826007137478
 30
0.0
 10
1131.846727352183
 20
203.8779276635653
 30
0.0
 10
1131.621956435745
 20
203.6934511082338
 30
0.0
 10
1131.501096243007
 20
203.6136343401568
 30
0.0
 10
1131.250696433727
 20
203.4853941506432
 30
0.0
 10
1131.120968123976
 20
203.4368724505107
 30
0.0
 10
1130.861839983327
 20
203.3731809790565
 30
0.0
 10
1130.732439672742
 20
203.3580271885941
 30
0.0
 10
1130.608069437134
 20
203.3580271885941
 30
0.0
  0
SPLINE
  5
127E
330
1F
100
AcDbEntity
  8
AM_VIS
100
AcDbSpline
210
0.0
220
0.0
230
1.0
 70
     8
 71
     3
 72
    22
 73
    18
 74
     0
 42
0.0000000001
 43
0.0000000001
 40
-3.789115704278326
 40
-3.789115704278326
 40
-3.789115704278326
 40
-3.789115704278326
 40
-3.312953486657828
 40
-3.312953486657828
 40
-2.83679126903733
 40
-2.83679126903733
 40
-2.360629051416831
 40
-2.360629051416831
 40
-1.884466833796333
 40
-1.884466833796333
 40
-1.41335012534725
 40
-1.41335012534725
 40
-0.9422334168981656
 40
-0.9422334168981656
 40
-0.4711167084490829
 40
-0.4711167084490829
 40
0.0
 40
0.0
 40
0.0
 40
0.0
 10
1130.608069437134
 20
203.3580271885941
 30
0.0
 10
1130.732439672742
 20
203.3580271885941
 30
0.0
 10
1130.861839983327
 20
203.3731809790566
 30
0.0
 10
1131.120968123976
 20
203.4368724505108
 30
0.0
 10
1131.250696433727
 20
203.4853941506431
 30
0.0
 10
1131.501096243007
 20
203.6136343401568
 30
0.0
 10
1131.621956435745
 20
203.6934511082338
 30
0.0
 10
1131.846727352183
 20
203.8779276635653
 30
0.0
 10
1131.950623646117
 20
203.9826007137478
 30
0.0
 10
1132.134388898538
 20
204.2046814993045
 30
0.0
 10
1132.220757781548
 20
204.3295034416743
 30
0.0
 10
1132.373733424218
 20
204.6014871125078
 30
0.0
 10
1132.440339254292
 20
204.7486431375205
 30
0.0
 10
1132.547652642255
 20
205.0558375406524
 30
0.0
 10
1132.588439733333
 20
205.2161286314692
 30
0.0
 10
1132.642016001059
 20
205.5387024989997
 30
0.0
 10
1132.654791221939
 20
205.7009882857777
 30
0.0
 10
1132.654791221939
 20
205.858027188594
 30
0.0
  0
LINE
  5
127F
330
1F
100
AcDbEntity
  8
AM_VIS
100
AcDbLine
 10
1132.654791221939
 20
270.8580271885941
 30
0.0
 11
1132.654791221939
 21
205.858027188594
 31
0.0
  0
SPLINE
  5
1280
330
1F
100
AcDbEntity
  8
AM_VIS
100
AcDbSpline
210
0.0
220
0.0
230
1.0
 70
     8
 71
     3
 72
    22
 73
    18
 74
     0
 42
0.0000000001
 43
0.0000000001
 40
7.562677872244874
 40
7.562677872244874
 40
7.562677872244874
 40
7.562677872244874
 40
8.033794580693951
 40
8.033794580693951
 40
8.504911289143034
 40
8.504911289143034
 40
8.976027997592112
 40
8.976027997592112
 40
9.447144706041193
 40
9.447144706041193
 40
9.923306923661693
 40
9.923306923661693
 40
10.39946914128219
 40
10.39946914128219
 40
10.87563135890269
 40
10.87563135890269
 40
11.35179357652319
 40
11.35179357652319
 40
11.35179357652319
 40
11.35179357652319
 10
1132.654791221939
 20
270.8580271885941
 30
0.0
 10
1132.654791221939
 20
271.0150660914105
 30
0.0
 10
1132.642016001059
 20
271.1773518781884
 30
0.0
 10
1132.588439733333
 20
271.4999257457188
 30
0.0
 10
1132.547652642255
 20
271.6602168365357
 30
0.0
 10
1132.440339254292
 20
271.9674112396676
 30
0.0
 10
1132.373733424218
 20
272.1145672646803
 30
0.0
 10
1132.220757781548
 20
272.3865509355139
 30
0.0
 10
1132.134388898538
 20
272.5113728778837
 30
0.0
 10
1131.950623646117
 20
272.7334536634403
 30
0.0
 10
1131.846727352183
 20
272.8381267136228
 30
0.0
 10
1131.621956435745
 20
273.0226032689543
 30
0.0
 10
1131.501096243007
 20
273.1024200370313
 30
0.0
 10
1131.250696433727
 20
273.230660226545
 30
0.0
 10
1131.120968123976
 20
273.2791819266775
 30
0.0
 10
1130.861839983327
 20
273.3428733981317
 30
0.0
 10
1130.732439672742
 20
273.3580271885941
 30
0.0
 10
1130.608069437134
 20
273.3580271885941
 30
0.0
  0
SPLINE
  5
1281
330
1F
100
AcDbEntity
  8
AM_VIS
100
AcDbSpline
210
0.0
220
0.0
230
1.0
 70
     8
 71
     3
 72
    22
 73
    18
 74
     0
 42
0.0000000001
 43
0.0000000001
 40
-3.789115704278325
 40
-3.789115704278325
 40
-3.789115704278325
 40
-3.789115704278325
 40
-3.312953486657824
 40
-3.312953486657824
 40
-2.836791269037325
 40
-2.836791269037325
 40
-2.360629051416824
 40
-2.360629051416824
 40
-1.884466833796325
 40
-1.884466833796325
 40
-1.413350125347243
 40
-1.413350125347243
 40
-0.9422334168981619
 40
-0.9422334168981619
 40
-0.4711167084490812
 40
-0.4711167084490812
 40
0.0
 40
0.0
 40
0.0
 40
0.0
 10
1125.658321968828
 20
273.3580271885941
 30
0.0
 10
1125.559710014436
 20
273.3580271885941
 30
0.0
 10
1125.458732551175
 20
273.3428733981317
 30
0.0
 10
1125.259916043921
 20
273.2791819266775
 30
0.0
 10
1125.162072505964
 20
273.230660226545
 30
0.0
 10
1124.976161136014
 20
273.1024200370313
 30
0.0
 10
1124.887942297944
 20
273.0226032689543
 30
0.0
 10
1124.72608179673
 20
272.8381267136228
 30
0.0
 10
1124.652435212124
 20
272.7334536634403
 30
0.0
 10
1124.523537546437
 20
272.5113728778837
 30
0.0
 10
1124.463724092543
 20
272.3865509355139
 30
0.0
 10
1124.358722559659
 20
272.1145672646803
 30
0.0
 10
1124.313518353512
 20
271.9674112396676
 30
0.0
 10
1124.241084515878
 20
271.6602168365357
 30
0.0
 10
1124.213789925154
 20
271.4999257457188
 30
0.0
 10
1124.177999471087
 20
271.1773518781884
 30
0.0
 10
1124.1695098477
 20
271.0150660914104
 30
0.0
 10
1124.1695098477
 20
270.8580271885941
 30
0.0
  0
LINE
  5
1282
330
1F
100
AcDbEntity
  8
AM_VIS
100
AcDbLine
 10
1124.1695098477
 20
205.858027188594
 30
0.0
 11
1124.1695098477
 21
270.8580271885941
 31
0.0
  0
SPLINE
  5
1283
330
1F
100
AcDbEntity
  8
AM_VIS
100
AcDbSpline
210
0.0
220
0.0
230
1.0
 70
     8
 71
     3
 72
    22
 73
    18
 74
     0
 42
0.0000000001
 43
0.0000000001
 40
0.0
 40
0.0
 40
0.0
 40
0.0
 40
0.4711167084490837
 40
0.4711167084490837
 40
0.9422334168981672
 40
0.9422334168981672
 40
1.41335012534725
 40
1.41335012534725
 40
1.884466833796333
 40
1.884466833796333
 40
2.360629051416831
 40
2.360629051416831
 40
2.83679126903733
 40
2.83679126903733
 40
3.312953486657828
 40
3.312953486657828
 40
3.789115704278326
 40
3.789115704278326
 40
3.789115704278326
 40
3.789115704278326
 10
1124.1695098477
 20
205.858027188594
 30
0.0
 10
1124.1695098477
 20
205.7009882857777
 30
0.0
 10
1124.177999471087
 20
205.5387024989997
 30
0.0
 10
1124.213789925154
 20
205.2161286314693
 30
0.0
 10
1124.241084515877
 20
205.0558375406524
 30
0.0
 10
1124.313518353512
 20
204.7486431375205
 30
0.0
 10
1124.358722559659
 20
204.6014871125079
 30
0.0
 10
1124.463724092543
 20
204.3295034416743
 30
0.0
 10
1124.523537546437
 20
204.2046814993045
 30
0.0
 10
1124.652435212124
 20
203.9826007137478
 30
0.0
 10
1124.72608179673
 20
203.8779276635653
 30
0.0
 10
1124.887942297944
 20
203.6934511082338
 30
0.0
 10
1124.976161136014
 20
203.6136343401568
 30
0.0
 10
1125.162072505964
 20
203.4853941506431
 30
0.0
 10
1125.259916043921
 20
203.4368724505108
 30
0.0
 10
1125.458732551175
 20
203.3731809790566
 30
0.0
 10
1125.559710014436
 20
203.3580271885941
 30
0.0
 10
1125.658321968828
 20
203.3580271885941
 30
0.0
  0
SPLINE
  5
1284
330
1F
100
AcDbEntity
  8
AM_VIS
100
AcDbSpline
210
0.0
220
0.0
230
1.0
 70
     8
 71
     3
 72
    22
 73
    18
 74
     0
 42
0.0000000001
 43
0.0000000001
 40
3.773562167966562
 40
3.773562167966562
 40
3.773562167966562
 40
3.773562167966562
 40
4.249724385587061
 40
4.249724385587061
 40
4.725886603207559
 40
4.725886603207559
 40
5.202048820828058
 40
5.202048820828058
 40
5.678211038448558
 40
5.678211038448558
 40
6.149327746897641
 40
6.149327746897641
 40
6.620444455346723
 40
6.620444455346723
 40
7.091561163795807
 40
7.091561163795807
 40
7.562677872244889
 40
7.562677872244889
 40
7.562677872244889
 40
7.562677872244889
 10
1173.456640008392
 20
203.3580271885941
 30
0.0
 10
1173.555251962784
 20
203.3580271885941
 30
0.0
 10
1173.656229426045
 20
203.3731809790566
 30
0.0
 10
1173.855045933299
 20
203.4368724505108
 30
0.0
 10
1173.952889471256
 20
203.4853941506431
 30
0.0
 10
1174.138800841207
 20
203.6136343401568
 30
0.0
 10
1174.227019679276
 20
203.6934511082338
 30
0.0
 10
1174.38888018049
 20
203.8779276635653
 30
0.0
 10
1174.462526765096
 20
203.9826007137478
 30
0.0
 10
1174.591424430784
 20
204.2046814993045
 30
0.0
 10
1174.651237884677
 20
204.3295034416743
 30
0.0
 10
1174.756239417561
 20
204.6014871125079
 30
0.0
 10
1174.801443623708
 20
204.7486431375205
 30
0.0
 10
1174.873877461342
 20
205.0558375406524
 30
0.0
 10
1174.901172052066
 20
205.2161286314693
 30
0.0
 10
1174.936962506133
 20
205.5387024989997
 30
0.0
 10
1174.94545212952
 20
205.7009882857777
 30
0.0
 10
1174.94545212952
 20
205.858027188594
 30
0.0
  0
LINE
  5
1285
330
1F
100
AcDbEntity
  8
AM_VIS
100
AcDbLine
 10
1174.94545212952
 20
270.8580271885941
 30
0.0
 11
1174.94545212952
 21
205.858027188594
 31
0.0
  0
SPLINE
  5
1286
330
1F
100
AcDbEntity
  8
AM_VIS
100
AcDbSpline
210
0.0
220
0.0
230
1.0
 70
     8
 71
     3
 72
    22
 73
    18
 74
     0
 42
0.0000000001
 43
0.0000000001
 40
7.562677872244875
 40
7.562677872244875
 40
7.562677872244875
 40
7.562677872244875
 40
8.033794580693955
 40
8.033794580693955
 40
8.504911289143034
 40
8.504911289143034
 40
8.976027997592115
 40
8.976027997592115
 40
9.447144706041195
 40
9.447144706041195
 40
9.923306923661693
 40
9.923306923661693
 40
10.39946914128219
 40
10.39946914128219
 40
10.87563135890269
 40
10.87563135890269
 40
11.3517935765232
 40
11.3517935765232
 40
11.3517935765232
 40
11.3517935765232
 10
1174.94545212952
 20
270.8580271885941
 30
0.0
 10
1174.94545212952
 20
271.0150660914104
 30
0.0
 10
1174.936962506133
 20
271.1773518781884
 30
0.0
 10
1174.901172052066
 20
271.4999257457188
 30
0.0
 10
1174.873877461342
 20
271.6602168365357
 30
0.0
 10
1174.801443623708
 20
271.9674112396676
 30
0.0
 10
1174.756239417561
 20
272.1145672646803
 30
0.0
 10
1174.651237884677
 20
272.3865509355139
 30
0.0
 10
1174.591424430784
 20
272.5113728778837
 30
0.0
 10
1174.462526765096
 20
272.7334536634403
 30
0.0
 10
1174.38888018049
 20
272.8381267136228
 30
0.0
 10
1174.227019679276
 20
273.0226032689543
 30
0.0
 10
1174.138800841207
 20
273.1024200370313
 30
0.0
 10
1173.952889471256
 20
273.230660226545
 30
0.0
 10
1173.855045933299
 20
273.2791819266775
 30
0.0
 10
1173.656229426045
 20
273.3428733981317
 30
0.0
 10
1173.555251962784
 20
273.3580271885941
 30
0.0
 10
1173.456640008392
 20
273.3580271885941
 30
0.0
  0
SPLINE
  5
1287
330
1F
100
AcDbEntity
  8
AM_VIS
100
AcDbSpline
210
0.0
220
0.0
230
1.0
 70
     8
 71
     3
 72
    22
 73
    18
 74
     0
 42
0.0000000001
 43
0.0000000001
 40
-3.789115704278325
 40
-3.789115704278325
 40
-3.789115704278325
 40
-3.789115704278325
 40
-3.312953486657824
 40
-3.312953486657824
 40
-2.836791269037325
 40
-2.836791269037325
 40
-2.360629051416824
 40
-2.360629051416824
 40
-1.884466833796325
 40
-1.884466833796325
 40
-1.413350125347244
 40
-1.413350125347244
 40
-0.9422334168981636
 40
-0.9422334168981636
 40
-0.4711167084490829
 40
-0.4711167084490829
 40
0.0
 40
0.0
 40
0.0
 40
0.0
 10
1168.506892540086
 20
273.3580271885941
 30
0.0
 10
1168.382522304478
 20
273.3580271885941
 30
0.0
 10
1168.253121993893
 20
273.3428733981317
 30
0.0
 10
1167.993993853245
 20
273.2791819266775
 30
0.0
 10
1167.864265543492
 20
273.230660226545
 30
0.0
 10
1167.613865734213
 20
273.1024200370313
 30
0.0
 10
1167.493005541475
 20
273.0226032689543
 30
0.0
 10
1167.268234625037
 20
272.8381267136228
 30
0.0
 10
1167.164338331103
 20
272.7334536634403
 30
0.0
 10
1166.980573078681
 20
272.5113728778837
 30
0.0
 10
1166.894204195672
 20
272.3865509355139
 30
0.0
 10
1166.741228553002
 20
272.1145672646803
 30
0.0
 10
1166.674622722928
 20
271.9674112396676
 30
0.0
 10
1166.567309334965
 20
271.6602168365357
 30
0.0
 10
1166.526522243887
 20
271.4999257457188
 30
0.0
 10
1166.472945976161
 20
271.1773518781884
 30
0.0
 10
1166.460170755281
 20
271.0150660914105
 30
0.0
 10
1166.460170755281
 20
270.8580271885941
 30
0.0
  0
LINE
  5
1288
330
1F
100
AcDbEntity
  8
AM_VIS
100
AcDbLine
 10
1166.460170755281
 20
205.858027188594
 30
0.0
 11
1166.460170755281
 21
270.8580271885941
 31
0.0
  0
SPLINE
  5
1289
330
1F
100
AcDbEntity
  8
AM_VIS
100
AcDbSpline
210
0.0
220
0.0
230
1.0
 70
     8
 71
     3
 72
    22
 73
    18
 74
     0
 42
0.0000000001
 43
0.0000000001
 40
0.0
 40
0.0
 40
0.0
 40
0.0
 40
0.4711167084490829
 40
0.4711167084490829
 40
0.9422334168981658
 40
0.9422334168981658
 40
1.413350125347248
 40
1.413350125347248
 40
1.884466833796331
 40
1.884466833796331
 40
2.360629051416831
 40
2.360629051416831
 40
2.83679126903733
 40
2.83679126903733
 40
3.312953486657828
 40
3.312953486657828
 40
3.789115704278326
 40
3.789115704278326
 40
3.789115704278326
 40
3.789115704278326
 10
1166.460170755281
 20
205.858027188594
 30
0.0
 10
1166.460170755281
 20
205.7009882857777
 30
0.0
 10
1166.472945976161
 20
205.5387024989997
 30
0.0
 10
1166.526522243887
 20
205.2161286314693
 30
0.0
 10
1166.567309334965
 20
205.0558375406524
 30
0.0
 10
1166.674622722928
 20
204.7486431375205
 30
0.0
 10
1166.741228553002
 20
204.6014871125079
 30
0.0
 10
1166.894204195672
 20
204.3295034416743
 30
0.0
 10
1166.980573078681
 20
204.2046814993045
 30
0.0
 10
1167.164338331103
 20
203.9826007137478
 30
0.0
 10
1167.268234625037
 20
203.8779276635653
 30
0.0
 10
1167.493005541475
 20
203.6934511082338
 30
0.0
 10
1167.613865734213
 20
203.6136343401568
 30
0.0
 10
1167.864265543492
 20
203.4853941506431
 30
0.0
 10
1167.993993853245
 20
203.4368724505108
 30
0.0
 10
1168.253121993893
 20
203.3731809790566
 30
0.0
 10
1168.382522304478
 20
203.3580271885941
 30
0.0
 10
1168.506892540086
 20
203.3580271885941
 30
0.0
  0
LINE
  5
128A
330
1F
100
AcDbEntity
  8
AM_VIS
100
AcDbLine
 10
1120.921838862057
 20
283.3580271885941
 30
0.0
 11
1120.921838862057
 21
258.3580271885941
 31
0.0
  0
LINE
  5
128B
330
1F
100
AcDbEntity
  8
AM_VIS
100
AcDbLine
 10
1138.55748098861
 20
187.358027188594
 30
0.0
 11
1138.55748098861
 21
184.358027188594
 31
0.0
  0
LINE
  5
128C
330
1F
100
AcDbEntity
  8
AM_VIS
100
AcDbLine
 10
1160.55748098861
 20
187.358027188594
 30
0.0
 11
1160.55748098861
 21
184.358027188594
 31
0.0
  0
LINE
  5
128D
330
1F
100
AcDbEntity
  8
AM_VIS
100
AcDbLine
 10
1119.05748098861
 20
258.3580271885941
 30
0.0
 11
1119.05748098861
 21
197.5210940810138
 31
0.0
  0
LINE
  5
128E
330
1F
100
AcDbEntity
  8
AM_VIS
100
AcDbLine
 10
1180.05748098861
 20
283.3580271885941
 30
0.0
 11
1180.05748098861
 21
197.5210940810138
 31
0.0
  0
LINE
  5
128F
330
1F
100
AcDbEntity
  8
AM_VIS
100
AcDbLine
 10
1158.55748098861
 20
182.358027188594
 30
0.0
 11
1140.55748098861
 21
182.358027188594
 31
0.0
  0
LINE
  5
1290
330
1F
100
AcDbEntity
  8
AM_VIS
100
AcDbLine
 10
1138.05748098861
 20
187.358027188594
 30
0.0
 11
1161.05748098861
 21
187.358027188594
 31
0.0
  0
LINE
  5
1291
330
1F
100
AcDbEntity
  8
AM_VIS
100
AcDbLine
 10
1130.608069437134
 20
273.3580271885941
 30
0.0
 11
1125.658321968828
 21
273.3580271885941
 31
0.0
  0
LINE
  5
1292
330
1F
100
AcDbEntity
  8
AM_VIS
100
AcDbLine
 10
1125.658321968828
 20
203.3580271885941
 30
0.0
 11
1130.608069437134
 21
203.3580271885941
 31
0.0
  0
LINE
  5
1293
330
1F
100
AcDbEntity
  8
AM_VIS
100
AcDbLine
 10
1173.456640008392
 20
273.3580271885941
 30
0.0
 11
1168.506892540086
 21
273.3580271885941
 31
0.0
  0
LINE
  5
1294
330
1F
100
AcDbEntity
  8
AM_VIS
100
AcDbLine
 10
1168.506892540086
 20
203.3580271885941
 30
0.0
 11
1173.456640008392
 21
203.3580271885941
 31
0.0
  0
ARC
  5
1295
330
1F
100
AcDbEntity
  8
AM_VIS
100
AcDbCircle
 10
1140.55748098861
 20
184.358027188594
 30
0.0
 40
2.0
100
AcDbArc
 50
180.0
 51
270.0
  0
ARC
  5
1296
330
1F
100
AcDbEntity
  8
AM_VIS
100
AcDbCircle
 10
1158.55748098861
 20
184.358027188594
 30
0.0
 40
2.0
100
AcDbArc
 50
270.0
 51
0.0
  0
ARC
  5
1297
330
1F
100
AcDbEntity
  8
AM_VIS
100
AcDbCircle
 10
1138.05748098861
 20
213.9205271885941
 30
0.0
 40
26.56250000000001
100
AcDbArc
 50
229.5130104454951
 51
270.0
  0
ARC
  5
1298
330
1F
100
AcDbEntity
  8
AM_VIS
100
AcDbCircle
 10
1161.05748098861
 20
213.9205271885941
 30
0.0
 40
26.56250000000001
100
AcDbArc
 50
270.0
 51
310.4869895545049
  0
ARC
  5
1299
330
1F
100
AcDbEntity
  8
AM_VIS
100
AcDbCircle
 10
1124.05748098861
 20
197.5210940810138
 30
0.0
 40
5.0
100
AcDbArc
 50
180.0
 51
229.513010445494
  0
ARC
  5
129A
330
1F
100
AcDbEntity
  8
AM_VIS
100
AcDbCircle
 10
1175.05748098861
 20
197.5210940810138
 30
0.0
 40
5.0
100
AcDbArc
 50
310.486989554506
 51
0.0
  0
LINE
  5
129B
330
1F
100
AcDbEntity
  8
AM_7
100
AcDbLine
 10
1043.840716022325
 20
333.3330271885941
 30
0.0
 11
1043.840716022325
 21
358.3160728906282
 31
0.0
  0
LINE
  5
129C
330
1F
100
AcDbEntity
  8
AM_7
100
AcDbLine
 10
1067.840716022325
 20
333.7080271885942
 30
0.0
 11
1067.840716022325
 21
348.8590105989195
 31
0.0
  0
LINE
  5
129D
330
1F
100
AcDbEntity
  8
AM_7
100
AcDbLine
 10
1059.840716022325
 20
338.4130814797184
 30
0.0
 11
1059.840716022325
 21
179.408027188594
 31
0.0
  0
LINE
  5
129E
330
1F
100
AcDbEntity
  8
AM_7
100
AcDbLine
 10
1043.840716022325
 20
413.9422188731107
 30
0.0
 11
1043.840716022325
 21
413.9422188731107
 31
0.0
  0
LINE
  5
129F
330
1F
100
AcDbEntity
  8
AM_7
100
AcDbLine
 10
1043.840716022325
 20
413.9422188731107
 30
0.0
 11
1043.840716022325
 21
413.9422188731107
 31
0.0
  0
LINE
  5
12A0
330
1F
100
AcDbEntity
  8
AM_7
100
AcDbLine
 10
1032.840716022325
 20
413.9422188731107
 30
0.0
 11
1043.840716022325
 21
413.9422188731107
 31
0.0
  0
LINE
  5
12A1
330
1F
100
AcDbEntity
  8
AM_7
100
AcDbLine
 10
1043.840716022325
 20
413.9422188731107
 30
0.0
 11
1054.840716022325
 21
413.9422188731107
 31
0.0
  0
LINE
  5
12A2
330
1F
100
AcDbEntity
  8
AM_7
100
AcDbLine
 10
1043.840716022325
 20
402.9422188731108
 30
0.0
 11
1043.840716022325
 21
413.9422188731107
 31
0.0
  0
LINE
  5
12A3
330
1F
100
AcDbEntity
  8
AM_7
100
AcDbLine
 10
1043.840716022325
 20
413.9422188731107
 30
0.0
 11
1043.840716022325
 21
424.9422188731108
 31
0.0
  0
LINE
  5
12A4
330
1F
100
AcDbEntity
  8
AM_7
100
AcDbLine
 10
1067.840716022325
 20
395.9422188731108
 30
0.0
 11
1067.840716022325
 21
395.9422188731108
 31
0.0
  0
LINE
  5
12A5
330
1F
100
AcDbEntity
  8
AM_7
100
AcDbLine
 10
1067.840716022325
 20
395.9422188731108
 30
0.0
 11
1067.840716022325
 21
395.9422188731108
 31
0.0
  0
LINE
  5
12A6
330
1F
100
AcDbEntity
  8
AM_7
100
AcDbLine
 10
1058.490716022325
 20
395.9422188731108
 30
0.0
 11
1067.840716022325
 21
395.9422188731108
 31
0.0
  0
LINE
  5
12A7
330
1F
100
AcDbEntity
  8
AM_7
100
AcDbLine
 10
1067.840716022325
 20
395.9422188731108
 30
0.0
 11
1077.190716022325
 21
395.9422188731108
 31
0.0
  0
LINE
  5
12A8
330
1F
100
AcDbEntity
  8
AM_7
100
AcDbLine
 10
1067.840716022325
 20
386.5922188731108
 30
0.0
 11
1067.840716022325
 21
395.9422188731108
 31
0.0
  0
LINE
  5
12A9
330
1F
100
AcDbEntity
  8
AM_7
100
AcDbLine
 10
1067.840716022325
 20
395.9422188731108
 30
0.0
 11
1067.840716022325
 21
405.2922188731106
 31
0.0
  0
LINE
  5
12AA
330
1F
100
AcDbEntity
  8
AM_7
100
AcDbLine
 10
1067.840716022325
 20
431.9422188731108
 30
0.0
 11
1067.840716022325
 21
431.9422188731108
 31
0.0
  0
LINE
  5
12AB
330
1F
100
AcDbEntity
  8
AM_7
100
AcDbLine
 10
1067.840716022325
 20
431.9422188731108
 30
0.0
 11
1067.840716022325
 21
431.9422188731108
 31
0.0
  0
LINE
  5
12AC
330
1F
100
AcDbEntity
  8
AM_7
100
AcDbLine
 10
1062.890716022325
 20
431.9422188731108
 30
0.0
 11
1067.840716022325
 21
431.9422188731108
 31
0.0
  0
LINE
  5
12AD
330
1F
100
AcDbEntity
  8
AM_7
100
AcDbLine
 10
1067.840716022325
 20
431.9422188731108
 30
0.0
 11
1072.790716022325
 21
431.9422188731108
 31
0.0
  0
LINE
  5
12AE
330
1F
100
AcDbEntity
  8
AM_7
100
AcDbLine
 10
1067.840716022325
 20
426.9922188731108
 30
0.0
 11
1067.840716022325
 21
431.9422188731108
 31
0.0
  0
LINE
  5
12AF
330
1F
100
AcDbEntity
  8
AM_7
100
AcDbLine
 10
1067.840716022325
 20
431.9422188731108
 30
0.0
 11
1067.840716022325
 21
436.8922188731108
 31
0.0
  0
LINE
  5
12B1
330
1F
100
AcDbEntity
  8
AM_7
100
AcDbLine
 10
1131.55748098861
 20
332.6449592334095
 30
0.0
 11
1131.55748098861
 21
347.4893776239187
 31
0.0
  0
LINE
  5
12B2
330
1F
100
AcDbEntity
  8
AM_7
100
AcDbLine
 10
1167.55748098861
 20
332.4364521871118
 30
0.0
 11
1167.55748098861
 21
349.6445021114184
 31
0.0
  0
LINE
  5
12B5
330
1F
100
AcDbEntity
  8
AM_7
100
AcDbLine
 10
1135.80748098861
 20
316.8580271885941
 30
0.0
 11
1149.55748098861
 21
316.8580271885941
 31
0.0
  0
LINE
  5
12B6
330
1F
100
AcDbEntity
  8
AM_7
100
AcDbLine
 10
1149.55748098861
 20
316.8580271885941
 30
0.0
 11
1163.30748098861
 21
316.8580271885941
 31
0.0
  0
LINE
  5
12B9
330
1F
100
AcDbEntity
  8
AM_7
100
AcDbLine
 10
1149.55748098861
 20
358.892045200329
 30
0.0
 11
1149.55748098861
 21
179.408027188594
 31
0.0
  0
LINE
  5
12BA
330
1F
100
AcDbEntity
  8
AM_VIS
100
AcDbLine
 10
1092.540716022325
 20
298.8580271885941
 30
0.0
 11
1094.840716022325
 21
298.8580271885941
 31
0.0
  0
LINE
  5
12BB
330
1F
100
AcDbEntity
  8
AM_VIS
100
AcDbLine
 10
1092.540716022325
 20
295.358027188594
 30
0.0
 11
1092.540716022325
 21
298.8580271885941
 31
0.0
  0
LINE
  5
12BC
330
1F
100
AcDbEntity
  8
AM_VIS
100
AcDbLine
 10
1094.840716022325
 20
295.358027188594
 30
0.0
 11
1092.540716022325
 21
295.358027188594
 31
0.0
  0
LINE
  5
12BD
330
1F
100
AcDbEntity
  8
AM_VIS
100
AcDbLine
 10
1094.840716022325
 20
283.3580271885941
 30
0.0
 11
1094.840716022325
 21
295.358027188594
 31
0.0
  0
LINE
  5
12BE
330
1F
100
AcDbEntity
  8
AM_VIS
100
AcDbLine
 10
1094.840716022325
 20
298.8580271885941
 30
0.0
 11
1094.840716022325
 21
329.3580271885941
 31
0.0
  0
LINE
  5
12BF
330
1F
100
AcDbEntity
  8
AM_VIS
100
AcDbLine
 10
1032.800055778724
 20
304.8580271885941
 30
0.0
 11
1028.840716022325
 21
304.8580271885941
 31
0.0
  0
LINE
  5
12C0
330
1F
100
AcDbEntity
  8
AM_VIS
100
AcDbLine
 10
1090.840716022325
 20
304.8580271885941
 30
0.0
 11
1086.881376265926
 21
304.8580271885941
 31
0.0
  0
LINE
  5
12C1
330
1F
100
AcDbEntity
  8
AM_VIS
100
AcDbLine
 10
1090.840716022325
 20
283.3580271885941
 30
0.0
 11
1090.840716022325
 21
304.8580271885941
 31
0.0
  0
LINE
  5
12C2
330
1F
100
AcDbEntity
  8
AM_VIS
100
AcDbLine
 10
1083.983598787059
 20
304.8580271885941
 30
0.0
 11
1035.697833257591
 21
304.8580271885941
 31
0.0
  0
LINE
  5
12C3
330
1F
100
AcDbEntity
  8
AM_VIS
100
AcDbLine
 10
1028.840716022325
 20
283.3580271885941
 30
0.0
 11
1032.800055778724
 21
283.3580271885941
 31
0.0
  0
LINE
  5
12C4
330
1F
100
AcDbEntity
  8
AM_VIS
100
AcDbLine
 10
1035.697833257591
 20
283.3580271885941
 30
0.0
 11
1083.983598787059
 21
283.3580271885941
 31
0.0
  0
LINE
  5
12C5
330
1F
100
AcDbEntity
  8
AM_VIS
100
AcDbLine
 10
1086.881376265926
 20
283.3580271885941
 30
0.0
 11
1090.840716022325
 21
283.3580271885941
 31
0.0
  0
LINE
  5
12C6
330
1F
100
AcDbEntity
  8
AM_VIS
100
AcDbLine
 10
1090.840716022325
 20
283.3580271885941
 30
0.0
 11
1094.840716022325
 21
283.3580271885941
 31
0.0
  0
LINE
  5
12C7
330
1F
100
AcDbEntity
  8
AM_VIS
100
AcDbLine
 10
1028.840716022325
 20
304.8580271885941
 30
0.0
 11
1028.840716022325
 21
283.3580271885941
 31
0.0
  0
LINE
  5
12C8
330
1F
100
AcDbEntity
  8
AM_VIS
100
AcDbLine
 10
1024.840716022325
 20
283.3580271885941
 30
0.0
 11
1028.840716022325
 21
283.3580271885941
 31
0.0
  0
LINE
  5
12C9
330
1F
100
AcDbEntity
  8
AM_VIS
100
AcDbLine
 10
1024.840716022325
 20
283.3580271885941
 30
0.0
 11
1024.840716022325
 21
295.358027188594
 31
0.0
  0
LINE
  5
12CA
330
1F
100
AcDbEntity
  8
AM_VIS
100
AcDbLine
 10
1027.140716022325
 20
295.358027188594
 30
0.0
 11
1024.840716022325
 21
295.358027188594
 31
0.0
  0
LINE
  5
12CB
330
1F
100
AcDbEntity
  8
AM_VIS
100
AcDbLine
 10
1027.140716022325
 20
298.8580271885941
 30
0.0
 11
1027.140716022325
 21
295.358027188594
 31
0.0
  0
LINE
  5
12CC
330
1F
100
AcDbEntity
  8
AM_VIS
100
AcDbLine
 10
1024.840716022325
 20
298.8580271885941
 30
0.0
 11
1027.140716022325
 21
298.8580271885941
 31
0.0
  0
LINE
  5
12CD
330
1F
100
AcDbEntity
  8
AM_VIS
100
AcDbLine
 10
1024.840716022325
 20
298.8580271885941
 30
0.0
 11
1024.840716022325
 21
329.3580271885941
 31
0.0
  0
LINE
  5
12CE
330
1F
100
AcDbEntity
  8
AM_VIS
100
AcDbLine
 10
1029.036868445031
 20
329.3580271885941
 30
0.0
 11
1029.036868445031
 21
304.8580271885941
 31
0.0
  0
LINE
  5
12CF
330
1F
100
AcDbEntity
  8
AM_VIS
100
AcDbLine
 10
1094.840716022325
 20
329.3580271885941
 30
0.0
 11
1094.840716022325
 21
334.3580271885941
 31
0.0
  0
LINE
  5
12D0
330
1F
100
AcDbEntity
  8
AM_VIS
100
AcDbLine
 10
1090.644563599619
 20
329.3580271885941
 30
0.0
 11
1094.840716022325
 21
329.3580271885941
 31
0.0
  0
LINE
  5
12D1
330
1F
100
AcDbEntity
  8
AM_VIS
100
AcDbLine
 10
1080.840716022325
 20
332.3580271885941
 30
0.0
 11
1089.840716022325
 21
332.3580271885941
 31
0.0
  0
LINE
  5
12D2
330
1F
100
AcDbEntity
  8
AM_VIS
100
AcDbLine
 10
1090.644563599619
 20
304.8580271885941
 30
0.0
 11
1090.644563599619
 21
329.3580271885941
 31
0.0
  0
LINE
  5
12D3
330
1F
100
AcDbEntity
  8
AM_VIS
100
AcDbLine
 10
1089.840716022325
 20
304.8580271885941
 30
0.0
 11
1089.840716022325
 21
332.3580271885941
 31
0.0
  0
LINE
  5
12D4
330
1F
100
AcDbEntity
  8
AM_VIS
100
AcDbLine
 10
1090.644563599619
 20
329.3580271885941
 30
0.0
 11
1089.840716022325
 21
332.3580271885941
 31
0.0
  0
LINE
  5
12D5
330
1F
100
AcDbEntity
  8
AM_VIS
100
AcDbLine
 10
1029.840716022325
 20
332.3580271885941
 30
0.0
 11
1029.036868445031
 21
329.3580271885941
 31
0.0
  0
LINE
  5
12D6
330
1F
100
AcDbEntity
  8
AM_VIS
100
AcDbLine
 10
1024.840716022325
 20
329.3580271885941
 30
0.0
 11
1029.036868445031
 21
329.3580271885941
 31
0.0
  0
LINE
  5
12D7
330
1F
100
AcDbEntity
  8
AM_VIS
100
AcDbLine
 10
1024.840716022325
 20
334.3580271885941
 30
0.0
 11
1024.840716022325
 21
329.3580271885941
 31
0.0
  0
LINE
  5
12D8
330
1F
100
AcDbEntity
  8
AM_VIS
100
AcDbLine
 10
1029.840716022325
 20
304.8580271885941
 30
0.0
 11
1029.840716022325
 21
332.3580271885941
 31
0.0
  0
LINE
  5
12D9
330
1F
100
AcDbEntity
  8
AM_VIS
100
AcDbLine
 10
1029.840716022325
 20
332.3580271885941
 30
0.0
 11
1054.840716022325
 21
332.3580271885941
 31
0.0
  0
LINE
  5
12DA
330
1F
100
AcDbEntity
  8
AM_VIS
100
AcDbLine
 10
1080.840716022325
 20
332.3580271885941
 30
0.0
 11
1080.840716022325
 21
334.3580271885941
 31
0.0
  0
LINE
  5
12DB
330
1F
100
AcDbEntity
  8
AM_VIS
100
AcDbLine
 10
1080.840716022325
 20
332.3580271885941
 30
0.0
 11
1080.840716022325
 21
304.8580271885941
 31
0.0
  0
LINE
  5
12DC
330
1F
100
AcDbEntity
  8
AM_VIS
100
AcDbLine
 10
1038.840716022325
 20
304.8580271885941
 30
0.0
 11
1038.840716022325
 21
328.8580271885941
 31
0.0
  0
LINE
  5
12DD
330
1F
100
AcDbEntity
  8
AM_VIS
100
AcDbLine
 10
1041.658908654878
 20
328.8580271885941
 30
0.0
 11
1038.840716022325
 21
328.8580271885941
 31
0.0
  0
LINE
  5
12DE
330
1F
100
AcDbEntity
  8
AM_VIS
100
AcDbLine
 10
1059.590760307456
 20
328.8580271885941
 30
0.0
 11
1043.590760307457
 21
328.8580271885941
 31
0.0
  0
LINE
  5
12DF
330
1F
100
AcDbEntity
  8
AM_VIS
100
AcDbLine
 10
1054.840716022325
 20
334.3580271885941
 30
0.0
 11
1024.840716022325
 21
334.3580271885941
 31
0.0
  0
LINE
  5
12E0
330
1F
100
AcDbEntity
  8
AM_VIS
100
AcDbLine
 10
1094.840716022325
 20
334.3580271885941
 30
0.0
 11
1080.840716022325
 21
334.3580271885941
 31
0.0
  0
LINE
  5
12E1
330
1F
100
AcDbEntity
  8
AM_VIS
100
AcDbLine
 10
1080.840716022325
 20
334.3580271885941
 30
0.0
 11
1078.022523389772
 21
334.3580271885941
 31
0.0
  0
LINE
  5
12E2
330
1F
100
AcDbEntity
  8
AM_VIS
100
AcDbLine
 10
1076.090671737194
 20
334.3580271885941
 30
0.0
 11
1059.590760307456
 21
334.3580271885941
 31
0.0
  0
LINE
  5
12E3
330
1F
100
AcDbEntity
  8
AM_VIS
100
AcDbLine
 10
1054.840716022325
 20
328.8580271885941
 30
0.0
 11
1054.840716022325
 21
332.3580271885941
 31
0.0
  0
LINE
  5
12E4
330
1F
100
AcDbEntity
  8
AM_VIS
100
AcDbLine
 10
1054.840716022325
 20
334.3580271885941
 30
0.0
 11
1054.840716022325
 21
332.3580271885941
 31
0.0
  0
LINE
  5
12E5
330
1F
100
AcDbEntity
  8
AM_VIS
100
AcDbLine
 10
1057.658908654878
 20
334.3580271885941
 30
0.0
 11
1054.840716022325
 21
334.3580271885941
 31
0.0
  0
LINE
  5
12E6
330
1F
100
AcDbEntity
  8
AM_VIS
100
AcDbLine
 10
1033.867037916164
 20
341.3580271885941
 30
0.0
 11
1033.867037916164
 21
339.3580271885941
 31
0.0
  0
LINE
  5
12E7
330
1F
100
AcDbEntity
  8
AM_VIS
100
AcDbLine
 10
1038.225936863806
 20
341.3580271885941
 30
0.0
 11
1033.867037916164
 21
341.3580271885941
 31
0.0
  0
LINE
  5
12E8
330
1F
100
AcDbEntity
  8
AM_VIS
100
AcDbLine
 10
1038.225936863806
 20
339.3580271885941
 30
0.0
 11
1038.225936863806
 21
341.3580271885941
 31
0.0
  0
LINE
  5
12E9
330
1F
100
AcDbEntity
  8
AM_VIS
100
AcDbLine
 10
1039.481817078784
 20
341.3580271885941
 30
0.0
 11
1039.481817078784
 21
339.3580271885941
 31
0.0
  0
LINE
  5
12EA
330
1F
100
AcDbEntity
  8
AM_VIS
100
AcDbLine
 10
1048.199614965866
 20
341.3580271885941
 30
0.0
 11
1039.481817078784
 21
341.3580271885941
 31
0.0
  0
LINE
  5
12EB
330
1F
100
AcDbEntity
  8
AM_VIS
100
AcDbLine
 10
1048.199614965866
 20
339.3580271885941
 30
0.0
 11
1048.199614965866
 21
341.3580271885941
 31
0.0
  0
LINE
  5
12EC
330
1F
100
AcDbEntity
  8
AM_VIS
100
AcDbLine
 10
1053.814394128486
 20
341.3580271885941
 30
0.0
 11
1049.455495180844
 21
341.3580271885941
 31
0.0
  0
LINE
  5
12ED
330
1F
100
AcDbEntity
  8
AM_VIS
100
AcDbLine
 10
1053.814394128486
 20
339.3580271885941
 30
0.0
 11
1053.814394128486
 21
341.3580271885941
 31
0.0
  0
LINE
  5
12EE
330
1F
100
AcDbEntity
  8
AM_VIS
100
AcDbLine
 10
1049.455495180844
 20
341.3580271885941
 30
0.0
 11
1049.455495180844
 21
339.3580271885941
 31
0.0
  0
LINE
  5
12EF
330
1F
100
AcDbEntity
  8
AM_VIS
100
AcDbLine
 10
1053.840716022325
 20
334.3580271885941
 30
0.0
 11
1053.840716022325
 21
341.3580271885941
 31
0.0
  0
LINE
  5
12F0
330
1F
100
AcDbEntity
  8
AM_VIS
100
AcDbLine
 10
1033.840716022325
 20
334.3580271885941
 30
0.0
 11
1033.840716022325
 21
341.3580271885941
 31
0.0
  0
LINE
  5
12F1
330
1F
100
AcDbEntity
  8
AM_VIS
100
AcDbLine
 10
1050.840716022325
 20
341.3580271885941
 30
0.0
 11
1050.840716022325
 21
354.8580271885941
 31
0.0
  0
LINE
  5
12F2
330
1F
100
AcDbEntity
  8
AM_VIS
100
AcDbLine
 10
1036.840716022325
 20
341.3580271885941
 30
0.0
 11
1036.840716022325
 21
354.8580271885941
 31
0.0
  0
LINE
  5
12F3
330
1F
100
AcDbEntity
  8
AM_VIS
100
AcDbLine
 10
1076.340716022325
 20
334.3580271885941
 30
0.0
 11
1076.340716022325
 21
344.3580271885941
 31
0.0
  0
LINE
  5
12F4
330
1F
100
AcDbEntity
  8
AM_VIS
100
AcDbLine
 10
1059.340716022325
 20
334.3580271885941
 30
0.0
 11
1059.340716022325
 21
344.3580271885941
 31
0.0
  0
LINE
  5
12F5
330
1F
100
AcDbEntity
  8
AM_VIS
100
AcDbLine
 10
1072.340716022325
 20
344.3580271885941
 30
0.0
 11
1072.340716022325
 21
347.358027188594
 31
0.0
  0
LINE
  5
12F6
330
1F
100
AcDbEntity
  8
AM_VIS
100
AcDbLine
 10
1063.340716022325
 20
344.3580271885941
 30
0.0
 11
1063.340716022325
 21
347.358027188594
 31
0.0
  0
LINE
  5
12F7
330
1F
100
AcDbEntity
  8
AM_VIS
100
AcDbLine
 10
1063.840716022325
 20
347.8580271885941
 30
0.0
 11
1063.340716022325
 21
347.358027188594
 31
0.0
  0
LINE
  5
12F8
330
1F
100
AcDbEntity
  8
AM_VIS
100
AcDbLine
 10
1071.840716022325
 20
347.8580271885941
 30
0.0
 11
1072.340716022325
 21
347.358027188594
 31
0.0
  0
LINE
  5
12F9
330
1F
100
AcDbEntity
  8
AM_VIS
100
AcDbLine
 10
1032.800055778724
 20
304.8580271885941
 30
0.0
 11
1035.697833257591
 21
304.8580271885941
 31
0.0
  0
LINE
  5
12FA
330
1F
100
AcDbEntity
  8
AM_VIS
100
AcDbLine
 10
1083.983598787059
 20
304.8580271885941
 30
0.0
 11
1086.881376265926
 21
304.8580271885941
 31
0.0
  0
LINE
  5
12FB
330
1F
100
AcDbEntity
  8
AM_VIS
100
AcDbLine
 10
1035.697833257591
 20
283.3580271885941
 30
0.0
 11
1032.800055778724
 21
283.3580271885941
 31
0.0
  0
LINE
  5
12FC
330
1F
100
AcDbEntity
  8
AM_VIS
100
AcDbLine
 10
1086.881376265926
 20
283.3580271885941
 30
0.0
 11
1083.983598787059
 21
283.3580271885941
 31
0.0
  0
LINE
  5
12FD
330
1F
100
AcDbEntity
  8
AM_VIS
100
AcDbLine
 10
1041.658908654878
 20
328.8580271885941
 30
0.0
 11
1043.590760307457
 21
328.8580271885941
 31
0.0
  0
LINE
  5
12FE
330
1F
100
AcDbEntity
  8
AM_VIS
100
AcDbLine
 10
1076.090671737194
 20
334.3580271885941
 30
0.0
 11
1078.022523389772
 21
334.3580271885941
 31
0.0
  0
LINE
  5
12FF
330
1F
100
AcDbEntity
  8
AM_VIS
100
AcDbLine
 10
1057.658908654878
 20
334.3580271885941
 30
0.0
 11
1059.590760307456
 21
334.3580271885941
 31
0.0
  0
LINE
  5
1300
330
1F
100
AcDbEntity
  8
AM_VIS
100
AcDbLine
 10
1039.481817078784
 20
339.3580271885941
 30
0.0
 11
1048.199614965866
 21
339.3580271885941
 31
0.0
  0
LINE
  5
1301
330
1F
100
AcDbEntity
  8
AM_VIS
100
AcDbLine
 10
1049.455495180844
 20
339.3580271885941
 30
0.0
 11
1053.814394128486
 21
339.3580271885941
 31
0.0
  0
LINE
  5
1302
330
1F
100
AcDbEntity
  8
AM_VIS
100
AcDbLine
 10
1033.867037916164
 20
339.3580271885941
 30
0.0
 11
1038.225936863806
 21
339.3580271885941
 31
0.0
  0
LINE
  5
1303
330
1F
100
AcDbEntity
  8
AM_VIS
100
AcDbLine
 10
1039.481817078784
 20
341.3580271885941
 30
0.0
 11
1038.225936863806
 21
341.3580271885941
 31
0.0
  0
LINE
  5
1304
330
1F
100
AcDbEntity
  8
AM_VIS
100
AcDbLine
 10
1033.867037916164
 20
341.3580271885941
 30
0.0
 11
1033.840716022325
 21
341.3580271885941
 31
0.0
  0
LINE
  5
1305
330
1F
100
AcDbEntity
  8
AM_VIS
100
AcDbLine
 10
1053.840716022325
 20
341.3580271885941
 30
0.0
 11
1053.814394128486
 21
341.3580271885941
 31
0.0
  0
LINE
  5
1306
330
1F
100
AcDbEntity
  8
AM_VIS
100
AcDbLine
 10
1049.455495180844
 20
341.3580271885941
 30
0.0
 11
1048.199614965866
 21
341.3580271885941
 31
0.0
  0
LINE
  5
1307
330
1F
100
AcDbEntity
  8
AM_VIS
100
AcDbLine
 10
1037.840716022325
 20
355.858027188594
 30
0.0
 11
1049.840716022325
 21
355.858027188594
 31
0.0
  0
LINE
  5
1308
330
1F
100
AcDbEntity
  8
AM_VIS
100
AcDbLine
 10
1059.340716022325
 20
344.3580271885941
 30
0.0
 11
1076.340716022325
 21
344.3580271885941
 31
0.0
  0
LINE
  5
1309
330
1F
100
AcDbEntity
  8
AM_VIS
100
AcDbLine
 10
1072.340716022325
 20
347.358027188594
 30
0.0
 11
1063.340716022325
 21
347.358027188594
 31
0.0
  0
LINE
  5
130A
330
1F
100
AcDbEntity
  8
AM_VIS
100
AcDbLine
 10
1063.840716022325
 20
347.8580271885941
 30
0.0
 11
1071.840716022325
 21
347.8580271885941
 31
0.0
  0
ARC
  5
130B
330
1F
100
AcDbEntity
  8
AM_VIS
100
AcDbCircle
 10
1049.840716022325
 20
354.8580271885941
 30
0.0
 40
1.0
100
AcDbArc
 50
0.0
 51
90.0
  0
ARC
  5
130C
330
1F
100
AcDbEntity
  8
AM_VIS
100
AcDbCircle
 10
1037.840716022325
 20
354.8580271885941
 30
0.0
 40
1.0
100
AcDbArc
 50
90.0
 51
180.0
  0
LINE
  5
130D
330
1F
100
AcDbEntity
  8
AM_VIS
100
AcDbLine
 10
1070.340716022325
 20
265.3580271885941
 30
0.0
 11
1070.340716022325
 21
258.3580271885941
 31
0.0
  0
LINE
  5
130E
330
1F
100
AcDbEntity
  8
AM_VIS
100
AcDbLine
 10
1070.340716022325
 20
258.3580271885941
 30
0.0
 11
1049.340716022325
 21
258.3580271885941
 31
0.0
  0
LINE
  5
130F
330
1F
100
AcDbEntity
  8
AM_VIS
100
AcDbLine
 10
1049.340716022325
 20
258.3580271885941
 30
0.0
 11
1049.340716022325
 21
265.3580271885941
 31
0.0
  0
LINE
  5
1310
330
1F
100
AcDbEntity
  8
AM_VIS
100
AcDbLine
 10
1049.340716022325
 20
265.3580271885941
 30
0.0
 11
1049.340716022325
 21
283.3580271885941
 31
0.0
  0
LINE
  5
1311
330
1F
100
AcDbEntity
  8
AM_VIS
100
AcDbLine
 10
1070.340716022325
 20
283.3580271885941
 30
0.0
 11
1070.340716022325
 21
265.3580271885941
 31
0.0
  0
LINE
  5
1312
330
1F
100
AcDbEntity
  8
AM_VIS
100
AcDbLine
 10
1070.340716022325
 20
265.3580271885941
 30
0.0
 11
1049.340716022325
 21
265.3580271885941
 31
0.0
  0
SPLINE
  5
1313
330
1F
100
AcDbEntity
  8
AM_VIS
100
AcDbSpline
210
0.0
220
0.0
230
1.0
 70
     8
 71
     3
 72
    22
 73
    18
 74
     0
 42
0.0000000001
 43
0.0000000001
 40
-3.791104644221506
 40
-3.791104644221506
 40
-3.791104644221506
 40
-3.791104644221506
 40
-3.314470136663178
 40
-3.314470136663178
 40
-2.83783562910485
 40
-2.83783562910485
 40
-2.361201121546524
 40
-2.361201121546524
 40
-1.884566613988198
 40
-1.884566613988198
 40
-1.413424960491148
 40
-1.413424960491148
 40
-0.9422833069940992
 40
-0.9422833069940992
 40
-0.4711416534970497
 40
-0.4711416534970497
 40
0.0
 40
0.0
 40
0.0
 40
0.0
 10
1036.831572152616
 20
203.3580271885941
 30
0.0
 10
1036.733478346228
 20
203.3580271885941
 30
0.0
 10
1036.633085980819
 20
203.3731931236891
 30
0.0
 10
1036.435532486253
 20
203.436922746201
 30
0.0
 10
1036.338366733414
 20
203.4854702352518
 30
0.0
 10
1036.153838674473
 20
203.6137703875092
 30
0.0
 10
1036.066326457743
 20
203.6936210327728
 30
0.0
 10
1035.905833119217
 20
203.878176998772
 30
0.0
 10
1035.83284659835
 20
203.9828957368212
 30
0.0
 10
1035.705206917075
 20
204.2049863077689
 30
0.0
 10
1035.646021223698
 20
204.3297575709935
 30
0.0
 10
1035.542141823914
 20
204.6016465333056
 30
0.0
 10
1035.49743162642
 20
204.7487587071273
 30
0.0
 10
1035.425796461694
 20
205.0558835861086
 30
0.0
 10
1035.398806799681
 20
205.216149664114
 30
0.0
 10
1035.363416012838
 20
205.5386963336653
 30
0.0
 10
1035.355020970807
 20
205.7009799707617
 30
0.0
 10
1035.355020970807
 20
205.858027188594
 30
0.0
  0
LINE
  5
1314
330
1F
100
AcDbEntity
  8
AM_VIS
100
AcDbLine
 10
1035.355020970807
 20
205.858027188594
 30
0.0
 11
1035.355020970807
 21
270.8580271885941
 31
0.0
  0
SPLINE
  5
1315
330
1F
100
AcDbEntity
  8
AM_VIS
100
AcDbSpline
210
0.0
220
0.0
230
1.0
 70
     8
 71
     3
 72
    22
 73
    18
 74
     0
 42
0.0000000001
 43
0.0000000001
 40
0.0
 40
0.0
 40
0.0
 40
0.0
 40
0.4711416534970509
 40
0.4711416534970509
 40
0.9422833069941015
 40
0.9422833069941015
 40
1.413424960491151
 40
1.413424960491151
 40
1.884566613988203
 40
1.884566613988203
 40
2.361201121546528
 40
2.361201121546528
 40
2.837835629104853
 40
2.837835629104853
 40
3.314470136663179
 40
3.314470136663179
 40
3.791104644221503
 40
3.791104644221503
 40
3.791104644221503
 40
3.791104644221503
 10
1035.355020970807
 20
270.8580271885941
 30
0.0
 10
1035.355020970807
 20
271.0150744064264
 30
0.0
 10
1035.363416012838
 20
271.1773580435227
 30
0.0
 10
1035.398806799681
 20
271.4999047130741
 30
0.0
 10
1035.425796461694
 20
271.6601707910795
 30
0.0
 10
1035.49743162642
 20
271.9672956700608
 30
0.0
 10
1035.542141823914
 20
272.1144078438824
 30
0.0
 10
1035.646021223698
 20
272.3862968061947
 30
0.0
 10
1035.705206917075
 20
272.5110680694192
 30
0.0
 10
1035.83284659835
 20
272.7331586403669
 30
0.0
 10
1035.905833119217
 20
272.8378773784161
 30
0.0
 10
1036.066326457743
 20
273.0224333444153
 30
0.0
 10
1036.153838674473
 20
273.102283989679
 30
0.0
 10
1036.338366733414
 20
273.2305841419364
 30
0.0
 10
1036.435532486253
 20
273.2791316309872
 30
0.0
 10
1036.633085980819
 20
273.3428612534991
 30
0.0
 10
1036.733478346228
 20
273.3580271885941
 30
0.0
 10
1036.831572152616
 20
273.3580271885941
 30
0.0
  0
SPLINE
  5
1316
330
1F
100
AcDbEntity
  8
AM_VIS
100
AcDbSpline
210
0.0
220
0.0
230
1.0
 70
     8
 71
     3
 72
    22
 73
    18
 74
     0
 42
0.0000000001
 43
0.0000000001
 40
3.774151069998001
 40
3.774151069998001
 40
3.774151069998001
 40
3.774151069998001
 40
4.250785577556326
 40
4.250785577556326
 40
4.727420085114653
 40
4.727420085114653
 40
5.20405459267298
 40
5.20405459267298
 40
5.680689100231306
 40
5.680689100231306
 40
6.151830753728357
 40
6.151830753728357
 40
6.622972407225407
 40
6.622972407225407
 40
7.094114060722459
 40
7.094114060722459
 40
7.565255714219508
 40
7.565255714219508
 40
7.565255714219508
 40
7.565255714219508
 10
1082.849859892034
 20
273.3580271885941
 30
0.0
 10
1082.947953698423
 20
273.3580271885941
 30
0.0
 10
1083.048346063831
 20
273.3428612534991
 30
0.0
 10
1083.245899558398
 20
273.2791316309872
 30
0.0
 10
1083.343065311237
 20
273.2305841419364
 30
0.0
 10
1083.527593370178
 20
273.102283989679
 30
0.0
 10
1083.615105586907
 20
273.0224333444153
 30
0.0
 10
1083.775598925434
 20
272.8378773784161
 30
0.0
 10
1083.8485854463
 20
272.7331586403669
 30
0.0
 10
1083.976225127575
 20
272.5110680694192
 30
0.0
 10
1084.035410820952
 20
272.3862968061947
 30
0.0
 10
1084.139290220736
 20
272.1144078438825
 30
0.0
 10
1084.18400041823
 20
271.9672956700609
 30
0.0
 10
1084.255635582956
 20
271.6601707910795
 30
0.0
 10
1084.28262524497
 20
271.4999047130741
 30
0.0
 10
1084.318016031812
 20
271.1773580435228
 30
0.0
 10
1084.326411073843
 20
271.0150744064264
 30
0.0
 10
1084.326411073843
 20
270.8580271885941
 30
0.0
  0
LINE
  5
1317
330
1F
100
AcDbEntity
  8
AM_VIS
100
AcDbLine
 10
1084.326411073843
 20
270.8580271885941
 30
0.0
 11
1084.326411073843
 21
205.858027188594
 31
0.0
  0
SPLINE
  5
1318
330
1F
100
AcDbEntity
  8
AM_VIS
100
AcDbSpline
210
0.0
220
0.0
230
1.0
 70
     8
 71
     3
 72
    22
 73
    18
 74
     0
 42
0.0000000001
 43
0.0000000001
 40
0.0
 40
0.0
 40
0.0
 40
0.0
 40
0.4711416534970496
 40
0.4711416534970496
 40
0.9422833069940988
 40
0.9422833069940988
 40
1.413424960491148
 40
1.413424960491148
 40
1.884566613988196
 40
1.884566613988196
 40
2.361201121546523
 40
2.361201121546523
 40
2.83783562910485
 40
2.83783562910485
 40
3.314470136663176
 40
3.314470136663176
 40
3.791104644221503
 40
3.791104644221503
 40
3.791104644221503
 40
3.791104644221503
 10
1084.326411073843
 20
205.858027188594
 30
0.0
 10
1084.326411073843
 20
205.7009799707617
 30
0.0
 10
1084.318016031812
 20
205.5386963336653
 30
0.0
 10
1084.28262524497
 20
205.216149664114
 30
0.0
 10
1084.255635582956
 20
205.0558835861086
 30
0.0
 10
1084.18400041823
 20
204.7487587071273
 30
0.0
 10
1084.139290220736
 20
204.6016465333057
 30
0.0
 10
1084.035410820952
 20
204.3297575709936
 30
0.0
 10
1083.976225127575
 20
204.2049863077689
 30
0.0
 10
1083.8485854463
 20
203.9828957368212
 30
0.0
 10
1083.775598925434
 20
203.878176998772
 30
0.0
 10
1083.615105586907
 20
203.6936210327728
 30
0.0
 10
1083.527593370178
 20
203.6137703875092
 30
0.0
 10
1083.343065311237
 20
203.4854702352518
 30
0.0
 10
1083.245899558398
 20
203.436922746201
 30
0.0
 10
1083.048346063831
 20
203.3731931236891
 30
0.0
 10
1082.947953698423
 20
203.3580271885941
 30
0.0
 10
1082.849859892034
 20
203.3580271885941
 30
0.0
  0
SPLINE
  5
1319
330
1F
100
AcDbEntity
  8
AM_VIS
100
AcDbSpline
210
0.0
220
0.0
230
1.0
 70
     8
 71
     3
 72
    22
 73
    18
 74
     0
 42
0.0000000001
 43
0.0000000001
 40
3.773562071924172
 40
3.773562071924172
 40
3.773562071924172
 40
3.773562071924172
 40
4.248305562462999
 40
4.248305562462999
 40
4.723049053001827
 40
4.723049053001827
 40
5.197792543540655
 40
5.197792543540655
 40
5.672536034079482
 40
5.672536034079482
 40
6.145072416928018
 40
6.145072416928018
 40
6.617608799776554
 40
6.617608799776554
 40
7.09014518262509
 40
7.09014518262509
 40
7.562681565473628
 40
7.562681565473628
 40
7.562681565473628
 40
7.562681565473628
 10
1040.891304470849
 20
273.3580271885941
 30
0.0
 10
1041.015304144882
 20
273.3580271885941
 30
0.0
 10
1041.144328658606
 20
273.3429634458677
 30
0.0
 10
1041.402741633589
 20
273.2796337628565
 30
0.0
 10
1041.532130566159
 20
273.2313835918021
 30
0.0
 10
1041.781931962106
 20
273.1038444595201
 30
0.0
 10
1041.902531781613
 20
273.0244582304047
 30
0.0
 10
1042.126895453386
 20
272.8409635006415
 30
0.0
 10
1042.230645061984
 20
272.7368419091256
 30
0.0
 10
1042.414798950549
 20
272.515262640962
 30
0.0
 10
1042.50161804408
 20
272.3902795969839
 30
0.0
 10
1042.655403689792
 20
272.1178304239779
 30
0.0
 10
1042.722369352299
 20
271.9703701173356
 30
0.0
 10
1042.830272275115
 20
271.6624606240354
 30
0.0
 10
1042.871289903603
 20
271.501756889874
 30
0.0
 10
1042.925173971022
 20
271.1782977665274
 30
0.0
 10
1042.938026255654
 20
271.0155393162103
 30
0.0
 10
1042.938026255654
 20
270.8580271885941
 30
0.0
  0
SPLINE
  5
131A
330
1F
100
AcDbEntity
  8
AM_VIS
100
AcDbSpline
210
0.0
220
0.0
230
1.0
 70
     8
 71
     3
 72
    22
 73
    18
 74
     0
 42
0.0000000001
 43
0.0000000001
 40
0.0
 40
0.0
 40
0.0
 40
0.0
 40
0.4725363828485325
 40
0.4725363828485325
 40
0.9450727656970647
 40
0.9450727656970647
 40
1.417609148545596
 40
1.417609148545596
 40
1.890145531394129
 40
1.890145531394129
 40
2.364889021932957
 40
2.364889021932957
 40
2.839632512471787
 40
2.839632512471787
 40
3.314376003010615
 40
3.314376003010615
 40
3.789119493549443
 40
3.789119493549443
 40
3.789119493549443
 40
3.789119493549443
 10
1042.938026255654
 20
205.858027188594
 30
0.0
 10
1042.938026255654
 20
205.7005150609779
 30
0.0
 10
1042.925173971022
 20
205.5377566106607
 30
0.0
 10
1042.871289903603
 20
205.2142974873142
 30
0.0
 10
1042.830272275115
 20
205.0535937531528
 30
0.0
 10
1042.722369352299
 20
204.7456842598526
 30
0.0
 10
1042.655403689792
 20
204.5982239532103
 30
0.0
 10
1042.50161804408
 20
204.3257747802043
 30
0.0
 10
1042.414798950549
 20
204.2007917362262
 30
0.0
 10
1042.230645061984
 20
203.9792124680626
 30
0.0
 10
1042.126895453386
 20
203.8750908765467
 30
0.0
 10
1041.902531781613
 20
203.6915961467835
 30
0.0
 10
1041.781931962106
 20
203.612209917668
 30
0.0
 10
1041.532130566159
 20
203.4846707853861
 30
0.0
 10
1041.402741633589
 20
203.4364206143317
 30
0.0
 10
1041.144328658606
 20
203.3730909313205
 30
0.0
 10
1041.015304144882
 20
203.3580271885941
 30
0.0
 10
1040.891304470849
 20
203.3580271885941
 30
0.0
  0
SPLINE
  5
131B
330
1F
100
AcDbEntity
  8
AM_VIS
100
AcDbSpline
210
0.0
220
0.0
230
1.0
 70
     8
 71
     3
 72
    22
 73
    18
 74
     0
 42
0.0000000001
 43
0.0000000001
 40
-3.789115704278325
 40
-3.789115704278325
 40
-3.789115704278325
 40
-3.789115704278325
 40
-3.312953486657824
 40
-3.312953486657824
 40
-2.836791269037325
 40
-2.836791269037325
 40
-2.360629051416824
 40
-2.360629051416824
 40
-1.884466833796325
 40
-1.884466833796325
 40
-1.413350125347244
 40
-1.413350125347244
 40
-0.9422334168981636
 40
-0.9422334168981636
 40
-0.4711167084490829
 40
-0.4711167084490829
 40
0.0
 40
0.0
 40
0.0
 40
0.0
 10
1035.941557002544
 20
273.3580271885941
 30
0.0
 10
1035.84294504815
 20
273.3580271885941
 30
0.0
 10
1035.74196758489
 20
273.3428733981317
 30
0.0
 10
1035.543151077636
 20
273.2791819266775
 30
0.0
 10
1035.445307539679
 20
273.230660226545
 30
0.0
 10
1035.259396169728
 20
273.1024200370313
 30
0.0
 10
1035.171177331659
 20
273.0226032689543
 30
0.0
 10
1035.009316830445
 20
272.8381267136228
 30
0.0
 10
1034.935670245839
 20
272.7334536634403
 30
0.0
 10
1034.806772580152
 20
272.5113728778837
 30
0.0
 10
1034.746959126258
 20
272.3865509355139
 30
0.0
 10
1034.641957593374
 20
272.1145672646803
 30
0.0
 10
1034.596753387227
 20
271.9674112396676
 30
0.0
 10
1034.524319549593
 20
271.6602168365357
 30
0.0
 10
1034.497024958869
 20
271.4999257457188
 30
0.0
 10
1034.461234504802
 20
271.1773518781884
 30
0.0
 10
1034.452744881416
 20
271.0150660914105
 30
0.0
 10
1034.452744881416
 20
270.8580271885941
 30
0.0
  0
LINE
  5
131C
330
1F
100
AcDbEntity
  8
AM_VIS
100
AcDbLine
 10
1034.452744881416
 20
205.858027188594
 30
0.0
 11
1034.452744881416
 21
270.8580271885941
 31
0.0
  0
SPLINE
  5
131D
330
1F
100
AcDbEntity
  8
AM_VIS
100
AcDbSpline
210
0.0
220
0.0
230
1.0
 70
     8
 71
     3
 72
    22
 73
    18
 74
     0
 42
0.0000000001
 43
0.0000000001
 40
0.0
 40
0.0
 40
0.0
 40
0.0
 40
0.4711167084490839
 40
0.4711167084490839
 40
0.9422334168981675
 40
0.9422334168981675
 40
1.41335012534725
 40
1.41335012534725
 40
1.884466833796334
 40
1.884466833796334
 40
2.360629051416834
 40
2.360629051416834
 40
2.836791269037331
 40
2.836791269037331
 40
3.312953486657831
 40
3.312953486657831
 40
3.789115704278328
 40
3.789115704278328
 40
3.789115704278328
 40
3.789115704278328
 10
1034.452744881416
 20
205.858027188594
 30
0.0
 10
1034.452744881416
 20
205.7009882857777
 30
0.0
 10
1034.461234504802
 20
205.5387024989997
 30
0.0
 10
1034.497024958869
 20
205.2161286314693
 30
0.0
 10
1034.524319549593
 20
205.0558375406524
 30
0.0
 10
1034.596753387227
 20
204.7486431375205
 30
0.0
 10
1034.641957593374
 20
204.6014871125079
 30
0.0
 10
1034.746959126258
 20
204.3295034416743
 30
0.0
 10
1034.806772580152
 20
204.2046814993045
 30
0.0
 10
1034.935670245839
 20
203.9826007137478
 30
0.0
 10
1035.009316830445
 20
203.8779276635653
 30
0.0
 10
1035.171177331659
 20
203.6934511082338
 30
0.0
 10
1035.259396169728
 20
203.6136343401568
 30
0.0
 10
1035.445307539679
 20
203.4853941506432
 30
0.0
 10
1035.543151077636
 20
203.4368724505107
 30
0.0
 10
1035.74196758489
 20
203.3731809790565
 30
0.0
 10
1035.84294504815
 20
203.3580271885941
 30
0.0
 10
1035.941557002544
 20
203.3580271885941
 30
0.0
  0
SPLINE
  5
131E
330
1F
100
AcDbEntity
  8
AM_VIS
100
AcDbSpline
210
0.0
220
0.0
230
1.0
 70
     8
 71
     3
 72
    22
 73
    18
 74
     0
 42
0.0000000001
 43
0.0000000001
 40
3.773562167966562
 40
3.773562167966562
 40
3.773562167966562
 40
3.773562167966562
 40
4.249724385587061
 40
4.249724385587061
 40
4.725886603207558
 40
4.725886603207558
 40
5.202048820828056
 40
5.202048820828056
 40
5.678211038448554
 40
5.678211038448554
 40
6.149327746897637
 40
6.149327746897637
 40
6.620444455346721
 40
6.620444455346721
 40
7.091561163795804
 40
7.091561163795804
 40
7.562677872244887
 40
7.562677872244887
 40
7.562677872244887
 40
7.562677872244887
 10
1040.891304470849
 20
203.3580271885941
 30
0.0
 10
1041.015674706457
 20
203.3580271885941
 30
0.0
 10
1041.145075017042
 20
203.3731809790566
 30
0.0
 10
1041.40420315769
 20
203.4368724505108
 30
0.0
 10
1041.533931467442
 20
203.4853941506431
 30
0.0
 10
1041.784331276722
 20
203.6136343401568
 30
0.0
 10
1041.905191469461
 20
203.6934511082338
 30
0.0
 10
1042.129962385898
 20
203.8779276635653
 30
0.0
 10
1042.233858679832
 20
203.9826007137478
 30
0.0
 10
1042.417623932254
 20
204.2046814993045
 30
0.0
 10
1042.503992815263
 20
204.3295034416743
 30
0.0
 10
1042.656968457933
 20
204.6014871125079
 30
0.0
 10
1042.723574288006
 20
204.7486431375205
 30
0.0
 10
1042.83088767597
 20
205.0558375406524
 30
0.0
 10
1042.871674767048
 20
205.2161286314693
 30
0.0
 10
1042.925251034774
 20
205.5387024989997
 30
0.0
 10
1042.938026255654
 20
205.7009882857777
 30
0.0
 10
1042.938026255654
 20
205.858027188594
 30
0.0
  0
LINE
  5
131F
330
1F
100
AcDbEntity
  8
AM_VIS
100
AcDbLine
 10
1042.938026255654
 20
270.8580271885941
 30
0.0
 11
1042.938026255654
 21
205.858027188594
 31
0.0
  0
SPLINE
  5
1320
330
1F
100
AcDbEntity
  8
AM_VIS
100
AcDbSpline
210
0.0
220
0.0
230
1.0
 70
     8
 71
     3
 72
    22
 73
    18
 74
     0
 42
0.0000000001
 43
0.0000000001
 40
7.562677872244874
 40
7.562677872244874
 40
7.562677872244874
 40
7.562677872244874
 40
8.033794580693951
 40
8.033794580693951
 40
8.504911289143034
 40
8.504911289143034
 40
8.976027997592112
 40
8.976027997592112
 40
9.447144706041193
 40
9.447144706041193
 40
9.923306923661693
 40
9.923306923661693
 40
10.39946914128219
 40
10.39946914128219
 40
10.87563135890269
 40
10.87563135890269
 40
11.35179357652319
 40
11.35179357652319
 40
11.35179357652319
 40
11.35179357652319
 10
1042.938026255654
 20
270.8580271885941
 30
0.0
 10
1042.938026255654
 20
271.0150660914105
 30
0.0
 10
1042.925251034774
 20
271.1773518781884
 30
0.0
 10
1042.871674767048
 20
271.4999257457188
 30
0.0
 10
1042.83088767597
 20
271.6602168365357
 30
0.0
 10
1042.723574288006
 20
271.9674112396676
 30
0.0
 10
1042.656968457933
 20
272.1145672646803
 30
0.0
 10
1042.503992815263
 20
272.3865509355139
 30
0.0
 10
1042.417623932254
 20
272.5113728778837
 30
0.0
 10
1042.233858679832
 20
272.7334536634403
 30
0.0
 10
1042.129962385898
 20
272.8381267136228
 30
0.0
 10
1041.905191469461
 20
273.0226032689543
 30
0.0
 10
1041.784331276722
 20
273.1024200370313
 30
0.0
 10
1041.533931467442
 20
273.230660226545
 30
0.0
 10
1041.40420315769
 20
273.2791819266775
 30
0.0
 10
1041.145075017042
 20
273.3428733981317
 30
0.0
 10
1041.015674706457
 20
273.3580271885941
 30
0.0
 10
1040.891304470849
 20
273.3580271885941
 30
0.0
  0
SPLINE
  5
1321
330
1F
100
AcDbEntity
  8
AM_VIS
100
AcDbSpline
210
0.0
220
0.0
230
1.0
 70
     8
 71
     3
 72
    22
 73
    18
 74
     0
 42
0.0000000001
 43
0.0000000001
 40
-3.789115704278326
 40
-3.789115704278326
 40
-3.789115704278326
 40
-3.789115704278326
 40
-3.312953486657828
 40
-3.312953486657828
 40
-2.83679126903733
 40
-2.83679126903733
 40
-2.360629051416831
 40
-2.360629051416831
 40
-1.884466833796333
 40
-1.884466833796333
 40
-1.41335012534725
 40
-1.41335012534725
 40
-0.9422334168981656
 40
-0.9422334168981656
 40
-0.4711167084490829
 40
-0.4711167084490829
 40
0.0
 40
0.0
 40
0.0
 40
0.0
 10
1083.739875042106
 20
203.3580271885941
 30
0.0
 10
1083.8384869965
 20
203.3580271885941
 30
0.0
 10
1083.939464459761
 20
203.3731809790566
 30
0.0
 10
1084.138280967014
 20
203.4368724505108
 30
0.0
 10
1084.236124504972
 20
203.4853941506431
 30
0.0
 10
1084.422035874922
 20
203.6136343401568
 30
0.0
 10
1084.510254712991
 20
203.6934511082338
 30
0.0
 10
1084.672115214205
 20
203.8779276635653
 30
0.0
 10
1084.745761798811
 20
203.9826007137478
 30
0.0
 10
1084.874659464498
 20
204.2046814993045
 30
0.0
 10
1084.934472918392
 20
204.3295034416743
 30
0.0
 10
1085.039474451276
 20
204.6014871125078
 30
0.0
 10
1085.084678657423
 20
204.7486431375205
 30
0.0
 10
1085.157112495058
 20
205.0558375406524
 30
0.0
 10
1085.184407085781
 20
205.2161286314692
 30
0.0
 10
1085.220197539848
 20
205.5387024989997
 30
0.0
 10
1085.228687163235
 20
205.7009882857777
 30
0.0
 10
1085.228687163235
 20
205.858027188594
 30
0.0
  0
LINE
  5
1322
330
1F
100
AcDbEntity
  8
AM_VIS
100
AcDbLine
 10
1085.228687163235
 20
270.8580271885941
 30
0.0
 11
1085.228687163235
 21
205.858027188594
 31
0.0
  0
SPLINE
  5
1323
330
1F
100
AcDbEntity
  8
AM_VIS
100
AcDbSpline
210
0.0
220
0.0
230
1.0
 70
     8
 71
     3
 72
    22
 73
    18
 74
     0
 42
0.0000000001
 43
0.0000000001
 40
7.562677872244874
 40
7.562677872244874
 40
7.562677872244874
 40
7.562677872244874
 40
8.033794580693951
 40
8.033794580693951
 40
8.504911289143034
 40
8.504911289143034
 40
8.976027997592112
 40
8.976027997592112
 40
9.447144706041193
 40
9.447144706041193
 40
9.923306923661693
 40
9.923306923661693
 40
10.39946914128219
 40
10.39946914128219
 40
10.87563135890269
 40
10.87563135890269
 40
11.35179357652319
 40
11.35179357652319
 40
11.35179357652319
 40
11.35179357652319
 10
1085.228687163235
 20
270.8580271885941
 30
0.0
 10
1085.228687163235
 20
271.0150660914105
 30
0.0
 10
1085.220197539848
 20
271.1773518781884
 30
0.0
 10
1085.184407085781
 20
271.4999257457188
 30
0.0
 10
1085.157112495058
 20
271.6602168365357
 30
0.0
 10
1085.084678657423
 20
271.9674112396676
 30
0.0
 10
1085.039474451276
 20
272.1145672646803
 30
0.0
 10
1084.934472918392
 20
272.3865509355139
 30
0.0
 10
1084.874659464498
 20
272.5113728778837
 30
0.0
 10
1084.745761798811
 20
272.7334536634403
 30
0.0
 10
1084.672115214205
 20
272.8381267136228
 30
0.0
 10
1084.510254712991
 20
273.0226032689543
 30
0.0
 10
1084.422035874922
 20
273.1024200370313
 30
0.0
 10
1084.236124504972
 20
273.230660226545
 30
0.0
 10
1084.138280967014
 20
273.2791819266775
 30
0.0
 10
1083.939464459761
 20
273.3428733981317
 30
0.0
 10
1083.8384869965
 20
273.3580271885941
 30
0.0
 10
1083.739875042106
 20
273.3580271885941
 30
0.0
  0
SPLINE
  5
1324
330
1F
100
AcDbEntity
  8
AM_VIS
100
AcDbSpline
210
0.0
220
0.0
230
1.0
 70
     8
 71
     3
 72
    22
 73
    18
 74
     0
 42
0.0000000001
 43
0.0000000001
 40
-3.789115704278325
 40
-3.789115704278325
 40
-3.789115704278325
 40
-3.789115704278325
 40
-3.312953486657824
 40
-3.312953486657824
 40
-2.836791269037325
 40
-2.836791269037325
 40
-2.360629051416824
 40
-2.360629051416824
 40
-1.884466833796325
 40
-1.884466833796325
 40
-1.413350125347243
 40
-1.413350125347243
 40
-0.9422334168981619
 40
-0.9422334168981619
 40
-0.4711167084490812
 40
-0.4711167084490812
 40
0.0
 40
0.0
 40
0.0
 40
0.0
 10
1078.7901275738
 20
273.3580271885941
 30
0.0
 10
1078.665757338193
 20
273.3580271885941
 30
0.0
 10
1078.536357027608
 20
273.3428733981317
 30
0.0
 10
1078.27722888696
 20
273.2791819266775
 30
0.0
 10
1078.147500577208
 20
273.230660226545
 30
0.0
 10
1077.897100767928
 20
273.1024200370313
 30
0.0
 10
1077.77624057519
 20
273.0226032689543
 30
0.0
 10
1077.551469658752
 20
272.8381267136228
 30
0.0
 10
1077.447573364818
 20
272.7334536634403
 30
0.0
 10
1077.263808112397
 20
272.5113728778837
 30
0.0
 10
1077.177439229387
 20
272.3865509355139
 30
0.0
 10
1077.024463586718
 20
272.1145672646803
 30
0.0
 10
1076.957857756644
 20
271.9674112396676
 30
0.0
 10
1076.85054436868
 20
271.6602168365357
 30
0.0
 10
1076.809757277602
 20
271.4999257457188
 30
0.0
 10
1076.756181009876
 20
271.1773518781884
 30
0.0
 10
1076.743405788996
 20
271.0150660914104
 30
0.0
 10
1076.743405788996
 20
270.8580271885941
 30
0.0
  0
LINE
  5
1325
330
1F
100
AcDbEntity
  8
AM_VIS
100
AcDbLine
 10
1076.743405788996
 20
205.858027188594
 30
0.0
 11
1076.743405788996
 21
270.8580271885941
 31
0.0
  0
SPLINE
  5
1326
330
1F
100
AcDbEntity
  8
AM_VIS
100
AcDbSpline
210
0.0
220
0.0
230
1.0
 70
     8
 71
     3
 72
    22
 73
    18
 74
     0
 42
0.0000000001
 43
0.0000000001
 40
0.0
 40
0.0
 40
0.0
 40
0.0
 40
0.4711167084490837
 40
0.4711167084490837
 40
0.9422334168981672
 40
0.9422334168981672
 40
1.41335012534725
 40
1.41335012534725
 40
1.884466833796333
 40
1.884466833796333
 40
2.360629051416831
 40
2.360629051416831
 40
2.83679126903733
 40
2.83679126903733
 40
3.312953486657828
 40
3.312953486657828
 40
3.789115704278326
 40
3.789115704278326
 40
3.789115704278326
 40
3.789115704278326
 10
1076.743405788996
 20
205.858027188594
 30
0.0
 10
1076.743405788996
 20
205.7009882857777
 30
0.0
 10
1076.756181009876
 20
205.5387024989997
 30
0.0
 10
1076.809757277602
 20
205.2161286314693
 30
0.0
 10
1076.85054436868
 20
205.0558375406524
 30
0.0
 10
1076.957857756644
 20
204.7486431375205
 30
0.0
 10
1077.024463586718
 20
204.6014871125079
 30
0.0
 10
1077.177439229387
 20
204.3295034416743
 30
0.0
 10
1077.263808112397
 20
204.2046814993045
 30
0.0
 10
1077.447573364818
 20
203.9826007137478
 30
0.0
 10
1077.551469658752
 20
203.8779276635653
 30
0.0
 10
1077.77624057519
 20
203.6934511082338
 30
0.0
 10
1077.897100767928
 20
203.6136343401568
 30
0.0
 10
1078.147500577208
 20
203.4853941506431
 30
0.0
 10
1078.27722888696
 20
203.4368724505108
 30
0.0
 10
1078.536357027608
 20
203.3731809790566
 30
0.0
 10
1078.665757338193
 20
203.3580271885941
 30
0.0
 10
1078.7901275738
 20
203.3580271885941
 30
0.0
  0
SPLINE
  5
1327
330
1F
100
AcDbEntity
  8
AM_VIS
100
AcDbSpline
210
0.0
220
0.0
230
1.0
 70
     8
 71
     3
 72
    22
 73
    18
 74
     0
 42
0.0000000001
 43
0.0000000001
 40
3.773562167966562
 40
3.773562167966562
 40
3.773562167966562
 40
3.773562167966562
 40
4.249724385587061
 40
4.249724385587061
 40
4.725886603207559
 40
4.725886603207559
 40
5.202048820828058
 40
5.202048820828058
 40
5.678211038448558
 40
5.678211038448558
 40
6.149327746897641
 40
6.149327746897641
 40
6.620444455346723
 40
6.620444455346723
 40
7.091561163795807
 40
7.091561163795807
 40
7.562677872244889
 40
7.562677872244889
 40
7.562677872244889
 40
7.562677872244889
 10
1078.7901275738
 20
203.3580271885941
 30
0.0
 10
1078.665757338193
 20
203.3580271885941
 30
0.0
 10
1078.536357027608
 20
203.3731809790566
 30
0.0
 10
1078.27722888696
 20
203.4368724505108
 30
0.0
 10
1078.147500577208
 20
203.4853941506431
 30
0.0
 10
1077.897100767928
 20
203.6136343401568
 30
0.0
 10
1077.77624057519
 20
203.6934511082338
 30
0.0
 10
1077.551469658752
 20
203.8779276635653
 30
0.0
 10
1077.447573364818
 20
203.9826007137478
 30
0.0
 10
1077.263808112397
 20
204.2046814993045
 30
0.0
 10
1077.177439229387
 20
204.3295034416743
 30
0.0
 10
1077.024463586718
 20
204.6014871125079
 30
0.0
 10
1076.957857756644
 20
204.7486431375205
 30
0.0
 10
1076.85054436868
 20
205.0558375406524
 30
0.0
 10
1076.809757277602
 20
205.2161286314693
 30
0.0
 10
1076.756181009876
 20
205.5387024989997
 30
0.0
 10
1076.743405788996
 20
205.7009882857777
 30
0.0
 10
1076.743405788996
 20
205.858027188594
 30
0.0
  0
SPLINE
  5
1328
330
1F
100
AcDbEntity
  8
AM_VIS
100
AcDbSpline
210
0.0
220
0.0
230
1.0
 70
     8
 71
     3
 72
    22
 73
    18
 74
     0
 42
0.0000000001
 43
0.0000000001
 40
7.562677872244875
 40
7.562677872244875
 40
7.562677872244875
 40
7.562677872244875
 40
8.033794580693955
 40
8.033794580693955
 40
8.504911289143034
 40
8.504911289143034
 40
8.976027997592115
 40
8.976027997592115
 40
9.447144706041195
 40
9.447144706041195
 40
9.923306923661693
 40
9.923306923661693
 40
10.39946914128219
 40
10.39946914128219
 40
10.87563135890269
 40
10.87563135890269
 40
11.3517935765232
 40
11.3517935765232
 40
11.3517935765232
 40
11.3517935765232
 10
1076.743405788996
 20
270.8580271885941
 30
0.0
 10
1076.743405788996
 20
271.0150660914104
 30
0.0
 10
1076.756181009876
 20
271.1773518781884
 30
0.0
 10
1076.809757277602
 20
271.4999257457188
 30
0.0
 10
1076.85054436868
 20
271.6602168365357
 30
0.0
 10
1076.957857756644
 20
271.9674112396676
 30
0.0
 10
1077.024463586718
 20
272.1145672646803
 30
0.0
 10
1077.177439229387
 20
272.3865509355139
 30
0.0
 10
1077.263808112397
 20
272.5113728778837
 30
0.0
 10
1077.447573364818
 20
272.7334536634403
 30
0.0
 10
1077.551469658752
 20
272.8381267136228
 30
0.0
 10
1077.77624057519
 20
273.0226032689543
 30
0.0
 10
1077.897100767928
 20
273.1024200370313
 30
0.0
 10
1078.147500577208
 20
273.230660226545
 30
0.0
 10
1078.27722888696
 20
273.2791819266775
 30
0.0
 10
1078.536357027608
 20
273.3428733981317
 30
0.0
 10
1078.665757338193
 20
273.3580271885941
 30
0.0
 10
1078.7901275738
 20
273.3580271885941
 30
0.0
  0
LINE
  5
1329
330
1F
100
AcDbEntity
  8
AM_VIS
100
AcDbLine
 10
1048.840716022325
 20
187.358027188594
 30
0.0
 11
1048.840716022325
 21
184.358027188594
 31
0.0
  0
LINE
  5
132A
330
1F
100
AcDbEntity
  8
AM_VIS
100
AcDbLine
 10
1070.840716022325
 20
187.358027188594
 30
0.0
 11
1070.840716022325
 21
184.358027188594
 31
0.0
  0
LINE
  5
132B
330
1F
100
AcDbEntity
  8
AM_VIS
100
AcDbLine
 10
1029.340716022325
 20
283.3580271885941
 30
0.0
 11
1029.340716022325
 21
197.5210940810138
 31
0.0
  0
LINE
  5
132C
330
1F
100
AcDbEntity
  8
AM_VIS
100
AcDbLine
 10
1090.340716022325
 20
283.3580271885941
 30
0.0
 11
1090.340716022325
 21
197.5210940810138
 31
0.0
  0
LINE
  5
132D
330
1F
100
AcDbEntity
  8
AM_VIS
100
AcDbLine
 10
1068.840716022325
 20
182.358027188594
 30
0.0
 11
1050.840716022325
 21
182.358027188594
 31
0.0
  0
LINE
  5
132E
330
1F
100
AcDbEntity
  8
AM_VIS
100
AcDbLine
 10
1048.340716022325
 20
187.358027188594
 30
0.0
 11
1071.340716022325
 21
187.358027188594
 31
0.0
  0
LINE
  5
132F
330
1F
100
AcDbEntity
  8
AM_VIS
100
AcDbLine
 10
1035.941557002544
 20
203.3580271885941
 30
0.0
 11
1040.891304470849
 21
203.3580271885941
 31
0.0
  0
LINE
  5
1330
330
1F
100
AcDbEntity
  8
AM_VIS
100
AcDbLine
 10
1040.891304470849
 20
273.3580271885941
 30
0.0
 11
1035.941557002544
 21
273.3580271885941
 31
0.0
  0
LINE
  5
1331
330
1F
100
AcDbEntity
  8
AM_VIS
100
AcDbLine
 10
1083.739875042106
 20
273.3580271885941
 30
0.0
 11
1078.7901275738
 21
273.3580271885941
 31
0.0
  0
LINE
  5
1332
330
1F
100
AcDbEntity
  8
AM_VIS
100
AcDbLine
 10
1078.7901275738
 20
203.3580271885941
 30
0.0
 11
1083.739875042106
 21
203.3580271885941
 31
0.0
  0
ARC
  5
1333
330
1F
100
AcDbEntity
  8
AM_VIS
100
AcDbCircle
 10
1050.840716022325
 20
184.358027188594
 30
0.0
 40
2.0
100
AcDbArc
 50
180.0
 51
270.0
  0
ARC
  5
1334
330
1F
100
AcDbEntity
  8
AM_VIS
100
AcDbCircle
 10
1068.840716022325
 20
184.358027188594
 30
0.0
 40
2.0
100
AcDbArc
 50
270.0
 51
0.0
  0
ARC
  5
1335
330
1F
100
AcDbEntity
  8
AM_VIS
100
AcDbCircle
 10
1048.340716022325
 20
213.9205271885941
 30
0.0
 40
26.56250000000001
100
AcDbArc
 50
229.5130104454951
 51
270.0
  0
ARC
  5
1336
330
1F
100
AcDbEntity
  8
AM_VIS
100
AcDbCircle
 10
1071.340716022325
 20
213.9205271885941
 30
0.0
 40
26.56250000000001
100
AcDbArc
 50
270.0
 51
310.4869895545049
  0
ARC
  5
1337
330
1F
100
AcDbEntity
  8
AM_VIS
100
AcDbCircle
 10
1034.340716022325
 20
197.5210940810138
 30
0.0
 40
5.0
100
AcDbArc
 50
180.0
 51
229.513010445494
  0
ARC
  5
1338
330
1F
100
AcDbEntity
  8
AM_VIS
100
AcDbCircle
 10
1085.340716022325
 20
197.5210940810138
 30
0.0
 40
5.0
100
AcDbArc
 50
310.486989554506
 51
0.0
  0
LINE
  5
1339
330
1F
100
AcDbEntity
  8
AM_VIS
100
AcDbLine
 10
1032.800055778724
 20
381.1657617378033
 30
0.0
 11
1028.840716022325
 21
395.9422188731108
 31
0.0
  0
LINE
  5
133A
330
1F
100
AcDbEntity
  8
AM_VIS
100
AcDbLine
 10
1090.840716022325
 20
395.9422188731108
 30
0.0
 11
1086.881376265926
 21
381.1657617378033
 31
0.0
  0
LINE
  5
133B
330
1F
100
AcDbEntity
  8
AM_VIS
100
AcDbLine
 10
1086.881376265926
 20
446.7186760084183
 30
0.0
 11
1090.840716022325
 21
431.9422188731108
 31
0.0
  0
LINE
  5
133C
330
1F
100
AcDbEntity
  8
AM_VIS
100
AcDbLine
 10
1028.840716022325
 20
431.9422188731108
 30
0.0
 11
1032.800055778724
 21
446.7186760084183
 31
0.0
  0
LINE
  5
133D
330
1F
100
AcDbEntity
  8
AM_VIS
100
AcDbLine
 10
1083.983598787059
 20
378.9422188731109
 30
0.0
 11
1035.697833257591
 21
378.9422188731109
 31
0.0
  0
LINE
  5
133E
330
1F
100
AcDbEntity
  8
AM_VIS
100
AcDbLine
 10
1035.697833257591
 20
448.9422188731108
 30
0.0
 11
1083.983598787059
 21
448.9422188731108
 31
0.0
  0
LINE
  5
133F
330
1F
100
AcDbEntity
  8
AM_VIS
100
AcDbLine
 10
1094.840716022325
 20
395.9422188731108
 30
0.0
 11
1094.840716022325
 21
400.9422188731107
 31
0.0
  0
LINE
  5
1340
102
{ACAD_REACTORS
330
1472
102
}
330
1F
100
AcDbEntity
  8
AM_VIS
100
AcDbLine
 10
1090.644563599619
 20
395.9422188731108
 30
0.0
 11
1094.840716022325
 21
395.9422188731108
 31
0.0
  0
LINE
  5
1341
330
1F
100
AcDbEntity
  8
AM_VIS
100
AcDbLine
 10
1080.840716022325
 20
398.9422188731109
 30
0.0
 11
1089.840716022325
 21
398.9422188731109
 31
0.0
  0
LINE
  5
1342
330
1F
100
AcDbEntity
  8
AM_VIS
100
AcDbLine
 10
1090.644563599619
 20
395.9422188731108
 30
0.0
 11
1089.840716022325
 21
398.9422188731109
 31
0.0
  0
LINE
  5
1343
330
1F
100
AcDbEntity
  8
AM_VIS
100
AcDbLine
 10
1089.840716022325
 20
428.9422188731108
 30
0.0
 11
1080.840716022325
 21
428.9422188731108
 31
0.0
  0
LINE
  5
1344
330
1F
100
AcDbEntity
  8
AM_VIS
100
AcDbLine
 10
1089.840716022325
 20
428.9422188731108
 30
0.0
 11
1090.644563599619
 21
431.9422188731108
 31
0.0
  0
LINE
  5
1345
330
1F
100
AcDbEntity
  8
AM_VIS
100
AcDbLine
 10
1094.840716022325
 20
431.9422188731108
 30
0.0
 11
1090.644563599619
 21
431.9422188731108
 31
0.0
  0
LINE
  5
1346
330
1F
100
AcDbEntity
  8
AM_VIS
100
AcDbLine
 10
1094.840716022325
 20
426.9422188731107
 30
0.0
 11
1094.840716022325
 21
431.9422188731108
 31
0.0
  0
LINE
  5
1347
330
1F
100
AcDbEntity
  8
AM_VIS
100
AcDbLine
 10
1024.840716022325
 20
431.9422188731108
 30
0.0
 11
1024.840716022325
 21
426.9422188731107
 31
0.0
  0
LINE
  5
1348
330
1F
100
AcDbEntity
  8
AM_VIS
100
AcDbLine
 10
1029.036868445031
 20
431.9422188731108
 30
0.0
 11
1024.840716022325
 21
431.9422188731108
 31
0.0
  0
LINE
  5
1349
330
1F
100
AcDbEntity
  8
AM_VIS
100
AcDbLine
 10
1029.036868445031
 20
431.9422188731108
 30
0.0
 11
1029.840716022325
 21
428.9422188731108
 31
0.0
  0
LINE
  5
134A
330
1F
100
AcDbEntity
  8
AM_VIS
100
AcDbLine
 10
1054.840716022325
 20
428.9422188731108
 30
0.0
 11
1029.840716022325
 21
428.9422188731108
 31
0.0
  0
LINE
  5
134B
330
1F
100
AcDbEntity
  8
AM_VIS
100
AcDbLine
 10
1029.840716022325
 20
398.9422188731109
 30
0.0
 11
1029.036868445031
 21
395.9422188731108
 31
0.0
  0
LINE
  5
134C
330
1F
100
AcDbEntity
  8
AM_VIS
100
AcDbLine
 10
1024.840716022325
 20
395.9422188731108
 30
0.0
 11
1029.036868445031
 21
395.9422188731108
 31
0.0
  0
LINE
  5
134D
102
{ACAD_REACTORS
330
1472
102
}
330
1F
100
AcDbEntity
  8
AM_VIS
100
AcDbLine
 10
1024.840716022325
 20
400.9422188731107
 30
0.0
 11
1024.840716022325
 21
395.9422188731108
 31
0.0
  0
LINE
  5
134E
330
1F
100
AcDbEntity
  8
AM_VIS
100
AcDbLine
 10
1029.840716022325
 20
398.9422188731109
 30
0.0
 11
1054.840716022325
 21
398.9422188731109
 31
0.0
  0
LINE
  5
134F
330
1F
100
AcDbEntity
  8
AM_VIS
100
AcDbLine
 10
1041.658908654878
 20
388.4245807829058
 30
0.0
 11
1038.840716022325
 21
398.9422188731109
 31
0.0
  0
LINE
  5
1350
330
1F
100
AcDbEntity
  8
AM_VIS
100
AcDbLine
 10
1059.590760307456
 20
386.9422188731109
 30
0.0
 11
1043.590760307457
 21
386.9422188731109
 31
0.0
  0
LINE
  5
1351
330
1F
100
AcDbEntity
  8
AM_VIS
100
AcDbLine
 10
1038.840716022325
 20
428.9422188731108
 30
0.0
 11
1041.658908654878
 21
439.4598569633158
 31
0.0
  0
LINE
  5
1352
330
1F
100
AcDbEntity
  8
AM_VIS
100
AcDbLine
 10
1059.590760307456
 20
440.9422188731108
 30
0.0
 11
1043.590760307457
 21
440.9422188731108
 31
0.0
  0
LINE
  5
1353
330
1F
100
AcDbEntity
  8
AM_VIS
100
AcDbLine
 10
1054.840716022325
 20
398.9422188731109
 30
0.0
 11
1054.840716022325
 21
400.9422188731107
 31
0.0
  0
LINE
  5
1354
330
1F
100
AcDbEntity
  8
AM_VIS
100
AcDbLine
 10
1054.840716022325
 20
400.9422188731107
 30
0.0
 11
1024.840716022325
 21
400.9422188731107
 31
0.0
  0
LINE
  5
1355
330
1F
100
AcDbEntity
  8
AM_VIS
100
AcDbLine
 10
1024.840716022325
 20
400.9422188731107
 30
0.0
 11
1024.840716022325
 21
426.9422188731107
 31
0.0
  0
LINE
  5
1356
330
1F
100
AcDbEntity
  8
AM_VIS
100
AcDbLine
 10
1024.840716022325
 20
426.9422188731107
 30
0.0
 11
1054.840716022325
 21
426.9422188731107
 31
0.0
  0
LINE
  5
1357
330
1F
100
AcDbEntity
  8
AM_VIS
100
AcDbLine
 10
1054.840716022325
 20
426.9422188731107
 30
0.0
 11
1054.840716022325
 21
428.9422188731108
 31
0.0
  0
LINE
  5
1358
330
1F
100
AcDbEntity
  8
AM_VIS
100
AcDbLine
 10
1054.840716022325
 20
428.9422188731108
 30
0.0
 11
1057.658908654878
 21
439.4598569633158
 31
0.0
  0
LINE
  5
1359
330
1F
100
AcDbEntity
  8
AM_VIS
100
AcDbLine
 10
1059.590760307456
 20
440.9422188731108
 30
0.0
 11
1076.090671737194
 21
440.9422188731108
 31
0.0
  0
LINE
  5
135A
330
1F
100
AcDbEntity
  8
AM_VIS
100
AcDbLine
 10
1078.022523389772
 20
439.4598569633158
 30
0.0
 11
1080.840716022325
 21
428.9422188731108
 31
0.0
  0
LINE
  5
135B
330
1F
100
AcDbEntity
  8
AM_VIS
100
AcDbLine
 10
1080.840716022325
 20
428.9422188731108
 30
0.0
 11
1080.840716022325
 21
426.9422188731107
 31
0.0
  0
LINE
  5
135C
330
1F
100
AcDbEntity
  8
AM_VIS
100
AcDbLine
 10
1080.840716022325
 20
426.9422188731107
 30
0.0
 11
1094.840716022325
 21
426.9422188731107
 31
0.0
  0
LINE
  5
135D
330
1F
100
AcDbEntity
  8
AM_VIS
100
AcDbLine
 10
1094.840716022325
 20
426.9422188731107
 30
0.0
 11
1094.840716022325
 21
400.9422188731107
 31
0.0
  0
LINE
  5
135E
330
1F
100
AcDbEntity
  8
AM_VIS
100
AcDbLine
 10
1094.840716022325
 20
400.9422188731107
 30
0.0
 11
1080.840716022325
 21
400.9422188731107
 31
0.0
  0
LINE
  5
135F
330
1F
100
AcDbEntity
  8
AM_VIS
100
AcDbLine
 10
1080.840716022325
 20
400.9422188731107
 30
0.0
 11
1080.840716022325
 21
398.9422188731109
 31
0.0
  0
LINE
  5
1360
330
1F
100
AcDbEntity
  8
AM_VIS
100
AcDbLine
 10
1080.840716022325
 20
398.9422188731109
 30
0.0
 11
1078.022523389772
 21
388.4245807829058
 31
0.0
  0
LINE
  5
1361
330
1F
100
AcDbEntity
  8
AM_VIS
100
AcDbLine
 10
1076.090671737194
 20
386.9422188731109
 30
0.0
 11
1059.590760307456
 21
386.9422188731109
 31
0.0
  0
LINE
  5
1362
330
1F
100
AcDbEntity
  8
AM_VIS
100
AcDbLine
 10
1026.840716022325
 20
418.272345892033
 30
0.0
 11
1033.844815484987
 21
414.2285271818342
 31
0.0
  0
LINE
  5
1363
330
1F
100
AcDbEntity
  8
AM_VIS
100
AcDbLine
 10
1026.840716022325
 20
409.6120918541886
 30
0.0
 11
1026.840716022325
 21
418.272345892033
 31
0.0
  0
LINE
  5
1364
330
1F
100
AcDbEntity
  8
AM_VIS
100
AcDbLine
 10
1033.844815484987
 20
413.6559105643873
 30
0.0
 11
1026.840716022325
 21
409.6120918541886
 31
0.0
  0
LINE
  5
1365
330
1F
100
AcDbEntity
  8
AM_VIS
100
AcDbLine
 10
1057.658908654878
 20
388.4245807829058
 30
0.0
 11
1054.840716022325
 21
398.9422188731109
 31
0.0
  0
LINE
  5
1366
330
1F
100
AcDbEntity
  8
AM_VIS
100
AcDbLine
 10
1033.867037916825
 20
414.6673016600199
 30
0.0
 11
1038.225936856265
 21
422.2171360881877
 31
0.0
  0
LINE
  5
1367
330
1F
100
AcDbEntity
  8
AM_VIS
100
AcDbLine
 10
1038.225936863806
 20
405.667301652917
 30
0.0
 11
1033.867037916164
 21
413.2171360952906
 31
0.0
  0
LINE
  5
1368
330
1F
100
AcDbEntity
  8
AM_VIS
100
AcDbLine
 10
1048.199614965866
 20
404.9422188731107
 30
0.0
 11
1039.481817078784
 21
404.9422188731107
 31
0.0
  0
LINE
  5
1369
330
1F
100
AcDbEntity
  8
AM_VIS
100
AcDbLine
 10
1039.481817078784
 20
422.9422188731107
 30
0.0
 11
1048.199614965866
 21
422.9422188731107
 31
0.0
  0
LINE
  5
136A
330
1F
100
AcDbEntity
  8
AM_VIS
100
AcDbLine
 10
1049.455495188385
 20
422.2171360881877
 30
0.0
 11
1053.814394127825
 21
414.6673016600199
 31
0.0
  0
LINE
  5
136B
330
1F
100
AcDbEntity
  8
AM_VIS
100
AcDbLine
 10
1053.814394128486
 20
413.2171360952907
 30
0.0
 11
1049.455495180844
 21
405.667301652917
 31
0.0
  0
LINE
  5
136C
330
1F
100
AcDbEntity
  8
AM_VIS
100
AcDbLine
 10
1065.531314947325
 20
399.9422188731108
 30
0.0
 11
1070.150117097325
 21
399.9422188731108
 31
0.0
  0
LINE
  5
136D
330
1F
100
AcDbEntity
  8
AM_VIS
100
AcDbLine
 10
1070.150117097325
 20
399.9422188731108
 30
0.0
 11
1072.459518175842
 21
395.942218870065
 31
0.0
  0
LINE
  5
136E
330
1F
100
AcDbEntity
  8
AM_VIS
100
AcDbLine
 10
1072.459518175842
 20
395.942218870065
 30
0.0
 11
1070.150117100842
 21
391.9422188731108
 31
0.0
  0
LINE
  5
136F
330
1F
100
AcDbEntity
  8
AM_VIS
100
AcDbLine
 10
1070.150117100842
 20
391.9422188731108
 30
0.0
 11
1065.531314943808
 21
391.9422188731108
 31
0.0
  0
LINE
  5
1370
330
1F
100
AcDbEntity
  8
AM_VIS
100
AcDbLine
 10
1065.531314943808
 20
391.9422188731108
 30
0.0
 11
1063.221913868808
 21
395.942218870065
 31
0.0
  0
LINE
  5
1371
330
1F
100
AcDbEntity
  8
AM_VIS
100
AcDbLine
 10
1063.221913868808
 20
395.942218870065
 30
0.0
 11
1065.531314947325
 21
399.9422188731108
 31
0.0
  0
ARC
  5
1372
330
1F
100
AcDbEntity
  8
AM_VIS
100
AcDbCircle
 10
1035.697833257591
 20
381.9422188731108
 30
0.0
 40
3.0
100
AcDbArc
 50
194.9999999999992
 51
270.0
  0
ARC
  5
1373
330
1F
100
AcDbEntity
  8
AM_VIS
100
AcDbCircle
 10
1083.983598787059
 20
381.9422188731108
 30
0.0
 40
3.0
100
AcDbArc
 50
270.0
 51
345.0000000000009
  0
ARC
  5
1374
330
1F
100
AcDbEntity
  8
AM_VIS
100
AcDbCircle
 10
1083.983598787059
 20
445.9422188731108
 30
0.0
 40
3.0
100
AcDbArc
 50
14.99999999999917
 51
90.0
  0
ARC
  5
1375
330
1F
100
AcDbEntity
  8
AM_VIS
100
AcDbCircle
 10
1035.697833257591
 20
445.9422188731108
 30
0.0
 40
3.0
100
AcDbArc
 50
90.0
 51
165.0000000000008
  0
ARC
  5
1376
330
1F
100
AcDbEntity
  8
AM_VIS
100
AcDbCircle
 10
1043.590760307457
 20
388.9422188731109
 30
0.0
 40
1.999999999999999
100
AcDbArc
 50
194.9999999999992
 51
270.0
  0
ARC
  5
1377
330
1F
100
AcDbEntity
  8
AM_VIS
100
AcDbCircle
 10
1043.590760307457
 20
438.9422188731107
 30
0.0
 40
2.0
100
AcDbArc
 50
90.0
 51
165.0000000000008
  0
ARC
  5
1378
330
1F
100
AcDbEntity
  8
AM_VIS
100
AcDbCircle
 10
1059.590760307456
 20
438.9422188731107
 30
0.0
 40
2.0
100
AcDbArc
 50
90.0
 51
165.0000000000008
  0
ARC
  5
1379
330
1F
100
AcDbEntity
  8
AM_VIS
100
AcDbCircle
 10
1076.090671737194
 20
438.9422188731107
 30
0.0
 40
2.0
100
AcDbArc
 50
14.99999999999917
 51
90.0
  0
ARC
  5
137A
330
1F
100
AcDbEntity
  8
AM_VIS
100
AcDbCircle
 10
1076.090671737194
 20
388.9422188731109
 30
0.0
 40
2.0
100
AcDbArc
 50
270.0
 51
345.0000000000009
  0
ARC
  5
137B
330
1F
100
AcDbEntity
  8
AM_VIS
100
AcDbCircle
 10
1059.590760307456
 20
388.9422188731109
 30
0.0
 40
2.0
100
AcDbArc
 50
194.9999999999992
 51
270.0
  0
ARC
  5
137C
330
1F
100
AcDbEntity
  8
AM_VIS
100
AcDbCircle
 10
1043.840716022325
 20
413.9422188731107
 30
0.0
 40
10.0
100
AcDbArc
 50
244.1580672368318
 51
295.8419327631682
  0
ARC
  5
137D
330
1F
100
AcDbEntity
  8
AM_VIS
100
AcDbCircle
 10
1043.840716022325
 20
413.9422188731107
 30
0.0
 40
10.0
100
AcDbArc
 50
304.1580672107266
 51
355.8419327892735
  0
ARC
  5
137E
330
1F
100
AcDbEntity
  8
AM_VIS
100
AcDbCircle
 10
1043.840716022325
 20
413.9422188731107
 30
0.0
 40
10.0
100
AcDbArc
 50
4.158067262939819
 51
55.8419327370602
  0
ARC
  5
137F
330
1F
100
AcDbEntity
  8
AM_VIS
100
AcDbCircle
 10
1043.840716022325
 20
413.9422188731107
 30
0.0
 40
10.0
100
AcDbArc
 50
64.15806723683181
 51
115.8419327631682
  0
ARC
  5
1380
330
1F
100
AcDbEntity
  8
AM_VIS
100
AcDbCircle
 10
1043.840716022325
 20
413.9422188731107
 30
0.0
 40
10.0
100
AcDbArc
 50
124.1580672629398
 51
175.8419327370601
  0
ARC
  5
1381
330
1F
100
AcDbEntity
  8
AM_VIS
100
AcDbCircle
 10
1043.840716022325
 20
413.9422188731107
 30
0.0
 40
10.0
100
AcDbArc
 50
184.1580672107264
 51
235.8419327892735
  0
ARC
  5
1382
330
1F
100
AcDbEntity
  8
AM_VIS
100
AcDbCircle
 10
1043.840716022325
 20
413.9422188731107
 30
0.0
 40
10.0
100
AcDbArc
 50
235.8419327892735
 51
244.1580672368318
  0
ARC
  5
1383
330
1F
100
AcDbEntity
  8
AM_VIS
100
AcDbCircle
 10
1043.840716022325
 20
413.9422188731107
 30
0.0
 40
10.0
100
AcDbArc
 50
175.8419327370601
 51
184.1580672107264
  0
ARC
  5
1384
330
1F
100
AcDbEntity
  8
AM_VIS
100
AcDbCircle
 10
1043.840716022325
 20
413.9422188731107
 30
0.0
 40
10.0
100
AcDbArc
 50
115.8419327631682
 51
124.1580672629398
  0
ARC
  5
1385
330
1F
100
AcDbEntity
  8
AM_VIS
100
AcDbCircle
 10
1043.840716022325
 20
413.9422188731107
 30
0.0
 40
10.0
100
AcDbArc
 50
55.8419327370602
 51
64.15806723683181
  0
ARC
  5
1386
330
1F
100
AcDbEntity
  8
AM_VIS
100
AcDbCircle
 10
1043.840716022325
 20
413.9422188731107
 30
0.0
 40
10.0
100
AcDbArc
 50
355.8419327892735
 51
4.158067262939819
  0
ARC
  5
1387
330
1F
100
AcDbEntity
  8
AM_VIS
100
AcDbCircle
 10
1043.840716022325
 20
413.9422188731107
 30
0.0
 40
10.0
100
AcDbArc
 50
295.8419327631682
 51
304.1580672107266
  0
CIRCLE
  5
1388
330
1F
100
AcDbEntity
  8
AM_VIS
100
AcDbCircle
 10
1043.840716022325
 20
413.9422188731107
 30
0.0
 40
7.0
  0
CIRCLE
  5
1389
330
1F
100
AcDbEntity
  8
AM_VIS
100
AcDbCircle
 10
1067.840716022325
 20
395.9422188731108
 30
0.0
 40
8.5
  0
CIRCLE
  5
138A
330
1F
100
AcDbEntity
  8
AM_VIS
100
AcDbCircle
 10
1067.840716022325
 20
431.9422188731108
 30
0.0
 40
4.5
  0
CIRCLE
  5
138B
330
1F
100
AcDbEntity
  8
AM_VIS
100
AcDbCircle
 10
1067.840716022325
 20
431.9422188731108
 30
0.0
 40
4.0
  0
LINE
  5
138C
330
1F
100
AcDbEntity
  8
AM_VIS
100
AcDbLine
 10
1070.340716022325
 20
378.9422188731109
 30
0.0
 11
1070.340716022325
 21
376.4422188731109
 31
0.0
  0
LINE
  5
138D
330
1F
100
AcDbEntity
  8
AM_VIS
100
AcDbLine
 10
1070.340716022325
 20
376.4422188731109
 30
0.0
 11
1049.340716022325
 21
376.4422188731109
 31
0.0
  0
LINE
  5
138E
330
1F
100
AcDbEntity
  8
AM_VIS
100
AcDbLine
 10
1049.340716022325
 20
376.4422188731109
 30
0.0
 11
1049.340716022325
 21
378.9422188731109
 31
0.0
  0
LINE
  5
138F
330
1F
100
AcDbEntity
  8
AM_VIS
100
AcDbLine
 10
1167.55748098861
 20
295.358027188594
 30
0.0
 11
1131.55748098861
 21
295.358027188594
 31
0.0
  0
LINE
  5
1390
330
1F
100
AcDbEntity
  8
AM_VIS
100
AcDbLine
 10
1131.55748098861
 20
295.358027188594
 30
0.0
 11
1131.55748098861
 21
298.8580271885941
 31
0.0
  0
LINE
  5
1391
330
1F
100
AcDbEntity
  8
AM_VIS
100
AcDbLine
 10
1131.55748098861
 20
283.3580271885941
 30
0.0
 11
1131.55748098861
 21
295.358027188594
 31
0.0
  0
LINE
  5
1392
330
1F
100
AcDbEntity
  8
AM_VIS
100
AcDbLine
 10
1131.55748098861
 20
298.8580271885941
 30
0.0
 11
1167.55748098861
 21
298.8580271885941
 31
0.0
  0
LINE
  5
1393
330
1F
100
AcDbEntity
  8
AM_VIS
100
AcDbLine
 10
1131.55748098861
 20
298.8580271885941
 30
0.0
 11
1131.55748098861
 21
329.3580271885941
 31
0.0
  0
LINE
  5
1394
330
1F
100
AcDbEntity
  8
AM_VIS
100
AcDbLine
 10
1131.55748098861
 20
304.8580271885941
 30
0.0
 11
1116.781023853302
 21
304.8580271885941
 31
0.0
  0
LINE
  5
1395
330
1F
100
AcDbEntity
  8
AM_VIS
100
AcDbLine
 10
1182.333938123917
 20
304.8580271885941
 30
0.0
 11
1167.55748098861
 21
304.8580271885941
 31
0.0
  0
LINE
  5
1396
330
1F
100
AcDbEntity
  8
AM_VIS
100
AcDbLine
 10
1114.55748098861
 20
304.8580271885941
 30
0.0
 11
1114.55748098861
 21
283.3580271885941
 31
0.0
  0
LINE
  5
1397
330
1F
100
AcDbEntity
  8
AM_VIS
100
AcDbLine
 10
1184.55748098861
 20
283.3580271885941
 30
0.0
 11
1184.55748098861
 21
304.8580271885941
 31
0.0
  0
LINE
  5
1398
330
1F
100
AcDbEntity
  8
AM_VIS
100
AcDbLine
 10
1116.781023853302
 20
283.3580271885941
 30
0.0
 11
1131.55748098861
 21
283.3580271885941
 31
0.0
  0
LINE
  5
1399
330
1F
100
AcDbEntity
  8
AM_VIS
100
AcDbLine
 10
1131.55748098861
 20
283.3580271885941
 30
0.0
 11
1167.55748098861
 21
283.3580271885941
 31
0.0
  0
LINE
  5
139A
330
1F
100
AcDbEntity
  8
AM_VIS
100
AcDbLine
 10
1167.55748098861
 20
283.3580271885941
 30
0.0
 11
1182.333938123917
 21
283.3580271885941
 31
0.0
  0
LINE
  5
139B
330
1F
100
AcDbEntity
  8
AM_VIS
100
AcDbLine
 10
1131.55748098861
 20
329.3580271885941
 30
0.0
 11
1136.55748098861
 21
334.3580271885941
 31
0.0
  0
LINE
  5
139C
330
1F
100
AcDbEntity
  8
AM_VIS
100
AcDbLine
 10
1167.55748098861
 20
283.3580271885941
 30
0.0
 11
1167.55748098861
 21
295.358027188594
 31
0.0
  0
LINE
  5
139D
330
1F
100
AcDbEntity
  8
AM_VIS
100
AcDbLine
 10
1167.55748098861
 20
298.8580271885941
 30
0.0
 11
1167.55748098861
 21
295.358027188594
 31
0.0
  0
LINE
  5
139E
330
1F
100
AcDbEntity
  8
AM_VIS
100
AcDbLine
 10
1167.55748098861
 20
298.8580271885941
 30
0.0
 11
1167.55748098861
 21
329.3580271885941
 31
0.0
  0
LINE
  5
139F
330
1F
100
AcDbEntity
  8
AM_VIS
100
AcDbLine
 10
1162.55748098861
 20
334.3580271885941
 30
0.0
 11
1167.55748098861
 21
329.3580271885941
 31
0.0
  0
LINE
  5
13A1
330
1F
100
AcDbEntity
  8
AM_VIS
100
AcDbLine
 10
1134.55748098861
 20
332.3580271885941
 30
0.0
 11
1134.55748098861
 21
334.3580271885941
 31
0.0
  0
LINE
  5
13A2
330
1F
100
AcDbEntity
  8
AM_VIS
100
AcDbLine
 10
1122.55748098861
 20
334.3580271885941
 30
0.0
 11
1122.55748098861
 21
304.8580271885941
 31
0.0
  0
LINE
  5
13A3
330
1F
100
AcDbEntity
  8
AM_VIS
100
AcDbLine
 10
1164.55748098861
 20
334.3580271885941
 30
0.0
 11
1164.55748098861
 21
332.3580271885941
 31
0.0
  0
LINE
  5
13A4
330
1F
100
AcDbEntity
  8
AM_VIS
100
AcDbLine
 10
1176.55748098861
 20
304.8580271885941
 30
0.0
 11
1176.55748098861
 21
334.3580271885941
 31
0.0
  0
LINE
  5
13A5
330
1F
100
AcDbEntity
  8
AM_VIS
100
AcDbLine
 10
1175.075119078815
 20
334.3580271885941
 30
0.0
 11
1164.55748098861
 21
334.3580271885941
 31
0.0
  0
LINE
  5
13A6
330
1F
100
AcDbEntity
  8
AM_VIS
100
AcDbLine
 10
1164.55748098861
 20
334.3580271885941
 30
0.0
 11
1162.55748098861
 21
334.3580271885941
 31
0.0
  0
LINE
  5
13A7
330
1F
100
AcDbEntity
  8
AM_VIS
100
AcDbLine
 10
1162.55748098861
 20
334.3580271885941
 30
0.0
 11
1136.55748098861
 21
334.3580271885941
 31
0.0
  0
LINE
  5
13A8
330
1F
100
AcDbEntity
  8
AM_VIS
100
AcDbLine
 10
1136.55748098861
 20
334.3580271885941
 30
0.0
 11
1134.55748098861
 21
334.3580271885941
 31
0.0
  0
LINE
  5
13A9
330
1F
100
AcDbEntity
  8
AM_VIS
100
AcDbLine
 10
1134.55748098861
 20
334.3580271885941
 30
0.0
 11
1124.039842898405
 21
334.3580271885941
 31
0.0
  0
LINE
  5
13AA
330
1F
100
AcDbEntity
  8
AM_VIS
100
AcDbLine
 10
1140.55748098861
 20
339.3580271885941
 30
0.0
 11
1140.55748098861
 21
341.3580271885941
 31
0.0
  0
LINE
  5
13AB
330
1F
100
AcDbEntity
  8
AM_VIS
100
AcDbLine
 10
1158.55748098861
 20
341.3580271885941
 30
0.0
 11
1158.55748098861
 21
339.3580271885941
 31
0.0
  0
LINE
  5
13AC
330
1F
100
AcDbEntity
  8
AM_VIS
100
AcDbLine
 10
1157.832398203687
 20
341.3580271885941
 30
0.0
 11
1150.282563775519
 21
341.3580271885941
 31
0.0
  0
LINE
  5
13AD
330
1F
100
AcDbEntity
  8
AM_VIS
100
AcDbLine
 10
1157.832398203687
 20
339.3580271885941
 30
0.0
 11
1157.832398203687
 21
341.3580271885941
 31
0.0
  0
LINE
  5
13AF
330
1F
100
AcDbEntity
  8
AM_VIS
100
AcDbLine
 10
1148.83239821079
 20
341.3580271885941
 30
0.0
 11
1141.282563768416
 21
341.3580271885941
 31
0.0
  0
LINE
  5
13B1
330
1F
100
AcDbEntity
  8
AM_VIS
100
AcDbLine
 10
1141.282563768416
 20
341.3580271885941
 30
0.0
 11
1141.282563768416
 21
339.3580271885941
 31
0.0
  0
LINE
  5
13B2
330
1F
100
AcDbEntity
  8
AM_VIS
100
AcDbLine
 10
1159.55748098861
 20
334.3580271885941
 30
0.0
 11
1159.55748098861
 21
339.3580271885941
 31
0.0
  0
LINE
  5
13B3
330
1F
100
AcDbEntity
  8
AM_VIS
100
AcDbLine
 10
1156.55748098861
 20
341.3580271885941
 30
0.0
 11
1156.55748098861
 21
354.8580271885941
 31
0.0
  0
LINE
  5
13B4
330
1F
100
AcDbEntity
  8
AM_VIS
100
AcDbLine
 10
1142.55748098861
 20
341.3580271885941
 30
0.0
 11
1142.55748098861
 21
354.8580271885941
 31
0.0
  0
LINE
  5
13B5
330
1F
100
AcDbEntity
  8
AM_VIS
100
AcDbLine
 10
1140.05748098861
 20
334.3580271885941
 30
0.0
 11
1140.05748098861
 21
344.3580271885941
 31
0.0
  0
LINE
  5
13B6
330
1F
100
AcDbEntity
  8
AM_VIS
100
AcDbLine
 10
1123.05748098861
 20
334.3580271885941
 30
0.0
 11
1123.05748098861
 21
344.3580271885941
 31
0.0
  0
LINE
  5
13B7
330
1F
100
AcDbEntity
  8
0
100
AcDbLine
 10
1059.840716022325
 20
280.3116835423233
 30
0.0
 11
1060.840716022325
 21
280.3116835423233
 31
0.0
  0
LINE
  5
13B8
330
1F
100
AcDbEntity
  8
0
100
AcDbLine
 10
1060.840716022325
 20
280.3116835423233
 30
0.0
 11
1060.840716022325
 21
272.3116835423233
 31
0.0
  0
LINE
  5
13B9
330
1F
100
AcDbEntity
  8
0
100
AcDbLine
 10
1060.840716022325
 20
272.3116835423233
 30
0.0
 11
1062.840716022325
 21
272.3116835423233
 31
0.0
  0
LINE
  5
13BA
330
1F
100
AcDbEntity
  8
0
100
AcDbLine
 10
1062.840716022325
 20
272.3116835423233
 30
0.0
 11
1059.840716022325
 21
267.2663198793212
 31
0.0
  0
LINE
  5
13BB
330
1F
100
AcDbEntity
  8
0
100
AcDbLine
 10
1059.840716022325
 20
280.3116835423233
 30
0.0
 11
1058.840716022325
 21
280.3116835423233
 31
0.0
  0
LINE
  5
13BC
330
1F
100
AcDbEntity
  8
0
100
AcDbLine
 10
1058.840716022325
 20
280.3116835423233
 30
0.0
 11
1058.840716022325
 21
272.3116835423233
 31
0.0
  0
LINE
  5
13BD
330
1F
100
AcDbEntity
  8
0
100
AcDbLine
 10
1058.840716022325
 20
272.3116835423233
 30
0.0
 11
1056.840716022325
 21
272.3116835423233
 31
0.0
  0
LINE
  5
13BE
330
1F
100
AcDbEntity
  8
0
100
AcDbLine
 10
1056.840716022325
 20
272.3116835423233
 30
0.0
 11
1059.840716022325
 21
267.2663198793212
 31
0.0
  0
LINE
  5
13BF
330
1F
100
AcDbEntity
  8
0
100
AcDbLine
 10
1057.3992339019
 20
279.2524464644424
 30
0.0
 11
1057.3992339019
 21
278.7524464644424
 31
0.0
  0
LINE
  5
13C0
330
1F
100
AcDbEntity
  8
0
100
AcDbLine
 10
1057.3992339019
 20
278.7524464644424
 30
0.0
 11
1053.3992339019
 21
278.7524464644424
 31
0.0
  0
LINE
  5
13C1
330
1F
100
AcDbEntity
  8
0
100
AcDbLine
 10
1053.3992339019
 20
278.7524464644424
 30
0.0
 11
1053.3992339019
 21
277.7524464644423
 31
0.0
  0
LINE
  5
13C2
330
1F
100
AcDbEntity
  8
0
100
AcDbLine
 10
1053.3992339019
 20
277.7524464644423
 30
0.0
 11
1050.876552070399
 21
279.2524464644424
 31
0.0
  0
LINE
  5
13C3
330
1F
100
AcDbEntity
  8
0
100
AcDbLine
 10
1057.3992339019
 20
279.2524464644424
 30
0.0
 11
1057.3992339019
 21
279.7524464644423
 31
0.0
  0
LINE
  5
13C4
330
1F
100
AcDbEntity
  8
0
100
AcDbLine
 10
1057.3992339019
 20
279.7524464644423
 30
0.0
 11
1053.3992339019
 21
279.7524464644423
 31
0.0
  0
LINE
  5
13C5
330
1F
100
AcDbEntity
  8
0
100
AcDbLine
 10
1053.3992339019
 20
279.7524464644423
 30
0.0
 11
1053.3992339019
 21
280.7524464644424
 31
0.0
  0
LINE
  5
13C6
330
1F
100
AcDbEntity
  8
0
100
AcDbLine
 10
1053.3992339019
 20
280.7524464644424
 30
0.0
 11
1050.876552070399
 21
279.2524464644424
 31
0.0
  0
LINE
  5
13C7
330
1F
100
AcDbEntity
  8
0
100
AcDbLine
 10
1062.28219814275
 20
279.2524464644424
 30
0.0
 11
1062.28219814275
 21
278.7524464644424
 31
0.0
  0
LINE
  5
13C8
330
1F
100
AcDbEntity
  8
0
100
AcDbLine
 10
1062.28219814275
 20
278.7524464644424
 30
0.0
 11
1066.28219814275
 21
278.7524464644424
 31
0.0
  0
LINE
  5
13C9
330
1F
100
AcDbEntity
  8
0
100
AcDbLine
 10
1066.28219814275
 20
278.7524464644424
 30
0.0
 11
1066.28219814275
 21
277.7524464644423
 31
0.0
  0
LINE
  5
13CA
330
1F
100
AcDbEntity
  8
0
100
AcDbLine
 10
1066.28219814275
 20
277.7524464644423
 30
0.0
 11
1068.804879974251
 21
279.2524464644424
 31
0.0
  0
LINE
  5
13CB
330
1F
100
AcDbEntity
  8
0
100
AcDbLine
 10
1062.28219814275
 20
279.2524464644424
 30
0.0
 11
1062.28219814275
 21
279.7524464644423
 31
0.0
  0
LINE
  5
13CC
330
1F
100
AcDbEntity
  8
0
100
AcDbLine
 10
1062.28219814275
 20
279.7524464644423
 30
0.0
 11
1066.28219814275
 21
279.7524464644423
 31
0.0
  0
LINE
  5
13CD
330
1F
100
AcDbEntity
  8
0
100
AcDbLine
 10
1066.28219814275
 20
279.7524464644423
 30
0.0
 11
1066.28219814275
 21
280.7524464644424
 31
0.0
  0
LINE
  5
13CE
330
1F
100
AcDbEntity
  8
0
100
AcDbLine
 10
1066.28219814275
 20
280.7524464644424
 30
0.0
 11
1068.804879974251
 21
279.2524464644424
 31
0.0
  0
ARC
  5
13CF
330
1F
100
AcDbEntity
  8
AM_4
100
AcDbCircle
 10
1149.55748098861
 20
316.8580271885941
 30
0.0
 40
13.22049999999999
100
AcDbArc
 50
260.0
 51
170.0
  0
CIRCLE
  5
13D0
330
1F
100
AcDbEntity
  8
AM_0
100
AcDbCircle
 10
1149.55748098861
 20
316.8580271885941
 30
0.0
 40
12.0585
  0
INSERT
  5
13D1
330
1F
100
AcDbEntity
  8
AM_5
100
AcDbBlockReference
  2
*S1110
 10
251.0038015458781
 20
22.1061526420674
 30
0.0
  0
TEXT
  5
13D2
330
1F
100
AcDbEntity
  8
AM_5
100
AcDbText
 10
1090.118025378788
 20
356.9824070160463
 30
0.0
 40
7.0
  1
2-PT3/4
100
AcDbText
  0
LINE
  5
13E3
330
1F
100
AcDbEntity
  8
AM_7
100
AcDbLine
 10
1022.840716022325
 20
413.9422188731107
 30
0.0
 11
1096.840716022325
 21
413.9422188731107
 31
0.0
1001
GENIUS_GENOBJ-N-CEN_13
1002
{
1000
OWNER
1000
GEN
1002
}
1001
GENIUS_GENODEF_13
1002
{
1000
HIER
1070
     0
1002
}
1002
{
1000
MANEDIT
1070
     0
1002
}
1002
{
1000
NOSEL
1070
     0
1002
}
1002
{
1000
BEHIND
1070
     0
1002
}
1002
{
1000
OTHER
1070
     0
1002
}
1002
{
1000
REACTOR
1002
}
1001
GENIUS_GENCEN_19
1002
{
1040
2.0
1002
}
  0
LINE
  5
13E4
330
1F
100
AcDbEntity
  8
AM_7
100
AcDbLine
 10
1021.677560311925
 20
316.8580271885941
 30
0.0
 11
1035.427560311926
 21
316.8580271885941
 31
0.0
  0
LINE
  5
13E5
330
1F
100
AcDbEntity
  8
AM_7
100
AcDbLine
 10
1097.503960302987
 20
316.8580271885941
 30
0.0
 11
1083.753960302987
 21
316.8580271885941
 31
0.0
  0
DIMENSION
  5
13E7
330
1F
100
AcDbEntity
  8
AM_5
100
AcDbDimension
  2
*D6
 10
1012.840715022325
 20
316.8580271885941
 30
0.0
 11
1007.340715022325
 21
302.0630524417637
 31
0.0
 70
    32
 71
     5
 42
17.5
  3
AM_ISO$0
100
AcDbAlignedDimension
 13
1024.840716022325
 23
334.3580271885941
 33
0.0
 14
1020.585584008758
 24
316.8580271885941
 34
0.0
 50
90.0
100
AcDbRotatedDimension
  0
DIMENSION
  5
13EA
330
1F
100
AcDbEntity
  8
AM_5
100
AcDbDimension
  2
*D7
 10
1001.068921741362
 20
182.358027188594
 30
0.0
 11
1001.068921741362
 21
258.5730954022484
 31
0.0
 70
   160
 71
     5
 42
152.0
  3
AM_ISO$0
100
AcDbAlignedDimension
 13
1024.840716022325
 23
334.3580271885941
 33
0.0
 14
1050.840716022325
 24
182.358027188594
 34
0.0
 50
90.0
100
AcDbRotatedDimension
  0
DIMENSION
  5
1438
330
1F
100
AcDbEntity
  8
AM_5
100
AcDbDimension
  2
*D8
 10
1110.204712244461
 20
448.9422188731108
 30
0.0
 11
1104.704712244461
 21
413.9422188731109
 31
0.0
 70
    32
 71
     5
 42
70.0
  3
AM_ISO$0
100
AcDbAlignedDimension
 13
1083.983598787059
 23
378.9422188731109
 33
0.0
 14
1083.983598787059
 24
448.9422188731108
 34
0.0
 50
90.0
100
AcDbRotatedDimension
  0
DIMENSION
  5
1464
102
{ACAD_XDICTIONARY
360
1471
102
}
102
{ACAD_REACTORS
330
1472
102
}
330
1F
100
AcDbEntity
  8
AM_5
100
AcDbDimension
  2
*D9
 10
1094.840716022325
 20
366.443036267834
 30
0.0
 11
1059.840716022325
 21
366.443036267834
 31
0.0
 70
   160
 71
     5
 42
70.0
  3
AM_ISO$0
100
AcDbAlignedDimension
 13
1024.840716022325
 23
395.9422188731108
 33
0.0
 14
1094.840716022325
 24
395.9422188731108
 34
0.0
100
AcDbRotatedDimension
  0
LINE
  5
1519
330
1F
100
AcDbEntity
  8
0
100
AcDbLine
 10
1167.55748098861
 20
347.8580271885941
 30
0.0
 11
1167.55748098861
 21
335.8580271885941
 31
0.0
  0
LINE
  5
151C
330
1F
100
AcDbEntity
  8
0
100
AcDbLine
 10
1169.05748098861
 20
347.8580271885941
 30
0.0
 11
1169.05748098861
 21
335.8580271885941
 31
0.0
  0
LINE
  5
151D
330
1F
100
AcDbEntity
  8
0
100
AcDbLine
 10
1170.55748098861
 20
347.8580271885941
 30
0.0
 11
1170.55748098861
 21
335.8580271885941
 31
0.0
  0
LINE
  5
151E
330
1F
100
AcDbEntity
  8
0
100
AcDbLine
 10
1166.05748098861
 20
347.8580271885941
 30
0.0
 11
1166.05748098861
 21
335.8580271885941
 31
0.0
  0
LINE
  5
151F
330
1F
100
AcDbEntity
  8
0
100
AcDbLine
 10
1164.55748098861
 20
347.8580271885941
 30
0.0
 11
1164.55748098861
 21
335.8580271885941
 31
0.0
  0
LINE
  5
1520
330
1F
100
AcDbEntity
  8
0
100
AcDbLine
 10
1067.840716022325
 20
347.358027188594
 30
0.0
 11
1067.840716022325
 21
344.3580271885941
 31
0.0
  0
LINE
  5
1521
330
1F
100
AcDbEntity
  8
0
100
AcDbLine
 10
1069.340716022325
 20
347.358027188594
 30
0.0
 11
1069.340716022325
 21
344.3580271885941
 31
0.0
  0
LINE
  5
1522
330
1F
100
AcDbEntity
  8
0
100
AcDbLine
 10
1070.840716022325
 20
347.358027188594
 30
0.0
 11
1070.840716022325
 21
344.3580271885941
 31
0.0
  0
LINE
  5
1523
330
1F
100
AcDbEntity
  8
0
100
AcDbLine
 10
1066.340716022325
 20
347.358027188594
 30
0.0
 11
1066.340716022325
 21
344.3580271885941
 31
0.0
  0
LINE
  5
1524
330
1F
100
AcDbEntity
  8
0
100
AcDbLine
 10
1064.840716022325
 20
347.358027188594
 30
0.0
 11
1064.840716022325
 21
344.3580271885941
 31
0.0
  0
LWPOLYLINE
  5
1973
330
1F
100
AcDbEntity
  8
LOGO
 62
     4
100
AcDbPolyline
 90
        4
 70
     1
 43
0.0
 10
987.5648929684482
 20
179.108018259231
 10
1188.464835728261
 20
179.108018259231
 10
1188.464835728261
 20
453.1994000854862
 10
987.5648929684482
 20
453.1994000854862
1001
GENIUS_GENREC_14
1002
{
1000
PYDIR
1011
987.5648929684482
1021
453.1994000854862
1031
0.0
1002
}
1002
{
1000
PXDIR
1011
1188.464835728261
1021
179.108018259231
1031
0.0
1002
}
1002
{
1000
PORI
1011
987.5648929684482
1021
179.108018259231
1031
0.0
1002
}
1002
{
1000
PINS
1011
987.5648929684482
1021
179.108018259231
1031
0.0
1002
}
1002
{
1000
PINS2
1011
1188.464835728261
1021
453.1994000854862
1031
0.0
1002
}
1002
{
1000
C
1070
     1
1002
}
1001
GENIUS_GENODEF_13
1002
{
1000
HIER
1070
     0
1002
}
1002
{
1000
MANEDIT
1070
     0
1002
}
1002
{
1000
NOSEL
1070
     0
1002
}
1002
{
1000
BEHIND
1070
     0
1002
}
1002
{
1000
OTHER
1070
     0
1002
}
1002
{
1000
REACTOR
1002
}
1001
GENIUS_GENOBJ-N-REC_13
1002
{
1000
OWNER
1000
GEN
1002
}
  0
LWPOLYLINE
  5
1974
330
1F
100
AcDbEntity
  8
LOGO
 62
     4
100
AcDbPolyline
 90
        4
 70
     1
 43
0.0
 10
987.5648929684482
 20
179.108018259231
 10
1188.464835728261
 20
179.108018259231
 10
1188.464835728261
 20
153.820506729616
 10
987.5648929684482
 20
153.820506729616
1001
GENIUS_GENREC_14
1002
{
1000
PYDIR
1011
987.5648929684482
1021
153.820506729616
1031
0.0
1002
}
1002
{
1000
PXDIR
1011
1188.464835728261
1021
179.108018259231
1031
0.0
1002
}
1002
{
1000
PORI
1011
987.5648929684482
1021
179.108018259231
1031
0.0
1002
}
1002
{
1000
PINS
1011
987.5648929684482
1021
179.108018259231
1031
0.0
1002
}
1002
{
1000
PINS2
1011
1188.464835728261
1021
153.820506729616
1031
0.0
1002
}
1002
{
1000
C
1070
     1
1002
}
1001
GENIUS_GENOBJ-N-REC_13
1002
{
1000
OWNER
1000
GEN
1002
}
1001
GENIUS_GENODEF_13
1002
{
1000
HIER
1070
     0
1002
}
1002
{
1000
MANEDIT
1070
     0
1002
}
1002
{
1000
NOSEL
1070
     0
1002
}
1002
{
1000
BEHIND
1070
     0
1002
}
1002
{
1000
OTHER
1070
     0
1002
}
1002
{
1000
REACTOR
1002
}
  0
TEXT
  5
1975
330
1F
100
AcDbEntity
  8
LOGO
 62
     7
100
AcDbText
 10
1044.662419604257
 20
168.0299897618849
 30
0.0
 40
3.371668203948595
  1
Order example:
 41
0.8
  7
CHINESET
100
AcDbText
  0
TEXT
  5
1976
330
1F
100
AcDbEntity
  8
LOGO
 62
     7
100
AcDbText
 10
1045.267324762607
 20
172.7766004802351
 30
0.0
 40
5.057502305922893
  1
訂購代號：
  7
CHINESET
100
AcDbText
  0
LINE
  5
1977
330
1F
100
AcDbEntity
  8
LOGO
 62
     4
100
AcDbLine
 10
1043.1974183336
 20
153.8205067296163
 30
0.0
 11
1043.1974183336
 21
179.108018259231
 31
0.0
  0
TEXT
  5
1978
330
1F
100
AcDbEntity
  8
LOGO
  6
Continuous
100
AcDbText
 10
996.6482807794493
 20
158.7882002074269
 30
0.0
 40
3.793126729442171
  1
金器工業股份有限公司
  7
CHINESET
100
AcDbText
  0
TEXT
  5
1979
330
1F
100
AcDbEntity
  8
LOGO
  6
Continuous
100
AcDbText
 10
989.6810574105799
 20
154.9943303225384
 30
0.0
 40
2.528751152961445
  1
MINDMAN INDUSTRIAL CO., LTD.
 41
0.85
  7
CHINESET
100
AcDbText
  0
LINE
  5
197A
330
1F
100
AcDbEntity
  8
LOGO
 62
     4
100
AcDbLine
 10
1043.1974183336
 20
174.050515953308
 30
0.0
 11
1006.109068090165
 21
174.050515953308
 31
0.0
  0
LINE
  5
197B
330
1F
100
AcDbEntity
  8
LOGO
 62
     4
100
AcDbLine
 10
1043.1974183336
 20
168.9930136473851
 30
0.0
 11
1006.109068090165
 21
168.9930136473851
 31
0.0
  0
LINE
  5
197C
330
1F
100
AcDbEntity
  8
LOGO
 62
     4
100
AcDbLine
 10
1043.1974183336
 20
163.9355113414625
 30
0.0
 11
987.5648929684482
 21
163.9355113414625
 31
0.0
  0
LINE
  5
197D
330
1F
100
AcDbEntity
  8
LOGO
 62
     4
100
AcDbLine
 10
1006.109068090165
 20
163.9355113414625
 30
0.0
 11
1006.109068090165
 21
179.108018259231
 31
0.0
  0
TEXT
  5
197E
330
1F
100
AcDbEntity
  8
LOGO
100
AcDbText
 10
1031.457204938085
 20
165.1998869179428
 30
0.0
 40
2.528751152961445
  1
mm
  7
CHINESET
 72
     1
 11
1034.588039698895
 21
166.4642624944235
 31
0.0
100
AcDbText
 73
     2
  0
TEXT
  5
197F
330
1F
100
AcDbEntity
  8
LOGO
100
AcDbText
 10
1030.13262100082
 20
175.3148915297887
 30
0.0
 40
2.528751152961445
  1
1 : 1
  7
CHINESET
 72
     1
 11
1034.588039698895
 21
176.5792671062694
 31
0.0
100
AcDbText
 73
     2
  0
LINE
  5
1980
330
1F
100
AcDbEntity
  8
LOGO
 62
     4
100
AcDbLine
 10
1026.339077313857
 20
163.9355113414625
 30
0.0
 11
1026.339077313857
 21
179.108018259231
 31
0.0
  0
CIRCLE
  5
1981
330
1F
100
AcDbEntity
  8
LOGO
  6
Continuous
100
AcDbCircle
 10
1031.021376364759
 20
171.5271738175678
 30
0.0
 40
1.468252439502069
  0
CIRCLE
  5
1982
330
1F
100
AcDbEntity
  8
LOGO
  6
Continuous
100
AcDbCircle
 10
1031.021376364759
 20
171.5271738175678
 30
0.0
 40
0.8602659525136685
  0
LINE
  5
1983
330
1F
100
AcDbEntity
  8
LOGO
100
AcDbLine
 10
1040.248045063399
 20
170.0589213780654
 30
0.0
 11
1040.248045063399
 21
172.9954262570702
 31
0.0
  0
LINE
  5
1984
330
1F
100
AcDbEntity
  8
LOGO
100
AcDbLine
 10
1035.645157947271
 20
170.6669078650543
 30
0.0
 11
1035.645157947271
 21
172.3874397700815
 31
0.0
  0
LINE
  5
1985
330
1F
100
AcDbEntity
  8
LOGO
  6
Continuous
100
AcDbLine
 10
1035.645157947271
 20
172.3874397700815
 30
0.0
 11
1040.248045063399
 21
172.9954262570702
 31
0.0
  0
LINE
  5
1986
330
1F
100
AcDbEntity
  8
LOGO
  6
Continuous
100
AcDbLine
 10
1035.645157947271
 20
170.6669078650543
 30
0.0
 11
1040.248045063399
 21
170.0589213780654
 31
0.0
  0
TEXT
  5
1987
330
1F
100
AcDbEntity
  8
LOGO
100
AcDbText
 10
1008.194158884593
 20
175.3161359939387
 30
165.7301846909305
 40
2.528751152961445
  1
比例 Scale:
 41
0.9
  7
CHINESET
 72
     4
 11
1016.224072702011
 21
176.5792671062694
 31
165.7301846909305
100
AcDbText
  0
TEXT
  5
1988
330
1F
100
AcDbEntity
  8
LOGO
100
AcDbText
 10
1008.048529911945
 20
170.2929601574887
 30
165.7301846909305
 40
2.528751152961445
  1
投影  View:
 41
0.9
  7
CHINESET
 72
     4
 11
1016.224072702011
 21
171.5217648003464
 31
165.7301846909305
100
AcDbText
  0
TEXT
  5
1989
330
1F
100
AcDbEntity
  8
LOGO
100
AcDbText
 10
1008.295760493418
 20
165.1998869179428
 30
165.7301846909305
 40
2.528751152961445
  1
單位  Unit:
 41
0.9
  7
CHINESET
 72
     4
 11
1016.224072702011
 21
166.4642624944235
 31
165.7301846909305
100
AcDbText
  0
SOLID
  5
198A
330
1F
100
AcDbEntity
  8
LOGO
 62
     5
100
AcDbTrace
 10
990.1885128730146
 20
168.1392001938777
 30
0.0
 11
991.2818785171252
 21
168.1392001938774
 31
0.0
 12
995.8438524115159
 22
178.5073226811304
 32
0.0
 13
996.9372180556266
 23
178.50732268113
 33
0.0
  0
SOLID
  5
198B
330
1F
100
AcDbEntity
  8
LOGO
 62
     5
100
AcDbTrace
 10
991.7343056802062
 20
168.1392001938777
 30
0.0
 11
992.8276713243164
 21
168.1392001938777
 31
0.0
 12
996.9372180556266
 22
177.6778728821499
 32
0.0
 13
995.8438524115159
 23
173.6688655204121
 33
0.0
  0
SOLID
  5
198C
330
1F
100
AcDbEntity
  8
LOGO
 62
     2
100
AcDbTrace
 10
991.2818785171252
 20
168.1392001938774
 30
0.0
 11
991.7343056802062
 21
168.1392001938777
 31
0.0
 12
996.9372180556266
 22
178.50732268113
 32
0.0
 13
997.3896452187075
 23
178.50732268113
 33
0.0
  0
SOLID
  5
198D
330
1F
100
AcDbEntity
  8
LOGO
 62
     5
100
AcDbTrace
 10
988.4355796194066
 20
164.368973834877
 30
0.0
 11
988.812602255307
 21
164.368973834877
 31
0.0
 12
989.8743273430984
 22
166.2540870143772
 32
0.0
 13
990.2513499789975
 23
166.2540870143772
 33
0.0
  0
SOLID
  5
198E
330
1F
100
AcDbEntity
  8
LOGO
 62
     5
100
AcDbTrace
 10
989.8743273430984
 20
166.2540870143772
 30
0.0
 11
990.2513499789975
 21
166.2540870143772
 31
0.0
 12
989.8743273430984
 22
164.368973834877
 32
0.0
 13
990.2513499789975
 23
164.368973834877
 33
0.0
  0
SOLID
  5
198F
330
1F
100
AcDbEntity
  8
LOGO
 62
     5
100
AcDbTrace
 10
989.8743273430984
 20
164.368973834877
 30
0.0
 11
990.2513499789975
 21
164.368973834877
 31
0.0
 12
991.3130750667908
 22
166.2540870143772
 32
0.0
 13
991.6900977026907
 23
166.2540870143772
 33
0.0
  0
SOLID
  5
1990
330
1F
100
AcDbEntity
  8
LOGO
 62
     5
100
AcDbTrace
 10
991.3130750667908
 20
166.2540870143772
 30
0.0
 11
991.6900977026907
 21
166.2540870143772
 31
0.0
 12
991.3130750667908
 22
164.368973834877
 32
0.0
 13
991.6900977026907
 23
164.368973834877
 33
0.0
  0
POLYLINE
  5
1991
330
1F
100
AcDbEntity
  8
LOGO
 62
     5
100
AcDb2dPolyline
 66
     1
 10
0.0
 20
0.0
 30
0.0
 40
0.3776268388422427
 41
0.3776268388422427
  0
VERTEX
  5
1992
330
1991
100
AcDbEntity
  8
LOGO
 62
     5
100
AcDbVertex
100
AcDb2dVertex
 10
1003.950745387782
 20
165.5000417425771
 30
0.0
 42
1.0
  0
VERTEX
  5
1993
330
1991
100
AcDbEntity
  8
LOGO
 62
     5
100
AcDbVertex
100
AcDb2dVertex
 10
1002.817864871255
 20
165.5000417425771
 30
0.0
 42
1.0
  0
SEQEND
  5
1994
330
1991
100
AcDbEntity
  8
LOGO
 62
     5
  0
POLYLINE
  5
1995
330
1F
100
AcDbEntity
  8
LOGO
 62
     5
100
AcDb2dPolyline
 66
     1
 10
0.0
 20
0.0
 30
0.0
 70
     1
  0
VERTEX
  5
1996
330
1995
100
AcDbEntity
  8
LOGO
 62
     5
100
AcDbVertex
100
AcDb2dVertex
 10
1000.682334707076
 20
165.3115304246267
 30
0.0
 42
1.000000057330635
  0
VERTEX
  5
1997
330
1995
100
AcDbEntity
  8
LOGO
 62
     5
100
AcDbVertex
100
AcDb2dVertex
 10
1001.813402614777
 20
165.3115304246267
 30
0.0
 42
1.000000057330635
  0
SEQEND
  5
1998
330
1995
100
AcDbEntity
  8
LOGO
 62
     5
  0
CIRCLE
  5
1999
330
1F
100
AcDbEntity
  8
LOGO
 62
     5
100
AcDbCircle
 10
1001.247868660927
 20
165.3115304246267
 30
0.0
 40
0.5655339538501428
  0
POLYLINE
  5
199A
330
1F
100
AcDbEntity
  8
LOGO
 62
     5
100
AcDb2dPolyline
 66
     1
 10
0.0
 20
0.0
 30
0.0
 70
     1
 40
0.3776268388422427
 41
0.3776268388422427
  0
VERTEX
  5
199B
330
199A
100
AcDbEntity
  8
LOGO
 62
     5
100
AcDbVertex
100
AcDb2dVertex
 10
1000.492614983242
 20
165.3115304246267
 30
0.0
 42
1.0
  0
VERTEX
  5
199C
330
199A
100
AcDbEntity
  8
LOGO
 62
     5
100
AcDbVertex
100
AcDb2dVertex
 10
1002.003122338611
 20
165.3115304246267
 30
0.0
 42
1.0
  0
SEQEND
  5
199D
330
199A
100
AcDbEntity
  8
LOGO
 62
     5
  0
LINE
  5
199E
330
1F
100
AcDbEntity
  8
LOGO
100
AcDbLine
 10
1004.138350401318
 20
164.368973834877
 30
0.0
 11
1004.138350401318
 21
165.5000417425771
 31
0.0
  0
SOLID
  5
199F
330
1F
100
AcDbEntity
  8
LOGO
 62
     5
100
AcDbTrace
 10
1001.813364912515
 20
166.2540870143772
 30
0.0
 11
1002.190387548414
 21
166.2540870143772
 31
0.0
 12
1001.813364912515
 22
164.368973834877
 32
0.0
 13
1002.190387548414
 23
164.368973834877
 33
0.0
  0
SOLID
  5
19A0
330
1F
100
AcDbEntity
  8
LOGO
 62
     5
100
AcDbTrace
 10
1002.630259857718
 20
164.368973834877
 30
0.0
 11
1003.007282493618
 21
164.368973834877
 31
0.0
 12
1002.630259857718
 22
166.2540870143772
 32
0.0
 13
1003.007282493618
 23
166.2540870143772
 33
0.0
  0
SOLID
  5
19A1
330
1F
100
AcDbEntity
  8
LOGO
 62
     5
100
AcDbTrace
 10
1003.761327765419
 20
165.5000417425771
 30
0.0
 11
1004.138350401318
 21
165.5000417425771
 31
0.0
 12
1003.761327765419
 22
164.368973834877
 32
0.0
 13
1004.138350401318
 23
164.368973834877
 33
0.0
  0
SOLID
  5
19A2
330
1F
100
AcDbEntity
  8
LOGO
 62
     5
100
AcDbTrace
 10
1002.592557594128
 20
177.6778728821499
 30
0.0
 11
1001.499191950018
 21
173.6688655204121
 31
0.0
 12
1002.592557594128
 22
168.1392001938774
 32
0.0
 13
1001.499191950018
 23
168.1392001938774
 33
0.0
  0
SOLID
  5
19A3
330
1F
100
AcDbEntity
  8
LOGO
 62
     5
100
AcDbTrace
 10
1003.044984757208
 20
168.1392001938774
 30
0.0
 11
1004.138350401318
 21
168.1392001938774
 31
0.0
 12
1003.044984757208
 22
178.50732268113
 32
0.0
 13
1004.138350401318
 23
178.5073226811304
 33
0.0
  0
SOLID
  5
19A4
330
1F
100
AcDbEntity
  8
LOGO
 62
     2
100
AcDbTrace
 10
1002.592557594128
 20
178.5073226811304
 30
0.0
 11
1003.044984757208
 21
178.50732268113
 31
0.0
 12
1002.592557594128
 22
168.1392001938774
 32
0.0
 13
1003.044984757208
 23
168.1392001938774
 33
0.0
  0
POLYLINE
  5
19A5
330
1F
100
AcDbEntity
  8
LOGO
 62
     5
100
AcDb2dPolyline
 66
     1
 10
0.0
 20
0.0
 30
0.0
 40
0.3776268388422427
 41
0.3776268388422427
  0
VERTEX
  5
19A6
330
19A5
100
AcDbEntity
  8
LOGO
 62
     5
100
AcDbVertex
100
AcDb2dVertex
 10
998.5467291383717
 20
165.5000417425771
 30
0.0
 42
1.0
  0
VERTEX
  5
19A7
330
19A5
100
AcDbEntity
  8
LOGO
 62
     5
100
AcDbVertex
100
AcDb2dVertex
 10
997.413848621845
 20
165.5000417425771
 30
0.0
 42
1.0
  0
SEQEND
  5
19A8
330
19A5
100
AcDbEntity
  8
LOGO
 62
     5
  0
POLYLINE
  5
19A9
330
1F
100
AcDbEntity
  8
LOGO
 62
     5
100
AcDb2dPolyline
 66
     1
 10
0.0
 20
0.0
 30
0.0
 40
0.3776268388422427
 41
0.3776268388422427
  0
VERTEX
  5
19AA
330
19A9
100
AcDbEntity
  8
LOGO
 62
     5
100
AcDbVertex
100
AcDb2dVertex
 10
999.677797046071
 20
165.5000417425771
 30
0.0
 42
1.0
  0
VERTEX
  5
19AB
330
19A9
100
AcDbEntity
  8
LOGO
 62
     5
100
AcDbVertex
100
AcDb2dVertex
 10
998.5449165295444
 20
165.5000417425771
 30
0.0
 42
1.0
  0
SEQEND
  5
19AC
330
19A9
100
AcDbEntity
  8
LOGO
 62
     5
  0
POLYLINE
  5
19AD
330
1F
100
AcDbEntity
  8
LOGO
 62
     5
100
AcDb2dPolyline
 66
     1
 10
0.0
 20
0.0
 30
0.0
 40
0.3776268388422427
 41
0.3776268388422427
  0
VERTEX
  5
19AE
330
19AD
100
AcDbEntity
  8
LOGO
 62
     5
100
AcDbVertex
100
AcDb2dVertex
 10
994.2737807966606
 20
165.5000417425771
 30
0.0
 42
1.0
  0
VERTEX
  5
19AF
330
19AD
100
AcDbEntity
  8
LOGO
 62
     5
100
AcDbVertex
100
AcDb2dVertex
 10
993.1409002801345
 20
165.5000417425771
 30
0.0
 42
1.0
  0
SEQEND
  5
19B0
330
19AD
100
AcDbEntity
  8
LOGO
 62
     5
  0
SOLID
  5
19B1
330
1F
100
AcDbEntity
  8
LOGO
 62
     5
100
AcDbTrace
 10
992.9532952665978
 20
166.2540870143772
 30
0.0
 11
993.3303179024973
 21
166.2540870143772
 31
0.0
 12
992.9532952665978
 22
164.368973834877
 32
0.0
 13
993.3303179024973
 23
164.368973834877
 33
0.0
  0
SOLID
  5
19B2
330
1F
100
AcDbEntity
  8
LOGO
 62
     5
100
AcDbTrace
 10
994.0843631742978
 20
165.5000417425771
 30
0.0
 11
994.4613858101986
 21
165.5000417425771
 31
0.0
 12
994.0843631742978
 22
164.368973834877
 32
0.0
 13
994.4613858101986
 23
164.368973834877
 33
0.0
  0
POLYLINE
  5
19B3
330
1F
100
AcDbEntity
  8
LOGO
 62
     5
100
AcDb2dPolyline
 66
     1
 10
0.0
 20
0.0
 30
0.0
 70
     1
 40
0.3776268388422427
 41
0.3776268388422427
  0
VERTEX
  5
19B4
330
19B3
100
AcDbEntity
  8
LOGO
 62
     5
100
AcDbVertex
100
AcDb2dVertex
 10
995.0885987338317
 20
165.3115304246267
 30
0.0
 42
1.0
  0
VERTEX
  5
19B5
330
19B3
100
AcDbEntity
  8
LOGO
 62
     5
100
AcDbVertex
100
AcDb2dVertex
 10
996.599106089201
 20
165.3115304246267
 30
0.0
 42
1.0
  0
SEQEND
  5
19B6
330
19B3
100
AcDbEntity
  8
LOGO
 62
     5
  0
SOLID
  5
19B7
330
1F
100
AcDbEntity
  8
LOGO
 62
     5
100
AcDbTrace
 10
996.4093486631036
 20
166.8196209682275
 30
0.0
 11
996.7863712990034
 21
166.8196209682275
 31
0.0
 12
996.4093486631036
 22
164.368973834877
 32
0.0
 13
996.7863712990034
 23
164.368973834877
 33
0.0
  0
SOLID
  5
19B8
330
1F
100
AcDbEntity
  8
LOGO
 62
     5
100
AcDbTrace
 10
997.226243608309
 20
166.2540870143772
 30
0.0
 11
997.6032662442083
 21
166.2540870143772
 31
0.0
 12
997.226243608309
 22
164.368973834877
 32
0.0
 13
997.6032662442083
 23
164.368973834877
 33
0.0
  0
SOLID
  5
19B9
330
1F
100
AcDbEntity
  8
LOGO
 62
     5
100
AcDbTrace
 10
998.3573115160082
 20
165.5000417425771
 30
0.0
 11
998.7343341519087
 21
165.5000417425771
 31
0.0
 12
998.3573115160082
 22
164.368973834877
 32
0.0
 13
998.7343341519087
 23
164.368973834877
 33
0.0
  0
SOLID
  5
19BA
330
1F
100
AcDbEntity
  8
LOGO
 62
     5
100
AcDbTrace
 10
999.4883794237088
 20
165.5000417425771
 30
0.0
 11
999.8654020596083
 21
165.5000417425771
 31
0.0
 12
999.4883794237088
 22
164.3689738348764
 32
0.0
 13
999.8654020596083
 23
164.3689738348764
 33
0.0
  0
SOLID
  5
19BB
330
1F
100
AcDbEntity
  8
LOGO
 62
     5
100
AcDbTrace
 10
992.1364003213927
 20
166.5180028595074
 30
0.0
 11
992.5134229572938
 21
166.5180028595074
 31
0.0
 12
992.1364003213927
 22
166.8196209682275
 32
0.0
 13
992.5134229572938
 23
166.8196209682275
 33
0.0
  0
SOLID
  5
19BC
330
1F
100
AcDbEntity
  8
LOGO
 62
     5
100
AcDbTrace
 10
992.1364003213927
 20
166.2540870143772
 30
0.0
 11
992.5134229572938
 21
166.2540870143772
 31
0.0
 12
992.1364003213927
 22
164.3689738348764
 32
0.0
 13
992.5134229572938
 23
164.368973834877
 33
0.0
  0
SOLID
  5
19BD
330
1F
100
AcDbEntity
  8
LOGO
 62
     5
100
AcDbTrace
 10
995.8438524115159
 20
168.1392001938777
 30
0.0
 11
996.9372180556266
 21
168.1392001938777
 31
0.0
 12
995.8438524115159
 22
173.6688655204121
 32
0.0
 13
996.9372180556266
 23
177.6778728821499
 33
0.0
  0
SOLID
  5
19BE
330
1F
100
AcDbEntity
  8
LOGO
 62
     5
100
AcDbTrace
 10
997.3896452187075
 20
178.50732268113
 30
0.0
 11
998.4830108628171
 21
178.5073226811304
 31
0.0
 12
997.3896452187075
 22
168.9686499928576
 32
0.0
 13
998.4830108628171
 23
172.9776573545955
 33
0.0
  0
SOLID
  5
19BF
330
1F
100
AcDbEntity
  8
LOGO
 62
     2
100
AcDbTrace
 10
996.9372180556266
 20
178.50732268113
 30
0.0
 11
997.3896452187075
 21
178.50732268113
 31
0.0
 12
996.9372180556266
 22
168.1392001938777
 32
0.0
 13
997.3896452187075
 23
168.1392001938777
 33
0.0
  0
SOLID
  5
19C0
330
1F
100
AcDbEntity
  8
LOGO
 62
     5
100
AcDbTrace
 10
997.3896452187075
 20
168.9686499928576
 30
0.0
 11
998.4830108628171
 21
172.9776573545955
 31
0.0
 12
1002.592557594128
 22
178.5073226811304
 32
0.0
 13
1001.499191950018
 23
178.5073226811304
 33
0.0
  0
SOLID
  5
19C1
330
1F
100
AcDbEntity
  8
LOGO
 62
     5
100
AcDbTrace
 10
997.3896452187075
 20
168.1392001938777
 30
0.0
 11
998.4830108628171
 21
168.1392001938777
 31
0.0
 12
1002.592557594128
 22
177.6778728821499
 32
0.0
 13
1001.499191950018
 23
173.6688655204121
 33
0.0
  0
SOLID
  5
19C2
330
1F
100
AcDbEntity
  8
LOGO
 62
     2
100
AcDbTrace
 10
996.9372180556266
 20
168.1392001938777
 30
0.0
 11
997.3896452187075
 21
168.1392001938777
 31
0.0
 12
1002.592557594128
 22
178.5073226811304
 32
0.0
 13
1003.044984757208
 23
178.50732268113
 33
0.0
  0
LINE
  5
19C3
330
1F
100
AcDbEntity
  8
LOGO
 62
     4
100
AcDbLine
 10
1094.837609145592
 20
165.1998869179433
 30
0.0
 11
1094.837609145592
 21
155.9277993570842
 31
0.0
  0
LINE
  5
19C4
330
1F
100
AcDbEntity
  8
LOGO
 62
     4
100
AcDbLine
 10
1077.979268125848
 20
165.1998869179433
 30
0.0
 11
1077.979268125848
 21
155.9277993570842
 31
0.0
  0
LINE
  5
19C5
330
1F
100
AcDbEntity
  8
LOGO
 62
     4
100
AcDbLine
 10
1094.837609145592
 20
155.9277993570842
 30
0.0
 11
1077.979268125848
 21
155.9277993570842
 31
0.0
  0
LINE
  5
19C6
330
1F
100
AcDbEntity
  8
LOGO
 62
     4
100
AcDbLine
 10
1111.263407041053
 20
176.5792671062694
 30
0.0
 11
1077.979268125848
 21
176.5792671062694
 31
0.0
  0
LINE
  5
19C7
330
1F
100
AcDbEntity
  8
LOGO
 62
     4
100
AcDbLine
 10
1111.263407041053
 20
168.9930136473851
 30
0.0
 11
1077.979268125848
 21
168.9930136473851
 31
0.0
  0
LINE
  5
19C8
330
1F
100
AcDbEntity
  8
LOGO
 62
     4
100
AcDbLine
 10
1077.979268125848
 20
176.5792671062694
 30
0.0
 11
1077.979268125848
 21
168.9930136473851
 31
0.0
  0
LINE
  5
19C9
330
1F
100
AcDbEntity
  8
LOGO
 62
     4
100
AcDbLine
 10
1111.263407041053
 20
176.5792671062694
 30
0.0
 11
1111.263407041053
 21
168.9930136473851
 31
0.0
  0
LINE
  5
19CA
330
1F
100
AcDbEntity
  8
LOGO
 62
     4
100
AcDbLine
 10
1087.288020607718
 20
168.9930136473851
 30
0.0
 11
1087.288020607718
 21
165.1998869179433
 31
0.0
  0
TEXT
  5
19CB
330
1F
100
AcDbEntity
  8
LOGO
  6
Continuous
 62
     7
100
AcDbText
 10
1079.719668383092
 20
170.5766329658258
 30
0.0
 40
4.425955379999998
  1
MAL402
  7
CHINESET
100
AcDbText
  0
LINE
  5
19CC
330
1F
100
AcDbEntity
  8
LOGO
 62
     4
100
AcDbLine
 10
1094.837609145592
 20
165.1998869179433
 30
0.0
 11
1077.979268125848
 21
165.1998869179433
 31
0.0
  0
TEXT
  5
19CD
330
1F
100
AcDbEntity
  8
LOGO
  6
Continuous
100
AcDbText
 10
1083.389056386389
 20
157.236534854381
 30
165.7301846909305
 40
1.896838019999998
  1
Model
 41
0.8
  7
CHINESET
100
AcDbText
  0
TEXT
  5
19CE
330
1F
100
AcDbEntity
  8
LOGO
100
AcDbText
 10
1082.884179767876
 20
160.7528637456909
 30
165.7301846909305
 40
3.161396699999998
  1
型號
  7
CHINESET
100
AcDbText
  0
LINE
  5
19CF
330
1F
100
AcDbEntity
  8
LOGO
  6
Continuous
 62
     7
100
AcDbLine
 10
1112.923914765055
 20
172.7592686681645
 30
0.0
 11
1116.27372748241
 21
172.7592686681645
 31
0.0
  0
LINE
  5
19D0
330
1F
100
AcDbEntity
  8
LOGO
 62
     4
100
AcDbLine
 10
1123.139623782783
 20
165.1998869179433
 30
0.0
 11
1123.139623782783
 21
155.9277993570842
 31
0.0
  0
LINE
  5
19D1
330
1F
100
AcDbEntity
  8
LOGO
 62
     4
100
AcDbLine
 10
1098.431163532443
 20
165.1998869179433
 30
0.0
 11
1098.431163532443
 21
155.9277993570842
 31
0.0
  0
LINE
  5
19D2
330
1F
100
AcDbEntity
  8
LOGO
 62
     4
100
AcDbLine
 10
1123.139623782783
 20
155.9277993570842
 30
0.0
 11
1098.431163532443
 21
155.9277993570842
 31
0.0
  0
LINE
  5
19D3
330
1F
100
AcDbEntity
  8
LOGO
 62
     4
100
AcDbLine
 10
1134.011990821324
 20
176.5792671062694
 30
0.0
 11
1118.05919660601
 21
176.5792671062694
 31
0.0
  0
LINE
  5
19D4
330
1F
100
AcDbEntity
  8
LOGO
 62
     4
100
AcDbLine
 10
1134.011990821324
 20
168.9930136473851
 30
0.0
 11
1118.05919660601
 21
168.9930136473851
 31
0.0
  0
LINE
  5
19D5
330
1F
100
AcDbEntity
  8
LOGO
 62
     4
100
AcDbLine
 10
1118.05919660601
 20
176.5792671062694
 30
0.0
 11
1118.05919660601
 21
168.9930136473851
 31
0.0
  0
LINE
  5
19D6
330
1F
100
AcDbEntity
  8
LOGO
 62
     4
100
AcDbLine
 10
1134.011990821324
 20
176.5792671062694
 30
0.0
 11
1134.011990821324
 21
168.9930136473851
 31
0.0
  0
LINE
  5
19D7
330
1F
100
AcDbEntity
  8
LOGO
 62
     4
100
AcDbLine
 10
1123.255732554272
 20
168.9930136473851
 30
0.0
 11
1123.255732554272
 21
167.0964502826643
 31
0.0
  0
TEXT
  5
19D8
330
1F
100
AcDbEntity
  8
LOGO
  6
Continuous
 62
     7
100
AcDbText
 10
1122.712906917795
 20
170.5766329658258
 30
0.0
 40
4.425955379999998
  1
*A
  7
CHINESET
100
AcDbText
  0
LINE
  5
19D9
330
1F
100
AcDbEntity
  8
LOGO
 62
     4
100
AcDbLine
 10
1123.139623782783
 20
165.1998869179433
 30
0.0
 11
1098.431163532443
 21
165.1998869179433
 31
0.0
  0
TEXT
  5
19DA
330
1F
100
AcDbEntity
  8
LOGO
  6
Continuous
100
AcDbText
 10
1103.989385218532
 20
157.236534854381
 30
165.7301846909305
 40
1.896838019999998
  1
Bore size
 41
0.8
  7
CHINESET
100
AcDbText
  0
TEXT
  5
19DB
330
1F
100
AcDbEntity
  8
LOGO
100
AcDbText
 10
1100.835475950711
 20
160.7528637456909
 30
165.7301846909305
 40
3.161396699999998
  1
配管口徑代號
  7
CHINESET
100
AcDbText
  0
TEXT
  5
19DC
330
1F
100
AcDbEntity
  8
LOGO
100
AcDbText
 10
1044.200469133828
 20
155.1657923621713
 30
0.0
 40
2.529117359999998
  1
10805060
 41
0.7
  7
CHINESET
 72
     1
 11
1050.523262533828
 21
155.1657923621713
 31
0.0
100
AcDbText
  0
LINE
  5
19DD
330
1F
100
AcDbEntity
  8
LOGO
 62
     4
100
AcDbLine
 10
1058.372122493599
 20
158.8780090355398
 30
0.0
 11
1058.3721224936
 21
153.8205067296166
 31
0.0
  0
LINE
  5
19DE
330
1F
100
AcDbEntity
  8
LOGO
 62
     4
100
AcDbLine
 10
1058.372122493599
 20
158.8780090355398
 30
0.0
 11
1043.1974183336
 21
158.8780090355398
 31
0.0
  0
LINE
  5
19DF
330
1F
100
AcDbEntity
  8
LOGO
  6
AM_ISO08W050x2
 48
0.3
100
AcDbLine
 10
1028.997368391557
 20
171.5271738175678
 30
0.0
 11
1033.045384337962
 21
171.5271738175678
 31
0.0
1001
GENIUS_GENOREF_13
1005
19E6
  0
LINE
  5
19E0
330
1F
100
AcDbEntity
  8
LOGO
  6
AM_ISO08W050x2
 48
0.3
100
AcDbLine
 10
1031.021376364759
 20
169.5031658443651
 30
0.0
 11
1031.021376364759
 21
173.5511817907704
 31
0.0
1001
GENIUS_GENOREF_13
1005
19E5
  0
LINE
  5
19E1
330
1F
100
AcDbEntity
  8
LOGO
  6
CENTER
 48
0.5
100
AcDbLine
 10
1035.27705491463
 20
171.5271738175678
 30
0.0
 11
1040.711540895679
 21
171.5271738175678
 31
0.0
1001
GENIUS_GENOREF_13
1005
19E4
  0
LINE
  5
19E2
330
1F
100
AcDbEntity
  8
LOGO
 62
     4
100
AcDbLine
 10
1110.785393657613
 20
167.0964502826643
 30
0.0
 11
1110.785393657613
 21
165.1998869179433
 31
0.0
  0
LINE
  5
19E3
330
1F
100
AcDbEntity
  8
LOGO
 62
     4
100
AcDbLine
 10
1123.255732554272
 20
167.0964502826643
 30
0.0
 11
1110.785393657613
 21
167.0964502826643
 31
0.0
  0
POINT
  5
19E4
330
1F
100
AcDbEntity
  8
0
 60
     1
100
AcDbPoint
 10
-337.7486415868073
 20
-456.0127331156492
 30
0.0
1001
GENIUS_GENOBJ-N-CRS_13
1002
{
1000
OWNER
1000
GEN
1002
}
1001
GENIUS_GENOLIS_13
1002
{
1000
ENT
1005
0
1005
0
1005
0
1005
19E1
1002
}
1001
GENIUS_GENOENT_13
1002
{
1000
MYREF
1005
19E4
1002
}
1002
{
1000
GRP
1005
0
1002
}
1001
GENIUS_GENODEF_13
1002
{
1000
HIER
1070
    10
1002
}
1002
{
1000
MANEDIT
1070
     1
1002
}
1002
{
1000
NOSEL
1070
     0
1002
}
1002
{
1000
BEHIND
1070
     0
1002
}
1002
{
1000
OTHER
1070
     0
1002
}
1002
{
1000
REACTOR
1002
}
  0
POINT
  5
19E5
330
1F
100
AcDbEntity
  8
0
 60
     1
100
AcDbPoint
 10
-349.0732268096619
 20
-447.137146637013
 30
0.0
1001
GENIUS_GENOBJ-N-CRS_13
1002
{
1000
OWNER
1000
GEN
1002
}
1001
GENIUS_GENOLIS_13
1002
{
1000
ENT
1005
0
1005
0
1005
0
1005
19E0
1002
}
1001
GENIUS_GENOENT_13
1002
{
1000
MYREF
1005
19E5
1002
}
1002
{
1000
GRP
1005
0
1002
}
1001
GENIUS_GENODEF_13
1002
{
1000
HIER
1070
    10
1002
}
1002
{
1000
MANEDIT
1070
     1
1002
}
1002
{
1000
NOSEL
1070
     0
1002
}
1002
{
1000
BEHIND
1070
     0
1002
}
1002
{
1000
OTHER
1070
     0
1002
}
1002
{
1000
REACTOR
1002
}
  0
POINT
  5
19E6
330
1F
100
AcDbEntity
  8
0
 60
     1
100
AcDbPoint
 10
-342.7145531118251
 20
-456.0127331156492
 30
0.0
1001
GENIUS_GENOBJ-N-CRS_13
1002
{
1000
OWNER
1000
GEN
1002
}
1001
GENIUS_GENOLIS_13
1002
{
1000
ENT
1005
0
1005
0
1005
0
1005
19DF
1002
}
1001
GENIUS_GENOENT_13
1002
{
1000
MYREF
1005
19E6
1002
}
1002
{
1000
GRP
1005
0
1002
}
1001
GENIUS_GENODEF_13
1002
{
1000
HIER
1070
    10
1002
}
1002
{
1000
MANEDIT
1070
     1
1002
}
1002
{
1000
NOSEL
1070
     0
1002
}
1002
{
1000
BEHIND
1070
     0
1002
}
1002
{
1000
OTHER
1070
     0
1002
}
1002
{
1000
REACTOR
1002
}
  0
ENDSEC
  0
SECTION
  2
OBJECTS
  0
DICTIONARY
  5
C
330
0
100
AcDbDictionary
281
     1
  3
ACAD_COLOR
350
BE
  3
ACAD_GROUP
350
D
  3
ACAD_LAYOUT
350
1A
  3
ACAD_MATERIAL
350
BD
  3
ACAD_MLINESTYLE
350
17
  3
ACAD_PLOTSETTINGS
350
19
  3
ACAD_PLOTSTYLENAME
350
E
  3
ACAD_TABLESTYLE
350
11A
  3
AcAsAppObject
350
153F
  3
ACASGREF_MASTER
350
1587
  3
ACDBHEADERROUNDTRIPXREC
350
1B3D
  3
AcDbVariableDictionary
350
94
  3
AcmDictionary
350
5B
  3
AD_GREF_MODULE
350
1588
  3
AD_MAPI_MODULE
350
159A
  3
AMG
350
41
  3
AMGSNAPSETTINGS
350
1B8
  3
DWGPROPS
350
1B3C
  3
MAPISURF_MODULE
350
1589
  0
DICTIONARY
  5
3F9
330
2
100
AcDbDictionary
280
     1
281
     1
  3
ACAD_LAYERFILTERS
360
1B2E
  3
ACAD_LAYERSTATES
360
C0A
  3
ACLYDICTIONARY
360
1B2D
  3
AMLAYER_GROUPCOLORS
360
E42
  0
DICTIONARY
  5
8F
330
1F
100
AcDbDictionary
280
     1
281
     1
  3
ACAD_INDEX
360
1632
  3
ACAD_SORTENTS
360
E74
  0
DICTIONARY
  5
1471
330
1464
100
AcDbDictionary
280
     1
281
     1
  3
ACAD_DIMASSOC
360
1472
  0
DICTIONARY
  5
BE
102
{ACAD_REACTORS
330
C
102
}
330
C
100
AcDbDictionary
281
     1
  0
DICTIONARY
  5
D
102
{ACAD_REACTORS
330
C
102
}
330
C
100
AcDbDictionary
281
     1
  0
DICTIONARY
  5
1A
102
{ACAD_REACTORS
330
C
102
}
330
C
100
AcDbDictionary
281
     1
  3
Model
350
22
  3
配置1
350
1E
  3
配置2
350
26
  0
DICTIONARY
  5
BD
102
{ACAD_REACTORS
330
C
102
}
330
C
100
AcDbDictionary
281
     1
  0
DICTIONARY
  5
17
102
{ACAD_REACTORS
330
C
102
}
330
C
100
AcDbDictionary
281
     1
  3
Standard
350
18
  0
DICTIONARY
  5
19
102
{ACAD_REACTORS
330
C
102
}
330
C
100
AcDbDictionary
281
     1
  0
ACDBDICTIONARYWDFLT
  5
E
102
{ACAD_REACTORS
330
C
102
}
330
C
100
AcDbDictionary
281
     1
  3
Normal
350
F
100
AcDbDictionaryWithDefault
340
F
  0
DICTIONARY
  5
11A
102
{ACAD_REACTORS
330
C
102
}
330
C
100
AcDbDictionary
281
     1
  3
Standard
350
11B
  0
ACAD_PROXY_OBJECT
  5
153F
102
{ACAD_REACTORS
330
C
102
}
330
C
100
AcDbProxyObject
 90
      499
 91
      599
 95
  2555929
 70
     0
 93
       10
310
4040
 94
        0
1001
ACAD
1000
AcRTDxfName
1000
ASAPP
1000
AcRTDxfName
1000
ASAPP
1000
AcRTDxfName
1000
ASAPP
  0
ACAD_PROXY_OBJECT
  5
1587
102
{ACAD_REACTORS
330
C
102
}
330
C
100
AcDbProxyObject
 90
      499
 91
      604
 95
  2555929
 70
     0
 93
       34
310
010000407F
 94
        0
1001
ACAD
1000
AcRTDxfName
1000
ACASGREFMASTER
1000
AcRTDxfName
1000
ACASGREFMASTER
1000
AcRTDxfName
1000
ACASGREFMASTER
  0
DICTIONARY
  5
1B3D
102
{ACAD_REACTORS
330
C
102
}
330
C
100
AcDbDictionary
281
     1
  0
DICTIONARY
  5
94
102
{ACAD_REACTORS
330
C
102
}
330
C
100
AcDbDictionary
281
     1
  3
CTABLESTYLE
350
138
  3
DIMASSOC
350
96
  3
INDEXCTL
350
95
  3
PROJECTNAME
350
187B
  0
DICTIONARY
  5
5B
102
{ACAD_REACTORS
330
C
102
}
330
C
100
AcDbDictionary
281
     1
  3
AcmBOM
350
1B5
  3
AcmStdDictionary
350
61
  3
AMDTSECTSYM_ARROWCOLOR
350
123
  0
ACAD_PROXY_OBJECT
  5
1588
102
{ACAD_REACTORS
330
C
102
}
330
C
100
AcDbProxyObject
 90
      499
 91
      605
 95
  2555929
 70
     0
 93
      114
310
000000438080000000000000000000
 94
        0
1001
ACAD
1000
AcRTDxfName
1000
ACADGREFMODULE
1000
AcRTDxfName
1000
ACADGREFMODULE
1000
AcRTDxfName
1000
ACADGREFMODULE
  0
ACAD_PROXY_OBJECT
  5
159A
102
{ACAD_REACTORS
330
C
102
}
330
C
100
AcDbProxyObject
 90
      499
 91
      607
 95
  2555929
 70
     0
 93
       34
310
05000044FF
 94
        0
1001
ACAD
1000
AcRTDxfName
1000
MAPIADMODULE
1000
AcRTDxfName
1000
MAPIADMODULE
1000
AcRTDxfName
1000
MAPIADMODULE
  0
DICTIONARY
  5
41
102
{ACAD_REACTORS
330
C
102
}
330
C
100
AcDbDictionary
281
     1
  0
DICTIONARY
  5
1B8
102
{ACAD_REACTORS
330
C
102
}
330
C
100
AcDbDictionary
281
     1
  0
XRECORD
  5
1B3C
102
{ACAD_REACTORS
330
C
102
}
330
C
100
AcDbXrecord
280
     1
  1
DWGPROPS COOKIE
  2

  3

  4

  6

  7

  8

  9

300
AmdtFileType=84
301
=
302
=
303
=
304
=
305
=
306
=
307
=
308
=
309
=
 40
0.1744379398148148
 41
2454515.453502778
 42
2454593.673954063
  1

 90
        1
  0
ACAD_PROXY_OBJECT
  5
1589
102
{ACAD_REACTORS
330
C
102
}
330
C
100
AcDbProxyObject
 90
      499
 91
      606
 95
  2555929
 70
     0
 93
        8
310
047E
 94
        0
1001
ACAD
1000
AcRTDxfName
1000
AMDTMAPISURFMOUDULE
1000
AcRTDxfName
1000
AMDTMAPISURFMOUDULE
1000
AcRTDxfName
1000
AMDTMAPISURFMOUDULE
  0
DICTIONARY
  5
1B2E
102
{ACAD_REACTORS
330
3F9
102
}
330
3F9
100
AcDbDictionary
281
     1
  0
DICTIONARY
  5
C0A
102
{ACAD_REACTORS
330
3F9
102
}
330
3F9
100
AcDbDictionary
281
     1
  0
DICTIONARY
  5
1B2D
102
{ACAD_REACTORS
330
3F9
102
}
330
3F9
100
AcDbDictionary
281
     1
1001
ACAD
1000
<All
  0
DICTIONARY
  5
E42
102
{ACAD_REACTORS
330
3F9
102
}
330
3F9
100
AcDbDictionary
280
     1
281
     1
  0
DICTIONARY
  5
1632
102
{ACAD_REACTORS
330
8F
102
}
330
8F
100
AcDbDictionary
281
     1
  3
*A1
350
1633
  0
SORTENTSTABLE
  5
E74
102
{ACAD_REACTORS
330
8F
102
}
330
8F
100
AcDbSortentsTable
330
1F
331
12BF
  5
12BF
331
12FE
  5
12FE
331
1306
  5
1306
331
12C7
  5
12C7
331
1284
  5
1284
331
130E
  5
130E
331
12CF
  5
12CF
331
128C
  5
128C
331
12D7
  5
12D7
331
1316
  5
1316
331
1370
  5
1370
331
1294
  5
1294
331
13E3
  5
13E3
331
1331
  5
1331
331
1339
  5
1339
331
1378
  5
1378
331
125D
  5
125D
331
129C
  5
129C
331
13AF
  5
13AF
331
13B7
  5
13B7
331
1341
  5
1341
331
1380
  5
1380
331
13BF
  5
13BF
331
1349
  5
1349
331
1388
  5
1388
331
13C7
  5
13C7
331
12DF
  5
12DF
331
131E
  5
131E
331
1326
  5
1326
331
12E7
  5
12E7
331
132E
  5
132E
331
1265
  5
1265
331
12EF
  5
12EF
331
12A4
  5
12A4
331
12AC
  5
12AC
331
12F7
  5
12F7
331
126D
  5
126D
331
1390
  5
1390
331
1275
  5
1275
331
1351
  5
1351
331
1359
  5
1359
331
127D
  5
127D
331
1398
  5
1398
331
13CF
  5
13CF
331
151F
  5
151F
331
1361
  5
1361
331
1369
  5
1369
331
12C0
  5
12C0
331
12FF
  5
12FF
331
12C8
  5
12C8
331
1307
  5
1307
331
1285
  5
1285
331
12D0
  5
12D0
331
130F
  5
130F
331
1317
  5
1317
331
128D
  5
128D
331
13A8
  5
13A8
331
1295
  5
1295
331
13E4
  5
13E4
331
1332
  5
1332
331
1371
  5
1371
331
1379
  5
1379
331
129D
  5
129D
331
133A
  5
133A
331
125E
  5
125E
331
1381
  5
1381
331
13B8
  5
13B8
331
1342
  5
1342
331
134A
  5
134A
331
1389
  5
1389
331
13C0
  5
13C0
331
12D8
  5
12D8
331
131F
  5
131F
331
12E0
  5
12E0
331
12E8
  5
12E8
331
1327
  5
1327
331
1266
  5
1266
331
12A5
  5
12A5
331
12F0
  5
12F0
331
132F
  5
132F
331
1464
  5
1464
331
126E
  5
126E
331
12AD
  5
12AD
331
13C8
  5
13C8
331
1352
  5
1352
331
1391
  5
1391
331
1276
  5
1276
331
12B5
  5
12B5
331
135A
  5
135A
331
127E
  5
127E
331
1399
  5
1399
331
13A1
  5
13A1
331
1520
  5
1520
331
1362
  5
1362
331
136A
  5
136A
331
12B9
  5
12B9
331
12F8
  5
12F8
331
12C1
  5
12C1
331
1300
  5
1300
331
1308
  5
1308
331
12C9
  5
12C9
331
1286
  5
1286
331
12D1
  5
12D1
331
1310
  5
1310
331
128E
  5
128E
331
1372
  5
1372
331
13A9
  5
13A9
331
1296
  5
1296
331
13E5
  5
13E5
331
1333
  5
1333
331
133B
  5
133B
331
137A
  5
137A
331
125F
  5
125F
331
129E
  5
129E
331
13B1
  5
13B1
331
13B9
  5
13B9
331
1343
  5
1343
331
1382
  5
1382
331
138A
  5
138A
331
13C1
  5
13C1
331
134B
  5
134B
331
12D9
  5
12D9
331
1318
  5
1318
331
12E1
  5
12E1
331
1320
  5
1320
331
1328
  5
1328
331
12E9
  5
12E9
331
12A6
  5
12A6
331
12F1
  5
12F1
331
12AE
  5
12AE
331
126F
  5
126F
331
1392
  5
1392
331
13C9
  5
13C9
331
1277
  5
1277
331
12B6
  5
12B6
331
1353
  5
1353
331
135B
  5
135B
331
127F
  5
127F
331
139A
  5
139A
331
1519
  5
1519
331
1521
  5
1521
331
1363
  5
1363
331
13A2
  5
13A2
331
136B
  5
136B
331
12F9
  5
12F9
331
12BA
  5
12BA
331
12C2
  5
12C2
331
1301
  5
1301
331
12CA
  5
12CA
331
1309
  5
1309
331
1287
  5
1287
331
12D2
  5
12D2
331
1311
  5
1311
331
128F
  5
128F
331
13AA
  5
13AA
331
1297
  5
1297
331
1334
  5
1334
331
1258
  5
1258
331
1373
  5
1373
331
137B
  5
137B
331
13B2
  5
13B2
331
129F
  5
129F
331
133C
  5
133C
331
1383
  5
1383
331
13BA
  5
13BA
331
1344
  5
1344
331
134C
  5
134C
331
138B
  5
138B
331
13C2
  5
13C2
331
1319
  5
1319
331
12DA
  5
12DA
331
12E2
  5
12E2
331
1321
  5
1321
331
12EA
  5
12EA
331
1329
  5
1329
331
1260
  5
1260
331
1268
  5
1268
331
12F2
  5
12F2
331
12A7
  5
12A7
331
1270
  5
1270
331
12AF
  5
12AF
331
13CA
  5
13CA
331
1354
  5
1354
331
1278
  5
1278
331
1393
  5
1393
331
139B
  5
139B
331
135C
  5
135C
331
13A3
  5
13A3
331
1522
  5
1522
331
1364
  5
1364
331
136C
  5
136C
331
12BB
  5
12BB
331
12FA
  5
12FA
331
12C3
  5
12C3
331
1302
  5
1302
331
130A
  5
130A
331
12CB
  5
12CB
331
1280
  5
1280
331
1288
  5
1288
331
12D3
  5
12D3
331
1312
  5
1312
331
1290
  5
1290
331
1335
  5
1335
331
1374
  5
1374
331
13AB
  5
13AB
331
1259
  5
1259
331
1298
  5
1298
331
13E7
  5
13E7
331
133D
  5
133D
331
137C
  5
137C
331
13B3
  5
13B3
331
13BB
  5
13BB
331
1345
  5
1345
331
1384
  5
1384
331
138C
  5
138C
331
13C3
  5
13C3
331
134D
  5
134D
331
12DB
  5
12DB
331
131A
  5
131A
331
12E3
  5
12E3
331
1322
  5
1322
331
132A
  5
132A
331
1261
  5
1261
331
12EB
  5
12EB
331
12A0
  5
12A0
331
12A8
  5
12A8
331
12F3
  5
12F3
331
1269
  5
1269
331
1271
  5
1271
331
1394
  5
1394
331
13CB
  5
13CB
331
1279
  5
1279
331
1355
  5
1355
331
135D
  5
135D
331
139C
  5
139C
331
1523
  5
1523
331
1365
  5
1365
331
13A4
  5
13A4
331
136D
  5
136D
331
12FB
  5
12FB
331
12BC
  5
12BC
331
12C4
  5
12C4
331
1303
  5
1303
331
1281
  5
1281
331
12CC
  5
12CC
331
130B
  5
130B
331
1289
  5
1289
331
12D4
  5
12D4
331
1313
  5
1313
331
1291
  5
1291
331
13AC
  5
13AC
331
1299
  5
1299
331
1336
  5
1336
331
125A
  5
125A
331
1375
  5
1375
331
137D
  5
137D
331
13B4
  5
13B4
331
133E
  5
133E
331
1346
  5
1346
331
1385
  5
1385
331
13BC
  5
13BC
331
134E
  5
134E
331
138D
  5
138D
331
13C4
  5
13C4
331
131B
  5
131B
331
12DC
  5
12DC
331
12E4
  5
12E4
331
1323
  5
1323
331
13D0
  5
13D0
331
1262
  5
1262
331
12A1
  5
12A1
331
12EC
  5
12EC
331
132B
  5
132B
331
1438
  5
1438
331
1255
  5
1255
331
126A
  5
126A
331
12F4
  5
12F4
331
12A9
  5
12A9
331
1272
  5
1272
331
12B1
  5
12B1
331
13CC
  5
13CC
331
1356
  5
1356
331
127A
  5
127A
331
1395
  5
1395
331
139D
  5
139D
331
151C
  5
151C
331
135E
  5
135E
331
13A5
  5
13A5
331
1524
  5
1524
331
1366
  5
1366
331
136E
  5
136E
331
12BD
  5
12BD
331
12FC
  5
12FC
331
1304
  5
1304
331
12C5
  5
12C5
331
130C
  5
130C
331
12CD
  5
12CD
331
1282
  5
1282
331
128A
  5
128A
331
12D5
  5
12D5
331
1314
  5
1314
331
1292
  5
1292
331
1337
  5
1337
331
1376
  5
1376
331
129A
  5
129A
331
13AD
  5
13AD
331
13B5
  5
13B5
331
133F
  5
133F
331
137E
  5
137E
331
13BD
  5
13BD
331
1347
  5
1347
331
1386
  5
1386
331
138E
  5
138E
331
13C5
  5
13C5
331
134F
  5
134F
331
12DD
  5
12DD
331
131C
  5
131C
331
13D1
  5
13D1
331
12E5
  5
12E5
331
1324
  5
1324
331
132C
  5
132C
331
1263
  5
1263
331
1256
  5
1256
331
12ED
  5
12ED
331
12A2
  5
12A2
331
12AA
  5
12AA
331
12F5
  5
12F5
331
126B
  5
126B
331
1273
  5
1273
331
12B2
  5
12B2
331
1357
  5
1357
331
127B
  5
127B
331
1396
  5
1396
331
13CD
  5
13CD
331
135F
  5
135F
331
139E
  5
139E
331
151D
  5
151D
331
1367
  5
1367
331
13A6
  5
13A6
331
136F
  5
136F
331
12FD
  5
12FD
331
12BE
  5
12BE
331
12C6
  5
12C6
331
1305
  5
1305
331
1283
  5
1283
331
12CE
  5
12CE
331
130D
  5
130D
331
1315
  5
1315
331
12D6
  5
12D6
331
128B
  5
128B
331
1330
  5
1330
331
1293
  5
1293
331
129B
  5
129B
331
13EA
  5
13EA
331
1338
  5
1338
331
125C
  5
125C
331
1377
  5
1377
331
137F
  5
137F
331
13B6
  5
13B6
331
1340
  5
1340
331
1348
  5
1348
331
1387
  5
1387
331
13BE
  5
13BE
331
13C6
  5
13C6
331
138F
  5
138F
331
131D
  5
131D
331
12DE
  5
12DE
331
12E6
  5
12E6
331
1325
  5
1325
331
13D2
  5
13D2
331
1264
  5
1264
331
12A3
  5
12A3
331
1257
  5
1257
331
12EE
  5
12EE
331
132D
  5
132D
331
12F6
  5
12F6
331
12AB
  5
12AB
331
1350
  5
1350
331
1274
  5
1274
331
13CE
  5
13CE
331
1358
  5
1358
331
127C
  5
127C
331
1397
  5
1397
331
139F
  5
139F
331
151E
  5
151E
331
1360
  5
1360
331
1368
  5
1368
331
13A7
  5
13A7
  0
DIMASSOC
  5
1472
102
{ACAD_REACTORS
330
1471
102
}
330
1471
100
AcDbDimAssoc
330
1464
 90
        3
 70
     0
 71
     0
  1
AcDbOsnapPointRef
 72
     1
331
134D
 73
     0
 91
        0
 40
0.0
 10
0.0
 20
0.0
 30
2.000000000000000E+50
 75
     0
  1
AcDbOsnapPointRef
 72
     1
331
1340
 73
     0
 91
        0
 40
0.0
 10
0.0
 20
0.0
 30
2.000000000000000E+50
 75
     0
  0
LAYOUT
  5
22
102
{ACAD_XDICTIONARY
360
1B40
102
}
102
{ACAD_REACTORS
330
1A
102
}
330
1A
100
AcDbPlotSettings
  1

  2
\\RD\EPSON Stylus C63 Series單色
  4
A4
  6

 40
3.757083177566528
 41
3.757076978683471
 42
3.757080078125
 43
3.757080078125
 44
209.9733276367186
 45
296.9683227539062
 46
0.0
 47
0.0
 48
0.0
 49
0.0
140
0.0
141
0.0
142
1.0
143
0.3405120737814363
 70
 11952
 72
     1
 73
     0
 74
     0
  7
單色出圖.ctb
 75
     0
147
2.936753428137962
148
-2047.07469463503
149
-1261.649717473083
100
AcDbLayout
  1
Model
 70
     1
 71
     0
 10
0.0
 20
0.0
 11
12.0
 21
9.0
 12
0.0
 22
0.0
 32
0.0
 14
0.0
 24
0.0
 34
0.0
 15
0.0
 25
0.0
 35
0.0
146
0.0
 13
0.0
 23
0.0
 33
0.0
 16
1.0
 26
0.0
 36
0.0
 17
0.0
 27
1.0
 37
0.0
 76
     0
330
1F
1001
ACAD_PSEXT
1000
\\RD\EPSON Stylus C63 Series單色
1000
EPSON Stylus C63 Series
1000
\\RD
1000

1070
     0
  0
LAYOUT
  5
1E
102
{ACAD_XDICTIONARY
360
1B3E
102
}
102
{ACAD_REACTORS
330
1A
102
}
330
1A
100
AcDbPlotSettings
  1

  2

  4

  6

 40
0.0
 41
0.0
 42
0.0
 43
0.0
 44
0.0
 45
0.0
 46
0.0
 47
0.0
 48
0.0
 49
0.0
140
0.0
141
0.0
142
1.0
143
1.0
 70
   688
 72
     0
 73
     0
 74
     5
  7
單色出圖.ctb
 75
    16
147
1.0
148
0.0
149
0.0
100
AcDbLayout
  1
配置1
 70
     1
 71
     1
 10
0.0
 20
0.0
 11
420.0
 21
297.0
 12
0.0
 22
0.0
 32
0.0
 14
1.000000000000000E+20
 24
1.000000000000000E+20
 34
1.000000000000000E+20
 15
-1.000000000000000E+20
 25
-1.000000000000000E+20
 35
-1.000000000000000E+20
146
0.0
 13
0.0
 23
0.0
 33
0.0
 16
1.0
 26
0.0
 36
0.0
 17
0.0
 27
1.0
 37
0.0
 76
     0
330
1B
  0
LAYOUT
  5
26
102
{ACAD_XDICTIONARY
360
1B42
102
}
102
{ACAD_REACTORS
330
1A
102
}
330
1A
100
AcDbPlotSettings
  1

  2

  4

  6

 40
0.0
 41
0.0
 42
0.0
 43
0.0
 44
0.0
 45
0.0
 46
0.0
 47
0.0
 48
0.0
 49
0.0
140
0.0
141
0.0
142
1.0
143
1.0
 70
   688
 72
     0
 73
     0
 74
     5
  7
單色出圖.ctb
 75
    16
147
1.0
148
0.0
149
0.0
100
AcDbLayout
  1
配置2
 70
     1
 71
     2
 10
0.0
 20
0.0
 11
12.0
 21
9.0
 12
0.0
 22
0.0
 32
0.0
 14
0.0
 24
0.0
 34
0.0
 15
0.0
 25
0.0
 35
0.0
146
0.0
 13
0.0
 23
0.0
 33
0.0
 16
1.0
 26
0.0
 36
0.0
 17
0.0
 27
1.0
 37
0.0
 76
     0
330
23
  0
MLINESTYLE
  5
18
102
{ACAD_REACTORS
330
17
102
}
330
17
100
AcDbMlineStyle
  2
STANDARD
 70
     0
  3

 62
   256
 51
90.0
 52
90.0
 71
     2
 49
0.5
 62
   256
  6
BYLAYER
 49
-0.5
 62
   256
  6
BYLAYER
  0
ACDBPLACEHOLDER
  5
F
102
{ACAD_REACTORS
330
E
102
}
330
E
  0
TABLESTYLE
  5
11B
102
{ACAD_REACTORS
330
11A
102
}
330
11A
100
AcDbTableStyle
  3
Standard
 70
     0
 71
     0
 40
1.5
 41
1.5
280
     0
281
     0
  7
STANDARD
140
4.5
170
     2
 62
     0
 63
     7
283
     0
274
    -2
284
     1
 64
     0
275
    -2
285
     1
 65
     0
276
    -2
286
     1
 66
     0
277
    -2
287
     1
 67
     0
278
    -2
288
     1
 68
     0
279
    -2
289
     1
 69
     0
  7
STANDARD
140
6.0
170
     5
 62
     0
 63
     7
283
     0
274
    -2
284
     1
 64
     0
275
    -2
285
     1
 65
     0
276
    -2
286
     1
 66
     0
277
    -2
287
     1
 67
     0
278
    -2
288
     1
 68
     0
279
    -2
289
     1
 69
     0
  7
STANDARD
140
4.5
170
     5
 62
     0
 63
     7
283
     0
274
    -2
284
     1
 64
     0
275
    -2
285
     1
 65
     0
276
    -2
286
     1
 66
     0
277
    -2
287
     1
 67
     0
278
    -2
288
     1
 68
     0
279
    -2
289
     1
 69
     0
  0
DICTIONARYVAR
  5
138
102
{ACAD_REACTORS
330
94
102
}
330
94
100
DictionaryVariables
280
     0
  1
STANDARD
  0
DICTIONARYVAR
  5
96
102
{ACAD_REACTORS
330
94
102
}
330
94
100
DictionaryVariables
280
     0
  1
2
  0
DICTIONARYVAR
  5
95
102
{ACAD_REACTORS
330
94
102
}
330
94
100
DictionaryVariables
280
     0
  1
1
  0
DICTIONARYVAR
  5
187B
102
{ACAD_REACTORS
330
94
102
}
330
94
100
DictionaryVariables
280
     0
  1

  0
DICTIONARY
  5
1B5
102
{ACAD_REACTORS
330
5B
102
}
330
5B
100
AcDbDictionary
281
     1
  0
DICTIONARY
  5
61
102
{ACAD_REACTORS
330
5B
102
}
330
5B
100
AcDbDictionary
281
     1
  0
XRECORD
  5
123
102
{ACAD_REACTORS
330
5B
102
}
330
5B
100
AcDbXrecord
280
     1
 90
-1023410169
  0
LAYER_INDEX
  5
1633
102
{ACAD_REACTORS
330
1632
102
}
330
1632
100
AcDbIndex
 40
2454593.673954063
100
AcDbLayerIndex
  8
0
360
1B30
 90
       37
  8
M_0
360
1B31
 90
        0
  8
AM_8
360
1B32
 90
        0
  8
AM_VIS
360
1B33
 90
      317
  8
AM_7
360
1B34
 90
       29
  8
AM_5
360
1B35
 90
        6
  8
AM_0
360
1B36
 90
        1
  8
AM_4
360
1B37
 90
        1
  8
Defpoints
360
1B38
 90
        0
  8
底
360
1B39
 90
        0
  8
LOGO
360
1B3A
 90
       92
  0
DICTIONARY
  5
1B40
330
22
100
AcDbDictionary
280
     1
281
     1
  3
ACAD_XREC_ROUNDTRIP
360
1B41
  0
DICTIONARY
  5
1B3E
330
1E
100
AcDbDictionary
280
     1
281
     1
  3
ACAD_XREC_ROUNDTRIP
360
1B3F
  0
DICTIONARY
  5
1B42
330
26
100
AcDbDictionary
280
     1
281
     1
  3
ACAD_XREC_ROUNDTRIP
360
1B43
  0
IDBUFFER
  5
1B30
330
0
100
AcDbIdBuffer
330
13C7
330
13C8
330
13C9
330
13CA
330
13CB
330
13CC
330
13CD
330
13CE
330
1519
330
151C
330
151D
330
151E
330
151F
330
1520
330
1521
330
1522
330
1523
330
1524
330
19E4
330
19E5
330
19E6
330
13B7
330
13B8
330
13B9
330
13BA
330
13BB
330
13BC
330
13BD
330
13BE
330
13BF
330
13C0
330
13C1
330
13C2
330
13C3
330
13C4
330
13C5
330
13C6
  0
IDBUFFER
  5
1B31
330
0
100
AcDbIdBuffer
  0
IDBUFFER
  5
1B32
330
0
100
AcDbIdBuffer
  0
IDBUFFER
  5
1B33
330
0
100
AcDbIdBuffer
330
1367
330
1368
330
1369
330
136A
330
136B
330
136C
330
136D
330
136E
330
136F
330
1370
330
1371
330
1372
330
1373
330
1374
330
1375
330
1376
330
1377
330
1378
330
1379
330
137A
330
137B
330
137C
330
137D
330
137E
330
137F
330
1380
330
1381
330
1382
330
1383
330
1384
330
1385
330
1386
330
1387
330
1388
330
1389
330
138A
330
138B
330
138C
330
138D
330
138E
330
138F
330
1390
330
1391
330
1392
330
1393
330
1394
330
1395
330
1396
330
1397
330
1398
330
1399
330
139A
330
139B
330
139C
330
139D
330
139E
330
139F
330
13A1
330
13A2
330
13A3
330
13A4
330
13A5
330
13A6
330
13A7
330
13A8
330
13A9
330
13AA
330
13AB
330
13AC
330
13AD
330
13AF
330
13B1
330
13B2
330
13B3
330
13B4
330
13B5
330
13B6
330
1255
330
1256
330
1257
330
1258
330
1259
330
125A
330
125C
330
125D
330
125E
330
125F
330
1260
330
1261
330
1262
330
1263
330
1264
330
1265
330
1266
330
1268
330
1269
330
126A
330
126B
330
126D
330
126E
330
126F
330
1270
330
1271
330
1272
330
1273
330
1274
330
1275
330
1276
330
1277
330
1278
330
1279
330
127A
330
127B
330
127C
330
127D
330
127E
330
127F
330
1280
330
1281
330
1282
330
1283
330
1284
330
1285
330
1286
330
1287
330
1288
330
1289
330
128A
330
128B
330
128C
330
128D
330
128E
330
128F
330
1290
330
1291
330
1292
330
1293
330
1294
330
1295
330
1296
330
1297
330
1298
330
1299
330
129A
330
12BA
330
12BB
330
12BC
330
12BD
330
12BE
330
12BF
330
12C0
330
12C1
330
12C2
330
12C3
330
12C4
330
12C5
330
12C6
330
12C7
330
12C8
330
12C9
330
12CA
330
12CB
330
12CC
330
12CD
330
12CE
330
12CF
330
12D0
330
12D1
330
12D2
330
12D3
330
12D4
330
12D5
330
12D6
330
12D7
330
12D8
330
12D9
330
12DA
330
12DB
330
12DC
330
12DD
330
12DE
330
12DF
330
12E0
330
12E1
330
12E2
330
12E3
330
12E4
330
12E5
330
12E6
330
12E7
330
12E8
330
12E9
330
12EA
330
12EB
330
12EC
330
12ED
330
12EE
330
12EF
330
12F0
330
12F1
330
12F2
330
12F3
330
12F4
330
12F5
330
12F6
330
12F7
330
12F8
330
12F9
330
12FA
330
12FB
330
12FC
330
12FD
330
12FE
330
12FF
330
1300
330
1301
330
1302
330
1303
330
1304
330
1305
330
1306
330
1307
330
1308
330
1309
330
130A
330
130B
330
130C
330
130D
330
130E
330
130F
330
1310
330
1311
330
1312
330
1313
330
1314
330
1315
330
1316
330
1317
330
1318
330
1319
330
131A
330
131B
330
131C
330
131D
330
131E
330
131F
330
1320
330
1321
330
1322
330
1323
330
1324
330
1325
330
1326
330
1327
330
1328
330
1329
330
132A
330
132B
330
132C
330
132D
330
132E
330
132F
330
1330
330
1331
330
1332
330
1333
330
1334
330
1335
330
1336
330
1337
330
1338
330
1339
330
133A
330
133B
330
133C
330
133D
330
133E
330
133F
330
1340
330
1341
330
1342
330
1343
330
1344
330
1345
330
1346
330
1347
330
1348
330
1349
330
134A
330
134B
330
134C
330
134D
330
134E
330
134F
330
1350
330
1351
330
1352
330
1353
330
1354
330
1355
330
1356
330
1357
330
1358
330
1359
330
135A
330
135B
330
135C
330
135D
330
135E
330
135F
330
1360
330
1361
330
1362
330
1363
330
1364
330
1365
330
1366
  0
IDBUFFER
  5
1B34
330
0
100
AcDbIdBuffer
330
12AB
330
12AC
330
12AD
330
12AE
330
12AF
330
12B1
330
12B2
330
12B5
330
12B6
330
12B9
330
13E3
330
13E4
330
13E5
330
129B
330
129C
330
129D
330
129E
330
129F
330
12A0
330
12A1
330
12A2
330
12A3
330
12A4
330
12A5
330
12A6
330
12A7
330
12A8
330
12A9
330
12AA
  0
IDBUFFER
  5
1B35
330
0
100
AcDbIdBuffer
330
13D1
330
13D2
330
13E7
330
13EA
330
1438
330
1464
  0
IDBUFFER
  5
1B36
330
0
100
AcDbIdBuffer
330
13D0
  0
IDBUFFER
  5
1B37
330
0
100
AcDbIdBuffer
330
13CF
  0
IDBUFFER
  5
1B38
330
0
100
AcDbIdBuffer
  0
IDBUFFER
  5
1B39
330
0
100
AcDbIdBuffer
  0
IDBUFFER
  5
1B3A
330
0
100
AcDbIdBuffer
330
19B8
330
19B9
330
19BA
330
19BB
330
19BC
330
19BD
330
19BE
330
19BF
330
19C0
330
19C1
330
19C2
330
19C3
330
19C4
330
19C5
330
19C6
330
19C7
330
19C8
330
19C9
330
19CA
330
19CB
330
19CC
330
19CD
330
19CE
330
19CF
330
19D0
330
19D1
330
19D2
330
19D3
330
19D4
330
19D5
330
19D6
330
19D7
330
19D8
330
19D9
330
19DA
330
19DB
330
19DC
330
19DD
330
19DE
330
19DF
330
19E0
330
19E1
330
19E2
330
19E3
330
1973
330
1974
330
1975
330
1976
330
1977
330
1978
330
1979
330
197A
330
197B
330
197C
330
197D
330
197E
330
197F
330
1980
330
1981
330
1982
330
1983
330
1984
330
1985
330
1986
330
1987
330
1988
330
1989
330
198A
330
198B
330
198C
330
198D
330
198E
330
198F
330
1990
330
1991
330
1995
330
1999
330
199A
330
199E
330
199F
330
19A0
330
19A1
330
19A2
330
19A3
330
19A4
330
19A5
330
19A9
330
19AD
330
19B1
330
19B2
330
19B3
330
19B7
  0
XRECORD
  5
1B41
102
{ACAD_REACTORS
330
1B40
102
}
330
1B40
100
AcDbXrecord
280
     1
102
SHADEPLOT
 70
     0
102
SHADEPLOTRESLEVEL
 70
     2
102
SHADEPLOTCUSTOMDPI
 70
   300
  0
XRECORD
  5
1B3F
102
{ACAD_REACTORS
330
1B3E
102
}
330
1B3E
100
AcDbXrecord
280
     1
102
SHADEPLOT
 70
     0
102
SHADEPLOTRESLEVEL
 70
     2
102
SHADEPLOTCUSTOMDPI
 70
   300
  0
XRECORD
  5
1B43
102
{ACAD_REACTORS
330
1B42
102
}
330
1B42
100
AcDbXrecord
280
     1
102
SHADEPLOT
 70
     0
102
SHADEPLOTRESLEVEL
 70
     2
102
SHADEPLOTCUSTOMDPI
 70
   300
  0
ENDSEC
  0
EOF
