  0
SECTION
  2
HEADER
  9
$ACADVER
  1
AC1015
  9
$ACADMAINTVER
 70
    20
  9
$DWGCODEPAGE
  3
ANSI_950
  9
$INSBASE
 10
0.0
 20
0.0
 30
0.0
  9
$EXTMIN
 10
257.6876499087832
 20
94.90931033048832
 30
-0.0256810638917386
  9
$EXTMAX
 10
784.4223644295307
 20
819.1349553718978
 30
345.1317589410194
  9
$LIMMIN
 10
0.0
 20
0.0
  9
$LIMMAX
 10
420.0
 20
297.0
  9
$ORTHOMODE
 70
     1
  9
$REGENMODE
 70
     1
  9
$FILLMODE
 70
     1
  9
$QTEXTMODE
 70
     0
  9
$MIRRTEXT
 70
     1
  9
$LTSCALE
 40
5.0
  9
$ATTMODE
 70
     1
  9
$TEXTSIZE
 40
3.0
  9
$TRACEWID
 40
1.0
  9
$TEXTSTYLE
  7
CHINESET
  9
$CLAYER
  8
0
  9
$CELTYPE
  6
ByLayer
  9
$CECOLOR
 62
   256
  9
$CELTSCALE
 40
1.0
  9
$DISPSILH
 70
     0
  9
$DIMSCALE
 40
1.0
  9
$DIMASZ
 40
3.0
  9
$DIMEXO
 40
1.0
  9
$DIMDLI
 40
15.0
  9
$DIMRND
 40
0.0
  9
$DIMDLE
 40
0.0
  9
$DIMEXE
 40
1.5
  9
$DIMTP
 40
0.1
  9
$DIMTM
 40
0.1
  9
$DIMTXT
 40
3.5
  9
$DIMCEN
 40
0.0
  9
$DIMTSZ
 40
0.0
  9
$DIMTOL
 70
     0
  9
$DIMLIM
 70
     0
  9
$DIMTIH
 70
     0
  9
$DIMTOH
 70
     0
  9
$DIMSE1
 70
     0
  9
$DIMSE2
 70
     0
  9
$DIMTAD
 70
     1
  9
$DIMZIN
 70
     8
  9
$DIMBLK
  1

  9
$DIMASO
 70
     1
  9
$DIMSHO
 70
     1
  9
$DIMPOST
  1

  9
$DIMAPOST
  1
"
  9
$DIMALT
 70
     0
  9
$DIMALTD
 70
     2
  9
$DIMALTF
 40
0.0393701
  9
$DIMLFAC
 40
1.0
  9
$DIMTOFL
 70
     1
  9
$DIMTVP
 40
0.0
  9
$DIMTIX
 70
     0
  9
$DIMSOXD
 70
     0
  9
$DIMSAH
 70
     0
  9
$DIMBLK1
  1

  9
$DIMBLK2
  1

  9
$DIMSTYLE
  2
AM_ISO
  9
$DIMCLRD
 70
   256
  9
$DIMCLRE
 70
   256
  9
$DIMCLRT
 70
   256
  9
$DIMTFAC
 40
0.6
  9
$DIMGAP
 40
0.8
  9
$DIMJUST
 70
     0
  9
$DIMSD1
 70
     0
  9
$DIMSD2
 70
     0
  9
$DIMTOLJ
 70
     0
  9
$DIMTZIN
 70
     8
  9
$DIMALTZ
 70
     0
  9
$DIMALTTZ
 70
     0
  9
$DIMUPT
 70
     0
  9
$DIMDEC
 70
     2
  9
$DIMTDEC
 70
     8
  9
$DIMALTU
 70
     2
  9
$DIMALTTD
 70
     2
  9
$DIMTXSTY
  7
CHINESET
  9
$DIMAUNIT
 70
     0
  9
$DIMADEC
 70
     0
  9
$DIMALTRND
 40
0.0
  9
$DIMAZIN
 70
     2
  9
$DIMDSEP
 70
    46
  9
$DIMATFIT
 70
     3
  9
$DIMFRAC
 70
     0
  9
$DIMLDRBLK
  1

  9
$DIMLUNIT
 70
     2
  9
$DIMLWD
 70
    -1
  9
$DIMLWE
 70
    -1
  9
$DIMTMOVE
 70
     0
  9
$LUNITS
 70
     2
  9
$LUPREC
 70
     2
  9
$SKETCHINC
 40
1.0
  9
$FILLETRAD
 40
2.0
  9
$AUNITS
 70
     0
  9
$AUPREC
 70
     0
  9
$MENU
  1
.
  9
$ELEVATION
 40
0.0
  9
$PELEVATION
 40
0.0
  9
$THICKNESS
 40
0.0
  9
$LIMCHECK
 70
     0
  9
$CHAMFERA
 40
2.5
  9
$CHAMFERB
 40
2.5
  9
$CHAMFERC
 40
20.0
  9
$CHAMFERD
 40
0.0
  9
$SKPOLY
 70
     0
  9
$TDCREATE
 40
2454314.367237952
  9
$TDUCREATE
 40
2454314.033904618
  9
$TDUPDATE
 40
2454319.662428021
  9
$TDUUPDATE
 40
2454319.329094688
  9
$TDINDWG
 40
0.1605485069
  9
$TDUSRTIMER
 40
0.1605485069
  9
$USRTIMER
 70
     1
  9
$ANGBASE
 50
0.0
  9
$ANGDIR
 70
     0
  9
$PDMODE
 70
     0
  9
$PDSIZE
 40
0.0
  9
$PLINEWID
 40
0.0
  9
$SPLFRAME
 70
     0
  9
$SPLINETYPE
 70
     6
  9
$SPLINESEGS
 70
     8
  9
$HANDSEED
  5
210E
  9
$SURFTAB1
 70
     6
  9
$SURFTAB2
 70
     6
  9
$SURFTYPE
 70
     6
  9
$SURFU
 70
     6
  9
$SURFV
 70
     6
  9
$UCSBASE
  2

  9
$UCSNAME
  2

  9
$UCSORG
 10
0.0
 20
0.0
 30
0.0
  9
$UCSXDIR
 10
1.0
 20
0.0
 30
0.0
  9
$UCSYDIR
 10
0.0
 20
1.0
 30
0.0
  9
$UCSORTHOREF
  2

  9
$UCSORTHOVIEW
 70
     0
  9
$UCSORGTOP
 10
0.0
 20
0.0
 30
0.0
  9
$UCSORGBOTTOM
 10
0.0
 20
0.0
 30
0.0
  9
$UCSORGLEFT
 10
0.0
 20
0.0
 30
0.0
  9
$UCSORGRIGHT
 10
0.0
 20
0.0
 30
0.0
  9
$UCSORGFRONT
 10
0.0
 20
0.0
 30
0.0
  9
$UCSORGBACK
 10
0.0
 20
0.0
 30
0.0
  9
$PUCSBASE
  2

  9
$PUCSNAME
  2

  9
$PUCSORG
 10
0.0
 20
0.0
 30
0.0
  9
$PUCSXDIR
 10
1.0
 20
0.0
 30
0.0
  9
$PUCSYDIR
 10
0.0
 20
1.0
 30
0.0
  9
$PUCSORTHOREF
  2

  9
$PUCSORTHOVIEW
 70
     0
  9
$PUCSORGTOP
 10
0.0
 20
0.0
 30
0.0
  9
$PUCSORGBOTTOM
 10
0.0
 20
0.0
 30
0.0
  9
$PUCSORGLEFT
 10
0.0
 20
0.0
 30
0.0
  9
$PUCSORGRIGHT
 10
0.0
 20
0.0
 30
0.0
  9
$PUCSORGFRONT
 10
0.0
 20
0.0
 30
0.0
  9
$PUCSORGBACK
 10
0.0
 20
0.0
 30
0.0
  9
$USERI1
 70
     0
  9
$USERI2
 70
     0
  9
$USERI3
 70
     0
  9
$USERI4
 70
     0
  9
$USERI5
 70
     0
  9
$USERR1
 40
0.0
  9
$USERR2
 40
0.0
  9
$USERR3
 40
0.0
  9
$USERR4
 40
0.0
  9
$USERR5
 40
0.0
  9
$WORLDVIEW
 70
     1
  9
$SHADEDGE
 70
     3
  9
$SHADEDIF
 70
    70
  9
$TILEMODE
 70
     1
  9
$MAXACTVP
 70
    64
  9
$PINSBASE
 10
0.0
 20
0.0
 30
0.0
  9
$PLIMCHECK
 70
     0
  9
$PEXTMIN
 10
1.000000000000000E+20
 20
1.000000000000000E+20
 30
1.000000000000000E+20
  9
$PEXTMAX
 10
-1.000000000000000E+20
 20
-1.000000000000000E+20
 30
-1.000000000000000E+20
  9
$PLIMMIN
 10
0.0
 20
0.0
  9
$PLIMMAX
 10
420.0
 20
297.0
  9
$UNITMODE
 70
     0
  9
$VISRETAIN
 70
     1
  9
$PLINEGEN
 70
     0
  9
$PSLTSCALE
 70
     1
  9
$TREEDEPTH
 70
  3020
  9
$CMLSTYLE
  2
Standard
  9
$CMLJUST
 70
     0
  9
$CMLSCALE
 40
20.0
  9
$PROXYGRAPHICS
 70
     1
  9
$MEASUREMENT
 70
     1
  9
$CELWEIGHT
370
    -1
  9
$ENDCAPS
280
     0
  9
$JOINSTYLE
280
     0
  9
$LWDISPLAY
290
     0
  9
$INSUNITS
 70
     4
  9
$HYPERLINKBASE
  1

  9
$STYLESHEET
  1
彩色出圖.ctb
  9
$XEDIT
290
     1
  9
$CEPSNTYPE
380
     0
  9
$PSTYLEMODE
290
     1
  9
$FINGERPRINTGUID
  2
{D74E9C25-DA55-4DB5-BCDF-9149035F1FE2}
  9
$VERSIONGUID
  2
{355E3AA8-26B0-452C-85D9-1D924F489F37}
  9
$EXTNAMES
290
     1
  9
$PSVPSCALE
 40
0.0
  9
$OLESTARTUP
290
     0
  0
ENDSEC
  0
SECTION
  2
CLASSES
  0
CLASS
  1
ACDBDICTIONARYWDFLT
  2
AcDbDictionaryWithDefault
  3
ObjectDBX Classes
 90
        0
280
     0
281
     0
  0
CLASS
  1
ACDBPLACEHOLDER
  2
AcDbPlaceHolder
  3
ObjectDBX Classes
 90
        0
280
     0
281
     0
  0
CLASS
  1
LAYOUT
  2
AcDbLayout
  3
ObjectDBX Classes
 90
        0
280
     0
281
     0
  0
CLASS
  1
ACME_DOCUMENT
  2
AcMeDbDoc
  3
AcMeServices
 90
        0
280
     0
281
     0
  0
CLASS
  1
AMGSETTINGSOBJ
  2
AmgSettingsObj
  3
"AcadM|Product Description: AutoCAD Mechanical 2000|Company: Autodesk"
 90
        0
280
     0
281
     0
  0
CLASS
  1
ACMESCOPE
  2
AcMeScope
  3
AcMeServices
 90
        0
280
     0
281
     0
  0
CLASS
  1
ACMECOMMANDHISTORY
  2
AcMeCommandHistory
  3
AcMeServices
 90
        0
280
     0
281
     0
  0
CLASS
  1
ACIMSYSVARMAN
  2
AcImSysVarManager
  3
AcMeServices
 90
        0
280
     0
281
     0
  0
CLASS
  1
ACIMREALSYSVAR
  2
AcImRealSysVar
  3
AcMeServices
 90
        0
280
     0
281
     0
  0
CLASS
  1
ACIMINTSYSVAR
  2
AcImIntSysVar
  3
AcMeServices
 90
        0
280
     0
281
     0
  0
CLASS
  1
ACMEDRAWINGMAN
  2
AcMeDrawingMan
  3
AcMeServices
 90
        0
280
     0
281
     0
  0
CLASS
  1
ACMEVIEW
  2
AcMeView
  3
AcMeServices
 90
        0
280
     0
281
     0
  0
CLASS
  1
ACDBENTITYCACHE
  2
AcMeEntityCache
  3
AcMeServices
 90
        0
280
     0
281
     0
  0
CLASS
  1
GSMANAGER
  2
AcMeGSManager
  3
AcMeServices
 90
        0
280
     0
281
     0
  0
CLASS
  1
AMDTINTERNALREACTOR
  2
AmdtInternalReactor
  3
AcMeServices
 90
        0
280
     0
281
     0
  0
CLASS
  1
ACMESTATEMGR
  2
AcMeStateMgr
  3
AcMeServices
 90
        0
280
     0
281
     0
  0
CLASS
  1
ACGREFMASTER
  2
AcGrefMaster
  3
AcAttribServices
 90
        0
280
     0
281
     0
  0
CLASS
  1
ACME_DATABASE
  2
AcMeDbDatabase
  3
AcMeServices
 90
        0
280
     0
281
     0
  0
CLASS
  1
ACRFINSADJUSTERMGR
  2
AcRfInsAdjusterMgr
  3
AcMeServices
 90
        0
280
     0
281
     0
  0
CLASS
  1
ACGREFACADMASTER
  2
AcGrefacadMaster
  3
AcGrefServices
 90
        0
280
     0
281
     0
  0
CLASS
  1
AMIMASTER
  2
AmiMaster
  3
AmiServices
 90
        0
280
     0
281
     0
  0
CLASS
  1
ACMDATADICTIONARY
  2
AcmDataDictionary
  3
"AcmSymBB|Product Description: AutoCAD Mechanical 2004 DX|Company: Autodesk"
 90
        0
280
     0
281
     0
  0
CLASS
  1
ACMDATAENTRYBLOCK
  2
AcmDataEntryBlock
  3
"AcmSymBB|Product Description: AutoCAD Mechanical 2004 DX|Company: Autodesk"
 90
        0
280
     0
281
     0
  0
CLASS
  1
ACIMSTRSYSVAR
  2
AcImStrSysVar
  3
AcMeServices
 90
        0
280
     0
281
     0
  0
CLASS
  1
ACMSTANDARDISO
  2
AcmStandardISO
  3
"Amdt_StdImp|Product Description: AutoCAD Mechanical 2004 DX|Company: Autodesk"
 90
        0
280
     0
281
     0
  0
CLASS
  1
AMGOBJPROPCFG
  2
AmgObjPropCfg
  3
"AmgLay|Product Description: AutoCAD Mechanical 2000|Company: Autodesk"
 90
        1
280
     0
281
     0
  0
CLASS
  1
AMDTEDGESTANDARDISO
  2
AmdtEdgeStdISO
  3
"Amdt_StdImp|Product Description: AutoCAD Mechanical 2004 DX|Company: Autodesk"
 90
        0
280
     0
281
     0
  0
CLASS
  1
ACMSURFSTANDARDISO
  2
AcmSurfTextStdISO
  3
"Amdt_StdImp|Product Description: AutoCAD Mechanical 2004 DX|Company: Autodesk"
 90
        0
280
     0
281
     0
  0
CLASS
  1
ACMFCFSTANDARDISO
  2
AcmFCFStdISO
  3
"Amdt_StdImp|Product Description: AutoCAD Mechanical 2004 DX|Company: Autodesk"
 90
        0
280
     0
281
     0
  0
CLASS
  1
ACMWELDSTANDARDISO
  2
AcmWeldingStdISO
  3
"Amdt_StdImp|Product Description: AutoCAD Mechanical 2004 DX|Company: Autodesk"
 90
        0
280
     0
281
     0
  0
CLASS
  1
ACMIDSTANDARDISO
  2
AcmIdStdISO
  3
"Amdt_StdImp|Product Description: AutoCAD Mechanical 2004 DX|Company: Autodesk"
 90
        0
280
     0
281
     0
  0
CLASS
  1
ACMDATUMSTANDARDISO
  2
AcmDatumStdISO
  3
"Amdt_StdImp|Product Description: AutoCAD Mechanical 2004 DX|Company: Autodesk"
 90
        0
280
     0
281
     0
  0
CLASS
  1
ACMBOMSTANDARDISO
  2
AcmBOMStdISO
  3
"Amdt_StdImp|Product Description: AutoCAD Mechanical 2004 DX|Company: Autodesk"
 90
        0
280
     0
281
     0
  0
CLASS
  1
ACMDETAILSTANDARDISO
  2
AmdtDetailSymStdISO
  3
"Amdt_StdImp|Product Description: AutoCAD Mechanical 2004 DX|Company: Autodesk"
 90
        0
280
     0
281
     0
  0
CLASS
  1
ACMSECTIONSTANDARDISO
  2
AmdtSectionSymStdISO
  3
"Amdt_StdImp|Product Description: AutoCAD Mechanical 2004 DX|Company: Autodesk"
 90
        0
280
     0
281
     0
  0
CLASS
  1
ACMCENTERLINESTANDARDISO
  2
AmdtCenterLineStdISO
  3
"Amdt_StdImp|Product Description: AutoCAD Mechanical 2004 DX|Company: Autodesk"
 90
        0
280
     0
281
     0
  0
CLASS
  1
ACMNOTESTANDARDISO
  2
AmdtNoteStdISO
  3
"Amdt_StdImp|Product Description: AutoCAD Mechanical 2004 DX|Company: Autodesk"
 90
        0
280
     0
281
     0
  0
CLASS
  1
ACAMGLAYSTD
  2
AcAmgLayStd
  3
"AcAmgLayStd|Product Description: AutoCAD Mechanical 2000|Company: Autodesk"
 90
        0
280
     0
281
     0
  0
CLASS
  1
ACAMGDIMSTD
  2
AcAmgDimStd
  3
"AcAmgDimStd|Product Description: AutoCAD Mechanical 2000|Company: Autodesk"
 90
        0
280
     0
281
     0
  0
CLASS
  1
ACAMGHOLECHARTSTDISO
  2
AcAmgHoleChartStdISO
  3
ACMSYMBB_MODULE_NAME
 90
        0
280
     0
281
     0
  0
CLASS
  1
ACAMGTITLESTD
  2
AcAmgTitleStd
  3
"TITLEAPP"
 90
        0
280
     0
281
     0
  0
CLASS
  1
LAYER_INDEX
  2
AcDbLayerIndex
  3
ObjectDBX Classes
 90
    32768
280
     0
281
     0
  0
CLASS
  1
IDBUFFER
  2
AcDbIdBuffer
  3
ObjectDBX Classes
 90
    32768
280
     0
281
     0
  0
CLASS
  1
DICTIONARYVAR
  2
AcDbDictionaryVar
  3
ObjectDBX Classes
 90
        0
280
     0
281
     0
  0
CLASS
  1
AM_DRAWING_MGR
  2
AcDmDwgMgr
  3
AcMechDwgViewMgmt
 90
        0
280
     0
281
     0
  0
CLASS
  1
AM_DWG_DOCUMENT
  2
AcDmDwgDocument
  3
AcMechDwgViewMgmt
 90
        0
280
     0
281
     0
  0
CLASS
  1
AM_DWG_SHEET
  2
AcDmSheet
  3
AcMechDwgViewMgmt
 90
        0
280
     0
281
     0
  0
CLASS
  1
AM_VIEWDIMPARMAP
  2
AcDmViewDimParMap
  3
AcMechDwgViewMgmt
 90
        0
280
     0
281
     0
  0
CLASS
  1
AM_DWGMGR_NAME
  2
AcDmDwgMgrName
  3
AcMechDwgViewMgmt
 90
        0
280
     0
281
     0
  0
CLASS
  1
AMDTMENUSTATEMGR
  2
AmdtMenuStateMgr
  3
McadcomServices
 90
        0
280
     0
281
     0
  0
CLASS
  1
AMDTMCOMMENUSTATE
  2
AmdtMcomMenuState
  3
McadcomServices
 90
        0
280
     0
281
     0
  0
CLASS
  1
MAPIAMMOUDLE
  2
MApiAmModule
  3
MApiAmServices
 90
        0
280
     0
281
     0
  0
CLASS
  1
AMDTADMENUSTATE
  2
AmdtAdMenuState
  3
DesignerServices
 90
        0
280
     0
281
     0
  0
CLASS
  1
ADAPPL
  2
AcAdAppl
  3
DesignerServices
 90
        0
280
     0
281
     0
  0
CLASS
  1
DEPMGR
  2
AcAdDepMgr
  3
DesignerServices
 90
        0
280
     0
281
     0
  0
CLASS
  1
PARAMMGR
  2
AcAdParamMgr
  3
DesignerServices
 90
        0
280
     0
281
     0
  0
CLASS
  1
PARAMSCOPE
  2
AcAdParamScope
  3
DesignerServices
 90
        0
280
     0
281
     0
  0
CLASS
  1
NAMEDAPPL
  2
AcAdNamedAppl
  3
DesignerServices
 90
        0
280
     0
281
     0
  0
CLASS
  1
AMDTDMMENUSTATE
  2
AmdtDmMenuState
  3
AcMechDwgViewMgmt
 90
        0
280
     0
281
     0
  0
CLASS
  1
AMDTAMMENUSTATE
  2
AmdtAmMenuState
  3
DesignerAssemblies
 90
        0
280
     0
281
     0
  0
CLASS
  1
ACAMPROJECT
  2
AcAmProject
  3
DesignerAssemblies
 90
        0
280
     0
281
     0
  0
CLASS
  1
ACAMGRCOMPDEF
  2
AcAmGrCompDef
  3
DesignerAssemblies
 90
        0
280
     0
281
     0
  0
CLASS
  1
ACCMCONTEXT
  2
AcCmContext
  3
DesignerAssemblies
 90
        0
280
     0
281
     0
  0
CLASS
  1
ACAMCOMPDEF
  2
AcAmCompDef
  3
DesignerAssemblies
 90
        0
280
     0
281
     0
  0
CLASS
  1
ACAMCOMPDEFMGR
  2
AcAmCompDefMgr
  3
DesignerAssemblies
 90
        0
280
     0
281
     0
  0
CLASS
  1
AMCONTEXTMGR
  2
AcAmContextMgr
  3
DesignerAssemblies
 90
        0
280
     0
281
     0
  0
CLASS
  1
ACAMCONTEXTMODELER
  2
AcAmContextModeler
  3
DesignerAssemblies
 90
        0
280
     0
281
     0
  0
CLASS
  1
ACMTHREADLINESTANDARDISO
  2
AmdtThreadLineStdISO
  3
"Amdt_StdImp|Product Description: AutoCAD Mechanical 2004 DX|Company: Autodesk"
 90
        0
280
     0
281
     0
  0
CLASS
  1
CATALOGSTATE
  2
AcAmCatalogState
  3
DesignerAssemblies
 90
        0
280
     0
281
     0
  0
CLASS
  1
ACAMGRCOMPDEFSET
  2
AcAmGrCompDefSet
  3
DesignerAssemblies
 90
        0
280
     0
281
     0
  0
CLASS
  1
AMDTBROWSERDBTAB
  2
AmdtBrowserDbTab
  3
McadcomServices
 90
        0
280
     0
281
     0
  0
CLASS
  1
CBROWSERAPPOBJECT
  2
CBrowserAppObject
  3
McadcomServices
 90
        0
280
     0
281
     0
  0
CLASS
  1
DM_PLACEHOLDER
  2
AcDmSelsetPlaceholder
  3
AcMechDwgViewMgmt
 90
        0
280
     0
281
     0
  0
CLASS
  1
TABLESTYLE
  2
AcDbTableStyle
  3
ObjectDBX Classes
 90
     2047
280
     0
281
     0
  0
CLASS
  1
VAACXREFPANELOBJECT
  2
VaAcXREFPanelObject
  3
VAAC_ADDIN
 90
    32768
280
     0
281
     0
  0
CLASS
  1
VAACIMAGEINVENTORY
  2
VaAcImageInventory
  3
VAAC_ADDIN
 90
    32768
280
     0
281
     0
  0
CLASS
  1
AMDTNOTETEMPLATEDB
  2
AmdtNoteTemplateDB
  3
AMDT_STDIMP_MODULE_NAME
 90
        0
280
     0
281
     0
  0
CLASS
  1
ACMBOM
  2
AcmBom
  3
"AcmSymBB|Product Description: AutoCAD Mechanical 2004 DX|Company: Autodesk"
 90
    32768
280
     0
281
     0
  0
CLASS
  1
AMDTFORMULAUPDATEDISPATCHER
  2
AmdtFormulaUpdateDispatcher
  3
AcMeServices
 90
        0
280
     0
281
     0
  0
CLASS
  1
ACMPARTLIST
  2
AcmPartList
  3
"AcmSymBB|Product Description: AutoCAD Mechanical 2004 DX|Company: Autodesk"
 90
    33791
280
     0
281
     1
  0
CLASS
  1
ACAMGFILTERDAT
  2
AcAmgFilterDat
  3
"AcadM|Product Description: AutoCAD Mechanical 2000|Company: Autodesk"
 90
        0
280
     0
281
     0
  0
CLASS
  1
DIMASSOC
  2
AcDbDimAssoc
  3
"AcDbDimAssoc|Product Desc:     AcDim ARX App For Dimension|Company:          Autodesk, Inc.|WEB Address:      www.autodesk.com"
 90
        0
280
     0
281
     0
  0
CLASS
  1
SORTENTSTABLE
  2
AcDbSortentsTable
  3
ObjectDBX Classes
 90
        0
280
     0
281
     0
  0
CLASS
  1
ACMSTANDARDANSI
  2
AcmStandardANSI
  3
"Amdt_StdImp|Product Description: AutoCAD Mechanical 2004 DX|Company: Autodesk"
 90
        0
280
     0
281
     0
  0
CLASS
  1
ACMSURFSTANDARDANSI
  2
AcmSurfTextStdANSI
  3
"Amdt_StdImp|Product Description: AutoCAD Mechanical 2004 DX|Company: Autodesk"
 90
        0
280
     0
281
     0
  0
CLASS
  1
ACMFCFSTANDARDANSI
  2
AcmFCFStdANSI
  3
"Amdt_StdImp|Product Description: AutoCAD Mechanical 2004 DX|Company: Autodesk"
 90
        0
280
     0
281
     0
  0
CLASS
  1
ACMWELDSTANDARDANSI
  2
AcmWeldingStdANSI
  3
"Amdt_StdImp|Product Description: AutoCAD Mechanical 2004 DX|Company: Autodesk"
 90
        0
280
     0
281
     0
  0
CLASS
  1
ACMIDSTANDARDANSI
  2
AcmIdStdANSI
  3
"Amdt_StdImp|Product Description: AutoCAD Mechanical 2004 DX|Company: Autodesk"
 90
        0
280
     0
281
     0
  0
CLASS
  1
ACMDATUMSTANDARDANSI
  2
AcmDatumStdANSI
  3
"Amdt_StdImp|Product Description: AutoCAD Mechanical 2004 DX|Company: Autodesk"
 90
        0
280
     0
281
     0
  0
CLASS
  1
ACMBOMSTANDARDANSI
  2
AcmBOMStdANSI
  3
"Amdt_StdImp|Product Description: AutoCAD Mechanical 2004 DX|Company: Autodesk"
 90
        0
280
     0
281
     0
  0
CLASS
  1
ACMDETAILSTANDARDANSI
  2
AmdtDetailSymStdANSI
  3
"Amdt_StdImp|Product Description: AutoCAD Mechanical 2004 DX|Company: Autodesk"
 90
        0
280
     0
281
     0
  0
CLASS
  1
ACMSECTIONSTANDARDANSI
  2
AmdtSectionSymStdANSI
  3
"Amdt_StdImp|Product Description: AutoCAD Mechanical 2004 DX|Company: Autodesk"
 90
        0
280
     0
281
     0
  0
CLASS
  1
ACMCENTERLINESTANDARDANSI
  2
AmdtCenterLineStdANSI
  3
"Amdt_StdImp|Product Description: AutoCAD Mechanical 2004 DX|Company: Autodesk"
 90
        0
280
     0
281
     0
  0
CLASS
  1
ACMTHREADLINESTANDARDANSI
  2
AmdtThreadLineStdANSI
  3
"Amdt_StdImp|Product Description: AutoCAD Mechanical 2004 DX|Company: Autodesk"
 90
        0
280
     0
281
     0
  0
CLASS
  1
ACMNOTESTANDARDANSI
  2
AmdtNoteStdANSI
  3
"Amdt_StdImp|Product Description: AutoCAD Mechanical 2004 DX|Company: Autodesk"
 90
        0
280
     0
281
     0
  0
CLASS
  1
ACAMGHOLECHARTSTDANSI
  2
AcAmgHoleChartStdANSI
  3
ACMSYMBB_MODULE_NAME
 90
        0
280
     0
281
     0
  0
CLASS
  1
AMDTNOTE
  2
AmdtNote
  3
"AcmSymBB|Product Description: AutoCAD Mechanical 2004 DX|Company: Autodesk"
 90
     1023
280
     0
281
     1
  0
CLASS
  1
STDPART2D
  2
AmgStdPart
  3
"AmgStdPart|Product Description: AutoCAD Mechanical 2000|Company: Autodesk"
 90
    33791
280
     0
281
     1
  0
CLASS
  1
ACAMSTDPCOMPDEF
  2
AcAmStdpCompDef
  3
DesignerAssemblies
 90
    32768
280
     0
281
     0
  0
CLASS
  1
ACRFATTGENMGR
  2
AcRfAttGeneralMgr
  3
AcAttribServices
 90
        0
280
     0
281
     0
  0
CLASS
  1
ACRFOBJATTMGR
  2
AcRfObjAttGroupMgr
  3
AcAttribServices
 90
    32768
280
     0
281
     0
  0
CLASS
  1
ACRFMCADAPIATTHOLDER
  2
AcRfMCADAPIAttHolder
  3
AcAttribServices
 90
    32768
280
     0
281
     0
  0
CLASS
  1
AMDTSYSATTR
  2
AmdtSystemAttribute
  3
AcAttribServices
 90
    32768
280
     0
281
     0
  0
CLASS
  1
ACAMCOMP
  2
AcAmComp
  3
DesignerAssemblies
 90
    32768
280
     0
281
     0
  0
CLASS
  1
AC_AM_STDP_VIEW_DEF
  2
AcAmStdpViewDef
  3
DesignerAssemblies
 90
    32768
280
     0
281
     0
  0
CLASS
  1
AC_AM_MVD_DEP_MGR
  2
AcAmMVDdepMgr
  3
DesignerAssemblies
 90
        0
280
     0
281
     0
  0
CLASS
  1
AC_AM_MASTER_VIEW_DEF
  2
AcAmMasterViewDef
  3
DesignerAssemblies
 90
        0
280
     0
281
     0
  0
CLASS
  1
AC_AM_DIRTY_NODES
  2
AcAmDirtyNodes
  3
DesignerAssemblies
 90
        0
280
     0
281
     0
  0
CLASS
  1
AC_AM_MAPPER_CACHE
  2
AcAmMapperCache
  3
DesignerAssemblies
 90
        0
280
     0
281
     0
  0
CLASS
  1
ACAMMVDBACKUPOBJECT
  2
AcAmMVDBackupObject
  3
DesignerAssemblies
 90
        0
280
     0
281
     0
  0
CLASS
  1
AC_AM_COMP_VIEW_INST
  2
AcAmCompView
  3
DesignerAssemblies
 90
    32768
280
     0
281
     0
  0
CLASS
  1
AC_AM_2D_XREF_MGR
  2
AcAmXrefMgr2d
  3
DesignerAssemblies
 90
        0
280
     0
281
     0
  0
ENDSEC
  0
SECTION
  2
TABLES
  0
TABLE
  2
VPORT
  5
8
330
0
100
AcDbSymbolTable
 70
     4
  0
VPORT
  5
2105
330
8
100
AcDbSymbolTableRecord
100
AcDbViewportTableRecord
  2
*Active
 70
     0
 10
0.0
 20
0.0
 11
1.0
 21
1.0
 12
521.0550071691569
 22
457.022132851193
 13
0.0
 23
0.0
 14
2.5
 24
2.5
 15
10.0
 25
10.0
 16
0.0
 26
0.0
 36
1.0
 17
0.0
 27
0.0
 37
0.0
 40
730.1216475790599
 41
1.661684782608695
 42
50.0
 43
0.0
 44
0.0
 50
0.0
 51
0.0
 71
     0
 72
   100
 73
     1
 74
     3
 75
     0
 76
     0
 77
     0
 78
     0
281
     0
 65
     1
110
0.0
120
0.0
130
0.0
111
1.0
121
0.0
131
0.0
112
0.0
122
1.0
132
0.0
 79
     0
146
0.0
  0
ENDTAB
  0
TABLE
  2
LTYPE
  5
5
330
0
100
AcDbSymbolTable
 70
    16
  0
LTYPE
  5
14
330
5
100
AcDbSymbolTableRecord
100
AcDbLinetypeTableRecord
  2
ByBlock
 70
     0
  3

 72
    65
 73
     0
 40
0.0
  0
LTYPE
  5
15
330
5
100
AcDbSymbolTableRecord
100
AcDbLinetypeTableRecord
  2
ByLayer
 70
     0
  3

 72
    65
 73
     0
 40
0.0
  0
LTYPE
  5
16
330
5
100
AcDbSymbolTableRecord
100
AcDbLinetypeTableRecord
  2
Continuous
 70
     0
  3
Solid line
 72
    65
 73
     0
 40
0.0
  0
LTYPE
  5
64
330
5
100
AcDbSymbolTableRecord
100
AcDbLinetypeTableRecord
  2
AM_ISO02W050
 70
     0
  3
__ __ __ __ __ __ __ __ __ __ __ __ __ __ __
 72
    65
 73
     2
 40
7.5
 49
6.0
 74
     0
 49
-1.5
 74
     0
  0
LTYPE
  5
65
330
5
100
AcDbSymbolTableRecord
100
AcDbLinetypeTableRecord
  2
AM_ISO08W050
 70
     0
  3
____ . ____ . ____ . ____ . ____ . ____ . ____
 72
    65
 73
     4
 40
18.0
 49
12.0
 74
     0
 49
-1.5
 74
     0
 49
3.0
 74
     0
 49
-1.5
 74
     0
  0
LTYPE
  5
66
330
5
100
AcDbSymbolTableRecord
100
AcDbLinetypeTableRecord
  2
AM_ISO09W050
 70
     0
  3
_____ . . _____ . . _____ . . ____ .. ____
 72
    65
 73
     6
 40
22.5
 49
12.0
 74
     0
 49
-1.5
 74
     0
 49
3.0
 74
     0
 49
-1.5
 74
     0
 49
3.0
 74
     0
 49
-1.5
 74
     0
  0
LTYPE
  5
67
330
5
100
AcDbSymbolTableRecord
100
AcDbLinetypeTableRecord
  2
Amconstr
 70
     0
  3
_______________________
 72
    65
 73
     2
 40
9999.0
 49
9999.0
 74
     0
 49
0.0
 74
     0
  0
LTYPE
  5
68
330
5
100
AcDbSymbolTableRecord
100
AcDbLinetypeTableRecord
  2
AM_ISO08W050x2
 70
     0
  3
__ . __ . __ . __ . __ . __
 72
    65
 73
     4
 40
9.0
 49
6.0
 74
     0
 49
-0.75
 74
     0
 49
1.5
 74
     0
 49
-0.75
 74
     0
  0
LTYPE
  5
69
330
5
100
AcDbSymbolTableRecord
100
AcDbLinetypeTableRecord
  2
AM_ISO02W050x2
 70
     0
  3
 _ _ _ _ _ _ _ _ _ _ _ _
 72
    65
 73
     2
 40
3.75
 49
3.0
 74
     0
 49
-0.75
 74
     0
  0
LTYPE
  5
6C
330
5
100
AcDbSymbolTableRecord
100
AcDbLinetypeTableRecord
  2
Amzigzag
 70
     0
  3
/\/-/\/-/\/-/\/-/\/-/\/
 72
    65
 73
     2
 40
11.0001
 49
0.0001
 74
     4
 75
   135
340
6B
 46
0.04
 50
0.0
 44
0.0
 45
0.0
 49
-11.0
 74
     0
  0
LTYPE
  5
7A
330
5
100
AcDbSymbolTableRecord
100
AcDbLinetypeTableRecord
  2
ACISOWELD
 70
     0
  3
_ _ _ _ _
 72
    65
 73
     2
 40
2.0
 49
2.0
 74
     0
 49
-1.0
 74
     0
  0
LTYPE
  5
7B
330
5
100
AcDbSymbolTableRecord
100
AcDbLinetypeTableRecord
  2
ACISOTGB
 70
     0
  3
__ . . __ . .
 72
    65
 73
     6
 40
9.0
 49
4.0
 74
     0
 49
-1.0
 74
     0
 49
1.0
 74
     0
 49
-1.0
 74
     0
 49
1.0
 74
     0
 49
-1.0
 74
     0
  0
LTYPE
  5
7C
330
5
100
AcDbSymbolTableRecord
100
AcDbLinetypeTableRecord
  2
ACISOTGL
 70
     0
  3
_ _ _ _ _
 72
    65
 73
     2
 40
3.0
 49
2.0
 74
     0
 49
-1.0
 74
     0
  0
LTYPE
  5
7E
330
5
100
AcDbSymbolTableRecord
100
AcDbLinetypeTableRecord
  2
CENTER
 70
     0
  3
__ . __
 72
    65
 73
     4
 40
7.0
 49
4.0
 74
     0
 49
-1.0
 74
     0
 49
1.0
 74
     0
 49
-1.0
 74
     0
  0
LTYPE
  5
D8
330
5
100
AcDbSymbolTableRecord
100
AcDbLinetypeTableRecord
  2
HIDDEN
 70
     0
  3
Hidden __ __ __ __ __ __ __ __ __ __ __ __ __ _
 72
    65
 73
     2
 40
9.524999999999998
 49
6.349999999999999
 74
     0
 49
-3.174999999999999
 74
     0
  0
LTYPE
  5
D9
330
5
100
AcDbSymbolTableRecord
100
AcDbLinetypeTableRecord
  2
PHANTOM2
 70
     0
  3
Phantom (.5x) ___ _ _ ___ _ _ ___ _ _ ___ _ _
 72
    65
 73
     6
 40
31.75
 49
15.875
 74
     0
 49
-3.174999999999999
 74
     0
 49
3.174999999999999
 74
     0
 49
-3.174999999999999
 74
     0
 49
3.174999999999999
 74
     0
 49
-3.174999999999999
 74
     0
  0
LTYPE
  5
1106
330
5
100
AcDbSymbolTableRecord
100
AcDbLinetypeTableRecord
  2
ACANSTGB
 70
     0
  3
__ . . __ . .
 72
    65
 73
     6
 40
0.35433070866
 49
0.15748031496
 74
     0
 49
-0.03937007874
 74
     0
 49
0.03937007874
 74
     0
 49
-0.03937007874
 74
     0
 49
0.03937007874
 74
     0
 49
-0.03937007874
 74
     0
  0
LTYPE
  5
1107
330
5
100
AcDbSymbolTableRecord
100
AcDbLinetypeTableRecord
  2
ACANSTGL
 70
     0
  3
_ _ _ _ _
 72
    65
 73
     2
 40
0.11811023622
 49
0.07874015748
 74
     0
 49
-0.03937007874
 74
     0
  0
ENDTAB
  0
TABLE
  2
LAYER
  5
2
102
{ACAD_XDICTIONARY
360
3F9
102
}
330
0
100
AcDbSymbolTable
 70
     8
  0
LAYER
  5
10
330
2
100
AcDbSymbolTableRecord
100
AcDbLayerTableRecord
  2
0
 70
     0
 62
     7
  6
Continuous
370
    -3
390
F
  0
LAYER
  5
C42
330
2
100
AcDbSymbolTableRecord
100
AcDbLayerTableRecord
  2
AM_VIS
 70
     0
 62
     7
  6
Continuous
370
    50
390
F
  0
LAYER
  5
10C2
330
2
100
AcDbSymbolTableRecord
100
AcDbLayerTableRecord
  2
AM_7
 70
     0
 62
     1
  6
CENTER
370
    25
390
F
  0
LAYER
  5
162B
330
2
100
AcDbSymbolTableRecord
100
AcDbLayerTableRecord
  2
LOGO
 70
     0
 62
     7
  6
Continuous
370
    -3
390
F
  0
LAYER
  5
171C
330
2
100
AcDbSymbolTableRecord
100
AcDbLayerTableRecord
  2
AM_5
 70
     0
 62
     5
  6
Continuous
370
    50
390
F
  0
LAYER
  5
1731
330
2
100
AcDbSymbolTableRecord
100
AcDbLayerTableRecord
  2
Defpoints
 70
     0
 62
     7
  6
Continuous
290
     0
370
    -3
390
F
  0
LAYER
  5
1B91
330
2
100
AcDbSymbolTableRecord
100
AcDbLayerTableRecord
  2
AM_0
 70
     0
 62
     7
  6
Continuous
370
    50
390
F
  0
LAYER
  5
1BB6
330
2
100
AcDbSymbolTableRecord
100
AcDbLayerTableRecord
  2
AM_4
 70
     0
 62
     3
  6
Continuous
370
    25
390
F
  0
ENDTAB
  0
TABLE
  2
STYLE
  5
3
330
0
100
AcDbSymbolTable
 70
     8
  0
STYLE
  5
11
330
3
100
AcDbSymbolTableRecord
100
AcDbTextStyleTableRecord
  2
STANDARD
 70
     0
 40
0.0
 41
1.0
 50
0.0
 71
     0
 42
3.0
  3
ISOCP.SHX
  4
CHINESET.SHX
  0
STYLE
  5
6B
330
3
100
AcDbSymbolTableRecord
100
AcDbTextStyleTableRecord
  2

 70
     1
 40
0.0
 41
1.0
 50
0.0
 71
     0
 42
2.5
  3
ltypeshp.shx
  4

  0
STYLE
  5
6D
330
3
100
AcDbSymbolTableRecord
100
AcDbTextStyleTableRecord
  2
ACISOTS
 70
     0
 40
1.0
 41
1.0
 50
0.0
 71
     0
 42
1.0
  3
isocp.shx
  4
chineset.shx
  0
STYLE
  5
79
330
3
100
AcDbSymbolTableRecord
100
AcDbTextStyleTableRecord
  2
ACISOGDT
 70
     0
 40
0.0
 41
1.0
 50
0.0
 71
     0
 42
2.5
  3
amgdt.shx
  4
chineset.shx
  0
STYLE
  5
60C
330
3
100
AcDbSymbolTableRecord
100
AcDbTextStyleTableRecord
  2
CHINESET
 70
     0
 40
0.0
 41
0.75
 50
0.0
 71
     0
 42
3.0
  3
simplex.shx
  4
CHINESET.SHX
  0
STYLE
  5
1109
330
3
100
AcDbSymbolTableRecord
100
AcDbTextStyleTableRecord
  2
ACANSTS
 70
     0
 40
1.0
 41
1.0
 50
0.0
 71
     0
 42
4.0
  3
romans.shx
  4
chineset.shx
  0
STYLE
  5
110A
330
3
100
AcDbSymbolTableRecord
100
AcDbTextStyleTableRecord
  2
ACANSGDT
 70
     0
 40
0.0
 41
1.0
 50
0.0
 71
     0
 42
4.0
  3
amgdtans.shx
  4

  0
ENDTAB
  0
TABLE
  2
VIEW
  5
6
330
0
100
AcDbSymbolTable
 70
     0
  0
ENDTAB
  0
TABLE
  2
UCS
  5
7
330
0
100
AcDbSymbolTable
 70
     0
  0
ENDTAB
  0
TABLE
  2
APPID
  5
9
330
0
100
AcDbSymbolTable
 70
    27
  0
APPID
  5
12
330
9
100
AcDbSymbolTableRecord
100
AcDbRegAppTableRecord
  2
ACAD
 70
     0
  0
APPID
  5
46
330
9
100
AcDbSymbolTableRecord
100
AcDbRegAppTableRecord
  2
MCAD_NO_VIS
 70
     0
  0
APPID
  5
47
330
9
100
AcDbSymbolTableRecord
100
AcDbRegAppTableRecord
  2
ACAD_TEMP_GRAPHIC
 70
     0
  0
APPID
  5
58
330
9
100
AcDbSymbolTableRecord
100
AcDbRegAppTableRecord
  2
ACATTRIBSERVICES
 70
     0
  0
APPID
  5
EE
330
9
100
AcDbSymbolTableRecord
100
AcDbRegAppTableRecord
  2
AD_DRAW
 70
     0
  0
APPID
  5
10C
330
9
100
AcDbSymbolTableRecord
100
AcDbRegAppTableRecord
  2
DESIGNERASSEMBLIES
 70
     0
  0
APPID
  5
111
330
9
100
AcDbSymbolTableRecord
100
AcDbRegAppTableRecord
  2
ACADM_DIM_EDIT
 70
     0
  0
APPID
  5
112
330
9
100
AcDbSymbolTableRecord
100
AcDbRegAppTableRecord
  2
AMDT_DM_ADJ
 70
     0
  0
APPID
  5
22C
330
9
100
AcDbSymbolTableRecord
100
AcDbRegAppTableRecord
  2
ACAD_DSTYLE_DIMTEXT_FILL
 70
     0
  0
APPID
  5
452
330
9
100
AcDbSymbolTableRecord
100
AcDbRegAppTableRecord
  2
GENIUS_GENOENT_13
 70
     0
  0
APPID
  5
453
330
9
100
AcDbSymbolTableRecord
100
AcDbRegAppTableRecord
  2
GENIUS_GENOBJ-N-CRS_13
 70
     0
  0
APPID
  5
454
330
9
100
AcDbSymbolTableRecord
100
AcDbRegAppTableRecord
  2
GENIUS_GENOLIS_13
 70
     0
  0
APPID
  5
455
330
9
100
AcDbSymbolTableRecord
100
AcDbRegAppTableRecord
  2
GENIUS_GENODEF_13
 70
     0
  0
APPID
  5
456
330
9
100
AcDbSymbolTableRecord
100
AcDbRegAppTableRecord
  2
GENIUS_GENOREF_13
 70
     0
  0
APPID
  5
6F3
330
9
100
AcDbSymbolTableRecord
100
AcDbRegAppTableRecord
  2
ACAD_PSEXT
 70
     0
  0
APPID
  5
808
330
9
100
AcDbSymbolTableRecord
100
AcDbRegAppTableRecord
  2
GENIUS_GENDTOL_13
 70
     0
  0
APPID
  5
10D9
330
9
100
AcDbSymbolTableRecord
100
AcDbRegAppTableRecord
  2
GENIUS_GENOBJ-N-CEN_13
 70
     0
  0
APPID
  5
10DA
330
9
100
AcDbSymbolTableRecord
100
AcDbRegAppTableRecord
  2
GENIUS_GENCEN_19
 70
     0
  0
APPID
  5
162C
330
9
100
AcDbSymbolTableRecord
100
AcDbRegAppTableRecord
  2
GENIUS_GENREC_14
 70
     0
  0
APPID
  5
162D
330
9
100
AcDbSymbolTableRecord
100
AcDbRegAppTableRecord
  2
GENIUS_GENOBJ-N-REC_13
 70
     0
  0
APPID
  5
1B98
330
9
100
AcDbSymbolTableRecord
100
AcDbRegAppTableRecord
  2
GEVID1185940134
 70
     0
  0
APPID
  5
1B99
330
9
100
AcDbSymbolTableRecord
100
AcDbRegAppTableRecord
  2
GEVDC
 70
     0
  0
APPID
  5
1BA2
330
9
100
AcDbSymbolTableRecord
100
AcDbRegAppTableRecord
  2
AMG_2DHIDE
 70
     0
  0
APPID
  5
1BA3
330
9
100
AcDbSymbolTableRecord
100
AcDbRegAppTableRecord
  2
AMG_2DSTRUCT_BTR
 70
     0
  0
APPID
  5
1BB4
330
9
100
AcDbSymbolTableRecord
100
AcDbRegAppTableRecord
  2
ACADM_2DVIEW_IGN_NOTIFY
 70
     0
  0
APPID
  5
1BD4
330
9
100
AcDbSymbolTableRecord
100
AcDbRegAppTableRecord
  2
GEVID1185940135
 70
     0
  0
APPID
  5
1BF3
330
9
100
AcDbSymbolTableRecord
100
AcDbRegAppTableRecord
  2
GEVID1185940136
 70
     0
  0
ENDTAB
  0
TABLE
  2
DIMSTYLE
  5
A
330
0
100
AcDbSymbolTable
 70
    15
100
AcDbDimStyleTable
 71
     3
340
81
340
8B
340
86
  0
DIMSTYLE
105
81
330
A
100
AcDbSymbolTableRecord
100
AcDbDimStyleTableRecord
  2
AM_ISO
 70
     0
  4
"
 41
3.0
 42
1.0
 43
15.0
 44
1.5
 47
0.1
 48
0.1
 73
     0
 74
     0
 77
     1
 78
     8
 79
     2
140
3.5
141
0.0
143
0.0393701
146
0.6
147
0.8
172
     1
176
   256
177
   256
178
   256
271
     2
272
     2
283
     0
284
     8
340
60C
371
    -1
372
    -1
  0
DIMSTYLE
105
82
330
A
100
AcDbSymbolTableRecord
100
AcDbDimStyleTableRecord
  2
AM_ISO$3
 70
     0
  4
"
 41
3.0
 42
1.0
 43
15.0
 44
1.5
 47
0.1
 48
0.1
 73
     0
 77
     1
 78
     8
 79
     2
140
3.5
141
0.0
143
0.0393701
146
0.6
147
0.8
176
   256
177
   256
178
   256
271
     2
272
     2
283
     0
284
     8
288
     1
289
     0
340
60C
371
    -1
372
    -1
  0
DIMSTYLE
105
83
330
A
100
AcDbSymbolTableRecord
100
AcDbDimStyleTableRecord
  2
AM_ISO$4
 70
     0
  4
"
 41
3.0
 42
1.0
 43
15.0
 44
1.5
 47
0.1
 48
0.1
 73
     0
 77
     1
 78
     8
 79
     2
140
3.5
141
0.0
143
0.0393701
146
0.6
147
0.8
176
   256
177
   256
178
   256
271
     2
272
     2
283
     0
284
     8
288
     1
289
     0
340
60C
371
    -1
372
    -1
  0
DIMSTYLE
105
84
330
A
100
AcDbSymbolTableRecord
100
AcDbDimStyleTableRecord
  2
AM_ISO$6
 70
     0
  4
"
 41
3.0
 42
1.0
 43
15.0
 44
1.5
 47
0.1
 48
0.1
 73
     0
 74
     0
 78
     8
 79
     2
140
3.5
141
0.0
143
0.0393701
146
0.6
147
0.8
172
     1
176
   256
177
   256
178
   256
271
     2
272
     2
283
     0
284
     8
340
60C
371
    -1
372
    -1
  0
DIMSTYLE
105
85
330
A
100
AcDbSymbolTableRecord
100
AcDbDimStyleTableRecord
  2
AM_ISO$7
 70
     0
  4
"
 41
3.0
 42
1.0
 43
15.0
 44
1.5
 47
0.1
 48
0.1
 73
     0
 74
     0
 77
     1
 78
     8
 79
     2
140
5.0
141
0.0
143
0.0393701
146
0.6
147
0.8
172
     1
176
   256
177
   256
178
   256
271
     2
272
     2
283
     0
284
     8
340
60C
371
    -1
372
    -1
  0
DIMSTYLE
105
86
330
A
100
AcDbSymbolTableRecord
100
AcDbDimStyleTableRecord
  2
AM_ISO$SF
 70
     0
  4
"
 41
2.5
 42
1.0
 43
10.0
 44
1.0
 47
0.1
 48
0.1
 73
     0
 74
     0
 75
     1
 76
     1
 77
     1
 78
     8
 79
     2
140
3.5
141
0.0
143
0.0393701
146
0.71
147
1.5
172
     1
176
   256
177
   256
178
     2
271
     2
272
     3
274
     4
283
     0
284
     8
340
11
371
    -1
372
    -1
  0
DIMSTYLE
105
8B
330
A
100
AcDbSymbolTableRecord
100
AcDbDimStyleTableRecord
  2
AM_ISO$SH
 70
     0
  4
"
 41
2.5
 42
1.0
 43
10.0
 44
1.0
 47
0.1
 48
0.1
 73
     0
 74
     0
 75
     1
 76
     1
 77
     1
 78
     8
 79
     2
140
3.5
141
0.0
143
0.0393701
144
2.0
146
0.71
147
1.5
172
     1
173
     1
176
   256
177
   256
178
     2
271
     2
272
     3
274
     4
283
     0
284
     8
340
11
343
87
371
    -1
372
    -1
  0
DIMSTYLE
105
40B
102
{ACAD_REACTORS
330
1730
330
175C
330
1782
330
17CE
330
198D
330
1C20
330
1D2E
330
1DCF
330
1E02
330
1D03
102
}
330
A
100
AcDbSymbolTableRecord
100
AcDbDimStyleTableRecord
  2
AM_ISO$0
 70
     0
  4
"
 41
3.0
 42
1.0
 43
15.0
 44
1.5
 47
0.1
 48
0.1
 73
     0
 74
     0
 77
     1
 78
     8
 79
     2
140
3.5
141
0.0
143
0.0393701
146
0.6
147
0.8
172
     1
176
   256
177
   256
178
   256
271
     2
272
     2
283
     0
284
     8
340
60C
371
    -1
372
    -1
  0
DIMSTYLE
105
110C
330
A
100
AcDbSymbolTableRecord
100
AcDbDimStyleTableRecord
  2
AM_ANSI
 70
     0
  4
mm
 41
0.1
 42
0.05
 43
0.5
 44
0.1
 47
0.1
 48
0.1
 78
     7
 79
     2
140
0.12
141
0.0
146
0.71
147
0.06
176
   256
177
   256
178
     2
274
     4
284
     7
340
11
371
    -1
372
    -1
  0
DIMSTYLE
105
110D
330
A
100
AcDbSymbolTableRecord
100
AcDbDimStyleTableRecord
  2
AM_ANSI$3
 70
     0
  4
mm
 41
0.1
 42
0.05
 43
0.5
 44
0.1
 47
0.1
 48
0.1
 78
     7
 79
     2
140
0.12
141
0.0
146
0.71
147
0.06
176
   256
177
   256
178
     2
274
     4
284
     7
288
     1
289
     0
340
11
371
    -1
372
    -1
  0
DIMSTYLE
105
110E
330
A
100
AcDbSymbolTableRecord
100
AcDbDimStyleTableRecord
  2
AM_ANSI$4
 70
     0
  4
mm
 41
0.1
 42
0.05
 43
0.5
 44
0.1
 47
0.1
 48
0.1
 78
     7
 79
     2
140
0.12
141
0.0
146
0.71
147
0.06
176
   256
177
   256
178
     2
274
     4
284
     7
288
     1
289
     0
340
11
371
    -1
372
    -1
  0
DIMSTYLE
105
110F
330
A
100
AcDbSymbolTableRecord
100
AcDbDimStyleTableRecord
  2
AM_ANSI$7
 70
     0
  4
mm
 41
0.1
 42
0.05
 43
0.5
 44
0.1
 47
0.1
 48
0.1
 78
     7
 79
     2
140
0.24
141
0.0
146
0.71
147
0.06
176
   256
177
   256
178
     2
274
     4
284
     7
340
11
371
    -1
372
    -1
  0
DIMSTYLE
105
1110
330
A
100
AcDbSymbolTableRecord
100
AcDbDimStyleTableRecord
  2
AM_ANSI$SF
 70
     0
  4
mm
 41
0.1
 42
0.05
 43
0.5
 44
0.1
 47
0.1
 48
0.1
 75
     1
 76
     1
 78
     7
 79
     2
140
0.12
141
0.0
146
0.71
147
0.06
176
   256
177
   256
178
     2
274
     4
284
     7
340
11
371
    -1
372
    -1
  0
DIMSTYLE
105
1111
330
A
100
AcDbSymbolTableRecord
100
AcDbDimStyleTableRecord
  2
AM_ANSI$SH
 70
     0
  4
mm
 41
0.1
 42
0.05
 43
0.5
 44
0.1
 47
0.1
 48
0.1
 75
     1
 76
     1
 78
     7
 79
     2
140
0.12
141
0.0
146
0.71
147
0.06
173
     1
176
   256
177
   256
178
     2
274
     4
284
     7
340
11
343
87
371
    -1
372
    -1
  0
ENDTAB
  0
TABLE
  2
BLOCK_RECORD
  5
1
330
0
100
AcDbSymbolTable
 70
    20
  0
BLOCK_RECORD
  5
1F
102
{ACAD_XDICTIONARY
360
8F
102
}
330
1
100
AcDbSymbolTableRecord
100
AcDbBlockTableRecord
  2
*Model_Space
340
22
  0
BLOCK_RECORD
  5
1B
330
1
100
AcDbSymbolTableRecord
100
AcDbBlockTableRecord
  2
*Paper_Space
340
1E
  0
BLOCK_RECORD
  5
23
330
1
100
AcDbSymbolTableRecord
100
AcDbBlockTableRecord
  2
*Paper_Space0
340
26
  0
BLOCK_RECORD
  5
87
330
1
100
AcDbSymbolTableRecord
100
AcDbBlockTableRecord
  2
GENAXEH
340
0
  0
BLOCK_RECORD
  5
1732
330
1
100
AcDbSymbolTableRecord
100
AcDbBlockTableRecord
  2
*D3
340
0
  0
BLOCK_RECORD
  5
175D
330
1
100
AcDbSymbolTableRecord
100
AcDbBlockTableRecord
  2
*D4
340
0
  0
BLOCK_RECORD
  5
1783
330
1
100
AcDbSymbolTableRecord
100
AcDbBlockTableRecord
  2
*D5
340
0
  0
BLOCK_RECORD
  5
17CF
330
1
100
AcDbSymbolTableRecord
100
AcDbBlockTableRecord
  2
*D6
340
0
  0
BLOCK_RECORD
  5
198E
330
1
100
AcDbSymbolTableRecord
100
AcDbBlockTableRecord
  2
*D7
340
0
  0
BLOCK_RECORD
  5
1AB5
102
{ACAD_XDICTIONARY
360
1AC1
102
}
330
1
100
AcDbSymbolTableRecord
100
AcDbBlockTableRecord
  2
A$C5278498E
340
0
102
{BLKREFS
331
1AC5
102
}
  0
BLOCK_RECORD
  5
1BB9
330
1
100
AcDbSymbolTableRecord
100
AcDbBlockTableRecord
  2
*U10
340
0
  0
BLOCK_RECORD
  5
1C21
330
1
100
AcDbSymbolTableRecord
100
AcDbBlockTableRecord
  2
*D11
340
0
  0
BLOCK_RECORD
  5
1C63
102
{ACAD_XDICTIONARY
360
1C6F
102
}
330
1
100
AcDbSymbolTableRecord
100
AcDbBlockTableRecord
  2
A$C0EB06734
340
0
102
{BLKREFS
331
1C73
102
}
  0
BLOCK_RECORD
  5
1C9B
102
{ACAD_XDICTIONARY
360
1CBF
102
}
330
1
100
AcDbSymbolTableRecord
100
AcDbBlockTableRecord
  2
A$C6E4D5685
340
0
102
{BLKREFS
331
1CC3
102
}
  0
BLOCK_RECORD
  5
1D04
330
1
100
AcDbSymbolTableRecord
100
AcDbBlockTableRecord
  2
*D14
340
0
  0
BLOCK_RECORD
  5
1D2F
330
1
100
AcDbSymbolTableRecord
100
AcDbBlockTableRecord
  2
*D15
340
0
  0
BLOCK_RECORD
  5
1DD0
330
1
100
AcDbSymbolTableRecord
100
AcDbBlockTableRecord
  2
*D16
340
0
  0
BLOCK_RECORD
  5
1E03
330
1
100
AcDbSymbolTableRecord
100
AcDbBlockTableRecord
  2
*D17
340
0
  0
BLOCK_RECORD
  5
20FB
330
1
100
AcDbSymbolTableRecord
100
AcDbBlockTableRecord
  2
*S19
340
0
  0
ENDTAB
  0
ENDSEC
  0
SECTION
  2
BLOCKS
  0
BLOCK
  5
20
330
1F
100
AcDbEntity
  8
0
100
AcDbBlockBegin
  2
*Model_Space
 70
     0
 10
0.0
 20
0.0
 30
0.0
  3
*Model_Space
  1

  0
ENDBLK
  5
21
330
1F
100
AcDbEntity
  8
0
100
AcDbBlockEnd
  0
BLOCK
  5
1C
330
1B
100
AcDbEntity
 67
     1
  8
0
100
AcDbBlockBegin
  2
*Paper_Space
 70
     0
 10
0.0
 20
0.0
 30
0.0
  3
*Paper_Space
  1

  0
ENDBLK
  5
1D
330
1B
100
AcDbEntity
 67
     1
  8
0
100
AcDbBlockEnd
  0
BLOCK
  5
24
330
23
100
AcDbEntity
  8
0
100
AcDbBlockBegin
  2
*Paper_Space0
 70
     0
 10
0.0
 20
0.0
 30
0.0
  3
*Paper_Space0
  1

  0
ENDBLK
  5
25
330
23
100
AcDbEntity
  8
0
100
AcDbBlockEnd
  0
BLOCK
  5
89
330
87
100
AcDbEntity
  8
0
100
AcDbBlockBegin
  2
GENAXEH
 70
     0
 10
0.0
 20
0.0
 30
0.0
  3
GENAXEH
  1

  0
LINE
  5
88
330
87
100
AcDbEntity
  8
0
100
AcDbLine
 10
-1.0
 20
0.0
 30
0.0
 11
1.0
 21
0.0
 31
0.0
  0
ENDBLK
  5
8A
330
87
100
AcDbEntity
  8
0
100
AcDbBlockEnd
  0
BLOCK
  5
173C
330
1732
100
AcDbEntity
  8
0
100
AcDbBlockBegin
  2
*D3
 70
     1
 10
0.0
 20
0.0
 30
0.0
  3
*D3
  1

  0
LINE
  5
1FBD
330
1732
100
AcDbEntity
  8
AM_5
100
AcDbLine
 10
432.4204746429319
 20
223.638649815976
 30
0.0
 11
354.1904746429259
 21
223.638649815976
 31
0.0
  0
LINE
  5
1FBE
330
1732
100
AcDbEntity
  8
AM_5
100
AcDbLine
 10
411.9404746429317
 20
562.6386498159761
 30
0.0
 11
354.190474642926
 21
562.6386498159761
 31
0.0
  0
LINE
  5
1FBF
330
1732
100
AcDbEntity
  8
AM_5
100
AcDbLine
 10
356.4404746429259
 20
228.1386498159761
 30
0.0
 11
356.440474642926
 21
558.1386498159761
 31
0.0
  0
SOLID
  5
1FC0
330
1732
100
AcDbEntity
  8
AM_5
100
AcDbTrace
 10
355.690474642926
 20
228.1386498159761
 30
0.0
 11
357.190474642926
 21
228.1386498159761
 31
0.0
 12
356.4404746429259
 22
223.638649815976
 32
0.0
 13
356.4404746429259
 23
223.638649815976
 33
0.0
  0
SOLID
  5
1FC1
330
1732
100
AcDbEntity
  8
AM_5
100
AcDbTrace
 10
355.690474642926
 20
558.1386498159761
 30
0.0
 11
357.190474642926
 21
558.1386498159761
 31
0.0
 12
356.440474642926
 22
562.6386498159761
 32
0.0
 13
356.440474642926
 23
562.6386498159761
 33
0.0
  0
MTEXT
  5
1FC2
330
1732
100
AcDbEntity
  8
AM_5
100
AcDbMText
 10
352.6154746429259
 20
393.1386498159762
 30
0.0
 40
5.25
 41
0.0
 71
     5
 72
     1
  1
339
  7
CHINESET
 11
0.0000000000000001
 21
1.0
 31
0.0
 73
     1
 44
1.0
1001
ACAD
1000
MTEXTBEGIN
1070
    73
1070
     1
1070
    44
1040
1.0
1070
    74
1070
     0
1000
MTEXTEND
  0
POINT
  5
1FC3
330
1732
100
AcDbEntity
  8
Defpoints
 62
     0
100
AcDbPoint
 10
433.9204746429319
 20
223.638649815976
 30
0.0
  0
POINT
  5
1FC4
330
1732
100
AcDbEntity
  8
Defpoints
 62
     0
100
AcDbPoint
 10
413.4404746429318
 20
562.6386498159761
 30
0.0
  0
POINT
  5
1FC5
330
1732
100
AcDbEntity
  8
Defpoints
 62
     0
100
AcDbPoint
 10
356.440474642926
 20
562.6386498159761
 30
0.0
  0
ENDBLK
  5
173D
330
1732
100
AcDbEntity
  8
0
100
AcDbBlockEnd
  0
BLOCK
  5
1767
330
175D
100
AcDbEntity
  8
0
100
AcDbBlockBegin
  2
*D4
 70
     1
 10
0.0
 20
0.0
 30
0.0
  3
*D4
  1

  0
LINE
  5
1FC6
330
175D
100
AcDbEntity
  8
AM_5
100
AcDbLine
 10
385.3196839303409
 20
442.6386498159761
 30
0.0
 11
369.1904746429317
 21
442.6386498159762
 31
0.0
  0
LINE
  5
1FC7
330
175D
100
AcDbEntity
  8
AM_5
100
AcDbLine
 10
411.9404746429317
 20
562.6386498159761
 30
0.0
 11
369.1904746429317
 21
562.6386498159761
 31
0.0
  0
LINE
  5
1FC8
330
175D
100
AcDbEntity
  8
AM_5
100
AcDbLine
 10
371.4404746429317
 20
447.1386498159762
 30
0.0
 11
371.4404746429317
 21
558.1386498159761
 31
0.0
  0
SOLID
  5
1FC9
330
175D
100
AcDbEntity
  8
AM_5
100
AcDbTrace
 10
370.6904746429318
 20
447.1386498159762
 30
0.0
 11
372.1904746429317
 21
447.1386498159762
 31
0.0
 12
371.4404746429317
 22
442.6386498159762
 32
0.0
 13
371.4404746429317
 23
442.6386498159762
 33
0.0
  0
SOLID
  5
1FCA
330
175D
100
AcDbEntity
  8
AM_5
100
AcDbTrace
 10
370.6904746429318
 20
558.1386498159761
 30
0.0
 11
372.1904746429317
 21
558.1386498159761
 31
0.0
 12
371.4404746429317
 22
562.6386498159761
 32
0.0
 13
371.4404746429317
 23
562.6386498159761
 33
0.0
  0
MTEXT
  5
1FCB
330
175D
100
AcDbEntity
  8
AM_5
100
AcDbMText
 10
367.6154746429317
 20
502.6386498159762
 30
0.0
 40
5.25
 41
0.0
 71
     5
 72
     1
  1
120
  7
CHINESET
 11
0.0000000000000001
 21
1.0
 31
0.0
 73
     1
 44
1.0
1001
ACAD
1000
MTEXTBEGIN
1070
    73
1070
     1
1070
    44
1040
1.0
1070
    74
1070
     0
1000
MTEXTEND
  0
POINT
  5
1FCC
330
175D
100
AcDbEntity
  8
Defpoints
 62
     0
100
AcDbPoint
 10
386.819683930341
 20
442.6386498159761
 30
0.0
  0
POINT
  5
1FCD
330
175D
100
AcDbEntity
  8
Defpoints
 62
     0
100
AcDbPoint
 10
413.4404746429318
 20
562.6386498159761
 30
0.0
  0
POINT
  5
1FCE
330
175D
100
AcDbEntity
  8
Defpoints
 62
     0
100
AcDbPoint
 10
371.4404746429317
 20
562.6386498159761
 30
0.0
  0
ENDBLK
  5
1768
330
175D
100
AcDbEntity
  8
0
100
AcDbBlockEnd
  0
BLOCK
  5
178D
330
1783
100
AcDbEntity
  8
0
100
AcDbBlockBegin
  2
*D5
 70
     1
 10
0.0
 20
0.0
 30
0.0
  3
*D5
  1

  0
LINE
  5
1FCF
330
1783
100
AcDbEntity
  8
AM_5
100
AcDbLine
 10
385.3196839303409
 20
442.6386498159761
 30
0.0
 11
369.190474642932
 21
442.6386498159762
 31
0.0
  0
LINE
  5
1FD0
330
1783
100
AcDbEntity
  8
AM_5
100
AcDbLine
 10
432.4204746429319
 20
223.638649815976
 30
0.0
 11
369.1904746429319
 21
223.638649815976
 31
0.0
  0
LINE
  5
1FD1
330
1783
100
AcDbEntity
  8
AM_5
100
AcDbLine
 10
371.440474642932
 20
438.1386498159762
 30
0.0
 11
371.4404746429319
 21
228.1386498159761
 31
0.0
  0
SOLID
  5
1FD2
330
1783
100
AcDbEntity
  8
AM_5
100
AcDbTrace
 10
370.690474642932
 20
438.1386498159762
 30
0.0
 11
372.190474642932
 21
438.1386498159762
 31
0.0
 12
371.440474642932
 22
442.6386498159762
 32
0.0
 13
371.440474642932
 23
442.6386498159762
 33
0.0
  0
SOLID
  5
1FD3
330
1783
100
AcDbEntity
  8
AM_5
100
AcDbTrace
 10
370.6904746429319
 20
228.1386498159761
 30
0.0
 11
372.1904746429319
 21
228.1386498159761
 31
0.0
 12
371.4404746429319
 22
223.638649815976
 32
0.0
 13
371.4404746429319
 23
223.638649815976
 33
0.0
  0
MTEXT
  5
1FD4
330
1783
100
AcDbEntity
  8
AM_5
100
AcDbMText
 10
367.6154746429319
 20
333.1386498159762
 30
0.0
 40
5.25
 41
0.0
 71
     5
 72
     1
  1
219
  7
CHINESET
 11
0.0000000000000001
 21
1.0
 31
0.0
 73
     1
 44
1.0
1001
ACAD
1000
MTEXTBEGIN
1070
    73
1070
     1
1070
    44
1040
1.0
1070
    74
1070
     0
1000
MTEXTEND
  0
POINT
  5
1FD5
330
1783
100
AcDbEntity
  8
Defpoints
 62
     0
100
AcDbPoint
 10
386.819683930341
 20
442.6386498159761
 30
0.0
  0
POINT
  5
1FD6
330
1783
100
AcDbEntity
  8
Defpoints
 62
     0
100
AcDbPoint
 10
433.9204746429319
 20
223.638649815976
 30
0.0
  0
POINT
  5
1FD7
330
1783
100
AcDbEntity
  8
Defpoints
 62
     0
100
AcDbPoint
 10
371.4404746429319
 20
223.638649815976
 30
0.0
  0
ENDBLK
  5
178E
330
1783
100
AcDbEntity
  8
0
100
AcDbBlockEnd
  0
BLOCK
  5
17D9
330
17CF
100
AcDbEntity
  8
0
100
AcDbBlockBegin
  2
*D6
 70
     1
 10
0.0
 20
0.0
 30
0.0
  3
*D6
  1

  0
LINE
  5
2024
330
17CF
100
AcDbEntity
  8
AM_5
100
AcDbLine
 10
469.9001320446496
 20
655.5804628658495
 30
0.0
 11
503.6904746429317
 21
655.5804628658495
 31
0.0
  0
LINE
  5
2025
330
17CF
100
AcDbEntity
  8
AM_5
100
AcDbLine
 10
469.9001320446496
 20
745.5804628658495
 30
0.0
 11
503.6904746429317
 21
745.5804628658495
 31
0.0
  0
LINE
  5
2026
330
17CF
100
AcDbEntity
  8
AM_5
100
AcDbLine
 10
501.4404746429317
 20
660.0804628658495
 30
0.0
 11
501.4404746429317
 21
741.0804628658495
 31
0.0
  0
SOLID
  5
2027
330
17CF
100
AcDbEntity
  8
AM_5
100
AcDbTrace
 10
500.6904746429317
 20
660.0804628658495
 30
0.0
 11
502.1904746429317
 21
660.0804628658495
 31
0.0
 12
501.4404746429317
 22
655.5804628658495
 32
0.0
 13
501.4404746429317
 23
655.5804628658495
 33
0.0
  0
SOLID
  5
2028
330
17CF
100
AcDbEntity
  8
AM_5
100
AcDbTrace
 10
500.6904746429317
 20
741.0804628658495
 30
0.0
 11
502.1904746429317
 21
741.0804628658495
 31
0.0
 12
501.4404746429317
 22
745.5804628658495
 32
0.0
 13
501.4404746429317
 23
745.5804628658495
 33
0.0
  0
MTEXT
  5
2029
330
17CF
100
AcDbEntity
  8
AM_5
100
AcDbMText
 10
497.6154746429316
 20
700.5804628658496
 30
0.0
 40
5.25
 41
0.0
 71
     5
 72
     1
  1
{\Famgdt|c136;o} 90
  7
CHINESET
 11
0.0000000000000001
 21
1.0
 31
0.0
 73
     1
 44
1.0
1001
ACAD
1000
MTEXTBEGIN
1070
    73
1070
     1
1070
    44
1040
1.0
1070
    74
1070
     0
1000
MTEXTEND
  0
POINT
  5
202A
330
17CF
100
AcDbEntity
  8
Defpoints
 62
     0
100
AcDbPoint
 10
468.4001320446497
 20
655.5804628658495
 30
0.0
  0
POINT
  5
202B
330
17CF
100
AcDbEntity
  8
Defpoints
 62
     0
100
AcDbPoint
 10
468.4001320446497
 20
745.5804628658495
 30
0.0
  0
POINT
  5
202C
330
17CF
100
AcDbEntity
  8
Defpoints
 62
     0
100
AcDbPoint
 10
501.4404746429317
 20
745.5804628658495
 30
0.0
  0
ENDBLK
  5
17DA
330
17CF
100
AcDbEntity
  8
0
100
AcDbBlockEnd
  0
BLOCK
  5
199A
330
198E
100
AcDbEntity
  8
0
100
AcDbBlockBegin
  2
*D7
 70
     1
 10
0.0
 20
0.0
 30
0.0
  3
*D7
  1

  0
LINE
  5
1FE1
330
198E
100
AcDbEntity
  8
AM_5
100
AcDbLine
 10
433.4404746429318
 20
223.6986498159761
 30
0.0
 11
433.4404746429318
 21
202.9486498159761
 31
0.0
  0
LINE
  5
1FE2
330
198E
100
AcDbEntity
  8
AM_5
100
AcDbLine
 10
439.4404746429318
 20
223.6986498159762
 30
0.0
 11
439.4404746429318
 21
202.9486498159761
 31
0.0
  0
LINE
  5
1FE3
330
198E
100
AcDbEntity
  8
AM_5
100
AcDbLine
 10
428.9404746429318
 20
205.1986498159761
 30
0.0
 11
424.4404746429317
 21
205.1986498159761
 31
0.0
  0
LINE
  5
1FE4
330
198E
100
AcDbEntity
  8
AM_5
100
AcDbLine
 10
443.9404746429318
 20
205.1986498159761
 30
0.0
 11
456.8404746429317
 21
205.1986498159761
 31
0.0
  0
LINE
  5
1FE5
330
198E
100
AcDbEntity
  8
AM_5
100
AcDbLine
 10
433.4404746429318
 20
205.1986498159761
 30
0.0
 11
439.4404746429318
 21
205.1986498159761
 31
0.0
  0
SOLID
  5
1FE6
330
198E
100
AcDbEntity
  8
AM_5
100
AcDbTrace
 10
428.9404746429318
 20
205.9486498159761
 30
0.0
 11
428.9404746429318
 21
204.4486498159761
 31
0.0
 12
433.4404746429318
 22
205.1986498159761
 32
0.0
 13
433.4404746429318
 23
205.1986498159761
 33
0.0
  0
SOLID
  5
1FE7
330
198E
100
AcDbEntity
  8
AM_5
100
AcDbTrace
 10
443.9404746429318
 20
205.9486498159761
 30
0.0
 11
443.9404746429318
 21
204.4486498159761
 31
0.0
 12
439.4404746429318
 22
205.1986498159761
 32
0.0
 13
439.4404746429318
 23
205.1986498159761
 33
0.0
  0
MTEXT
  5
1FE8
330
198E
100
AcDbEntity
  8
AM_5
100
AcDbMText
 10
452.6404746429317
 20
209.0236498159761
 30
0.0
 40
5.25
 41
0.0
 71
     5
 72
     1
  1
%%c6
  7
CHINESET
 73
     1
 44
1.0
1001
ACAD
1000
MTEXTBEGIN
1070
    73
1070
     1
1070
    44
1040
1.0
1070
    74
1070
     0
1000
MTEXTEND
  0
POINT
  5
1FE9
330
198E
100
AcDbEntity
  8
Defpoints
 62
     0
100
AcDbPoint
 10
433.4404746429318
 20
225.1986498159761
 30
0.0
  0
POINT
  5
1FEA
330
198E
100
AcDbEntity
  8
Defpoints
 62
     0
100
AcDbPoint
 10
439.4404746429318
 20
225.1986498159761
 30
0.0
  0
POINT
  5
1FEB
330
198E
100
AcDbEntity
  8
Defpoints
 62
     0
100
AcDbPoint
 10
439.4404746429318
 20
205.1986498159761
 30
0.0
  0
ENDBLK
  5
199B
330
198E
100
AcDbEntity
  8
0
100
AcDbBlockEnd
  0
BLOCK
  5
1AC3
330
1AB5
100
AcDbEntity
  8
0
100
AcDbBlockBegin
  2
A$C5278498E
 70
     0
 10
0.0
 20
0.0
 30
0.0
  3
A$C5278498E
  1

  0
LINE
  5
1AB6
330
1AB5
100
AcDbEntity
  8
AM_VIS
 62
     3
100
AcDbLine
 10
33.5
 20
49.5
 30
0.0
 11
33.5
 21
0.0
 31
0.0
  0
LINE
  5
1AB7
330
1AB5
100
AcDbEntity
  8
AM_VIS
 62
     3
100
AcDbLine
 10
33.5
 20
51.5
 30
0.0
 11
33.5
 21
49.5
 31
0.0
  0
LINE
  5
1AB8
330
1AB5
100
AcDbEntity
  8
AM_VIS
 62
     3
100
AcDbLine
 10
-33.5
 20
49.5
 30
0.0
 11
-33.5
 21
51.5
 31
0.0
  0
LINE
  5
1AB9
330
1AB5
100
AcDbEntity
  8
AM_VIS
 62
     3
100
AcDbLine
 10
-33.5
 20
51.5
 30
0.0
 11
33.5
 21
51.5
 31
0.0
  0
LINE
  5
1ABA
330
1AB5
100
AcDbEntity
  8
AM_VIS
 62
     3
100
AcDbLine
 10
33.5
 20
49.5
 30
0.0
 11
-33.5
 21
49.5
 31
0.0
  0
ARC
  5
1ABB
330
1AB5
100
AcDbEntity
  8
AM_VIS
 62
     3
100
AcDbCircle
 10
0.0
 20
0.0
 30
0.0
 40
33.5
100
AcDbArc
 50
180.0
 51
0.0
  0
LINE
  5
1ABC
330
1AB5
100
AcDbEntity
  8
AM_VIS
 62
     3
100
AcDbLine
 10
-33.5
 20
0.0
 30
0.0
 11
-33.5
 21
49.5
 31
0.0
  0
LINE
  5
1ABD
330
1AB5
100
AcDbEntity
  8
AM_7
  6
AM_ISO08W050x2
100
AcDbLine
 10
-26.5
 20
47.95372116488272
 30
0.0
 11
-26.5
 21
53.20372116488272
 31
0.0
  0
LINE
  5
1ABE
330
1AB5
100
AcDbEntity
  8
AM_7
  6
AM_ISO08W050x2
100
AcDbLine
 10
-17.5
 20
47.95372116488272
 30
0.0
 11
-17.5
 21
53.20372116488272
 31
0.0
  0
LINE
  5
1ABF
330
1AB5
100
AcDbEntity
  8
AM_7
  6
AM_ISO08W050x2
100
AcDbLine
 10
17.5
 20
47.95372116488272
 30
0.0
 11
17.5
 21
53.20372116488272
 31
0.0
  0
LINE
  5
1AC0
330
1AB5
100
AcDbEntity
  8
AM_7
  6
AM_ISO08W050x2
100
AcDbLine
 10
26.5
 20
47.95372116488272
 30
0.0
 11
26.5
 21
53.20372116488272
 31
0.0
  0
ENDBLK
  5
1AC4
330
1AB5
100
AcDbEntity
  8
0
100
AcDbBlockEnd
  0
BLOCK
  5
1BBA
330
1BB9
100
AcDbEntity
  8
0
100
AcDbBlockBegin
  2
*U10
 70
     1
 10
0.0
 20
0.0
 30
0.0
  3
*U10
  1

  0
ENDBLK
  5
1BBB
330
1BB9
100
AcDbEntity
  8
0
100
AcDbBlockEnd
  0
BLOCK
  5
1C2B
330
1C21
100
AcDbEntity
  8
0
100
AcDbBlockBegin
  2
*D11
 70
     1
 10
0.0
 20
0.0
 30
0.0
  3
*D11
  1

  0
LINE
  5
1FEC
330
1C21
100
AcDbEntity
  8
AM_5
100
AcDbLine
 10
608.207120779726
 20
570.3895578398405
 30
0.0
 11
608.207120779726
 21
584.8886498159761
 31
0.0
  0
LINE
  5
1FED
330
1C21
100
AcDbEntity
  8
AM_5
100
AcDbLine
 10
659.7071207797259
 20
517.1386498159761
 30
0.0
 11
659.7071207797259
 21
584.8886498159761
 31
0.0
  0
LINE
  5
1FEE
330
1C21
100
AcDbEntity
  8
AM_5
100
AcDbLine
 10
612.707120779726
 20
582.6386498159761
 30
0.0
 11
655.207120779726
 21
582.6386498159761
 31
0.0
  0
SOLID
  5
1FEF
330
1C21
100
AcDbEntity
  8
AM_5
100
AcDbTrace
 10
612.707120779726
 20
583.3886498159761
 30
0.0
 11
612.707120779726
 21
581.8886498159761
 31
0.0
 12
608.207120779726
 22
582.6386498159761
 32
0.0
 13
608.207120779726
 23
582.6386498159761
 33
0.0
  0
SOLID
  5
1FF0
330
1C21
100
AcDbEntity
  8
AM_5
100
AcDbTrace
 10
655.207120779726
 20
583.3886498159761
 30
0.0
 11
655.207120779726
 21
581.8886498159761
 31
0.0
 12
659.7071207797259
 22
582.6386498159761
 32
0.0
 13
659.7071207797259
 23
582.6386498159761
 33
0.0
  0
MTEXT
  5
1FF1
330
1C21
100
AcDbEntity
  8
AM_5
100
AcDbMText
 10
633.9571207797259
 20
586.4636498159761
 30
0.0
 40
5.25
 41
0.0
 71
     5
 72
     1
  1
51.5
  7
CHINESET
 73
     1
 44
1.0
1001
ACAD
1000
MTEXTBEGIN
1070
    73
1070
     1
1070
    44
1040
1.0
1070
    74
1070
     0
1000
MTEXTEND
  0
POINT
  5
1FF2
330
1C21
100
AcDbEntity
  8
Defpoints
 62
     0
100
AcDbPoint
 10
608.207120779726
 20
568.8895578398406
 30
0.0
  0
POINT
  5
1FF3
330
1C21
100
AcDbEntity
  8
Defpoints
 62
     0
100
AcDbPoint
 10
659.7071207797259
 20
515.638649815976
 30
0.0
  0
POINT
  5
1FF4
330
1C21
100
AcDbEntity
  8
Defpoints
 62
     0
100
AcDbPoint
 10
659.7071207797259
 20
582.6386498159761
 30
0.0
  0
ENDBLK
  5
1C2C
330
1C21
100
AcDbEntity
  8
0
100
AcDbBlockEnd
  0
BLOCK
  5
1C71
330
1C63
100
AcDbEntity
  8
0
100
AcDbBlockBegin
  2
A$C0EB06734
 70
     0
 10
0.0
 20
0.0
 30
0.0
  3
A$C0EB06734
  1

  0
LINE
  5
1C64
330
1C63
100
AcDbEntity
  8
AM_VIS
 62
     3
100
AcDbLine
 10
0.0
 20
-22.99999999999994
 30
0.0
 11
0.0
 21
0.0
 31
0.0
  0
ARC
  5
1C65
330
1C63
100
AcDbEntity
  8
AM_VIS
 62
     3
100
AcDbCircle
 10
-2.0
 20
-22.99999999999994
 30
0.0
 40
2.0
100
AcDbArc
 50
270.0
 51
0.0
  0
LINE
  5
1C66
330
1C63
100
AcDbEntity
  8
AM_VIS
 62
     3
100
AcDbLine
 10
-2.0
 20
-24.99999999999995
 30
0.0
 11
-51.5
 21
-25.0
 31
0.0
  0
LINE
  5
1C67
330
1C63
100
AcDbEntity
  8
AM_VIS
 62
     3
100
AcDbLine
 10
-4.300000000000068
 20
-22.69999999999999
 30
0.0
 11
-51.5
 21
-22.69999999999999
 31
0.0
  0
LINE
  5
1C68
330
1C63
100
AcDbEntity
  8
AM_VIS
 62
     3
100
AcDbLine
 10
0.0
 20
0.0
 30
0.0
 11
-2.299999999999954
 21
0.0
 31
0.0
  0
LINE
  5
1C69
330
1C63
100
AcDbEntity
  8
AM_VIS
 62
     3
100
AcDbLine
 10
-2.300000000000068
 20
-20.69999999999999
 30
0.0
 11
-2.299999999999954
 21
0.0
 31
0.0
  0
ARC
  5
1C6A
330
1C63
100
AcDbEntity
  8
AM_VIS
 62
     3
100
AcDbCircle
 10
-4.300000000000068
 20
-20.69999999999999
 30
0.0
 40
2.0
100
AcDbArc
 50
270.0
 51
0.0
  0
LINE
  5
1C6B
330
1C63
100
AcDbEntity
  8
AM_VIS
 62
     3
100
AcDbLine
 10
-85.0
 20
-25.0
 30
0.0
 11
-85.0
 21
-22.69999999999999
 31
0.0
  0
LINE
  5
1C6C
330
1C63
100
AcDbEntity
  8
AM_VIS
 62
     3
100
AcDbLine
 10
-85.0
 20
-25.0
 30
0.0
 11
-51.5
 21
-25.0
 31
0.0
  0
LINE
  5
1C6D
330
1C63
100
AcDbEntity
  8
AM_VIS
 62
     3
100
AcDbLine
 10
-85.0
 20
-22.69999999999999
 30
0.0
 11
-51.5
 21
-22.69999999999999
 31
0.0
  0
LINE
  5
1C6E
330
1C63
100
AcDbEntity
  8
AM_7
  6
AM_ISO08W050x2
100
AcDbLine
 10
-3.884883413746138
 20
-7.5
 30
0.0
 11
1.665116586253816
 21
-7.5
 31
0.0
  0
ENDBLK
  5
1C72
330
1C63
100
AcDbEntity
  8
0
100
AcDbBlockEnd
  0
BLOCK
  5
1CC1
330
1C9B
100
AcDbEntity
  8
0
100
AcDbBlockBegin
  2
A$C6E4D5685
 70
     0
 10
0.0
 20
0.0
 30
0.0
  3
A$C6E4D5685
  1

  0
LINE
  5
1C9C
330
1C9B
100
AcDbEntity
  8
AM_VIS
 62
     3
100
AcDbLine
 10
-67.0
 20
-25.0
 30
0.0
 11
-67.0
 21
-22.69999999999999
 31
0.0
  0
LINE
  5
1C9D
330
1C9B
100
AcDbEntity
  8
AM_VIS
 62
     3
100
AcDbLine
 10
0.0
 20
-25.0
 30
0.0
 11
0.0
 21
-22.69999999999999
 31
0.0
  0
LINE
  5
1C9E
330
1C9B
100
AcDbEntity
  8
AM_VIS
 62
     3
100
AcDbLine
 10
-67.0
 20
-22.69999999999999
 30
0.0
 11
-67.0
 21
0.0
 31
0.0
  0
LINE
  5
1C9F
330
1C9B
100
AcDbEntity
  8
AM_VIS
 62
     3
100
AcDbLine
 10
0.0
 20
0.0
 30
0.0
 11
-67.0
 21
0.0
 31
0.0
  0
LINE
  5
1CA0
330
1C9B
100
AcDbEntity
  8
AM_VIS
 62
     3
100
AcDbLine
 10
0.0
 20
-22.69999999999999
 30
0.0
 11
0.0
 21
0.0
 31
0.0
  0
LINE
  5
1CA1
330
1C9B
100
AcDbEntity
  8
AM_VIS
 62
     3
100
AcDbLine
 10
-60.0
 20
-4.25
 30
0.0
 11
-51.0
 21
-4.25
 31
0.0
  0
LINE
  5
1CA2
330
1C9B
100
AcDbEntity
  8
AM_VIS
 62
     3
100
AcDbLine
 10
-51.0
 20
-10.75
 30
0.0
 11
-60.0
 21
-10.75
 31
0.0
  0
LINE
  5
1CA3
330
1C9B
100
AcDbEntity
  8
AM_VIS
 62
     3
100
AcDbLine
 10
-16.0
 20
-4.25
 30
0.0
 11
-7.0
 21
-4.25
 31
0.0
  0
LINE
  5
1CA4
330
1C9B
100
AcDbEntity
  8
AM_VIS
 62
     3
100
AcDbLine
 10
-7.0
 20
-10.75
 30
0.0
 11
-16.0
 21
-10.75
 31
0.0
  0
LINE
  5
1CA5
330
1C9B
100
AcDbEntity
  8
AM_VIS
 62
     3
100
AcDbLine
 10
-67.0
 20
-25.0
 30
0.0
 11
0.0
 21
-25.0
 31
0.0
  0
LINE
  5
1CA6
330
1C9B
100
AcDbEntity
  8
AM_VIS
 62
     3
100
AcDbLine
 10
-67.0
 20
-22.69999999999999
 30
0.0
 11
0.0
 21
-22.69999999999999
 31
0.0
  0
ARC
  5
1CA7
330
1C9B
100
AcDbEntity
  8
AM_VIS
 62
     3
100
AcDbCircle
 10
-60.0
 20
-7.5
 30
0.0
 40
3.25
100
AcDbArc
 50
90.0
 51
270.0
  0
ARC
  5
1CA8
330
1C9B
100
AcDbEntity
  8
AM_VIS
 62
     3
100
AcDbCircle
 10
-51.0
 20
-7.5
 30
0.0
 40
3.25
100
AcDbArc
 50
270.0
 51
90.0
  0
ARC
  5
1CA9
330
1C9B
100
AcDbEntity
  8
AM_VIS
 62
     3
100
AcDbCircle
 10
-16.0
 20
-7.5
 30
0.0
 40
3.25
100
AcDbArc
 50
90.0
 51
270.0
  0
ARC
  5
1CAA
330
1C9B
100
AcDbEntity
  8
AM_VIS
 62
     3
100
AcDbCircle
 10
-7.0
 20
-7.5
 30
0.0
 40
3.25
100
AcDbArc
 50
270.0
 51
90.0
  0
LINE
  5
1CAB
330
1C9B
100
AcDbEntity
  8
AM_7
  6
AM_ISO08W050x2
100
AcDbLine
 10
-60.0
 20
-7.5
 30
0.0
 11
-54.75
 21
-7.5
 31
0.0
1001
GENIUS_GENOREF_13
1005
1CBE
  0
LINE
  5
1CAC
330
1C9B
100
AcDbEntity
  8
AM_7
  6
AM_ISO08W050x2
100
AcDbLine
 10
-60.0
 20
-7.5
 30
0.0
 11
-60.0
 21
-2.25
 31
0.0
1001
GENIUS_GENOREF_13
1005
1CBE
  0
LINE
  5
1CAD
330
1C9B
100
AcDbEntity
  8
AM_7
  6
AM_ISO08W050x2
100
AcDbLine
 10
-60.0
 20
-7.5
 30
0.0
 11
-65.25
 21
-7.5
 31
0.0
1001
GENIUS_GENOREF_13
1005
1CBE
  0
LINE
  5
1CAE
330
1C9B
100
AcDbEntity
  8
AM_7
  6
AM_ISO08W050x2
100
AcDbLine
 10
-60.0
 20
-7.5
 30
0.0
 11
-60.0
 21
-12.75
 31
0.0
1001
GENIUS_GENOREF_13
1005
1CBE
  0
LINE
  5
1CAF
330
1C9B
100
AcDbEntity
  8
AM_7
  6
AM_ISO08W050x2
100
AcDbLine
 10
-51.0
 20
-7.5
 30
0.0
 11
-45.75
 21
-7.5
 31
0.0
1001
GENIUS_GENOREF_13
1005
1CBD
  0
LINE
  5
1CB0
330
1C9B
100
AcDbEntity
  8
AM_7
  6
AM_ISO08W050x2
100
AcDbLine
 10
-51.0
 20
-7.5
 30
0.0
 11
-51.0
 21
-2.25
 31
0.0
1001
GENIUS_GENOREF_13
1005
1CBD
  0
LINE
  5
1CB1
330
1C9B
100
AcDbEntity
  8
AM_7
  6
AM_ISO08W050x2
100
AcDbLine
 10
-51.0
 20
-7.5
 30
0.0
 11
-56.25
 21
-7.5
 31
0.0
1001
GENIUS_GENOREF_13
1005
1CBD
  0
LINE
  5
1CB2
330
1C9B
100
AcDbEntity
  8
AM_7
  6
AM_ISO08W050x2
100
AcDbLine
 10
-51.0
 20
-7.5
 30
0.0
 11
-51.0
 21
-12.75
 31
0.0
1001
GENIUS_GENOREF_13
1005
1CBD
  0
LINE
  5
1CB3
330
1C9B
100
AcDbEntity
  8
AM_7
  6
AM_ISO08W050x2
100
AcDbLine
 10
-16.0
 20
-7.5
 30
0.0
 11
-10.75
 21
-7.5
 31
0.0
1001
GENIUS_GENOREF_13
1005
1CBC
  0
LINE
  5
1CB4
330
1C9B
100
AcDbEntity
  8
AM_7
  6
AM_ISO08W050x2
100
AcDbLine
 10
-16.0
 20
-7.5
 30
0.0
 11
-16.0
 21
-2.25
 31
0.0
1001
GENIUS_GENOREF_13
1005
1CBC
  0
LINE
  5
1CB5
330
1C9B
100
AcDbEntity
  8
AM_7
  6
AM_ISO08W050x2
100
AcDbLine
 10
-16.0
 20
-7.5
 30
0.0
 11
-21.25
 21
-7.5
 31
0.0
1001
GENIUS_GENOREF_13
1005
1CBC
  0
LINE
  5
1CB6
330
1C9B
100
AcDbEntity
  8
AM_7
  6
AM_ISO08W050x2
100
AcDbLine
 10
-16.0
 20
-7.5
 30
0.0
 11
-16.0
 21
-12.75
 31
0.0
1001
GENIUS_GENOREF_13
1005
1CBC
  0
LINE
  5
1CB7
330
1C9B
100
AcDbEntity
  8
AM_7
  6
AM_ISO08W050x2
100
AcDbLine
 10
-7.0
 20
-7.5
 30
0.0
 11
-1.75
 21
-7.5
 31
0.0
1001
GENIUS_GENOREF_13
1005
1CBB
  0
LINE
  5
1CB8
330
1C9B
100
AcDbEntity
  8
AM_7
  6
AM_ISO08W050x2
100
AcDbLine
 10
-7.0
 20
-7.5
 30
0.0
 11
-7.0
 21
-2.25
 31
0.0
1001
GENIUS_GENOREF_13
1005
1CBB
  0
LINE
  5
1CB9
330
1C9B
100
AcDbEntity
  8
AM_7
  6
AM_ISO08W050x2
100
AcDbLine
 10
-7.0
 20
-7.5
 30
0.0
 11
-12.25
 21
-7.5
 31
0.0
1001
GENIUS_GENOREF_13
1005
1CBB
  0
LINE
  5
1CBA
330
1C9B
100
AcDbEntity
  8
AM_7
  6
AM_ISO08W050x2
100
AcDbLine
 10
-7.0
 20
-7.5
 30
0.0
 11
-7.0
 21
-12.75
 31
0.0
1001
GENIUS_GENOREF_13
1005
1CBB
  0
POINT
  5
1CBB
330
1C9B
100
AcDbEntity
  8
0
 60
     1
100
AcDbPoint
 10
-942.0465152448418
 20
-369.4518621947743
 30
0.0
1001
GENIUS_GENOLIS_13
1002
{
1000
ENT
1005
1CBA
1005
1CB9
1005
1CB8
1005
1CB7
1002
}
1001
GENIUS_GENOBJ-N-CRS_13
1002
{
1000
OWNER
1000
GEN
1002
}
1001
GENIUS_GENODEF_13
1002
{
1000
HIER
1070
    10
1002
}
1002
{
1000
MANEDIT
1070
     0
1002
}
1002
{
1000
NOSEL
1070
     0
1002
}
1002
{
1000
BEHIND
1070
     0
1002
}
1002
{
1000
OTHER
1070
     0
1002
}
1002
{
1000
REACTOR
1002
}
1001
GENIUS_GENOENT_13
1002
{
1000
MYREF
1005
1CBB
1002
}
1002
{
1000
GRP
1005
0
1002
}
  0
POINT
  5
1CBC
330
1C9B
100
AcDbEntity
  8
0
 60
     1
100
AcDbPoint
 10
-942.0465152448418
 20
-369.4518621947743
 30
0.0
1001
GENIUS_GENOENT_13
1002
{
1000
MYREF
1005
1CBC
1002
}
1002
{
1000
GRP
1005
0
1002
}
1001
GENIUS_GENOBJ-N-CRS_13
1002
{
1000
OWNER
1000
GEN
1002
}
1001
GENIUS_GENODEF_13
1002
{
1000
HIER
1070
    10
1002
}
1002
{
1000
MANEDIT
1070
     0
1002
}
1002
{
1000
NOSEL
1070
     0
1002
}
1002
{
1000
BEHIND
1070
     0
1002
}
1002
{
1000
OTHER
1070
     0
1002
}
1002
{
1000
REACTOR
1002
}
1001
GENIUS_GENOLIS_13
1002
{
1000
ENT
1005
1CB6
1005
1CB5
1005
1CB4
1005
1CB3
1002
}
  0
POINT
  5
1CBD
330
1C9B
100
AcDbEntity
  8
0
 60
     1
100
AcDbPoint
 10
-942.0465152448418
 20
-369.4518621947743
 30
0.0
1001
GENIUS_GENODEF_13
1002
{
1000
HIER
1070
    10
1002
}
1002
{
1000
MANEDIT
1070
     0
1002
}
1002
{
1000
NOSEL
1070
     0
1002
}
1002
{
1000
BEHIND
1070
     0
1002
}
1002
{
1000
OTHER
1070
     0
1002
}
1002
{
1000
REACTOR
1002
}
1001
GENIUS_GENOLIS_13
1002
{
1000
ENT
1005
1CB2
1005
1CB1
1005
1CB0
1005
1CAF
1002
}
1001
GENIUS_GENOENT_13
1002
{
1000
MYREF
1005
1CBD
1002
}
1002
{
1000
GRP
1005
0
1002
}
1001
GENIUS_GENOBJ-N-CRS_13
1002
{
1000
OWNER
1000
GEN
1002
}
  0
POINT
  5
1CBE
330
1C9B
100
AcDbEntity
  8
0
 60
     1
100
AcDbPoint
 10
-942.0465152448418
 20
-369.4518621947743
 30
0.0
1001
GENIUS_GENOENT_13
1002
{
1000
MYREF
1005
1CBE
1002
}
1002
{
1000
GRP
1005
0
1002
}
1001
GENIUS_GENOBJ-N-CRS_13
1002
{
1000
OWNER
1000
GEN
1002
}
1001
GENIUS_GENODEF_13
1002
{
1000
HIER
1070
    10
1002
}
1002
{
1000
MANEDIT
1070
     0
1002
}
1002
{
1000
NOSEL
1070
     0
1002
}
1002
{
1000
BEHIND
1070
     0
1002
}
1002
{
1000
OTHER
1070
     0
1002
}
1002
{
1000
REACTOR
1002
}
1001
GENIUS_GENOLIS_13
1002
{
1000
ENT
1005
1CAE
1005
1CAD
1005
1CAC
1005
1CAB
1002
}
  0
ENDBLK
  5
1CC2
330
1C9B
100
AcDbEntity
  8
0
100
AcDbBlockEnd
  0
BLOCK
  5
1D0E
330
1D04
100
AcDbEntity
  8
0
100
AcDbBlockBegin
  2
*D14
 70
     1
 10
0.0
 20
0.0
 30
0.0
  3
*D14
  1

  0
LINE
  5
206A
330
1D04
100
AcDbEntity
  8
AM_5
100
AcDbLine
 10
652.3167576815267
 20
442.6386498159761
 30
0.0
 11
683.6222373659798
 21
442.6386498159761
 31
0.0
  0
LINE
  5
206B
330
1D04
100
AcDbEntity
  8
AM_5
100
AcDbLine
 10
662.8722373659797
 20
508.1386498159761
 30
0.0
 11
683.6222373659798
 21
508.1386498159761
 31
0.0
  0
LINE
  5
206C
330
1D04
100
AcDbEntity
  8
AM_5
100
AcDbLine
 10
681.3722373659798
 20
447.1386498159761
 30
0.0
 11
681.3722373659798
 21
503.6386498159761
 31
0.0
  0
SOLID
  5
206D
330
1D04
100
AcDbEntity
  8
AM_5
100
AcDbTrace
 10
680.6222373659798
 20
447.1386498159761
 30
0.0
 11
682.1222373659797
 21
447.1386498159761
 31
0.0
 12
681.3722373659798
 22
442.6386498159761
 32
0.0
 13
681.3722373659798
 23
442.6386498159761
 33
0.0
  0
SOLID
  5
206E
330
1D04
100
AcDbEntity
  8
AM_5
100
AcDbTrace
 10
680.6222373659798
 20
503.6386498159761
 30
0.0
 11
682.1222373659797
 21
503.6386498159761
 31
0.0
 12
681.3722373659798
 22
508.1386498159761
 32
0.0
 13
681.3722373659798
 23
508.1386498159761
 33
0.0
  0
MTEXT
  5
206F
330
1D04
100
AcDbEntity
  8
AM_5
100
AcDbMText
 10
677.5472373659796
 20
475.3886498159762
 30
0.0
 40
5.25
 41
0.0
 71
     5
 72
     1
  1
65.5
  7
CHINESET
 11
0.0000000000000001
 21
1.0
 31
0.0
 73
     1
 44
1.0
1001
ACAD
1000
MTEXTBEGIN
1070
    73
1070
     1
1070
    44
1040
1.0
1070
    74
1070
     0
1000
MTEXTEND
  0
POINT
  5
2070
330
1D04
100
AcDbEntity
  8
Defpoints
 62
     0
100
AcDbPoint
 10
650.8167576815267
 20
442.6386498159761
 30
0.0
  0
POINT
  5
2071
330
1D04
100
AcDbEntity
  8
Defpoints
 62
     0
100
AcDbPoint
 10
661.3722373659798
 20
508.1386498159761
 30
0.0
  0
POINT
  5
2072
330
1D04
100
AcDbEntity
  8
Defpoints
 62
     0
100
AcDbPoint
 10
681.3722373659798
 20
508.1386498159761
 30
0.0
  0
ENDBLK
  5
1D0F
330
1D04
100
AcDbEntity
  8
0
100
AcDbBlockEnd
  0
BLOCK
  5
1D3B
330
1D2F
100
AcDbEntity
  8
0
100
AcDbBlockBegin
  2
*D15
 70
     1
 10
0.0
 20
0.0
 30
0.0
  3
*D15
  1

  0
LINE
  5
2033
330
1D2F
100
AcDbEntity
  8
AM_5
100
AcDbLine
 10
464.4404746429318
 20
504.888649815976
 30
0.0
 11
492.1904746429317
 21
504.888649815976
 31
0.0
  0
LINE
  5
2034
330
1D2F
100
AcDbEntity
  8
AM_5
100
AcDbLine
 10
464.4404746429318
 20
511.3886498159761
 30
0.0
 11
492.1904746429317
 21
511.3886498159761
 31
0.0
  0
LINE
  5
2035
330
1D2F
100
AcDbEntity
  8
AM_5
100
AcDbLine
 10
489.9404746429318
 20
500.3886498159761
 30
0.0
 11
489.9404746429318
 21
495.8886498159761
 31
0.0
  0
LINE
  5
2036
330
1D2F
100
AcDbEntity
  8
AM_5
100
AcDbLine
 10
489.9404746429318
 20
515.8886498159761
 30
0.0
 11
489.9404746429318
 21
531.038649815976
 31
0.0
  0
LINE
  5
2037
330
1D2F
100
AcDbEntity
  8
AM_5
100
AcDbLine
 10
489.9404746429318
 20
504.888649815976
 30
0.0
 11
489.9404746429318
 21
511.3886498159761
 31
0.0
  0
SOLID
  5
2038
330
1D2F
100
AcDbEntity
  8
AM_5
100
AcDbTrace
 10
489.1904746429317
 20
500.3886498159761
 30
0.0
 11
490.6904746429318
 21
500.3886498159761
 31
0.0
 12
489.9404746429318
 22
504.888649815976
 32
0.0
 13
489.9404746429318
 23
504.888649815976
 33
0.0
  0
SOLID
  5
2039
330
1D2F
100
AcDbEntity
  8
AM_5
100
AcDbTrace
 10
489.1904746429317
 20
515.8886498159761
 30
0.0
 11
490.6904746429318
 21
515.8886498159761
 31
0.0
 12
489.9404746429318
 22
511.3886498159761
 32
0.0
 13
489.9404746429318
 23
511.3886498159761
 33
0.0
  0
MTEXT
  5
203A
330
1D2F
100
AcDbEntity
  8
AM_5
100
AcDbMText
 10
486.1154746429317
 20
525.7136498159763
 30
0.0
 40
5.25
 41
0.0
 71
     5
 72
     1
  1
6.5
  7
CHINESET
 11
0.0000000000000001
 21
1.0
 31
0.0
 73
     1
 44
1.0
1001
ACAD
1000
MTEXTBEGIN
1070
    73
1070
     1
1070
    44
1040
1.0
1070
    74
1070
     0
1000
MTEXTEND
  0
POINT
  5
203B
330
1D2F
100
AcDbEntity
  8
Defpoints
 62
     0
100
AcDbPoint
 10
462.9404746429318
 20
504.888649815976
 30
0.0
  0
POINT
  5
203C
330
1D2F
100
AcDbEntity
  8
Defpoints
 62
     0
100
AcDbPoint
 10
462.9404746429318
 20
511.3886498159761
 30
0.0
  0
POINT
  5
203D
330
1D2F
100
AcDbEntity
  8
Defpoints
 62
     0
100
AcDbPoint
 10
489.9404746429318
 20
511.3886498159761
 30
0.0
  0
ENDBLK
  5
1D3C
330
1D2F
100
AcDbEntity
  8
0
100
AcDbBlockEnd
  0
BLOCK
  5
1DDA
330
1DD0
100
AcDbEntity
  8
0
100
AcDbBlockBegin
  2
*D16
 70
     1
 10
0.0
 20
0.0
 30
0.0
  3
*D16
  1

  0
LINE
  5
2009
330
1DD0
100
AcDbEntity
  8
AM_5
100
AcDbLine
 10
414.4404746429318
 20
512.8886498159761
 30
0.0
 11
414.4404746429318
 21
584.8886498159761
 31
0.0
  0
LINE
  5
200A
330
1DD0
100
AcDbEntity
  8
AM_5
100
AcDbLine
 10
458.4404746429318
 20
512.8886498159761
 30
0.0
 11
458.4404746429318
 21
584.8886498159761
 31
0.0
  0
LINE
  5
200B
330
1DD0
100
AcDbEntity
  8
AM_5
100
AcDbLine
 10
418.9404746429318
 20
582.6386498159761
 30
0.0
 11
453.9404746429318
 21
582.6386498159761
 31
0.0
  0
SOLID
  5
200C
330
1DD0
100
AcDbEntity
  8
AM_5
100
AcDbTrace
 10
418.9404746429318
 20
583.3886498159761
 30
0.0
 11
418.9404746429318
 21
581.8886498159761
 31
0.0
 12
414.4404746429318
 22
582.6386498159761
 32
0.0
 13
414.4404746429318
 23
582.6386498159761
 33
0.0
  0
SOLID
  5
200D
330
1DD0
100
AcDbEntity
  8
AM_5
100
AcDbTrace
 10
453.9404746429318
 20
583.3886498159761
 30
0.0
 11
453.9404746429318
 21
581.8886498159761
 31
0.0
 12
458.4404746429318
 22
582.6386498159761
 32
0.0
 13
458.4404746429318
 23
582.6386498159761
 33
0.0
  0
MTEXT
  5
200E
330
1DD0
100
AcDbEntity
  8
AM_5
100
AcDbMText
 10
436.4404746429317
 20
586.4636498159761
 30
0.0
 40
5.25
 41
0.0
 71
     5
 72
     1
  1
44
  7
CHINESET
 73
     1
 44
1.0
1001
ACAD
1000
MTEXTBEGIN
1070
    73
1070
     1
1070
    44
1040
1.0
1070
    74
1070
     0
1000
MTEXTEND
  0
POINT
  5
200F
330
1DD0
100
AcDbEntity
  8
Defpoints
 62
     0
100
AcDbPoint
 10
414.4404746429318
 20
511.3886498159761
 30
0.0
  0
POINT
  5
2010
330
1DD0
100
AcDbEntity
  8
Defpoints
 62
     0
100
AcDbPoint
 10
458.4404746429318
 20
511.3886498159761
 30
0.0
  0
POINT
  5
2011
330
1DD0
100
AcDbEntity
  8
Defpoints
 62
     0
100
AcDbPoint
 10
458.4404746429318
 20
582.6386498159761
 30
0.0
  0
ENDBLK
  5
1DDB
330
1DD0
100
AcDbEntity
  8
0
100
AcDbBlockEnd
  0
BLOCK
  5
1E0D
330
1E03
100
AcDbEntity
  8
0
100
AcDbBlockBegin
  2
*D17
 70
     1
 10
0.0
 20
0.0
 30
0.0
  3
*D17
  1

  0
LINE
  5
2012
330
1E03
100
AcDbEntity
  8
AM_5
100
AcDbLine
 10
402.9404746429317
 20
517.1386498159761
 30
0.0
 11
402.9404746429317
 21
599.8886498159761
 31
0.0
  0
LINE
  5
2013
330
1E03
100
AcDbEntity
  8
AM_5
100
AcDbLine
 10
469.9404746429317
 20
517.1386498159761
 30
0.0
 11
469.9404746429317
 21
599.8886498159761
 31
0.0
  0
LINE
  5
2014
330
1E03
100
AcDbEntity
  8
AM_5
100
AcDbLine
 10
407.4404746429317
 20
597.6386498159761
 30
0.0
 11
465.4404746429317
 21
597.6386498159761
 31
0.0
  0
SOLID
  5
2015
330
1E03
100
AcDbEntity
  8
AM_5
100
AcDbTrace
 10
407.4404746429317
 20
598.3886498159761
 30
0.0
 11
407.4404746429317
 21
596.888649815976
 31
0.0
 12
402.9404746429317
 22
597.6386498159761
 32
0.0
 13
402.9404746429317
 23
597.6386498159761
 33
0.0
  0
SOLID
  5
2016
330
1E03
100
AcDbEntity
  8
AM_5
100
AcDbTrace
 10
465.4404746429317
 20
598.3886498159761
 30
0.0
 11
465.4404746429317
 21
596.888649815976
 31
0.0
 12
469.9404746429317
 22
597.6386498159761
 32
0.0
 13
469.9404746429317
 23
597.6386498159761
 33
0.0
  0
MTEXT
  5
2017
330
1E03
100
AcDbEntity
  8
AM_5
100
AcDbMText
 10
436.4404746429317
 20
601.4636498159761
 30
0.0
 40
5.25
 41
0.0
 71
     5
 72
     1
  1
67
  7
CHINESET
 73
     1
 44
1.0
1001
ACAD
1000
MTEXTBEGIN
1070
    73
1070
     1
1070
    44
1040
1.0
1070
    74
1070
     0
1000
MTEXTEND
  0
POINT
  5
2018
330
1E03
100
AcDbEntity
  8
Defpoints
 62
     0
100
AcDbPoint
 10
402.9404746429317
 20
515.638649815976
 30
0.0
  0
POINT
  5
2019
330
1E03
100
AcDbEntity
  8
Defpoints
 62
     0
100
AcDbPoint
 10
469.9404746429317
 20
515.638649815976
 30
0.0
  0
POINT
  5
201A
330
1E03
100
AcDbEntity
  8
Defpoints
 62
     0
100
AcDbPoint
 10
469.9404746429317
 20
597.6386498159761
 30
0.0
  0
ENDBLK
  5
1E0E
330
1E03
100
AcDbEntity
  8
0
100
AcDbBlockEnd
  0
BLOCK
  5
2100
330
20FB
100
AcDbEntity
  8
0
100
AcDbBlockBegin
  2
*S19
 70
     1
 10
0.0
 20
0.0
 30
0.0
  3
*S19
  1

  0
LINE
  5
20FC
330
20FB
100
AcDbEntity
  8
AM_5
 62
     5
100
AcDbLine
 10
688.9824071691659
 20
410.0147985761018
 30
0.0
 11
663.1496676456631
 21
410.0147985761018
 31
0.0
  0
LINE
  5
20FD
330
20FB
100
AcDbEntity
  8
AM_5
 62
     5
100
AcDbLine
 10
663.1496676456631
 20
410.0147985761018
 30
0.0
 11
626.2524154116522
 21
430.0391112164528
 31
0.0
  0
TRACE
  5
20FE
330
20FB
100
AcDbEntity
  8
AM_5
 62
     5
370
    35
100
AcDbTrace
 10
626.5820981464941
 20
430.6465920944805
 30
0.0
 11
625.9227326768104
 21
429.4316303384252
 31
0.0
 12
621.6381400133841
 22
432.5433002166958
 32
0.0
 13
621.6381400133841
 23
432.5433002166958
 33
0.0
  0
MTEXT
  5
20FF
330
20FB
100
AcDbEntity
  8
AM_5
 62
     5
100
AcDbMText
 10
688.9824071691659
 20
417.1347367508416
 30
0.0
 40
5.25
 41
0.0
 71
     7
 72
     5
  1

  7
ACISOTS
 73
     1
 44
1.0
1001
ACAD
1000
MTEXTBEGIN
1070
    73
1070
     1
1070
    44
1040
1.0
1070
    74
1070
     0
1000
MTEXTEND
  0
ENDBLK
  5
2101
330
20FB
100
AcDbEntity
  8
0
100
AcDbBlockEnd
  0
ENDSEC
  0
SECTION
  2
ENTITIES
  0
LINE
  5
13EE
330
1F
100
AcDbEntity
  8
AM_VIS
100
AcDbLine
 10
400.6267456026941
 20
425.6386498159761
 30
0.0
 11
396.4404746429319
 21
425.6386498159761
 31
0.0
  0
LINE
  5
13EF
330
1F
100
AcDbEntity
  8
AM_VIS
100
AcDbLine
 10
476.4404746429318
 20
425.6386498159761
 30
0.0
 11
472.2542036831693
 21
425.6386498159761
 31
0.0
  0
LINE
  5
13F0
330
1F
100
AcDbEntity
  8
AM_VIS
100
AcDbLine
 10
462.9404746429318
 20
459.6386498159761
 30
0.0
 11
462.9404746429318
 21
425.6386498159761
 31
0.0
  0
LINE
  5
13F1
330
1F
100
AcDbEntity
  8
AM_VIS
100
AcDbLine
 10
468.4001320446497
 20
425.6386498159761
 30
0.0
 11
404.4808172412139
 21
425.638649815976
 31
0.0
  0
LINE
  5
13F6
330
1F
100
AcDbEntity
  8
AM_VIS
100
AcDbLine
 10
409.9404746429318
 20
425.6386498159761
 30
0.0
 11
409.9404746429318
 21
459.6386498159761
 31
0.0
  0
LINE
  5
13F7
330
1F
100
AcDbEntity
  8
AM_VIS
100
AcDbLine
 10
472.2542036831693
 20
459.6386498159761
 30
0.0
 11
476.4404746429318
 21
459.6386498159761
 31
0.0
  0
LINE
  5
13F8
330
1F
100
AcDbEntity
  8
AM_VIS
100
AcDbLine
 10
396.4404746429318
 20
459.6386498159761
 30
0.0
 11
400.626745602694
 21
459.6386498159761
 31
0.0
  0
LINE
  5
13F9
330
1F
100
AcDbEntity
  8
AM_VIS
100
AcDbLine
 10
404.4808172412139
 20
459.6386498159761
 30
0.0
 11
468.4001320446497
 21
459.6386498159761
 31
0.0
  0
LINE
  5
13FA
330
1F
100
AcDbEntity
  8
AM_VIS
100
AcDbLine
 10
391.4404746429318
 20
474.6386498159761
 30
0.0
 11
391.4404746429318
 21
471.1386498159761
 31
0.0
  0
LINE
  5
13FB
330
1F
100
AcDbEntity
  8
AM_VIS
100
AcDbLine
 10
396.4404746429318
 20
459.6386498159761
 30
0.0
 11
396.4404746429318
 21
474.6386498159761
 31
0.0
  0
LINE
  5
13FC
330
1F
100
AcDbEntity
  8
AM_VIS
100
AcDbLine
 10
396.4404746429318
 20
425.6386498159761
 30
0.0
 11
396.4404746429318
 21
459.6386498159761
 31
0.0
  0
LINE
  5
13FD
330
1F
100
AcDbEntity
  8
AM_VIS
100
AcDbLine
 10
396.4404746429318
 20
410.6386498159761
 30
0.0
 11
396.4404746429318
 21
425.6386498159761
 31
0.0
  0
LINE
  5
13FF
330
1F
100
AcDbEntity
  8
AM_VIS
100
AcDbLine
 10
391.4404746429318
 20
414.1386498159761
 30
0.0
 11
391.4404746429318
 21
410.6386498159761
 31
0.0
  0
LINE
  5
1400
330
1F
100
AcDbEntity
  8
AM_VIS
100
AcDbLine
 10
394.4404746429318
 20
414.1386498159761
 30
0.0
 11
391.4404746429318
 21
414.1386498159761
 31
0.0
  0
LINE
  5
1401
330
1F
100
AcDbEntity
  8
AM_VIS
100
AcDbLine
 10
394.4404746429318
 20
418.1386498159761
 30
0.0
 11
394.4404746429318
 21
414.1386498159761
 31
0.0
  0
LINE
  5
1402
330
1F
100
AcDbEntity
  8
AM_VIS
100
AcDbLine
 10
391.4404746429318
 20
418.1386498159761
 30
0.0
 11
394.4404746429318
 21
418.1386498159761
 31
0.0
  0
LINE
  5
1403
330
1F
100
AcDbEntity
  8
AM_VIS
100
AcDbLine
 10
391.4404746429318
 20
467.1386498159761
 30
0.0
 11
391.4404746429318
 21
418.1386498159761
 31
0.0
  0
LINE
  5
1404
330
1F
100
AcDbEntity
  8
AM_VIS
100
AcDbLine
 10
391.4404746429318
 20
471.1386498159761
 30
0.0
 11
394.4404746429318
 21
471.1386498159761
 31
0.0
  0
LINE
  5
1405
330
1F
100
AcDbEntity
  8
AM_VIS
100
AcDbLine
 10
394.4404746429318
 20
467.1386498159761
 30
0.0
 11
391.4404746429318
 21
467.1386498159761
 31
0.0
  0
LINE
  5
1406
330
1F
100
AcDbEntity
  8
AM_VIS
100
AcDbLine
 10
394.4404746429318
 20
471.1386498159761
 30
0.0
 11
394.4404746429318
 21
467.1386498159761
 31
0.0
  0
LINE
  5
1407
330
1F
100
AcDbEntity
  8
AM_VIS
100
AcDbLine
 10
481.4404746429318
 20
467.1386498159761
 30
0.0
 11
481.4404746429318
 21
418.1386498159761
 31
0.0
  0
LINE
  5
1408
330
1F
100
AcDbEntity
  8
AM_VIS
100
AcDbLine
 10
478.4404746429317
 20
418.1386498159761
 30
0.0
 11
481.4404746429318
 21
418.1386498159761
 31
0.0
  0
LINE
  5
1409
330
1F
100
AcDbEntity
  8
AM_VIS
100
AcDbLine
 10
478.4404746429317
 20
414.1386498159761
 30
0.0
 11
478.4404746429317
 21
418.1386498159761
 31
0.0
  0
LINE
  5
140A
330
1F
100
AcDbEntity
  8
AM_VIS
100
AcDbLine
 10
481.4404746429318
 20
414.1386498159761
 30
0.0
 11
478.4404746429317
 21
414.1386498159761
 31
0.0
  0
LINE
  5
140B
330
1F
100
AcDbEntity
  8
AM_VIS
100
AcDbLine
 10
481.4404746429318
 20
414.1386498159761
 30
0.0
 11
481.4404746429318
 21
410.6386498159761
 31
0.0
  0
LINE
  5
140D
330
1F
100
AcDbEntity
  8
AM_VIS
100
AcDbLine
 10
476.4404746429318
 20
425.6386498159761
 30
0.0
 11
476.4404746429318
 21
410.6386498159761
 31
0.0
  0
LINE
  5
140E
330
1F
100
AcDbEntity
  8
AM_VIS
100
AcDbLine
 10
476.4404746429318
 20
459.6386498159761
 30
0.0
 11
476.4404746429318
 21
425.6386498159761
 31
0.0
  0
LINE
  5
140F
330
1F
100
AcDbEntity
  8
AM_VIS
100
AcDbLine
 10
476.4404746429318
 20
474.6386498159761
 30
0.0
 11
476.4404746429318
 21
459.6386498159761
 31
0.0
  0
LINE
  5
1410
330
1F
100
AcDbEntity
  8
AM_VIS
100
AcDbLine
 10
481.4404746429318
 20
474.6386498159761
 30
0.0
 11
481.4404746429318
 21
471.1386498159761
 31
0.0
  0
LINE
  5
1411
330
1F
100
AcDbEntity
  8
AM_VIS
100
AcDbLine
 10
481.4404746429318
 20
467.1386498159761
 30
0.0
 11
478.4404746429317
 21
467.1386498159761
 31
0.0
  0
LINE
  5
1412
330
1F
100
AcDbEntity
  8
AM_VIS
100
AcDbLine
 10
478.4404746429317
 20
471.1386498159761
 30
0.0
 11
481.4404746429318
 21
471.1386498159761
 31
0.0
  0
LINE
  5
1413
330
1F
100
AcDbEntity
  8
AM_VIS
100
AcDbLine
 10
478.4404746429317
 20
467.1386498159761
 30
0.0
 11
478.4404746429317
 21
471.1386498159761
 31
0.0
  0
LINE
  5
1414
330
1F
100
AcDbEntity
  8
AM_VIS
100
AcDbLine
 10
391.4404746429318
 20
474.6386498159761
 30
0.0
 11
396.4404746429318
 21
474.6386498159761
 31
0.0
  0
LINE
  5
1415
330
1F
100
AcDbEntity
  8
AM_VIS
100
AcDbLine
 10
476.4404746429318
 20
474.6386498159761
 30
0.0
 11
481.4404746429318
 21
474.6386498159761
 31
0.0
  0
LINE
  5
1416
330
1F
100
AcDbEntity
  8
AM_VIS
100
AcDbLine
 10
476.4404746429318
 20
474.6386498159761
 30
0.0
 11
472.2542036831693
 21
474.6386498159761
 31
0.0
  0
LINE
  5
1417
330
1F
100
AcDbEntity
  8
AM_VIS
100
AcDbLine
 10
468.4001320446496
 20
474.6386498159761
 30
0.0
 11
404.4808172412137
 21
474.6386498159761
 31
0.0
  0
LINE
  5
1418
330
1F
100
AcDbEntity
  8
AM_VIS
100
AcDbLine
 10
400.626745602694
 20
474.6386498159761
 30
0.0
 11
396.4404746429318
 21
474.6386498159761
 31
0.0
  0
LINE
  5
1419
330
1F
100
AcDbEntity
  8
AM_VIS
100
AcDbLine
 10
396.4404746429318
 20
474.6386498159761
 30
0.0
 11
396.4404746429318
 21
478.6386498159761
 31
0.0
  0
LINE
  5
141A
330
1F
100
AcDbEntity
  8
AM_VIS
100
AcDbLine
 10
476.4404746429318
 20
478.6386498159761
 30
0.0
 11
476.4404746429318
 21
474.6386498159761
 31
0.0
  0
LINE
  5
141B
330
1F
100
AcDbEntity
  8
AM_VIS
100
AcDbLine
 10
399.4404746429318
 20
474.6386498159761
 30
0.0
 11
399.4404746429318
 21
478.6386498159761
 31
0.0
  0
LINE
  5
141C
330
1F
100
AcDbEntity
  8
AM_VIS
100
AcDbLine
 10
404.4404746429318
 20
478.638649815976
 30
0.0
 11
399.4404746429318
 21
478.638649815976
 31
0.0
  0
LINE
  5
141D
330
1F
100
AcDbEntity
  8
AM_VIS
100
AcDbLine
 10
396.4404746429318
 20
478.6386498159761
 30
0.0
 11
399.4404746429318
 21
478.6386498159761
 31
0.0
  0
LINE
  5
141E
330
1F
100
AcDbEntity
  8
AM_VIS
100
AcDbLine
 10
471.4404746429318
 20
478.6386498159761
 30
0.0
 11
476.4404746429318
 21
478.6386498159761
 31
0.0
  0
LINE
  5
141F
330
1F
100
AcDbEntity
  8
AM_VIS
100
AcDbLine
 10
404.4404746429318
 20
474.6386498159761
 30
0.0
 11
404.4404746429318
 21
478.6386498159761
 31
0.0
  0
LINE
  5
1420
330
1F
100
AcDbEntity
  8
AM_VIS
100
AcDbLine
 10
466.4404746429318
 20
478.6386498159761
 30
0.0
 11
404.4404746429318
 21
478.6386498159761
 31
0.0
  0
LINE
  5
1421
330
1F
100
AcDbEntity
  8
AM_VIS
100
AcDbLine
 10
471.4404746429318
 20
474.6386498159761
 30
0.0
 11
471.4404746429318
 21
478.6386498159761
 31
0.0
  0
LINE
  5
1422
330
1F
100
AcDbEntity
  8
AM_VIS
100
AcDbLine
 10
466.4404746429318
 20
478.6386498159761
 30
0.0
 11
466.4404746429318
 21
474.6386498159761
 31
0.0
  0
LINE
  5
1423
330
1F
100
AcDbEntity
  8
AM_VIS
100
AcDbLine
 10
471.4404746429318
 20
478.6386498159761
 30
0.0
 11
466.4404746429318
 21
478.6386498159761
 31
0.0
  0
LINE
  5
1424
330
1F
100
AcDbEntity
  8
AM_VIS
100
AcDbLine
 10
400.6267456026941
 20
425.6386498159761
 30
0.0
 11
404.480817241214
 21
425.6386498159761
 31
0.0
  0
LINE
  5
1426
330
1F
100
AcDbEntity
  8
AM_VIS
100
AcDbLine
 10
468.4001320446497
 20
425.6386498159761
 30
0.0
 11
472.2542036831693
 21
425.6386498159761
 31
0.0
  0
LINE
  5
1429
330
1F
100
AcDbEntity
  8
AM_VIS
100
AcDbLine
 10
404.4808172412139
 20
459.6386498159761
 30
0.0
 11
400.6267456026941
 21
459.6386498159761
 31
0.0
  0
LINE
  5
142A
330
1F
100
AcDbEntity
  8
AM_VIS
100
AcDbLine
 10
472.2542036831693
 20
459.6386498159761
 30
0.0
 11
468.4001320446496
 21
459.6386498159761
 31
0.0
  0
LINE
  5
142B
330
1F
100
AcDbEntity
  8
AM_VIS
100
AcDbLine
 10
468.4001320446496
 20
474.6386498159761
 30
0.0
 11
472.2542036831693
 21
474.6386498159761
 31
0.0
  0
LINE
  5
142C
330
1F
100
AcDbEntity
  8
AM_VIS
100
AcDbLine
 10
400.626745602694
 20
474.6386498159761
 30
0.0
 11
404.4808172412137
 21
474.6386498159761
 31
0.0
  0
LINE
  5
142D
330
1F
100
AcDbEntity
  8
AM_VIS
100
AcDbLine
 10
401.4404746429318
 20
478.6386498159761
 30
0.0
 11
401.4404746429318
 21
490.638649815976
 31
0.0
  0
LINE
  5
142E
330
1F
100
AcDbEntity
  8
AM_VIS
100
AcDbLine
 10
471.4404746429318
 20
478.6386498159761
 30
0.0
 11
471.4404746429318
 21
490.638649815976
 31
0.0
  0
LINE
  5
142F
330
1F
100
AcDbEntity
  8
AM_VIS
100
AcDbLine
 10
467.4404746429318
 20
490.638649815976
 30
0.0
 11
467.4404746429318
 21
483.6386498159761
 31
0.0
  0
LINE
  5
1430
330
1F
100
AcDbEntity
  8
AM_VIS
100
AcDbLine
 10
405.4404746429318
 20
490.638649815976
 30
0.0
 11
401.4404746429318
 21
490.638649815976
 31
0.0
  0
LINE
  5
1431
330
1F
100
AcDbEntity
  8
AM_VIS
100
AcDbLine
 10
471.4404746429318
 20
490.638649815976
 30
0.0
 11
467.4404746429318
 21
490.638649815976
 31
0.0
  0
LINE
  5
1432
330
1F
100
AcDbEntity
  8
AM_VIS
100
AcDbLine
 10
458.9404746429318
 20
490.638649815976
 30
0.0
 11
467.4404746429318
 21
490.638649815976
 31
0.0
  0
LINE
  5
1433
330
1F
100
AcDbEntity
  8
AM_VIS
100
AcDbLine
 10
405.4404746429318
 20
490.638649815976
 30
0.0
 11
413.9404746429318
 21
490.638649815976
 31
0.0
  0
LINE
  5
1434
330
1F
100
AcDbEntity
  8
AM_VIS
100
AcDbLine
 10
405.4404746429318
 20
483.6386498159761
 30
0.0
 11
405.4404746429318
 21
490.638649815976
 31
0.0
  0
LINE
  5
1435
330
1F
100
AcDbEntity
  8
AM_VIS
100
AcDbLine
 10
418.9404746429318
 20
483.6386498159761
 30
0.0
 11
410.689896723611
 21
483.6386498159761
 31
0.0
  0
LINE
  5
1436
330
1F
100
AcDbEntity
  8
AM_VIS
100
AcDbLine
 10
418.9404746429318
 20
490.638649815976
 30
0.0
 11
418.9404746429318
 21
483.6386498159761
 31
0.0
  0
LINE
  5
1437
330
1F
100
AcDbEntity
  8
AM_VIS
100
AcDbLine
 10
453.9404746429318
 20
490.638649815976
 30
0.0
 11
418.9404746429318
 21
490.638649815976
 31
0.0
  0
LINE
  5
1438
330
1F
100
AcDbEntity
  8
AM_VIS
100
AcDbLine
 10
453.9404746429318
 20
483.6386498159761
 30
0.0
 11
453.9404746429318
 21
490.638649815976
 31
0.0
  0
LINE
  5
1439
330
1F
100
AcDbEntity
  8
AM_VIS
100
AcDbLine
 10
462.1910525622525
 20
483.6386498159761
 30
0.0
 11
453.9404746429318
 21
483.6386498159761
 31
0.0
  0
LINE
  5
143A
330
1F
100
AcDbEntity
  8
AM_VIS
100
AcDbLine
 10
426.4404746429318
 20
490.638649815976
 30
0.0
 11
426.4404746429318
 21
503.6386498159761
 31
0.0
  0
LINE
  5
143B
330
1F
100
AcDbEntity
  8
AM_VIS
100
AcDbLine
 10
446.4404746429318
 20
503.6386498159761
 30
0.0
 11
426.4404746429318
 21
503.6386498159761
 31
0.0
  0
LINE
  5
143C
330
1F
100
AcDbEntity
  8
AM_VIS
100
AcDbLine
 10
446.4404746429318
 20
490.638649815976
 30
0.0
 11
446.4404746429318
 21
503.6386498159761
 31
0.0
  0
LINE
  5
143D
330
1F
100
AcDbEntity
  8
AM_VIS
100
AcDbLine
 10
405.4404746429318
 20
483.6386498159761
 30
0.0
 11
405.4404746429318
 21
478.6386498159761
 31
0.0
  0
LINE
  5
143E
330
1F
100
AcDbEntity
  8
AM_VIS
100
AcDbLine
 10
407.7921192447438
 20
483.638649815976
 30
0.0
 11
405.4404746429318
 21
483.638649815976
 31
0.0
  0
LINE
  5
143F
330
1F
100
AcDbEntity
  8
AM_VIS
100
AcDbLine
 10
467.4404746429318
 20
483.6386498159761
 30
0.0
 11
465.0888300411197
 21
483.6386498159761
 31
0.0
  0
LINE
  5
1440
330
1F
100
AcDbEntity
  8
AM_VIS
100
AcDbLine
 10
467.4404746429318
 20
478.6386498159761
 30
0.0
 11
467.4404746429318
 21
483.6386498159761
 31
0.0
  0
LINE
  5
1441
330
1F
100
AcDbEntity
  8
AM_VIS
100
AcDbLine
 10
411.9455770933699
 20
560.6386498159761
 30
0.0
 11
411.9455770933699
 21
522.6386498159761
 31
0.0
  0
LINE
  5
1442
330
1F
100
AcDbEntity
  8
AM_VIS
100
AcDbLine
 10
411.945559465457
 20
560.6386678150052
 30
0.0
 11
412.4560864264
 21
561.1386683805408
 31
0.0
  0
LINE
  5
1443
330
1F
100
AcDbEntity
  8
AM_VIS
100
AcDbLine
 10
422.655499965414
 20
560.6386498159761
 30
0.0
 11
422.655499965414
 21
522.6386498159761
 31
0.0
  0
LINE
  5
1444
330
1F
100
AcDbEntity
  8
AM_VIS
100
AcDbLine
 10
422.6554832312931
 20
560.6386618978996
 30
0.0
 11
423.0164801694765
 21
561.1386622802143
 31
0.0
  0
LINE
  5
1445
330
1F
100
AcDbEntity
  8
AM_VIS
100
AcDbLine
 10
415.9454297970751
 20
561.1386498159756
 30
0.0
 11
415.9454297970751
 21
522.6386498159761
 31
0.0
  0
LINE
  5
1446
330
1F
100
AcDbEntity
  8
AM_VIS
100
AcDbLine
 10
415.5844323257009
 20
522.6386498159761
 30
0.0
 11
415.5844323257009
 21
560.6386498159757
 31
0.0
  0
LINE
  5
1447
330
1F
100
AcDbEntity
  8
AM_VIS
100
AcDbLine
 10
415.5844155915716
 20
560.6386618979057
 30
0.0
 11
415.9454125334187
 21
561.1386622802204
 31
0.0
  0
LINE
  5
1448
330
1F
100
AcDbEntity
  8
AM_VIS
100
AcDbLine
 10
441.4404740465784
 20
560.6386498159761
 30
0.0
 11
441.4404740465784
 21
522.6386498159761
 31
0.0
  0
LINE
  5
1449
330
1F
100
AcDbEntity
  8
AM_VIS
100
AcDbLine
 10
441.4404740465784
 20
561.138649815976
 30
0.0
 11
441.4404740465784
 21
560.6386498159761
 31
0.0
  0
LINE
  5
144A
330
1F
100
AcDbEntity
  8
AM_VIS
100
AcDbLine
 10
431.4404740465784
 20
522.6386498159761
 30
0.0
 11
431.4404740465784
 21
560.6386498159757
 31
0.0
  0
LINE
  5
144B
330
1F
100
AcDbEntity
  8
AM_VIS
100
AcDbLine
 10
431.4404740465784
 20
561.1386498159758
 30
0.0
 11
431.4404740465784
 21
560.6386498159761
 31
0.0
  0
LINE
  5
144C
330
1F
100
AcDbEntity
  8
AM_VIS
100
AcDbLine
 10
457.2965162889439
 20
560.6386498159761
 30
0.0
 11
457.2965162889439
 21
522.6386498159761
 31
0.0
  0
LINE
  5
144D
330
1F
100
AcDbEntity
  8
AM_VIS
100
AcDbLine
 10
456.9355360848816
 20
561.1386622802143
 30
0.0
 11
457.2965330230649
 21
560.6386618978996
 31
0.0
  0
LINE
  5
144E
330
1F
100
AcDbEntity
  8
AM_VIS
100
AcDbLine
 10
456.935518821234
 20
561.138649815976
 30
0.0
 11
456.935518821234
 21
522.6386498159761
 31
0.0
  0
LINE
  5
144F
330
1F
100
AcDbEntity
  8
AM_VIS
100
AcDbLine
 10
450.225448304926
 20
522.6386498159761
 30
0.0
 11
450.225448304926
 21
560.6386498159757
 31
0.0
  0
LINE
  5
1450
330
1F
100
AcDbEntity
  8
AM_VIS
100
AcDbLine
 10
449.8644680972082
 20
561.1386622802204
 30
0.0
 11
450.2254650390555
 21
560.6386618979058
 31
0.0
  0
LINE
  5
1451
330
1F
100
AcDbEntity
  8
AM_VIS
100
AcDbLine
 10
460.9353719490334
 20
522.6386498159761
 30
0.0
 11
460.9353719490334
 21
560.6386498159757
 31
0.0
  0
LINE
  5
1452
330
1F
100
AcDbEntity
  8
AM_VIS
100
AcDbLine
 10
460.4248626108305
 20
561.1386683805497
 30
0.0
 11
460.9353895769551
 21
560.6386678150143
 31
0.0
  0
LINE
  5
1453
330
1F
100
AcDbEntity
  8
AM_VIS
100
AcDbLine
 10
410.4404746429318
 20
490.638649815976
 30
0.0
 11
410.4404746429318
 21
503.6386498159761
 31
0.0
  0
LINE
  5
1454
330
1F
100
AcDbEntity
  8
AM_VIS
100
AcDbLine
 10
462.4404746429318
 20
490.638649815976
 30
0.0
 11
462.4404746429318
 21
503.6386498159761
 31
0.0
  0
LINE
  5
1455
330
1F
100
AcDbEntity
  8
AM_VIS
100
AcDbLine
 10
458.4404746429318
 20
503.6386498159761
 30
0.0
 11
458.4404746429318
 21
512.6386498159761
 31
0.0
  0
LINE
  5
1456
330
1F
100
AcDbEntity
  8
AM_VIS
100
AcDbLine
 10
414.4404746429318
 20
503.6386498159761
 30
0.0
 11
414.4404746429318
 21
512.6386498159761
 31
0.0
  0
LINE
  5
1457
330
1F
100
AcDbEntity
  8
AM_VIS
100
AcDbLine
 10
461.4404746429317
 20
512.6386498159761
 30
0.0
 11
461.4404746429317
 21
522.6386498159761
 31
0.0
  0
LINE
  5
1458
330
1F
100
AcDbEntity
  8
AM_VIS
100
AcDbLine
 10
411.4404746429317
 20
512.6386498159761
 30
0.0
 11
411.4404746429317
 21
522.6386498159761
 31
0.0
  0
LINE
  5
1459
330
1F
100
AcDbEntity
  8
AM_VIS
100
AcDbLine
 10
413.4404746429318
 20
562.6386498159761
 30
0.0
 11
411.9404746429317
 21
561.138649815976
 31
0.0
  0
LINE
  5
145A
330
1F
100
AcDbEntity
  8
AM_VIS
100
AcDbLine
 10
459.4404746429318
 20
562.6386498159761
 30
0.0
 11
460.9404746429317
 21
561.138649815976
 31
0.0
  0
LINE
  5
145B
330
1F
100
AcDbEntity
  8
AM_VIS
100
AcDbLine
 10
411.9404746429317
 20
561.138649815976
 30
0.0
 11
411.9404746429317
 21
522.6386498159761
 31
0.0
  0
LINE
  5
145C
330
1F
100
AcDbEntity
  8
AM_VIS
100
AcDbLine
 10
460.9404746429317
 20
561.138649815976
 30
0.0
 11
460.9404746429317
 21
522.6386498159761
 31
0.0
  0
LINE
  5
145D
330
1F
100
AcDbEntity
  8
AM_VIS
100
AcDbLine
 10
458.9404746429318
 20
490.638649815976
 30
0.0
 11
453.9404746429318
 21
490.638649815976
 31
0.0
  0
LINE
  5
145E
330
1F
100
AcDbEntity
  8
AM_VIS
100
AcDbLine
 10
418.9404746429318
 20
490.638649815976
 30
0.0
 11
413.9404746429318
 21
490.638649815976
 31
0.0
  0
LINE
  5
145F
330
1F
100
AcDbEntity
  8
AM_VIS
100
AcDbLine
 10
410.4404746429318
 20
503.6386498159761
 30
0.0
 11
426.4404746429318
 21
503.6386498159761
 31
0.0
  0
LINE
  5
1460
330
1F
100
AcDbEntity
  8
AM_VIS
100
AcDbLine
 10
446.4404746429318
 20
503.6386498159761
 30
0.0
 11
462.4404746429318
 21
503.6386498159761
 31
0.0
  0
LINE
  5
1461
330
1F
100
AcDbEntity
  8
AM_VIS
100
AcDbLine
 10
461.4404746429317
 20
512.6386498159761
 30
0.0
 11
411.4404746429317
 21
512.6386498159761
 31
0.0
  0
LINE
  5
1462
330
1F
100
AcDbEntity
  8
AM_VIS
100
AcDbLine
 10
407.7921192447438
 20
483.638649815976
 30
0.0
 11
410.689896723611
 21
483.638649815976
 31
0.0
  0
LINE
  5
1463
330
1F
100
AcDbEntity
  8
AM_VIS
100
AcDbLine
 10
462.1910525622525
 20
483.6386498159761
 30
0.0
 11
465.0888300411197
 21
483.6386498159761
 31
0.0
  0
LINE
  5
1464
330
1F
100
AcDbEntity
  8
AM_VIS
100
AcDbLine
 10
460.9353719490334
 20
560.6386498159761
 30
0.0
 11
457.2965162889439
 21
560.6386498159761
 31
0.0
  0
LINE
  5
1465
330
1F
100
AcDbEntity
  8
AM_VIS
100
AcDbLine
 10
450.2254483049262
 20
560.6386498159761
 30
0.0
 11
441.4404740465784
 21
560.6386498159761
 31
0.0
  0
LINE
  5
1466
330
1F
100
AcDbEntity
  8
AM_VIS
100
AcDbLine
 10
431.4404740465785
 20
560.6386498159761
 30
0.0
 11
422.655499965414
 21
560.6386498159761
 31
0.0
  0
LINE
  5
1467
330
1F
100
AcDbEntity
  8
AM_VIS
100
AcDbLine
 10
415.584432325701
 20
560.6386498159761
 30
0.0
 11
411.9455770933699
 21
560.6386498159761
 31
0.0
  0
LINE
  5
1468
102
{ACAD_REACTORS
330
173F
330
176A
102
}
330
1F
100
AcDbEntity
  8
AM_VIS
100
AcDbLine
 10
413.4404746429318
 20
562.6386498159761
 30
0.0
 11
459.4404746429318
 21
562.6386498159761
 31
0.0
  0
LINE
  5
1469
330
1F
100
AcDbEntity
  8
AM_VIS
100
AcDbLine
 10
411.4404746429317
 20
522.6386498159761
 30
0.0
 11
411.9455770933699
 21
522.6386498159761
 31
0.0
  0
LINE
  5
146A
330
1F
100
AcDbEntity
  8
AM_VIS
100
AcDbLine
 10
412.4561046081876
 20
561.138649815976
 30
0.0
 11
411.9404746429317
 21
561.138649815976
 31
0.0
  0
LINE
  5
146B
330
1F
100
AcDbEntity
  8
AM_VIS
100
AcDbLine
 10
415.584432325701
 20
522.6386498159761
 30
0.0
 11
422.6554999654141
 21
522.6386498159761
 31
0.0
  0
LINE
  5
146C
330
1F
100
AcDbEntity
  8
AM_VIS
100
AcDbLine
 10
423.0164974331239
 20
561.138649815976
 30
0.0
 11
415.9454297970753
 21
561.138649815976
 31
0.0
  0
LINE
  5
146D
330
1F
100
AcDbEntity
  8
AM_VIS
100
AcDbLine
 10
431.4404740465785
 20
522.6386498159761
 30
0.0
 11
441.4404740465784
 21
522.6386498159761
 31
0.0
  0
LINE
  5
146E
330
1F
100
AcDbEntity
  8
AM_VIS
100
AcDbLine
 10
441.4404740465784
 20
561.138649815976
 30
0.0
 11
431.4404740465785
 21
561.138649815976
 31
0.0
  0
LINE
  5
146F
330
1F
100
AcDbEntity
  8
AM_VIS
100
AcDbLine
 10
450.2254483049262
 20
522.6386498159761
 30
0.0
 11
457.296516288944
 21
522.6386498159761
 31
0.0
  0
LINE
  5
1470
330
1F
100
AcDbEntity
  8
AM_VIS
100
AcDbLine
 10
456.935518821234
 20
561.138649815976
 30
0.0
 11
449.8644508335518
 21
561.138649815976
 31
0.0
  0
LINE
  5
1471
330
1F
100
AcDbEntity
  8
AM_VIS
100
AcDbLine
 10
460.9353719490334
 20
522.6386498159761
 30
0.0
 11
461.4404746429317
 21
522.6386498159761
 31
0.0
  0
LINE
  5
1472
330
1F
100
AcDbEntity
  8
AM_VIS
100
AcDbLine
 10
460.9404746429317
 20
561.138649815976
 30
0.0
 11
460.4248444290334
 21
561.138649815976
 31
0.0
  0
LINE
  5
1473
330
1F
100
AcDbEntity
  8
AM_VIS
100
AcDbLine
 10
396.4404746429318
 20
395.6386498159761
 30
0.0
 11
391.4404746429318
 21
395.6386498159761
 31
0.0
  0
LINE
  5
1474
330
1F
100
AcDbEntity
  8
AM_VIS
100
AcDbLine
 10
391.4404746429318
 20
395.6386498159761
 30
0.0
 11
391.4404746429318
 21
410.6386498159761
 31
0.0
  0
LINE
  5
1475
330
1F
100
AcDbEntity
  8
AM_VIS
100
AcDbLine
 10
481.4404746429318
 20
410.6386498159761
 30
0.0
 11
481.4404746429318
 21
395.6386498159761
 31
0.0
  0
LINE
  5
1476
330
1F
100
AcDbEntity
  8
AM_VIS
100
AcDbLine
 10
481.4404746429318
 20
395.6386498159761
 30
0.0
 11
476.4404746429318
 21
395.6386498159761
 31
0.0
  0
LINE
  5
1477
330
1F
100
AcDbEntity
  8
AM_VIS
100
AcDbLine
 10
476.4404746429318
 20
395.6386498159761
 30
0.0
 11
476.4404746429318
 21
410.6386498159761
 31
0.0
  0
LINE
  5
1478
330
1F
100
AcDbEntity
  8
AM_VIS
100
AcDbLine
 10
472.2542036831693
 20
395.6386498159761
 30
0.0
 11
476.4404746429318
 21
395.6386498159761
 31
0.0
  0
LINE
  5
1479
330
1F
100
AcDbEntity
  8
AM_VIS
100
AcDbLine
 10
396.4404746429318
 20
395.6386498159761
 30
0.0
 11
400.626745602694
 21
395.6386498159761
 31
0.0
  0
LINE
  5
147A
330
1F
100
AcDbEntity
  8
AM_VIS
100
AcDbLine
 10
396.4404746429318
 20
395.6386498159761
 30
0.0
 11
396.4404746429318
 21
410.6386498159761
 31
0.0
  0
LINE
  5
147B
330
1F
100
AcDbEntity
  8
AM_VIS
100
AcDbLine
 10
404.4808172412139
 20
395.6386498159761
 30
0.0
 11
468.4001320446497
 21
395.6386498159761
 31
0.0
  0
LINE
  5
1481
330
1F
100
AcDbEntity
  8
AM_VIS
100
AcDbLine
 10
474.4150274668319
 20
337.6374314700143
 30
0.0
 11
476.4404746429318
 21
395.6386498159761
 31
0.0
  0
LINE
  5
1482
330
1F
100
AcDbEntity
  8
AM_VIS
100
AcDbLine
 10
398.4659218190316
 20
337.6374314700143
 30
0.0
 11
396.4404746429317
 21
395.6386498159761
 31
0.0
  0
LINE
  5
1483
330
1F
100
AcDbEntity
  8
AM_VIS
100
AcDbLine
 10
472.3452284734269
 20
335.6386498159761
 30
0.0
 11
474.4150274668319
 21
337.6374314700143
 31
0.0
  0
LINE
  5
1484
330
1F
100
AcDbEntity
  8
AM_VIS
100
AcDbLine
 10
400.5357208124366
 20
335.6386498159761
 30
0.0
 11
398.4659218190317
 21
337.6374314700143
 31
0.0
  0
LINE
  5
1485
330
1F
100
AcDbEntity
  8
AM_VIS
100
AcDbLine
 10
404.4808172412139
 20
395.6386498159761
 30
0.0
 11
400.6267456026941
 21
395.6386498159761
 31
0.0
  0
LINE
  5
1486
330
1F
100
AcDbEntity
  8
AM_VIS
100
AcDbLine
 10
472.2542036831693
 20
395.6386498159761
 30
0.0
 11
468.4001320446496
 21
395.6386498159761
 31
0.0
  0
LINE
  5
148A
330
1F
100
AcDbEntity
  8
AM_VIS
100
AcDbLine
 10
472.3452284734269
 20
335.6386498159761
 30
0.0
 11
400.5357208124366
 21
335.6386498159761
 31
0.0
  0
LINE
  5
148B
330
1F
100
AcDbEntity
  8
AM_VIS
100
AcDbLine
 10
446.9404746429318
 20
317.6386498159761
 30
0.0
 11
446.9404746429318
 21
310.6386498159761
 31
0.0
  0
LINE
  5
148C
330
1F
100
AcDbEntity
  8
AM_VIS
100
AcDbLine
 10
446.9404746429318
 20
310.6386498159761
 30
0.0
 11
425.9404746429318
 21
310.6386498159761
 31
0.0
  0
LINE
  5
148D
330
1F
100
AcDbEntity
  8
AM_VIS
100
AcDbLine
 10
425.9404746429318
 20
310.6386498159761
 30
0.0
 11
425.9404746429318
 21
317.6386498159761
 31
0.0
  0
LINE
  5
148E
330
1F
100
AcDbEntity
  8
AM_VIS
100
AcDbLine
 10
425.9404746429318
 20
317.6386498159761
 30
0.0
 11
425.9404746429318
 21
335.6386498159761
 31
0.0
  0
LINE
  5
148F
330
1F
100
AcDbEntity
  8
AM_VIS
100
AcDbLine
 10
446.9404746429318
 20
335.6386498159761
 30
0.0
 11
446.9404746429318
 21
317.6386498159761
 31
0.0
  0
LINE
  5
1491
330
1F
100
AcDbEntity
  8
AM_VIS
100
AcDbLine
 10
425.4404746429318
 20
239.6386498159761
 30
0.0
 11
425.4404746429318
 21
234.6386498159761
 31
0.0
  0
LINE
  5
1492
330
1F
100
AcDbEntity
  8
AM_VIS
100
AcDbLine
 10
447.4404746429318
 20
239.6386498159761
 30
0.0
 11
447.4404746429318
 21
234.6386498159761
 31
0.0
  0
LINE
  5
1493
330
1F
100
AcDbEntity
  8
AM_VIS
100
AcDbLine
 10
406.4404746429318
 20
335.6386498159761
 30
0.0
 11
406.4404746429318
 21
247.6386498159761
 31
0.0
  0
LINE
  5
1494
330
1F
100
AcDbEntity
  8
AM_VIS
100
AcDbLine
 10
466.4404746429318
 20
335.6386498159761
 30
0.0
 11
466.4404746429318
 21
247.6386498159761
 31
0.0
  0
LINE
  5
1495
330
1F
100
AcDbEntity
  8
AM_VIS
100
AcDbLine
 10
445.4404746429317
 20
232.6386498159761
 30
0.0
 11
427.4404746429318
 21
232.6386498159761
 31
0.0
  0
LINE
  5
1496
330
1F
100
AcDbEntity
  8
AM_VIS
100
AcDbLine
 10
447.4404746429318
 20
239.6386498159761
 30
0.0
 11
425.4404746429318
 21
239.6386498159761
 31
0.0
  0
ARC
  5
1498
330
1F
100
AcDbEntity
  8
AM_VIS
100
AcDbCircle
 10
427.4404746429318
 20
234.6386498159761
 30
0.0
 40
2.0
100
AcDbArc
 50
180.0
 51
270.0
  0
ARC
  5
1499
330
1F
100
AcDbEntity
  8
AM_VIS
100
AcDbCircle
 10
445.4404746429317
 20
234.6386498159761
 30
0.0
 40
2.0
100
AcDbArc
 50
270.0
 51
0.0
  0
ARC
  5
149A
330
1F
100
AcDbEntity
  8
AM_VIS
100
AcDbCircle
 10
425.4404746429318
 20
266.2011498159761
 30
0.0
 40
26.56250000000001
100
AcDbArc
 50
224.3326916441632
 51
270.0
  0
ARC
  5
149B
330
1F
100
AcDbEntity
  8
AM_VIS
100
AcDbCircle
 10
447.4404746429318
 20
266.2011498159761
 30
0.0
 40
26.56250000000001
100
AcDbArc
 50
270.0
 51
315.6673083558368
  0
LINE
  5
149C
330
1F
100
AcDbEntity
  8
AM_VIS
100
AcDbLine
 10
416.4404746429321
 20
484.538649815976
 30
0.0
 11
416.4404746429321
 21
488.1386498159762
 31
0.0
  0
LINE
  5
149D
330
1F
100
AcDbEntity
  8
AM_VIS
100
AcDbLine
 10
409.440474642932
 20
484.5386498159761
 30
0.0
 11
409.440474642932
 21
488.1386498159763
 31
0.0
  0
LINE
  5
149E
330
1F
100
AcDbEntity
  8
AM_VIS
100
AcDbLine
 10
410.07373936032
 20
484.5386498159761
 30
0.0
 11
410.0603180377454
 21
484.5386498159761
 31
0.0
  0
LINE
  5
149F
330
1F
100
AcDbEntity
  8
AM_VIS
100
AcDbLine
 10
416.0404746429325
 20
488.538649815976
 30
0.0
 11
409.8404746429318
 21
488.5386498159761
 31
0.0
  0
ARC
  5
14A0
330
1F
100
AcDbEntity
  8
AM_VIS
100
AcDbCircle
 10
409.8404746429317
 20
488.1386498159762
 30
0.0
 40
0.4000000000000004
100
AcDbArc
 50
90.0
 51
179.9999999999984
  0
ARC
  5
14A1
330
1F
100
AcDbEntity
  8
AM_VIS
100
AcDbCircle
 10
416.0404746429324
 20
488.1386498159762
 30
0.0
 40
0.4000000000000004
100
AcDbArc
 50
359.9999999999984
 51
89.99999999999349
  0
ELLIPSE
  5
14A2
330
1F
100
AcDbEntity
  8
AM_VIS
100
AcDbEllipse
 10
412.940474642932
 20
483.9504189613386
 30
0.0
 11
3.12228664164243
 21
-6.499015743199628
 31
-0.0000000000000003
210
0.0
220
0.0
230
1.0
 40
0.3332730710447638
 41
4.464132130399357
 42
4.601010121207664
  0
LINE
  5
14A3
330
1F
100
AcDbEntity
  8
AM_VIS
100
AcDbLine
 10
409.8485688675957
 20
484.5386498159761
 30
0.0
 11
410.0603180377454
 21
484.5386498159761
 31
0.0
  0
ELLIPSE
  5
14A4
330
1F
100
AcDbEntity
  8
AM_VIS
100
AcDbEllipse
 10
412.940474642932
 20
483.3268806706137
 30
0.0
 11
3.12228664164243
 21
-6.499015743199628
 31
-0.0000000000000003
210
0.0
220
0.0
230
1.0
 40
0.3332730710447638
 41
4.368458399797932
 42
4.506237815378218
  0
LINE
  5
14A5
330
1F
100
AcDbEntity
  8
AM_VIS
100
AcDbLine
 10
409.140474642932
 20
484.5386498159761
 30
0.0
 11
409.140474642932
 21
483.6386498159761
 31
0.0
  0
LINE
  5
14A6
330
1F
100
AcDbEntity
  8
AM_VIS
100
AcDbLine
 10
416.7404746429319
 20
484.538649815976
 30
0.0
 11
416.7404746429319
 21
483.6386498159761
 31
0.0
  0
LINE
  5
14A7
330
1F
100
AcDbEntity
  8
AM_VIS
100
AcDbLine
 10
409.140474642932
 20
484.5386498159761
 30
0.0
 11
409.8485688675959
 21
484.5386498159761
 31
0.0
  0
LINE
  5
14A8
330
1F
100
AcDbEntity
  8
AM_VIS
100
AcDbLine
 10
410.07373936032
 20
484.5386498159761
 30
0.0
 11
416.7404746429319
 21
484.538649815976
 31
0.0
  0
LINE
  5
14A9
330
1F
100
AcDbEntity
  8
AM_VIS
100
AcDbLine
 10
463.4404746429318
 20
484.538649815976
 30
0.0
 11
463.4404746429317
 21
488.1386498159762
 31
0.0
  0
LINE
  5
14AA
330
1F
100
AcDbEntity
  8
AM_VIS
100
AcDbLine
 10
456.4404746429318
 20
484.538649815976
 30
0.0
 11
456.4404746429317
 21
488.1386498159761
 31
0.0
  0
LINE
  5
14AB
330
1F
100
AcDbEntity
  8
AM_VIS
100
AcDbLine
 10
457.0737393603196
 20
484.538649815976
 30
0.0
 11
457.0603180377452
 21
484.538649815976
 31
0.0
  0
LINE
  5
14AC
330
1F
100
AcDbEntity
  8
AM_VIS
100
AcDbLine
 10
463.0404746429321
 20
488.538649815976
 30
0.0
 11
456.8404746429314
 21
488.538649815976
 31
0.0
  0
ARC
  5
14AD
330
1F
100
AcDbEntity
  8
AM_VIS
100
AcDbCircle
 10
456.8404746429314
 20
488.1386498159761
 30
0.0
 40
0.4000000000000004
100
AcDbArc
 50
89.99999999999349
 51
180.0
  0
ARC
  5
14AE
330
1F
100
AcDbEntity
  8
AM_VIS
100
AcDbCircle
 10
463.040474642932
 20
488.1386498159762
 30
0.0
 40
0.4000000000000004
100
AcDbArc
 50
0.0
 51
89.99999999999349
  0
ELLIPSE
  5
14AF
330
1F
100
AcDbEntity
  8
AM_VIS
100
AcDbEllipse
 10
459.9404746429318
 20
483.9504189613386
 30
0.0
 11
3.122286641642541
 21
-6.499015743199585
 31
-0.0000000000000003
210
0.0
220
0.0
230
1.0
 40
0.3332730710447638
 41
4.464132130399358
 42
4.601010121207665
  0
LINE
  5
14B0
330
1F
100
AcDbEntity
  8
AM_VIS
100
AcDbLine
 10
456.8485688675955
 20
484.538649815976
 30
0.0
 11
457.0603180377452
 21
484.538649815976
 31
0.0
  0
ELLIPSE
  5
14B1
330
1F
100
AcDbEntity
  8
AM_VIS
100
AcDbEllipse
 10
459.9404746429318
 20
483.3268806706137
 30
0.0
 11
3.122286641642541
 21
-6.499015743199585
 31
-0.0000000000000003
210
0.0
220
0.0
230
1.0
 40
0.3332730710447638
 41
4.368458399797932
 42
4.50623781537822
  0
LINE
  5
14B2
330
1F
100
AcDbEntity
  8
AM_VIS
100
AcDbLine
 10
456.1404746429316
 20
484.538649815976
 30
0.0
 11
456.1404746429316
 21
483.6386498159761
 31
0.0
  0
LINE
  5
14B3
330
1F
100
AcDbEntity
  8
AM_VIS
100
AcDbLine
 10
463.7404746429317
 20
484.5386498159761
 30
0.0
 11
463.7404746429317
 21
483.6386498159761
 31
0.0
  0
LINE
  5
14B4
330
1F
100
AcDbEntity
  8
AM_VIS
100
AcDbLine
 10
456.1404746429317
 20
484.538649815976
 30
0.0
 11
456.8485688675955
 21
484.538649815976
 31
0.0
  0
LINE
  5
14B5
330
1F
100
AcDbEntity
  8
AM_VIS
100
AcDbLine
 10
457.0737393603196
 20
484.538649815976
 30
0.0
 11
463.7404746429317
 21
484.5386498159761
 31
0.0
  0
LINE
  5
14B6
330
1F
100
AcDbEntity
  8
AM_VIS
100
AcDbLine
 10
635.2071207797259
 20
414.1386498159761
 30
0.0
 11
635.2071207797259
 21
410.6386498159761
 31
0.0
  0
LINE
  5
14B7
330
1F
100
AcDbEntity
  8
AM_VIS
100
AcDbLine
 10
581.2071207797259
 20
425.6386498159761
 30
0.0
 11
566.1365453245816
 21
425.6386498159761
 31
0.0
  0
LINE
  5
14B8
330
1F
100
AcDbEntity
  8
AM_VIS
100
AcDbLine
 10
650.2776962348702
 20
425.6386498159761
 30
0.0
 11
635.2071207797258
 21
425.6386498159761
 31
0.0
  0
LINE
  5
14B9
330
1F
100
AcDbEntity
  8
AM_VIS
100
AcDbLine
 10
653.2071207797259
 20
410.6386498159761
 30
0.0
 11
653.2071207797259
 21
425.6386498159761
 31
0.0
  0
LINE
  5
14BB
330
1F
100
AcDbEntity
  8
AM_VIS
100
AcDbLine
 10
581.2071207797259
 20
410.6386498159761
 30
0.0
 11
635.2071207797259
 21
410.6386498159761
 31
0.0
  0
LINE
  5
14BD
330
1F
100
AcDbEntity
  8
AM_VIS
100
AcDbLine
 10
563.207120779726
 20
425.6386498159761
 30
0.0
 11
563.207120779726
 21
410.6386498159761
 31
0.0
  0
LINE
  5
14BE
330
1F
100
AcDbEntity
  8
AM_VIS
100
AcDbLine
 10
571.707120779726
 20
459.6386498159761
 30
0.0
 11
571.707120779726
 21
425.6386498159761
 31
0.0
  0
LINE
  5
14BF
330
1F
100
AcDbEntity
  8
AM_VIS
100
AcDbLine
 10
635.2071207797259
 20
414.1386498159761
 30
0.0
 11
581.2071207797259
 21
414.1386498159761
 31
0.0
  0
LINE
  5
14C0
330
1F
100
AcDbEntity
  8
AM_VIS
100
AcDbLine
 10
635.2071207797259
 20
418.1386498159761
 30
0.0
 11
635.2071207797259
 21
414.1386498159761
 31
0.0
  0
LINE
  5
14C1
330
1F
100
AcDbEntity
  8
AM_VIS
100
AcDbLine
 10
635.2071207797259
 20
467.1386498159761
 30
0.0
 11
635.2071207797259
 21
418.1386498159761
 31
0.0
  0
LINE
  5
14C2
330
1F
100
AcDbEntity
  8
AM_VIS
100
AcDbLine
 10
581.2071207797259
 20
418.1386498159761
 30
0.0
 11
635.2071207797259
 21
418.1386498159761
 31
0.0
  0
LINE
  5
14C3
330
1F
100
AcDbEntity
  8
AM_VIS
100
AcDbLine
 10
644.7071207797259
 20
425.6386498159761
 30
0.0
 11
644.7071207797259
 21
459.6386498159761
 31
0.0
  0
LINE
  5
14C5
330
1F
100
AcDbEntity
  8
AM_VIS
100
AcDbLine
 10
566.1365453245815
 20
459.6386498159761
 30
0.0
 11
581.2071207797259
 21
459.6386498159761
 31
0.0
  0
LINE
  5
14C6
330
1F
100
AcDbEntity
  8
AM_VIS
100
AcDbLine
 10
563.207120779726
 20
474.6386498159761
 30
0.0
 11
563.207120779726
 21
459.6386498159761
 31
0.0
  0
LINE
  5
14C7
330
1F
100
AcDbEntity
  8
AM_VIS
100
AcDbLine
 10
635.2071207797259
 20
459.6386498159761
 30
0.0
 11
650.2776962348702
 21
459.6386498159761
 31
0.0
  0
LINE
  5
14C8
330
1F
100
AcDbEntity
  8
AM_VIS
100
AcDbLine
 10
653.2071207797259
 20
459.6386498159761
 30
0.0
 11
653.2071207797259
 21
474.6386498159761
 31
0.0
  0
LINE
  5
14C9
330
1F
100
AcDbEntity
  8
AM_VIS
100
AcDbLine
 10
635.2071207797259
 20
474.6386498159761
 30
0.0
 11
635.2071207797259
 21
471.1386498159761
 31
0.0
  0
LINE
  5
14CA
330
1F
100
AcDbEntity
  8
AM_VIS
100
AcDbLine
 10
581.2071207797259
 20
467.1386498159761
 30
0.0
 11
581.2071207797259
 21
418.1386498159761
 31
0.0
  0
LINE
  5
14CB
330
1F
100
AcDbEntity
  8
AM_VIS
100
AcDbLine
 10
581.2071207797259
 20
414.1386498159761
 30
0.0
 11
581.2071207797259
 21
418.1386498159761
 31
0.0
  0
LINE
  5
14CC
330
1F
100
AcDbEntity
  8
AM_VIS
100
AcDbLine
 10
581.2071207797259
 20
414.1386498159761
 30
0.0
 11
581.2071207797259
 21
410.6386498159761
 31
0.0
  0
LINE
  5
14CD
330
1F
100
AcDbEntity
  8
AM_VIS
100
AcDbLine
 10
581.2071207797259
 20
474.6386498159761
 30
0.0
 11
581.2071207797259
 21
471.1386498159761
 31
0.0
  0
LINE
  5
14CE
330
1F
100
AcDbEntity
  8
AM_VIS
100
AcDbLine
 10
635.2071207797259
 20
467.1386498159761
 30
0.0
 11
581.2071207797259
 21
467.1386498159761
 31
0.0
  0
LINE
  5
14CF
330
1F
100
AcDbEntity
  8
AM_VIS
100
AcDbLine
 10
581.2071207797259
 20
471.1386498159761
 30
0.0
 11
635.2071207797259
 21
471.1386498159761
 31
0.0
  0
LINE
  5
14D0
330
1F
100
AcDbEntity
  8
AM_VIS
100
AcDbLine
 10
635.2071207797259
 20
471.1386498159761
 30
0.0
 11
635.2071207797259
 21
467.1386498159761
 31
0.0
  0
LINE
  5
14D1
330
1F
100
AcDbEntity
  8
AM_VIS
100
AcDbLine
 10
581.2071207797259
 20
467.1386498159761
 30
0.0
 11
581.2071207797259
 21
471.1386498159761
 31
0.0
  0
LINE
  5
14D2
330
1F
100
AcDbEntity
  8
AM_VIS
100
AcDbLine
 10
650.2776962348702
 20
474.6386498159761
 30
0.0
 11
635.2071207797259
 21
474.6386498159761
 31
0.0
  0
LINE
  5
14D3
330
1F
100
AcDbEntity
  8
AM_VIS
100
AcDbLine
 10
635.2071207797259
 20
474.6386498159761
 30
0.0
 11
581.2071207797259
 21
474.6386498159761
 31
0.0
  0
LINE
  5
14D4
330
1F
100
AcDbEntity
  8
AM_VIS
100
AcDbLine
 10
581.2071207797259
 20
474.6386498159761
 30
0.0
 11
566.1365453245815
 21
474.6386498159761
 31
0.0
  0
LINE
  5
14D5
330
1F
100
AcDbEntity
  8
AM_VIS
100
AcDbLine
 10
630.207120779726
 20
474.6386498159761
 30
0.0
 11
630.207120779726
 21
478.6386498159761
 31
0.0
  0
LINE
  5
14D6
330
1F
100
AcDbEntity
  8
AM_VIS
100
AcDbLine
 10
586.2071207797259
 20
478.6386498159761
 30
0.0
 11
586.2071207797259
 21
474.6386498159761
 31
0.0
  0
LINE
  5
14D7
330
1F
100
AcDbEntity
  8
AM_VIS
100
AcDbLine
 10
648.2071207797259
 20
474.6386498159761
 30
0.0
 11
648.2071207797259
 21
478.6386498159761
 31
0.0
  0
LINE
  5
14D8
330
1F
100
AcDbEntity
  8
AM_VIS
100
AcDbLine
 10
648.2071207797259
 20
478.6386498159761
 30
0.0
 11
630.207120779726
 21
478.6386498159761
 31
0.0
  0
LINE
  5
14D9
330
1F
100
AcDbEntity
  8
AM_VIS
100
AcDbLine
 10
630.2071207797259
 20
478.6386498159761
 30
0.0
 11
586.2071207797258
 21
478.6386498159761
 31
0.0
  0
LINE
  5
14DA
330
1F
100
AcDbEntity
  8
AM_VIS
100
AcDbLine
 10
568.2071207797259
 20
478.6386498159761
 30
0.0
 11
568.2071207797259
 21
474.6386498159761
 31
0.0
  0
LINE
  5
14DB
330
1F
100
AcDbEntity
  8
AM_VIS
100
AcDbLine
 10
586.2071207797258
 20
478.6386498159761
 30
0.0
 11
568.2071207797259
 21
478.6386498159761
 31
0.0
  0
LINE
  5
14DC
330
1F
100
AcDbEntity
  8
AM_VIS
100
AcDbLine
 10
650.2776962348702
 20
425.6386498159761
 30
0.0
 11
653.2071207797259
 21
425.6386498159761
 31
0.0
  0
LINE
  5
14DE
330
1F
100
AcDbEntity
  8
AM_VIS
100
AcDbLine
 10
563.207120779726
 20
425.6386498159761
 30
0.0
 11
566.1365453245816
 21
425.6386498159761
 31
0.0
  0
LINE
  5
14E2
330
1F
100
AcDbEntity
  8
AM_VIS
100
AcDbLine
 10
566.1365453245815
 20
459.6386498159761
 30
0.0
 11
563.207120779726
 21
459.6386498159761
 31
0.0
  0
LINE
  5
14E3
330
1F
100
AcDbEntity
  8
AM_VIS
100
AcDbLine
 10
653.2071207797259
 20
459.6386498159761
 30
0.0
 11
650.2776962348702
 21
459.6386498159761
 31
0.0
  0
LINE
  5
14E4
330
1F
100
AcDbEntity
  8
AM_VIS
100
AcDbLine
 10
650.2776962348702
 20
474.6386498159761
 30
0.0
 11
653.2071207797259
 21
474.6386498159761
 31
0.0
  0
LINE
  5
14E5
330
1F
100
AcDbEntity
  8
AM_VIS
100
AcDbLine
 10
563.207120779726
 20
474.6386498159761
 30
0.0
 11
566.1365453245816
 21
474.6386498159761
 31
0.0
  0
LINE
  5
14E6
330
1F
100
AcDbEntity
  8
AM_VIS
100
AcDbLine
 10
590.2071207797259
 20
478.6386498159761
 30
0.0
 11
590.2071207797259
 21
490.638649815976
 31
0.0
  0
LINE
  5
14E7
330
1F
100
AcDbEntity
  8
AM_VIS
100
AcDbLine
 10
626.207120779726
 20
478.6386498159761
 30
0.0
 11
626.207120779726
 21
490.638649815976
 31
0.0
  0
LINE
  5
14E8
330
1F
100
AcDbEntity
  8
AM_VIS
100
AcDbLine
 10
584.207120779726
 20
490.638649815976
 30
0.0
 11
584.207120779726
 21
483.6386498159761
 31
0.0
  0
LINE
  5
14E9
330
1F
100
AcDbEntity
  8
AM_VIS
100
AcDbLine
 10
637.207120779726
 20
490.638649815976
 30
0.0
 11
643.2071207797259
 21
490.638649815976
 31
0.0
  0
LINE
  5
14EA
330
1F
100
AcDbEntity
  8
AM_VIS
100
AcDbLine
 10
626.207120779726
 20
490.638649815976
 30
0.0
 11
590.2071207797259
 21
490.638649815976
 31
0.0
  0
LINE
  5
14EB
330
1F
100
AcDbEntity
  8
AM_VIS
100
AcDbLine
 10
590.2071207797259
 20
490.638649815976
 30
0.0
 11
584.207120779726
 21
490.638649815976
 31
0.0
  0
LINE
  5
14EC
330
1F
100
AcDbEntity
  8
AM_VIS
100
AcDbLine
 10
573.2071207797259
 20
490.638649815976
 30
0.0
 11
579.207120779726
 21
490.638649815976
 31
0.0
  0
LINE
  5
14ED
330
1F
100
AcDbEntity
  8
AM_VIS
100
AcDbLine
 10
573.2071207797259
 20
483.6386498159761
 30
0.0
 11
573.2071207797259
 21
490.638649815976
 31
0.0
  0
LINE
  5
14EE
330
1F
100
AcDbEntity
  8
AM_VIS
100
AcDbLine
 10
632.2071207797259
 20
490.638649815976
 30
0.0
 11
626.207120779726
 21
490.638649815976
 31
0.0
  0
LINE
  5
14EF
330
1F
100
AcDbEntity
  8
AM_VIS
100
AcDbLine
 10
632.2071207797259
 20
483.6386498159761
 30
0.0
 11
632.2071207797259
 21
490.638649815976
 31
0.0
  0
LINE
  5
14F0
330
1F
100
AcDbEntity
  8
AM_VIS
100
AcDbLine
 10
632.2071207797259
 20
483.6386498159761
 30
0.0
 11
632.2071207797259
 21
478.6386498159761
 31
0.0
  0
LINE
  5
14F1
330
1F
100
AcDbEntity
  8
AM_VIS
100
AcDbLine
 10
640.9835779150334
 20
483.6386498159761
 30
0.0
 11
632.2071207797259
 21
483.6386498159761
 31
0.0
  0
LINE
  5
14F2
330
1F
100
AcDbEntity
  8
AM_VIS
100
AcDbLine
 10
632.2071207797259
 20
490.638649815976
 30
0.0
 11
632.2071207797259
 21
503.6386498159761
 31
0.0
  0
LINE
  5
14F3
330
1F
100
AcDbEntity
  8
AM_VIS
100
AcDbLine
 10
584.207120779726
 20
490.638649815976
 30
0.0
 11
584.207120779726
 21
503.6386498159761
 31
0.0
  0
LINE
  5
14F4
330
1F
100
AcDbEntity
  8
AM_VIS
100
AcDbLine
 10
584.207120779726
 20
483.6386498159761
 30
0.0
 11
575.4306636444185
 21
483.6386498159761
 31
0.0
  0
LINE
  5
14F5
330
1F
100
AcDbEntity
  8
AM_VIS
100
AcDbLine
 10
584.207120779726
 20
478.6386498159761
 30
0.0
 11
584.207120779726
 21
483.6386498159761
 31
0.0
  0
LINE
  5
14F6
330
1F
100
AcDbEntity
  8
AM_VIS
100
AcDbLine
 10
573.2071207797259
 20
483.6386498159761
 30
0.0
 11
573.2071207797259
 21
478.6386498159761
 31
0.0
  0
LINE
  5
14F7
330
1F
100
AcDbEntity
  8
AM_VIS
100
AcDbLine
 10
643.2071207797259
 20
478.6386498159761
 30
0.0
 11
643.2071207797259
 21
483.6386498159761
 31
0.0
  0
LINE
  5
14F8
330
1F
100
AcDbEntity
  8
AM_VIS
100
AcDbLine
 10
643.2071207797259
 20
490.638649815976
 30
0.0
 11
643.2071207797259
 21
483.6386498159761
 31
0.0
  0
LINE
  5
14F9
330
1F
100
AcDbEntity
  8
AM_VIS
100
AcDbLine
 10
632.7020180858275
 20
522.6386498159761
 30
0.0
 11
632.7020180858275
 21
560.6386498159757
 31
0.0
  0
LINE
  5
14FA
330
1F
100
AcDbEntity
  8
AM_VIS
100
AcDbLine
 10
632.1915087476248
 20
561.1386683805498
 30
0.0
 11
632.7020357137493
 21
560.6386678150143
 31
0.0
  0
LINE
  5
14FB
330
1F
100
AcDbEntity
  8
AM_VIS
100
AcDbLine
 10
583.712223230164
 20
560.6386498159761
 30
0.0
 11
583.712223230164
 21
522.6386498159761
 31
0.0
  0
LINE
  5
14FC
330
1F
100
AcDbEntity
  8
AM_VIS
100
AcDbLine
 10
583.7122056022511
 20
560.6386678150053
 30
0.0
 11
584.2227325631941
 21
561.1386683805408
 31
0.0
  0
LINE
  5
14FD
330
1F
100
AcDbEntity
  8
AM_VIS
100
AcDbLine
 10
594.4221461022082
 20
560.6386498159761
 30
0.0
 11
594.4221461022082
 21
522.6386498159761
 31
0.0
  0
LINE
  5
14FE
330
1F
100
AcDbEntity
  8
AM_VIS
100
AcDbLine
 10
594.4221293680873
 20
560.6386618978996
 30
0.0
 11
594.7831263062706
 21
561.1386622802143
 31
0.0
  0
LINE
  5
14FF
330
1F
100
AcDbEntity
  8
AM_VIS
100
AcDbLine
 10
587.7120759338692
 20
561.1386498159756
 30
0.0
 11
587.7120759338692
 21
522.6386498159761
 31
0.0
  0
LINE
  5
1500
330
1F
100
AcDbEntity
  8
AM_VIS
100
AcDbLine
 10
587.3510784624951
 20
522.6386498159761
 30
0.0
 11
587.3510784624951
 21
560.6386498159757
 31
0.0
  0
LINE
  5
1501
330
1F
100
AcDbEntity
  8
AM_VIS
100
AcDbLine
 10
587.3510617283658
 20
560.6386618979058
 30
0.0
 11
587.712058670213
 21
561.1386622802204
 31
0.0
  0
LINE
  5
1502
330
1F
100
AcDbEntity
  8
AM_VIS
100
AcDbLine
 10
613.2071201833725
 20
560.6386498159761
 30
0.0
 11
613.2071201833725
 21
522.6386498159761
 31
0.0
  0
LINE
  5
1503
330
1F
100
AcDbEntity
  8
AM_VIS
100
AcDbLine
 10
613.2071201833725
 20
561.138649815976
 30
0.0
 11
613.2071201833725
 21
560.6386498159761
 31
0.0
  0
LINE
  5
1504
330
1F
100
AcDbEntity
  8
AM_VIS
100
AcDbLine
 10
603.2071201833725
 20
522.6386498159761
 30
0.0
 11
603.2071201833725
 21
560.6386498159757
 31
0.0
  0
LINE
  5
1505
330
1F
100
AcDbEntity
  8
AM_VIS
100
AcDbLine
 10
603.2071201833725
 20
561.1386498159758
 30
0.0
 11
603.2071201833725
 21
560.6386498159761
 31
0.0
  0
LINE
  5
1506
330
1F
100
AcDbEntity
  8
AM_VIS
100
AcDbLine
 10
629.0631624257381
 20
560.6386498159761
 30
0.0
 11
629.0631624257381
 21
522.6386498159761
 31
0.0
  0
LINE
  5
1507
330
1F
100
AcDbEntity
  8
AM_VIS
100
AcDbLine
 10
628.7021822216757
 20
561.1386622802144
 30
0.0
 11
629.063179159859
 21
560.6386618978996
 31
0.0
  0
LINE
  5
1508
330
1F
100
AcDbEntity
  8
AM_VIS
100
AcDbLine
 10
628.7021649580282
 20
561.138649815976
 30
0.0
 11
628.7021649580282
 21
522.6386498159761
 31
0.0
  0
LINE
  5
1509
330
1F
100
AcDbEntity
  8
AM_VIS
100
AcDbLine
 10
621.9920944417203
 20
522.6386498159761
 30
0.0
 11
621.9920944417203
 21
560.6386498159757
 31
0.0
  0
LINE
  5
150A
330
1F
100
AcDbEntity
  8
AM_VIS
100
AcDbLine
 10
621.6311142340023
 20
561.1386622802204
 30
0.0
 11
621.9921111758495
 21
560.6386618979058
 31
0.0
  0
LINE
  5
150B
330
1F
100
AcDbEntity
  8
AM_VIS
100
AcDbLine
 10
630.207120779726
 20
503.6386498159761
 30
0.0
 11
630.207120779726
 21
512.6386498159761
 31
0.0
  0
LINE
  5
150C
330
1F
100
AcDbEntity
  8
AM_VIS
100
AcDbLine
 10
586.2071207797259
 20
503.6386498159761
 30
0.0
 11
586.2071207797259
 21
512.6386498159761
 31
0.0
  0
LINE
  5
150D
330
1F
100
AcDbEntity
  8
AM_VIS
100
AcDbLine
 10
633.207120779726
 20
512.6386498159761
 30
0.0
 11
633.207120779726
 21
522.6386498159761
 31
0.0
  0
LINE
  5
150E
330
1F
100
AcDbEntity
  8
AM_VIS
100
AcDbLine
 10
583.207120779726
 20
512.6386498159761
 30
0.0
 11
583.207120779726
 21
522.6386498159761
 31
0.0
  0
LINE
  5
150F
330
1F
100
AcDbEntity
  8
AM_VIS
100
AcDbLine
 10
632.707120779726
 20
561.138649815976
 30
0.0
 11
632.707120779726
 21
522.6386498159761
 31
0.0
  0
LINE
  5
1510
330
1F
100
AcDbEntity
  8
AM_VIS
100
AcDbLine
 10
585.2071207797259
 20
562.6386498159761
 30
0.0
 11
583.707120779726
 21
561.138649815976
 31
0.0
  0
LINE
  5
1511
330
1F
100
AcDbEntity
  8
AM_VIS
100
AcDbLine
 10
631.2071207797259
 20
562.6386498159761
 30
0.0
 11
632.707120779726
 21
561.138649815976
 31
0.0
  0
LINE
  5
1512
330
1F
100
AcDbEntity
  8
AM_VIS
100
AcDbLine
 10
583.707120779726
 20
561.138649815976
 30
0.0
 11
583.707120779726
 21
522.6386498159761
 31
0.0
  0
LINE
  5
1513
330
1F
100
AcDbEntity
  8
AM_VIS
100
AcDbLine
 10
637.207120779726
 20
490.638649815976
 30
0.0
 11
632.2071207797259
 21
490.638649815976
 31
0.0
  0
LINE
  5
1514
330
1F
100
AcDbEntity
  8
AM_VIS
100
AcDbLine
 10
584.207120779726
 20
490.638649815976
 30
0.0
 11
579.207120779726
 21
490.638649815976
 31
0.0
  0
LINE
  5
1515
330
1F
100
AcDbEntity
  8
AM_VIS
100
AcDbLine
 10
584.207120779726
 20
503.6386498159761
 30
0.0
 11
632.2071207797259
 21
503.6386498159761
 31
0.0
  0
LINE
  5
1516
330
1F
100
AcDbEntity
  8
AM_VIS
100
AcDbLine
 10
633.207120779726
 20
512.6386498159761
 30
0.0
 11
583.207120779726
 21
512.6386498159761
 31
0.0
  0
LINE
  5
1517
330
1F
100
AcDbEntity
  8
AM_VIS
100
AcDbLine
 10
573.2071207797259
 20
483.6386498159761
 30
0.0
 11
575.4306636444185
 21
483.6386498159761
 31
0.0
  0
LINE
  5
1518
330
1F
100
AcDbEntity
  8
AM_VIS
100
AcDbLine
 10
640.9835779150334
 20
483.6386498159761
 30
0.0
 11
643.2071207797259
 21
483.6386498159761
 31
0.0
  0
LINE
  5
1519
330
1F
100
AcDbEntity
  8
AM_VIS
100
AcDbLine
 10
632.7020180858275
 20
522.6386498159761
 30
0.0
 11
633.207120779726
 21
522.6386498159761
 31
0.0
  0
LINE
  5
151A
330
1F
100
AcDbEntity
  8
AM_VIS
100
AcDbLine
 10
621.9920944417204
 20
560.6386498159761
 30
0.0
 11
613.2071201833725
 21
560.6386498159761
 31
0.0
  0
LINE
  5
151B
330
1F
100
AcDbEntity
  8
AM_VIS
100
AcDbLine
 10
603.2071201833725
 20
560.6386498159761
 30
0.0
 11
594.422146102208
 21
560.6386498159761
 31
0.0
  0
LINE
  5
151C
330
1F
100
AcDbEntity
  8
AM_VIS
100
AcDbLine
 10
587.3510784624951
 20
560.6386498159761
 30
0.0
 11
583.712223230164
 21
560.6386498159761
 31
0.0
  0
LINE
  5
151D
330
1F
100
AcDbEntity
  8
AM_VIS
100
AcDbLine
 10
632.707120779726
 20
561.138649815976
 30
0.0
 11
632.1914905658275
 21
561.138649815976
 31
0.0
  0
LINE
  5
151E
330
1F
100
AcDbEntity
  8
AM_VIS
100
AcDbLine
 10
632.7020180858275
 20
560.6386498159761
 30
0.0
 11
629.0631624257381
 21
560.6386498159761
 31
0.0
  0
LINE
  5
151F
330
1F
100
AcDbEntity
  8
AM_VIS
100
AcDbLine
 10
585.2071207797259
 20
562.6386498159761
 30
0.0
 11
631.2071207797259
 21
562.6386498159761
 31
0.0
  0
LINE
  5
1520
330
1F
100
AcDbEntity
  8
AM_VIS
100
AcDbLine
 10
583.207120779726
 20
522.6386498159761
 30
0.0
 11
583.712223230164
 21
522.6386498159761
 31
0.0
  0
LINE
  5
1521
330
1F
100
AcDbEntity
  8
AM_VIS
100
AcDbLine
 10
584.2227507449818
 20
561.138649815976
 30
0.0
 11
583.707120779726
 21
561.138649815976
 31
0.0
  0
LINE
  5
1522
330
1F
100
AcDbEntity
  8
AM_VIS
100
AcDbLine
 10
587.3510784624951
 20
522.6386498159761
 30
0.0
 11
594.4221461022082
 21
522.6386498159761
 31
0.0
  0
LINE
  5
1523
330
1F
100
AcDbEntity
  8
AM_VIS
100
AcDbLine
 10
594.7831435699181
 20
561.138649815976
 30
0.0
 11
587.7120759338695
 21
561.138649815976
 31
0.0
  0
LINE
  5
1524
330
1F
100
AcDbEntity
  8
AM_VIS
100
AcDbLine
 10
603.2071201833725
 20
522.6386498159761
 30
0.0
 11
613.2071201833724
 21
522.6386498159761
 31
0.0
  0
LINE
  5
1525
330
1F
100
AcDbEntity
  8
AM_VIS
100
AcDbLine
 10
613.2071201833725
 20
561.138649815976
 30
0.0
 11
603.2071201833725
 21
561.138649815976
 31
0.0
  0
LINE
  5
1526
330
1F
100
AcDbEntity
  8
AM_VIS
100
AcDbLine
 10
621.9920944417203
 20
522.6386498159761
 30
0.0
 11
629.063162425738
 21
522.6386498159761
 31
0.0
  0
LINE
  5
1527
330
1F
100
AcDbEntity
  8
AM_VIS
100
AcDbLine
 10
628.7021649580281
 20
561.138649815976
 30
0.0
 11
621.6310969703458
 21
561.138649815976
 31
0.0
  0
LINE
  5
1528
330
1F
100
AcDbEntity
  8
AM_VIS
100
AcDbLine
 10
581.2071207797259
 20
395.6386498159761
 30
0.0
 11
635.2071207797259
 21
395.6386498159761
 31
0.0
  0
LINE
  5
1529
330
1F
100
AcDbEntity
  8
AM_VIS
100
AcDbLine
 10
635.2071207797259
 20
395.6386498159761
 30
0.0
 11
635.2071207797259
 21
410.6386498159761
 31
0.0
  0
LINE
  5
152A
330
1F
100
AcDbEntity
  8
AM_VIS
100
AcDbLine
 10
581.2071207797259
 20
410.6386498159761
 30
0.0
 11
581.2071207797259
 21
395.6386498159761
 31
0.0
  0
LINE
  5
152B
330
1F
100
AcDbEntity
  8
AM_VIS
100
AcDbLine
 10
566.1365453245815
 20
395.6386498159761
 30
0.0
 11
581.2071207797259
 21
395.6386498159761
 31
0.0
  0
LINE
  5
152C
330
1F
100
AcDbEntity
  8
AM_VIS
100
AcDbLine
 10
635.2071207797259
 20
395.6386498159761
 30
0.0
 11
650.2776962348702
 21
395.6386498159761
 31
0.0
  0
LINE
  5
152D
330
1F
100
AcDbEntity
  8
AM_VIS
100
AcDbLine
 10
563.207120779726
 20
410.6386498159761
 30
0.0
 11
563.207120779726
 21
395.6386498159761
 31
0.0
  0
LINE
  5
152F
330
1F
100
AcDbEntity
  8
AM_VIS
100
AcDbLine
 10
635.2071207797259
 20
410.6386498159761
 30
0.0
 11
581.2071207797259
 21
410.6386498159761
 31
0.0
  0
LINE
  5
1531
330
1F
100
AcDbEntity
  8
AM_VIS
100
AcDbLine
 10
653.2071207797259
 20
395.6386498159761
 30
0.0
 11
653.2071207797259
 21
410.6386498159761
 31
0.0
  0
LINE
  5
1532
330
1F
100
AcDbEntity
  8
AM_VIS
100
AcDbLine
 10
646.1816736036261
 20
337.6374314700143
 30
0.0
 11
648.2071207797259
 21
395.6386498159761
 31
0.0
  0
LINE
  5
1533
330
1F
100
AcDbEntity
  8
AM_VIS
100
AcDbLine
 10
570.2325679558258
 20
337.6374314700143
 30
0.0
 11
568.2071207797259
 21
395.6386498159761
 31
0.0
  0
LINE
  5
1534
330
1F
100
AcDbEntity
  8
AM_VIS
100
AcDbLine
 10
644.1118746102211
 20
335.6386498159761
 30
0.0
 11
646.1816736036261
 21
337.6374314700143
 31
0.0
  0
LINE
  5
1535
330
1F
100
AcDbEntity
  8
AM_VIS
100
AcDbLine
 10
572.3023669492309
 20
335.6386498159761
 30
0.0
 11
570.2325679558258
 21
337.6374314700143
 31
0.0
  0
LINE
  5
1536
330
1F
100
AcDbEntity
  8
AM_VIS
100
AcDbLine
 10
566.1365453245815
 20
395.6386498159761
 30
0.0
 11
563.207120779726
 21
395.6386498159761
 31
0.0
  0
LINE
  5
1538
330
1F
100
AcDbEntity
  8
AM_VIS
100
AcDbLine
 10
653.2071207797259
 20
395.6386498159761
 30
0.0
 11
650.2776962348702
 21
395.6386498159761
 31
0.0
  0
LINE
  5
153B
330
1F
100
AcDbEntity
  8
AM_VIS
100
AcDbLine
 10
644.1118746102211
 20
335.6386498159761
 30
0.0
 11
572.3023669492309
 21
335.6386498159761
 31
0.0
  0
LINE
  5
153C
330
1F
100
AcDbEntity
  8
AM_VIS
100
AcDbLine
 10
580.1046297869332
 20
335.6386498159761
 30
0.0
 11
580.1046297869332
 21
310.6386498159761
 31
0.0
  0
LINE
  5
153D
330
1F
100
AcDbEntity
  8
AM_VIS
100
AcDbLine
 10
580.1046297869332
 20
310.6386498159761
 30
0.0
 11
571.207120779726
 21
310.6386498159761
 31
0.0
  0
LINE
  5
153E
330
1F
100
AcDbEntity
  8
AM_VIS
100
AcDbLine
 10
571.207120779726
 20
317.6386498159761
 30
0.0
 11
571.207120779726
 21
310.6386498159761
 31
0.0
  0
LINE
  5
153F
330
1F
100
AcDbEntity
  8
AM_VIS
100
AcDbLine
 10
574.2071207797259
 20
335.6386498159761
 30
0.0
 11
574.2071207797259
 21
317.6386498159761
 31
0.0
  0
LINE
  5
1540
330
1F
100
AcDbEntity
  8
AM_VIS
100
AcDbLine
 10
574.2071207797259
 20
317.6386498159761
 30
0.0
 11
571.207120779726
 21
317.6386498159761
 31
0.0
  0
LINE
  5
1541
330
1F
100
AcDbEntity
  8
AM_VIS
100
AcDbLine
 10
597.2071207797259
 20
239.6386498159761
 30
0.0
 11
597.2071207797259
 21
234.6386498159761
 31
0.0
  0
LINE
  5
1542
330
1F
100
AcDbEntity
  8
AM_VIS
100
AcDbLine
 10
619.2071207797259
 20
239.6386498159762
 30
0.0
 11
619.2071207797259
 21
234.6386498159762
 31
0.0
  0
LINE
  5
1543
330
1F
100
AcDbEntity
  8
AM_VIS
100
AcDbLine
 10
578.2071207797259
 20
310.6386498159761
 30
0.0
 11
578.2071207797259
 21
247.6386498159761
 31
0.0
  0
LINE
  5
1544
330
1F
100
AcDbEntity
  8
AM_VIS
100
AcDbLine
 10
638.207120779726
 20
335.6386498159761
 30
0.0
 11
638.207120779726
 21
247.6386498159761
 31
0.0
  0
LINE
  5
1545
330
1F
100
AcDbEntity
  8
AM_VIS
100
AcDbLine
 10
617.207120779726
 20
232.6386498159761
 30
0.0
 11
599.2071207797259
 21
232.6386498159761
 31
0.0
  0
LINE
  5
1546
330
1F
100
AcDbEntity
  8
AM_VIS
100
AcDbLine
 10
619.2071207797259
 20
239.6386498159761
 30
0.0
 11
597.2071207797259
 21
239.6386498159761
 31
0.0
  0
ARC
  5
1548
330
1F
100
AcDbEntity
  8
AM_VIS
100
AcDbCircle
 10
599.2071207797259
 20
234.6386498159761
 30
0.0
 40
2.0
100
AcDbArc
 50
180.0
 51
270.0
  0
ARC
  5
1549
330
1F
100
AcDbEntity
  8
AM_VIS
100
AcDbCircle
 10
617.207120779726
 20
234.6386498159761
 30
0.0
 40
2.0
100
AcDbArc
 50
270.0
 51
0.0
  0
ARC
  5
154A
330
1F
100
AcDbEntity
  8
AM_VIS
100
AcDbCircle
 10
597.2071207797259
 20
266.2011498159761
 30
0.0
 40
26.56250000000001
100
AcDbArc
 50
224.3326916441632
 51
270.0
  0
ARC
  5
154B
330
1F
100
AcDbEntity
  8
AM_VIS
100
AcDbCircle
 10
619.2071207797259
 20
266.2011498159761
 30
0.0
 40
26.56250000000001
100
AcDbArc
 50
270.0
 51
315.6673083558368
  0
LINE
  5
154C
330
1F
100
AcDbEntity
  8
AM_VIS
100
AcDbLine
 10
581.7071207797257
 20
484.538649815976
 30
0.0
 11
581.7071207797257
 21
488.1386498159762
 31
0.0
  0
LINE
  5
154D
330
1F
100
AcDbEntity
  8
AM_VIS
100
AcDbLine
 10
574.7071207797257
 20
484.538649815976
 30
0.0
 11
574.7071207797257
 21
488.1386498159761
 31
0.0
  0
LINE
  5
154E
330
1F
100
AcDbEntity
  8
AM_VIS
100
AcDbLine
 10
581.3071207797261
 20
488.538649815976
 30
0.0
 11
575.1071207797253
 21
488.5386498159759
 31
0.0
  0
ARC
  5
154F
330
1F
100
AcDbEntity
  8
AM_VIS
100
AcDbCircle
 10
575.1071207797255
 20
488.1386498159761
 30
0.0
 40
0.4000000000000004
100
AcDbArc
 50
90.00000000000651
 51
180.0
  0
ARC
  5
1550
330
1F
100
AcDbEntity
  8
AM_VIS
100
AcDbCircle
 10
581.3071207797262
 20
488.1386498159762
 30
0.0
 40
0.4000000000000004
100
AcDbArc
 50
0.0
 51
90.00000000000651
  0
LINE
  5
1551
330
1F
100
AcDbEntity
  8
AM_VIS
100
AcDbLine
 10
574.4071207797259
 20
484.538649815976
 30
0.0
 11
574.4071207797259
 21
483.6386498159761
 31
0.0
  0
LINE
  5
1552
330
1F
100
AcDbEntity
  8
AM_VIS
100
AcDbLine
 10
582.0071207797259
 20
484.5386498159761
 30
0.0
 11
582.0071207797259
 21
483.6386498159761
 31
0.0
  0
LINE
  5
1553
330
1F
100
AcDbEntity
  8
AM_VIS
100
AcDbLine
 10
574.4071207797259
 20
484.538649815976
 30
0.0
 11
582.0071207797259
 21
484.5386498159761
 31
0.0
  0
LINE
  5
1554
330
1F
100
AcDbEntity
  8
AM_VIS
100
AcDbLine
 10
641.7071207797258
 20
484.5386498159763
 30
0.0
 11
641.7071207797258
 21
488.1386498159764
 31
0.0
  0
LINE
  5
1555
330
1F
100
AcDbEntity
  8
AM_VIS
100
AcDbLine
 10
634.7071207797257
 20
484.5386498159763
 30
0.0
 11
634.7071207797257
 21
488.1386498159764
 31
0.0
  0
LINE
  5
1556
330
1F
100
AcDbEntity
  8
AM_VIS
100
AcDbLine
 10
641.3071207797261
 20
488.5386498159762
 30
0.0
 11
635.1071207797254
 21
488.5386498159761
 31
0.0
  0
ARC
  5
1557
330
1F
100
AcDbEntity
  8
AM_VIS
100
AcDbCircle
 10
635.1071207797255
 20
488.1386498159764
 30
0.0
 40
0.4000000000000004
100
AcDbArc
 50
90.00000000000651
 51
180.0
  0
ARC
  5
1558
330
1F
100
AcDbEntity
  8
AM_VIS
100
AcDbCircle
 10
641.3071207797261
 20
488.1386498159764
 30
0.0
 40
0.4000000000000004
100
AcDbArc
 50
0.0
 51
90.00000000000651
  0
LINE
  5
1559
330
1F
100
AcDbEntity
  8
AM_VIS
100
AcDbLine
 10
634.4071207797258
 20
484.5386498159763
 30
0.0
 11
634.4071207797258
 21
483.6386498159763
 31
0.0
  0
LINE
  5
155A
330
1F
100
AcDbEntity
  8
AM_VIS
100
AcDbLine
 10
642.0071207797259
 20
484.5386498159764
 30
0.0
 11
642.0071207797259
 21
483.6386498159764
 31
0.0
  0
LINE
  5
155B
330
1F
100
AcDbEntity
  8
AM_VIS
100
AcDbLine
 10
634.4071207797258
 20
484.5386498159763
 30
0.0
 11
642.0071207797259
 21
484.5386498159764
 31
0.0
  0
LINE
  5
155C
330
1F
100
AcDbEntity
  8
AM_VIS
100
AcDbLine
 10
391.4404746429318
 20
673.5804628658495
 30
0.0
 11
396.4404746429318
 21
673.5804628658495
 31
0.0
  0
LINE
  5
155D
330
1F
100
AcDbEntity
  8
AM_VIS
100
AcDbLine
 10
391.4404746429318
 20
673.5804628658495
 30
0.0
 11
391.4404746429318
 21
727.5804628658495
 31
0.0
  0
LINE
  5
155E
330
1F
100
AcDbEntity
  8
AM_VIS
100
AcDbLine
 10
396.4404746429318
 20
727.5804628658495
 30
0.0
 11
391.4404746429318
 21
727.5804628658495
 31
0.0
  0
LINE
  5
155F
330
1F
100
AcDbEntity
  8
AM_VIS
100
AcDbLine
 10
396.4404746429318
 20
727.5804628658495
 30
0.0
 11
400.6267456026941
 21
742.6510383209938
 31
0.0
  0
LINE
  5
1560
330
1F
100
AcDbEntity
  8
AM_VIS
100
AcDbLine
 10
404.4808172412139
 20
745.5804628658495
 30
0.0
 11
468.4001320446497
 21
745.5804628658495
 31
0.0
  0
LINE
  5
1561
330
1F
100
AcDbEntity
  8
AM_VIS
100
AcDbLine
 10
472.2542036831693
 20
742.6510383209938
 30
0.0
 11
476.4404746429317
 21
727.5804628658495
 31
0.0
  0
LINE
  5
1562
330
1F
100
AcDbEntity
  8
AM_VIS
100
AcDbLine
 10
481.4404746429318
 20
727.5804628658495
 30
0.0
 11
476.4404746429318
 21
727.5804628658495
 31
0.0
  0
LINE
  5
1563
330
1F
100
AcDbEntity
  8
AM_VIS
100
AcDbLine
 10
481.4404746429318
 20
727.5804628658495
 30
0.0
 11
481.4404746429318
 21
673.5804628658495
 31
0.0
  0
LINE
  5
1564
330
1F
100
AcDbEntity
  8
AM_VIS
100
AcDbLine
 10
476.4404746429318
 20
673.5804628658495
 30
0.0
 11
481.4404746429318
 21
673.5804628658495
 31
0.0
  0
LINE
  5
1565
330
1F
100
AcDbEntity
  8
AM_VIS
100
AcDbLine
 10
476.4404746429318
 20
673.5804628658495
 30
0.0
 11
472.2542036831693
 21
658.5098874107051
 31
0.0
  0
LINE
  5
1566
330
1F
100
AcDbEntity
  8
AM_VIS
100
AcDbLine
 10
468.4001320446497
 20
655.5804628658495
 30
0.0
 11
404.4808172412139
 21
655.5804628658495
 31
0.0
  0
LINE
  5
1567
330
1F
100
AcDbEntity
  8
AM_VIS
100
AcDbLine
 10
400.6267456026941
 20
658.5098874107051
 30
0.0
 11
396.4404746429319
 21
673.5804628658495
 31
0.0
  0
LINE
  5
1568
330
1F
100
AcDbEntity
  8
AM_VIS
100
AcDbLine
 10
404.4404746429318
 20
660.5804628658495
 30
0.0
 11
399.4404746429318
 21
678.5804628658495
 31
0.0
  0
LINE
  5
1569
330
1F
100
AcDbEntity
  8
AM_VIS
100
AcDbLine
 10
396.4404746429318
 20
678.5804628658495
 30
0.0
 11
399.4404746429318
 21
678.5804628658495
 31
0.0
  0
LINE
  5
156A
330
1F
100
AcDbEntity
  8
AM_VIS
100
AcDbLine
 10
396.4404746429318
 20
678.5804628658495
 30
0.0
 11
396.4404746429318
 21
722.5804628658495
 31
0.0
  0
LINE
  5
156B
330
1F
100
AcDbEntity
  8
AM_VIS
100
AcDbLine
 10
399.4404746429318
 20
722.5804628658495
 30
0.0
 11
396.4404746429318
 21
722.5804628658495
 31
0.0
  0
LINE
  5
156C
330
1F
100
AcDbEntity
  8
AM_VIS
100
AcDbLine
 10
399.4404746429318
 20
722.5804628658495
 30
0.0
 11
404.4404746429318
 21
740.5804628658495
 31
0.0
  0
LINE
  5
156D
330
1F
100
AcDbEntity
  8
AM_VIS
100
AcDbLine
 10
404.4404746429318
 20
740.5804628658495
 30
0.0
 11
466.4404746429318
 21
740.5804628658495
 31
0.0
  0
LINE
  5
156E
330
1F
100
AcDbEntity
  8
AM_VIS
100
AcDbLine
 10
466.4404746429318
 20
740.5804628658495
 30
0.0
 11
471.4404746429318
 21
722.5804628658495
 31
0.0
  0
LINE
  5
156F
330
1F
100
AcDbEntity
  8
AM_VIS
100
AcDbLine
 10
476.4404746429318
 20
722.5804628658495
 30
0.0
 11
471.4404746429318
 21
722.5804628658495
 31
0.0
  0
LINE
  5
1570
330
1F
100
AcDbEntity
  8
AM_VIS
100
AcDbLine
 10
476.4404746429318
 20
722.5804628658495
 30
0.0
 11
476.4404746429318
 21
678.5804628658495
 31
0.0
  0
LINE
  5
1571
330
1F
100
AcDbEntity
  8
AM_VIS
100
AcDbLine
 10
471.4404746429318
 20
678.5804628658495
 30
0.0
 11
476.4404746429318
 21
678.5804628658495
 31
0.0
  0
LINE
  5
1572
330
1F
100
AcDbEntity
  8
AM_VIS
100
AcDbLine
 10
466.4404746429318
 20
660.5804628658495
 30
0.0
 11
404.4404746429318
 21
660.5804628658495
 31
0.0
  0
LINE
  5
1573
330
1F
100
AcDbEntity
  8
AM_VIS
100
AcDbLine
 10
471.4404746429318
 20
678.5804628658495
 30
0.0
 11
466.4404746429318
 21
660.5804628658495
 31
0.0
  0
ARC
  5
1574
330
1F
100
AcDbEntity
  8
AM_VIS
100
AcDbCircle
 10
404.4808172412139
 20
741.5804628658495
 30
0.0
 40
3.999999999999999
100
AcDbArc
 50
90.0
 51
164.4758890032445
  0
ARC
  5
1575
102
{ACAD_REACTORS
330
17DC
102
}
330
1F
100
AcDbEntity
  8
AM_VIS
100
AcDbCircle
 10
468.4001320446497
 20
741.5804628658495
 30
0.0
 40
4.0
100
AcDbArc
 50
15.52411099675548
 51
90.0
  0
ARC
  5
1576
102
{ACAD_REACTORS
330
17DC
102
}
330
1F
100
AcDbEntity
  8
AM_VIS
100
AcDbCircle
 10
468.4001320446497
 20
659.5804628658495
 30
0.0
 40
3.999999999999999
100
AcDbArc
 50
270.0
 51
344.4758890032445
  0
ARC
  5
1577
330
1F
100
AcDbEntity
  8
AM_VIS
100
AcDbCircle
 10
404.4808172412139
 20
659.5804628658495
 30
0.0
 40
4.0
100
AcDbArc
 50
195.5241109967555
 51
270.0
  0
LINE
  5
1578
330
1F
100
AcDbEntity
  8
AM_VIS
100
AcDbLine
 10
405.4404746429318
 20
682.5804628658495
 30
0.0
 11
401.4404746429318
 21
682.5804628658495
 31
0.0
  0
LINE
  5
1579
330
1F
100
AcDbEntity
  8
AM_VIS
100
AcDbLine
 10
401.4404746429318
 20
682.5804628658495
 30
0.0
 11
401.4404746429318
 21
718.5804628658495
 31
0.0
  0
LINE
  5
157A
330
1F
100
AcDbEntity
  8
AM_VIS
100
AcDbLine
 10
401.4404746429318
 20
718.5804628658495
 30
0.0
 11
405.4404746429318
 21
718.5804628658495
 31
0.0
  0
LINE
  5
157B
330
1F
100
AcDbEntity
  8
AM_VIS
100
AcDbLine
 10
405.4404746429318
 20
718.5804628658495
 30
0.0
 11
405.4404746429318
 21
724.5804628658495
 31
0.0
  0
LINE
  5
157C
330
1F
100
AcDbEntity
  8
AM_VIS
100
AcDbLine
 10
413.9404746429318
 20
724.5804628658495
 30
0.0
 11
405.4404746429318
 21
724.5804628658495
 31
0.0
  0
LINE
  5
157D
330
1F
100
AcDbEntity
  8
AM_VIS
100
AcDbLine
 10
453.9404746429318
 20
729.5804628658495
 30
0.0
 11
453.9404746429318
 21
735.5804628658495
 31
0.0
  0
LINE
  5
157E
330
1F
100
AcDbEntity
  8
AM_VIS
100
AcDbLine
 10
467.4404746429318
 20
718.5804628658495
 30
0.0
 11
471.4404746429318
 21
718.5804628658495
 31
0.0
  0
LINE
  5
157F
330
1F
100
AcDbEntity
  8
AM_VIS
100
AcDbLine
 10
471.4404746429318
 20
718.5804628658495
 30
0.0
 11
471.4404746429318
 21
682.5804628658495
 31
0.0
  0
LINE
  5
1580
330
1F
100
AcDbEntity
  8
AM_VIS
100
AcDbLine
 10
471.4404746429318
 20
682.5804628658495
 30
0.0
 11
467.4404746429318
 21
682.5804628658495
 31
0.0
  0
LINE
  5
1581
330
1F
100
AcDbEntity
  8
AM_VIS
100
AcDbLine
 10
467.4404746429318
 20
682.5804628658495
 30
0.0
 11
467.4404746429318
 21
676.5804628658495
 31
0.0
  0
LINE
  5
1582
330
1F
100
AcDbEntity
  8
AM_VIS
100
AcDbLine
 10
458.9404746429318
 20
676.5804628658495
 30
0.0
 11
467.4404746429318
 21
676.5804628658495
 31
0.0
  0
LINE
  5
1583
330
1F
100
AcDbEntity
  8
AM_VIS
100
AcDbLine
 10
418.9404746429318
 20
671.5804628658495
 30
0.0
 11
418.9404746429318
 21
665.5804628658495
 31
0.0
  0
LINE
  5
1584
330
1F
100
AcDbEntity
  8
AM_VIS
100
AcDbLine
 10
418.9404746429318
 20
735.5804628658495
 30
0.0
 11
418.9404746429318
 21
729.5804628658495
 31
0.0
  0
LINE
  5
1585
330
1F
100
AcDbEntity
  8
AM_VIS
100
AcDbLine
 10
467.4404746429318
 20
724.5804628658495
 30
0.0
 11
458.9404746429318
 21
724.5804628658495
 31
0.0
  0
LINE
  5
1586
330
1F
100
AcDbEntity
  8
AM_VIS
100
AcDbLine
 10
453.9404746429318
 20
665.5804628658495
 30
0.0
 11
453.9404746429318
 21
671.5804628658495
 31
0.0
  0
LINE
  5
1587
330
1F
100
AcDbEntity
  8
AM_VIS
100
AcDbLine
 10
405.4404746429318
 20
676.5804628658495
 30
0.0
 11
413.9404746429318
 21
676.5804628658495
 31
0.0
  0
LINE
  5
1588
330
1F
100
AcDbEntity
  8
AM_VIS
100
AcDbLine
 10
405.4404746429318
 20
676.5804628658495
 30
0.0
 11
405.4404746429318
 21
682.5804628658495
 31
0.0
  0
LINE
  5
1589
330
1F
100
AcDbEntity
  8
AM_VIS
100
AcDbLine
 10
418.9404746429318
 20
665.5804628658495
 30
0.0
 11
410.689896723611
 21
665.5804628658495
 31
0.0
  0
LINE
  5
158A
330
1F
100
AcDbEntity
  8
AM_VIS
100
AcDbLine
 10
453.9404746429318
 20
665.5804628658495
 30
0.0
 11
418.9404746429318
 21
665.5804628658495
 31
0.0
  0
LINE
  5
158B
330
1F
100
AcDbEntity
  8
AM_VIS
100
AcDbLine
 10
462.1910525622525
 20
665.5804628658495
 30
0.0
 11
453.9404746429318
 21
665.5804628658495
 31
0.0
  0
LINE
  5
158C
330
1F
100
AcDbEntity
  8
AM_VIS
100
AcDbLine
 10
467.4404746429318
 20
724.5804628658495
 30
0.0
 11
467.4404746429318
 21
718.5804628658495
 31
0.0
  0
LINE
  5
158D
330
1F
100
AcDbEntity
  8
AM_VIS
100
AcDbLine
 10
465.0888300411197
 20
733.356920001157
 30
0.0
 11
467.4404746429318
 21
724.5804628658495
 31
0.0
  0
LINE
  5
158E
330
1F
100
AcDbEntity
  8
AM_VIS
100
AcDbLine
 10
405.4404746429318
 20
724.5804628658495
 30
0.0
 11
407.7921192447438
 21
733.356920001157
 31
0.0
  0
LINE
  5
158F
330
1F
100
AcDbEntity
  8
AM_VIS
100
AcDbLine
 10
426.4404746429318
 20
724.5804628658495
 30
0.0
 11
429.4404746429318
 21
724.5804628658495
 31
0.0
  0
LINE
  5
1590
330
1F
100
AcDbEntity
  8
AM_VIS
100
AcDbLine
 10
443.4404746429318
 20
724.5804628658495
 30
0.0
 11
446.4404746429318
 21
724.5804628658495
 31
0.0
  0
LINE
  5
1591
330
1F
100
AcDbEntity
  8
AM_VIS
100
AcDbLine
 10
446.4404746429318
 20
676.5804628658495
 30
0.0
 11
443.4404746429318
 21
676.5804628658495
 31
0.0
  0
LINE
  5
1592
330
1F
100
AcDbEntity
  8
AM_VIS
100
AcDbLine
 10
429.4404746429318
 20
676.5804628658495
 30
0.0
 11
426.4404746429318
 21
676.5804628658495
 31
0.0
  0
LINE
  5
1593
330
1F
100
AcDbEntity
  8
AM_VIS
100
AcDbLine
 10
407.7921192447438
 20
667.804005730542
 30
0.0
 11
405.4404746429318
 21
676.5804628658495
 31
0.0
  0
LINE
  5
1594
330
1F
100
AcDbEntity
  8
AM_VIS
100
AcDbLine
 10
467.4404746429318
 20
676.5804628658495
 30
0.0
 11
465.0888300411197
 21
667.804005730542
 31
0.0
  0
LINE
  5
1595
330
1F
100
AcDbEntity
  8
AM_VIS
100
AcDbLine
 10
453.9404746429318
 20
735.5804628658495
 30
0.0
 11
462.1910525622525
 21
735.5804628658495
 31
0.0
  0
LINE
  5
1596
330
1F
100
AcDbEntity
  8
AM_VIS
100
AcDbLine
 10
418.9404746429318
 20
735.5804628658495
 30
0.0
 11
453.9404746429318
 21
735.5804628658495
 31
0.0
  0
LINE
  5
1597
330
1F
100
AcDbEntity
  8
AM_VIS
100
AcDbLine
 10
410.689896723611
 20
735.5804628658495
 30
0.0
 11
418.9404746429318
 21
735.5804628658495
 31
0.0
  0
LINE
  5
1598
330
1F
100
AcDbEntity
  8
AM_VIS
100
AcDbLine
 10
431.4404752392852
 20
725.0753604154113
 30
0.0
 11
431.4404752392852
 21
724.5648329005936
 31
0.0
  0
LINE
  5
1599
330
1F
100
AcDbEntity
  8
AM_VIS
100
AcDbLine
 10
441.4404752392852
 20
725.0753601719511
 30
0.0
 11
441.4404752392852
 21
724.5648326519515
 31
0.0
  0
LINE
  5
159A
330
1F
100
AcDbEntity
  8
AM_VIS
100
AcDbLine
 10
415.5844329969195
 20
714.3654375433673
 30
0.0
 11
415.9454304646294
 21
714.0044400756574
 31
0.0
  0
LINE
  5
159B
330
1F
100
AcDbEntity
  8
AM_VIS
100
AcDbLine
 10
422.6555009809374
 20
721.4365051830803
 30
0.0
 11
423.0164984523114
 21
721.0755077117062
 31
0.0
  0
LINE
  5
159C
330
1F
100
AcDbEntity
  8
AM_VIS
100
AcDbLine
 10
411.9455770933698
 20
695.5804634622029
 30
0.0
 11
412.4561046081877
 21
695.5804634622029
 31
0.0
  0
LINE
  5
159D
330
1F
100
AcDbEntity
  8
AM_VIS
100
AcDbLine
 10
411.9455773368302
 20
705.5804634622029
 30
0.0
 11
412.4561048568298
 21
705.5804634622029
 31
0.0
  0
LINE
  5
159E
330
1F
100
AcDbEntity
  8
AM_VIS
100
AcDbLine
 10
422.655499965414
 20
679.7244212198372
 30
0.0
 11
423.0164974331239
 21
680.0854186875473
 31
0.0
  0
LINE
  5
159F
330
1F
100
AcDbEntity
  8
AM_VIS
100
AcDbLine
 10
415.5844323257009
 20
686.7954892038552
 30
0.0
 11
415.9454297970751
 21
687.1564866752293
 31
0.0
  0
LINE
  5
15A0
330
1F
100
AcDbEntity
  8
AM_VIS
100
AcDbLine
 10
441.4404740465784
 20
676.5960928311053
 30
0.0
 11
441.4404740465784
 21
676.0855653162876
 31
0.0
  0
LINE
  5
15A1
330
1F
100
AcDbEntity
  8
AM_VIS
100
AcDbLine
 10
431.4404740465784
 20
676.5960930797476
 30
0.0
 11
431.4404740465784
 21
676.0855655597479
 31
0.0
  0
LINE
  5
15A2
330
1F
100
AcDbEntity
  8
AM_VIS
100
AcDbLine
 10
456.935518821234
 20
687.1564856560417
 30
0.0
 11
457.296516288944
 21
686.7954881883317
 31
0.0
  0
LINE
  5
15A3
330
1F
100
AcDbEntity
  8
AM_VIS
100
AcDbLine
 10
449.864450833552
 20
680.0854180199928
 30
0.0
 11
450.2254483049262
 21
679.7244205486187
 31
0.0
  0
LINE
  5
15A4
330
1F
100
AcDbEntity
  8
AM_VIS
100
AcDbLine
 10
460.4248446776759
 20
705.5804622694961
 30
0.0
 11
460.9353721924938
 21
705.5804622694961
 31
0.0
  0
LINE
  5
15A5
330
1F
100
AcDbEntity
  8
AM_VIS
100
AcDbLine
 10
460.4248444290338
 20
695.5804622694961
 30
0.0
 11
460.9353719490335
 21
695.5804622694961
 31
0.0
  0
LINE
  5
15A6
330
1F
100
AcDbEntity
  8
AM_VIS
100
AcDbLine
 10
449.8644518527396
 20
721.0755070441518
 30
0.0
 11
450.2254493204495
 21
721.4365045118617
 31
0.0
  0
LINE
  5
15A7
330
1F
100
AcDbEntity
  8
AM_VIS
100
AcDbLine
 10
456.9355194887885
 20
714.0044390564697
 30
0.0
 11
457.2965169601627
 21
714.3654365278439
 31
0.0
  0
ARC
  5
15A8
330
1F
100
AcDbEntity
  8
AM_VIS
100
AcDbCircle
 10
413.9404746429318
 20
729.5804628658495
 30
0.0
 40
5.0
100
AcDbArc
 50
270.0
 51
0.0
  0
ARC
  5
15A9
330
1F
100
AcDbEntity
  8
AM_VIS
100
AcDbCircle
 10
458.9404746429318
 20
729.5804628658495
 30
0.0
 40
5.0
100
AcDbArc
 50
180.0
 51
270.0
  0
ARC
  5
15AA
330
1F
100
AcDbEntity
  8
AM_VIS
100
AcDbCircle
 10
458.9404746429318
 20
671.5804628658495
 30
0.0
 40
5.0
100
AcDbArc
 50
90.0
 51
180.0
  0
ARC
  5
15AB
330
1F
100
AcDbEntity
  8
AM_VIS
100
AcDbCircle
 10
413.9404746429318
 20
671.5804628658495
 30
0.0
 40
5.0
100
AcDbArc
 50
0.0
 51
90.0
  0
ARC
  5
15AC
330
1F
100
AcDbEntity
  8
AM_VIS
100
AcDbCircle
 10
436.4404746429317
 20
700.5804628658495
 30
0.0
 40
26.0
100
AcDbArc
 50
112.6198649480388
 51
247.3801350519612
  0
ARC
  5
15AD
330
1F
100
AcDbEntity
  8
AM_VIS
100
AcDbCircle
 10
436.4404746429317
 20
700.5804628658495
 30
0.0
 40
26.0
100
AcDbArc
 50
292.6198649480388
 51
67.3801350519612
  0
CIRCLE
  5
15AE
330
1F
100
AcDbEntity
  8
AM_VIS
100
AcDbCircle
 10
436.4404746429317
 20
700.5804628658495
 30
0.0
 40
15.0
  0
ARC
  5
15AF
330
1F
100
AcDbEntity
  8
AM_VIS
100
AcDbCircle
 10
410.689896723611
 20
668.5804628658495
 30
0.0
 40
3.0
100
AcDbArc
 50
194.9999999999992
 51
270.0
  0
ARC
  5
15B0
330
1F
100
AcDbEntity
  8
AM_VIS
100
AcDbCircle
 10
462.1910525622525
 20
668.5804628658495
 30
0.0
 40
3.0
100
AcDbArc
 50
270.0
 51
345.0000000000009
  0
ARC
  5
15B1
330
1F
100
AcDbEntity
  8
AM_VIS
100
AcDbCircle
 10
462.1910525622525
 20
732.5804628658495
 30
0.0
 40
3.0
100
AcDbArc
 50
14.99999999999917
 51
90.0
  0
ARC
  5
15B2
330
1F
100
AcDbEntity
  8
AM_VIS
100
AcDbCircle
 10
410.689896723611
 20
732.5804628658495
 30
0.0
 40
3.0
100
AcDbArc
 50
90.0
 51
165.0000000000008
  0
ARC
  5
15B3
330
1F
100
AcDbEntity
  8
AM_VIS
100
AcDbCircle
 10
436.4404746429317
 20
700.5804628658495
 30
0.0
 40
25.0
100
AcDbArc
 50
78.46303957225861
 51
101.5369576378881
  0
ARC
  5
15B4
330
1F
100
AcDbEntity
  8
AM_VIS
100
AcDbCircle
 10
436.4404746429317
 20
700.5804628658495
 30
0.0
 40
25.0
100
AcDbArc
 50
11.53695763789167
 51
33.46303957225877
  0
ARC
  5
15B5
330
1F
100
AcDbEntity
  8
AM_VIS
100
AcDbCircle
 10
436.4404746429317
 20
700.5804628658495
 30
0.0
 40
25.0
100
AcDbArc
 50
326.5369576378928
 51
348.4630395722602
  0
ARC
  5
15B6
330
1F
100
AcDbEntity
  8
AM_VIS
100
AcDbCircle
 10
436.4404746429317
 20
700.5804628658495
 30
0.0
 40
25.0
100
AcDbArc
 50
281.5369576378881
 51
303.4630395722633
  0
ARC
  5
15B7
330
1F
100
AcDbEntity
  8
AM_VIS
100
AcDbCircle
 10
436.4404746429317
 20
700.5804628658495
 30
0.0
 40
25.0
100
AcDbArc
 50
236.5369576378919
 51
258.4630395722586
  0
ARC
  5
15B8
330
1F
100
AcDbEntity
  8
AM_VIS
100
AcDbCircle
 10
436.4404746429317
 20
700.5804628658495
 30
0.0
 40
25.0
100
AcDbArc
 50
191.5369576378916
 51
213.4630395722588
  0
ARC
  5
15B9
330
1F
100
AcDbEntity
  8
AM_VIS
100
AcDbCircle
 10
436.4404746429317
 20
700.5804628658495
 30
0.0
 40
25.0
100
AcDbArc
 50
146.5369576378927
 51
168.4630395722602
  0
ARC
  5
15BA
330
1F
100
AcDbEntity
  8
AM_VIS
100
AcDbCircle
 10
436.4404746429317
 20
700.5804628658495
 30
0.0
 40
25.0
100
AcDbArc
 50
101.5369576378881
 51
123.4630395722633
  0
ARC
  5
15BB
330
1F
100
AcDbEntity
  8
AM_VIS
100
AcDbCircle
 10
436.4404746429317
 20
700.5804628658495
 30
0.0
 40
24.5
100
AcDbArc
 50
78.22425458951478
 51
101.7757425612493
  0
ARC
  5
15BC
330
1F
100
AcDbEntity
  8
AM_VIS
100
AcDbCircle
 10
436.4404746429317
 20
700.5804628658495
 30
0.0
 40
25.0
100
AcDbArc
 50
56.53695763789184
 51
78.46303957225861
  0
CIRCLE
  5
15BD
330
1F
100
AcDbEntity
  8
AM_VIS
100
AcDbCircle
 10
436.4404746429317
 20
700.5804628658495
 30
0.0
 40
23.0
  0
ARC
  5
15BE
330
1F
100
AcDbEntity
  8
AM_VIS
100
AcDbCircle
 10
436.4404746429317
 20
700.5804628658495
 30
0.0
 40
25.0
100
AcDbArc
 50
123.4630395722633
 51
146.5369576378927
  0
ARC
  5
15BF
330
1F
100
AcDbEntity
  8
AM_VIS
100
AcDbCircle
 10
436.4404746429317
 20
700.5804628658495
 30
0.0
 40
24.5
100
AcDbArc
 50
123.2242545895151
 51
146.7757425612522
  0
ARC
  5
15C0
330
1F
100
AcDbEntity
  8
AM_VIS
100
AcDbCircle
 10
436.4404746429317
 20
700.5804628658495
 30
0.0
 40
25.0
100
AcDbArc
 50
168.4630395722602
 51
191.5369576378916
  0
ARC
  5
15C1
330
1F
100
AcDbEntity
  8
AM_VIS
100
AcDbCircle
 10
436.4404746429317
 20
700.5804628658495
 30
0.0
 40
24.5
100
AcDbArc
 50
168.224254589516
 51
191.7757425612493
  0
ARC
  5
15C2
330
1F
100
AcDbEntity
  8
AM_VIS
100
AcDbCircle
 10
436.4404746429317
 20
700.5804628658495
 30
0.0
 40
25.0
100
AcDbArc
 50
213.4630395722588
 51
236.5369576378919
  0
ARC
  5
15C3
330
1F
100
AcDbEntity
  8
AM_VIS
100
AcDbCircle
 10
436.4404746429317
 20
700.5804628658495
 30
0.0
 40
24.50000000000001
100
AcDbArc
 50
213.2242545895155
 51
236.7757425612527
  0
ARC
  5
15C4
330
1F
100
AcDbEntity
  8
AM_VIS
100
AcDbCircle
 10
436.4404746429317
 20
700.5804628658495
 30
0.0
 40
25.0
100
AcDbArc
 50
258.4630395722586
 51
281.5369576378881
  0
ARC
  5
15C5
330
1F
100
AcDbEntity
  8
AM_VIS
100
AcDbCircle
 10
436.4404746429317
 20
700.5804628658495
 30
0.0
 40
24.5
100
AcDbArc
 50
258.2242545895148
 51
281.7757425612493
  0
ARC
  5
15C6
330
1F
100
AcDbEntity
  8
AM_VIS
100
AcDbCircle
 10
436.4404746429317
 20
700.5804628658495
 30
0.0
 40
25.0
100
AcDbArc
 50
303.4630395722633
 51
326.5369576378928
  0
ARC
  5
15C7
330
1F
100
AcDbEntity
  8
AM_VIS
100
AcDbCircle
 10
436.4404746429317
 20
700.5804628658495
 30
0.0
 40
24.50000000000001
100
AcDbArc
 50
303.2242545895151
 51
326.7757425612523
  0
ARC
  5
15C8
330
1F
100
AcDbEntity
  8
AM_VIS
100
AcDbCircle
 10
436.4404746429317
 20
700.5804628658495
 30
0.0
 40
25.0
100
AcDbArc
 50
348.4630395722602
 51
11.53695763789167
  0
ARC
  5
15C9
330
1F
100
AcDbEntity
  8
AM_VIS
100
AcDbCircle
 10
436.4404746429317
 20
700.5804628658495
 30
0.0
 40
24.5
100
AcDbArc
 50
348.2242545895161
 51
11.77574256124932
  0
ARC
  5
15CA
330
1F
100
AcDbEntity
  8
AM_VIS
100
AcDbCircle
 10
436.4404746429317
 20
700.5804628658495
 30
0.0
 40
25.0
100
AcDbArc
 50
33.46303957225877
 51
56.53695763789184
  0
ARC
  5
15CB
330
1F
100
AcDbEntity
  8
AM_VIS
100
AcDbCircle
 10
436.4404746429317
 20
700.5804628658495
 30
0.0
 40
24.5
100
AcDbArc
 50
33.22425458951557
 51
56.77574256125272
  0
LINE
  5
15CC
330
1F
100
AcDbEntity
  8
AM_VIS
100
AcDbLine
 10
411.2079750356924
 20
730.5816294484493
 30
0.0
 11
412.0745614281636
 21
732.081046270559
 31
0.0
  0
LINE
  5
15CD
330
1F
100
AcDbEntity
  8
AM_VIS
100
AcDbLine
 10
413.8063878577002
 20
732.081046270559
 30
0.0
 11
414.6729742501714
 21
730.5792962832496
 31
0.0
  0
LINE
  5
15CE
330
1F
100
AcDbEntity
  8
AM_VIS
100
AcDbLine
 10
412.0745614281636
 20
732.081046270559
 30
0.0
 11
413.8063878577002
 21
732.081046270559
 31
0.0
  0
LINE
  5
15CF
330
1F
100
AcDbEntity
  8
AM_VIS
100
AcDbLine
 10
412.0745614281636
 20
729.0798794611399
 30
0.0
 11
411.2079750356924
 21
730.5816294484493
 31
0.0
  0
LINE
  5
15D0
330
1F
100
AcDbEntity
  8
AM_VIS
100
AcDbLine
 10
413.8063878577002
 20
729.0798794611399
 30
0.0
 11
412.0745614281636
 21
729.0798794611399
 31
0.0
  0
LINE
  5
15D1
330
1F
100
AcDbEntity
  8
AM_VIS
100
AcDbLine
 10
414.6729742501714
 20
730.5792962832496
 30
0.0
 11
413.8063878577002
 21
729.0798794611399
 31
0.0
  0
CIRCLE
  5
15D2
330
1F
100
AcDbEntity
  8
AM_VIS
100
AcDbCircle
 10
412.9404746429319
 20
730.5804628658495
 30
0.0
 40
3.5
  0
LINE
  5
15D3
330
1F
100
AcDbEntity
  8
AM_VIS
100
AcDbLine
 10
410.2824624092168
 20
728.3034097339659
 30
0.0
 11
410.0737393603199
 21
728.0861034652364
 31
0.0
  0
LINE
  5
15D4
330
1F
100
AcDbEntity
  8
AM_VIS
100
AcDbLine
 10
409.8485688675956
 20
728.3713638014246
 30
0.0
 11
410.0603180377452
 21
728.591820633169
 31
0.0
  0
ARC
  5
15D5
330
1F
100
AcDbEntity
  8
AM_VIS
100
AcDbCircle
 10
412.9404746429319
 20
730.5804628658495
 30
0.0
 40
3.800000000000011
100
AcDbArc
 50
215.544977303373
 51
221.0266782771052
  0
ARC
  5
15D6
330
1F
100
AcDbEntity
  8
AM_VIS
100
AcDbCircle
 10
412.9404746429319
 20
730.5804628658495
 30
0.0
 40
3.800000000000012
100
AcDbArc
 50
221.0266782771052
 51
215.544977303373
  0
LINE
  5
15D7
330
1F
100
AcDbEntity
  8
AM_VIS
100
AcDbLine
 10
412.0745614281638
 20
672.0810462705591
 30
0.0
 11
413.8063878577004
 21
672.0810462705591
 31
0.0
  0
LINE
  5
15D8
330
1F
100
AcDbEntity
  8
AM_VIS
100
AcDbLine
 10
414.6729742501715
 20
670.5816294484495
 30
0.0
 11
413.8063878577004
 21
669.07987946114
 31
0.0
  0
LINE
  5
15D9
330
1F
100
AcDbEntity
  8
AM_VIS
100
AcDbLine
 10
413.8063878577004
 20
672.0810462705591
 30
0.0
 11
414.6729742501715
 21
670.5816294484495
 31
0.0
  0
LINE
  5
15DA
330
1F
100
AcDbEntity
  8
AM_VIS
100
AcDbLine
 10
411.2079750356927
 20
670.5792962832497
 30
0.0
 11
412.0745614281638
 21
672.0810462705591
 31
0.0
  0
LINE
  5
15DB
330
1F
100
AcDbEntity
  8
AM_VIS
100
AcDbLine
 10
412.0745614281638
 20
669.07987946114
 30
0.0
 11
411.2079750356927
 21
670.5792962832497
 31
0.0
  0
LINE
  5
15DC
330
1F
100
AcDbEntity
  8
AM_VIS
100
AcDbLine
 10
413.8063878577004
 20
669.07987946114
 30
0.0
 11
412.0745614281638
 21
669.07987946114
 31
0.0
  0
CIRCLE
  5
15DD
330
1F
100
AcDbEntity
  8
AM_VIS
100
AcDbCircle
 10
412.9404746429321
 20
670.5804628658495
 30
0.0
 40
3.5
  0
LINE
  5
15DE
330
1F
100
AcDbEntity
  8
AM_VIS
100
AcDbLine
 10
410.2824624092169
 20
668.303409733966
 30
0.0
 11
410.07373936032
 21
668.0861034652364
 31
0.0
  0
LINE
  5
15DF
330
1F
100
AcDbEntity
  8
AM_VIS
100
AcDbLine
 10
409.8485688675959
 20
668.3713638014247
 30
0.0
 11
410.0603180377455
 21
668.5918206331692
 31
0.0
  0
ARC
  5
15E0
330
1F
100
AcDbEntity
  8
AM_VIS
100
AcDbCircle
 10
412.940474642932
 20
670.5804628658495
 30
0.0
 40
3.800000000000011
100
AcDbArc
 50
215.544977303373
 51
221.0266782771052
  0
ARC
  5
15E1
330
1F
100
AcDbEntity
  8
AM_VIS
100
AcDbCircle
 10
412.940474642932
 20
670.5804628658495
 30
0.0
 40
3.800000000000012
100
AcDbArc
 50
221.0266782771052
 51
215.544977303373
  0
LINE
  5
15E2
330
1F
100
AcDbEntity
  8
AM_VIS
100
AcDbLine
 10
459.0745614281634
 20
672.081046270559
 30
0.0
 11
460.8063878577
 21
672.081046270559
 31
0.0
  0
LINE
  5
15E3
330
1F
100
AcDbEntity
  8
AM_VIS
100
AcDbLine
 10
461.6729742501712
 20
670.5816294484493
 30
0.0
 11
460.8063878577
 21
669.0798794611399
 31
0.0
  0
LINE
  5
15E4
330
1F
100
AcDbEntity
  8
AM_VIS
100
AcDbLine
 10
460.8063878577
 20
672.081046270559
 30
0.0
 11
461.6729742501712
 21
670.5816294484493
 31
0.0
  0
LINE
  5
15E5
330
1F
100
AcDbEntity
  8
AM_VIS
100
AcDbLine
 10
458.2079750356922
 20
670.5792962832495
 30
0.0
 11
459.0745614281634
 21
672.081046270559
 31
0.0
  0
LINE
  5
15E6
330
1F
100
AcDbEntity
  8
AM_VIS
100
AcDbLine
 10
459.0745614281634
 20
669.0798794611399
 30
0.0
 11
458.2079750356922
 21
670.5792962832496
 31
0.0
  0
LINE
  5
15E7
330
1F
100
AcDbEntity
  8
AM_VIS
100
AcDbLine
 10
460.8063878577
 20
669.0798794611399
 30
0.0
 11
459.0745614281634
 21
669.0798794611399
 31
0.0
  0
CIRCLE
  5
15E8
330
1F
100
AcDbEntity
  8
AM_VIS
100
AcDbCircle
 10
459.9404746429318
 20
670.5804628658494
 30
0.0
 40
3.5
  0
LINE
  5
15E9
330
1F
100
AcDbEntity
  8
AM_VIS
100
AcDbLine
 10
457.2824624092166
 20
668.303409733966
 30
0.0
 11
457.0737393603196
 21
668.0861034652362
 31
0.0
  0
LINE
  5
15EA
330
1F
100
AcDbEntity
  8
AM_VIS
100
AcDbLine
 10
456.8485688675955
 20
668.3713638014246
 30
0.0
 11
457.0603180377452
 21
668.5918206331689
 31
0.0
  0
ARC
  5
15EB
330
1F
100
AcDbEntity
  8
AM_VIS
100
AcDbCircle
 10
459.9404746429318
 20
670.5804628658495
 30
0.0
 40
3.800000000000027
100
AcDbArc
 50
215.5449773033743
 51
221.0266782771052
  0
ARC
  5
15EC
330
1F
100
AcDbEntity
  8
AM_VIS
100
AcDbCircle
 10
459.9404746429318
 20
670.5804628658495
 30
0.0
 40
3.800000000000012
100
AcDbArc
 50
221.0266782771052
 51
215.544977303373
  0
LINE
  5
15ED
330
1F
100
AcDbEntity
  8
AM_VIS
100
AcDbLine
 10
459.0745614281634
 20
732.0810462705589
 30
0.0
 11
460.8063878577
 21
732.0810462705589
 31
0.0
  0
LINE
  5
15EE
330
1F
100
AcDbEntity
  8
AM_VIS
100
AcDbLine
 10
461.6729742501712
 20
730.5816294484493
 30
0.0
 11
460.8063878577
 21
729.0798794611398
 31
0.0
  0
LINE
  5
15EF
330
1F
100
AcDbEntity
  8
AM_VIS
100
AcDbLine
 10
460.8063878577
 20
732.081046270559
 30
0.0
 11
461.6729742501712
 21
730.5816294484493
 31
0.0
  0
LINE
  5
15F0
330
1F
100
AcDbEntity
  8
AM_VIS
100
AcDbLine
 10
458.2079750356922
 20
730.5792962832494
 30
0.0
 11
459.0745614281634
 21
732.0810462705589
 31
0.0
  0
LINE
  5
15F1
330
1F
100
AcDbEntity
  8
AM_VIS
100
AcDbLine
 10
459.0745614281634
 20
729.0798794611398
 30
0.0
 11
458.2079750356922
 21
730.5792962832494
 31
0.0
  0
LINE
  5
15F2
330
1F
100
AcDbEntity
  8
AM_VIS
100
AcDbLine
 10
460.8063878577
 20
729.0798794611398
 30
0.0
 11
459.0745614281634
 21
729.0798794611398
 31
0.0
  0
CIRCLE
  5
15F3
330
1F
100
AcDbEntity
  8
AM_VIS
100
AcDbCircle
 10
459.9404746429318
 20
730.5804628658494
 30
0.0
 40
3.5
  0
LINE
  5
15F4
330
1F
100
AcDbEntity
  8
AM_VIS
100
AcDbLine
 10
457.2824624092166
 20
728.3034097339658
 30
0.0
 11
457.0737393603198
 21
728.0861034652363
 31
0.0
  0
LINE
  5
15F5
330
1F
100
AcDbEntity
  8
AM_VIS
100
AcDbLine
 10
456.8485688675956
 20
728.3713638014246
 30
0.0
 11
457.0603180377453
 21
728.5918206331689
 31
0.0
  0
ARC
  5
15F6
330
1F
100
AcDbEntity
  8
AM_VIS
100
AcDbCircle
 10
459.9404746429318
 20
730.5804628658495
 30
0.0
 40
3.800000000000027
100
AcDbArc
 50
215.5449773033743
 51
221.0266782771052
  0
ARC
  5
15F7
330
1F
100
AcDbEntity
  8
AM_VIS
100
AcDbCircle
 10
459.9404746429318
 20
730.5804628658495
 30
0.0
 40
3.800000000000012
100
AcDbArc
 50
221.0266782771052
 51
215.544977303373
  0
LINE
  5
15FA
330
1F
100
AcDbEntity
  8
AM_7
100
AcDbLine
 10
436.4404746429317
 20
700.5804628658495
 30
0.0
 11
483.4404746429318
 21
700.5804628658495
 31
0.0
1001
GENIUS_GENOREF_13
1005
1607
  0
LINE
  5
15FB
330
1F
100
AcDbEntity
  8
AM_7
100
AcDbLine
 10
436.4404746429317
 20
700.5804628658495
 30
0.0
 11
436.4404746429317
 21
747.5804628658495
 31
0.0
1001
GENIUS_GENOREF_13
1005
1607
  0
LINE
  5
15FC
330
1F
100
AcDbEntity
  8
AM_7
100
AcDbLine
 10
436.4404746429317
 20
700.5804628658495
 30
0.0
 11
389.4404746429318
 21
700.5804628658495
 31
0.0
1001
GENIUS_GENOREF_13
1005
1607
  0
LINE
  5
15FD
330
1F
100
AcDbEntity
  8
AM_7
100
AcDbLine
 10
436.4404746429317
 20
700.5804628658495
 30
0.0
 11
436.4404746429317
 21
653.5804628658495
 31
0.0
1001
GENIUS_GENOREF_13
1005
1607
  0
LINE
  5
15FE
102
{ACAD_REACTORS
330
1C2E
102
}
330
1F
100
AcDbEntity
  8
AM_7
100
AcDbLine
 10
608.207120779726
 20
568.8895578398406
 30
0.0
 11
608.207120779726
 21
218.6134835306809
 31
0.0
1001
GENIUS_GENOBJ-N-CEN_13
1002
{
1000
OWNER
1000
GEN
1002
}
1001
GENIUS_GENODEF_13
1002
{
1000
HIER
1070
     0
1002
}
1002
{
1000
MANEDIT
1070
     0
1002
}
1002
{
1000
NOSEL
1070
     0
1002
}
1002
{
1000
BEHIND
1070
     0
1002
}
1002
{
1000
OTHER
1070
     0
1002
}
1002
{
1000
REACTOR
1002
}
1001
GENIUS_GENCEN_19
1002
{
1040
2.0
1002
}
  0
LINE
  5
15FF
102
{ACAD_REACTORS
330
1D11
102
}
330
1F
100
AcDbEntity
  8
AM_7
100
AcDbLine
 10
608.207120779726
 20
442.6386498159761
 30
0.0
 11
650.8167576815267
 21
442.6386498159761
 31
0.0
1001
GENIUS_GENOREF_13
1005
1606
  0
LINE
  5
1600
330
1F
100
AcDbEntity
  8
AM_7
100
AcDbLine
 10
608.207120779726
 20
442.6386498159761
 30
0.0
 11
608.207120779726
 21
463.1386498159761
 31
0.0
1001
GENIUS_GENOREF_13
1005
1606
  0
LINE
  5
1601
330
1F
100
AcDbEntity
  8
AM_7
100
AcDbLine
 10
608.207120779726
 20
442.6386498159761
 30
0.0
 11
565.9046926214814
 21
442.6386498159761
 31
0.0
1001
GENIUS_GENOREF_13
1005
1606
  0
LINE
  5
1602
330
1F
100
AcDbEntity
  8
AM_7
100
AcDbLine
 10
608.207120779726
 20
442.6386498159761
 30
0.0
 11
608.207120779726
 21
422.1386498159761
 31
0.0
1001
GENIUS_GENOREF_13
1005
1606
  0
LINE
  5
1603
330
1F
100
AcDbEntity
  8
AM_7
100
AcDbLine
 10
436.4404746429317
 20
568.8895578398406
 30
0.0
 11
436.4404746429317
 21
218.6134835306809
 31
0.0
1001
GENIUS_GENOBJ-N-CEN_13
1002
{
1000
OWNER
1000
GEN
1002
}
1001
GENIUS_GENODEF_13
1002
{
1000
HIER
1070
     0
1002
}
1002
{
1000
MANEDIT
1070
     0
1002
}
1002
{
1000
NOSEL
1070
     0
1002
}
1002
{
1000
BEHIND
1070
     0
1002
}
1002
{
1000
OTHER
1070
     0
1002
}
1002
{
1000
REACTOR
1002
}
1001
GENIUS_GENCEN_19
1002
{
1040
2.0
1002
}
  0
LINE
  5
1604
330
1F
100
AcDbEntity
  8
AM_7
  6
AM_ISO08W050x2
100
AcDbLine
 10
436.4404746429317
 20
442.6386498159761
 30
0.0
 11
443.2904746429318
 21
442.6386498159761
 31
0.0
  0
LINE
  5
1605
330
1F
100
AcDbEntity
  8
AM_7
  6
AM_ISO08W050x2
100
AcDbLine
 10
436.4404746429317
 20
442.6386498159761
 30
0.0
 11
429.5904746429317
 21
442.6386498159761
 31
0.0
  0
POINT
  5
1606
330
1F
100
AcDbEntity
  8
0
 60
     1
100
AcDbPoint
 10
371.2952328244266
 20
52.82364670553556
 30
0.0
1001
GENIUS_GENODEF_13
1002
{
1000
HIER
1070
    10
1002
}
1002
{
1000
MANEDIT
1070
     0
1002
}
1002
{
1000
NOSEL
1070
     0
1002
}
1002
{
1000
BEHIND
1070
     0
1002
}
1002
{
1000
OTHER
1070
     0
1002
}
1002
{
1000
REACTOR
1002
}
1001
GENIUS_GENOBJ-N-CRS_13
1002
{
1000
OWNER
1000
GEN
1002
}
1001
GENIUS_GENOLIS_13
1002
{
1000
ENT
1005
1602
1005
1601
1005
1600
1005
15FF
1002
}
1001
GENIUS_GENOENT_13
1002
{
1000
MYREF
1005
1606
1002
}
1002
{
1000
GRP
1005
0
1002
}
  0
POINT
  5
1607
330
1F
100
AcDbEntity
  8
0
 60
     1
100
AcDbPoint
 10
371.2952328244266
 20
52.82364670553556
 30
0.0
1001
GENIUS_GENOLIS_13
1002
{
1000
ENT
1005
15FD
1005
15FC
1005
15FB
1005
15FA
1002
}
1001
GENIUS_GENOENT_13
1002
{
1000
MYREF
1005
1607
1002
}
1002
{
1000
GRP
1005
0
1002
}
1001
GENIUS_GENOBJ-N-CRS_13
1002
{
1000
OWNER
1000
GEN
1002
}
1001
GENIUS_GENODEF_13
1002
{
1000
HIER
1070
    10
1002
}
1002
{
1000
MANEDIT
1070
     0
1002
}
1002
{
1000
NOSEL
1070
     0
1002
}
1002
{
1000
BEHIND
1070
     0
1002
}
1002
{
1000
OTHER
1070
     0
1002
}
1002
{
1000
REACTOR
1002
}
  0
LINE
  5
1608
330
1F
100
AcDbEntity
  8
0
100
AcDbLine
 10
438.9604746429319
 20
225.4386498159762
 30
0.0
 11
439.4404746429318
 21
226.9986498159762
 31
0.0
  0
LINE
  5
1609
330
1F
100
AcDbEntity
  8
0
100
AcDbLine
 10
433.9204746429319
 20
225.4386498159761
 30
0.0
 11
433.4404746429318
 21
226.9986498159762
 31
0.0
  0
LINE
  5
160A
330
1F
100
AcDbEntity
  8
0
100
AcDbLine
 10
433.4404746429318
 20
225.4386498159761
 30
0.0
 11
439.4404746429318
 21
225.4386498159761
 31
0.0
  0
LINE
  5
160B
102
{ACAD_REACTORS
330
173F
330
1790
102
}
330
1F
100
AcDbEntity
  8
0
100
AcDbLine
 10
433.9204746429319
 20
223.638649815976
 30
0.0
 11
438.9604746429319
 21
223.6386498159761
 31
0.0
  0
LINE
  5
160C
330
1F
100
AcDbEntity
  8
0
100
AcDbLine
 10
433.4404746429318
 20
225.4386498159761
 30
0.0
 11
433.4404746429318
 21
225.1986498159761
 31
0.0
  0
LINE
  5
160D
102
{ACAD_REACTORS
330
199D
102
}
330
1F
100
AcDbEntity
  8
0
100
AcDbLine
 10
433.9204746429319
 20
223.6386498159761
 30
0.0
 11
433.4404746429318
 21
225.1986498159761
 31
0.0
  0
LINE
  5
160E
330
1F
100
AcDbEntity
  8
0
100
AcDbLine
 10
439.4404746429318
 20
225.4386498159761
 30
0.0
 11
439.4404746429318
 21
225.1986498159761
 31
0.0
  0
LINE
  5
160F
102
{ACAD_REACTORS
330
199D
102
}
330
1F
100
AcDbEntity
  8
0
100
AcDbLine
 10
438.9604746429319
 20
223.6386498159761
 30
0.0
 11
439.4404746429318
 21
225.1986498159761
 31
0.0
  0
LINE
  5
1610
330
1F
100
AcDbEntity
  8
0
100
AcDbLine
 10
433.4404746429318
 20
232.6386498159761
 30
0.0
 11
433.4404746429318
 21
228.7986498159761
 31
0.0
  0
LINE
  5
1611
330
1F
100
AcDbEntity
  8
0
100
AcDbLine
 10
439.4404746429318
 20
232.6386498159761
 30
0.0
 11
439.4404746429318
 21
228.7986498159762
 31
0.0
  0
LINE
  5
1612
330
1F
100
AcDbEntity
  8
0
100
AcDbLine
 10
433.4404746429318
 20
227.2386498159761
 30
0.0
 11
439.4404746429318
 21
227.2386498159762
 31
0.0
  0
LINE
  5
1613
330
1F
100
AcDbEntity
  8
0
100
AcDbLine
 10
433.4404746429318
 20
228.7986498159762
 30
0.0
 11
439.4404746429318
 21
228.7986498159762
 31
0.0
  0
LINE
  5
1614
330
1F
100
AcDbEntity
  8
0
100
AcDbLine
 10
433.9204746429319
 20
227.2386498159762
 30
0.0
 11
433.4404746429318
 21
228.7986498159762
 31
0.0
  0
LINE
  5
1615
330
1F
100
AcDbEntity
  8
0
100
AcDbLine
 10
433.4404746429318
 20
227.2386498159761
 30
0.0
 11
433.4404746429318
 21
226.9986498159762
 31
0.0
  0
LINE
  5
1616
330
1F
100
AcDbEntity
  8
0
100
AcDbLine
 10
438.9604746429319
 20
227.2386498159762
 30
0.0
 11
439.4404746429318
 21
228.7986498159762
 31
0.0
  0
LINE
  5
1617
330
1F
100
AcDbEntity
  8
0
100
AcDbLine
 10
439.4404746429318
 20
227.2386498159762
 30
0.0
 11
439.4404746429318
 21
226.9986498159762
 31
0.0
  0
LINE
  5
1619
330
1F
100
AcDbEntity
  8
0
100
AcDbLine
 10
610.7271207797261
 20
225.4386498159762
 30
0.0
 11
611.2071207797259
 21
226.9986498159762
 31
0.0
  0
LINE
  5
161A
330
1F
100
AcDbEntity
  8
0
100
AcDbLine
 10
605.6871207797261
 20
225.4386498159761
 30
0.0
 11
605.207120779726
 21
226.9986498159762
 31
0.0
  0
LINE
  5
161B
330
1F
100
AcDbEntity
  8
0
100
AcDbLine
 10
605.207120779726
 20
225.4386498159761
 30
0.0
 11
611.2071207797259
 21
225.4386498159761
 31
0.0
  0
LINE
  5
161C
330
1F
100
AcDbEntity
  8
0
100
AcDbLine
 10
605.6871207797261
 20
223.638649815976
 30
0.0
 11
610.7271207797261
 21
223.6386498159761
 31
0.0
  0
LINE
  5
161D
330
1F
100
AcDbEntity
  8
0
100
AcDbLine
 10
605.207120779726
 20
225.4386498159761
 30
0.0
 11
605.207120779726
 21
225.1986498159761
 31
0.0
  0
LINE
  5
161E
330
1F
100
AcDbEntity
  8
0
100
AcDbLine
 10
605.6871207797261
 20
223.6386498159761
 30
0.0
 11
605.207120779726
 21
225.1986498159761
 31
0.0
  0
LINE
  5
161F
330
1F
100
AcDbEntity
  8
0
100
AcDbLine
 10
611.2071207797259
 20
225.4386498159761
 30
0.0
 11
611.2071207797259
 21
225.1986498159761
 31
0.0
  0
LINE
  5
1620
330
1F
100
AcDbEntity
  8
0
100
AcDbLine
 10
610.7271207797261
 20
223.6386498159761
 30
0.0
 11
611.2071207797259
 21
225.1986498159761
 31
0.0
  0
LINE
  5
1621
330
1F
100
AcDbEntity
  8
0
100
AcDbLine
 10
605.207120779726
 20
232.6386498159761
 30
0.0
 11
605.207120779726
 21
228.7986498159761
 31
0.0
  0
LINE
  5
1622
330
1F
100
AcDbEntity
  8
0
100
AcDbLine
 10
611.2071207797259
 20
232.6386498159761
 30
0.0
 11
611.2071207797259
 21
228.7986498159762
 31
0.0
  0
LINE
  5
1623
330
1F
100
AcDbEntity
  8
0
100
AcDbLine
 10
605.207120779726
 20
227.2386498159761
 30
0.0
 11
611.2071207797259
 21
227.2386498159762
 31
0.0
  0
LINE
  5
1624
330
1F
100
AcDbEntity
  8
0
100
AcDbLine
 10
605.207120779726
 20
228.7986498159762
 30
0.0
 11
611.2071207797259
 21
228.7986498159762
 31
0.0
  0
LINE
  5
1625
330
1F
100
AcDbEntity
  8
0
100
AcDbLine
 10
605.6871207797261
 20
227.2386498159762
 30
0.0
 11
605.207120779726
 21
228.7986498159762
 31
0.0
  0
LINE
  5
1626
330
1F
100
AcDbEntity
  8
0
100
AcDbLine
 10
605.207120779726
 20
227.2386498159761
 30
0.0
 11
605.207120779726
 21
226.9986498159762
 31
0.0
  0
LINE
  5
1627
330
1F
100
AcDbEntity
  8
0
100
AcDbLine
 10
610.7271207797261
 20
227.2386498159762
 30
0.0
 11
611.2071207797259
 21
228.7986498159762
 31
0.0
  0
LINE
  5
1628
330
1F
100
AcDbEntity
  8
0
100
AcDbLine
 10
611.2071207797259
 20
227.2386498159762
 30
0.0
 11
611.2071207797259
 21
226.9986498159762
 31
0.0
  0
LWPOLYLINE
  5
16A5
330
1F
100
AcDbEntity
  8
LOGO
 62
     4
100
AcDbPolyline
 90
        4
 70
     1
 43
0.0
 10
257.7371887543434
 20
147.6085300515055
 10
784.417188754343
 20
147.6085300515055
 10
784.417188754343
 20
819.1331561872509
 10
257.7371887543434
 20
819.1331561872509
1001
GENIUS_GENREC_14
1002
{
1000
PYDIR
1011
257.7371887543434
1021
819.1331561872509
1031
0.0
1002
}
1002
{
1000
PXDIR
1011
784.417188754343
1021
147.6085300515055
1031
0.0
1002
}
1002
{
1000
PORI
1011
257.7371887543434
1021
147.6085300515055
1031
0.0
1002
}
1002
{
1000
PINS
1011
257.7371887543434
1021
147.6085300515055
1031
0.0
1002
}
1002
{
1000
PINS2
1011
784.417188754343
1021
819.1331561872509
1031
0.0
1002
}
1002
{
1000
C
1070
     1
1002
}
1001
GENIUS_GENODEF_13
1002
{
1000
HIER
1070
     0
1002
}
1002
{
1000
MANEDIT
1070
     0
1002
}
1002
{
1000
NOSEL
1070
     0
1002
}
1002
{
1000
BEHIND
1070
     0
1002
}
1002
{
1000
OTHER
1070
     0
1002
}
1002
{
1000
REACTOR
1002
}
1001
GENIUS_GENOBJ-N-REC_13
1002
{
1000
OWNER
1000
GEN
1002
}
  0
LWPOLYLINE
  5
16A6
330
1F
100
AcDbEntity
  8
LOGO
 62
     4
100
AcDbPolyline
 90
        4
 70
     1
 43
0.0
 10
257.7371887543434
 20
147.6085300515055
 10
784.417188754343
 20
147.6085300515055
 10
784.417188754343
 20
94.9481561872513
 10
257.7371887543434
 20
94.9481561872513
1001
GENIUS_GENREC_14
1002
{
1000
PYDIR
1011
257.7371887543434
1021
94.9481561872513
1031
0.0
1002
}
1002
{
1000
PXDIR
1011
784.417188754343
1021
147.6085300515055
1031
0.0
1002
}
1002
{
1000
PORI
1011
257.7371887543434
1021
147.6085300515055
1031
0.0
1002
}
1002
{
1000
PINS
1011
257.7371887543434
1021
147.6085300515055
1031
0.0
1002
}
1002
{
1000
PINS2
1011
784.417188754343
1021
94.9481561872513
1031
0.0
1002
}
1002
{
1000
C
1070
     1
1002
}
1001
GENIUS_GENOBJ-N-REC_13
1002
{
1000
OWNER
1000
GEN
1002
}
1001
GENIUS_GENODEF_13
1002
{
1000
HIER
1070
     0
1002
}
1002
{
1000
MANEDIT
1070
     0
1002
}
1002
{
1000
NOSEL
1070
     0
1002
}
1002
{
1000
BEHIND
1070
     0
1002
}
1002
{
1000
OTHER
1070
     0
1002
}
1002
{
1000
REACTOR
1002
}
  0
TEXT
  5
16A7
330
1F
100
AcDbEntity
  8
LOGO
 62
     7
100
AcDbText
 10
376.6408260633992
 20
124.5389163544084
 30
0.0
 40
7.021383181900451
  1
Order example:
 41
0.8
  7
CHINESET
100
AcDbText
  0
TEXT
  5
16A8
330
1F
100
AcDbEntity
  8
LOGO
 62
     7
100
AcDbText
 10
377.9005202707089
 20
134.4235700785861
 30
0.0
 40
10.53207477285067
  1
訂購代號：
  7
CHINESET
100
AcDbText
  0
LINE
  5
16A9
330
1F
100
AcDbEntity
  8
LOGO
 62
     4
100
AcDbLine
 10
373.5900112557008
 20
94.94815618725183
 30
0.0
 11
373.5900112557008
 21
147.6085300515055
 31
0.0
  0
TEXT
  5
16AA
330
1F
100
AcDbEntity
  8
LOGO
  6
Continuous
100
AcDbText
 10
276.6530317593435
 20
105.2932071614512
 30
0.0
 40
7.899056079638009
  1
金器工業股份有限公司
  7
CHINESET
100
AcDbText
  0
TEXT
  5
16AB
330
1F
100
AcDbEntity
  8
LOGO
  6
Continuous
100
AcDbText
 10
262.1440284922272
 20
97.39260348613157
 30
0.0
 40
5.266037386425337
  1
MINDMAN INDUSTRIAL CO., LTD.
 41
0.85
  7
CHINESET
100
AcDbText
  0
LINE
  5
16AC
330
1F
100
AcDbEntity
  8
LOGO
 62
     4
100
AcDbLine
 10
373.5900112557008
 20
137.0764552786548
 30
0.0
 11
296.3547962547955
 21
137.0764552786548
 31
0.0
  0
LINE
  5
16AD
330
1F
100
AcDbEntity
  8
LOGO
 62
     4
100
AcDbLine
 10
373.5900112557008
 20
126.544380505804
 30
0.0
 11
296.3547962547955
 21
126.544380505804
 31
0.0
  0
LINE
  5
16AE
330
1F
100
AcDbEntity
  8
LOGO
 62
     4
100
AcDbLine
 10
373.5900112557008
 20
116.0123057329539
 30
0.0
 11
257.7371887543433
 21
116.0123057329539
 31
0.0
  0
LINE
  5
16AF
330
1F
100
AcDbEntity
  8
LOGO
 62
     4
100
AcDbLine
 10
296.3547962547955
 20
116.0123057329539
 30
0.0
 11
296.3547962547955
 21
147.6085300515055
 31
0.0
  0
TEXT
  5
16B0
330
1F
100
AcDbEntity
  8
LOGO
100
AcDbText
 10
349.1414202612933
 20
118.6453244261657
 30
0.0
 40
5.266037386425337
  1
mm
  7
CHINESET
 72
     1
 11
355.661276073058
 21
121.2783431193783
 31
0.0
100
AcDbText
 73
     2
  0
TEXT
  5
16B1
330
1F
100
AcDbEntity
  8
LOGO
100
AcDbText
 10
346.3830197255467
 20
139.7094739718672
 30
0.0
 40
5.266037386425337
  1
1 : 1
  7
CHINESET
 72
     1
 11
355.661276073058
 21
142.3424926650799
 31
0.0
100
AcDbText
 73
     2
  0
LINE
  5
16B2
330
1F
100
AcDbEntity
  8
LOGO
 62
     4
100
AcDbLine
 10
338.4830953461982
 20
116.0123057329539
 30
0.0
 11
338.4830953461982
 21
147.6085300515055
 31
0.0
  0
CIRCLE
  5
16B3
330
1F
100
AcDbEntity
  8
LOGO
  6
Continuous
100
AcDbCircle
 10
348.2338222327087
 20
131.821681984735
 30
0.0
 40
3.05758525510635
  0
CIRCLE
  5
16B4
330
1F
100
AcDbEntity
  8
LOGO
  6
Continuous
100
AcDbCircle
 10
348.2338222327087
 20
131.821681984735
 30
0.0
 40
1.791474286783983
  0
LINE
  5
16B5
330
1F
100
AcDbEntity
  8
LOGO
100
AcDbLine
 10
367.4480427629867
 20
128.7640967296281
 30
0.0
 11
367.4480427629867
 21
134.879267239842
 31
0.0
  0
LINE
  5
16B6
330
1F
100
AcDbEntity
  8
LOGO
100
AcDbLine
 10
357.862688501997
 20
130.0302076979514
 30
0.0
 11
357.862688501997
 21
133.6131562715193
 31
0.0
  0
LINE
  5
16B7
330
1F
100
AcDbEntity
  8
LOGO
  6
Continuous
100
AcDbLine
 10
357.862688501997
 20
133.6131562715193
 30
0.0
 11
367.4480427629867
 21
134.879267239842
 31
0.0
  0
LINE
  5
16B8
330
1F
100
AcDbEntity
  8
LOGO
  6
Continuous
100
AcDbLine
 10
357.862688501997
 20
130.0302076979514
 30
0.0
 11
367.4480427629867
 21
128.7640967296281
 31
0.0
  0
TEXT
  5
16B9
330
1F
100
AcDbEntity
  8
LOGO
100
AcDbText
 10
300.6969261890489
 20
139.7120655256991
 30
345.1274150165151
 40
5.266037386425337
  1
比例 Scale:
 41
0.9
  7
CHINESET
 72
     4
 11
317.4189458004969
 21
142.3424926650799
 31
345.1274150165151
100
AcDbText
  0
TEXT
  5
16BA
330
1F
100
AcDbEntity
  8
LOGO
100
AcDbText
 10
300.3936588574199
 20
129.2514744460449
 30
345.1274150165151
 40
5.266037386425337
  1
投影  View:
 41
0.9
  7
CHINESET
 72
     4
 11
317.4189458004969
 21
131.8104178922291
 31
345.1274150165151
100
AcDbText
  0
TEXT
  5
16BB
330
1F
100
AcDbEntity
  8
LOGO
100
AcDbText
 10
300.908508048325
 20
118.6453244261657
 30
345.1274150165151
 40
5.266037386425337
  1
單位  Unit:
 41
0.9
  7
CHINESET
 72
     4
 11
317.4189458004969
 21
121.2783431193783
 31
345.1274150165151
100
AcDbText
  0
SOLID
  5
16BC
330
1F
100
AcDbEntity
  8
LOGO
 62
     5
100
AcDbTrace
 10
263.2007870562311
 20
124.7663433264883
 30
0.0
 11
265.4776834413004
 21
124.7663433264877
 31
0.0
 12
274.9778373238304
 22
146.3576021504217
 32
0.0
 13
277.2547337089009
 23
146.3576021504205
 33
0.0
  0
SOLID
  5
16BD
330
1F
100
AcDbEntity
  8
LOGO
 62
     5
100
AcDbTrace
 10
266.4198474627107
 20
124.7663433264883
 30
0.0
 11
268.6967438477799
 21
124.7663433264883
 31
0.0
 12
277.2547337089009
 22
144.6303014445062
 32
0.0
 13
274.9778373238304
 23
136.2816813659186
 33
0.0
  0
SOLID
  5
16BE
330
1F
100
AcDbEntity
  8
LOGO
 62
     2
100
AcDbTrace
 10
265.4776834413004
 20
124.7663433264877
 30
0.0
 11
266.4198474627107
 21
124.7663433264883
 31
0.0
 12
277.2547337089009
 22
146.3576021504205
 32
0.0
 13
278.19689773031
 23
146.3576021504205
 33
0.0
  0
SOLID
  5
16BF
330
1F
100
AcDbEntity
  8
LOGO
 62
     5
100
AcDbTrace
 10
259.5503637875758
 20
116.9149764814222
 30
0.0
 11
260.3355004720832
 21
116.9149764814222
 31
0.0
 12
262.5465064858096
 22
120.8406599039549
 32
0.0
 13
263.3316431703148
 23
120.8406599039549
 33
0.0
  0
SOLID
  5
16C0
330
1F
100
AcDbEntity
  8
LOGO
 62
     5
100
AcDbTrace
 10
262.5465064858096
 20
120.8406599039549
 30
0.0
 11
263.3316431703148
 21
120.8406599039549
 31
0.0
 12
262.5465064858096
 22
116.9149764814222
 32
0.0
 13
263.3316431703148
 23
116.9149764814222
 33
0.0
  0
SOLID
  5
16C1
330
1F
100
AcDbEntity
  8
LOGO
 62
     5
100
AcDbTrace
 10
262.5465064858096
 20
116.9149764814222
 30
0.0
 11
263.3316431703148
 21
116.9149764814222
 31
0.0
 12
265.5426491840447
 22
120.8406599039549
 32
0.0
 13
266.327785868551
 23
120.8406599039549
 33
0.0
  0
SOLID
  5
16C2
330
1F
100
AcDbEntity
  8
LOGO
 62
     5
100
AcDbTrace
 10
265.5426491840447
 20
120.8406599039549
 30
0.0
 11
266.327785868551
 21
120.8406599039549
 31
0.0
 12
265.5426491840447
 22
116.9149764814222
 32
0.0
 13
266.327785868551
 23
116.9149764814222
 33
0.0
  0
POLYLINE
  5
16C3
330
1F
100
AcDbEntity
  8
LOGO
 62
     5
100
AcDb2dPolyline
 66
     1
 10
0.0
 20
0.0
 30
0.0
 40
0.7863949163728505
 41
0.7863949163728505
  0
VERTEX
  5
16C4
330
16C3
100
AcDbEntity
  8
LOGO
 62
     5
100
AcDbVertex
100
AcDb2dVertex
 10
291.8601633885249
 20
119.2703865349418
 30
0.0
 42
1.0
  0
VERTEX
  5
16C5
330
16C3
100
AcDbEntity
  8
LOGO
 62
     5
100
AcDbVertex
100
AcDb2dVertex
 10
289.5009786394058
 20
119.2703865349418
 30
0.0
 42
1.0
  0
SEQEND
  5
16C6
330
16C3
100
AcDbEntity
  8
LOGO
 62
     5
  0
POLYLINE
  5
16C7
330
1F
100
AcDbEntity
  8
LOGO
 62
     5
100
AcDb2dPolyline
 66
     1
 10
0.0
 20
0.0
 30
0.0
 70
     1
  0
VERTEX
  5
16C8
330
16C7
100
AcDbEntity
  8
LOGO
 62
     5
100
AcDbVertex
100
AcDb2dVertex
 10
285.0538104507785
 20
118.877818192688
 30
0.0
 42
1.000000057330635
  0
VERTEX
  5
16C9
330
16C7
100
AcDbEntity
  8
LOGO
 62
     5
100
AcDbVertex
100
AcDb2dVertex
 10
287.4092205042987
 20
118.877818192688
 30
0.0
 42
1.000000057330635
  0
SEQEND
  5
16CA
330
16C7
100
AcDbEntity
  8
LOGO
 62
     5
  0
CIRCLE
  5
16CB
330
1F
100
AcDbEntity
  8
LOGO
 62
     5
100
AcDbCircle
 10
286.2315154775402
 20
118.877818192688
 30
0.0
 40
1.177705026759981
  0
POLYLINE
  5
16CC
330
1F
100
AcDbEntity
  8
LOGO
 62
     5
100
AcDb2dPolyline
 66
     1
 10
0.0
 20
0.0
 30
0.0
 70
     1
 40
0.7863949163728505
 41
0.7863949163728505
  0
VERTEX
  5
16CD
330
16CC
100
AcDbEntity
  8
LOGO
 62
     5
100
AcDbVertex
100
AcDb2dVertex
 10
284.6587256447935
 20
118.877818192688
 30
0.0
 42
1.0
  0
VERTEX
  5
16CE
330
16CC
100
AcDbEntity
  8
LOGO
 62
     5
100
AcDbVertex
100
AcDb2dVertex
 10
287.8043053102848
 20
118.877818192688
 30
0.0
 42
1.0
  0
SEQEND
  5
16CF
330
16CC
100
AcDbEntity
  8
LOGO
 62
     5
  0
LINE
  5
16D0
330
1F
100
AcDbEntity
  8
LOGO
100
AcDbLine
 10
292.2508443829774
 20
116.9149764814222
 30
0.0
 11
292.2508443829774
 21
119.2703865349418
 31
0.0
  0
SOLID
  5
16D1
330
1F
100
AcDbEntity
  8
LOGO
 62
     5
100
AcDbTrace
 10
287.4091419906336
 20
120.8406599039549
 30
0.0
 11
288.1942786751387
 21
120.8406599039549
 31
0.0
 12
287.4091419906336
 22
116.9149764814222
 32
0.0
 13
288.1942786751387
 23
116.9149764814222
 33
0.0
  0
SOLID
  5
16D2
330
1F
100
AcDbEntity
  8
LOGO
 62
     5
100
AcDbTrace
 10
289.1102976449511
 20
116.9149764814222
 30
0.0
 11
289.8954343294586
 21
116.9149764814222
 31
0.0
 12
289.1102976449511
 22
120.8406599039549
 32
0.0
 13
289.8954343294586
 23
120.8406599039549
 33
0.0
  0
SOLID
  5
16D3
330
1F
100
AcDbEntity
  8
LOGO
 62
     5
100
AcDbTrace
 10
291.4657076984724
 20
119.2703865349418
 30
0.0
 11
292.2508443829774
 21
119.2703865349418
 31
0.0
 12
291.4657076984724
 22
116.9149764814222
 32
0.0
 13
292.2508443829774
 23
116.9149764814222
 33
0.0
  0
SOLID
  5
16D4
330
1F
100
AcDbEntity
  8
LOGO
 62
     5
100
AcDbTrace
 10
289.0317839765002
 20
144.6303014445062
 30
0.0
 11
286.7548875914321
 21
136.2816813659186
 31
0.0
 12
289.0317839765002
 22
124.7663433264877
 32
0.0
 13
286.7548875914321
 23
124.7663433264877
 33
0.0
  0
SOLID
  5
16D5
330
1F
100
AcDbEntity
  8
LOGO
 62
     5
100
AcDbTrace
 10
289.9739479979094
 20
124.7663433264877
 30
0.0
 11
292.2508443829774
 21
124.7663433264877
 31
0.0
 12
289.9739479979094
 22
146.3576021504205
 32
0.0
 13
292.2508443829774
 23
146.3576021504217
 33
0.0
  0
SOLID
  5
16D6
330
1F
100
AcDbEntity
  8
LOGO
 62
     2
100
AcDbTrace
 10
289.0317839765002
 20
146.3576021504217
 30
0.0
 11
289.9739479979094
 21
146.3576021504205
 31
0.0
 12
289.0317839765002
 22
124.7663433264877
 32
0.0
 13
289.9739479979094
 23
124.7663433264877
 33
0.0
  0
POLYLINE
  5
16D7
330
1F
100
AcDbEntity
  8
LOGO
 62
     5
100
AcDb2dPolyline
 66
     1
 10
0.0
 20
0.0
 30
0.0
 40
0.7863949163728505
 41
0.7863949163728505
  0
VERTEX
  5
16D8
330
16D7
100
AcDbEntity
  8
LOGO
 62
     5
100
AcDbVertex
100
AcDb2dVertex
 10
280.6064852348173
 20
119.2703865349418
 30
0.0
 42
1.0
  0
VERTEX
  5
16D9
330
16D7
100
AcDbEntity
  8
LOGO
 62
     5
100
AcDbVertex
100
AcDb2dVertex
 10
278.2473004856984
 20
119.2703865349418
 30
0.0
 42
1.0
  0
SEQEND
  5
16DA
330
16D7
100
AcDbEntity
  8
LOGO
 62
     5
  0
POLYLINE
  5
16DB
330
1F
100
AcDbEntity
  8
LOGO
 62
     5
100
AcDb2dPolyline
 66
     1
 10
0.0
 20
0.0
 30
0.0
 40
0.7863949163728505
 41
0.7863949163728505
  0
VERTEX
  5
16DC
330
16DB
100
AcDbEntity
  8
LOGO
 62
     5
100
AcDbVertex
100
AcDb2dVertex
 10
282.9618952883352
 20
119.2703865349418
 30
0.0
 42
1.0
  0
VERTEX
  5
16DD
330
16DB
100
AcDbEntity
  8
LOGO
 62
     5
100
AcDbVertex
100
AcDb2dVertex
 10
280.6027105392173
 20
119.2703865349418
 30
0.0
 42
1.0
  0
SEQEND
  5
16DE
330
16DB
100
AcDbEntity
  8
LOGO
 62
     5
  0
POLYLINE
  5
16DF
330
1F
100
AcDbEntity
  8
LOGO
 62
     5
100
AcDb2dPolyline
 66
     1
 10
0.0
 20
0.0
 30
0.0
 40
0.7863949163728505
 41
0.7863949163728505
  0
VERTEX
  5
16E0
330
16DF
100
AcDbEntity
  8
LOGO
 62
     5
100
AcDbVertex
100
AcDb2dVertex
 10
271.7082171346277
 20
119.2703865349418
 30
0.0
 42
1.0
  0
VERTEX
  5
16E1
330
16DF
100
AcDbEntity
  8
LOGO
 62
     5
100
AcDbVertex
100
AcDb2dVertex
 10
269.34903238551
 20
119.2703865349418
 30
0.0
 42
1.0
  0
SEQEND
  5
16E2
330
16DF
100
AcDbEntity
  8
LOGO
 62
     5
  0
SOLID
  5
16E3
330
1F
100
AcDbEntity
  8
LOGO
 62
     5
100
AcDbTrace
 10
268.9583513910562
 20
120.8406599039549
 30
0.0
 11
269.7434880755614
 21
120.8406599039549
 31
0.0
 12
268.9583513910562
 22
116.9149764814222
 32
0.0
 13
269.7434880755614
 23
116.9149764814222
 33
0.0
  0
SOLID
  5
16E4
330
1F
100
AcDbEntity
  8
LOGO
 62
     5
100
AcDbTrace
 10
271.3137614445762
 20
119.2703865349418
 30
0.0
 11
272.0988981290837
 21
119.2703865349418
 31
0.0
 12
271.3137614445762
 22
116.9149764814222
 32
0.0
 13
272.0988981290837
 23
116.9149764814222
 33
0.0
  0
POLYLINE
  5
16E5
330
1F
100
AcDbEntity
  8
LOGO
 62
     5
100
AcDb2dPolyline
 66
     1
 10
0.0
 20
0.0
 30
0.0
 70
     1
 40
0.7863949163728505
 41
0.7863949163728505
  0
VERTEX
  5
16E6
330
16E5
100
AcDbEntity
  8
LOGO
 62
     5
100
AcDbVertex
100
AcDb2dVertex
 10
273.4050474910848
 20
118.877818192688
 30
0.0
 42
1.0
  0
VERTEX
  5
16E7
330
16E5
100
AcDbEntity
  8
LOGO
 62
     5
100
AcDbVertex
100
AcDb2dVertex
 10
276.5506271565772
 20
118.877818192688
 30
0.0
 42
1.0
  0
SEQEND
  5
16E8
330
16E5
100
AcDbEntity
  8
LOGO
 62
     5
  0
SOLID
  5
16E9
330
1F
100
AcDbEntity
  8
LOGO
 62
     5
100
AcDbTrace
 10
276.1554638369237
 20
122.0183649307156
 30
0.0
 11
276.94060052143
 21
122.0183649307156
 31
0.0
 12
276.1554638369237
 22
116.9149764814222
 32
0.0
 13
276.94060052143
 23
116.9149764814222
 33
0.0
  0
SOLID
  5
16EA
330
1F
100
AcDbEntity
  8
LOGO
 62
     5
100
AcDbTrace
 10
277.8566194912459
 20
120.8406599039549
 30
0.0
 11
278.6417561757511
 21
120.8406599039549
 31
0.0
 12
277.8566194912459
 22
116.9149764814222
 32
0.0
 13
278.6417561757511
 23
116.9149764814222
 33
0.0
  0
SOLID
  5
16EB
330
1F
100
AcDbEntity
  8
LOGO
 62
     5
100
AcDbTrace
 10
280.2120295447637
 20
119.2703865349418
 30
0.0
 11
280.9971662292712
 21
119.2703865349418
 31
0.0
 12
280.2120295447637
 22
116.9149764814222
 32
0.0
 13
280.9971662292712
 23
116.9149764814222
 33
0.0
  0
SOLID
  5
16EC
330
1F
100
AcDbEntity
  8
LOGO
 62
     5
100
AcDbTrace
 10
282.5674395982839
 20
119.2703865349418
 30
0.0
 11
283.35257628279
 21
119.2703865349418
 31
0.0
 12
282.5674395982839
 22
116.9149764814211
 32
0.0
 13
283.35257628279
 23
116.9149764814211
 33
0.0
  0
SOLID
  5
16ED
330
1F
100
AcDbEntity
  8
LOGO
 62
     5
100
AcDbTrace
 10
267.2571957367351
 20
121.3902555831098
 30
0.0
 11
268.0423324212438
 21
121.3902555831098
 31
0.0
 12
267.2571957367351
 22
122.0183649307156
 32
0.0
 13
268.0423324212438
 23
122.0183649307156
 33
0.0
  0
SOLID
  5
16EE
330
1F
100
AcDbEntity
  8
LOGO
 62
     5
100
AcDbTrace
 10
267.2571957367351
 20
120.8406599039549
 30
0.0
 11
268.0423324212438
 21
120.8406599039549
 31
0.0
 12
267.2571957367351
 22
116.9149764814211
 32
0.0
 13
268.0423324212438
 23
116.9149764814222
 33
0.0
  0
SOLID
  5
16EF
330
1F
100
AcDbEntity
  8
LOGO
 62
     5
100
AcDbTrace
 10
274.9778373238304
 20
124.7663433264883
 30
0.0
 11
277.2547337089009
 21
124.7663433264883
 31
0.0
 12
274.9778373238304
 22
136.2816813659186
 32
0.0
 13
277.2547337089009
 23
144.6303014445062
 33
0.0
  0
SOLID
  5
16F0
330
1F
100
AcDbEntity
  8
LOGO
 62
     5
100
AcDbTrace
 10
278.19689773031
 20
146.3576021504205
 30
0.0
 11
280.4737941153782
 21
146.3576021504217
 31
0.0
 12
278.19689773031
 22
126.4936440324026
 32
0.0
 13
280.4737941153782
 23
134.8422641109902
 33
0.0
  0
SOLID
  5
16F1
330
1F
100
AcDbEntity
  8
LOGO
 62
     2
100
AcDbTrace
 10
277.2547337089009
 20
146.3576021504205
 30
0.0
 11
278.19689773031
 21
146.3576021504205
 31
0.0
 12
277.2547337089009
 22
124.7663433264883
 32
0.0
 13
278.19689773031
 23
124.7663433264883
 33
0.0
  0
SOLID
  5
16F2
330
1F
100
AcDbEntity
  8
LOGO
 62
     5
100
AcDbTrace
 10
278.19689773031
 20
126.4936440324026
 30
0.0
 11
280.4737941153782
 21
134.8422641109902
 31
0.0
 12
289.0317839765002
 22
146.3576021504217
 32
0.0
 13
286.7548875914321
 23
146.3576021504217
 33
0.0
  0
SOLID
  5
16F3
330
1F
100
AcDbEntity
  8
LOGO
 62
     5
100
AcDbTrace
 10
278.19689773031
 20
124.7663433264883
 30
0.0
 11
280.4737941153782
 21
124.7663433264883
 31
0.0
 12
289.0317839765002
 22
144.6303014445062
 32
0.0
 13
286.7548875914321
 23
136.2816813659186
 33
0.0
  0
SOLID
  5
16F4
330
1F
100
AcDbEntity
  8
LOGO
 62
     2
100
AcDbTrace
 10
277.2547337089009
 20
124.7663433264883
 30
0.0
 11
278.19689773031
 21
124.7663433264883
 31
0.0
 12
289.0317839765002
 22
146.3576021504217
 32
0.0
 13
289.9739479979094
 23
146.3576021504205
 33
0.0
  0
LINE
  5
16F5
330
1F
100
AcDbEntity
  8
LOGO
 62
     4
100
AcDbLine
 10
481.1289342294442
 20
118.6453244261668
 30
0.0
 11
481.1289342294442
 21
99.33652067593948
 31
0.0
  0
LINE
  5
16F6
330
1F
100
AcDbEntity
  8
LOGO
 62
     4
100
AcDbLine
 10
446.0220183199415
 20
118.6453244261668
 30
0.0
 11
446.0220183199415
 21
99.33652067593948
 31
0.0
  0
LINE
  5
16F7
330
1F
100
AcDbEntity
  8
LOGO
 62
     4
100
AcDbLine
 10
481.1289342294442
 20
99.33652067593948
 30
0.0
 11
446.0220183199415
 21
99.33652067593948
 31
0.0
  0
LINE
  5
16F8
330
1F
100
AcDbEntity
  8
LOGO
 62
     4
100
AcDbLine
 10
515.3350939451082
 20
142.3424926650799
 30
0.0
 11
446.0220183199415
 21
142.3424926650799
 31
0.0
  0
LINE
  5
16F9
330
1F
100
AcDbEntity
  8
LOGO
 62
     4
100
AcDbLine
 10
515.3350939451082
 20
126.544380505804
 30
0.0
 11
446.0220183199415
 21
126.544380505804
 31
0.0
  0
LINE
  5
16FA
330
1F
100
AcDbEntity
  8
LOGO
 62
     4
100
AcDbLine
 10
446.0220183199415
 20
142.3424926650799
 30
0.0
 11
446.0220183199415
 21
126.544380505804
 31
0.0
  0
LINE
  5
16FB
330
1F
100
AcDbEntity
  8
LOGO
 62
     4
100
AcDbLine
 10
515.3350939451082
 20
142.3424926650799
 30
0.0
 11
515.3350939451082
 21
126.544380505804
 31
0.0
  0
LINE
  5
16FC
330
1F
100
AcDbEntity
  8
LOGO
 62
     4
100
AcDbLine
 10
465.4071755083407
 20
126.544380505804
 30
0.0
 11
465.4071755083407
 21
118.6453244261668
 31
0.0
  0
TEXT
  5
16FD
330
1F
100
AcDbEntity
  8
LOGO
  6
Continuous
 62
     7
100
AcDbText
 10
449.6463420543103
 20
129.8422133222153
 30
0.0
 40
9.216899999999998
  1
MAFR500
  7
CHINESET
100
AcDbText
  0
LINE
  5
16FE
330
1F
100
AcDbEntity
  8
LOGO
 62
     4
100
AcDbLine
 10
481.1289342294442
 20
118.6453244261668
 30
0.0
 11
446.0220183199415
 21
118.6453244261668
 31
0.0
  0
TEXT
  5
16FF
330
1F
100
AcDbEntity
  8
LOGO
  6
Continuous
100
AcDbText
 10
457.2877164884967
 20
102.0619173800145
 30
345.1274150165151
 40
3.950099999999999
  1
Model
 41
0.8
  7
CHINESET
100
AcDbText
  0
TEXT
  5
1700
330
1F
100
AcDbEntity
  8
LOGO
100
AcDbText
 10
456.2363282783496
 20
109.384551472705
 30
345.1274150165151
 40
6.583499999999999
  1
型號
  7
CHINESET
100
AcDbText
  0
LINE
  5
1701
330
1F
100
AcDbEntity
  8
LOGO
  6
Continuous
 62
     7
100
AcDbLine
 10
518.7930442241627
 20
134.3874771754822
 30
0.0
 11
525.7689141061996
 21
134.3874771754822
 31
0.0
  0
LINE
  5
1702
330
1F
100
AcDbEntity
  8
LOGO
 62
     4
100
AcDbLine
 10
540.0669072348409
 20
118.6453244261668
 30
0.0
 11
540.0669072348409
 21
99.33652067593948
 31
0.0
  0
LINE
  5
1703
330
1F
100
AcDbEntity
  8
LOGO
 62
     4
100
AcDbLine
 10
488.6123877630788
 20
118.6453244261668
 30
0.0
 11
488.6123877630788
 21
99.33652067593948
 31
0.0
  0
LINE
  5
1704
330
1F
100
AcDbEntity
  8
LOGO
 62
     4
100
AcDbLine
 10
540.0669072348409
 20
99.33652067593948
 30
0.0
 11
488.6123877630788
 21
99.33652067593948
 31
0.0
  0
LINE
  5
1705
330
1F
100
AcDbEntity
  8
LOGO
 62
     4
100
AcDbLine
 10
551.1303073176248
 20
142.3424926650799
 30
0.0
 11
529.4870922061577
 21
142.3424926650799
 31
0.0
  0
LINE
  5
1706
330
1F
100
AcDbEntity
  8
LOGO
 62
     4
100
AcDbLine
 10
551.1303073176248
 20
126.544380505804
 30
0.0
 11
529.4870922061577
 21
126.544380505804
 31
0.0
  0
LINE
  5
1707
330
1F
100
AcDbEntity
  8
LOGO
 62
     4
100
AcDbLine
 10
529.4870922061577
 20
142.3424926650799
 30
0.0
 11
529.4870922061577
 21
126.544380505804
 31
0.0
  0
LINE
  5
1708
330
1F
100
AcDbEntity
  8
LOGO
 62
     4
100
AcDbLine
 10
551.1303073176248
 20
142.3424926650799
 30
0.0
 11
551.1303073176248
 21
126.544380505804
 31
0.0
  0
LINE
  5
1709
330
1F
100
AcDbEntity
  8
LOGO
 62
     4
100
AcDbLine
 10
540.3086997618912
 20
126.544380505804
 30
0.0
 11
540.3086997618912
 21
122.5948524659854
 31
0.0
  0
TEXT
  5
170A
330
1F
100
AcDbEntity
  8
LOGO
  6
Continuous
 62
     7
100
AcDbText
 10
533.6560040613719
 20
129.8422133222153
 30
0.0
 40
9.216899999999998
  1
*A
  7
CHINESET
100
AcDbText
  0
LINE
  5
170B
330
1F
100
AcDbEntity
  8
LOGO
 62
     4
100
AcDbLine
 10
540.0669072348409
 20
118.6453244261668
 30
0.0
 11
488.6123877630788
 21
118.6453244261668
 31
0.0
  0
TEXT
  5
170C
330
1F
100
AcDbEntity
  8
LOGO
  6
Continuous
100
AcDbText
 10
500.1871934400653
 20
102.0619173800145
 30
345.1274150165151
 40
3.950099999999999
  1
Bore size
 41
0.8
  7
CHINESET
100
AcDbText
  0
TEXT
  5
170D
330
1F
100
AcDbEntity
  8
LOGO
100
AcDbText
 10
493.6192857603065
 20
109.384551472705
 30
345.1274150165151
 40
6.583499999999999
  1
配管口徑代號
  7
CHINESET
100
AcDbText
  0
TEXT
  5
170E
330
1F
100
AcDbEntity
  8
LOGO
100
AcDbText
 10
376.0299500816661
 20
97.74966729211437
 30
0.0
 40
5.266799999999998
  1
10708018
 41
0.7
  7
CHINESET
 72
     1
 11
388.8458300816661
 21
97.74966729211437
 31
0.0
100
AcDbText
  0
LINE
  5
170F
330
1F
100
AcDbEntity
  8
LOGO
 62
     4
100
AcDbLine
 10
405.1908112556986
 20
105.4802309601037
 30
0.0
 11
405.1908112557007
 21
94.9481561872524
 31
0.0
  0
LINE
  5
1710
330
1F
100
AcDbEntity
  8
LOGO
 62
     4
100
AcDbLine
 10
405.1908112556986
 20
105.4802309601037
 30
0.0
 11
373.5900112557008
 21
105.4802309601037
 31
0.0
  0
LINE
  5
1711
330
1F
100
AcDbEntity
  8
LOGO
  6
AM_ISO08W050x2
 48
0.3
100
AcDbLine
 10
344.0188951748107
 20
131.821681984735
 30
0.0
 11
352.4487492906069
 21
131.821681984735
 31
0.0
1001
GENIUS_GENOREF_13
1005
1716
  0
LINE
  5
1712
330
1F
100
AcDbEntity
  8
LOGO
  6
AM_ISO08W050x2
 48
0.3
100
AcDbLine
 10
348.2338222327087
 20
127.606754926837
 30
0.0
 11
348.2338222327087
 21
136.0366090426331
 31
0.0
1001
GENIUS_GENOREF_13
1005
1715
  0
LINE
  5
1713
330
1F
100
AcDbEntity
  8
LOGO
  6
CENTER
 48
0.5
100
AcDbLine
 10
357.0961265847929
 20
131.821681984735
 30
0.0
 11
368.4132569076767
 21
131.821681984735
 31
0.0
1001
GENIUS_GENOREF_13
1005
1714
  0
POINT
  5
1714
330
1F
100
AcDbEntity
  8
0
 60
     1
100
AcDbPoint
 10
-1360.479362186603
 20
-737.9579180481117
 30
0.0
1001
GENIUS_GENOBJ-N-CRS_13
1002
{
1000
OWNER
1000
GEN
1002
}
1001
GENIUS_GENOLIS_13
1002
{
1000
ENT
1005
0
1005
0
1005
0
1005
1713
1002
}
1001
GENIUS_GENOENT_13
1002
{
1000
MYREF
1005
1714
1002
}
1002
{
1000
GRP
1005
0
1002
}
1001
GENIUS_GENODEF_13
1002
{
1000
HIER
1070
    10
1002
}
1002
{
1000
MANEDIT
1070
     1
1002
}
1002
{
1000
NOSEL
1070
     0
1002
}
1002
{
1000
BEHIND
1070
     0
1002
}
1002
{
1000
OTHER
1070
     0
1002
}
1002
{
1000
REACTOR
1002
}
  0
POINT
  5
1715
330
1F
100
AcDbEntity
  8
0
 60
     1
100
AcDbPoint
 10
-1371.803947409458
 20
-729.0823315694755
 30
0.0
1001
GENIUS_GENOBJ-N-CRS_13
1002
{
1000
OWNER
1000
GEN
1002
}
1001
GENIUS_GENOLIS_13
1002
{
1000
ENT
1005
0
1005
0
1005
0
1005
1712
1002
}
1001
GENIUS_GENOENT_13
1002
{
1000
MYREF
1005
1715
1002
}
1002
{
1000
GRP
1005
0
1002
}
1001
GENIUS_GENODEF_13
1002
{
1000
HIER
1070
    10
1002
}
1002
{
1000
MANEDIT
1070
     1
1002
}
1002
{
1000
NOSEL
1070
     0
1002
}
1002
{
1000
BEHIND
1070
     0
1002
}
1002
{
1000
OTHER
1070
     0
1002
}
1002
{
1000
REACTOR
1002
}
  0
POINT
  5
1716
330
1F
100
AcDbEntity
  8
0
 60
     1
100
AcDbPoint
 10
-1365.445273711621
 20
-737.9579180481117
 30
0.0
1001
GENIUS_GENOBJ-N-CRS_13
1002
{
1000
OWNER
1000
GEN
1002
}
1001
GENIUS_GENOLIS_13
1002
{
1000
ENT
1005
0
1005
0
1005
0
1005
1711
1002
}
1001
GENIUS_GENOENT_13
1002
{
1000
MYREF
1005
1716
1002
}
1002
{
1000
GRP
1005
0
1002
}
1001
GENIUS_GENODEF_13
1002
{
1000
HIER
1070
    10
1002
}
1002
{
1000
MANEDIT
1070
     1
1002
}
1002
{
1000
NOSEL
1070
     0
1002
}
1002
{
1000
BEHIND
1070
     0
1002
}
1002
{
1000
OTHER
1070
     0
1002
}
1002
{
1000
REACTOR
1002
}
  0
DIMENSION
  5
1730
102
{ACAD_XDICTIONARY
360
173E
102
}
102
{ACAD_REACTORS
330
173F
102
}
330
1F
100
AcDbEntity
  8
AM_5
100
AcDbDimension
  2
*D3
 10
356.440474642926
 20
562.6386498159761
 30
0.0
 11
352.6154746429259
 21
393.1386498159762
 31
0.0
 70
    32
 71
     5
 42
339.0000000000001
  3
AM_ISO$0
100
AcDbAlignedDimension
 13
433.9204746429319
 23
223.638649815976
 33
0.0
 14
413.4404746429318
 24
562.6386498159761
 34
0.0
 50
90.00000000000103
100
AcDbRotatedDimension
1001
ACAD
1000
DSTYLE
1002
{
1070
    40
1040
1.5
1070
   144
1040
1.0
1070
   272
1070
     8
1002
}
  0
LINE
  5
174C
102
{ACAD_REACTORS
330
176A
330
1790
102
}
330
1F
100
AcDbEntity
  8
AM_7
100
AcDbLine
 10
485.9128978372162
 20
442.6386498159761
 30
0.0
 11
386.819683930341
 21
442.6386498159761
 31
0.0
  0
DIMENSION
  5
175C
102
{ACAD_XDICTIONARY
360
1769
102
}
102
{ACAD_REACTORS
330
176A
102
}
330
1F
100
AcDbEntity
  8
AM_5
100
AcDbDimension
  2
*D4
 10
371.4404746429317
 20
562.6386498159761
 30
0.0
 11
367.6154746429317
 21
502.6386498159762
 31
0.0
 70
    32
 71
     5
 42
120.0
  3
AM_ISO$0
100
AcDbAlignedDimension
 13
386.819683930341
 23
442.6386498159761
 33
0.0
 14
413.4404746429318
 24
562.6386498159761
 34
0.0
 50
90.0
100
AcDbRotatedDimension
1001
ACAD
1000
DSTYLE
1002
{
1070
    40
1040
1.5
1070
   272
1070
     8
1002
}
  0
DIMENSION
  5
1782
102
{ACAD_XDICTIONARY
360
178F
102
}
102
{ACAD_REACTORS
330
1790
102
}
330
1F
100
AcDbEntity
  8
AM_5
100
AcDbDimension
  2
*D5
 10
371.4404746429319
 20
223.638649815976
 30
0.0
 11
367.6154746429319
 21
333.1386498159762
 31
0.0
 70
    32
 71
     5
 42
219.0000000000001
  3
AM_ISO$0
100
AcDbAlignedDimension
 13
386.819683930341
 23
442.6386498159761
 33
0.0
 14
433.9204746429319
 24
223.638649815976
 34
0.0
 50
90.0
100
AcDbRotatedDimension
1001
ACAD
1000
DSTYLE
1002
{
1070
    40
1040
1.5
1070
   272
1070
     8
1002
}
  0
DIMENSION
  5
17CE
102
{ACAD_XDICTIONARY
360
17DB
102
}
102
{ACAD_REACTORS
330
17DC
102
}
330
1F
100
AcDbEntity
  8
AM_5
100
AcDbDimension
  2
*D6
 10
501.4404746429317
 20
745.5804628658495
 30
0.0
 11
497.6154746429316
 21
700.5804628658496
 31
0.0
 70
    32
  1
{\Famgdt;o} <>
 71
     5
 42
90.0
  3
AM_ISO$0
100
AcDbAlignedDimension
 13
468.4001320446497
 23
655.5804628658495
 33
0.0
 14
468.4001320446497
 24
745.5804628658495
 34
0.0
 50
90.0
100
AcDbRotatedDimension
1001
ACAD
1000
DSTYLE
1002
{
1070
    40
1040
1.5
1070
   272
1070
     8
1002
}
  0
INSERT
  5
17ED
330
1F
100
AcDbEntity
  8
AM_5
100
AcDbBlockReference
  2
*S19
 10
0.0
 20
0.0
 30
0.0
  0
TEXT
  5
17EF
330
1F
100
AcDbEntity
  8
AM_5
100
AcDbText
 10
664.7671117793318
 20
412.5551104429161
 30
0.0
 40
4.5
  1
2-PT3/4
 41
0.75
  7
CHINESET
100
AcDbText
  0
TEXT
  5
17F0
330
1F
100
AcDbEntity
  8
AM_5
100
AcDbText
 10
664.7671117793318
 20
403.5385325685535
 30
0.0
 40
4.5
  1
2-PT1
 41
0.75
  7
CHINESET
100
AcDbText
  0
CIRCLE
  5
18D4
330
1F
100
AcDbEntity
  8
AM_VIS
  6
ACISOTGB
 62
     2
 48
0.5
100
AcDbCircle
 10
436.4404746429317
 20
442.6386498159761
 30
0.0
 40
27.0
  0
CIRCLE
  5
18D5
330
1F
100
AcDbEntity
  8
AM_VIS
  6
ACISOTGB
 62
     2
 48
0.5
100
AcDbCircle
 10
436.4404746429317
 20
442.6386498159761
 30
0.0
 40
24.0
  0
LINE
  5
190D
330
1F
100
AcDbEntity
  8
AM_7
100
AcDbLine
 10
436.4404746429317
 20
621.2806314616955
 30
0.0
 11
436.4404746429317
 21
675.4580879186546
 31
0.0
  0
LINE
  5
190E
330
1F
100
AcDbEntity
  8
AM_VIS
  6
ACISOTGB
 62
     2
 48
0.5
100
AcDbLine
 10
410.9404746429317
 20
650.0804628658495
 30
0.0
 11
436.4404746429317
 21
650.0804628658495
 31
0.0
  0
LINE
  5
190F
330
1F
100
AcDbEntity
  8
AM_VIS
  6
ACISOTGB
 62
     2
 48
0.5
100
AcDbLine
 10
436.4404746429317
 20
650.0804628658495
 30
0.0
 11
461.9404746429317
 21
650.0804628658495
 31
0.0
  0
LINE
  5
1911
330
1F
100
AcDbEntity
  8
AM_VIS
  6
ACISOTGB
 62
     2
 48
0.5
100
AcDbLine
 10
463.4404746429318
 20
633.5804628658495
 30
0.0
 11
436.4404746429317
 21
633.5804628658495
 31
0.0
  0
LINE
  5
1912
330
1F
100
AcDbEntity
  8
AM_VIS
  6
ACISOTGB
 62
     2
 48
0.5
100
AcDbLine
 10
436.4404746429317
 20
633.5804628658495
 30
0.0
 11
409.4404746429318
 21
633.5804628658495
 31
0.0
  0
LINE
  5
1913
330
1F
100
AcDbEntity
  8
AM_VIS
  6
ACISOTGB
 62
     2
 48
0.5
100
AcDbLine
 10
443.4404746429318
 20
650.0804628658495
 30
0.0
 11
443.4404746429318
 21
655.5804628658495
 31
0.0
  0
LINE
  5
1915
330
1F
100
AcDbEntity
  8
AM_VIS
  6
ACISOTGB
 62
     2
 48
0.5
100
AcDbLine
 10
429.4404746429318
 20
650.0804628658495
 30
0.0
 11
429.4404746429318
 21
655.5804628658495
 31
0.0
  0
ARC
  5
1916
330
1F
100
AcDbEntity
  8
AM_VIS
  6
ACISOTGB
 62
     2
 48
0.5
100
AcDbCircle
 10
410.9404746429317
 20
649.0804628658495
 30
0.0
 40
1.0
100
AcDbArc
 50
90.0
 51
180.0
  0
ARC
  5
1917
330
1F
100
AcDbEntity
  8
AM_VIS
  6
ACISOTGB
 62
     2
 48
0.5
100
AcDbCircle
 10
461.9404746429316
 20
649.0804628658495
 30
0.0
 40
1.0
100
AcDbArc
 50
0.0
 51
90.0
  0
LINE
  5
1918
330
1F
100
AcDbEntity
  8
AM_VIS
  6
ACISOTGB
 62
     2
 48
0.2
100
AcDbLine
 10
462.9404746429318
 20
649.0804628658495
 30
0.0
 11
462.9404746429318
 21
633.5804628658495
 31
0.0
  0
LINE
  5
1919
330
1F
100
AcDbEntity
  8
AM_VIS
  6
ACISOTGB
 62
     2
 48
0.2
100
AcDbLine
 10
409.9404746429318
 20
649.0804628658495
 30
0.0
 11
409.9404746429318
 21
633.5804628658495
 31
0.0
  0
LINE
  5
191E
330
1F
100
AcDbEntity
  8
AM_VIS
  6
ACISOTGB
 62
     2
100
AcDbLine
 10
409.4404746429318
 20
625.0804628658495
 30
0.0
 11
409.4404746429318
 21
633.5804628658495
 31
0.0
  0
LINE
  5
191F
330
1F
100
AcDbEntity
  8
AM_VIS
  6
ACISOTGB
 62
     2
 48
0.5
100
AcDbLine
 10
463.4404746429318
 20
625.0804628658495
 30
0.0
 11
463.4404746429318
 21
633.5804628658495
 31
0.0
  0
ARC
  5
1920
330
1F
100
AcDbEntity
  8
AM_VIS
  6
ACISOTGB
 62
     2
 48
0.5
100
AcDbCircle
 10
461.9404746429316
 20
625.0804628658495
 30
0.0
 40
1.5
100
AcDbArc
 50
270.0
 51
0.0
  0
ARC
  5
1921
330
1F
100
AcDbEntity
  8
AM_VIS
  6
ACISOTGB
 62
     2
 48
0.5
100
AcDbCircle
 10
410.9404746429317
 20
625.0804628658495
 30
0.0
 40
1.5
100
AcDbArc
 50
180.0
 51
270.0
  0
LINE
  5
1922
330
1F
100
AcDbEntity
  8
AM_VIS
  6
ACISOTGB
 62
     2
 48
0.5
100
AcDbLine
 10
410.9404746429317
 20
623.5804628658495
 30
0.0
 11
461.9404746429317
 21
623.5804628658495
 31
0.0
  0
LINE
  5
1930
330
1F
100
AcDbEntity
  8
AM_7
100
AcDbLine
 10
436.4404746429317
 20
442.6386498159761
 30
0.0
 11
465.4404746429317
 21
442.6386498159761
 31
0.0
1001
GENIUS_GENOREF_13
1005
1934
  0
LINE
  5
1931
330
1F
100
AcDbEntity
  8
AM_7
100
AcDbLine
 10
436.4404746429317
 20
442.6386498159761
 30
0.0
 11
436.4404746429317
 21
471.6386498159761
 31
0.0
1001
GENIUS_GENOREF_13
1005
1934
  0
LINE
  5
1932
330
1F
100
AcDbEntity
  8
AM_7
100
AcDbLine
 10
436.4404746429317
 20
442.6386498159761
 30
0.0
 11
407.4404746429317
 21
442.6386498159761
 31
0.0
1001
GENIUS_GENOREF_13
1005
1934
  0
LINE
  5
1933
330
1F
100
AcDbEntity
  8
AM_7
100
AcDbLine
 10
436.4404746429317
 20
442.6386498159761
 30
0.0
 11
436.4404746429317
 21
413.6386498159761
 31
0.0
1001
GENIUS_GENOREF_13
1005
1934
  0
POINT
  5
1934
330
1F
100
AcDbEntity
  8
0
 60
     1
100
AcDbPoint
 10
0.0
 20
0.0
 30
0.0
1001
GENIUS_GENOLIS_13
1002
{
1000
ENT
1005
1933
1005
1932
1005
1931
1005
1930
1002
}
1001
GENIUS_GENODEF_13
1002
{
1000
HIER
1070
    10
1002
}
1002
{
1000
MANEDIT
1070
     0
1002
}
1002
{
1000
NOSEL
1070
     0
1002
}
1002
{
1000
BEHIND
1070
     0
1002
}
1002
{
1000
OTHER
1070
     0
1002
}
1002
{
1000
REACTOR
1002
}
1001
GENIUS_GENOENT_13
1002
{
1000
MYREF
1005
1934
1002
}
1002
{
1000
GRP
1005
0
1002
}
1001
GENIUS_GENOBJ-N-CRS_13
1002
{
1000
OWNER
1000
GEN
1002
}
  0
LINE
  5
1935
330
1F
100
AcDbEntity
  8
AM_7
100
AcDbLine
 10
520.907289375572
 20
442.6386498159761
 30
0.0
 11
575.0847458325311
 21
442.6386498159761
 31
0.0
  0
LINE
  5
1936
330
1F
100
AcDbEntity
  8
AM_VIS
  6
ACISOTGB
 62
     2
 48
0.5
100
AcDbLine
 10
557.7071207797259
 20
468.1386498159761
 30
0.0
 11
557.7071207797259
 21
442.6386498159761
 31
0.0
  0
LINE
  5
1937
330
1F
100
AcDbEntity
  8
AM_VIS
  6
ACISOTGB
 62
     2
 48
0.5
100
AcDbLine
 10
557.7071207797259
 20
442.6386498159761
 30
0.0
 11
557.7071207797259
 21
417.1386498159761
 31
0.0
  0
LINE
  5
1939
330
1F
100
AcDbEntity
  8
AM_VIS
  6
ACISOTGB
 62
     2
 48
0.5
100
AcDbLine
 10
541.207120779726
 20
415.638649815976
 30
0.0
 11
541.207120779726
 21
442.6386498159761
 31
0.0
  0
LINE
  5
193A
330
1F
100
AcDbEntity
  8
AM_VIS
  6
ACISOTGB
 62
     2
 48
0.5
100
AcDbLine
 10
541.207120779726
 20
442.6386498159761
 30
0.0
 11
541.207120779726
 21
469.638649815976
 31
0.0
  0
LINE
  5
193B
330
1F
100
AcDbEntity
  8
AM_VIS
  6
ACISOTGB
 62
     2
 48
0.5
100
AcDbLine
 10
557.7071207797259
 20
435.6386498159761
 30
0.0
 11
566.207120779726
 21
435.6386498159761
 31
0.0
  0
LINE
  5
193C
330
1F
100
AcDbEntity
  8
AM_VIS
  6
ACISOTGB
 62
     2
 48
0.5
100
AcDbLine
 10
566.207120779726
 20
435.6386498159761
 30
0.0
 11
566.207120779726
 21
449.6386498159761
 31
0.0
  0
LINE
  5
193D
330
1F
100
AcDbEntity
  8
AM_VIS
  6
ACISOTGB
 62
     2
 48
0.2
100
AcDbLine
 10
557.7071207797259
 20
449.6386498159761
 30
0.0
 11
566.207120779726
 21
449.6386498159761
 31
0.0
  0
ARC
  5
193E
330
1F
100
AcDbEntity
  8
AM_VIS
  6
ACISOTGB
 62
     2
 48
0.5
100
AcDbCircle
 10
556.7071207797259
 20
468.1386498159761
 30
0.0
 40
1.0
100
AcDbArc
 50
0.0
 51
90.0
  0
ARC
  5
193F
330
1F
100
AcDbEntity
  8
AM_VIS
  6
ACISOTGB
 62
     2
 48
0.5
100
AcDbCircle
 10
556.7071207797259
 20
417.1386498159761
 30
0.0
 40
1.0
100
AcDbArc
 50
270.0
 51
0.0
  0
LINE
  5
1940
330
1F
100
AcDbEntity
  8
AM_VIS
  6
ACISOTGB
 62
     2
 48
0.2
100
AcDbLine
 10
556.7071207797259
 20
416.1386498159761
 30
0.0
 11
541.207120779726
 21
416.1386498159761
 31
0.0
  0
LINE
  5
1941
330
1F
100
AcDbEntity
  8
AM_VIS
  6
ACISOTGB
 62
     2
 48
0.2
100
AcDbLine
 10
556.7071207797259
 20
469.1386498159761
 30
0.0
 11
541.207120779726
 21
469.1386498159761
 31
0.0
  0
LINE
  5
1944
330
1F
100
AcDbEntity
  8
AM_VIS
  6
ACISOTGB
 62
     2
 48
0.5
100
AcDbLine
 10
571.707120779726
 20
436.2826723846065
 30
0.0
 11
566.207120779726
 21
436.138649815976
 31
0.0
  0
LINE
  5
1945
330
1F
100
AcDbEntity
  8
AM_VIS
  6
ACISOTGB
 62
     2
 48
0.5
100
AcDbLine
 10
571.707120779726
 20
448.9946272473456
 30
0.0
 11
566.207120779726
 21
449.1386498159761
 31
0.0
  0
LINE
  5
1946
330
1F
100
AcDbEntity
  8
AM_VIS
  6
ACISOTGB
 62
     2
 48
0.2
100
AcDbLine
 10
532.7071207797259
 20
469.638649815976
 30
0.0
 11
541.207120779726
 21
469.638649815976
 31
0.0
  0
LINE
  5
1947
330
1F
100
AcDbEntity
  8
AM_VIS
  6
ACISOTGB
 62
     2
 48
0.2
100
AcDbLine
 10
532.7071207797259
 20
415.638649815976
 30
0.0
 11
541.207120779726
 21
415.638649815976
 31
0.0
  0
ARC
  5
1948
330
1F
100
AcDbEntity
  8
AM_VIS
  6
ACISOTGB
 62
     2
 48
0.5
100
AcDbCircle
 10
532.7071207797259
 20
417.1386498159761
 30
0.0
 40
1.5
100
AcDbArc
 50
180.0
 51
270.0
  0
ARC
  5
1949
330
1F
100
AcDbEntity
  8
AM_VIS
  6
ACISOTGB
 62
     2
 48
0.5
100
AcDbCircle
 10
532.7071207797259
 20
468.1386498159761
 30
0.0
 40
1.5
100
AcDbArc
 50
90.0
 51
180.0
  0
LINE
  5
194A
330
1F
100
AcDbEntity
  8
AM_VIS
  6
ACISOTGB
 62
     2
 48
0.5
100
AcDbLine
 10
531.2071207797259
 20
468.1386498159761
 30
0.0
 11
531.2071207797259
 21
417.1386498159761
 31
0.0
  0
DIMENSION
  5
198D
102
{ACAD_XDICTIONARY
360
199C
102
}
102
{ACAD_REACTORS
330
199D
102
}
330
1F
100
AcDbEntity
  8
AM_5
100
AcDbDimension
  2
*D7
 10
439.4404746429318
 20
205.1986498159761
 30
0.0
 11
452.6404746429317
 21
209.0236498159761
 31
0.0
 70
    32
  1
%%c<>
 71
     5
 42
6.0
  3
AM_ISO$0
100
AcDbAlignedDimension
 13
433.4404746429318
 23
225.1986498159761
 33
0.0
 14
439.4404746429318
 24
225.1986498159761
 34
0.0
100
AcDbRotatedDimension
1001
ACAD
1000
DSTYLE
1002
{
1070
    40
1040
1.5
1070
   272
1070
     8
1002
}
  0
LINE
  5
19C3
330
1F
100
AcDbEntity
  8
0
100
AcDbLine
 10
436.4404746429317
 20
332.5923061697054
 30
0.0
 11
437.4404746429318
 21
332.5923061697054
 31
0.0
  0
LINE
  5
19C4
330
1F
100
AcDbEntity
  8
0
100
AcDbLine
 10
437.4404746429318
 20
332.5923061697054
 30
0.0
 11
437.4404746429318
 21
324.5923061697054
 31
0.0
  0
LINE
  5
19C5
330
1F
100
AcDbEntity
  8
0
100
AcDbLine
 10
437.4404746429318
 20
324.5923061697054
 30
0.0
 11
439.4404746429318
 21
324.5923061697054
 31
0.0
  0
LINE
  5
19C6
330
1F
100
AcDbEntity
  8
0
100
AcDbLine
 10
439.4404746429318
 20
324.5923061697054
 30
0.0
 11
436.4404746429319
 21
319.5469425067032
 31
0.0
  0
LINE
  5
19C8
330
1F
100
AcDbEntity
  8
0
100
AcDbLine
 10
436.4404746429317
 20
332.5923061697054
 30
0.0
 11
435.4404746429318
 21
332.5923061697054
 31
0.0
  0
LINE
  5
19C9
330
1F
100
AcDbEntity
  8
0
100
AcDbLine
 10
435.4404746429318
 20
332.5923061697054
 30
0.0
 11
435.4404746429318
 21
324.5923061697054
 31
0.0
  0
LINE
  5
19CA
330
1F
100
AcDbEntity
  8
0
100
AcDbLine
 10
435.4404746429318
 20
324.5923061697054
 30
0.0
 11
433.4404746429318
 21
324.5923061697054
 31
0.0
  0
LINE
  5
19CB
330
1F
100
AcDbEntity
  8
0
100
AcDbLine
 10
433.4404746429318
 20
324.5923061697054
 30
0.0
 11
436.4404746429316
 21
319.5469425067032
 31
0.0
  0
ARC
  5
19CE
330
1F
100
AcDbEntity
  8
0
100
AcDbCircle
 10
436.4404746429317
 20
344.2011498159762
 30
0.0
 40
28.56250000000006
100
AcDbArc
 50
248.4314042648749
 51
291.5685957351252
  0
LINE
  5
19CF
330
1F
100
AcDbEntity
  8
0
100
AcDbLine
 10
433.9989925225069
 20
331.5330690918244
 30
0.0
 11
433.9989925225069
 21
331.0330690918243
 31
0.0
  0
LINE
  5
19D0
330
1F
100
AcDbEntity
  8
0
100
AcDbLine
 10
433.9989925225069
 20
331.0330690918243
 30
0.0
 11
429.9989925225069
 21
331.0330690918243
 31
0.0
  0
LINE
  5
19D1
330
1F
100
AcDbEntity
  8
0
100
AcDbLine
 10
429.9989925225069
 20
331.0330690918243
 30
0.0
 11
429.9989925225069
 21
330.0330690918244
 31
0.0
  0
LINE
  5
19D2
330
1F
100
AcDbEntity
  8
0
100
AcDbLine
 10
429.9989925225069
 20
330.0330690918244
 30
0.0
 11
427.4763106910058
 21
331.5330690918244
 31
0.0
  0
LINE
  5
19D3
330
1F
100
AcDbEntity
  8
0
100
AcDbLine
 10
433.9989925225069
 20
331.5330690918244
 30
0.0
 11
433.9989925225069
 21
332.0330690918244
 31
0.0
  0
LINE
  5
19D4
330
1F
100
AcDbEntity
  8
0
100
AcDbLine
 10
433.9989925225069
 20
332.0330690918244
 30
0.0
 11
429.9989925225069
 21
332.0330690918244
 31
0.0
  0
LINE
  5
19D5
330
1F
100
AcDbEntity
  8
0
100
AcDbLine
 10
429.9989925225069
 20
332.0330690918244
 30
0.0
 11
429.9989925225069
 21
333.0330690918244
 31
0.0
  0
LINE
  5
19D6
330
1F
100
AcDbEntity
  8
0
100
AcDbLine
 10
429.9989925225069
 20
333.0330690918244
 30
0.0
 11
427.4763106910058
 21
331.5330690918244
 31
0.0
  0
LINE
  5
19D7
330
1F
100
AcDbEntity
  8
0
100
AcDbLine
 10
438.8819567633565
 20
331.5330690918244
 30
0.0
 11
438.8819567633565
 21
331.0330690918243
 31
0.0
  0
LINE
  5
19D8
330
1F
100
AcDbEntity
  8
0
100
AcDbLine
 10
438.8819567633565
 20
331.0330690918243
 30
0.0
 11
442.8819567633566
 21
331.0330690918243
 31
0.0
  0
LINE
  5
19D9
330
1F
100
AcDbEntity
  8
0
100
AcDbLine
 10
442.8819567633566
 20
331.0330690918243
 30
0.0
 11
442.8819567633566
 21
330.0330690918244
 31
0.0
  0
LINE
  5
19DA
330
1F
100
AcDbEntity
  8
0
100
AcDbLine
 10
442.8819567633566
 20
330.0330690918244
 30
0.0
 11
445.4046385948577
 21
331.5330690918244
 31
0.0
  0
LINE
  5
19DB
330
1F
100
AcDbEntity
  8
0
100
AcDbLine
 10
438.8819567633565
 20
331.5330690918244
 30
0.0
 11
438.8819567633565
 21
332.0330690918244
 31
0.0
  0
LINE
  5
19DC
330
1F
100
AcDbEntity
  8
0
100
AcDbLine
 10
438.8819567633565
 20
332.0330690918244
 30
0.0
 11
442.8819567633566
 21
332.0330690918244
 31
0.0
  0
LINE
  5
19DD
330
1F
100
AcDbEntity
  8
0
100
AcDbLine
 10
442.8819567633566
 20
332.0330690918244
 30
0.0
 11
442.8819567633566
 21
333.0330690918244
 31
0.0
  0
LINE
  5
19DE
330
1F
100
AcDbEntity
  8
0
100
AcDbLine
 10
442.8819567633566
 20
333.0330690918244
 30
0.0
 11
445.4046385948577
 21
331.5330690918244
 31
0.0
  0
INSERT
  5
1AC5
330
1F
100
AcDbEntity
  8
0
100
AcDbBlockReference
  2
A$C5278498E
 10
436.4404746429317
 20
700.5804628658495
 30
0.0
  0
LINE
  5
1B19
330
1F
100
AcDbEntity
  8
AM_7
  6
AM_ISO08W050x2
100
AcDbLine
 10
412.9404746429319
 20
730.5804628658495
 30
0.0
 11
418.740474642932
 21
730.5804628658495
 31
0.0
1001
GENIUS_GENOREF_13
1005
1B1D
  0
LINE
  5
1B1A
330
1F
100
AcDbEntity
  8
AM_7
  6
AM_ISO08W050x2
100
AcDbLine
 10
412.9404746429319
 20
730.5804628658495
 30
0.0
 11
412.9404746429319
 21
736.3804628658495
 31
0.0
1001
GENIUS_GENOREF_13
1005
1B1D
  0
LINE
  5
1B1B
330
1F
100
AcDbEntity
  8
AM_7
  6
AM_ISO08W050x2
100
AcDbLine
 10
412.9404746429319
 20
730.5804628658495
 30
0.0
 11
407.1404746429318
 21
730.5804628658495
 31
0.0
1001
GENIUS_GENOREF_13
1005
1B1D
  0
LINE
  5
1B1C
330
1F
100
AcDbEntity
  8
AM_7
  6
AM_ISO08W050x2
100
AcDbLine
 10
412.9404746429319
 20
730.5804628658495
 30
0.0
 11
412.9404746429319
 21
724.7804628658496
 31
0.0
1001
GENIUS_GENOREF_13
1005
1B1D
  0
POINT
  5
1B1D
330
1F
100
AcDbEntity
  8
0
 60
     1
100
AcDbPoint
 10
0.0
 20
0.0
 30
0.0
1001
GENIUS_GENOENT_13
1002
{
1000
MYREF
1005
1B1D
1002
}
1002
{
1000
GRP
1005
0
1002
}
1001
GENIUS_GENOBJ-N-CRS_13
1002
{
1000
OWNER
1000
GEN
1002
}
1001
GENIUS_GENODEF_13
1002
{
1000
HIER
1070
    10
1002
}
1002
{
1000
MANEDIT
1070
     0
1002
}
1002
{
1000
NOSEL
1070
     0
1002
}
1002
{
1000
BEHIND
1070
     0
1002
}
1002
{
1000
OTHER
1070
     0
1002
}
1002
{
1000
REACTOR
1002
}
1001
GENIUS_GENOLIS_13
1002
{
1000
ENT
1005
1B1C
1005
1B1B
1005
1B1A
1005
1B19
1002
}
  0
LINE
  5
1B2B
330
1F
100
AcDbEntity
  8
AM_7
  6
AM_ISO08W050x2
100
AcDbLine
 10
459.9404746429318
 20
730.5804628658494
 30
0.0
 11
465.7404746429318
 21
730.5804628658494
 31
0.0
1001
GENIUS_GENOREF_13
1005
1B2F
  0
LINE
  5
1B2C
330
1F
100
AcDbEntity
  8
AM_7
  6
AM_ISO08W050x2
100
AcDbLine
 10
459.9404746429318
 20
730.5804628658494
 30
0.0
 11
459.9404746429318
 21
736.3804628658495
 31
0.0
1001
GENIUS_GENOREF_13
1005
1B2F
  0
LINE
  5
1B2D
330
1F
100
AcDbEntity
  8
AM_7
  6
AM_ISO08W050x2
100
AcDbLine
 10
459.9404746429318
 20
730.5804628658494
 30
0.0
 11
454.1404746429318
 21
730.5804628658494
 31
0.0
1001
GENIUS_GENOREF_13
1005
1B2F
  0
LINE
  5
1B2E
330
1F
100
AcDbEntity
  8
AM_7
  6
AM_ISO08W050x2
100
AcDbLine
 10
459.9404746429318
 20
730.5804628658494
 30
0.0
 11
459.9404746429318
 21
724.7804628658493
 31
0.0
1001
GENIUS_GENOREF_13
1005
1B2F
  0
POINT
  5
1B2F
330
1F
100
AcDbEntity
  8
0
 60
     1
100
AcDbPoint
 10
0.0
 20
0.0
 30
0.0
1001
GENIUS_GENODEF_13
1002
{
1000
HIER
1070
    10
1002
}
1002
{
1000
MANEDIT
1070
     0
1002
}
1002
{
1000
NOSEL
1070
     0
1002
}
1002
{
1000
BEHIND
1070
     0
1002
}
1002
{
1000
OTHER
1070
     0
1002
}
1002
{
1000
REACTOR
1002
}
1001
GENIUS_GENOENT_13
1002
{
1000
MYREF
1005
1B2F
1002
}
1002
{
1000
GRP
1005
0
1002
}
1001
GENIUS_GENOBJ-N-CRS_13
1002
{
1000
OWNER
1000
GEN
1002
}
1001
GENIUS_GENOLIS_13
1002
{
1000
ENT
1005
1B2E
1005
1B2D
1005
1B2C
1005
1B2B
1002
}
  0
LINE
  5
1B3D
330
1F
100
AcDbEntity
  8
AM_7
  6
AM_ISO08W050x2
100
AcDbLine
 10
459.9404746429318
 20
670.5804628658494
 30
0.0
 11
465.7404746429318
 21
670.5804628658494
 31
0.0
1001
GENIUS_GENOREF_13
1005
1B41
  0
LINE
  5
1B3E
330
1F
100
AcDbEntity
  8
AM_7
  6
AM_ISO08W050x2
100
AcDbLine
 10
459.9404746429318
 20
670.5804628658494
 30
0.0
 11
459.9404746429318
 21
676.3804628658495
 31
0.0
1001
GENIUS_GENOREF_13
1005
1B41
  0
LINE
  5
1B3F
330
1F
100
AcDbEntity
  8
AM_7
  6
AM_ISO08W050x2
100
AcDbLine
 10
459.9404746429318
 20
670.5804628658494
 30
0.0
 11
454.1404746429318
 21
670.5804628658494
 31
0.0
1001
GENIUS_GENOREF_13
1005
1B41
  0
LINE
  5
1B40
330
1F
100
AcDbEntity
  8
AM_7
  6
AM_ISO08W050x2
100
AcDbLine
 10
459.9404746429318
 20
670.5804628658494
 30
0.0
 11
459.9404746429318
 21
664.7804628658493
 31
0.0
1001
GENIUS_GENOREF_13
1005
1B41
  0
POINT
  5
1B41
330
1F
100
AcDbEntity
  8
0
 60
     1
100
AcDbPoint
 10
0.0
 20
0.0
 30
0.0
1001
GENIUS_GENOENT_13
1002
{
1000
MYREF
1005
1B41
1002
}
1002
{
1000
GRP
1005
0
1002
}
1001
GENIUS_GENOBJ-N-CRS_13
1002
{
1000
OWNER
1000
GEN
1002
}
1001
GENIUS_GENODEF_13
1002
{
1000
HIER
1070
    10
1002
}
1002
{
1000
MANEDIT
1070
     0
1002
}
1002
{
1000
NOSEL
1070
     0
1002
}
1002
{
1000
BEHIND
1070
     0
1002
}
1002
{
1000
OTHER
1070
     0
1002
}
1002
{
1000
REACTOR
1002
}
1001
GENIUS_GENOLIS_13
1002
{
1000
ENT
1005
1B40
1005
1B3F
1005
1B3E
1005
1B3D
1002
}
  0
LINE
  5
1B4F
330
1F
100
AcDbEntity
  8
AM_7
  6
AM_ISO08W050x2
100
AcDbLine
 10
412.9404746429321
 20
670.5804628658495
 30
0.0
 11
418.7404746429321
 21
670.5804628658495
 31
0.0
1001
GENIUS_GENOREF_13
1005
1B53
  0
LINE
  5
1B50
330
1F
100
AcDbEntity
  8
AM_7
  6
AM_ISO08W050x2
100
AcDbLine
 10
412.9404746429321
 20
670.5804628658495
 30
0.0
 11
412.9404746429321
 21
676.3804628658497
 31
0.0
1001
GENIUS_GENOREF_13
1005
1B53
  0
LINE
  5
1B51
330
1F
100
AcDbEntity
  8
AM_7
  6
AM_ISO08W050x2
100
AcDbLine
 10
412.9404746429321
 20
670.5804628658495
 30
0.0
 11
407.1404746429321
 21
670.5804628658495
 31
0.0
1001
GENIUS_GENOREF_13
1005
1B53
  0
LINE
  5
1B52
330
1F
100
AcDbEntity
  8
AM_7
  6
AM_ISO08W050x2
100
AcDbLine
 10
412.9404746429321
 20
670.5804628658495
 30
0.0
 11
412.9404746429321
 21
664.7804628658493
 31
0.0
1001
GENIUS_GENOREF_13
1005
1B53
  0
POINT
  5
1B53
330
1F
100
AcDbEntity
  8
0
 60
     1
100
AcDbPoint
 10
0.0
 20
0.0
 30
0.0
1001
GENIUS_GENODEF_13
1002
{
1000
HIER
1070
    10
1002
}
1002
{
1000
MANEDIT
1070
     0
1002
}
1002
{
1000
NOSEL
1070
     0
1002
}
1002
{
1000
BEHIND
1070
     0
1002
}
1002
{
1000
OTHER
1070
     0
1002
}
1002
{
1000
REACTOR
1002
}
1001
GENIUS_GENOLIS_13
1002
{
1000
ENT
1005
1B52
1005
1B51
1005
1B50
1005
1B4F
1002
}
1001
GENIUS_GENOENT_13
1002
{
1000
MYREF
1005
1B53
1002
}
1002
{
1000
GRP
1005
0
1002
}
1001
GENIUS_GENOBJ-N-CRS_13
1002
{
1000
OWNER
1000
GEN
1002
}
  0
LINE
  5
1B74
330
1F
100
AcDbEntity
  8
LOGO
 62
     4
100
AcDbLine
 10
592.8955844391843
 20
118.6453244261668
 30
0.0
 11
592.8955844391843
 21
99.33652067593948
 31
0.0
  0
LINE
  5
1B75
330
1F
100
AcDbEntity
  8
LOGO
 62
     4
100
AcDbLine
 10
545.5635752215814
 20
118.6453244261668
 30
0.0
 11
545.5635752215814
 21
99.33652067593948
 31
0.0
  0
LINE
  5
1B76
330
1F
100
AcDbEntity
  8
LOGO
 62
     4
100
AcDbLine
 10
592.8955844391843
 20
99.33652067593948
 30
0.0
 11
545.5635752215814
 21
99.33652067593948
 31
0.0
  0
LINE
  5
1B77
330
1F
100
AcDbEntity
  8
LOGO
 62
     4
100
AcDbLine
 10
581.8945107092925
 20
142.3424926650799
 30
0.0
 11
564.5159315693759
 21
142.3424926650799
 31
0.0
  0
LINE
  5
1B78
330
1F
100
AcDbEntity
  8
LOGO
 62
     4
100
AcDbLine
 10
581.8945107092925
 20
126.544380505804
 30
0.0
 11
564.5159315693759
 21
126.544380505804
 31
0.0
  0
LINE
  5
1B79
330
1F
100
AcDbEntity
  8
LOGO
 62
     4
100
AcDbLine
 10
564.5159315693759
 20
142.3424926650799
 30
0.0
 11
564.5159315693759
 21
126.544380505804
 31
0.0
  0
LINE
  5
1B7A
330
1F
100
AcDbEntity
  8
LOGO
 62
     4
100
AcDbLine
 10
581.8945107092925
 20
142.3424926650799
 30
0.0
 11
581.8945107092925
 21
126.544380505804
 31
0.0
  0
LINE
  5
1B7B
330
1F
100
AcDbEntity
  8
LOGO
 62
     4
100
AcDbLine
 10
573.2052211393343
 20
126.544380505804
 30
0.0
 11
573.2052211393343
 21
118.6453244261668
 31
0.0
  0
LINE
  5
1B7D
330
1F
100
AcDbEntity
  8
LOGO
 62
     4
100
AcDbLine
 10
592.8955844391843
 20
118.6453244261668
 30
0.0
 11
545.5635752215814
 21
118.6453244261668
 31
0.0
  0
TEXT
  5
1B7E
330
1F
100
AcDbEntity
  8
LOGO
  6
Continuous
100
AcDbText
 10
549.5468222903242
 20
102.0619173800145
 30
345.1274150165151
 40
3.950099999999999
  1
Auto drain valve
 41
0.8
  7
CHINESET
100
AcDbText
  0
TEXT
  5
1B7F
330
1F
100
AcDbEntity
  8
LOGO
100
AcDbText
 10
550.5704732188092
 20
109.384551472705
 30
345.1274150165151
 40
6.583499999999999
  1
自動排水閥
  7
CHINESET
100
AcDbText
  0
LINE
  5
1B80
330
1F
100
AcDbEntity
  8
LOGO
  6
Continuous
 62
     7
100
AcDbLine
 10
554.2285702042033
 20
134.3874771754822
 30
0.0
 11
561.2044400862402
 21
134.3874771754822
 31
0.0
  0
LINE
  5
1B86
330
1F
100
AcDbEntity
  8
LOGO
 62
     4
100
AcDbLine
 10
514.3396474989599
 20
122.5948524659854
 30
0.0
 11
514.3396474989599
 21
118.6453244261668
 31
0.0
  0
LINE
  5
1B87
330
1F
100
AcDbEntity
  8
LOGO
 62
     4
100
AcDbLine
 10
540.3086997618912
 20
122.5948524659854
 30
0.0
 11
514.3396474989599
 21
122.5948524659854
 31
0.0
  0
CIRCLE
  5
1BC5
330
1F
100
AcDbEntity
  8
AM_0
100
AcDbCircle
 10
436.4404746429317
 20
442.6386498159761
 30
0.0
 40
5.7225
  0
ARC
  5
1BC6
330
1F
100
AcDbEntity
  8
AM_4
100
AcDbCircle
 10
436.4404746429317
 20
442.6386498159761
 30
0.0
 40
6.9
100
AcDbArc
 50
260.0
 51
170.0
  0
LINE
  5
1BC7
330
1F
100
AcDbEntity
  8
AM_7
  6
AM_ISO08W050x2
100
AcDbLine
 10
436.4404746429317
 20
451.538649815976
 30
0.0
 11
436.4404746429317
 21
433.7386498159761
 31
0.0
  0
LINE
  5
1BC8
330
1F
100
AcDbEntity
  8
AM_7
  6
AM_ISO08W050x2
100
AcDbLine
 10
427.5404746429318
 20
442.6386498159761
 30
0.0
 11
445.3404746429318
 21
442.6386498159761
 31
0.0
  0
CIRCLE
  5
1C0C
330
1F
100
AcDbEntity
  8
AM_0
100
AcDbCircle
 10
608.207120779726
 20
442.6386498159761
 30
0.0
 40
15.1455
  0
ARC
  5
1C0D
330
1F
100
AcDbEntity
  8
AM_4
100
AcDbCircle
 10
608.207120779726
 20
442.6386498159761
 30
0.0
 40
17.0
100
AcDbArc
 50
260.0
 51
170.0
  0
DIMENSION
  5
1C20
102
{ACAD_XDICTIONARY
360
1C2D
102
}
102
{ACAD_REACTORS
330
1C2E
102
}
330
1F
100
AcDbEntity
  8
AM_5
100
AcDbDimension
  2
*D11
 10
659.7071207797259
 20
582.6386498159761
 30
0.0
 11
633.9571207797259
 21
586.4636498159761
 31
0.0
 70
    32
 71
     5
 42
51.5
  3
AM_ISO$0
100
AcDbAlignedDimension
 13
608.207120779726
 23
568.8895578398406
 33
0.0
 14
659.7071207797259
 24
515.638649815976
 34
0.0
100
AcDbRotatedDimension
1001
ACAD
1000
DSTYLE
1002
{
1070
    40
1040
1.5
1070
   272
1070
     8
1002
}
  0
INSERT
  5
1C73
102
{ACAD_REACTORS
330
1D11
102
}
330
1F
100
AcDbEntity
  8
0
100
AcDbBlockReference
  2
A$C0EB06734
 10
659.7071207797259
 20
515.638649815976
 30
0.0
  0
INSERT
  5
1CC3
102
{ACAD_REACTORS
330
1D3E
330
1E10
102
}
330
1F
100
AcDbEntity
  8
0
100
AcDbBlockReference
  2
A$C6E4D5685
 10
469.9404746429317
 20
515.638649815976
 30
0.0
  0
DIMENSION
  5
1D03
102
{ACAD_XDICTIONARY
360
1D10
102
}
102
{ACAD_REACTORS
330
1D11
102
}
330
1F
100
AcDbEntity
  8
AM_5
100
AcDbDimension
  2
*D14
 10
681.3722373659798
 20
508.1386498159761
 30
0.0
 11
677.5472373659796
 21
475.3886498159762
 31
0.0
 70
    32
 71
     5
 42
65.5
  3
AM_ISO$0
100
AcDbAlignedDimension
 13
650.8167576815267
 23
442.6386498159761
 33
0.0
 14
661.3722373659798
 24
508.1386498159761
 34
0.0
 50
90.0
100
AcDbRotatedDimension
1001
ACAD
1000
DSTYLE
1002
{
1070
    40
1040
1.5
1070
   272
1070
     8
1002
}
  0
DIMENSION
  5
1D2E
102
{ACAD_XDICTIONARY
360
1D3D
102
}
102
{ACAD_REACTORS
330
1D3E
102
}
330
1F
100
AcDbEntity
  8
AM_5
100
AcDbDimension
  2
*D15
 10
489.9404746429318
 20
511.3886498159761
 30
0.0
 11
486.1154746429317
 21
525.7136498159763
 31
0.0
 70
    32
 71
     5
 42
6.5
  3
AM_ISO$0
100
AcDbAlignedDimension
 13
462.9404746429318
 23
504.888649815976
 33
0.0
 14
462.9404746429318
 24
511.3886498159761
 34
0.0
 50
90.0
100
AcDbRotatedDimension
1001
ACAD
1000
DSTYLE
1002
{
1070
    40
1040
1.5
1070
   272
1070
     8
1002
}
  0
DIMENSION
  5
1DCF
330
1F
100
AcDbEntity
  8
AM_5
100
AcDbDimension
  2
*D16
 10
458.4404746429318
 20
582.6386498159761
 30
0.0
 11
436.4404746429317
 21
586.4636498159761
 31
0.0
 70
    32
 71
     5
 42
44.0
  3
AM_ISO$0
100
AcDbAlignedDimension
 13
414.4404746429318
 23
511.3886498159761
 33
0.0
 14
458.4404746429318
 24
511.3886498159761
 34
0.0
100
AcDbRotatedDimension
1001
ACAD
1000
DSTYLE
1002
{
1070
    40
1040
1.5
1070
   272
1070
     8
1002
}
  0
DIMENSION
  5
1E02
102
{ACAD_XDICTIONARY
360
1E0F
102
}
102
{ACAD_REACTORS
330
1E10
102
}
330
1F
100
AcDbEntity
  8
AM_5
100
AcDbDimension
  2
*D17
 10
469.9404746429317
 20
597.6386498159761
 30
0.0
 11
436.4404746429317
 21
601.4636498159761
 31
0.0
 70
    32
 71
     5
 42
67.0
  3
AM_ISO$0
100
AcDbAlignedDimension
 13
402.9404746429317
 23
515.638649815976
 33
0.0
 14
469.9404746429317
 24
515.638649815976
 34
0.0
100
AcDbRotatedDimension
1001
ACAD
1000
DSTYLE
1002
{
1070
    40
1040
1.5
1070
   272
1070
     8
1002
}
  0
SPLINE
  5
208A
330
1F
100
AcDbEntity
  8
AM_VIS
100
AcDbSpline
210
0.0
220
0.0
230
1.0
 70
     8
 71
     3
 72
    22
 73
    18
 74
     0
 42
0.0000000001
 43
0.0000000001
 40
-3.789880580093354
 40
-3.789880580093354
 40
-3.789880580093354
 40
-3.789880580093354
 40
-3.313536700414658
 40
-3.313536700414658
 40
-2.83719282073596
 40
-2.83719282073596
 40
-2.360848941057263
 40
-2.360848941057263
 40
-1.884505061378566
 40
-1.884505061378566
 40
-1.413378796033924
 40
-1.413378796033924
 40
-0.9422525306892843
 40
-0.9422525306892843
 40
-0.4711262653446422
 40
-0.4711262653446422
 40
0.0
 40
0.0
 40
0.0
 40
0.0
 10
412.8972597306035
 20
325.6386498159761
 30
0.0
 10
412.7988499037261
 20
325.6386498159761
 30
0.0
 10
412.6981006074546
 20
325.6234913561758
 30
0.0
 10
412.4997764968298
 20
325.559785214667
 30
0.0
 10
412.4021971380434
 20
325.5112535975039
 30
0.0
 10
412.2168248462104
 20
325.3829903443793
 30
0.0
 10
412.1288813330741
 20
325.3031605437894
 30
0.0
 10
411.9675534665304
 20
325.1186534309983
 30
0.0
 10
411.8941640057753
 20
325.0139627963263
 30
0.0
 10
411.7657562029104
 20
324.7918782363279
 30
0.0
 10
411.7061871506694
 20
324.6670757905521
 30
0.0
 10
411.601622499533
 20
324.3951285502916
 30
0.0
 10
411.5566106319867
 20
324.2479893907396
 30
0.0
 10
411.4844877569122
 20
323.9408217275604
 30
0.0
 10
411.457311893622
 20
323.7805402572413
 30
0.0
 10
411.4216770581479
 20
323.4579768574957
 30
0.0
 10
411.4132242649859
 20
323.2956919044243
 30
0.0
 10
411.4132242649859
 20
323.1386498159761
 30
0.0
  0
SPLINE
  5
208B
330
1F
100
AcDbEntity
  8
AM_VIS
100
AcDbSpline
210
0.0
220
0.0
230
1.0
 70
     8
 71
     3
 72
    22
 73
    18
 74
     0
 42
0.0000000001
 43
0.0000000001
 40
7.56366940383216
 40
7.56366940383216
 40
7.56366940383216
 40
7.56366940383216
 40
8.0347956691768
 40
8.0347956691768
 40
8.505921934521438
 40
8.505921934521438
 40
8.977048199866079
 40
8.977048199866079
 40
9.448174465210717
 40
9.448174465210717
 40
9.924518344889413
 40
9.924518344889413
 40
10.40086222456811
 40
10.40086222456811
 40
10.87720610424681
 40
10.87720610424681
 40
11.35354998392551
 40
11.35354998392551
 40
11.35354998392551
 40
11.35354998392551
 10
419.8985056392245
 20
323.1386498159761
 30
0.0
 10
419.8985056392245
 20
323.2956919044243
 30
0.0
 10
419.885692658317
 20
323.4579768574957
 30
0.0
 10
419.8319642284539
 20
323.7805402572413
 30
0.0
 10
419.7910628351861
 20
323.9408217275604
 30
0.0
 10
419.6834609823885
 20
324.2479893907395
 30
0.0
 10
419.6166808614402
 20
324.3951285502916
 30
0.0
 10
419.4633242562018
 20
324.6670757905521
 30
0.0
 10
419.3767488725869
 20
324.7918782363279
 30
0.0
 10
419.1925362433076
 20
325.0139627963263
 30
0.0
 10
419.0883759806869
 20
325.1186534309983
 30
0.0
 10
418.8630564699844
 20
325.3031605437894
 30
0.0
 10
418.7419117885598
 20
325.3829903443793
 30
0.0
 10
418.4909467611347
 20
325.5112535975039
 30
0.0
 10
418.3609375366309
 20
325.559785214667
 30
0.0
 10
418.1012716924113
 20
325.6234913561758
 30
0.0
 10
417.9716146025921
 20
325.6386498159761
 30
0.0
 10
417.8470071989093
 20
325.6386498159761
 30
0.0
  0
SPLINE
  5
208C
330
1F
100
AcDbEntity
  8
AM_VIS
100
AcDbSpline
210
0.0
220
0.0
230
1.0
 70
     8
 71
     3
 72
    22
 73
    18
 74
     0
 42
0.0000000001
 43
0.0000000001
 40
-3.789880580093354
 40
-3.789880580093354
 40
-3.789880580093354
 40
-3.789880580093354
 40
-3.313536700414658
 40
-3.313536700414658
 40
-2.83719282073596
 40
-2.83719282073596
 40
-2.360848941057264
 40
-2.360848941057264
 40
-1.884505061378568
 40
-1.884505061378568
 40
-1.413378796033926
 40
-1.413378796033926
 40
-0.9422525306892843
 40
-0.9422525306892843
 40
-0.4711262653446422
 40
-0.4711262653446422
 40
0.0
 40
0.0
 40
0.0
 40
0.0
 10
455.0339420869542
 20
325.6386498159761
 30
0.0
 10
454.9093346832714
 20
325.6386498159761
 30
0.0
 10
454.7796775934522
 20
325.6234913561758
 30
0.0
 10
454.5200117492327
 20
325.559785214667
 30
0.0
 10
454.3900025247289
 20
325.5112535975039
 30
0.0
 10
454.1390374973038
 20
325.3829903443793
 30
0.0
 10
454.0178928158791
 20
325.3031605437894
 30
0.0
 10
453.7925733051767
 20
325.1186534309983
 30
0.0
 10
453.6884130425558
 20
325.0139627963263
 30
0.0
 10
453.5042004132766
 20
324.7918782363279
 30
0.0
 10
453.4176250296618
 20
324.6670757905521
 30
0.0
 10
453.2642684244233
 20
324.3951285502916
 30
0.0
 10
453.1974883034751
 20
324.2479893907396
 30
0.0
 10
453.0898864506775
 20
323.9408217275604
 30
0.0
 10
453.0489850574095
 20
323.7805402572413
 30
0.0
 10
452.9952566275466
 20
323.4579768574957
 30
0.0
 10
452.982443646639
 20
323.2956919044243
 30
0.0
 10
452.982443646639
 20
323.1386498159761
 30
0.0
  0
SPLINE
  5
208D
330
1F
100
AcDbEntity
  8
AM_VIS
100
AcDbSpline
210
0.0
220
0.0
230
1.0
 70
     8
 71
     3
 72
    22
 73
    18
 74
     0
 42
0.0000000001
 43
0.0000000001
 40
7.563669403832161
 40
7.563669403832161
 40
7.563669403832161
 40
7.563669403832161
 40
8.036264095368503
 40
8.036264095368503
 40
8.508858786904845
 40
8.508858786904845
 40
8.981453478441185
 40
8.981453478441185
 40
9.454048169977527
 40
9.454048169977527
 40
9.928924638628405
 40
9.928924638628405
 40
10.40380110727928
 40
10.40380110727928
 40
10.87867757593016
 40
10.87867757593016
 40
11.35355404458104
 40
11.35355404458104
 40
11.35355404458104
 40
11.35355404458104
 10
461.4677250208776
 20
323.1386498159761
 30
0.0
 10
461.4677250208776
 20
323.2961813798216
 30
0.0
 10
461.4592195739923
 20
323.4589551838715
 30
0.0
 10
461.4233722530565
 20
323.7824340901061
 30
0.0
 10
461.3960366403175
 20
323.9431422689486
 30
0.0
 10
461.3234980880854
 20
324.2510493497511
 30
0.0
 10
461.278229579517
 20
324.3985031171727
 30
0.0
 10
461.1730738365314
 20
324.670931641543
 30
0.0
 10
461.1131701317568
 20
324.7959006409487
 30
0.0
 10
460.9844437494063
 20
325.0174664898356
 30
0.0
 10
460.9111401013286
 20
325.1215868489545
 30
0.0
 10
460.7500733396531
 20
325.3050786735729
 30
0.0
 10
460.6623051319944
 20
325.3844632829549
 30
0.0
 10
460.4773561936523
 20
325.5120016146412
 30
0.0
 10
460.3800259988235
 20
325.5602524582369
 30
0.0
 10
460.182248248423
 20
325.623584481441
 30
0.0
 10
460.0817962237022
 20
325.6386498159761
 30
0.0
 10
459.98368955526
 20
325.6386498159761
 30
0.0
  0
LINE
  5
208E
330
1F
100
AcDbEntity
  8
AM_VIS
100
AcDbLine
 10
411.4132242649859
 20
258.1386498159761
 30
0.0
 11
411.4132242649859
 21
323.1386498159761
 31
0.0
  0
SPLINE
  5
208F
330
1F
100
AcDbEntity
  8
AM_VIS
100
AcDbSpline
210
0.0
220
0.0
230
1.0
 70
     8
 71
     3
 72
    22
 73
    18
 74
     0
 42
0.0000000001
 43
0.0000000001
 40
0.0
 40
0.0
 40
0.0
 40
0.0
 40
0.4711262653446465
 40
0.4711262653446465
 40
0.9422525306892929
 40
0.9422525306892929
 40
1.413378796033939
 40
1.413378796033939
 40
1.884505061378585
 40
1.884505061378585
 40
2.36084894105728
 40
2.36084894105728
 40
2.837192820735974
 40
2.837192820735974
 40
3.313536700414669
 40
3.313536700414669
 40
3.789880580093363
 40
3.789880580093363
 40
3.789880580093363
 40
3.789880580093363
 10
411.4132242649859
 20
258.1386498159761
 30
0.0
 10
411.4132242649859
 20
257.981607727528
 30
0.0
 10
411.4216770581479
 20
257.8193227744566
 30
0.0
 10
411.457311893622
 20
257.496759374711
 30
0.0
 10
411.4844877569122
 20
257.3364779043918
 30
0.0
 10
411.5566106319867
 20
257.0293102412127
 30
0.0
 10
411.6016224995329
 20
256.8821710816607
 30
0.0
 10
411.7061871506693
 20
256.6102238414002
 30
0.0
 10
411.7657562029104
 20
256.4854213956244
 30
0.0
 10
411.8941640057753
 20
256.2633368356259
 30
0.0
 10
411.9675534665304
 20
256.158646200954
 30
0.0
 10
412.1288813330741
 20
255.9741390881628
 30
0.0
 10
412.2168248462104
 20
255.894309287573
 30
0.0
 10
412.4021971380434
 20
255.7660460344484
 30
0.0
 10
412.4997764968298
 20
255.7175144172852
 30
0.0
 10
412.6981006074546
 20
255.6538082757764
 30
0.0
 10
412.7988499037261
 20
255.6386498159761
 30
0.0
 10
412.8972597306035
 20
255.6386498159761
 30
0.0
  0
LINE
  5
2090
330
1F
100
AcDbEntity
  8
AM_VIS
100
AcDbLine
 10
419.8985056392245
 20
323.1386498159761
 30
0.0
 11
419.8985056392245
 21
258.1386498159761
 31
0.0
  0
LINE
  5
2091
330
1F
100
AcDbEntity
  8
AM_VIS
100
AcDbLine
 10
452.982443646639
 20
258.1386498159761
 30
0.0
 11
452.982443646639
 21
323.1386498159761
 31
0.0
  0
SPLINE
  5
2092
330
1F
100
AcDbEntity
  8
AM_VIS
100
AcDbSpline
210
0.0
220
0.0
230
1.0
 70
     8
 71
     3
 72
    22
 73
    18
 74
     0
 42
0.0000000001
 43
0.0000000001
 40
3.773788823738807
 40
3.773788823738807
 40
3.773788823738807
 40
3.773788823738807
 40
4.2501327034175
 40
4.2501327034175
 40
4.726476583096195
 40
4.726476583096195
 40
5.202820462774889
 40
5.202820462774889
 40
5.679164342453583
 40
5.679164342453583
 40
6.15029060779823
 40
6.15029060779823
 40
6.621416873142877
 40
6.621416873142877
 40
7.092543138487523
 40
7.092543138487523
 40
7.56366940383217
 40
7.56366940383217
 40
7.56366940383217
 40
7.56366940383217
 10
417.8470071989093
 20
255.6386498159761
 30
0.0
 10
417.9716146025921
 20
255.6386498159761
 30
0.0
 10
418.1012716924113
 20
255.6538082757764
 30
0.0
 10
418.3609375366309
 20
255.7175144172852
 30
0.0
 10
418.4909467611347
 20
255.7660460344484
 30
0.0
 10
418.7419117885598
 20
255.894309287573
 30
0.0
 10
418.8630564699844
 20
255.9741390881628
 30
0.0
 10
419.0883759806869
 20
256.158646200954
 30
0.0
 10
419.1925362433076
 20
256.2633368356259
 30
0.0
 10
419.3767488725869
 20
256.4854213956244
 30
0.0
 10
419.4633242562018
 20
256.6102238414002
 30
0.0
 10
419.6166808614402
 20
256.8821710816606
 30
0.0
 10
419.6834609823885
 20
257.0293102412127
 30
0.0
 10
419.7910628351861
 20
257.3364779043918
 30
0.0
 10
419.8319642284539
 20
257.496759374711
 30
0.0
 10
419.885692658317
 20
257.8193227744566
 30
0.0
 10
419.8985056392245
 20
257.981607727528
 30
0.0
 10
419.8985056392245
 20
258.1386498159761
 30
0.0
  0
SPLINE
  5
2093
330
1F
100
AcDbEntity
  8
AM_VIS
100
AcDbSpline
210
0.0
220
0.0
230
1.0
 70
     8
 71
     3
 72
    22
 73
    18
 74
     0
 42
0.0000000001
 43
0.0000000001
 40
0.0
 40
0.0
 40
0.0
 40
0.0
 40
0.4711262653446468
 40
0.4711262653446468
 40
0.9422525306892934
 40
0.9422525306892934
 40
1.41337879603394
 40
1.41337879603394
 40
1.884505061378586
 40
1.884505061378586
 40
2.36084894105728
 40
2.36084894105728
 40
2.837192820735975
 40
2.837192820735975
 40
3.313536700414668
 40
3.313536700414668
 40
3.789880580093362
 40
3.789880580093362
 40
3.789880580093362
 40
3.789880580093362
 10
452.982443646639
 20
258.1386498159761
 30
0.0
 10
452.982443646639
 20
257.981607727528
 30
0.0
 10
452.9952566275466
 20
257.8193227744566
 30
0.0
 10
453.0489850574095
 20
257.496759374711
 30
0.0
 10
453.0898864506775
 20
257.3364779043918
 30
0.0
 10
453.1974883034751
 20
257.0293102412127
 30
0.0
 10
453.2642684244233
 20
256.8821710816606
 30
0.0
 10
453.4176250296618
 20
256.6102238414002
 30
0.0
 10
453.5042004132766
 20
256.4854213956244
 30
0.0
 10
453.6884130425558
 20
256.2633368356259
 30
0.0
 10
453.7925733051767
 20
256.158646200954
 30
0.0
 10
454.0178928158791
 20
255.9741390881628
 30
0.0
 10
454.1390374973038
 20
255.894309287573
 30
0.0
 10
454.3900025247289
 20
255.7660460344484
 30
0.0
 10
454.5200117492326
 20
255.7175144172852
 30
0.0
 10
454.7796775934521
 20
255.6538082757764
 30
0.0
 10
454.9093346832714
 20
255.6386498159761
 30
0.0
 10
455.0339420869542
 20
255.6386498159761
 30
0.0
  0
LINE
  5
2094
330
1F
100
AcDbEntity
  8
AM_VIS
100
AcDbLine
 10
461.4677250208776
 20
323.1386498159761
 30
0.0
 11
461.4677250208776
 21
258.1386498159761
 31
0.0
  0
SPLINE
  5
2095
330
1F
100
AcDbEntity
  8
AM_VIS
100
AcDbSpline
210
0.0
220
0.0
230
1.0
 70
     8
 71
     3
 72
    22
 73
    18
 74
     0
 42
0.0000000001
 43
0.0000000001
 40
-3.789880580093361
 40
-3.789880580093361
 40
-3.789880580093361
 40
-3.789880580093361
 40
-3.313536700414669
 40
-3.313536700414669
 40
-2.837192820735975
 40
-2.837192820735975
 40
-2.36084894105728
 40
-2.36084894105728
 40
-1.884505061378588
 40
-1.884505061378588
 40
-1.413378796033942
 40
-1.413378796033942
 40
-0.942252530689295
 40
-0.942252530689295
 40
-0.4711262653446476
 40
-0.4711262653446476
 40
0.0
 40
0.0
 40
0.0
 40
0.0
 10
459.98368955526
 20
255.6386498159761
 30
0.0
 10
460.0820993821375
 20
255.6386498159761
 30
0.0
 10
460.1828486784089
 20
255.6538082757764
 30
0.0
 10
460.3811727890337
 20
255.7175144172852
 30
0.0
 10
460.4787521478201
 20
255.7660460344485
 30
0.0
 10
460.6641244396532
 20
255.894309287573
 30
0.0
 10
460.7520679527895
 20
255.9741390881628
 30
0.0
 10
460.9133958193332
 20
256.158646200954
 30
0.0
 10
460.9867852800882
 20
256.2633368356259
 30
0.0
 10
461.1151930829532
 20
256.4854213956244
 30
0.0
 10
461.1747621351942
 20
256.6102238414002
 30
0.0
 10
461.2793267863306
 20
256.8821710816607
 30
0.0
 10
461.3243386538767
 20
257.0293102412127
 30
0.0
 10
461.3964615289512
 20
257.3364779043918
 30
0.0
 10
461.4236373922416
 20
257.496759374711
 30
0.0
 10
461.4592722277157
 20
257.8193227744566
 30
0.0
 10
461.4677250208776
 20
257.981607727528
 30
0.0
 10
461.4677250208776
 20
258.1386498159761
 30
0.0
  0
LINE
  5
2096
330
1F
100
AcDbEntity
  8
AM_VIS
100
AcDbLine
 10
417.8470071989093
 20
325.6386498159761
 30
0.0
 11
412.8972597306035
 21
325.6386498159761
 31
0.0
  0
LINE
  5
2097
330
1F
100
AcDbEntity
  8
AM_VIS
100
AcDbLine
 10
459.98368955526
 20
325.6386498159761
 30
0.0
 11
455.0339420869542
 21
325.6386498159761
 31
0.0
  0
LINE
  5
2098
330
1F
100
AcDbEntity
  8
AM_VIS
100
AcDbLine
 10
455.0339420869542
 20
255.6386498159761
 30
0.0
 11
459.98368955526
 21
255.6386498159761
 31
0.0
  0
LINE
  5
2099
330
1F
100
AcDbEntity
  8
AM_VIS
100
AcDbLine
 10
412.8972597306035
 20
255.6386498159761
 30
0.0
 11
417.8470071989093
 21
255.6386498159761
 31
0.0
  0
SPLINE
  5
20AD
330
1F
100
AcDbEntity
  8
AM_VIS
100
AcDbSpline
210
0.0
220
0.0
230
1.0
 70
     8
 71
     3
 72
    22
 73
    18
 74
     0
 42
0.0000000001
 43
0.0000000001
 40
-3.789880580093354
 40
-3.789880580093354
 40
-3.789880580093354
 40
-3.789880580093354
 40
-3.313536700414658
 40
-3.313536700414658
 40
-2.83719282073596
 40
-2.83719282073596
 40
-2.360848941057263
 40
-2.360848941057263
 40
-1.884505061378566
 40
-1.884505061378566
 40
-1.413378796033924
 40
-1.413378796033924
 40
-0.9422525306892843
 40
-0.9422525306892843
 40
-0.4711262653446422
 40
-0.4711262653446422
 40
0.0
 40
0.0
 40
0.0
 40
0.0
 10
626.8005882237485
 20
325.6386498159761
 30
0.0
 10
626.6759808200657
 20
325.6386498159761
 30
0.0
 10
626.5463237302464
 20
325.6234913561758
 30
0.0
 10
626.2866578860268
 20
325.559785214667
 30
0.0
 10
626.1566486615231
 20
325.5112535975039
 30
0.0
 10
625.9056836340979
 20
325.3829903443793
 30
0.0
 10
625.7845389526733
 20
325.3031605437894
 30
0.0
 10
625.5592194419708
 20
325.1186534309983
 30
0.0
 10
625.4550591793501
 20
325.0139627963263
 30
0.0
 10
625.2708465500708
 20
324.7918782363279
 30
0.0
 10
625.184271166456
 20
324.6670757905521
 30
0.0
 10
625.0309145612175
 20
324.3951285502916
 30
0.0
 10
624.9641344402692
 20
324.2479893907396
 30
0.0
 10
624.8565325874717
 20
323.9408217275604
 30
0.0
 10
624.8156311942038
 20
323.7805402572413
 30
0.0
 10
624.7619027643407
 20
323.4579768574957
 30
0.0
 10
624.7490897834332
 20
323.2956919044243
 30
0.0
 10
624.7490897834332
 20
323.1386498159761
 30
0.0
  0
SPLINE
  5
20AE
330
1F
100
AcDbEntity
  8
AM_VIS
100
AcDbSpline
210
0.0
220
0.0
230
1.0
 70
     8
 71
     3
 72
    22
 73
    18
 74
     0
 42
0.0000000001
 43
0.0000000001
 40
7.56366940383216
 40
7.56366940383216
 40
7.56366940383216
 40
7.56366940383216
 40
8.0347956691768
 40
8.0347956691768
 40
8.505921934521438
 40
8.505921934521438
 40
8.977048199866079
 40
8.977048199866079
 40
9.448174465210717
 40
9.448174465210717
 40
9.924518344889413
 40
9.924518344889413
 40
10.40086222456811
 40
10.40086222456811
 40
10.87720610424681
 40
10.87720610424681
 40
11.35354998392551
 40
11.35354998392551
 40
11.35354998392551
 40
11.35354998392551
 10
633.2343711576718
 20
323.1386498159761
 30
0.0
 10
633.2343711576718
 20
323.2956919044243
 30
0.0
 10
633.2259183645098
 20
323.4579768574957
 30
0.0
 10
633.1902835290358
 20
323.7805402572413
 30
0.0
 10
633.1631076657455
 20
323.9408217275604
 30
0.0
 10
633.090984790671
 20
324.2479893907395
 30
0.0
 10
633.0459729231248
 20
324.3951285502916
 30
0.0
 10
632.9414082719884
 20
324.6670757905521
 30
0.0
 10
632.8818392197473
 20
324.7918782363279
 30
0.0
 10
632.7534314168824
 20
325.0139627963263
 30
0.0
 10
632.6800419561274
 20
325.1186534309983
 30
0.0
 10
632.5187140895836
 20
325.3031605437894
 30
0.0
 10
632.4307705764473
 20
325.3829903443793
 30
0.0
 10
632.2453982846142
 20
325.5112535975039
 30
0.0
 10
632.1478189258279
 20
325.559785214667
 30
0.0
 10
631.9494948152031
 20
325.6234913561758
 30
0.0
 10
631.8487455189316
 20
325.6386498159761
 30
0.0
 10
631.7503356920542
 20
325.6386498159761
 30
0.0
  0
LINE
  5
20AF
330
1F
100
AcDbEntity
  8
AM_VIS
100
AcDbLine
 10
583.1798704017801
 20
258.1386498159761
 30
0.0
 11
583.1798704017801
 21
323.1386498159761
 31
0.0
  0
SPLINE
  5
20B0
330
1F
100
AcDbEntity
  8
AM_VIS
100
AcDbSpline
210
0.0
220
0.0
230
1.0
 70
     8
 71
     3
 72
    22
 73
    18
 74
     0
 42
0.0000000001
 43
0.0000000001
 40
0.0
 40
0.0
 40
0.0
 40
0.0
 40
0.4725946915363379
 40
0.4725946915363379
 40
0.9451893830726756
 40
0.9451893830726756
 40
1.417784074609013
 40
1.417784074609013
 40
1.890378766145351
 40
1.890378766145351
 40
2.36525523479623
 40
2.36525523479623
 40
2.84013170344711
 40
2.84013170344711
 40
3.31500817209799
 40
3.31500817209799
 40
3.789884640748869
 40
3.789884640748869
 40
3.789884640748869
 40
3.789884640748869
 10
583.1798704017801
 20
258.1386498159761
 30
0.0
 10
583.1798704017801
 20
257.9811182521307
 30
0.0
 10
583.1883758486653
 20
257.8183444480808
 30
0.0
 10
583.2242231696012
 20
257.4948655418461
 30
0.0
 10
583.2515587823402
 20
257.3341573630036
 30
0.0
 10
583.3240973345723
 20
257.0262502822011
 30
0.0
 10
583.3693658431407
 20
256.8787965147795
 30
0.0
 10
583.4745215861263
 20
256.6063679904092
 30
0.0
 10
583.5344252909009
 20
256.4813989910036
 30
0.0
 10
583.6631516732514
 20
256.2598331421167
 30
0.0
 10
583.7364553213291
 20
256.1557127829977
 30
0.0
 10
583.8975220830045
 20
255.9722209583793
 30
0.0
 10
583.9852902906633
 20
255.8928363489973
 30
0.0
 10
584.1702392290054
 20
255.7652980173111
 30
0.0
 10
584.2675694238342
 20
255.7170471737153
 30
0.0
 10
584.4653471742346
 20
255.6537151505113
 30
0.0
 10
584.5657991989555
 20
255.6386498159761
 30
0.0
 10
584.6639058673977
 20
255.6386498159761
 30
0.0
  0
LINE
  5
20B1
330
1F
100
AcDbEntity
  8
AM_VIS
100
AcDbLine
 10
591.6651517760187
 20
323.1386498159761
 30
0.0
 11
591.6651517760187
 21
258.1386498159761
 31
0.0
  0
LINE
  5
20B2
330
1F
100
AcDbEntity
  8
AM_VIS
100
AcDbLine
 10
624.7490897834332
 20
258.1386498159761
 30
0.0
 11
624.7490897834332
 21
323.1386498159761
 31
0.0
  0
SPLINE
  5
20B3
330
1F
100
AcDbEntity
  8
AM_VIS
100
AcDbSpline
210
0.0
220
0.0
230
1.0
 70
     8
 71
     3
 72
    22
 73
    18
 74
     0
 42
0.0000000001
 43
0.0000000001
 40
3.773788720960051
 40
3.773788720960051
 40
3.773788720960051
 40
3.773788720960051
 40
4.248665189610927
 40
4.248665189610927
 40
4.723541658261803
 40
4.723541658261803
 40
5.198418126912678
 40
5.198418126912678
 40
5.673294595563554
 40
5.673294595563554
 40
6.145889287099899
 40
6.145889287099899
 40
6.618483978636244
 40
6.618483978636244
 40
7.091078670172588
 40
7.091078670172588
 40
7.563673361708934
 40
7.563673361708934
 40
7.563673361708934
 40
7.563673361708934
 10
589.6136533357035
 20
255.6386498159761
 30
0.0
 10
589.7378768774618
 20
255.6386498159761
 30
0.0
 10
589.8671446188688
 20
255.6537151505113
 30
0.0
 10
590.1260693613536
 20
255.7170471737153
 30
0.0
 10
590.2557268240884
 20
255.7652980173111
 30
0.0
 10
590.5060714493658
 20
255.8928363489973
 30
0.0
 10
590.626946107745
 20
255.9722209583793
 30
0.0
 10
590.8518431295044
 20
256.1557127829977
 30
0.0
 10
590.9558511201725
 20
256.2598331421166
 30
0.0
 10
591.1404661662766
 20
256.4813989910036
 30
0.0
 10
591.2275081316376
 20
256.6063679904092
 30
0.0
 10
591.3817043432526
 20
256.8787965147795
 30
0.0
 10
591.4488575291037
 20
257.0262502822011
 30
0.0
 10
591.5570706774311
 20
257.3341573630036
 30
0.0
 10
591.5982111662844
 20
257.4948655418461
 30
0.0
 10
591.6522588467416
 20
257.8183444480808
 30
0.0
 10
591.6651517760187
 20
257.9811182521307
 30
0.0
 10
591.6651517760187
 20
258.1386498159761
 30
0.0
  0
SPLINE
  5
20B4
330
1F
100
AcDbEntity
  8
AM_VIS
100
AcDbSpline
210
0.0
220
0.0
230
1.0
 70
     8
 71
     3
 72
    22
 73
    18
 74
     0
 42
0.0000000001
 43
0.0000000001
 40
0.0
 40
0.0
 40
0.0
 40
0.0
 40
0.4711262653446465
 40
0.4711262653446465
 40
0.9422525306892929
 40
0.9422525306892929
 40
1.413378796033939
 40
1.413378796033939
 40
1.884505061378585
 40
1.884505061378585
 40
2.36084894105728
 40
2.36084894105728
 40
2.837192820735974
 40
2.837192820735974
 40
3.313536700414669
 40
3.313536700414669
 40
3.789880580093363
 40
3.789880580093363
 40
3.789880580093363
 40
3.789880580093363
 10
624.7490897834332
 20
258.1386498159761
 30
0.0
 10
624.7490897834332
 20
257.981607727528
 30
0.0
 10
624.7619027643407
 20
257.8193227744566
 30
0.0
 10
624.8156311942038
 20
257.496759374711
 30
0.0
 10
624.8565325874717
 20
257.3364779043918
 30
0.0
 10
624.9641344402692
 20
257.0293102412127
 30
0.0
 10
625.0309145612174
 20
256.8821710816607
 30
0.0
 10
625.184271166456
 20
256.6102238414002
 30
0.0
 10
625.2708465500708
 20
256.4854213956244
 30
0.0
 10
625.4550591793501
 20
256.2633368356259
 30
0.0
 10
625.5592194419708
 20
256.158646200954
 30
0.0
 10
625.7845389526733
 20
255.9741390881628
 30
0.0
 10
625.9056836340979
 20
255.894309287573
 30
0.0
 10
626.156648661523
 20
255.7660460344484
 30
0.0
 10
626.2866578860268
 20
255.7175144172852
 30
0.0
 10
626.5463237302464
 20
255.6538082757764
 30
0.0
 10
626.6759808200657
 20
255.6386498159761
 30
0.0
 10
626.8005882237485
 20
255.6386498159761
 30
0.0
  0
LINE
  5
20B5
330
1F
100
AcDbEntity
  8
AM_VIS
100
AcDbLine
 10
633.2343711576718
 20
323.1386498159761
 30
0.0
 11
633.2343711576718
 21
258.1386498159761
 31
0.0
  0
SPLINE
  5
20B6
330
1F
100
AcDbEntity
  8
AM_VIS
100
AcDbSpline
210
0.0
220
0.0
230
1.0
 70
     8
 71
     3
 72
    22
 73
    18
 74
     0
 42
0.0000000001
 43
0.0000000001
 40
3.773788823738807
 40
3.773788823738807
 40
3.773788823738807
 40
3.773788823738807
 40
4.2501327034175
 40
4.2501327034175
 40
4.726476583096195
 40
4.726476583096195
 40
5.202820462774889
 40
5.202820462774889
 40
5.679164342453583
 40
5.679164342453583
 40
6.15029060779823
 40
6.15029060779823
 40
6.621416873142877
 40
6.621416873142877
 40
7.092543138487523
 40
7.092543138487523
 40
7.56366940383217
 40
7.56366940383217
 40
7.56366940383217
 40
7.56366940383217
 10
631.7503356920542
 20
255.6386498159761
 30
0.0
 10
631.8487455189316
 20
255.6386498159761
 30
0.0
 10
631.9494948152031
 20
255.6538082757764
 30
0.0
 10
632.1478189258279
 20
255.7175144172852
 30
0.0
 10
632.2453982846142
 20
255.7660460344484
 30
0.0
 10
632.4307705764473
 20
255.894309287573
 30
0.0
 10
632.5187140895836
 20
255.9741390881628
 30
0.0
 10
632.6800419561274
 20
256.158646200954
 30
0.0
 10
632.7534314168824
 20
256.2633368356259
 30
0.0
 10
632.8818392197473
 20
256.4854213956244
 30
0.0
 10
632.9414082719884
 20
256.6102238414002
 30
0.0
 10
633.0459729231248
 20
256.8821710816606
 30
0.0
 10
633.090984790671
 20
257.0293102412127
 30
0.0
 10
633.1631076657455
 20
257.3364779043918
 30
0.0
 10
633.1902835290358
 20
257.496759374711
 30
0.0
 10
633.2259183645098
 20
257.8193227744566
 30
0.0
 10
633.2343711576718
 20
257.981607727528
 30
0.0
 10
633.2343711576718
 20
258.1386498159761
 30
0.0
  0
LINE
  5
20B7
330
1F
100
AcDbEntity
  8
AM_VIS
100
AcDbLine
 10
631.7503356920542
 20
325.6386498159761
 30
0.0
 11
626.8005882237485
 21
325.6386498159761
 31
0.0
  0
LINE
  5
20B8
330
1F
100
AcDbEntity
  8
AM_VIS
100
AcDbLine
 10
626.8005882237485
 20
255.6386498159761
 30
0.0
 11
631.7503356920542
 21
255.6386498159761
 31
0.0
  0
LINE
  5
20B9
330
1F
100
AcDbEntity
  8
AM_VIS
100
AcDbLine
 10
584.6639058673977
 20
255.6386498159761
 30
0.0
 11
589.6136533357035
 21
255.6386498159761
 31
0.0
  0
SPLINE
  5
20BA
330
1F
100
AcDbEntity
  8
AM_VIS
100
AcDbSpline
210
0.0
220
0.0
230
1.0
 70
     8
 71
     3
 72
    22
 73
    18
 74
     0
 42
0.0000000001
 43
0.0000000001
 40
0.0
 40
0.0
 40
0.0
 40
0.0
 40
0.4725946915363379
 40
0.4725946915363379
 40
0.9451893830726756
 40
0.9451893830726756
 40
1.417784074609013
 40
1.417784074609013
 40
1.890378766145351
 40
1.890378766145351
 40
2.36525523479623
 40
2.36525523479623
 40
2.84013170344711
 40
2.84013170344711
 40
3.31500817209799
 40
3.31500817209799
 40
3.789884640748869
 40
3.789884640748869
 40
3.789884640748869
 40
3.789884640748869
 10
583.1798704017801
 20
323.1386498159761
 30
0.0
 10
583.1798704017801
 20
323.2961813798216
 30
0.0
 10
583.1883758486653
 20
323.4589551838715
 30
0.0
 10
583.2242231696012
 20
323.7824340901061
 30
0.0
 10
583.2515587823402
 20
323.9431422689486
 30
0.0
 10
583.3240973345723
 20
324.2510493497511
 30
0.0
 10
583.3693658431407
 20
324.3985031171727
 30
0.0
 10
583.4745215861263
 20
324.670931641543
 30
0.0
 10
583.5344252909009
 20
324.7959006409487
 30
0.0
 10
583.6631516732514
 20
325.0174664898356
 30
0.0
 10
583.7364553213291
 20
325.1215868489545
 30
0.0
 10
583.8975220830045
 20
325.3050786735729
 30
0.0
 10
583.9852902906633
 20
325.3844632829549
 30
0.0
 10
584.1702392290054
 20
325.5120016146411
 30
0.0
 10
584.2675694238342
 20
325.5602524582369
 30
0.0
 10
584.4653471742346
 20
325.623584481441
 30
0.0
 10
584.5657991989555
 20
325.6386498159761
 30
0.0
 10
584.6639058673977
 20
325.6386498159761
 30
0.0
  0
SPLINE
  5
20BB
330
1F
100
AcDbEntity
  8
AM_VIS
100
AcDbSpline
210
0.0
220
0.0
230
1.0
 70
     8
 71
     3
 72
    22
 73
    18
 74
     0
 42
0.0000000001
 43
0.0000000001
 40
3.773788720960051
 40
3.773788720960051
 40
3.773788720960051
 40
3.773788720960051
 40
4.248665189610927
 40
4.248665189610927
 40
4.723541658261803
 40
4.723541658261803
 40
5.198418126912678
 40
5.198418126912678
 40
5.673294595563554
 40
5.673294595563554
 40
6.145889287099899
 40
6.145889287099899
 40
6.618483978636244
 40
6.618483978636244
 40
7.091078670172588
 40
7.091078670172588
 40
7.563673361708934
 40
7.563673361708934
 40
7.563673361708934
 40
7.563673361708934
 10
589.6136533357035
 20
325.6386498159761
 30
0.0
 10
589.7378768774618
 20
325.6386498159761
 30
0.0
 10
589.8671446188688
 20
325.623584481441
 30
0.0
 10
590.1260693613536
 20
325.5602524582369
 30
0.0
 10
590.2557268240884
 20
325.5120016146412
 30
0.0
 10
590.5060714493658
 20
325.3844632829549
 30
0.0
 10
590.626946107745
 20
325.3050786735729
 30
0.0
 10
590.8518431295044
 20
325.1215868489545
 30
0.0
 10
590.9558511201725
 20
325.0174664898356
 30
0.0
 10
591.1404661662766
 20
324.7959006409487
 30
0.0
 10
591.2275081316376
 20
324.670931641543
 30
0.0
 10
591.3817043432526
 20
324.3985031171727
 30
0.0
 10
591.4488575291037
 20
324.2510493497511
 30
0.0
 10
591.5570706774311
 20
323.9431422689486
 30
0.0
 10
591.5982111662844
 20
323.7824340901061
 30
0.0
 10
591.6522588467416
 20
323.4589551838715
 30
0.0
 10
591.6651517760187
 20
323.2961813798216
 30
0.0
 10
591.6651517760187
 20
323.1386498159761
 30
0.0
  0
LINE
  5
20BC
330
1F
100
AcDbEntity
  8
AM_VIS
100
AcDbLine
 10
584.6639058673977
 20
325.6386498159761
 30
0.0
 11
589.6136533357035
 21
325.6386498159761
 31
0.0
  0
ENDSEC
  0
SECTION
  2
OBJECTS
  0
DICTIONARY
  5
C
330
0
100
AcDbDictionary
281
     1
  3
ACAD_COLOR
350
BE
  3
ACAD_GROUP
350
D
  3
ACAD_LAYOUT
350
1A
  3
ACAD_MATERIAL
350
BD
  3
ACAD_MLINESTYLE
350
17
  3
ACAD_PLOTSETTINGS
350
19
  3
ACAD_PLOTSTYLENAME
350
E
  3
ACAD_TABLESTYLE
350
11A
  3
ACDBHEADERROUNDTRIPXREC
350
2107
  3
AcDbVariableDictionary
350
94
  3
AcmDictionary
350
5B
  3
AMG
350
41
  3
AMGSNAPSETTINGS
350
1B8
  3
DWGPROPS
350
2106
  0
DICTIONARY
  5
3F9
330
2
100
AcDbDictionary
280
     1
281
     1
  3
ACAD_LAYERFILTERS
360
5B7
  3
ACAD_LAYERSTATES
360
C43
  3
ACLYDICTIONARY
360
5B6
  3
AMLAYER_GROUPCOLORS
360
1B92
  0
DICTIONARY
  5
8F
330
1F
100
AcDbDictionary
280
     1
281
     1
  3
ACAD_SORTENTS
360
1A6B
  0
DICTIONARY
  5
1AC1
330
1AB5
100
AcDbDictionary
280
     1
281
     1
  3
ACAD_SORTENTS
360
1AC2
  0
DICTIONARY
  5
1C6F
330
1C63
100
AcDbDictionary
280
     1
281
     1
  3
ACAD_SORTENTS
360
1C70
  0
DICTIONARY
  5
1CBF
330
1C9B
100
AcDbDictionary
280
     1
281
     1
  3
ACAD_SORTENTS
360
1CC0
  0
DICTIONARY
  5
173E
330
1730
100
AcDbDictionary
280
     1
281
     1
  3
ACAD_DIMASSOC
360
173F
  0
DICTIONARY
  5
1769
330
175C
100
AcDbDictionary
280
     1
281
     1
  3
ACAD_DIMASSOC
360
176A
  0
DICTIONARY
  5
178F
330
1782
100
AcDbDictionary
280
     1
281
     1
  3
ACAD_DIMASSOC
360
1790
  0
DICTIONARY
  5
17DB
330
17CE
100
AcDbDictionary
280
     1
281
     1
  3
ACAD_DIMASSOC
360
17DC
  0
DICTIONARY
  5
199C
330
198D
100
AcDbDictionary
280
     1
281
     1
  3
ACAD_DIMASSOC
360
199D
  0
DICTIONARY
  5
1C2D
330
1C20
100
AcDbDictionary
280
     1
281
     1
  3
ACAD_DIMASSOC
360
1C2E
  0
DICTIONARY
  5
1D10
330
1D03
100
AcDbDictionary
280
     1
281
     1
  3
ACAD_DIMASSOC
360
1D11
  0
DICTIONARY
  5
1D3D
330
1D2E
100
AcDbDictionary
280
     1
281
     1
  3
ACAD_DIMASSOC
360
1D3E
  0
DICTIONARY
  5
1E0F
330
1E02
100
AcDbDictionary
280
     1
281
     1
  3
ACAD_DIMASSOC
360
1E10
  0
DICTIONARY
  5
BE
102
{ACAD_REACTORS
330
C
102
}
330
C
100
AcDbDictionary
281
     1
  0
DICTIONARY
  5
D
102
{ACAD_REACTORS
330
C
102
}
330
C
100
AcDbDictionary
281
     1
  0
DICTIONARY
  5
1A
102
{ACAD_REACTORS
330
C
102
}
330
C
100
AcDbDictionary
281
     1
  3
Model
350
22
  3
配置1
350
1E
  3
配置2
350
26
  0
DICTIONARY
  5
BD
102
{ACAD_REACTORS
330
C
102
}
330
C
100
AcDbDictionary
281
     1
  0
DICTIONARY
  5
17
102
{ACAD_REACTORS
330
C
102
}
330
C
100
AcDbDictionary
281
     1
  3
Standard
350
18
  0
DICTIONARY
  5
19
102
{ACAD_REACTORS
330
C
102
}
330
C
100
AcDbDictionary
281
     1
  0
ACDBDICTIONARYWDFLT
  5
E
102
{ACAD_REACTORS
330
C
102
}
330
C
100
AcDbDictionary
281
     1
  3
Normal
350
F
100
AcDbDictionaryWithDefault
340
F
  0
DICTIONARY
  5
11A
102
{ACAD_REACTORS
330
C
102
}
330
C
100
AcDbDictionary
281
     1
  3
Standard
350
11B
  0
DICTIONARY
  5
2107
102
{ACAD_REACTORS
330
C
102
}
330
C
100
AcDbDictionary
281
     1
  0
DICTIONARY
  5
94
102
{ACAD_REACTORS
330
C
102
}
330
C
100
AcDbDictionary
281
     1
  3
CTABLESTYLE
350
138
  3
DIMASSOC
350
96
  3
INDEXCTL
350
95
  3
PROJECTNAME
350
2104
  0
DICTIONARY
  5
5B
102
{ACAD_REACTORS
330
C
102
}
330
C
100
AcDbDictionary
281
     1
  3
AcmBOM
350
1B5
  3
AcmStdDictionary
350
61
  3
AMDTSECTSYM_ARROWCOLOR
350
123
  0
DICTIONARY
  5
41
102
{ACAD_REACTORS
330
C
102
}
330
C
100
AcDbDictionary
281
     1
  0
DICTIONARY
  5
1B8
102
{ACAD_REACTORS
330
C
102
}
330
C
100
AcDbDictionary
281
     1
  0
XRECORD
  5
2106
102
{ACAD_REACTORS
330
C
102
}
330
C
100
AcDbXrecord
280
     1
  1
DWGPROPS COOKIE
  2

  3

  4

  6

  7

  8

  9

300
AmdtFileType=84
301
=
302
=
303
=
304
=
305
=
306
=
307
=
308
=
309
=
 40
0.1605481481481481
 41
2454314.367237952
 42
2454319.662428021
  1

 90
        1
  0
DICTIONARY
  5
5B7
102
{ACAD_REACTORS
330
3F9
102
}
330
3F9
100
AcDbDictionary
281
     1
  0
DICTIONARY
  5
C43
102
{ACAD_REACTORS
330
3F9
102
}
330
3F9
100
AcDbDictionary
281
     1
  0
DICTIONARY
  5
5B6
102
{ACAD_REACTORS
330
3F9
102
}
330
3F9
100
AcDbDictionary
281
     1
1001
ACAD
1000
<All
  0
DICTIONARY
  5
1B92
102
{ACAD_REACTORS
330
3F9
102
}
330
3F9
100
AcDbDictionary
280
     1
281
     1
  0
SORTENTSTABLE
  5
1A6B
102
{ACAD_REACTORS
330
8F
102
}
330
8F
100
AcDbSortentsTable
330
1F
331
1949
  5
1949
331
15A2
  5
15A2
331
156B
  5
156B
331
14F5
  5
14F5
331
14B6
  5
14B6
331
152C
  5
152C
331
15E1
  5
15E1
331
1C0D
  5
1C0D
331
1B4F
  5
1B4F
331
1620
  5
1620
331
15E9
  5
15E9
331
1573
  5
1573
331
1534
  5
1534
331
14BE
  5
14BE
331
14FD
  5
14FD
331
15AA
  5
15AA
331
1E02
  5
1E02
331
143E
  5
143E
331
16D7
  5
16D7
331
15F1
  5
15F1
331
15B2
  5
15B2
331
153C
  5
153C
331
14C6
  5
14C6
331
1505
  5
1505
331
157B
  5
157B
331
1628
  5
1628
331
1407
  5
1407
331
1446
  5
1446
331
16DF
  5
16DF
331
1544
  5
1544
331
14CE
  5
14CE
331
15BA
  5
15BA
331
140F
  5
140F
331
1485
  5
1485
331
148D
  5
148D
331
144E
  5
144E
331
1417
  5
1417
331
1456
  5
1456
331
16E5
  5
16E5
331
1912
  5
1912
331
16ED
  5
16ED
331
174C
  5
174C
331
16F5
  5
16F5
331
1922
  5
1922
331
1B77
  5
1B77
331
15C2
  5
15C2
331
1583
  5
1583
331
150D
  5
150D
331
14D6
  5
14D6
331
154C
  5
154C
331
16A8
  5
16A8
331
1BC6
  5
1BC6
331
1B7F
  5
1B7F
331
16FD
  5
16FD
331
175C
  5
175C
331
1932
  5
1932
331
19C9
  5
19C9
331
16B0
  5
16B0
331
1601
  5
1601
331
158B
  5
158B
331
1515
  5
1515
331
14DE
  5
14DE
331
149F
  5
149F
331
1554
  5
1554
331
15CA
  5
15CA
331
1B87
  5
1B87
331
145E
  5
145E
331
1609
  5
1609
331
1593
  5
1593
331
155C
  5
155C
331
14E6
  5
14E6
331
14A7
  5
14A7
331
151D
  5
151D
331
15D2
  5
15D2
331
16B8
  5
16B8
331
141F
  5
141F
331
1466
  5
1466
331
1611
  5
1611
331
15DA
  5
15DA
331
1564
  5
1564
331
1525
  5
1525
331
14AF
  5
14AF
331
14EE
  5
14EE
331
159B
  5
159B
331
16C0
  5
16C0
331
13F0
  5
13F0
331
142F
  5
142F
331
13F8
  5
13F8
331
146E
  5
146E
331
1437
  5
1437
331
1476
  5
1476
331
1705
  5
1705
331
193A
  5
193A
331
19D1
  5
19D1
331
170D
  5
170D
331
19D9
  5
19D9
331
1B40
  5
1B40
331
194A
  5
194A
331
15E2
  5
15E2
331
15A3
  5
15A3
331
152D
  5
152D
331
14B7
  5
14B7
331
14F6
  5
14F6
331
156C
  5
156C
331
1619
  5
1619
331
16D0
  5
16D0
331
15EA
  5
15EA
331
15AB
  5
15AB
331
1535
  5
1535
331
14FE
  5
14FE
331
14BF
  5
14BF
331
1574
  5
1574
331
1621
  5
1621
331
1400
  5
1400
331
15B3
  5
15B3
331
157C
  5
157C
331
153D
  5
153D
331
14C7
  5
14C7
331
1506
  5
1506
331
15F2
  5
15F2
331
1408
  5
1408
331
143F
  5
143F
331
1486
  5
1486
331
1447
  5
1447
331
14CF
  5
14CF
331
1545
  5
1545
331
15BB
  5
15BB
331
1410
  5
1410
331
144F
  5
144F
331
148E
  5
148E
331
1457
  5
1457
331
1913
  5
1913
331
1B50
  5
1B50
331
16EE
  5
16EE
331
1B78
  5
1B78
331
16F6
  5
16F6
331
1B19
  5
1B19
331
15FA
  5
15FA
331
1584
  5
1584
331
154D
  5
154D
331
14D7
  5
14D7
331
1498
  5
1498
331
150E
  5
150E
331
15C3
  5
15C3
331
16A9
  5
16A9
331
1BC7
  5
1BC7
331
16FE
  5
16FE
331
1933
  5
1933
331
19CA
  5
19CA
331
1B80
  5
1B80
331
1602
  5
1602
331
15CB
  5
15CB
331
1555
  5
1555
331
1516
  5
1516
331
14A0
  5
14A0
331
158C
  5
158C
331
16B1
  5
16B1
331
1418
  5
1418
331
16B9
  5
16B9
331
15D3
  5
15D3
331
1594
  5
1594
331
151E
  5
151E
331
14E7
  5
14E7
331
14A8
  5
14A8
331
155D
  5
155D
331
160A
  5
160A
331
1420
  5
1420
331
145F
  5
145F
331
16C1
  5
16C1
331
1612
  5
1612
331
159C
  5
159C
331
1526
  5
1526
331
14EF
  5
14EF
331
1565
  5
1565
331
15DB
  5
15DB
331
13F1
  5
13F1
331
1467
  5
1467
331
146F
  5
146F
331
13F9
  5
13F9
331
1430
  5
1430
331
1477
  5
1477
331
1706
  5
1706
331
193B
  5
193B
331
19D2
  5
19D2
331
170E
  5
170E
331
19DA
  5
19DA
331
14B0
  5
14B0
331
18D4
  5
18D4
331
161A
  5
161A
331
15A4
  5
15A4
331
156D
  5
156D
331
14F7
  5
14F7
331
14B8
  5
14B8
331
15E3
  5
15E3
331
1438
  5
1438
331
1622
  5
1622
331
15EB
  5
15EB
331
1575
  5
1575
331
1536
  5
1536
331
14C0
  5
14C0
331
14FF
  5
14FF
331
15AC
  5
15AC
331
16D1
  5
16D1
331
1401
  5
1401
331
1440
  5
1440
331
15F3
  5
15F3
331
15B4
  5
15B4
331
153E
  5
153E
331
14C8
  5
14C8
331
1507
  5
1507
331
157D
  5
157D
331
1409
  5
1409
331
1448
  5
1448
331
1546
  5
1546
331
15BC
  5
15BC
331
1411
  5
1411
331
148F
  5
148F
331
1450
  5
1450
331
1B51
  5
1B51
331
16EF
  5
16EF
331
1B79
  5
1B79
331
16F7
  5
16F7
331
19C3
  5
19C3
331
1B1A
  5
1B1A
331
1491
  5
1491
331
14D0
  5
14D0
331
16AA
  5
16AA
331
15C4
  5
15C4
331
1585
  5
1585
331
150F
  5
150F
331
14D8
  5
14D8
331
16FF
  5
16FF
331
19CB
  5
19CB
331
1BC8
  5
1BC8
331
1499
  5
1499
331
154E
  5
154E
331
15FB
  5
15FB
331
1458
  5
1458
331
1419
  5
1419
331
16B2
  5
16B2
331
1603
  5
1603
331
158D
  5
158D
331
1556
  5
1556
331
14A1
  5
14A1
331
1517
  5
1517
331
15CC
  5
15CC
331
1460
  5
1460
331
1421
  5
1421
331
160B
  5
160B
331
1595
  5
1595
331
155E
  5
155E
331
14E8
  5
14E8
331
14A9
  5
14A9
331
151F
  5
151F
331
15D4
  5
15D4
331
16BA
  5
16BA
331
1468
  5
1468
331
1429
  5
1429
331
1613
  5
1613
331
15DC
  5
15DC
331
1566
  5
1566
331
1527
  5
1527
331
159D
  5
159D
331
16C2
  5
16C2
331
1431
  5
1431
331
13FA
  5
13FA
331
1470
  5
1470
331
17ED
  5
17ED
331
1707
  5
1707
331
193C
  5
193C
331
19D3
  5
19D3
331
170F
  5
170F
331
1944
  5
1944
331
19DB
  5
19DB
331
18D5
  5
18D5
331
14B1
  5
14B1
331
14F0
  5
14F0
331
15E4
  5
15E4
331
15A5
  5
15A5
331
152F
  5
152F
331
14F8
  5
14F8
331
190D
  5
190D
331
14B9
  5
14B9
331
156E
  5
156E
331
161B
  5
161B
331
1478
  5
1478
331
1402
  5
1402
331
1439
  5
1439
331
16D2
  5
16D2
331
1623
  5
1623
331
15AD
  5
15AD
331
1500
  5
1500
331
14C1
  5
14C1
331
1576
  5
1576
331
15EC
  5
15EC
331
140A
  5
140A
331
1441
  5
1441
331
15B5
  5
15B5
331
157E
  5
157E
331
14C9
  5
14C9
331
153F
  5
153F
331
15F4
  5
15F4
331
1449
  5
1449
331
1D2E
  5
1D2E
331
1412
  5
1412
331
15BD
  5
15BD
331
1451
  5
1451
331
1915
  5
1915
331
1B52
  5
1B52
331
16F0
  5
16F0
331
14D1
  5
14D1
331
1B7A
  5
1B7A
331
17CE
  5
17CE
331
16F8
  5
16F8
331
19C4
  5
19C4
331
1B1B
  5
1B1B
331
1492
  5
1492
331
1508
  5
1508
331
1C20
  5
1C20
331
15FC
  5
15FC
331
15C5
  5
15C5
331
154F
  5
154F
331
14D9
  5
14D9
331
1935
  5
1935
331
1B2B
  5
1B2B
331
149A
  5
149A
331
1510
  5
1510
331
1586
  5
1586
331
16AB
  5
16AB
331
1459
  5
1459
331
141A
  5
141A
331
1604
  5
1604
331
15CD
  5
15CD
331
1557
  5
1557
331
14A2
  5
14A2
331
1518
  5
1518
331
158E
  5
158E
331
16B3
  5
16B3
331
1422
  5
1422
331
1461
  5
1461
331
15D5
  5
15D5
331
1596
  5
1596
331
1520
  5
1520
331
14E9
  5
14E9
331
14AA
  5
14AA
331
155F
  5
155F
331
160C
  5
160C
331
16BB
  5
16BB
331
1469
  5
1469
331
142A
  5
142A
331
1614
  5
1614
331
159E
  5
159E
331
1567
  5
1567
331
15DD
  5
15DD
331
16C3
  5
16C3
331
1471
  5
1471
331
13FB
  5
13FB
331
1432
  5
1432
331
1700
  5
1700
331
1708
  5
1708
331
193D
  5
193D
331
19D4
  5
19D4
331
1710
  5
1710
331
1945
  5
1945
331
19DC
  5
19DC
331
14F1
  5
14F1
331
14B2
  5
14B2
331
1528
  5
1528
331
161C
  5
161C
331
15A6
  5
15A6
331
156F
  5
156F
331
14F9
  5
14F9
331
190E
  5
190E
331
15E5
  5
15E5
331
16CB
  5
16CB
331
1479
  5
1479
331
143A
  5
143A
331
1403
  5
1403
331
1624
  5
1624
331
15ED
  5
15ED
331
1577
  5
1577
331
1538
  5
1538
331
14C2
  5
14C2
331
1501
  5
1501
331
15AE
  5
15AE
331
16D3
  5
16D3
331
1442
  5
1442
331
140B
  5
140B
331
1481
  5
1481
331
16DB
  5
16DB
331
15B6
  5
15B6
331
1540
  5
1540
331
14CA
  5
14CA
331
157F
  5
157F
331
15F5
  5
15F5
331
1413
  5
1413
331
144A
  5
144A
331
15BE
  5
15BE
331
1452
  5
1452
331
1730
  5
1730
331
16E9
  5
16E9
331
1916
  5
1916
331
198D
  5
198D
331
16F1
  5
16F1
331
191E
  5
191E
331
1548
  5
1548
331
1509
  5
1509
331
1B7B
  5
1B7B
331
16F9
  5
16F9
331
19C5
  5
19C5
331
1B1C
  5
1B1C
331
1493
  5
1493
331
14D2
  5
14D2
331
16AC
  5
16AC
331
15C6
  5
15C6
331
1587
  5
1587
331
1511
  5
1511
331
14DA
  5
14DA
331
1936
  5
1936
331
1B2C
  5
1B2C
331
149B
  5
149B
331
1550
  5
1550
331
15FD
  5
15FD
331
145A
  5
145A
331
141B
  5
141B
331
1605
  5
1605
331
158F
  5
158F
331
1558
  5
1558
331
14E2
  5
14E2
331
14A3
  5
14A3
331
1519
  5
1519
331
15CE
  5
15CE
331
16B4
  5
16B4
331
1462
  5
1462
331
1DCF
  5
1DCF
331
1423
  5
1423
331
160D
  5
160D
331
15D6
  5
15D6
331
1560
  5
1560
331
14EA
  5
14EA
331
14AB
  5
14AB
331
1521
  5
1521
331
1597
  5
1597
331
16BC
  5
16BC
331
146A
  5
146A
331
142B
  5
142B
331
1615
  5
1615
331
15DE
  5
15DE
331
159F
  5
159F
331
1433
  5
1433
331
13FC
  5
13FC
331
1472
  5
1472
331
1701
  5
1701
331
17EF
  5
17EF
331
1709
  5
1709
331
193E
  5
193E
331
19D5
  5
19D5
331
1711
  5
1711
331
1946
  5
1946
331
19DD
  5
19DD
331
1568
  5
1568
331
1529
  5
1529
331
14B3
  5
14B3
331
14F2
  5
14F2
331
16CC
  5
16CC
331
15E6
  5
15E6
331
15A7
  5
15A7
331
1531
  5
1531
331
14FA
  5
14FA
331
190F
  5
190F
331
14BB
  5
14BB
331
1570
  5
1570
331
161D
  5
161D
331
147A
  5
147A
331
1404
  5
1404
331
143B
  5
143B
331
16D4
  5
16D4
331
1625
  5
1625
331
15AF
  5
15AF
331
1578
  5
1578
331
1502
  5
1502
331
14C3
  5
14C3
331
15EE
  5
15EE
331
1482
  5
1482
331
1443
  5
1443
331
15B7
  5
15B7
331
14CB
  5
14CB
331
1541
  5
1541
331
15F6
  5
15F6
331
144B
  5
144B
331
1414
  5
1414
331
148A
  5
148A
331
15BF
  5
15BF
331
16A5
  5
16A5
331
1453
  5
1453
331
16EA
  5
16EA
331
1917
  5
1917
331
1B74
  5
1B74
331
16F2
  5
16F2
331
191F
  5
191F
331
1AC5
  5
1AC5
331
1580
  5
1580
331
1549
  5
1549
331
14D3
  5
14D3
331
16FA
  5
16FA
331
19C6
  5
19C6
331
1494
  5
1494
331
150A
  5
150A
331
15FE
  5
15FE
331
15C7
  5
15C7
331
1551
  5
1551
331
1512
  5
1512
331
1937
  5
1937
331
19CE
  5
19CE
331
1B2D
  5
1B2D
331
149C
  5
149C
331
14DB
  5
14DB
331
1588
  5
1588
331
16AD
  5
16AD
331
141C
  5
141C
331
145B
  5
145B
331
15CF
  5
15CF
331
1559
  5
1559
331
151A
  5
151A
331
14A4
  5
14A4
331
14E3
  5
14E3
331
1590
  5
1590
331
16B5
  5
16B5
331
1424
  5
1424
331
1463
  5
1463
331
16BD
  5
16BD
331
15D7
  5
15D7
331
1598
  5
1598
331
1522
  5
1522
331
14EB
  5
14EB
331
14AC
  5
14AC
331
1561
  5
1561
331
160E
  5
160E
331
146B
  5
146B
331
142C
  5
142C
331
1616
  5
1616
331
15DF
  5
15DF
331
1473
  5
1473
331
1434
  5
1434
331
13FD
  5
13FD
331
1702
  5
1702
331
170A
  5
170A
331
17F0
  5
17F0
331
193F
  5
193F
331
19D6
  5
19D6
331
1B3D
  5
1B3D
331
1712
  5
1712
331
1947
  5
1947
331
19DE
  5
19DE
331
15A0
  5
15A0
331
1569
  5
1569
331
14F3
  5
14F3
331
14B4
  5
14B4
331
152A
  5
152A
331
161E
  5
161E
331
15E7
  5
15E7
331
1571
  5
1571
331
14FB
  5
14FB
331
1532
  5
1532
331
15A8
  5
15A8
331
147B
  5
147B
331
143C
  5
143C
331
1405
  5
1405
331
1626
  5
1626
331
15EF
  5
15EF
331
15B0
  5
15B0
331
1503
  5
1503
331
1579
  5
1579
331
16D5
  5
16D5
331
1444
  5
1444
331
140D
  5
140D
331
1483
  5
1483
331
1542
  5
1542
331
14CC
  5
14CC
331
15B8
  5
15B8
331
15F7
  5
15F7
331
148B
  5
148B
331
1415
  5
1415
331
144C
  5
144C
331
16A6
  5
16A6
331
1454
  5
1454
331
16E3
  5
16E3
331
16EB
  5
16EB
331
1918
  5
1918
331
16F3
  5
16F3
331
1920
  5
1920
331
1B75
  5
1B75
331
15C0
  5
15C0
331
1581
  5
1581
331
150B
  5
150B
331
1495
  5
1495
331
14D4
  5
14D4
331
154A
  5
154A
331
16FB
  5
16FB
331
1930
  5
1930
331
1B7D
  5
1B7D
331
16AE
  5
16AE
331
15C8
  5
15C8
331
1589
  5
1589
331
1513
  5
1513
331
14DC
  5
14DC
331
149D
  5
149D
331
1552
  5
1552
331
15FF
  5
15FF
331
19CF
  5
19CF
331
1B2E
  5
1B2E
331
145C
  5
145C
331
1591
  5
1591
331
155A
  5
155A
331
14E4
  5
14E4
331
14A5
  5
14A5
331
151B
  5
151B
331
15D0
  5
15D0
331
16B6
  5
16B6
331
141D
  5
141D
331
1464
  5
1464
331
160F
  5
160F
331
15D8
  5
15D8
331
1562
  5
1562
331
1523
  5
1523
331
14AD
  5
14AD
331
14EC
  5
14EC
331
1599
  5
1599
331
16BE
  5
16BE
331
13EE
  5
13EE
331
142D
  5
142D
331
1617
  5
1617
331
13F6
  5
13F6
331
146C
  5
146C
331
1435
  5
1435
331
1474
  5
1474
331
1703
  5
1703
331
170B
  5
170B
331
1940
  5
1940
331
19D7
  5
19D7
331
1B3E
  5
1B3E
331
1782
  5
1782
331
1713
  5
1713
331
1948
  5
1948
331
15E0
  5
15E0
331
156A
  5
156A
331
152B
  5
152B
331
14B5
  5
14B5
331
14F4
  5
14F4
331
15A1
  5
15A1
331
1C0C
  5
1C0C
331
15E8
  5
15E8
331
15A9
  5
15A9
331
1533
  5
1533
331
14FC
  5
14FC
331
14BD
  5
14BD
331
1572
  5
1572
331
161F
  5
161F
331
1C73
  5
1C73
331
1627
  5
1627
331
15B1
  5
15B1
331
157A
  5
157A
331
1504
  5
1504
331
14C5
  5
14C5
331
153B
  5
153B
331
15F0
  5
15F0
331
16D6
  5
16D6
331
1406
  5
1406
331
143D
  5
143D
331
1484
  5
1484
331
1445
  5
1445
331
14CD
  5
14CD
331
1543
  5
1543
331
15B9
  5
15B9
331
140E
  5
140E
331
144D
  5
144D
331
16A7
  5
16A7
331
1416
  5
1416
331
148C
  5
148C
331
1455
  5
1455
331
16E4
  5
16E4
331
1911
  5
1911
331
16EC
  5
16EC
331
1919
  5
1919
331
1B76
  5
1B76
331
16F4
  5
16F4
331
1921
  5
1921
331
1582
  5
1582
331
154B
  5
154B
331
14D5
  5
14D5
331
1496
  5
1496
331
150C
  5
150C
331
15C1
  5
15C1
331
1BC5
  5
1BC5
331
1B7E
  5
1B7E
331
1931
  5
1931
331
16FC
  5
16FC
331
19C8
  5
19C8
331
1600
  5
1600
331
15C9
  5
15C9
331
1553
  5
1553
331
1514
  5
1514
331
149E
  5
149E
331
158A
  5
158A
331
16AF
  5
16AF
331
1B86
  5
1B86
331
16B7
  5
16B7
331
15D1
  5
15D1
331
1592
  5
1592
331
151C
  5
151C
331
14A6
  5
14A6
331
14E5
  5
14E5
331
155B
  5
155B
331
1608
  5
1608
331
141E
  5
141E
331
145D
  5
145D
331
1426
  5
1426
331
16BF
  5
16BF
331
15D9
  5
15D9
331
159A
  5
159A
331
1524
  5
1524
331
14ED
  5
14ED
331
14AE
  5
14AE
331
1563
  5
1563
331
1610
  5
1610
331
1CC3
  5
1CC3
331
13EF
  5
13EF
331
1465
  5
1465
331
146D
  5
146D
331
16C7
  5
16C7
331
1D03
  5
1D03
331
13F7
  5
13F7
331
142E
  5
142E
331
1475
  5
1475
331
1436
  5
1436
331
13FF
  5
13FF
331
1939
  5
1939
331
1704
  5
1704
331
19D0
  5
19D0
331
1941
  5
1941
331
170C
  5
170C
331
19D8
  5
19D8
331
1B3F
  5
1B3F
  0
SORTENTSTABLE
  5
1AC2
102
{ACAD_REACTORS
330
1AC1
102
}
330
1AC1
100
AcDbSortentsTable
330
1AB5
  0
SORTENTSTABLE
  5
1C70
102
{ACAD_REACTORS
330
1C6F
102
}
330
1C6F
100
AcDbSortentsTable
330
1C63
  0
SORTENTSTABLE
  5
1CC0
102
{ACAD_REACTORS
330
1CBF
102
}
330
1CBF
100
AcDbSortentsTable
330
1C9B
  0
DIMASSOC
  5
173F
102
{ACAD_REACTORS
330
173E
102
}
330
173E
100
AcDbDimAssoc
330
1730
 90
        3
 70
     0
 71
     0
  1
AcDbOsnapPointRef
 72
    13
331
160B
 73
     0
 91
        0
 40
0.0
 10
0.0
 20
0.0
 30
2.000000000000000E+50
 75
     0
  1
AcDbOsnapPointRef
 72
    13
331
1468
 73
     0
 91
        0
 40
0.0
 10
0.0
 20
0.0
 30
2.000000000000000E+50
 75
     0
  0
DIMASSOC
  5
176A
102
{ACAD_REACTORS
330
1769
102
}
330
1769
100
AcDbDimAssoc
330
175C
 90
        3
 70
     0
 71
     0
  1
AcDbOsnapPointRef
 72
     1
331
174C
 73
     0
 91
        0
 40
0.0
 10
0.0
 20
0.0
 30
2.000000000000000E+50
 75
     0
  1
AcDbOsnapPointRef
 72
    13
331
1468
 73
     0
 91
        0
 40
0.0
 10
0.0
 20
0.0
 30
2.000000000000000E+50
 75
     0
  0
DIMASSOC
  5
1790
102
{ACAD_REACTORS
330
178F
102
}
330
178F
100
AcDbDimAssoc
330
1782
 90
        3
 70
     0
 71
     0
  1
AcDbOsnapPointRef
 72
     1
331
174C
 73
     0
 91
        0
 40
0.0
 10
0.0
 20
0.0
 30
2.000000000000000E+50
 75
     0
  1
AcDbOsnapPointRef
 72
    13
331
160B
 73
     0
 91
        0
 40
0.0
 10
0.0
 20
0.0
 30
2.000000000000000E+50
 75
     0
  0
DIMASSOC
  5
17DC
102
{ACAD_REACTORS
330
17DB
102
}
330
17DB
100
AcDbDimAssoc
330
17CE
 90
        3
 70
     0
 71
     0
  1
AcDbOsnapPointRef
 72
    13
331
1576
 73
     0
 91
        0
 40
0.0
 10
0.0
 20
0.0
 30
2.000000000000000E+50
 75
     0
  1
AcDbOsnapPointRef
 72
     1
331
1575
 73
     0
 91
        0
 40
0.0
 10
0.0
 20
0.0
 30
2.000000000000000E+50
 75
     0
  0
DIMASSOC
  5
199D
102
{ACAD_REACTORS
330
199C
102
}
330
199C
100
AcDbDimAssoc
330
198D
 90
        3
 70
     0
 71
     0
  1
AcDbOsnapPointRef
 72
     1
331
160D
 73
     0
 91
        0
 40
0.0
 10
0.0
 20
0.0
 30
2.000000000000000E+50
 75
     0
  1
AcDbOsnapPointRef
 72
     1
331
160F
 73
     0
 91
        0
 40
0.0
 10
0.0
 20
0.0
 30
2.000000000000000E+50
 75
     0
  0
DIMASSOC
  5
1C2E
102
{ACAD_REACTORS
330
1C2D
102
}
330
1C2D
100
AcDbDimAssoc
330
1C20
 90
        1
 70
     0
 71
     0
  1
AcDbOsnapPointRef
 72
    13
331
15FE
 73
     0
 91
        0
 40
0.0
 10
0.0
 20
0.0
 30
2.000000000000000E+50
 75
     0
  0
DIMASSOC
  5
1D11
102
{ACAD_REACTORS
330
1D10
102
}
330
1D10
100
AcDbDimAssoc
330
1D03
 90
        3
 70
     0
 71
     0
  1
AcDbOsnapPointRef
 72
     1
331
15FF
 73
     0
 91
        0
 40
0.0
 10
0.0
 20
0.0
 30
2.000000000000000E+50
 75
     0
  1
AcDbOsnapPointRef
 72
     1
331
1C73
331
1C6E
 73
     0
 91
        0
 40
0.0
 10
0.0
 20
0.0
 30
2.000000000000000E+50
 75
     0
  0
DIMASSOC
  5
1D3E
102
{ACAD_REACTORS
330
1D3D
102
}
330
1D3D
100
AcDbDimAssoc
330
1D2E
 90
        3
 70
     0
 71
     0
  1
AcDbOsnapPointRef
 72
    13
331
1CC3
331
1CA4
 73
     0
 91
        0
 40
0.0
 10
0.0
 20
0.0
 30
2.000000000000000E+50
 75
     0
  1
AcDbOsnapPointRef
 72
     1
331
1CC3
331
1CA3
 73
     0
 91
        0
 40
0.0
 10
0.0
 20
0.0
 30
2.000000000000000E+50
 75
     0
  0
DIMASSOC
  5
1E10
102
{ACAD_REACTORS
330
1E0F
102
}
330
1E0F
100
AcDbDimAssoc
330
1E02
 90
        3
 70
     0
 71
     0
  1
AcDbOsnapPointRef
 72
     1
331
1CC3
331
1C9E
 73
     0
 91
        0
 40
0.0
 10
0.0
 20
0.0
 30
2.000000000000000E+50
 75
     0
  1
AcDbOsnapPointRef
 72
    13
331
1CC3
331
1C9F
 73
     0
 91
        0
 40
0.0
 10
0.0
 20
0.0
 30
2.000000000000000E+50
 75
     0
  0
LAYOUT
  5
22
102
{ACAD_XDICTIONARY
360
210A
102
}
102
{ACAD_REACTORS
330
1A
102
}
330
1A
100
AcDbPlotSettings
  1

  2
\\RD\EPSON Stylus C63 Series單色
  4
A4
  6

 40
3.757083177566528
 41
3.757076978683471
 42
3.757080078125
 43
3.757080078125
 44
209.9733276367187
 45
296.9683227539062
 46
0.0
 47
0.0
 48
0.0
 49
0.0
140
0.0
141
0.0
142
1.0
143
0.3405120737814363
 70
 11952
 72
     1
 73
     0
 74
     0
  7
彩色出圖.ctb
 75
     0
147
2.936753428137963
148
-2047.07469463503
149
-1261.649717473083
100
AcDbLayout
  1
Model
 70
     1
 71
     0
 10
0.0
 20
0.0
 11
12.0
 21
9.0
 12
0.0
 22
0.0
 32
0.0
 14
0.0
 24
0.0
 34
0.0
 15
0.0
 25
0.0
 35
0.0
146
0.0
 13
0.0
 23
0.0
 33
0.0
 16
1.0
 26
0.0
 36
0.0
 17
0.0
 27
1.0
 37
0.0
 76
     0
330
1F
1001
ACAD_PSEXT
1000
\\RD\EPSON Stylus C63 Series單色
1000
EPSON Stylus C63 Series
1000
\\RD
1000

1070
     0
  0
LAYOUT
  5
1E
102
{ACAD_XDICTIONARY
360
2108
102
}
102
{ACAD_REACTORS
330
1A
102
}
330
1A
100
AcDbPlotSettings
  1

  2

  4

  6

 40
0.0
 41
0.0
 42
0.0
 43
0.0
 44
0.0
 45
0.0
 46
0.0
 47
0.0
 48
0.0
 49
0.0
140
0.0
141
0.0
142
1.0
143
1.0
 70
   688
 72
     0
 73
     0
 74
     5
  7
彩色出圖.ctb
 75
    16
147
1.0
148
0.0
149
0.0
100
AcDbLayout
  1
配置1
 70
     1
 71
     1
 10
0.0
 20
0.0
 11
420.0
 21
297.0
 12
0.0
 22
0.0
 32
0.0
 14
1.000000000000000E+20
 24
1.000000000000000E+20
 34
1.000000000000000E+20
 15
-1.000000000000000E+20
 25
-1.000000000000000E+20
 35
-1.000000000000000E+20
146
0.0
 13
0.0
 23
0.0
 33
0.0
 16
1.0
 26
0.0
 36
0.0
 17
0.0
 27
1.0
 37
0.0
 76
     0
330
1B
  0
LAYOUT
  5
26
102
{ACAD_XDICTIONARY
360
210C
102
}
102
{ACAD_REACTORS
330
1A
102
}
330
1A
100
AcDbPlotSettings
  1

  2

  4

  6

 40
0.0
 41
0.0
 42
0.0
 43
0.0
 44
0.0
 45
0.0
 46
0.0
 47
0.0
 48
0.0
 49
0.0
140
0.0
141
0.0
142
1.0
143
1.0
 70
   688
 72
     0
 73
     0
 74
     5
  7
彩色出圖.ctb
 75
    16
147
1.0
148
0.0
149
0.0
100
AcDbLayout
  1
配置2
 70
     1
 71
     2
 10
0.0
 20
0.0
 11
12.0
 21
9.0
 12
0.0
 22
0.0
 32
0.0
 14
0.0
 24
0.0
 34
0.0
 15
0.0
 25
0.0
 35
0.0
146
0.0
 13
0.0
 23
0.0
 33
0.0
 16
1.0
 26
0.0
 36
0.0
 17
0.0
 27
1.0
 37
0.0
 76
     0
330
23
  0
MLINESTYLE
  5
18
102
{ACAD_REACTORS
330
17
102
}
330
17
100
AcDbMlineStyle
  2
STANDARD
 70
     0
  3

 62
   256
 51
90.0
 52
90.0
 71
     2
 49
0.5
 62
   256
  6
BYLAYER
 49
-0.5
 62
   256
  6
BYLAYER
  0
ACDBPLACEHOLDER
  5
F
102
{ACAD_REACTORS
330
E
102
}
330
E
  0
TABLESTYLE
  5
11B
102
{ACAD_REACTORS
330
11A
102
}
330
11A
100
AcDbTableStyle
  3
Standard
 70
     0
 71
     0
 40
1.5
 41
1.5
280
     0
281
     0
  7
STANDARD
140
4.5
170
     2
 62
     0
 63
     7
283
     0
274
    -2
284
     1
 64
     0
275
    -2
285
     1
 65
     0
276
    -2
286
     1
 66
     0
277
    -2
287
     1
 67
     0
278
    -2
288
     1
 68
     0
279
    -2
289
     1
 69
     0
  7
STANDARD
140
6.0
170
     5
 62
     0
 63
     7
283
     0
274
    -2
284
     1
 64
     0
275
    -2
285
     1
 65
     0
276
    -2
286
     1
 66
     0
277
    -2
287
     1
 67
     0
278
    -2
288
     1
 68
     0
279
    -2
289
     1
 69
     0
  7
STANDARD
140
4.5
170
     5
 62
     0
 63
     7
283
     0
274
    -2
284
     1
 64
     0
275
    -2
285
     1
 65
     0
276
    -2
286
     1
 66
     0
277
    -2
287
     1
 67
     0
278
    -2
288
     1
 68
     0
279
    -2
289
     1
 69
     0
  0
DICTIONARYVAR
  5
138
102
{ACAD_REACTORS
330
94
102
}
330
94
100
DictionaryVariables
280
     0
  1
STANDARD
  0
DICTIONARYVAR
  5
96
102
{ACAD_REACTORS
330
94
102
}
330
94
100
DictionaryVariables
280
     0
  1
2
  0
DICTIONARYVAR
  5
95
102
{ACAD_REACTORS
330
94
102
}
330
94
100
DictionaryVariables
280
     0
  1
0
  0
DICTIONARYVAR
  5
2104
102
{ACAD_REACTORS
330
94
102
}
330
94
100
DictionaryVariables
280
     0
  1

  0
DICTIONARY
  5
1B5
102
{ACAD_REACTORS
330
5B
102
}
330
5B
100
AcDbDictionary
281
     1
  0
DICTIONARY
  5
61
102
{ACAD_REACTORS
330
5B
102
}
330
5B
100
AcDbDictionary
281
     1
  0
XRECORD
  5
123
102
{ACAD_REACTORS
330
5B
102
}
330
5B
100
AcDbXrecord
280
     1
 90
-1023410169
  0
DICTIONARY
  5
210A
330
22
100
AcDbDictionary
280
     1
281
     1
  3
ACAD_XREC_ROUNDTRIP
360
210B
  0
DICTIONARY
  5
2108
330
1E
100
AcDbDictionary
280
     1
281
     1
  3
ACAD_XREC_ROUNDTRIP
360
2109
  0
DICTIONARY
  5
210C
330
26
100
AcDbDictionary
280
     1
281
     1
  3
ACAD_XREC_ROUNDTRIP
360
210D
  0
XRECORD
  5
210B
102
{ACAD_REACTORS
330
210A
102
}
330
210A
100
AcDbXrecord
280
     1
102
SHADEPLOT
 70
     0
102
SHADEPLOTRESLEVEL
 70
     2
102
SHADEPLOTCUSTOMDPI
 70
   300
  0
XRECORD
  5
2109
102
{ACAD_REACTORS
330
2108
102
}
330
2108
100
AcDbXrecord
280
     1
102
SHADEPLOT
 70
     0
102
SHADEPLOTRESLEVEL
 70
     2
102
SHADEPLOTCUSTOMDPI
 70
   300
  0
XRECORD
  5
210D
102
{ACAD_REACTORS
330
210C
102
}
330
210C
100
AcDbXrecord
280
     1
102
SHADEPLOT
 70
     0
102
SHADEPLOTRESLEVEL
 70
     2
102
SHADEPLOTCUSTOMDPI
 70
   300
  0
ENDSEC
  0
EOF
