  0
SECTION
  2
HEADER
  9
$ACADVER
  1
AC1015
  9
$ACADMAINTVER
 70
    20
  9
$DWGCODEPAGE
  3
ANSI_950
  9
$INSBASE
 10
196.8846923010438
 20
-148.80236534061
 30
0.0
  9
$EXTMIN
 10
-2.337852726767778
 20
315.4172020646597
 30
-0.0178056863582015
  9
$EXTMAX
 10
341.9401706660094
 20
822.4396069110603
 30
322.7243082641517
  9
$LIMMIN
 10
0.0
 20
0.0
  9
$LIMMAX
 10
12.0
 20
9.0
  9
$ORTHOMODE
 70
     1
  9
$REGENMODE
 70
     0
  9
$FILLMODE
 70
     1
  9
$QTEXTMODE
 70
     0
  9
$MIRRTEXT
 70
     1
  9
$LTSCALE
 40
6.0
  9
$ATTMODE
 70
     1
  9
$TEXTSIZE
 40
4.0
  9
$TRACEWID
 40
0.05
  9
$TEXTSTYLE
  7
DAYUS
  9
$CLAYER
  8
0
  9
$CELTYPE
  6
BYLAYER
  9
$CECOLOR
 62
   256
  9
$CELTSCALE
 40
1.0
  9
$DISPSILH
 70
     0
  9
$DIMSCALE
 40
1.0
  9
$DIMASZ
 40
3.0
  9
$DIMEXO
 40
1.0
  9
$DIMDLI
 40
8.0
  9
$DIMRND
 40
0.0
  9
$DIMDLE
 40
0.0
  9
$DIMEXE
 40
1.0
  9
$DIMTP
 40
0.1
  9
$DIMTM
 40
0.1
  9
$DIMTXT
 40
3.5
  9
$DIMCEN
 40
0.0
  9
$DIMTSZ
 40
0.0
  9
$DIMTOL
 70
     0
  9
$DIMLIM
 70
     0
  9
$DIMTIH
 70
     0
  9
$DIMTOH
 70
     0
  9
$DIMSE1
 70
     0
  9
$DIMSE2
 70
     0
  9
$DIMTAD
 70
     1
  9
$DIMZIN
 70
     8
  9
$DIMBLK
  1

  9
$DIMASO
 70
     1
  9
$DIMSHO
 70
     0
  9
$DIMPOST
  1

  9
$DIMAPOST
  1
"
  9
$DIMALT
 70
     0
  9
$DIMALTD
 70
     2
  9
$DIMALTF
 40
0.0393701
  9
$DIMLFAC
 40
1.0
  9
$DIMTOFL
 70
     1
  9
$DIMTVP
 40
0.0
  9
$DIMTIX
 70
     0
  9
$DIMSOXD
 70
     0
  9
$DIMSAH
 70
     0
  9
$DIMBLK1
  1

  9
$DIMBLK2
  1

  9
$DIMSTYLE
  2
AM_ISO
  9
$DIMCLRD
 70
   256
  9
$DIMCLRE
 70
   256
  9
$DIMCLRT
 70
   256
  9
$DIMTFAC
 40
0.71
  9
$DIMGAP
 40
1.0
  9
$DIMJUST
 70
     0
  9
$DIMSD1
 70
     0
  9
$DIMSD2
 70
     0
  9
$DIMTOLJ
 70
     0
  9
$DIMTZIN
 70
     8
  9
$DIMALTZ
 70
     8
  9
$DIMALTTZ
 70
     0
  9
$DIMUPT
 70
     0
  9
$DIMDEC
 70
     2
  9
$DIMTDEC
 70
     2
  9
$DIMALTU
 70
     2
  9
$DIMALTTD
 70
     2
  9
$DIMTXSTY
  7
STANDARD
  9
$DIMAUNIT
 70
     0
  9
$DIMADEC
 70
     0
  9
$DIMALTRND
 40
0.0
  9
$DIMAZIN
 70
     2
  9
$DIMDSEP
 70
    46
  9
$DIMATFIT
 70
     3
  9
$DIMFRAC
 70
     0
  9
$DIMLDRBLK
  1

  9
$DIMLUNIT
 70
     2
  9
$DIMLWD
 70
    -1
  9
$DIMLWE
 70
    -1
  9
$DIMTMOVE
 70
     0
  9
$LUNITS
 70
     2
  9
$LUPREC
 70
     2
  9
$SKETCHINC
 40
0.1
  9
$FILLETRAD
 40
2.5
  9
$AUNITS
 70
     0
  9
$AUPREC
 70
     0
  9
$MENU
  1
ACAD
  9
$ELEVATION
 40
0.0
  9
$PELEVATION
 40
0.0
  9
$THICKNESS
 40
0.0
  9
$LIMCHECK
 70
     0
  9
$CHAMFERA
 40
2.5
  9
$CHAMFERB
 40
2.5
  9
$CHAMFERC
 40
0.0
  9
$CHAMFERD
 40
0.0
  9
$SKPOLY
 70
     0
  9
$TDCREATE
 40
2450294.561725000
  9
$TDUCREATE
 40
2450294.228391667
  9
$TDUPDATE
 40
2454735.629960475
  9
$TDUUPDATE
 40
2454735.296627141
  9
$TDINDWG
 40
0.8962701042
  9
$TDUSRTIMER
 40
0.8962701042
  9
$USRTIMER
 70
     1
  9
$ANGBASE
 50
0.0
  9
$ANGDIR
 70
     0
  9
$PDMODE
 70
    65
  9
$PDSIZE
 40
6.299999999999999
  9
$PLINEWID
 40
0.0
  9
$SPLFRAME
 70
     0
  9
$SPLINETYPE
 70
     6
  9
$SPLINESEGS
 70
     8
  9
$HANDSEED
  5
7E8C
  9
$SURFTAB1
 70
     6
  9
$SURFTAB2
 70
     6
  9
$SURFTYPE
 70
     6
  9
$SURFU
 70
     6
  9
$SURFV
 70
     6
  9
$UCSBASE
  2

  9
$UCSNAME
  2

  9
$UCSORG
 10
0.0
 20
0.0
 30
0.0
  9
$UCSXDIR
 10
1.0
 20
0.0
 30
0.0
  9
$UCSYDIR
 10
0.0
 20
1.0
 30
0.0
  9
$UCSORTHOREF
  2

  9
$UCSORTHOVIEW
 70
     0
  9
$UCSORGTOP
 10
0.0
 20
0.0
 30
0.0
  9
$UCSORGBOTTOM
 10
0.0
 20
0.0
 30
0.0
  9
$UCSORGLEFT
 10
0.0
 20
0.0
 30
0.0
  9
$UCSORGRIGHT
 10
0.0
 20
0.0
 30
0.0
  9
$UCSORGFRONT
 10
0.0
 20
0.0
 30
0.0
  9
$UCSORGBACK
 10
0.0
 20
0.0
 30
0.0
  9
$PUCSBASE
  2

  9
$PUCSNAME
  2

  9
$PUCSORG
 10
0.0
 20
0.0
 30
0.0
  9
$PUCSXDIR
 10
1.0
 20
0.0
 30
0.0
  9
$PUCSYDIR
 10
0.0
 20
1.0
 30
0.0
  9
$PUCSORTHOREF
  2

  9
$PUCSORTHOVIEW
 70
     0
  9
$PUCSORGTOP
 10
0.0
 20
0.0
 30
0.0
  9
$PUCSORGBOTTOM
 10
0.0
 20
0.0
 30
0.0
  9
$PUCSORGLEFT
 10
0.0
 20
0.0
 30
0.0
  9
$PUCSORGRIGHT
 10
0.0
 20
0.0
 30
0.0
  9
$PUCSORGFRONT
 10
0.0
 20
0.0
 30
0.0
  9
$PUCSORGBACK
 10
0.0
 20
0.0
 30
0.0
  9
$USERI1
 70
     0
  9
$USERI2
 70
     0
  9
$USERI3
 70
     0
  9
$USERI4
 70
     0
  9
$USERI5
 70
     0
  9
$USERR1
 40
0.0
  9
$USERR2
 40
0.0
  9
$USERR3
 40
0.0
  9
$USERR4
 40
0.0
  9
$USERR5
 40
0.0
  9
$WORLDVIEW
 70
     1
  9
$SHADEDGE
 70
     3
  9
$SHADEDIF
 70
    70
  9
$TILEMODE
 70
     1
  9
$MAXACTVP
 70
    16
  9
$PINSBASE
 10
0.0
 20
0.0
 30
0.0
  9
$PLIMCHECK
 70
     0
  9
$PEXTMIN
 10
1.000000000000000E+20
 20
1.000000000000000E+20
 30
1.000000000000000E+20
  9
$PEXTMAX
 10
-1.000000000000000E+20
 20
-1.000000000000000E+20
 30
-1.000000000000000E+20
  9
$PLIMMIN
 10
0.0
 20
0.0
  9
$PLIMMAX
 10
12.0
 20
9.0
  9
$UNITMODE
 70
     0
  9
$VISRETAIN
 70
     0
  9
$PLINEGEN
 70
     0
  9
$PSLTSCALE
 70
     0
  9
$TREEDEPTH
 70
  3020
  9
$CMLSTYLE
  2
STANDARD
  9
$CMLJUST
 70
     0
  9
$CMLSCALE
 40
1.0
  9
$PROXYGRAPHICS
 70
     1
  9
$MEASUREMENT
 70
     1
  9
$CELWEIGHT
370
    -1
  9
$ENDCAPS
280
     0
  9
$JOINSTYLE
280
     0
  9
$LWDISPLAY
290
     0
  9
$INSUNITS
 70
     4
  9
$HYPERLINKBASE
  1

  9
$STYLESHEET
  1
acad.ctb
  9
$XEDIT
290
     1
  9
$CEPSNTYPE
380
     0
  9
$PSTYLEMODE
290
     1
  9
$FINGERPRINTGUID
  2
{45CED059-6816-11D4-9CDD-0050BAE3FAE1}
  9
$VERSIONGUID
  2
{2D5519B1-3E44-482D-A0B4-C45A9D085A50}
  9
$EXTNAMES
290
     1
  9
$PSVPSCALE
 40
0.0
  9
$OLESTARTUP
290
     0
  0
ENDSEC
  0
SECTION
  2
CLASSES
  0
CLASS
  1
DICTIONARYVAR
  2
AcDbDictionaryVar
  3
ObjectDBX Classes
 90
        0
280
     0
281
     0
  0
CLASS
  1
ACDBDICTIONARYWDFLT
  2
AcDbDictionaryWithDefault
  3
ObjectDBX Classes
 90
        0
280
     0
281
     0
  0
CLASS
  1
ACDBPLACEHOLDER
  2
AcDbPlaceHolder
  3
ObjectDBX Classes
 90
        0
280
     0
281
     0
  0
CLASS
  1
LAYOUT
  2
AcDbLayout
  3
ObjectDBX Classes
 90
        0
280
     0
281
     0
  0
CLASS
  1
SORTENTSTABLE
  2
AcDbSortentsTable
  3
ObjectDBX Classes
 90
        0
280
     0
281
     0
  0
CLASS
  1
TABLESTYLE
  2
AcDbTableStyle
  3
ObjectDBX Classes
 90
     2047
280
     0
281
     0
  0
CLASS
  1
ACME_DOCUMENT
  2
AcMeDbDoc
  3
AcMeServices
 90
        0
280
     0
281
     0
  0
CLASS
  1
AMGSETTINGSOBJ
  2
AmgSettingsObj
  3
"AcadM|Product Description: AutoCAD Mechanical 2000|Company: Autodesk"
 90
        0
280
     0
281
     0
  0
CLASS
  1
ACMESCOPE
  2
AcMeScope
  3
AcMeServices
 90
        0
280
     0
281
     0
  0
CLASS
  1
ACMECOMMANDHISTORY
  2
AcMeCommandHistory
  3
AcMeServices
 90
        0
280
     0
281
     0
  0
CLASS
  1
ACIMSYSVARMAN
  2
AcImSysVarManager
  3
AcMeServices
 90
        0
280
     0
281
     0
  0
CLASS
  1
ACIMINTSYSVAR
  2
AcImIntSysVar
  3
AcMeServices
 90
        0
280
     0
281
     0
  0
CLASS
  1
ACMEDRAWINGMAN
  2
AcMeDrawingMan
  3
AcMeServices
 90
        0
280
     0
281
     0
  0
CLASS
  1
ACMEVIEW
  2
AcMeView
  3
AcMeServices
 90
        0
280
     0
281
     0
  0
CLASS
  1
ACDBENTITYCACHE
  2
AcMeEntityCache
  3
AcMeServices
 90
        0
280
     0
281
     0
  0
CLASS
  1
GSMANAGER
  2
AcMeGSManager
  3
AcMeServices
 90
        0
280
     0
281
     0
  0
CLASS
  1
AMDTINTERNALREACTOR
  2
AmdtInternalReactor
  3
AcMeServices
 90
        0
280
     0
281
     0
  0
CLASS
  1
ACMESTATEMGR
  2
AcMeStateMgr
  3
AcMeServices
 90
        0
280
     0
281
     0
  0
CLASS
  1
ACGREFMASTER
  2
AcGrefMaster
  3
AcAttribServices
 90
        0
280
     0
281
     0
  0
CLASS
  1
AM_DRAWING_MGR
  2
AcDmDwgMgr
  3
AcMechDwgViewMgmt
 90
        0
280
     0
281
     0
  0
CLASS
  1
AM_DWG_DOCUMENT
  2
AcDmDwgDocument
  3
AcMechDwgViewMgmt
 90
        0
280
     0
281
     0
  0
CLASS
  1
AM_DWG_SHEET
  2
AcDmSheet
  3
AcMechDwgViewMgmt
 90
        0
280
     0
281
     0
  0
CLASS
  1
AM_VIEWDIMPARMAP
  2
AcDmViewDimParMap
  3
AcMechDwgViewMgmt
 90
        0
280
     0
281
     0
  0
CLASS
  1
ACIMREALSYSVAR
  2
AcImRealSysVar
  3
AcMeServices
 90
        0
280
     0
281
     0
  0
CLASS
  1
AM_DWGMGR_NAME
  2
AcDmDwgMgrName
  3
AcMechDwgViewMgmt
 90
        0
280
     0
281
     0
  0
CLASS
  1
ACME_DATABASE
  2
AcMeDbDatabase
  3
AcMeServices
 90
        0
280
     0
281
     0
  0
CLASS
  1
ACRFINSADJUSTERMGR
  2
AcRfInsAdjusterMgr
  3
AcMeServices
 90
        0
280
     0
281
     0
  0
CLASS
  1
ACGREFACADMASTER
  2
AcGrefacadMaster
  3
AcGrefServices
 90
        0
280
     0
281
     0
  0
CLASS
  1
AMDTMENUSTATEMGR
  2
AmdtMenuStateMgr
  3
McadcomServices
 90
        0
280
     0
281
     0
  0
CLASS
  1
AMDTMCOMMENUSTATE
  2
AmdtMcomMenuState
  3
McadcomServices
 90
        0
280
     0
281
     0
  0
CLASS
  1
AMIMASTER
  2
AmiMaster
  3
AmiServices
 90
        0
280
     0
281
     0
  0
CLASS
  1
MAPIAMMOUDLE
  2
MApiAmModule
  3
MApiAmServices
 90
        0
280
     0
281
     0
  0
CLASS
  1
AMDTADMENUSTATE
  2
AmdtAdMenuState
  3
DesignerServices
 90
        0
280
     0
281
     0
  0
CLASS
  1
ADAPPL
  2
AcAdAppl
  3
DesignerServices
 90
        0
280
     0
281
     0
  0
CLASS
  1
DEPMGR
  2
AcAdDepMgr
  3
DesignerServices
 90
        0
280
     0
281
     0
  0
CLASS
  1
PARAMMGR
  2
AcAdParamMgr
  3
DesignerServices
 90
        0
280
     0
281
     0
  0
CLASS
  1
PARAMSCOPE
  2
AcAdParamScope
  3
DesignerServices
 90
        0
280
     0
281
     0
  0
CLASS
  1
NAMEDAPPL
  2
AcAdNamedAppl
  3
DesignerServices
 90
        0
280
     0
281
     0
  0
CLASS
  1
AMDTDMMENUSTATE
  2
AmdtDmMenuState
  3
AcMechDwgViewMgmt
 90
        0
280
     0
281
     0
  0
CLASS
  1
AMDTAMMENUSTATE
  2
AmdtAmMenuState
  3
DesignerAssemblies
 90
        0
280
     0
281
     0
  0
CLASS
  1
ACIMSTRSYSVAR
  2
AcImStrSysVar
  3
AcMeServices
 90
        0
280
     0
281
     0
  0
CLASS
  1
ACAMPROJECT
  2
AcAmProject
  3
DesignerAssemblies
 90
        0
280
     0
281
     0
  0
CLASS
  1
ACAMGRCOMPDEF
  2
AcAmGrCompDef
  3
DesignerAssemblies
 90
        0
280
     0
281
     0
  0
CLASS
  1
ACCMCONTEXT
  2
AcCmContext
  3
DesignerAssemblies
 90
        0
280
     0
281
     0
  0
CLASS
  1
ACAMCOMPDEF
  2
AcAmCompDef
  3
DesignerAssemblies
 90
        0
280
     0
281
     0
  0
CLASS
  1
ACAMCOMPDEFMGR
  2
AcAmCompDefMgr
  3
DesignerAssemblies
 90
        0
280
     0
281
     0
  0
CLASS
  1
AMCONTEXTMGR
  2
AcAmContextMgr
  3
DesignerAssemblies
 90
        0
280
     0
281
     0
  0
CLASS
  1
ACAMCONTEXTMODELER
  2
AcAmContextModeler
  3
DesignerAssemblies
 90
        0
280
     0
281
     0
  0
CLASS
  1
ACMDATADICTIONARY
  2
AcmDataDictionary
  3
"AcmSymBB|Product Description: AutoCAD Mechanical 2004 DX|Company: Autodesk"
 90
        0
280
     0
281
     0
  0
CLASS
  1
CATALOGSTATE
  2
AcAmCatalogState
  3
DesignerAssemblies
 90
        0
280
     0
281
     0
  0
CLASS
  1
ACAMGRCOMPDEFSET
  2
AcAmGrCompDefSet
  3
DesignerAssemblies
 90
        0
280
     0
281
     0
  0
CLASS
  1
AMDTBROWSERDBTAB
  2
AmdtBrowserDbTab
  3
McadcomServices
 90
        0
280
     0
281
     0
  0
CLASS
  1
CBROWSERAPPOBJECT
  2
CBrowserAppObject
  3
McadcomServices
 90
        0
280
     0
281
     0
  0
CLASS
  1
DM_PLACEHOLDER
  2
AcDmSelsetPlaceholder
  3
AcMechDwgViewMgmt
 90
        0
280
     0
281
     0
  0
CLASS
  1
ACMSTANDARDANSI
  2
AcmStandardANSI
  3
"Amdt_StdImp|Product Description: AutoCAD Mechanical 2004 DX|Company: Autodesk"
 90
    32768
280
     0
281
     0
  0
CLASS
  1
AMGOBJPROPCFG
  2
AmgObjPropCfg
  3
"AmgLay|Product Description: AutoCAD Mechanical 2000|Company: Autodesk"
 90
        1
280
     0
281
     0
  0
CLASS
  1
ACMSURFSTANDARDANSI
  2
AcmSurfTextStdANSI
  3
"Amdt_StdImp|Product Description: AutoCAD Mechanical 2004 DX|Company: Autodesk"
 90
    32768
280
     0
281
     0
  0
CLASS
  1
ACMFCFSTANDARDANSI
  2
AcmFCFStdANSI
  3
"Amdt_StdImp|Product Description: AutoCAD Mechanical 2004 DX|Company: Autodesk"
 90
    32768
280
     0
281
     0
  0
CLASS
  1
ACMWELDSTANDARDANSI
  2
AcmWeldingStdANSI
  3
"Amdt_StdImp|Product Description: AutoCAD Mechanical 2004 DX|Company: Autodesk"
 90
    32768
280
     0
281
     0
  0
CLASS
  1
ACMIDSTANDARDANSI
  2
AcmIdStdANSI
  3
"Amdt_StdImp|Product Description: AutoCAD Mechanical 2004 DX|Company: Autodesk"
 90
    32768
280
     0
281
     0
  0
CLASS
  1
ACMDATUMSTANDARDANSI
  2
AcmDatumStdANSI
  3
"Amdt_StdImp|Product Description: AutoCAD Mechanical 2004 DX|Company: Autodesk"
 90
    32768
280
     0
281
     0
  0
CLASS
  1
ACMBOMSTANDARDANSI
  2
AcmBOMStdANSI
  3
"Amdt_StdImp|Product Description: AutoCAD Mechanical 2004 DX|Company: Autodesk"
 90
    32768
280
     0
281
     0
  0
CLASS
  1
ACMDETAILSTANDARDANSI
  2
AmdtDetailSymStdANSI
  3
"Amdt_StdImp|Product Description: AutoCAD Mechanical 2004 DX|Company: Autodesk"
 90
    32768
280
     0
281
     0
  0
CLASS
  1
ACMSECTIONSTANDARDANSI
  2
AmdtSectionSymStdANSI
  3
"Amdt_StdImp|Product Description: AutoCAD Mechanical 2004 DX|Company: Autodesk"
 90
    32768
280
     0
281
     0
  0
CLASS
  1
ACMCENTERLINESTANDARDANSI
  2
AmdtCenterLineStdANSI
  3
"Amdt_StdImp|Product Description: AutoCAD Mechanical 2004 DX|Company: Autodesk"
 90
    32768
280
     0
281
     0
  0
CLASS
  1
ACMTHREADLINESTANDARDANSI
  2
AmdtThreadLineStdANSI
  3
"Amdt_StdImp|Product Description: AutoCAD Mechanical 2004 DX|Company: Autodesk"
 90
    32768
280
     0
281
     0
  0
CLASS
  1
ACMNOTESTANDARDANSI
  2
AmdtNoteStdANSI
  3
"Amdt_StdImp|Product Description: AutoCAD Mechanical 2004 DX|Company: Autodesk"
 90
    32768
280
     0
281
     0
  0
CLASS
  1
AMDTNOTETEMPLATEDB
  2
AmdtNoteTemplateDB
  3
AMDT_STDIMP_MODULE_NAME
 90
        0
280
     0
281
     0
  0
CLASS
  1
ACAMGLAYSTD
  2
AcAmgLayStd
  3
"AcAmgLayStd|Product Description: AutoCAD Mechanical 2000|Company: Autodesk"
 90
        0
280
     0
281
     0
  0
CLASS
  1
ACAMGDIMSTD
  2
AcAmgDimStd
  3
"AcAmgDimStd|Product Description: AutoCAD Mechanical 2000|Company: Autodesk"
 90
        0
280
     0
281
     0
  0
CLASS
  1
ACAMGHOLECHARTSTDANSI
  2
AcAmgHoleChartStdANSI
  3
ACMSYMBB_MODULE_NAME
 90
    32768
280
     0
281
     0
  0
CLASS
  1
ACAMGTITLESTD
  2
AcAmgTitleStd
  3
"TITLEAPP"
 90
        0
280
     0
281
     0
  0
CLASS
  1
ACMSTANDARDISO
  2
AcmStandardISO
  3
"Amdt_StdImp|Product Description: AutoCAD Mechanical 2004 DX|Company: Autodesk"
 90
        0
280
     0
281
     0
  0
CLASS
  1
AMDTEDGESTANDARDISO13715
  2
AmdtEdgeStdISO13715
  3
"Amdt_StdImp|Product Description: AutoCAD Mechanical 2004 DX|Company: Autodesk"
 90
        0
280
     0
281
     0
  0
CLASS
  1
ACMSURFSTANDARDISO
  2
AcmSurfTextStdISO
  3
"Amdt_StdImp|Product Description: AutoCAD Mechanical 2004 DX|Company: Autodesk"
 90
        0
280
     0
281
     0
  0
CLASS
  1
ACMFCFSTANDARDISO
  2
AcmFCFStdISO
  3
"Amdt_StdImp|Product Description: AutoCAD Mechanical 2004 DX|Company: Autodesk"
 90
        0
280
     0
281
     0
  0
CLASS
  1
ACMWELDSTANDARDISO
  2
AcmWeldingStdISO
  3
"Amdt_StdImp|Product Description: AutoCAD Mechanical 2004 DX|Company: Autodesk"
 90
        0
280
     0
281
     0
  0
CLASS
  1
ACMIDSTANDARDISO
  2
AcmIdStdISO
  3
"Amdt_StdImp|Product Description: AutoCAD Mechanical 2004 DX|Company: Autodesk"
 90
        0
280
     0
281
     0
  0
CLASS
  1
ACMDATUMSTANDARDISO
  2
AcmDatumStdISO
  3
"Amdt_StdImp|Product Description: AutoCAD Mechanical 2004 DX|Company: Autodesk"
 90
        0
280
     0
281
     0
  0
CLASS
  1
ACMBOMSTANDARDISO
  2
AcmBOMStdISO
  3
"Amdt_StdImp|Product Description: AutoCAD Mechanical 2004 DX|Company: Autodesk"
 90
        0
280
     0
281
     0
  0
CLASS
  1
ACMDETAILSTANDARDISO
  2
AmdtDetailSymStdISO
  3
"Amdt_StdImp|Product Description: AutoCAD Mechanical 2004 DX|Company: Autodesk"
 90
        0
280
     0
281
     0
  0
CLASS
  1
ACMSECTIONSTANDARDISO
  2
AmdtSectionSymStdISO
  3
"Amdt_StdImp|Product Description: AutoCAD Mechanical 2004 DX|Company: Autodesk"
 90
        0
280
     0
281
     0
  0
CLASS
  1
ACMCENTERLINESTANDARDISO
  2
AmdtCenterLineStdISO
  3
"Amdt_StdImp|Product Description: AutoCAD Mechanical 2004 DX|Company: Autodesk"
 90
        0
280
     0
281
     0
  0
CLASS
  1
ACMTHREADLINESTANDARDISO
  2
AmdtThreadLineStdISO
  3
"Amdt_StdImp|Product Description: AutoCAD Mechanical 2004 DX|Company: Autodesk"
 90
        0
280
     0
281
     0
  0
CLASS
  1
ACMNOTESTANDARDISO
  2
AmdtNoteStdISO
  3
"Amdt_StdImp|Product Description: AutoCAD Mechanical 2004 DX|Company: Autodesk"
 90
        0
280
     0
281
     0
  0
CLASS
  1
ACAMGHOLECHARTSTDISO
  2
AcAmgHoleChartStdISO
  3
ACMSYMBB_MODULE_NAME
 90
        0
280
     0
281
     0
  0
CLASS
  1
ACAMGFILTERDAT
  2
AcAmgFilterDat
  3
"AcadM|Product Description: AutoCAD Mechanical 2000|Company: Autodesk"
 90
    32768
280
     0
281
     0
  0
CLASS
  1
DIMASSOC
  2
AcDbDimAssoc
  3
"AcDbDimAssoc|Product Desc:     AcDim ARX App For Dimension|Company:          Autodesk, Inc.|WEB Address:      www.autodesk.com"
 90
        0
280
     0
281
     0
  0
CLASS
  1
ACRFATTGENMGR
  2
AcRfAttGeneralMgr
  3
AcAttribServices
 90
        0
280
     0
281
     0
  0
ENDSEC
  0
SECTION
  2
TABLES
  0
TABLE
  2
VPORT
  5
12
330
0
100
AcDbSymbolTable
 70
     6
  0
VPORT
  5
7E86
330
12
100
AcDbSymbolTableRecord
100
AcDbViewportTableRecord
  2
*Active
 70
     0
 10
0.0
 20
0.0
 11
1.0
 21
1.0
 12
169.8011589696208
 22
568.92840448786
 13
0.0
 23
0.0
 14
2.5
 24
2.5
 15
10.0
 25
10.0
 16
0.0
 26
0.0
 36
1.0
 17
0.0
 27
0.0
 37
0.0
 40
510.9076340023117
 41
0.9411764705882353
 42
50.0
 43
0.0
 44
0.0
 50
0.0
 51
0.0
 71
     0
 72
   100
 73
     1
 74
     1
 75
     0
 76
     0
 77
     0
 78
     0
281
     0
 65
     1
110
0.0
120
0.0
130
0.0
111
1.0
121
0.0
131
0.0
112
0.0
122
1.0
132
0.0
 79
     0
146
0.0
  0
ENDTAB
  0
TABLE
  2
LTYPE
  5
D
330
0
100
AcDbSymbolTable
 70
    19
  0
LTYPE
  5
E
330
D
100
AcDbSymbolTableRecord
100
AcDbLinetypeTableRecord
  2
BYBLOCK
 70
     0
  3

 72
    65
 73
     0
 40
0.0
  0
LTYPE
  5
F
330
D
100
AcDbSymbolTableRecord
100
AcDbLinetypeTableRecord
  2
BYLAYER
 70
     0
  3

 72
    65
 73
     0
 40
0.0
  0
LTYPE
  5
5
330
D
100
AcDbSymbolTableRecord
100
AcDbLinetypeTableRecord
  2
CONTINUOUS
 70
     0
  3
Solid line
 72
    65
 73
     0
 40
0.0
  0
LTYPE
  5
4E
330
D
100
AcDbSymbolTableRecord
100
AcDbLinetypeTableRecord
  2
CENTER
 70
     0
  3
____ _ ____ _ ____ _ ____ _ ____ _ ____ _ ____
 72
    65
 73
     4
 40
2.0
 49
1.25
 74
     0
 49
-0.25
 74
     0
 49
0.25
 74
     0
 49
-0.25
 74
     0
  0
LTYPE
  5
5A86
330
D
100
AcDbSymbolTableRecord
100
AcDbLinetypeTableRecord
  2
HIDDEN
 70
     0
  3
Hidden __ __ __ __ __ __ __ __ __ __ __ __ __ _
 72
    65
 73
     2
 40
0.375
 49
0.25
 74
     0
 49
-0.125
 74
     0
  0
LTYPE
  5
5BA9
330
D
100
AcDbSymbolTableRecord
100
AcDbLinetypeTableRecord
  2
PHANTOM2
 70
     0
  3
Phantom (.5x) ___ _ _ ___ _ _ ___ _ _ ___ _ _
 72
    65
 73
     6
 40
1.25
 49
0.625
 74
     0
 49
-0.125
 74
     0
 49
0.125
 74
     0
 49
-0.125
 74
     0
 49
0.125
 74
     0
 49
-0.125
 74
     0
  0
LTYPE
  5
5BDB
330
D
100
AcDbSymbolTableRecord
100
AcDbLinetypeTableRecord
  2
AM_ISO02W050
 70
     0
  3
__ __ __ __ __ __ __ __ __ __ __ __ __ __ __
 72
    65
 73
     2
 40
7.5
 49
6.0
 74
     0
 49
-1.5
 74
     0
  0
LTYPE
  5
5BDC
330
D
100
AcDbSymbolTableRecord
100
AcDbLinetypeTableRecord
  2
AM_ISO08W050
 70
     0
  3
____ . ____ . ____ . ____ . ____ . ____ . ____
 72
    65
 73
     4
 40
18.0
 49
12.0
 74
     0
 49
-1.5
 74
     0
 49
3.0
 74
     0
 49
-1.5
 74
     0
  0
LTYPE
  5
5BDD
330
D
100
AcDbSymbolTableRecord
100
AcDbLinetypeTableRecord
  2
AM_ISO09W050
 70
     0
  3
_____ . . _____ . . _____ . . ____ .. ____
 72
    65
 73
     6
 40
22.5
 49
12.0
 74
     0
 49
-1.5
 74
     0
 49
3.0
 74
     0
 49
-1.5
 74
     0
 49
3.0
 74
     0
 49
-1.5
 74
     0
  0
LTYPE
  5
5BDE
330
D
100
AcDbSymbolTableRecord
100
AcDbLinetypeTableRecord
  2
Amconstr
 70
     0
  3
_______________________
 72
    65
 73
     2
 40
9999.0
 49
9999.0
 74
     0
 49
0.0
 74
     0
  0
LTYPE
  5
5BDF
330
D
100
AcDbSymbolTableRecord
100
AcDbLinetypeTableRecord
  2
AM_ISO08W050x2
 70
     0
  3
__ . __ . __ . __ . __ . __
 72
    65
 73
     4
 40
9.0
 49
6.0
 74
     0
 49
-0.75
 74
     0
 49
1.5
 74
     0
 49
-0.75
 74
     0
  0
LTYPE
  5
5BE0
330
D
100
AcDbSymbolTableRecord
100
AcDbLinetypeTableRecord
  2
AM_ISO02W050x2
 70
     0
  3
 _ _ _ _ _ _ _ _ _ _ _ _
 72
    65
 73
     2
 40
3.75
 49
3.0
 74
     0
 49
-0.75
 74
     0
  0
LTYPE
  5
5BE3
330
D
100
AcDbSymbolTableRecord
100
AcDbLinetypeTableRecord
  2
Amzigzag
 70
     0
  3
/\/-/\/-/\/-/\/-/\/-/\/
 72
    65
 73
     2
 40
11.0001
 49
0.0001
 74
     4
 75
   135
340
5BE2
 46
0.04
 50
0.0
 44
0.0
 45
0.0
 49
-11.0
 74
     0
  0
LTYPE
  5
5C0E
330
D
100
AcDbSymbolTableRecord
100
AcDbLinetypeTableRecord
  2
ACISOWELD
 70
     0
  3
_ _ _ _ _
 72
    65
 73
     2
 40
2.0
 49
2.0
 74
     0
 49
-1.0
 74
     0
  0
LTYPE
  5
5C0F
330
D
100
AcDbSymbolTableRecord
100
AcDbLinetypeTableRecord
  2
ACISOTGB
 70
     0
  3
__ . . __ . .
 72
    65
 73
     6
 40
9.0
 49
4.0
 74
     0
 49
-1.0
 74
     0
 49
1.0
 74
     0
 49
-1.0
 74
     0
 49
1.0
 74
     0
 49
-1.0
 74
     0
  0
LTYPE
  5
5C10
330
D
100
AcDbSymbolTableRecord
100
AcDbLinetypeTableRecord
  2
ACISOTGL
 70
     0
  3
_ _ _ _ _
 72
    65
 73
     2
 40
3.0
 49
2.0
 74
     0
 49
-1.0
 74
     0
  0
ENDTAB
  0
TABLE
  2
LAYER
  5
A
102
{ACAD_XDICTIONARY
360
5C22
102
}
330
0
100
AcDbSymbolTable
 70
     7
  0
LAYER
  5
4
330
A
100
AcDbSymbolTableRecord
100
AcDbLayerTableRecord
  2
0
 70
     0
 62
     7
  6
CONTINUOUS
370
    -3
390
59A4
  0
LAYER
  5
31E
330
A
100
AcDbSymbolTableRecord
100
AcDbLayerTableRecord
  2
DEFPOINTS
 70
     0
 62
     7
  6
CONTINUOUS
290
     0
370
    -3
390
59A4
  0
LAYER
  5
5A87
330
A
100
AcDbSymbolTableRecord
100
AcDbLayerTableRecord
  2
LOGO
 70
     0
 62
     7
  6
CONTINUOUS
370
    -3
390
59A4
  0
LAYER
  5
5DF2
330
A
100
AcDbSymbolTableRecord
100
AcDbLayerTableRecord
  2
AM_VIS
 70
     0
 62
     7
  6
CONTINUOUS
370
    50
390
59A4
  0
LAYER
  5
5DF3
330
A
100
AcDbSymbolTableRecord
100
AcDbLayerTableRecord
  2
AM_7
 70
     0
 62
     1
  6
AM_ISO08W050
370
    25
390
59A4
  0
LAYER
  5
5DF5
330
A
100
AcDbSymbolTableRecord
100
AcDbLayerTableRecord
  2
AM_REFDIM
 70
     0
 62
     5
  6
CONTINUOUS
370
    25
390
59A4
  0
ENDTAB
  0
TABLE
  2
STYLE
  5
B
330
0
100
AcDbSymbolTable
 70
    10
  0
STYLE
  5
C
330
B
100
AcDbSymbolTableRecord
100
AcDbTextStyleTableRecord
  2
STANDARD
 70
     0
 40
0.0
 41
1.0
 50
0.0
 71
     0
 42
5.0
  3
ISOCP.SHX
  4

  0
STYLE
  5
1C
330
B
100
AcDbSymbolTableRecord
100
AcDbTextStyleTableRecord
  2
DAYUS
 70
     0
 40
0.0
 41
1.0
 50
0.0
 71
     0
 42
4.0
  3
simplex
  4
dayus
  0
STYLE
  5
5A89
330
B
100
AcDbSymbolTableRecord
100
AcDbTextStyleTableRecord
  2
CHINESET
 70
     0
 40
0.0
 41
1.0
 50
0.0
 71
     0
 42
4.0
  3
C:\r13\com\fonts\simplex.shx
  4
C:\r13\com\fonts\chineset.shx
  0
STYLE
  5
5BE2
330
B
100
AcDbSymbolTableRecord
100
AcDbTextStyleTableRecord
  2

 70
     1
 40
0.0
 41
1.0
 50
0.0
 71
     0
 42
4.0
  3
ltypeshp.shx
  4

  0
STYLE
  5
5C11
330
B
100
AcDbSymbolTableRecord
100
AcDbTextStyleTableRecord
  2
ACISOTS
 70
     0
 40
1.0
 41
1.0
 50
0.0
 71
     0
 42
6.0
  3
isocp.shx
  4
chineset.shx
  0
STYLE
  5
5C12
330
B
100
AcDbSymbolTableRecord
100
AcDbTextStyleTableRecord
  2
ACISOGDT
 70
     0
 40
0.0
 41
1.0
 50
0.0
 71
     0
 42
6.0
  3
amgdt.shx
  4

  0
ENDTAB
  0
TABLE
  2
VIEW
  5
10
330
0
100
AcDbSymbolTable
 70
     0
  0
ENDTAB
  0
TABLE
  2
UCS
  5
11
330
0
100
AcDbSymbolTable
 70
     0
  0
ENDTAB
  0
TABLE
  2
APPID
  5
14
330
0
100
AcDbSymbolTable
 70
    19
  0
APPID
  5
15
330
14
100
AcDbSymbolTableRecord
100
AcDbRegAppTableRecord
  2
ACAD
 70
     0
  0
APPID
  5
1C15
330
14
100
AcDbSymbolTableRecord
100
AcDbRegAppTableRecord
  2
MCAD_NO_VIS
 70
     0
  0
APPID
  5
1C16
330
14
100
AcDbSymbolTableRecord
100
AcDbRegAppTableRecord
  2
AD_DRAW
 70
     0
  0
APPID
  5
1C17
330
14
100
AcDbSymbolTableRecord
100
AcDbRegAppTableRecord
  2
DESIGNERASSEMBLIES
 70
     0
  0
APPID
  5
1C18
330
14
100
AcDbSymbolTableRecord
100
AcDbRegAppTableRecord
  2
ASURF_PCURVE_APPNAME
 70
     0
  0
APPID
  5
2639
330
14
100
AcDbSymbolTableRecord
100
AcDbRegAppTableRecord
  2
BLKBOM
 70
     0
  0
APPID
  5
5B7D
330
14
100
AcDbSymbolTableRecord
100
AcDbRegAppTableRecord
  2
ACAD_TEMP_GRAPHIC
 70
     0
  0
APPID
  5
5BAD
330
14
100
AcDbSymbolTableRecord
100
AcDbRegAppTableRecord
  2
ACATTRIBSERVICES
 70
     0
  0
APPID
  5
5BD0
330
14
100
AcDbSymbolTableRecord
100
AcDbRegAppTableRecord
  2
ACADM_DIM_EDIT
 70
     0
  0
APPID
  5
5BD1
330
14
100
AcDbSymbolTableRecord
100
AcDbRegAppTableRecord
  2
AMDT_DM_ADJ
 70
     0
  0
APPID
  5
5C1B
330
14
100
AcDbSymbolTableRecord
100
AcDbRegAppTableRecord
  2
GENIUS_GENOENT_13
 70
     0
  0
APPID
  5
5C1C
330
14
100
AcDbSymbolTableRecord
100
AcDbRegAppTableRecord
  2
GENIUS_GENOBJ-N-CRS_13
 70
     0
  0
APPID
  5
5C1D
330
14
100
AcDbSymbolTableRecord
100
AcDbRegAppTableRecord
  2
GENIUS_GENOLIS_13
 70
     0
  0
APPID
  5
5C1E
330
14
100
AcDbSymbolTableRecord
100
AcDbRegAppTableRecord
  2
GENIUS_GENODEF_13
 70
     0
  0
APPID
  5
5C1F
330
14
100
AcDbSymbolTableRecord
100
AcDbRegAppTableRecord
  2
GENIUS_GENOREF_13
 70
     0
  0
APPID
  5
5C20
330
14
100
AcDbSymbolTableRecord
100
AcDbRegAppTableRecord
  2
GENIUS_GENREC_14
 70
     0
  0
APPID
  5
5C21
330
14
100
AcDbSymbolTableRecord
100
AcDbRegAppTableRecord
  2
GENIUS_GENOBJ-N-REC_13
 70
     0
  0
APPID
  5
5DF6
330
14
100
AcDbSymbolTableRecord
100
AcDbRegAppTableRecord
  2
ACAD_PSEXT
 70
     0
  0
APPID
  5
5DF7
330
14
100
AcDbSymbolTableRecord
100
AcDbRegAppTableRecord
  2
AcAecLayerStandard
 70
     0
  0
ENDTAB
  0
TABLE
  2
DIMSTYLE
  5
16
330
0
100
AcDbSymbolTable
 70
    17
100
AcDbDimStyleTable
 71
     1
340
5C13
  0
DIMSTYLE
105
1E
330
16
100
AcDbSymbolTableRecord
100
AcDbDimStyleTableRecord
  2
STANDARD
 70
     0
 41
3.0
 42
2.0
 43
8.0
 44
2.0
 73
     0
 74
     0
 77
     1
 78
     8
 79
     2
140
3.0
141
0.0
146
0.6
147
1.0
176
   256
177
   256
178
   256
271
     2
272
     2
279
     2
284
     8
340
1C
371
    -1
372
    -1
  0
DIMSTYLE
105
5C13
330
16
100
AcDbSymbolTableRecord
100
AcDbDimStyleTableRecord
  2
AM_ISO
 70
     0
  4
"
 40
2.0
 41
3.0
 42
1.0
 43
8.0
 44
1.0
 47
0.1
 48
0.1
 73
     0
 74
     0
 77
     1
 78
     8
 79
     2
140
3.5
141
0.0
143
0.0393701
146
0.71
147
1.0
172
     1
176
   256
177
   256
178
   256
271
     2
272
     2
283
     0
284
     8
285
     8
340
C
371
    -1
372
    -1
  0
DIMSTYLE
105
5C14
102
{ACAD_REACTORS
330
7C6D
102
}
330
16
100
AcDbSymbolTableRecord
100
AcDbDimStyleTableRecord
  2
AM_ISO$3
 70
     0
  4
"
 40
2.0
 41
3.0
 42
1.0
 43
8.0
 44
1.0
 47
0.1
 48
0.1
 73
     0
 77
     1
 78
     8
 79
     2
140
3.5
141
0.0
143
0.0393701
146
0.71
147
1.0
176
   256
177
   256
178
   256
271
     2
272
     2
283
     0
284
     8
285
     8
288
     1
289
     0
340
C
371
    -1
372
    -1
  0
DIMSTYLE
105
5C15
330
16
100
AcDbSymbolTableRecord
100
AcDbDimStyleTableRecord
  2
AM_ISO$4
 70
     0
  4
"
 40
2.0
 41
3.0
 42
1.0
 43
8.0
 44
1.0
 47
0.1
 48
0.1
 73
     0
 77
     1
 78
     8
 79
     2
140
3.5
141
0.0
143
0.0393701
146
0.71
147
1.0
176
   256
177
   256
178
   256
271
     2
272
     2
283
     0
284
     8
285
     8
288
     1
289
     0
340
C
371
    -1
372
    -1
  0
DIMSTYLE
105
5C16
330
16
100
AcDbSymbolTableRecord
100
AcDbDimStyleTableRecord
  2
AM_ISO$6
 70
     0
  4
"
 40
2.0
 41
3.0
 42
1.0
 43
8.0
 44
1.0
 47
0.1
 48
0.1
 73
     0
 74
     0
 78
     8
 79
     2
140
3.5
141
0.0
143
0.0393701
146
0.71
147
1.0
172
     1
176
   256
177
   256
178
   256
271
     2
272
     2
283
     0
284
     8
285
     8
340
C
371
    -1
372
    -1
  0
DIMSTYLE
105
5C17
330
16
100
AcDbSymbolTableRecord
100
AcDbDimStyleTableRecord
  2
AM_ISO$7
 70
     0
  4
"
 40
2.0
 41
3.0
 42
1.0
 43
8.0
 44
1.0
 47
0.1
 48
0.1
 73
     0
 74
     0
 77
     1
 78
     8
 79
     2
140
3.5
141
0.0
143
0.0393701
146
0.71
147
1.0
172
     1
176
   256
177
   256
178
   256
271
     2
272
     2
283
     0
284
     8
285
     8
340
C
371
    -1
372
    -1
  0
DIMSTYLE
105
5C18
330
16
100
AcDbSymbolTableRecord
100
AcDbDimStyleTableRecord
  2
AM_ISO$SF
 70
     0
  4
"
 40
2.0
 41
2.5
 42
1.0
 43
10.0
 44
1.0
 47
0.1
 48
0.1
 73
     0
 74
     0
 75
     1
 76
     1
 77
     1
 78
     8
 79
     2
140
3.5
141
0.0
143
0.0393701
146
0.71
147
1.5
172
     1
176
   256
177
   256
178
   256
271
     2
272
     3
274
     4
283
     0
284
     8
340
C
371
    -1
372
    -1
  0
DIMSTYLE
105
5C19
330
16
100
AcDbSymbolTableRecord
100
AcDbDimStyleTableRecord
  2
AM_ISO$SH
 70
     0
  4
"
 40
2.0
 41
2.5
 42
1.0
 43
10.0
 44
1.0
 47
0.1
 48
0.1
 73
     0
 74
     0
 75
     1
 76
     1
 77
     1
 78
     8
 79
     2
140
3.5
141
0.0
143
0.0393701
144
2.0
146
0.71
147
1.5
172
     1
173
     1
176
   256
177
   256
178
   256
271
     2
272
     3
274
     4
283
     0
284
     8
340
C
343
5C05
371
    -1
372
    -1
  0
DIMSTYLE
105
5C1A
102
{ACAD_REACTORS
330
7813
330
7814
330
7815
330
7817
330
7818
330
7819
330
781A
330
781E
330
781F
330
7820
330
7C72
330
7C73
330
7C74
330
7C7B
102
}
330
16
100
AcDbSymbolTableRecord
100
AcDbDimStyleTableRecord
  2
AM_ISO$0
 70
     0
  4
"
 40
2.0
 41
3.0
 42
1.0
 43
8.0
 44
1.0
 47
0.1
 48
0.1
 73
     0
 74
     0
 77
     1
 78
     8
 79
     2
140
3.5
141
0.0
143
0.0393701
146
0.71
147
1.0
172
     1
176
   256
177
   256
178
   256
271
     2
272
     2
283
     0
284
     8
285
     8
340
C
371
    -1
372
    -1
  0
ENDTAB
  0
TABLE
  2
BLOCK_RECORD
  5
1
330
0
100
AcDbSymbolTable
 70
    82
  0
BLOCK_RECORD
  5
2
102
{ACAD_XDICTIONARY
360
59CA
102
}
330
1
100
AcDbSymbolTableRecord
100
AcDbBlockTableRecord
  2
*MODEL_SPACE
340
59A7
  0
BLOCK_RECORD
  5
7
102
{ACAD_XDICTIONARY
360
59F8
102
}
330
1
100
AcDbSymbolTableRecord
100
AcDbBlockTableRecord
  2
*PAPER_SPACE
340
59A8
  0
BLOCK_RECORD
  5
5C05
330
1
100
AcDbSymbolTableRecord
100
AcDbBlockTableRecord
  2
GENAXEH
340
0
  0
BLOCK_RECORD
  5
7C7E
330
1
100
AcDbSymbolTableRecord
100
AcDbBlockTableRecord
  2
*D66
340
0
  0
BLOCK_RECORD
  5
7C8A
330
1
100
AcDbSymbolTableRecord
100
AcDbBlockTableRecord
  2
*D67
340
0
  0
BLOCK_RECORD
  5
7C96
330
1
100
AcDbSymbolTableRecord
100
AcDbBlockTableRecord
  2
*D68
340
0
  0
BLOCK_RECORD
  5
7CA2
330
1
100
AcDbSymbolTableRecord
100
AcDbBlockTableRecord
  2
*D69
340
0
  0
BLOCK_RECORD
  5
7CAE
330
1
100
AcDbSymbolTableRecord
100
AcDbBlockTableRecord
  2
*D70
340
0
  0
BLOCK_RECORD
  5
7CBA
330
1
100
AcDbSymbolTableRecord
100
AcDbBlockTableRecord
  2
*D71
340
0
  0
BLOCK_RECORD
  5
7CC6
330
1
100
AcDbSymbolTableRecord
100
AcDbBlockTableRecord
  2
*D72
340
0
  0
BLOCK_RECORD
  5
7CD2
330
1
100
AcDbSymbolTableRecord
100
AcDbBlockTableRecord
  2
*D73
340
0
  0
BLOCK_RECORD
  5
7CDE
330
1
100
AcDbSymbolTableRecord
100
AcDbBlockTableRecord
  2
*D74
340
0
  0
BLOCK_RECORD
  5
7CEA
330
1
100
AcDbSymbolTableRecord
100
AcDbBlockTableRecord
  2
*D75
340
0
  0
BLOCK_RECORD
  5
7CF8
330
1
100
AcDbSymbolTableRecord
100
AcDbBlockTableRecord
  2
*D76
340
0
  0
BLOCK_RECORD
  5
7D06
330
1
100
AcDbSymbolTableRecord
100
AcDbBlockTableRecord
  2
*D77
340
0
  0
BLOCK_RECORD
  5
7D6E
330
1
100
AcDbSymbolTableRecord
100
AcDbBlockTableRecord
  2
*D78
340
0
  0
BLOCK_RECORD
  5
7D8B
330
1
100
AcDbSymbolTableRecord
100
AcDbBlockTableRecord
  2
*D79
340
0
  0
BLOCK_RECORD
  5
7D97
330
1
100
AcDbSymbolTableRecord
100
AcDbBlockTableRecord
  2
*D80
340
0
  0
ENDTAB
  0
ENDSEC
  0
SECTION
  2
BLOCKS
  0
BLOCK
  5
3
330
2
100
AcDbEntity
  8
0
100
AcDbBlockBegin
  2
*MODEL_SPACE
 70
     0
 10
0.0
 20
0.0
 30
0.0
  3
*MODEL_SPACE
  1

  0
ENDBLK
  5
6
330
2
100
AcDbEntity
  8
0
100
AcDbBlockEnd
  0
BLOCK
  5
8
330
7
100
AcDbEntity
 67
     1
  8
0
100
AcDbBlockBegin
  2
*PAPER_SPACE
 70
     0
 10
0.0
 20
0.0
 30
0.0
  3
*PAPER_SPACE
  1

  0
ENDBLK
  5
9
330
7
100
AcDbEntity
 67
     1
  8
0
100
AcDbBlockEnd
  0
BLOCK
  5
5C07
330
5C05
100
AcDbEntity
  8
0
100
AcDbBlockBegin
  2
GENAXEH
 70
     0
 10
0.0
 20
0.0
 30
0.0
  3
GENAXEH
  1

  0
LINE
  5
5C06
330
5C05
100
AcDbEntity
  8
0
100
AcDbLine
 10
-1.0
 20
0.0
 30
0.0
 11
1.0
 21
0.0
 31
0.0
  0
ENDBLK
  5
5C08
330
5C05
100
AcDbEntity
  8
0
100
AcDbBlockEnd
  0
BLOCK
  5
7C88
330
7C7E
100
AcDbEntity
  8
0
100
AcDbBlockBegin
  2
*D66
 70
     1
 10
0.0
 20
0.0
 30
0.0
  3
*D66
  1

  0
LINE
  5
7DED
330
7C7E
100
AcDbEntity
  8
AM_REFDIM
100
AcDbLine
 10
224.0761057382181
 20
395.5308177922121
 30
0.0
 11
224.0761057382181
 21
387.2747330254768
 31
0.0
  0
LINE
  5
7DEE
330
7C7E
100
AcDbEntity
  8
AM_REFDIM
100
AcDbLine
 10
184.5761057382181
 20
439.130817792212
 30
0.0
 11
184.5761057382181
 21
387.2747330254768
 31
0.0
  0
LINE
  5
7DEF
330
7C7E
100
AcDbEntity
  8
AM_REFDIM
100
AcDbLine
 10
218.0761057382181
 20
389.2747330254768
 30
0.0
 11
190.5761057382181
 21
389.2747330254768
 31
0.0
  0
SOLID
  5
7DF0
330
7C7E
100
AcDbEntity
  8
AM_REFDIM
100
AcDbTrace
 10
218.0761057382181
 20
390.2747330254769
 30
0.0
 11
218.0761057382181
 21
388.2747330254769
 31
0.0
 12
224.0761057382181
 22
389.2747330254768
 32
0.0
 13
224.0761057382181
 23
389.2747330254768
 33
0.0
  0
SOLID
  5
7DF1
330
7C7E
100
AcDbEntity
  8
AM_REFDIM
100
AcDbTrace
 10
190.5761057382181
 20
390.2747330254769
 30
0.0
 11
190.5761057382181
 21
388.2747330254769
 31
0.0
 12
184.5761057382181
 22
389.2747330254768
 32
0.0
 13
184.5761057382181
 23
389.2747330254768
 33
0.0
  0
MTEXT
  5
7DF2
330
7C7E
100
AcDbEntity
  8
AM_REFDIM
100
AcDbMText
 10
204.3261057382181
 20
394.7747330254768
 30
0.0
 40
7.0
 41
0.0
 71
     5
 72
     1
  1
40
 73
     1
 44
1.0
1001
ACAD
1000
MTEXTBEGIN
1070
    73
1070
     1
1070
    44
1040
1.0
1070
    74
1070
     0
1000
MTEXTEND
  0
POINT
  5
7DF3
330
7C7E
100
AcDbEntity
  8
DEFPOINTS
 62
     0
100
AcDbPoint
 10
224.0761057382181
 20
397.5308177922121
 30
0.0
  0
POINT
  5
7DF4
330
7C7E
100
AcDbEntity
  8
DEFPOINTS
 62
     0
100
AcDbPoint
 10
184.5761057382181
 20
441.130817792212
 30
0.0
  0
POINT
  5
7DF5
330
7C7E
100
AcDbEntity
  8
DEFPOINTS
 62
     0
100
AcDbPoint
 10
184.5761057382181
 20
389.2747330254768
 30
0.0
  0
ENDBLK
  5
7C89
330
7C7E
100
AcDbEntity
  8
0
100
AcDbBlockEnd
  0
BLOCK
  5
7C94
330
7C8A
100
AcDbEntity
  8
0
100
AcDbBlockBegin
  2
*D67
 70
     1
 10
0.0
 20
0.0
 30
0.0
  3
*D67
  1

  0
LINE
  5
7DF6
330
7C8A
100
AcDbEntity
  8
AM_REFDIM
100
AcDbLine
 10
224.0761057382181
 20
645.630817792212
 30
0.0
 11
224.0761057382181
 21
666.377296665452
 31
0.0
  0
LINE
  5
7DF7
330
7C8A
100
AcDbEntity
  8
AM_REFDIM
100
AcDbLine
 10
185.9761057382181
 20
566.630817792212
 30
0.0
 11
185.9761057382181
 21
666.377296665452
 31
0.0
  0
LINE
  5
7DF8
330
7C8A
100
AcDbEntity
  8
AM_REFDIM
100
AcDbLine
 10
218.0761057382181
 20
664.377296665452
 30
0.0
 11
191.9761057382181
 21
664.377296665452
 31
0.0
  0
SOLID
  5
7DF9
330
7C8A
100
AcDbEntity
  8
AM_REFDIM
100
AcDbTrace
 10
218.0761057382181
 20
665.377296665452
 30
0.0
 11
218.0761057382181
 21
663.377296665452
 31
0.0
 12
224.0761057382181
 22
664.377296665452
 32
0.0
 13
224.0761057382181
 23
664.377296665452
 33
0.0
  0
SOLID
  5
7DFA
330
7C8A
100
AcDbEntity
  8
AM_REFDIM
100
AcDbTrace
 10
191.9761057382181
 20
665.377296665452
 30
0.0
 11
191.9761057382181
 21
663.377296665452
 31
0.0
 12
185.9761057382181
 22
664.377296665452
 32
0.0
 13
185.9761057382181
 23
664.377296665452
 33
0.0
  0
MTEXT
  5
7DFB
330
7C8A
100
AcDbEntity
  8
AM_REFDIM
100
AcDbMText
 10
205.0261057382181
 20
669.877296665452
 30
0.0
 40
7.0
 41
0.0
 71
     5
 72
     1
  1
38
 73
     1
 44
1.0
1001
ACAD
1000
MTEXTBEGIN
1070
    73
1070
     1
1070
    44
1040
1.0
1070
    74
1070
     0
1000
MTEXTEND
  0
POINT
  5
7DFC
330
7C8A
100
AcDbEntity
  8
DEFPOINTS
 62
     0
100
AcDbPoint
 10
224.0761057382181
 20
643.630817792212
 30
0.0
  0
POINT
  5
7DFD
330
7C8A
100
AcDbEntity
  8
DEFPOINTS
 62
     0
100
AcDbPoint
 10
185.9761057382181
 20
564.630817792212
 30
0.0
  0
POINT
  5
7DFE
330
7C8A
100
AcDbEntity
  8
DEFPOINTS
 62
     0
100
AcDbPoint
 10
185.9761057382181
 20
664.377296665452
 30
0.0
  0
ENDBLK
  5
7C95
330
7C8A
100
AcDbEntity
  8
0
100
AcDbBlockEnd
  0
BLOCK
  5
7CA0
330
7C96
100
AcDbEntity
  8
0
100
AcDbBlockBegin
  2
*D68
 70
     1
 10
0.0
 20
0.0
 30
0.0
  3
*D68
  1

  0
LINE
  5
7DFF
330
7C96
100
AcDbEntity
  8
AM_REFDIM
100
AcDbLine
 10
224.0761057382181
 20
645.630817792212
 30
0.0
 11
224.0761057382181
 21
666.377296665452
 31
0.0
  0
LINE
  5
7E00
330
7C96
100
AcDbEntity
  8
AM_REFDIM
100
AcDbLine
 10
264.0761057382181
 20
604.630817792212
 30
0.0
 11
264.0761057382181
 21
666.377296665452
 31
0.0
  0
LINE
  5
7E01
330
7C96
100
AcDbEntity
  8
AM_REFDIM
100
AcDbLine
 10
230.0761057382181
 20
664.377296665452
 30
0.0
 11
258.0761057382181
 21
664.377296665452
 31
0.0
  0
SOLID
  5
7E02
330
7C96
100
AcDbEntity
  8
AM_REFDIM
100
AcDbTrace
 10
230.0761057382181
 20
665.377296665452
 30
0.0
 11
230.0761057382181
 21
663.377296665452
 31
0.0
 12
224.0761057382181
 22
664.377296665452
 32
0.0
 13
224.0761057382181
 23
664.377296665452
 33
0.0
  0
SOLID
  5
7E03
330
7C96
100
AcDbEntity
  8
AM_REFDIM
100
AcDbTrace
 10
258.0761057382181
 20
665.377296665452
 30
0.0
 11
258.0761057382181
 21
663.377296665452
 31
0.0
 12
264.0761057382181
 22
664.377296665452
 32
0.0
 13
264.0761057382181
 23
664.377296665452
 33
0.0
  0
MTEXT
  5
7E04
330
7C96
100
AcDbEntity
  8
AM_REFDIM
100
AcDbMText
 10
244.0761057382181
 20
669.877296665452
 30
0.0
 40
7.0
 41
0.0
 71
     5
 72
     1
  1
40
 73
     1
 44
1.0
1001
ACAD
1000
MTEXTBEGIN
1070
    73
1070
     1
1070
    44
1040
1.0
1070
    74
1070
     0
1000
MTEXTEND
  0
POINT
  5
7E05
330
7C96
100
AcDbEntity
  8
DEFPOINTS
 62
     0
100
AcDbPoint
 10
224.0761057382181
 20
643.630817792212
 30
0.0
  0
POINT
  5
7E06
330
7C96
100
AcDbEntity
  8
DEFPOINTS
 62
     0
100
AcDbPoint
 10
264.0761057382181
 20
602.630817792212
 30
0.0
  0
POINT
  5
7E07
330
7C96
100
AcDbEntity
  8
DEFPOINTS
 62
     0
100
AcDbPoint
 10
264.0761057382181
 20
664.377296665452
 30
0.0
  0
ENDBLK
  5
7CA1
330
7C96
100
AcDbEntity
  8
0
100
AcDbBlockEnd
  0
BLOCK
  5
7CAC
330
7CA2
100
AcDbEntity
  8
0
100
AcDbBlockBegin
  2
*D69
 70
     1
 10
0.0
 20
0.0
 30
0.0
  3
*D69
  1

  0
LINE
  5
7E08
330
7CA2
100
AcDbEntity
  8
AM_REFDIM
100
AcDbLine
 10
267.0761057382181
 20
594.630817792212
 30
0.0
 11
285.9746841018347
 21
594.630817792212
 31
0.0
  0
LINE
  5
7E09
330
7CA2
100
AcDbEntity
  8
AM_REFDIM
100
AcDbLine
 10
245.0761057382181
 20
642.630817792212
 30
0.0
 11
285.9746841018348
 21
642.6308177922119
 31
0.0
  0
LINE
  5
7E0A
330
7CA2
100
AcDbEntity
  8
AM_REFDIM
100
AcDbLine
 10
283.9746841018347
 20
600.630817792212
 30
0.0
 11
283.9746841018347
 21
636.6308177922119
 31
0.0
  0
SOLID
  5
7E0B
330
7CA2
100
AcDbEntity
  8
AM_REFDIM
100
AcDbTrace
 10
282.9746841018348
 20
600.630817792212
 30
0.0
 11
284.9746841018347
 21
600.630817792212
 31
0.0
 12
283.9746841018347
 22
594.630817792212
 32
0.0
 13
283.9746841018347
 23
594.630817792212
 33
0.0
  0
SOLID
  5
7E0C
330
7CA2
100
AcDbEntity
  8
AM_REFDIM
100
AcDbTrace
 10
282.9746841018348
 20
636.6308177922119
 30
0.0
 11
284.9746841018347
 21
636.6308177922119
 31
0.0
 12
283.9746841018348
 22
642.6308177922119
 32
0.0
 13
283.9746841018348
 23
642.6308177922119
 33
0.0
  0
MTEXT
  5
7E0D
330
7CA2
100
AcDbEntity
  8
AM_REFDIM
100
AcDbMText
 10
278.4746841018347
 20
618.6308177922121
 30
0.0
 40
7.0
 41
0.0
 71
     5
 72
     1
  1
48
 11
0.0000000000000001
 21
1.0
 31
0.0
 73
     1
 44
1.0
1001
ACAD
1000
MTEXTBEGIN
1070
    73
1070
     1
1070
    44
1040
1.0
1070
    74
1070
     0
1000
MTEXTEND
  0
POINT
  5
7E0E
330
7CA2
100
AcDbEntity
  8
DEFPOINTS
 62
     0
100
AcDbPoint
 10
265.0761057382181
 20
594.630817792212
 30
0.0
  0
POINT
  5
7E0F
330
7CA2
100
AcDbEntity
  8
DEFPOINTS
 62
     0
100
AcDbPoint
 10
243.0761057382181
 20
642.630817792212
 30
0.0
  0
POINT
  5
7E10
330
7CA2
100
AcDbEntity
  8
DEFPOINTS
 62
     0
100
AcDbPoint
 10
283.9746841018348
 20
642.6308177922119
 30
0.0
  0
ENDBLK
  5
7CAD
330
7CA2
100
AcDbEntity
  8
0
100
AcDbBlockEnd
  0
BLOCK
  5
7CB8
330
7CAE
100
AcDbEntity
  8
0
100
AcDbBlockBegin
  2
*D70
 70
     1
 10
0.0
 20
0.0
 30
0.0
  3
*D70
  1

  0
LINE
  5
7E11
330
7CAE
100
AcDbEntity
  8
AM_REFDIM
100
AcDbLine
 10
235.6833169146803
 20
552.630817792212
 30
0.0
 11
301.9746841018347
 21
552.6308177922119
 31
0.0
  0
LINE
  5
7E12
330
7CAE
100
AcDbEntity
  8
AM_REFDIM
100
AcDbLine
 10
245.0761057382181
 20
642.630817792212
 30
0.0
 11
301.9746841018348
 21
642.6308177922119
 31
0.0
  0
LINE
  5
7E13
330
7CAE
100
AcDbEntity
  8
AM_REFDIM
100
AcDbLine
 10
299.9746841018347
 20
558.6308177922119
 30
0.0
 11
299.9746841018347
 21
636.6308177922119
 31
0.0
  0
SOLID
  5
7E14
330
7CAE
100
AcDbEntity
  8
AM_REFDIM
100
AcDbTrace
 10
298.9746841018347
 20
558.6308177922119
 30
0.0
 11
300.9746841018347
 21
558.6308177922119
 31
0.0
 12
299.9746841018347
 22
552.6308177922119
 32
0.0
 13
299.9746841018347
 23
552.6308177922119
 33
0.0
  0
SOLID
  5
7E15
330
7CAE
100
AcDbEntity
  8
AM_REFDIM
100
AcDbTrace
 10
298.9746841018347
 20
636.6308177922119
 30
0.0
 11
300.9746841018347
 21
636.6308177922119
 31
0.0
 12
299.9746841018348
 22
642.6308177922119
 32
0.0
 13
299.9746841018348
 23
642.6308177922119
 33
0.0
  0
MTEXT
  5
7E16
330
7CAE
100
AcDbEntity
  8
AM_REFDIM
100
AcDbMText
 10
294.4746841018347
 20
597.630817792212
 30
0.0
 40
7.0
 41
0.0
 71
     5
 72
     1
  1
90
 11
0.0000000000000001
 21
1.0
 31
0.0
 73
     1
 44
1.0
1001
ACAD
1000
MTEXTBEGIN
1070
    73
1070
     1
1070
    44
1040
1.0
1070
    74
1070
     0
1000
MTEXTEND
  0
POINT
  5
7E17
330
7CAE
100
AcDbEntity
  8
DEFPOINTS
 62
     0
100
AcDbPoint
 10
233.6833169146803
 20
552.630817792212
 30
0.0
  0
POINT
  5
7E18
330
7CAE
100
AcDbEntity
  8
DEFPOINTS
 62
     0
100
AcDbPoint
 10
243.0761057382181
 20
642.630817792212
 30
0.0
  0
POINT
  5
7E19
330
7CAE
100
AcDbEntity
  8
DEFPOINTS
 62
     0
100
AcDbPoint
 10
299.9746841018348
 20
642.6308177922119
 30
0.0
  0
ENDBLK
  5
7CB9
330
7CAE
100
AcDbEntity
  8
0
100
AcDbBlockEnd
  0
BLOCK
  5
7CC4
330
7CBA
100
AcDbEntity
  8
0
100
AcDbBlockBegin
  2
*D71
 70
     1
 10
0.0
 20
0.0
 30
0.0
  3
*D71
  1

  0
LINE
  5
7E1A
330
7CBA
100
AcDbEntity
  8
AM_REFDIM
100
AcDbLine
 10
228.176105738218
 20
398.5308177922121
 30
0.0
 11
301.9746841018348
 21
398.5308177922121
 31
0.0
  0
LINE
  5
7E1B
330
7CBA
100
AcDbEntity
  8
AM_REFDIM
100
AcDbLine
 10
235.6833169146803
 20
552.630817792212
 30
0.0
 11
301.9746841018348
 21
552.6308177922119
 31
0.0
  0
LINE
  5
7E1C
330
7CBA
100
AcDbEntity
  8
AM_REFDIM
100
AcDbLine
 10
299.9746841018348
 20
404.5308177922121
 30
0.0
 11
299.9746841018348
 21
546.6308177922119
 31
0.0
  0
SOLID
  5
7E1D
330
7CBA
100
AcDbEntity
  8
AM_REFDIM
100
AcDbTrace
 10
298.9746841018348
 20
404.5308177922121
 30
0.0
 11
300.9746841018348
 21
404.5308177922121
 31
0.0
 12
299.9746841018348
 22
398.5308177922121
 32
0.0
 13
299.9746841018348
 23
398.5308177922121
 33
0.0
  0
SOLID
  5
7E1E
330
7CBA
100
AcDbEntity
  8
AM_REFDIM
100
AcDbTrace
 10
298.9746841018348
 20
546.6308177922119
 30
0.0
 11
300.9746841018348
 21
546.6308177922119
 31
0.0
 12
299.9746841018348
 22
552.6308177922119
 32
0.0
 13
299.9746841018348
 23
552.6308177922119
 33
0.0
  0
MTEXT
  5
7E1F
330
7CBA
100
AcDbEntity
  8
AM_REFDIM
100
AcDbMText
 10
294.4746841018347
 20
475.580817792212
 30
0.0
 40
7.0
 41
0.0
 71
     5
 72
     1
  1
154
 11
0.0000000000000001
 21
1.0
 31
0.0
 73
     1
 44
1.0
1001
ACAD
1000
MTEXTBEGIN
1070
    73
1070
     1
1070
    44
1040
1.0
1070
    74
1070
     0
1000
MTEXTEND
  0
POINT
  5
7E20
330
7CBA
100
AcDbEntity
  8
DEFPOINTS
 62
     0
100
AcDbPoint
 10
226.176105738218
 20
398.5308177922121
 30
0.0
  0
POINT
  5
7E21
330
7CBA
100
AcDbEntity
  8
DEFPOINTS
 62
     0
100
AcDbPoint
 10
233.6833169146803
 20
552.630817792212
 30
0.0
  0
POINT
  5
7E22
330
7CBA
100
AcDbEntity
  8
DEFPOINTS
 62
     0
100
AcDbPoint
 10
299.9746841018348
 20
552.6308177922119
 30
0.0
  0
ENDBLK
  5
7CC5
330
7CBA
100
AcDbEntity
  8
0
100
AcDbBlockEnd
  0
BLOCK
  5
7CD0
330
7CC6
100
AcDbEntity
  8
0
100
AcDbBlockBegin
  2
*D72
 70
     1
 10
0.0
 20
0.0
 30
0.0
  3
*D72
  1

  0
LINE
  5
7E23
330
7CC6
100
AcDbEntity
  8
AM_REFDIM
100
AcDbLine
 10
228.176105738218
 20
398.5308177922121
 30
0.0
 11
317.9746841018347
 21
398.5308177922121
 31
0.0
  0
LINE
  5
7E24
330
7CC6
100
AcDbEntity
  8
AM_REFDIM
100
AcDbLine
 10
245.0761057382181
 20
642.630817792212
 30
0.0
 11
317.9746841018348
 21
642.6308177922119
 31
0.0
  0
LINE
  5
7E25
330
7CC6
100
AcDbEntity
  8
AM_REFDIM
100
AcDbLine
 10
315.9746841018347
 20
404.5308177922121
 30
0.0
 11
315.9746841018347
 21
636.6308177922119
 31
0.0
  0
SOLID
  5
7E26
330
7CC6
100
AcDbEntity
  8
AM_REFDIM
100
AcDbTrace
 10
314.9746841018347
 20
404.5308177922121
 30
0.0
 11
316.9746841018347
 21
404.5308177922121
 31
0.0
 12
315.9746841018347
 22
398.5308177922121
 32
0.0
 13
315.9746841018347
 23
398.5308177922121
 33
0.0
  0
SOLID
  5
7E27
330
7CC6
100
AcDbEntity
  8
AM_REFDIM
100
AcDbTrace
 10
314.9746841018347
 20
636.6308177922119
 30
0.0
 11
316.9746841018347
 21
636.6308177922119
 31
0.0
 12
315.9746841018348
 22
642.6308177922119
 32
0.0
 13
315.9746841018348
 23
642.6308177922119
 33
0.0
  0
MTEXT
  5
7E28
330
7CC6
100
AcDbEntity
  8
AM_REFDIM
100
AcDbMText
 10
310.1246841018347
 20
520.580817792212
 30
0.0
 40
7.0
 41
0.0
 71
     5
 72
     1
  1
(244)
 11
0.0000000000000001
 21
1.0
 31
0.0
 73
     1
 44
1.0
1001
ACAD
1000
MTEXTBEGIN
1070
    73
1070
     1
1070
    44
1040
1.0
1070
    74
1070
     0
1000
MTEXTEND
  0
POINT
  5
7E29
330
7CC6
100
AcDbEntity
  8
DEFPOINTS
 62
     0
100
AcDbPoint
 10
226.176105738218
 20
398.5308177922121
 30
0.0
  0
POINT
  5
7E2A
330
7CC6
100
AcDbEntity
  8
DEFPOINTS
 62
     0
100
AcDbPoint
 10
243.0761057382181
 20
642.630817792212
 30
0.0
  0
POINT
  5
7E2B
330
7CC6
100
AcDbEntity
  8
DEFPOINTS
 62
     0
100
AcDbPoint
 10
315.9746841018348
 20
642.6308177922119
 30
0.0
  0
ENDBLK
  5
7CD1
330
7CC6
100
AcDbEntity
  8
0
100
AcDbBlockEnd
  0
BLOCK
  5
7CDC
330
7CD2
100
AcDbEntity
  8
0
100
AcDbBlockBegin
  2
*D73
 70
     1
 10
0.0
 20
0.0
 30
0.0
  3
*D73
  1

  0
LINE
  5
7E2C
330
7CD2
100
AcDbEntity
  8
AM_REFDIM
100
AcDbLine
 10
48.74658149482207
 20
601.1575097168057
 30
0.0
 11
48.74658149482208
 21
666.377296665452
 31
0.0
  0
LINE
  5
7E2D
330
7CD2
100
AcDbEntity
  8
AM_REFDIM
100
AcDbLine
 10
92.74658149482183
 20
601.0630758333662
 30
0.0
 11
92.74658149482183
 21
666.377296665452
 31
0.0
  0
LINE
  5
7E2E
330
7CD2
100
AcDbEntity
  8
AM_REFDIM
100
AcDbLine
 10
54.74658149482207
 20
664.377296665452
 30
0.0
 11
86.74658149482183
 21
664.377296665452
 31
0.0
  0
SOLID
  5
7E2F
330
7CD2
100
AcDbEntity
  8
AM_REFDIM
100
AcDbTrace
 10
54.74658149482207
 20
665.377296665452
 30
0.0
 11
54.74658149482207
 21
663.377296665452
 31
0.0
 12
48.74658149482208
 22
664.377296665452
 32
0.0
 13
48.74658149482208
 23
664.377296665452
 33
0.0
  0
SOLID
  5
7E30
330
7CD2
100
AcDbEntity
  8
AM_REFDIM
100
AcDbTrace
 10
86.74658149482183
 20
665.377296665452
 30
0.0
 11
86.74658149482183
 21
663.377296665452
 31
0.0
 12
92.74658149482183
 22
664.377296665452
 32
0.0
 13
92.74658149482183
 23
664.377296665452
 33
0.0
  0
MTEXT
  5
7E31
330
7CD2
100
AcDbEntity
  8
AM_REFDIM
100
AcDbMText
 10
70.74658149482195
 20
669.877296665452
 30
0.0
 40
7.0
 41
0.0
 71
     5
 72
     1
  1
44
 73
     1
 44
1.0
1001
ACAD
1000
MTEXTBEGIN
1070
    73
1070
     1
1070
    44
1040
1.0
1070
    74
1070
     0
1000
MTEXTEND
  0
POINT
  5
7E32
330
7CD2
100
AcDbEntity
  8
DEFPOINTS
 62
     0
100
AcDbPoint
 10
48.74658149482207
 20
599.1575097168057
 30
0.0
  0
POINT
  5
7E33
330
7CD2
100
AcDbEntity
  8
DEFPOINTS
 62
     0
100
AcDbPoint
 10
92.74658149482183
 20
599.0630758333662
 30
0.0
  0
POINT
  5
7E34
330
7CD2
100
AcDbEntity
  8
DEFPOINTS
 62
     0
100
AcDbPoint
 10
92.74658149482183
 20
664.377296665452
 30
0.0
  0
ENDBLK
  5
7CDD
330
7CD2
100
AcDbEntity
  8
0
100
AcDbBlockEnd
  0
BLOCK
  5
7CE8
330
7CDE
100
AcDbEntity
  8
0
100
AcDbBlockBegin
  2
*D74
 70
     1
 10
0.0
 20
0.0
 30
0.0
  3
*D74
  1

  0
LINE
  5
7E35
330
7CDE
100
AcDbEntity
  8
AM_REFDIM
100
AcDbLine
 10
37.74658149482184
 20
596.630817792212
 30
0.0
 11
37.74658149482185
 21
682.377296665452
 31
0.0
  0
LINE
  5
7E36
330
7CDE
100
AcDbEntity
  8
AM_REFDIM
100
AcDbLine
 10
103.7465814948218
 20
596.630817792212
 30
0.0
 11
103.7465814948218
 21
682.377296665452
 31
0.0
  0
LINE
  5
7E37
330
7CDE
100
AcDbEntity
  8
AM_REFDIM
100
AcDbLine
 10
43.74658149482185
 20
680.377296665452
 30
0.0
 11
97.74658149482185
 21
680.377296665452
 31
0.0
  0
SOLID
  5
7E38
330
7CDE
100
AcDbEntity
  8
AM_REFDIM
100
AcDbTrace
 10
43.74658149482185
 20
681.377296665452
 30
0.0
 11
43.74658149482185
 21
679.377296665452
 31
0.0
 12
37.74658149482185
 22
680.377296665452
 32
0.0
 13
37.74658149482185
 23
680.377296665452
 33
0.0
  0
SOLID
  5
7E39
330
7CDE
100
AcDbEntity
  8
AM_REFDIM
100
AcDbTrace
 10
97.74658149482185
 20
681.377296665452
 30
0.0
 11
97.74658149482185
 21
679.377296665452
 31
0.0
 12
103.7465814948218
 22
680.377296665452
 32
0.0
 13
103.7465814948218
 23
680.377296665452
 33
0.0
  0
MTEXT
  5
7E3A
330
7CDE
100
AcDbEntity
  8
AM_REFDIM
100
AcDbMText
 10
70.74658149482184
 20
685.877296665452
 30
0.0
 40
7.0
 41
0.0
 71
     5
 72
     1
  1
66
 73
     1
 44
1.0
1001
ACAD
1000
MTEXTBEGIN
1070
    73
1070
     1
1070
    44
1040
1.0
1070
    74
1070
     0
1000
MTEXTEND
  0
POINT
  5
7E3B
330
7CDE
100
AcDbEntity
  8
DEFPOINTS
 62
     0
100
AcDbPoint
 10
37.74658149482184
 20
594.630817792212
 30
0.0
  0
POINT
  5
7E3C
330
7CDE
100
AcDbEntity
  8
DEFPOINTS
 62
     0
100
AcDbPoint
 10
103.7465814948218
 20
594.630817792212
 30
0.0
  0
POINT
  5
7E3D
330
7CDE
100
AcDbEntity
  8
DEFPOINTS
 62
     0
100
AcDbPoint
 10
103.7465814948218
 20
680.377296665452
 30
0.0
  0
ENDBLK
  5
7CE9
330
7CDE
100
AcDbEntity
  8
0
100
AcDbBlockEnd
  0
BLOCK
  5
7CF6
330
7CEA
100
AcDbEntity
  8
0
100
AcDbBlockBegin
  2
*D75
 70
     1
 10
0.0
 20
0.0
 30
0.0
  3
*D75
  1

  0
LINE
  5
7E3E
330
7CEA
100
AcDbEntity
  8
AM_REFDIM
100
AcDbLine
 10
68.29658149482179
 20
402.2308177922119
 30
0.0
 11
68.29658149482179
 21
387.2747330254768
 31
0.0
  0
LINE
  5
7E3F
330
7CEA
100
AcDbEntity
  8
AM_REFDIM
100
AcDbLine
 10
73.19658149482188
 20
402.2308177922119
 30
0.0
 11
73.19658149482188
 21
387.2747330254768
 31
0.0
  0
LINE
  5
7E40
330
7CEA
100
AcDbEntity
  8
AM_REFDIM
100
AcDbLine
 10
62.2965814948218
 20
389.2747330254768
 30
0.0
 11
56.29658149482179
 21
389.2747330254768
 31
0.0
  0
LINE
  5
7E41
330
7CEA
100
AcDbEntity
  8
AM_REFDIM
100
AcDbLine
 10
79.19658149482188
 20
389.2747330254768
 30
0.0
 11
100.9167642238985
 21
389.2747330254768
 31
0.0
  0
LINE
  5
7E42
330
7CEA
100
AcDbEntity
  8
AM_REFDIM
100
AcDbLine
 10
68.29658149482179
 20
389.2747330254768
 30
0.0
 11
73.19658149482188
 21
389.2747330254768
 31
0.0
  0
SOLID
  5
7E43
330
7CEA
100
AcDbEntity
  8
AM_REFDIM
100
AcDbTrace
 10
62.2965814948218
 20
390.2747330254769
 30
0.0
 11
62.2965814948218
 21
388.2747330254769
 31
0.0
 12
68.29658149482179
 22
389.2747330254768
 32
0.0
 13
68.29658149482179
 23
389.2747330254768
 33
0.0
  0
SOLID
  5
7E44
330
7CEA
100
AcDbEntity
  8
AM_REFDIM
100
AcDbTrace
 10
79.19658149482188
 20
390.2747330254769
 30
0.0
 11
79.19658149482188
 21
388.2747330254769
 31
0.0
 12
73.19658149482188
 22
389.2747330254768
 32
0.0
 13
73.19658149482188
 23
389.2747330254768
 33
0.0
  0
MTEXT
  5
7E45
330
7CEA
100
AcDbEntity
  8
AM_REFDIM
100
AcDbMText
 10
94.22178947706788
 20
394.7747330254768
 30
0.0
 40
7.0
 41
0.0
 71
     5
 72
     1
  1
%%c5
 73
     1
 44
1.0
1001
ACAD
1000
MTEXTBEGIN
1070
    73
1070
     1
1070
    44
1040
1.0
1070
    74
1070
     0
1000
MTEXTEND
  0
POINT
  5
7E46
330
7CEA
100
AcDbEntity
  8
DEFPOINTS
 62
     0
100
AcDbPoint
 10
68.29658149482179
 20
404.2308177922119
 30
0.0
  0
POINT
  5
7E47
330
7CEA
100
AcDbEntity
  8
DEFPOINTS
 62
     0
100
AcDbPoint
 10
73.19658149482188
 20
404.2308177922119
 30
0.0
  0
POINT
  5
7E48
330
7CEA
100
AcDbEntity
  8
DEFPOINTS
 62
     0
100
AcDbPoint
 10
73.19658149482188
 20
389.2747330254768
 30
0.0
  0
ENDBLK
  5
7CF7
330
7CEA
100
AcDbEntity
  8
0
100
AcDbBlockEnd
  0
BLOCK
  5
7D04
330
7CF8
100
AcDbEntity
  8
0
100
AcDbBlockBegin
  2
*D76
 70
     1
 10
0.0
 20
0.0
 30
0.0
  3
*D76
  1

  0
LINE
  5
7E4F
330
7CF8
100
AcDbEntity
  8
AM_REFDIM
100
AcDbLine
 10
97.74658149482185
 20
591.630817792212
 30
0.0
 11
123.3705102700649
 21
591.630817792212
 31
0.0
  0
LINE
  5
7E50
330
7CF8
100
AcDbEntity
  8
AM_REFDIM
100
AcDbLine
 10
97.74658149482185
 20
597.630817792212
 30
0.0
 11
123.3705102700649
 21
597.630817792212
 31
0.0
  0
LINE
  5
7E51
330
7CF8
100
AcDbEntity
  8
AM_REFDIM
100
AcDbLine
 10
121.3705102700649
 20
585.630817792212
 30
0.0
 11
121.3705102700649
 21
579.630817792212
 31
0.0
  0
LINE
  5
7E52
330
7CF8
100
AcDbEntity
  8
AM_REFDIM
100
AcDbLine
 10
121.3705102700649
 20
603.630817792212
 30
0.0
 11
121.370510270065
 21
609.630817792212
 31
0.0
  0
LINE
  5
7E53
330
7CF8
100
AcDbEntity
  8
AM_REFDIM
100
AcDbLine
 10
121.3705102700649
 20
591.630817792212
 30
0.0
 11
121.3705102700649
 21
597.630817792212
 31
0.0
  0
SOLID
  5
7E54
330
7CF8
100
AcDbEntity
  8
AM_REFDIM
100
AcDbTrace
 10
120.3705102700649
 20
585.630817792212
 30
0.0
 11
122.3705102700649
 21
585.630817792212
 31
0.0
 12
121.3705102700649
 22
591.630817792212
 32
0.0
 13
121.3705102700649
 23
591.630817792212
 33
0.0
  0
SOLID
  5
7E55
330
7CF8
100
AcDbEntity
  8
AM_REFDIM
100
AcDbTrace
 10
120.3705102700649
 20
603.630817792212
 30
0.0
 11
122.3705102700649
 21
603.630817792212
 31
0.0
 12
121.3705102700649
 22
597.630817792212
 32
0.0
 13
121.3705102700649
 23
597.630817792212
 33
0.0
  0
MTEXT
  5
7E56
330
7CF8
100
AcDbEntity
  8
AM_REFDIM
100
AcDbMText
 10
115.8705102700648
 20
594.630817792212
 30
0.0
 40
7.0
 41
0.0
 71
     5
 72
     1
  1
6
 11
0.0000000000000001
 21
1.0
 31
0.0
 73
     1
 44
1.0
1001
ACAD
1000
MTEXTBEGIN
1070
    73
1070
     1
1070
    44
1040
1.0
1070
    74
1070
     0
1000
MTEXTEND
  0
POINT
  5
7E57
330
7CF8
100
AcDbEntity
  8
DEFPOINTS
 62
     0
100
AcDbPoint
 10
95.74658149482184
 20
591.630817792212
 30
0.0
  0
POINT
  5
7E58
330
7CF8
100
AcDbEntity
  8
DEFPOINTS
 62
     0
100
AcDbPoint
 10
95.74658149482184
 20
597.630817792212
 30
0.0
  0
POINT
  5
7E59
330
7CF8
100
AcDbEntity
  8
DEFPOINTS
 62
     0
100
AcDbPoint
 10
121.3705102700649
 20
597.630817792212
 30
0.0
  0
ENDBLK
  5
7D05
330
7CF8
100
AcDbEntity
  8
0
100
AcDbBlockEnd
  0
BLOCK
  5
7D10
330
7D06
100
AcDbEntity
  8
0
100
AcDbBlockBegin
  2
*D77
 70
     1
 10
0.0
 20
0.0
 30
0.0
  3
*D77
  1

  0
LINE
  5
7E5A
330
7D06
100
AcDbEntity
  8
AM_REFDIM
100
AcDbLine
 10
34.74658149482207
 20
759.2975736419811
 30
0.0
 11
34.74658149482207
 21
799.7982636183591
 31
0.0
  0
LINE
  5
7E5B
330
7D06
100
AcDbEntity
  8
AM_REFDIM
100
AcDbLine
 10
106.7465814948221
 20
759.2975736419811
 30
0.0
 11
106.7465814948221
 21
799.7982636183591
 31
0.0
  0
LINE
  5
7E5C
330
7D06
100
AcDbEntity
  8
AM_REFDIM
100
AcDbLine
 10
40.74658149482206
 20
797.7982636183591
 30
0.0
 11
100.746581494822
 21
797.7982636183591
 31
0.0
  0
SOLID
  5
7E5D
330
7D06
100
AcDbEntity
  8
AM_REFDIM
100
AcDbTrace
 10
40.74658149482206
 20
798.798263618359
 30
0.0
 11
40.74658149482206
 21
796.7982636183591
 31
0.0
 12
34.74658149482207
 22
797.7982636183591
 32
0.0
 13
34.74658149482207
 23
797.7982636183591
 33
0.0
  0
SOLID
  5
7E5E
330
7D06
100
AcDbEntity
  8
AM_REFDIM
100
AcDbTrace
 10
100.746581494822
 20
798.798263618359
 30
0.0
 11
100.746581494822
 21
796.7982636183591
 31
0.0
 12
106.7465814948221
 22
797.7982636183591
 32
0.0
 13
106.7465814948221
 23
797.7982636183591
 33
0.0
  0
MTEXT
  5
7E5F
330
7D06
100
AcDbEntity
  8
AM_REFDIM
100
AcDbMText
 10
71.39877551000177
 20
803.2989525947371
 30
0.0
 40
7.0
 41
0.0
 71
     5
 72
     1
  1
72
 73
     1
 44
1.0
1001
ACAD
1000
MTEXTBEGIN
1070
    73
1070
     1
1070
    44
1040
1.0
1070
    74
1070
     0
1000
MTEXTEND
  0
POINT
  5
7E60
330
7D06
100
AcDbEntity
  8
DEFPOINTS
 62
     0
100
AcDbPoint
 10
34.74658149482207
 20
757.297573641981
 30
0.0
  0
POINT
  5
7E61
330
7D06
100
AcDbEntity
  8
DEFPOINTS
 62
     0
100
AcDbPoint
 10
106.7465814948221
 20
757.297573641981
 30
0.0
  0
POINT
  5
7E62
330
7D06
100
AcDbEntity
  8
DEFPOINTS
 62
     0
100
AcDbPoint
 10
106.7465814948221
 20
797.7982636183591
 30
0.0
  0
ENDBLK
  5
7D11
330
7D06
100
AcDbEntity
  8
0
100
AcDbBlockEnd
  0
BLOCK
  5
7D75
330
7D6E
100
AcDbEntity
  8
0
100
AcDbBlockBegin
  2
*D78
 70
     1
 10
0.0
 20
0.0
 30
0.0
  3
*D78
  1

  0
LINE
  5
7E77
330
7D6E
100
AcDbEntity
  8
AM_REFDIM
100
AcDbLine
 10
213.5690014818733
 20
541.9807314429918
 30
0.0
 11
172.5057791324701
 21
500.358715221511
 31
0.0
  0
LINE
  5
7E78
330
7D6E
100
AcDbEntity
  8
AM_REFDIM
100
AcDbLine
 10
172.5057791324701
 20
500.358715221511
 30
0.0
 11
137.4280232269582
 21
500.3587152215109
 31
0.0
  0
SOLID
  5
7E79
330
7D6E
100
AcDbEntity
  8
AM_REFDIM
100
AcDbTrace
 10
212.8571322688996
 20
542.6830434987193
 30
0.0
 11
214.280870694847
 21
541.2784193872641
 31
0.0
 12
217.7828738162385
 22
546.2519467208339
 32
0.0
 13
217.7828738162385
 23
546.2519467208339
 33
0.0
  0
MTEXT
  5
7E7A
330
7D6E
100
AcDbEntity
  8
AM_REFDIM
100
AcDbMText
 10
153.9669011797141
 20
505.8594041978889
 30
0.0
 40
7.0
 41
0.0
 71
     5
 72
     1
  1
2-PT1/4
 73
     1
 44
1.0
1001
ACAD
1000
MTEXTBEGIN
1070
    73
1070
     1
1070
    44
1040
1.0
1070
    74
1070
     0
1000
MTEXTEND
  0
POINT
  5
7E7B
330
7D6E
100
AcDbEntity
  8
DEFPOINTS
 62
     0
100
AcDbPoint
 10
217.7828738162385
 20
546.2519467208339
 30
0.0
  0
POINT
  5
7E7C
330
7D6E
100
AcDbEntity
  8
DEFPOINTS
 62
     0
100
AcDbPoint
 10
230.3693376601978
 20
559.00968886359
 30
0.0
  0
ENDBLK
  5
7D76
330
7D6E
100
AcDbEntity
  8
0
100
AcDbBlockEnd
  0
BLOCK
  5
7D95
330
7D8B
100
AcDbEntity
  8
0
100
AcDbBlockBegin
  2
*D79
 70
     1
 10
0.0
 20
0.0
 30
0.0
  3
*D79
  1

  0
LINE
  5
7E63
330
7D8B
100
AcDbEntity
  8
AM_REFDIM
100
AcDbLine
 10
105.7465814948218
 20
780.2975736419813
 30
0.0
 11
132.5949281827218
 21
780.2975736419813
 31
0.0
  0
LINE
  5
7E64
330
7D8B
100
AcDbEntity
  8
AM_REFDIM
100
AcDbLine
 10
87.74658149482206
 20
700.7975736419811
 30
0.0
 11
132.5949281827218
 21
700.7975736419811
 31
0.0
  0
LINE
  5
7E65
330
7D8B
100
AcDbEntity
  8
AM_REFDIM
100
AcDbLine
 10
130.5949281827218
 20
774.2975736419813
 30
0.0
 11
130.5949281827218
 21
706.7975736419811
 31
0.0
  0
SOLID
  5
7E66
330
7D8B
100
AcDbEntity
  8
AM_REFDIM
100
AcDbTrace
 10
129.5949281827218
 20
774.2975736419813
 30
0.0
 11
131.5949281827218
 21
774.2975736419813
 31
0.0
 12
130.5949281827218
 22
780.2975736419813
 32
0.0
 13
130.5949281827218
 23
780.2975736419813
 33
0.0
  0
SOLID
  5
7E67
330
7D8B
100
AcDbEntity
  8
AM_REFDIM
100
AcDbTrace
 10
129.5949281827218
 20
706.7975736419811
 30
0.0
 11
131.5949281827218
 21
706.7975736419811
 31
0.0
 12
130.5949281827218
 22
700.7975736419811
 32
0.0
 13
130.5949281827218
 23
700.7975736419811
 33
0.0
  0
MTEXT
  5
7E68
330
7D8B
100
AcDbEntity
  8
AM_REFDIM
100
AcDbMText
 10
125.0949281827217
 20
740.5475736419812
 30
0.0
 40
7.0
 41
0.0
 71
     5
 72
     1
  1
80
 11
0.0000000000000001
 21
1.0
 31
0.0
 73
     1
 44
1.0
1001
ACAD
1000
MTEXTBEGIN
1070
    73
1070
     1
1070
    44
1040
1.0
1070
    74
1070
     0
1000
MTEXTEND
  0
POINT
  5
7E69
330
7D8B
100
AcDbEntity
  8
DEFPOINTS
 62
     0
100
AcDbPoint
 10
103.7465814948218
 20
780.2975736419813
 30
0.0
  0
POINT
  5
7E6A
330
7D8B
100
AcDbEntity
  8
DEFPOINTS
 62
     0
100
AcDbPoint
 10
85.74658149482207
 20
700.7975736419811
 30
0.0
  0
POINT
  5
7E6B
330
7D8B
100
AcDbEntity
  8
DEFPOINTS
 62
     0
100
AcDbPoint
 10
130.5949281827218
 20
700.7975736419811
 30
0.0
  0
ENDBLK
  5
7D96
330
7D8B
100
AcDbEntity
  8
0
100
AcDbBlockEnd
  0
BLOCK
  5
7DA3
330
7D97
100
AcDbEntity
  8
0
100
AcDbBlockBegin
  2
*D80
 70
     1
 10
0.0
 20
0.0
 30
0.0
  3
*D80
  1

  0
LINE
  5
7E6C
330
7D97
100
AcDbEntity
  8
AM_REFDIM
100
AcDbLine
 10
42.74658149482184
 20
596.630817792212
 30
0.0
 11
42.74658149482184
 21
652.0439633321185
 31
0.0
  0
LINE
  5
7E6D
330
7D97
100
AcDbEntity
  8
AM_REFDIM
100
AcDbLine
 10
54.74658149482241
 20
596.630817792212
 30
0.0
 11
54.74658149482241
 21
652.0439633321185
 31
0.0
  0
LINE
  5
7E6E
330
7D97
100
AcDbEntity
  8
AM_REFDIM
100
AcDbLine
 10
36.74658149482184
 20
650.0439633321185
 30
0.0
 11
30.74658149482184
 21
650.0439633321185
 31
0.0
  0
LINE
  5
7E6F
330
7D97
100
AcDbEntity
  8
AM_REFDIM
100
AcDbLine
 10
60.74658149482241
 20
650.0439633321185
 30
0.0
 11
66.7465814948224
 21
650.0439633321185
 31
0.0
  0
LINE
  5
7E70
330
7D97
100
AcDbEntity
  8
AM_REFDIM
100
AcDbLine
 10
42.74658149482184
 20
650.0439633321185
 30
0.0
 11
54.74658149482241
 21
650.0439633321185
 31
0.0
  0
SOLID
  5
7E71
330
7D97
100
AcDbEntity
  8
AM_REFDIM
100
AcDbTrace
 10
36.74658149482184
 20
651.0439633321185
 30
0.0
 11
36.74658149482184
 21
649.0439633321186
 31
0.0
 12
42.74658149482184
 22
650.0439633321185
 32
0.0
 13
42.74658149482184
 23
650.0439633321185
 33
0.0
  0
SOLID
  5
7E72
330
7D97
100
AcDbEntity
  8
AM_REFDIM
100
AcDbTrace
 10
60.74658149482241
 20
651.0439633321185
 30
0.0
 11
60.74658149482241
 21
649.0439633321186
 31
0.0
 12
54.74658149482241
 22
650.0439633321185
 32
0.0
 13
54.74658149482241
 23
650.0439633321185
 33
0.0
  0
MTEXT
  5
7E73
330
7D97
100
AcDbEntity
  8
AM_REFDIM
100
AcDbMText
 10
48.74658149482212
 20
655.5446523084965
 30
0.0
 40
7.0
 41
0.0
 71
     5
 72
     1
  1
12
 73
     1
 44
1.0
1001
ACAD
1000
MTEXTBEGIN
1070
    73
1070
     1
1070
    44
1040
1.0
1070
    74
1070
     0
1000
MTEXTEND
  0
POINT
  5
7E74
330
7D97
100
AcDbEntity
  8
DEFPOINTS
 62
     0
100
AcDbPoint
 10
42.74658149482184
 20
594.630817792212
 30
0.0
  0
POINT
  5
7E75
330
7D97
100
AcDbEntity
  8
DEFPOINTS
 62
     0
100
AcDbPoint
 10
54.74658149482241
 20
594.630817792212
 30
0.0
  0
POINT
  5
7E76
330
7D97
100
AcDbEntity
  8
DEFPOINTS
 62
     0
100
AcDbPoint
 10
54.74658149482241
 20
650.0439633321185
 30
0.0
  0
ENDBLK
  5
7DA4
330
7D97
100
AcDbEntity
  8
0
100
AcDbBlockEnd
  0
ENDSEC
  0
SECTION
  2
ENTITIES
  0
MTEXT
  5
1F73
330
2
100
AcDbEntity
  8
0
100
AcDbMText
 10
1390.456900191412
 20
-138.5007534971338
 30
0.0
 40
3.0
 41
0.0
 71
     4
 72
     5
  1
\A1; 
  7
DAYUS
 73
     1
 44
1.0
1001
ACAD
1000
MTEXTBEGIN
1070
    73
1070
     1
1070
    44
1040
1.0
1070
    74
1070
     0
1000
MTEXTEND
  0
MTEXT
  5
1FBB
330
2
100
AcDbEntity
  8
0
100
AcDbMText
 10
1342.728821614999
 20
-142.218465522253
 30
0.0
 40
3.0
 41
0.0
 71
     4
 72
     5
  1
\A1; 
  7
DAYUS
 73
     1
 44
1.0
1001
ACAD
1000
MTEXTBEGIN
1070
    73
1070
     1
1070
    44
1040
1.0
1070
    74
1070
     0
1000
MTEXTEND
  0
MTEXT
  5
2095
330
2
100
AcDbEntity
  8
0
100
AcDbMText
 10
1790.901573512263
 20
-309.0767481339192
 30
0.0
 40
3.0
 41
0.0
 71
     4
 72
     5
  1
\A1; 
  7
DAYUS
 73
     1
 44
1.0
1001
ACAD
1000
MTEXTBEGIN
1070
    73
1070
     1
1070
    44
1040
1.0
1070
    74
1070
     0
1000
MTEXTEND
  0
MTEXT
  5
4482
330
2
100
AcDbEntity
  8
0
100
AcDbMText
 10
1320.557617281614
 20
257.7973527445213
 30
0.0
 40
3.0
 41
0.0
 71
     4
 72
     5
  1
\A1; 
  7
DAYUS
 73
     1
 44
1.0
1001
ACAD
1000
MTEXTBEGIN
1070
    73
1070
     1
1070
    44
1040
1.0
1070
    74
1070
     0
1000
MTEXTEND
  0
TEXT
  5
5652
330
2
100
AcDbEntity
  8
0
100
AcDbText
 10
549.210501383538
 20
90.98652696147508
 30
0.0
 40
3.6
  1
 
  7
DAYUS
100
AcDbText
  0
TEXT
  5
5655
330
2
100
AcDbEntity
  8
0
100
AcDbText
 10
664.2001390109811
 20
90.98652696147508
 30
0.0
 40
3.6
  1
 
  7
DAYUS
100
AcDbText
  0
TEXT
  5
5656
330
2
100
AcDbEntity
  8
0
100
AcDbText
 10
695.157424693998
 20
90.51232720048508
 30
0.0
 40
3.6
  1
 
  7
DAYUS
100
AcDbText
  0
TEXT
  5
5CBC
330
2
100
AcDbEntity
  8
LOGO
 62
     7
100
AcDbText
 10
108.8464839975552
 20
343.1358439684474
 30
0.0
 40
6.565449209049773
  1
Order example:
 41
0.8
  7
CHINESET
100
AcDbText
  0
TEXT
  5
5CBD
330
2
100
AcDbEntity
  8
LOGO
 62
     7
100
AcDbText
 10
110.024379879715
 20
352.378637061185
 30
0.0
 40
9.848173813574659
  1
訂購代號：
  7
CHINESET
100
AcDbText
  0
LINE
  5
5CBE
330
2
100
AcDbEntity
  8
LOGO
 62
     4
100
AcDbLine
 10
105.9937740474998
 20
315.466561734223
 30
0.0
 11
105.9937740474998
 21
364.7074308020966
 31
0.0
  0
TEXT
  5
5CBF
330
2
100
AcDbEntity
  8
LOGO
  6
Continuous
100
AcDbText
 10
15.35140360934764
 20
325.1398561516562
 30
0.0
 40
7.386130360180995
  1
金器工業股份有限公司
  7
CHINESET
100
AcDbText
  0
TEXT
  5
5CC0
330
2
100
AcDbEntity
  8
LOGO
  6
Continuous
100
AcDbText
 10
1.784543411524566
 20
317.7522786890197
 30
0.0
 40
4.924086906787329
  1
MINDMAN INDUSTRIAL CO., LTD.
 41
0.85
  7
CHINESET
100
AcDbText
  0
LINE
  5
5CC1
330
2
100
AcDbEntity
  8
LOGO
 62
     4
100
AcDbLine
 10
105.9937740474998
 20
354.8592569885219
 30
0.0
 11
33.77383274795153
 21
354.8592569885219
 31
0.0
  0
LINE
  5
5CC2
330
2
100
AcDbEntity
  8
LOGO
 62
     4
100
AcDbLine
 10
105.9937740474998
 20
345.0110831749472
 30
0.0
 11
33.77383274795153
 21
345.0110831749472
 31
0.0
  0
LINE
  5
5CC3
330
2
100
AcDbEntity
  8
LOGO
 62
     4
100
AcDbLine
 10
105.9937740474998
 20
335.1629093613732
 30
0.0
 11
-2.336137901821757
 21
335.1629093613732
 31
0.0
  0
LINE
  5
5CC4
330
2
100
AcDbEntity
  8
LOGO
 62
     4
100
AcDbLine
 10
33.77383274795153
 20
335.1629093613732
 30
0.0
 11
33.77383274795153
 21
364.7074308020966
 31
0.0
  0
TEXT
  5
5CC5
330
2
100
AcDbEntity
  8
LOGO
100
AcDbText
 10
83.13275389688485
 20
337.6249528147659
 30
0.0
 40
4.924086906787329
  1
mm
  7
CHINESET
 72
     1
 11
89.22924244814536
 21
340.0869962681596
 31
0.0
100
AcDbText
 73
     2
  0
TEXT
  5
5CC6
330
2
100
AcDbEntity
  8
LOGO
100
AcDbText
 10
80.55347027904387
 20
357.3213004419153
 30
0.0
 40
4.924086906787329
  1
1 : 1
  7
CHINESET
 72
     1
 11
89.22924244814536
 21
359.783343895309
 31
0.0
100
AcDbText
 73
     2
  0
LINE
  5
5CC7
330
2
100
AcDbEntity
  8
LOGO
 62
     4
100
AcDbLine
 10
73.1665280022508
 20
335.1629093613732
 30
0.0
 11
73.1665280022508
 21
364.7074308020966
 31
0.0
  0
TEXT
  5
5CC8
330
2
100
AcDbEntity
  8
LOGO
100
AcDbText
 10
37.83400619296795
 20
357.3237237130309
 30
322.7165439115466
 40
4.924086906787329
  1
比例 Scale:
 41
0.9
  7
CHINESET
 72
     4
 11
53.4701803751011
 21
359.783343895309
 31
322.7165439115466
100
AcDbText
  0
TEXT
  5
5CC9
330
2
100
AcDbEntity
  8
LOGO
100
AcDbText
 10
37.550431545211
 20
347.5423917943933
 30
322.7165439115466
 40
4.924086906787329
  1
投影  View:
 41
0.9
  7
CHINESET
 72
     4
 11
53.4701803751011
 21
349.9351700817343
 31
322.7165439115466
100
AcDbText
  0
TEXT
  5
5CCA
330
2
100
AcDbEntity
  8
LOGO
100
AcDbText
 10
38.03184897047279
 20
337.6249528147659
 30
322.7165439115466
 40
4.924086906787329
  1
單位  Unit:
 41
0.9
  7
CHINESET
 72
     4
 11
53.4701803751011
 21
340.0869962681596
 31
322.7165439115466
100
AcDbText
  0
LWPOLYLINE
  5
5CCB
330
2
100
AcDbEntity
  8
LOGO
 62
     4
100
AcDbPolyline
 90
        4
 70
     1
 43
0.0
 10
-2.336137901821729
 20
364.7074308020966
 10
341.9184832750718
 20
364.7074308020966
 10
341.9184832750718
 20
822.4139546238763
 10
-2.336137901821729
 20
822.4139546238763
1001
GENIUS_GENREC_14
1002
{
1000
PYDIR
1011
-2.336137901821729
1021
822.4139546238763
1031
0.0
1002
}
1002
{
1000
PXDIR
1011
341.9184832750718
1021
364.7074308020966
1031
0.0
1002
}
1002
{
1000
PORI
1011
-2.336137901821729
1021
364.7074308020966
1031
0.0
1002
}
1002
{
1000
PINS
1011
-2.336137901821729
1021
364.7074308020966
1031
0.0
1002
}
1002
{
1000
PINS2
1011
341.9184832750718
1021
822.4139546238763
1031
0.0
1002
}
1002
{
1000
C
1070
     1
1002
}
1001
GENIUS_GENODEF_13
1002
{
1000
HIER
1070
     0
1002
}
1002
{
1000
MANEDIT
1070
     0
1002
}
1002
{
1000
NOSEL
1070
     0
1002
}
1002
{
1000
BEHIND
1070
     0
1002
}
1002
{
1000
OTHER
1070
     0
1002
}
1002
{
1000
REACTOR
1002
}
1001
GENIUS_GENOBJ-N-REC_13
1002
{
1000
OWNER
1000
GEN
1002
}
  0
SOLID
  5
5CCC
330
2
100
AcDbEntity
  8
LOGO
 62
     5
100
AcDbTrace
 10
2.772681289553872
 20
343.3485029553273
 30
0.0
 11
4.901727260008158
 21
343.3485029553267
 31
0.0
 12
13.78498803328324
 22
363.5377319854988
 32
0.0
 13
15.91403400373843
 23
363.5377319854977
 33
0.0
  0
SOLID
  5
5CCD
330
2
100
AcDbEntity
  8
LOGO
 62
     5
100
AcDbTrace
 10
5.782711799509002
 20
343.3485029553273
 30
0.0
 11
7.91175776996323
 21
343.3485029553273
 31
0.0
 12
15.91403400373843
 22
361.9225936630843
 32
0.0
 13
13.78498803328324
 23
354.1160917714181
 33
0.0
  0
SOLID
  5
5CCE
330
2
100
AcDbEntity
  8
LOGO
 62
     2
100
AcDbTrace
 10
4.901727260008158
 20
343.3485029553267
 30
0.0
 11
5.782711799509002
 21
343.3485029553273
 31
0.0
 12
15.91403400373843
 22
363.5377319854977
 32
0.0
 13
16.79501854323837
 23
363.5377319854977
 33
0.0
  0
SOLID
  5
5CCF
330
2
100
AcDbEntity
  8
LOGO
 62
     5
100
AcDbTrace
 10
-0.6407015071110323
 20
336.0069651261746
 30
0.0
 11
0.0934522758051912
 21
336.0069651261746
 31
0.0
 12
2.160886470458478
 22
339.6777340407507
 32
0.0
 13
2.895040253372428
 23
339.6777340407507
 33
0.0
  0
SOLID
  5
5CD0
330
2
100
AcDbEntity
  8
LOGO
 62
     5
100
AcDbTrace
 10
2.160886470458478
 20
339.6777340407507
 30
0.0
 11
2.895040253372428
 21
339.6777340407507
 31
0.0
 12
2.160886470458478
 22
336.0069651261746
 32
0.0
 13
2.895040253372428
 23
336.0069651261746
 33
0.0
  0
SOLID
  5
5CD1
330
2
100
AcDbEntity
  8
LOGO
 62
     5
100
AcDbTrace
 10
2.160886470458478
 20
336.0069651261746
 30
0.0
 11
2.895040253372428
 21
336.0069651261746
 31
0.0
 12
4.962474448029013
 22
339.6777340407507
 32
0.0
 13
5.696628230943872
 23
339.6777340407507
 33
0.0
  0
SOLID
  5
5CD2
330
2
100
AcDbEntity
  8
LOGO
 62
     5
100
AcDbTrace
 10
4.962474448029013
 20
339.6777340407507
 30
0.0
 11
5.696628230943872
 21
339.6777340407507
 31
0.0
 12
4.962474448029013
 22
336.0069651261746
 32
0.0
 13
5.696628230943872
 23
336.0069651261746
 33
0.0
  0
POLYLINE
  5
5CD3
330
2
100
AcDbEntity
  8
LOGO
 62
     5
100
AcDb2dPolyline
 66
     1
 10
0.0
 20
0.0
 30
0.0
 40
0.7353303114135744
 41
0.7353303114135744
  0
VERTEX
  5
5CD4
330
5CD3
100
AcDbEntity
  8
LOGO
 62
     5
100
AcDbVertex
100
AcDb2dVertex
 10
29.57105915871182
 20
338.2094264749202
 30
0.0
 42
1.0
  0
VERTEX
  5
5CD5
330
5CD3
100
AcDbEntity
  8
LOGO
 62
     5
100
AcDbVertex
100
AcDb2dVertex
 10
27.36506822447086
 20
338.2094264749202
 30
0.0
 42
1.0
  0
SEQEND
  5
5CD6
330
5CD3
100
AcDbEntity
  8
LOGO
 62
     5
  0
POLYLINE
  5
5CD7
330
2
100
AcDbEntity
  8
LOGO
 62
     5
100
AcDb2dPolyline
 66
     1
 10
0.0
 20
0.0
 30
0.0
 70
     1
  0
VERTEX
  5
5CD8
330
5CD7
100
AcDbEntity
  8
LOGO
 62
     5
100
AcDbVertex
100
AcDb2dVertex
 10
23.20667719094865
 20
337.8423495834621
 30
0.0
 42
1.000000057330635
  0
VERTEX
  5
5CD9
330
5CD7
100
AcDbEntity
  8
LOGO
 62
     5
100
AcDbVertex
100
AcDb2dVertex
 10
25.40913853969471
 20
337.8423495834621
 30
0.0
 42
1.000000057330635
  0
SEQEND
  5
5CDA
330
5CD7
100
AcDbEntity
  8
LOGO
 62
     5
  0
CIRCLE
  5
5CDB
330
2
100
AcDbEntity
  8
LOGO
 62
     5
100
AcDbCircle
 10
24.30790786532361
 20
337.8423495834621
 30
0.0
 40
1.101230674372969
  0
POLYLINE
  5
5CDC
330
2
100
AcDbEntity
  8
LOGO
 62
     5
100
AcDb2dPolyline
 66
     1
 10
0.0
 20
0.0
 30
0.0
 70
     1
 40
0.7353303114135744
 41
0.7353303114135744
  0
VERTEX
  5
5CDD
330
5CDC
100
AcDbEntity
  8
LOGO
 62
     5
100
AcDbVertex
100
AcDb2dVertex
 10
22.83724724249544
 20
337.8423495834621
 30
0.0
 42
1.0
  0
VERTEX
  5
5CDE
330
5CDC
100
AcDbEntity
  8
LOGO
 62
     5
100
AcDbVertex
100
AcDb2dVertex
 10
25.77856848814935
 20
337.8423495834621
 30
0.0
 42
1.0
  0
SEQEND
  5
5CDF
330
5CDC
100
AcDbEntity
  8
LOGO
 62
     5
  0
LINE
  5
5CE0
330
2
100
AcDbEntity
  8
LOGO
100
AcDbLine
 10
29.93637125742066
 20
336.0069651261746
 30
0.0
 11
29.93637125742066
 21
338.2094264749202
 31
0.0
  0
SOLID
  5
5CE1
330
2
100
AcDbEntity
  8
LOGO
 62
     5
100
AcDbTrace
 10
25.40906512431985
 20
339.6777340407507
 30
0.0
 11
26.14321890723374
 21
339.6777340407507
 31
0.0
 12
25.40906512431985
 22
336.0069651261746
 32
0.0
 13
26.14321890723374
 23
336.0069651261746
 33
0.0
  0
SOLID
  5
5CE2
330
2
100
AcDbEntity
  8
LOGO
 62
     5
100
AcDbTrace
 10
26.99975612575969
 20
336.0069651261746
 30
0.0
 11
27.73390990867552
 21
336.0069651261746
 31
0.0
 12
26.99975612575969
 22
339.6777340407507
 32
0.0
 13
27.73390990867552
 23
339.6777340407507
 33
0.0
  0
SOLID
  5
5CE3
330
2
100
AcDbEntity
  8
LOGO
 62
     5
100
AcDbTrace
 10
29.20221747450666
 20
338.2094264749202
 30
0.0
 11
29.93637125742066
 21
338.2094264749202
 31
0.0
 12
29.20221747450666
 22
336.0069651261746
 32
0.0
 13
29.93637125742066
 23
336.0069651261746
 33
0.0
  0
SOLID
  5
5CE4
330
2
100
AcDbEntity
  8
LOGO
 62
     5
100
AcDbTrace
 10
26.92634074746786
 20
361.9225936630843
 30
0.0
 11
24.79729477701454
 21
354.1160917714181
 31
0.0
 12
26.92634074746786
 22
343.3485029553267
 32
0.0
 13
24.79729477701454
 23
343.3485029553267
 33
0.0
  0
SOLID
  5
5CE5
330
2
100
AcDbEntity
  8
LOGO
 62
     5
100
AcDbTrace
 10
27.80732528696734
 20
343.3485029553267
 30
0.0
 11
29.93637125742066
 21
343.3485029553267
 31
0.0
 12
27.80732528696734
 22
363.5377319854977
 32
0.0
 13
29.93637125742066
 23
363.5377319854988
 33
0.0
  0
SOLID
  5
5CE6
330
2
100
AcDbEntity
  8
LOGO
 62
     2
100
AcDbTrace
 10
26.92634074746786
 20
363.5377319854988
 30
0.0
 11
27.80732528696734
 21
363.5377319854977
 31
0.0
 12
26.92634074746786
 22
343.3485029553267
 32
0.0
 13
27.80732528696734
 23
343.3485029553267
 33
0.0
  0
POLYLINE
  5
5CE7
330
2
100
AcDbEntity
  8
LOGO
 62
     5
100
AcDb2dPolyline
 66
     1
 10
0.0
 20
0.0
 30
0.0
 40
0.7353303114135744
 41
0.7353303114135744
  0
VERTEX
  5
5CE8
330
5CE7
100
AcDbEntity
  8
LOGO
 62
     5
100
AcDbVertex
100
AcDb2dVertex
 10
19.04813932667383
 20
338.2094264749202
 30
0.0
 42
1.0
  0
VERTEX
  5
5CE9
330
5CE7
100
AcDbEntity
  8
LOGO
 62
     5
100
AcDbVertex
100
AcDb2dVertex
 10
16.84214839243242
 20
338.2094264749202
 30
0.0
 42
1.0
  0
SEQEND
  5
5CEA
330
5CE7
100
AcDbEntity
  8
LOGO
 62
     5
  0
POLYLINE
  5
5CEB
330
2
100
AcDbEntity
  8
LOGO
 62
     5
100
AcDb2dPolyline
 66
     1
 10
0.0
 20
0.0
 30
0.0
 40
0.7353303114135744
 41
0.7353303114135744
  0
VERTEX
  5
5CEC
330
5CEB
100
AcDbEntity
  8
LOGO
 62
     5
100
AcDbVertex
100
AcDb2dVertex
 10
21.25060067541761
 20
338.2094264749202
 30
0.0
 42
1.0
  0
VERTEX
  5
5CED
330
5CEB
100
AcDbEntity
  8
LOGO
 62
     5
100
AcDbVertex
100
AcDb2dVertex
 10
19.04460974117757
 20
338.2094264749202
 30
0.0
 42
1.0
  0
SEQEND
  5
5CEE
330
5CEB
100
AcDbEntity
  8
LOGO
 62
     5
  0
POLYLINE
  5
5CEF
330
2
100
AcDbEntity
  8
LOGO
 62
     5
100
AcDb2dPolyline
 66
     1
 10
0.0
 20
0.0
 30
0.0
 40
0.7353303114135744
 41
0.7353303114135744
  0
VERTEX
  5
5CF0
330
5CEF
100
AcDbEntity
  8
LOGO
 62
     5
100
AcDbVertex
100
AcDb2dVertex
 10
10.72768084337912
 20
338.2094264749202
 30
0.0
 42
1.0
  0
VERTEX
  5
5CF1
330
5CEF
100
AcDbEntity
  8
LOGO
 62
     5
100
AcDbVertex
100
AcDb2dVertex
 10
8.52168990913907
 20
338.2094264749202
 30
0.0
 42
1.0
  0
SEQEND
  5
5CF2
330
5CEF
100
AcDbEntity
  8
LOGO
 62
     5
  0
SOLID
  5
5CF3
330
2
100
AcDbEntity
  8
LOGO
 62
     5
100
AcDbTrace
 10
8.156377810429376
 20
339.6777340407507
 30
0.0
 11
8.890531593343325
 21
339.6777340407507
 31
0.0
 12
8.156377810429376
 22
336.0069651261746
 32
0.0
 13
8.890531593343325
 23
336.0069651261746
 33
0.0
  0
SOLID
  5
5CF4
330
2
100
AcDbEntity
  8
LOGO
 62
     5
100
AcDbTrace
 10
10.35883915917537
 20
338.2094264749202
 30
0.0
 11
11.09299294209171
 21
338.2094264749202
 31
0.0
 12
10.35883915917537
 22
336.0069651261746
 32
0.0
 13
11.09299294209171
 23
336.0069651261746
 33
0.0
  0
POLYLINE
  5
5CF5
330
2
100
AcDbEntity
  8
LOGO
 62
     5
100
AcDb2dPolyline
 66
     1
 10
0.0
 20
0.0
 30
0.0
 70
     1
 40
0.7353303114135744
 41
0.7353303114135744
  0
VERTEX
  5
5CF6
330
5CF5
100
AcDbEntity
  8
LOGO
 62
     5
100
AcDbVertex
100
AcDb2dVertex
 10
12.31432741045608
 20
337.8423495834621
 30
0.0
 42
1.0
  0
VERTEX
  5
5CF7
330
5CF5
100
AcDbEntity
  8
LOGO
 62
     5
100
AcDbVertex
100
AcDb2dVertex
 10
15.25564865611136
 20
337.8423495834621
 30
0.0
 42
1.0
  0
SEQEND
  5
5CF8
330
5CF5
100
AcDbEntity
  8
LOGO
 62
     5
  0
SOLID
  5
5CF9
330
2
100
AcDbEntity
  8
LOGO
 62
     5
100
AcDbTrace
 10
14.88614529227948
 20
340.7789647151243
 30
0.0
 11
15.62029907519439
 21
340.7789647151243
 31
0.0
 12
14.88614529227948
 22
336.0069651261746
 32
0.0
 13
15.62029907519439
 23
336.0069651261746
 33
0.0
  0
SOLID
  5
5CFA
330
2
100
AcDbEntity
  8
LOGO
 62
     5
100
AcDbTrace
 10
16.47683629372358
 20
339.6777340407507
 30
0.0
 11
17.21099007663753
 21
339.6777340407507
 31
0.0
 12
16.47683629372358
 22
336.0069651261746
 32
0.0
 13
17.21099007663753
 23
336.0069651261746
 33
0.0
  0
SOLID
  5
5CFB
330
2
100
AcDbEntity
  8
LOGO
 62
     5
100
AcDbTrace
 10
18.6792976424673
 20
338.2094264749202
 30
0.0
 11
19.41345142538358
 21
338.2094264749202
 31
0.0
 12
18.6792976424673
 22
336.0069651261746
 32
0.0
 13
19.41345142538358
 23
336.0069651261746
 33
0.0
  0
SOLID
  5
5CFC
330
2
100
AcDbEntity
  8
LOGO
 62
     5
100
AcDbTrace
 10
20.88175899121336
 20
338.2094264749202
 30
0.0
 11
21.61591277412873
 21
338.2094264749202
 31
0.0
 12
20.88175899121336
 22
336.0069651261735
 32
0.0
 13
21.61591277412873
 23
336.0069651261735
 33
0.0
  0
SOLID
  5
5CFD
330
2
100
AcDbEntity
  8
LOGO
 62
     5
100
AcDbTrace
 10
6.565686808986185
 20
340.1916416887917
 30
0.0
 11
7.299840591903489
 21
340.1916416887917
 31
0.0
 12
6.565686808986185
 22
340.7789647151243
 32
0.0
 13
7.299840591903489
 23
340.7789647151243
 33
0.0
  0
SOLID
  5
5CFE
330
2
100
AcDbEntity
  8
LOGO
 62
     5
100
AcDbTrace
 10
6.565686808986185
 20
339.6777340407507
 30
0.0
 11
7.299840591903489
 21
339.6777340407507
 31
0.0
 12
6.565686808986185
 22
336.0069651261735
 32
0.0
 13
7.299840591903489
 23
336.0069651261746
 33
0.0
  0
SOLID
  5
5CFF
330
2
100
AcDbEntity
  8
LOGO
 62
     5
100
AcDbTrace
 10
13.78498803328324
 20
343.3485029553273
 30
0.0
 11
15.91403400373843
 21
343.3485029553273
 31
0.0
 12
13.78498803328324
 22
354.1160917714181
 32
0.0
 13
15.91403400373843
 23
361.9225936630843
 33
0.0
  0
SOLID
  5
5D00
330
2
100
AcDbEntity
  8
LOGO
 62
     5
100
AcDbTrace
 10
16.79501854323837
 20
363.5377319854977
 30
0.0
 11
18.92406451369123
 21
363.5377319854988
 31
0.0
 12
16.79501854323837
 22
344.9636412777406
 32
0.0
 13
18.92406451369123
 23
352.7701431694069
 33
0.0
  0
SOLID
  5
5D01
330
2
100
AcDbEntity
  8
LOGO
 62
     2
100
AcDbTrace
 10
15.91403400373843
 20
363.5377319854977
 30
0.0
 11
16.79501854323837
 21
363.5377319854977
 31
0.0
 12
15.91403400373843
 22
343.3485029553273
 32
0.0
 13
16.79501854323837
 23
343.3485029553273
 33
0.0
  0
SOLID
  5
5D02
330
2
100
AcDbEntity
  8
LOGO
 62
     5
100
AcDbTrace
 10
16.79501854323837
 20
344.9636412777406
 30
0.0
 11
18.92406451369123
 21
352.7701431694069
 31
0.0
 12
26.92634074746786
 22
363.5377319854988
 32
0.0
 13
24.79729477701454
 23
363.5377319854988
 33
0.0
  0
SOLID
  5
5D03
330
2
100
AcDbEntity
  8
LOGO
 62
     5
100
AcDbTrace
 10
16.79501854323837
 20
343.3485029553273
 30
0.0
 11
18.92406451369123
 21
343.3485029553273
 31
0.0
 12
26.92634074746786
 22
361.9225936630843
 32
0.0
 13
24.79729477701454
 23
354.1160917714181
 33
0.0
  0
SOLID
  5
5D04
330
2
100
AcDbEntity
  8
LOGO
 62
     2
100
AcDbTrace
 10
15.91403400373843
 20
343.3485029553273
 30
0.0
 11
16.79501854323837
 21
343.3485029553273
 31
0.0
 12
26.92634074746786
 22
363.5377319854988
 32
0.0
 13
27.80732528696734
 23
363.5377319854977
 33
0.0
  0
LWPOLYLINE
  5
5D05
330
2
100
AcDbEntity
  8
LOGO
 62
     4
100
AcDbPolyline
 90
        4
 70
     1
 43
0.0
 10
-2.336137901821729
 20
364.7074308020966
 10
341.9184832750718
 20
364.7074308020966
 10
341.9184832750718
 20
315.4665617342225
 10
-2.336137901821729
 20
315.4665617342225
1001
GENIUS_GENREC_14
1002
{
1000
PYDIR
1011
-2.336137901821729
1021
315.4665617342225
1031
0.0
1002
}
1002
{
1000
PXDIR
1011
341.9184832750718
1021
364.7074308020966
1031
0.0
1002
}
1002
{
1000
PORI
1011
-2.336137901821729
1021
364.7074308020966
1031
0.0
1002
}
1002
{
1000
PINS
1011
-2.336137901821729
1021
364.7074308020966
1031
0.0
1002
}
1002
{
1000
PINS2
1011
341.9184832750718
1021
315.4665617342225
1031
0.0
1002
}
1002
{
1000
C
1070
     1
1002
}
1001
GENIUS_GENOBJ-N-REC_13
1002
{
1000
OWNER
1000
GEN
1002
}
1001
GENIUS_GENODEF_13
1002
{
1000
HIER
1070
     0
1002
}
1002
{
1000
MANEDIT
1070
     0
1002
}
1002
{
1000
NOSEL
1070
     0
1002
}
1002
{
1000
BEHIND
1070
     0
1002
}
1002
{
1000
OTHER
1070
     0
1002
}
1002
{
1000
REACTOR
1002
}
  0
LINE
  5
5D06
330
2
100
AcDbEntity
  8
LOGO
 62
     4
100
AcDbLine
 10
219.605107822727
 20
337.624952814767
 30
0.0
 11
219.605107822727
 21
319.569967489879
 31
0.0
  0
LINE
  5
5D07
330
2
100
AcDbEntity
  8
LOGO
 62
     4
100
AcDbLine
 10
186.7778617774779
 20
337.624952814767
 30
0.0
 11
186.7778617774779
 21
319.569967489879
 31
0.0
  0
LINE
  5
5D08
330
2
100
AcDbEntity
  8
LOGO
 62
     4
100
AcDbLine
 10
219.605107822727
 20
319.569967489879
 30
0.0
 11
186.7778617774779
 21
319.569967489879
 31
0.0
  0
LINE
  5
5D09
330
2
100
AcDbEntity
  8
LOGO
 62
     4
100
AcDbLine
 10
232.7855561796331
 20
359.783343895309
 30
0.0
 11
173.722404029647
 21
359.783343895309
 31
0.0
  0
LINE
  5
5D0A
330
2
100
AcDbEntity
  8
LOGO
 62
     4
100
AcDbLine
 10
232.7855561796331
 20
345.0110831749472
 30
0.0
 11
173.722404029647
 21
345.0110831749472
 31
0.0
  0
LINE
  5
5D0B
330
2
100
AcDbEntity
  8
LOGO
 62
     4
100
AcDbLine
 10
173.722404029647
 20
359.783343895309
 30
0.0
 11
173.722404029647
 21
345.0110831749472
 31
0.0
  0
LINE
  5
5D0C
330
2
100
AcDbEntity
  8
LOGO
 62
     4
100
AcDbLine
 10
232.7855561796331
 20
359.783343895309
 30
0.0
 11
232.7855561796331
 21
345.0110831749472
 31
0.0
  0
LINE
  5
5D0D
330
2
100
AcDbEntity
  8
LOGO
 62
     4
100
AcDbLine
 10
204.9042425250717
 20
345.0110831749472
 30
0.0
 11
204.9042425250717
 21
337.624952814767
 31
0.0
  0
TEXT
  5
5D0E
330
2
100
AcDbEntity
  8
LOGO
  6
Continuous
 62
     7
100
AcDbText
 10
176.3472034053077
 20
348.0947710032798
 30
0.0
 40
8.618399999999999
  1
MAFR401
  7
CHINESET
100
AcDbText
  0
LINE
  5
5D0F
330
2
100
AcDbEntity
  8
LOGO
 62
     4
100
AcDbLine
 10
219.605107822727
 20
337.624952814767
 30
0.0
 11
186.7778617774779
 21
337.624952814767
 31
0.0
  0
TEXT
  5
5D10
330
2
100
AcDbEntity
  8
LOGO
  6
Continuous
100
AcDbText
 10
197.3120211039187
 20
322.1183903820012
 30
322.7165439115466
 40
3.693599999999999
  1
Model
 41
0.8
  7
CHINESET
100
AcDbText
  0
TEXT
  5
5D11
330
2
100
AcDbEntity
  8
LOGO
100
AcDbText
 10
196.3289048554698
 20
328.9655287543872
 30
322.7165439115466
 40
6.155999999999999
  1
型號
  7
CHINESET
100
AcDbText
  0
LINE
  5
5D12
330
2
100
AcDbEntity
  8
LOGO
  6
Continuous
 62
     7
100
AcDbLine
 10
236.1937234252886
 20
352.3448878530879
 30
0.0
 11
242.7166147435572
 21
352.3448878530879
 31
0.0
  0
LINE
  5
5D13
330
2
100
AcDbEntity
  8
LOGO
 62
     4
100
AcDbLine
 10
278.4726583672389
 20
337.624952814767
 30
0.0
 11
278.4726583672389
 21
319.569967489879
 31
0.0
  0
LINE
  5
5D14
330
2
100
AcDbEntity
  8
LOGO
 62
     4
100
AcDbLine
 10
234.8854958034631
 20
337.624952814767
 30
0.0
 11
234.8854958034631
 21
319.569967489879
 31
0.0
  0
LINE
  5
5D15
330
2
100
AcDbEntity
  8
LOGO
 62
     4
100
AcDbLine
 10
278.4726583672389
 20
319.569967489879
 30
0.0
 11
234.8854958034631
 21
319.569967489879
 31
0.0
  0
LINE
  5
5D16
330
2
100
AcDbEntity
  8
LOGO
 62
     4
100
AcDbLine
 10
270.0162921742182
 20
359.783343895309
 30
0.0
 11
244.7742431123497
 21
359.783343895309
 31
0.0
  0
LINE
  5
5D17
330
2
100
AcDbEntity
  8
LOGO
 62
     4
100
AcDbLine
 10
270.0162921742182
 20
345.0110831749472
 30
0.0
 11
244.7742431123497
 21
345.0110831749472
 31
0.0
  0
LINE
  5
5D18
330
2
100
AcDbEntity
  8
LOGO
 62
     4
100
AcDbLine
 10
244.7742431123497
 20
359.783343895309
 30
0.0
 11
244.7742431123497
 21
345.0110831749472
 31
0.0
  0
LINE
  5
5D19
330
2
100
AcDbEntity
  8
LOGO
 62
     4
100
AcDbLine
 10
270.0162921742182
 20
359.783343895309
 30
0.0
 11
270.0162921742182
 21
345.0110831749472
 31
0.0
  0
LINE
  5
5D1A
330
2
100
AcDbEntity
  8
LOGO
 62
     4
100
AcDbLine
 10
256.1240444580174
 20
345.0110831749472
 30
0.0
 11
256.1240444580174
 21
337.624952814767
 31
0.0
  0
TEXT
  5
5D1B
330
2
100
AcDbEntity
  8
LOGO
  6
Continuous
 62
     7
100
AcDbText
 10
251.2559070742499
 20
348.0947710032798
 30
0.0
 40
8.618399999999999
  1
*A
  7
CHINESET
100
AcDbText
  0
LINE
  5
5D1C
330
2
100
AcDbEntity
  8
LOGO
 62
     4
100
AcDbLine
 10
278.4726583672389
 20
337.624952814767
 30
0.0
 11
234.8854958034631
 21
337.624952814767
 31
0.0
  0
TEXT
  5
5D1D
330
2
100
AcDbEntity
  8
LOGO
  6
Continuous
100
AcDbText
 10
246.2818224007684
 20
322.1183903820012
 30
322.7165439115466
 40
3.693599999999999
  1
Bore size
 41
0.8
  7
CHINESET
100
AcDbText
  0
TEXT
  5
5D1E
330
2
100
AcDbEntity
  8
LOGO
100
AcDbText
 10
238.1246415017924
 20
328.9655287543872
 30
322.7165439115466
 40
6.155999999999999
  1
配管口徑代號
  7
CHINESET
100
AcDbText
  0
TEXT
  5
5D1F
330
2
100
AcDbEntity
  8
LOGO
100
AcDbText
 10
107.6186352873634
 20
318.0861565335751
 30
0.0
 40
4.9248
  1
20809252
 41
0.7
  7
CHINESET
 72
     1
 11
120.2589552873634
 21
318.0861565335751
 31
0.0
100
AcDbText
  0
LINE
  5
5D20
330
2
100
AcDbEntity
  8
LOGO
 62
     4
100
AcDbLine
 10
135.5425740474972
 20
325.3147355477989
 30
0.0
 11
135.5425740474996
 21
315.4665617342236
 31
0.0
  0
LINE
  5
5D21
330
2
100
AcDbEntity
  8
LOGO
 62
     4
100
AcDbLine
 10
135.5425740474972
 20
325.3147355477989
 30
0.0
 11
105.9937740474998
 21
325.3147355477989
 31
0.0
  0
CIRCLE
  5
5D22
330
2
100
AcDbEntity
  8
LOGO
  6
Continuous
100
AcDbCircle
 10
82.2840908052216
 20
349.945702739662
 30
0.0
 40
2.859040758021522
  0
CIRCLE
  5
5D23
330
2
100
AcDbEntity
  8
LOGO
  6
Continuous
100
AcDbCircle
 10
82.2840908052216
 20
349.945702739662
 30
0.0
 40
1.675144787642166
  0
LINE
  5
5D24
330
2
100
AcDbEntity
  8
LOGO
100
AcDbLine
 10
100.250634677689
 20
347.0866619816399
 30
0.0
 11
100.250634677689
 21
352.8047434976841
 31
0.0
  0
LINE
  5
5D25
330
2
100
AcDbEntity
  8
LOGO
100
AcDbLine
 10
91.28770601806204
 20
348.2705579520201
 30
0.0
 11
91.28770601806204
 21
351.6208475273044
 31
0.0
  0
LINE
  5
5D26
330
2
100
AcDbEntity
  8
LOGO
  6
Continuous
100
AcDbLine
 10
91.28770601806204
 20
351.6208475273044
 30
0.0
 11
100.250634677689
 21
352.8047434976841
 31
0.0
  0
LINE
  5
5D27
330
2
100
AcDbEntity
  8
LOGO
  6
Continuous
100
AcDbLine
 10
91.28770601806204
 20
348.2705579520201
 30
0.0
 11
100.250634677689
 21
347.0866619816399
 31
0.0
  0
LINE
  5
5D28
330
2
100
AcDbEntity
  8
LOGO
  6
AM_ISO08W050x2
 48
0.3
100
AcDbLine
 10
78.34286030952447
 20
349.945702739662
 30
0.0
 11
86.22532130091826
 21
349.945702739662
 31
0.0
1001
GENIUS_GENOREF_13
1005
5D2D
  0
LINE
  5
5D29
330
2
100
AcDbEntity
  8
LOGO
  6
AM_ISO08W050x2
 48
0.3
100
AcDbLine
 10
82.2840908052216
 20
346.0044722439651
 30
0.0
 11
82.2840908052216
 21
353.8869332353588
 31
0.0
1001
GENIUS_GENOREF_13
1005
5D2C
  0
LINE
  5
5D2A
330
2
100
AcDbEntity
  8
LOGO
  6
CENTER
 48
0.5
100
AcDbLine
 10
90.57092084872838
 20
349.945702739662
 30
0.0
 11
101.1531725792174
 21
349.945702739662
 31
0.0
1001
GENIUS_GENOREF_13
1005
5D2B
  0
POINT
  5
5D2B
330
2
100
AcDbEntity
  8
0
 60
     1
100
AcDbPoint
 10
340.5549399683128
 20
627.8899463475538
 30
0.0
1001
GENIUS_GENOBJ-N-CRS_13
1002
{
1000
OWNER
1000
GEN
1002
}
1001
GENIUS_GENOLIS_13
1002
{
1000
ENT
1005
0
1005
0
1005
0
1005
5D2A
1002
}
1001
GENIUS_GENOENT_13
1002
{
1000
MYREF
1005
5D2B
1002
}
1002
{
1000
GRP
1005
0
1002
}
1001
GENIUS_GENODEF_13
1002
{
1000
HIER
1070
    10
1002
}
1002
{
1000
MANEDIT
1070
     1
1002
}
1002
{
1000
NOSEL
1070
     0
1002
}
1002
{
1000
BEHIND
1070
     0
1002
}
1002
{
1000
OTHER
1070
     0
1002
}
1002
{
1000
REACTOR
1002
}
  0
POINT
  5
5D2C
330
2
100
AcDbEntity
  8
0
 60
     1
100
AcDbPoint
 10
329.230354745458
 20
636.7655328261901
 30
0.0
1001
GENIUS_GENOBJ-N-CRS_13
1002
{
1000
OWNER
1000
GEN
1002
}
1001
GENIUS_GENOLIS_13
1002
{
1000
ENT
1005
0
1005
0
1005
0
1005
5D29
1002
}
1001
GENIUS_GENOENT_13
1002
{
1000
MYREF
1005
5D2C
1002
}
1002
{
1000
GRP
1005
0
1002
}
1001
GENIUS_GENODEF_13
1002
{
1000
HIER
1070
    10
1002
}
1002
{
1000
MANEDIT
1070
     1
1002
}
1002
{
1000
NOSEL
1070
     0
1002
}
1002
{
1000
BEHIND
1070
     0
1002
}
1002
{
1000
OTHER
1070
     0
1002
}
1002
{
1000
REACTOR
1002
}
  0
POINT
  5
5D2D
330
2
100
AcDbEntity
  8
0
 60
     1
100
AcDbPoint
 10
335.5890284432949
 20
627.8899463475538
 30
0.0
1001
GENIUS_GENOBJ-N-CRS_13
1002
{
1000
OWNER
1000
GEN
1002
}
1001
GENIUS_GENOLIS_13
1002
{
1000
ENT
1005
0
1005
0
1005
0
1005
5D28
1002
}
1001
GENIUS_GENOENT_13
1002
{
1000
MYREF
1005
5D2D
1002
}
1002
{
1000
GRP
1005
0
1002
}
1001
GENIUS_GENODEF_13
1002
{
1000
HIER
1070
    10
1002
}
1002
{
1000
MANEDIT
1070
     1
1002
}
1002
{
1000
NOSEL
1070
     0
1002
}
1002
{
1000
BEHIND
1070
     0
1002
}
1002
{
1000
OTHER
1070
     0
1002
}
1002
{
1000
REACTOR
1002
}
  0
MTEXT
  5
77DF
330
2
100
AcDbEntity
  8
AM_REFDIM
100
AcDbMText
 10
137.6636013750021
 20
497.7004506492445
 30
0.0
 40
7.0
 41
35.85606272283053
 71
     1
 72
     5
  1
{\L2-PT3/8\P2-PT1/2}
 73
     1
 44
1.0
1001
ACAD
1000
MTEXTBEGIN
1070
    73
1070
     1
1070
    44
1040
1.0
1070
    74
1070
     0
1000
MTEXTEND
  0
LINE
  5
77E0
330
2
100
AcDbEntity
  8
AM_7
100
AcDbLine
 10
70.74658149482184
 20
397.5308177922121
 30
0.0
 11
70.74658149482184
 21
408.0308177922121
 31
0.0
  0
LINE
  5
77E1
330
2
100
AcDbEntity
  8
AM_7
100
AcDbLine
 10
80.24658149482206
 20
436.130817792212
 30
0.0
 11
81.24658149482206
 21
436.130817792212
 31
0.0
  0
LINE
  5
77E2
330
2
100
AcDbEntity
  8
AM_7
100
AcDbLine
 10
80.74658149482207
 20
435.630817792212
 30
0.0
 11
80.74658149482207
 21
436.630817792212
 31
0.0
  0
LINE
  5
77E3
330
2
100
AcDbEntity
  8
AM_7
100
AcDbLine
 10
75.74658149482207
 20
436.130817792212
 30
0.0
 11
78.24658149482207
 21
436.130817792212
 31
0.0
  0
LINE
  5
77E4
330
2
100
AcDbEntity
  8
AM_7
100
AcDbLine
 10
83.24658149482207
 20
436.130817792212
 30
0.0
 11
85.74658149482207
 21
436.130817792212
 31
0.0
  0
LINE
  5
77E5
330
2
100
AcDbEntity
  8
AM_7
100
AcDbLine
 10
80.74658149482207
 20
431.130817792212
 30
0.0
 11
80.74658149482207
 21
433.630817792212
 31
0.0
  0
LINE
  5
77E6
330
2
100
AcDbEntity
  8
AM_7
100
AcDbLine
 10
80.74658149482207
 20
438.630817792212
 30
0.0
 11
80.74658149482207
 21
441.130817792212
 31
0.0
  0
LINE
  5
77E7
330
2
100
AcDbEntity
  8
AM_7
100
AcDbLine
 10
80.24658149482206
 20
502.130817792212
 30
0.0
 11
81.24658149482206
 21
502.130817792212
 31
0.0
  0
LINE
  5
77E8
330
2
100
AcDbEntity
  8
AM_7
100
AcDbLine
 10
80.74658149482207
 20
501.630817792212
 30
0.0
 11
80.74658149482207
 21
502.630817792212
 31
0.0
  0
LINE
  5
77E9
330
2
100
AcDbEntity
  8
AM_7
100
AcDbLine
 10
75.74658149482207
 20
502.130817792212
 30
0.0
 11
78.24658149482207
 21
502.130817792212
 31
0.0
  0
LINE
  5
77EA
330
2
100
AcDbEntity
  8
AM_7
100
AcDbLine
 10
83.24658149482207
 20
502.130817792212
 30
0.0
 11
85.74658149482207
 21
502.130817792212
 31
0.0
  0
LINE
  5
77EB
330
2
100
AcDbEntity
  8
AM_7
100
AcDbLine
 10
80.74658149482207
 20
497.130817792212
 30
0.0
 11
80.74658149482207
 21
499.630817792212
 31
0.0
  0
LINE
  5
77EC
330
2
100
AcDbEntity
  8
AM_7
100
AcDbLine
 10
80.74658149482207
 20
504.630817792212
 30
0.0
 11
80.74658149482207
 21
507.130817792212
 31
0.0
  0
LINE
  5
77ED
330
2
100
AcDbEntity
  8
AM_7
100
AcDbLine
 10
70.74658149482207
 20
425.6293643099812
 30
0.0
 11
70.74658149482207
 21
542.630817792212
 31
0.0
  0
LINE
  5
77EE
330
2
100
AcDbEntity
  8
AM_7
100
AcDbLine
 10
70.24658149482206
 20
554.130817792212
 30
0.0
 11
71.24658149482207
 21
554.130817792212
 31
0.0
  0
LINE
  5
77EF
330
2
100
AcDbEntity
  8
AM_7
100
AcDbLine
 10
70.74658149482207
 20
553.630817792212
 30
0.0
 11
70.74658149482207
 21
554.630817792212
 31
0.0
  0
LINE
  5
77F0
330
2
100
AcDbEntity
  8
AM_7
100
AcDbLine
 10
59.24658149482207
 20
554.130817792212
 30
0.0
 11
68.24658149482207
 21
554.130817792212
 31
0.0
  0
LINE
  5
77F1
330
2
100
AcDbEntity
  8
AM_7
100
AcDbLine
 10
73.24658149482207
 20
554.130817792212
 30
0.0
 11
82.24658149482207
 21
554.130817792212
 31
0.0
  0
LINE
  5
77F2
330
2
100
AcDbEntity
  8
AM_7
100
AcDbLine
 10
70.74658149482207
 20
542.630817792212
 30
0.0
 11
70.74658149482207
 21
551.630817792212
 31
0.0
  0
LINE
  5
77F3
330
2
100
AcDbEntity
  8
AM_7
100
AcDbLine
 10
70.74658149482207
 20
556.630817792212
 30
0.0
 11
70.74658149482207
 21
565.630817792212
 31
0.0
  0
LINE
  5
77F4
330
2
100
AcDbEntity
  8
AM_7
100
AcDbLine
 10
80.24658149482206
 20
564.130817792212
 30
0.0
 11
81.24658149482206
 21
564.130817792212
 31
0.0
  0
LINE
  5
77F5
330
2
100
AcDbEntity
  8
AM_7
100
AcDbLine
 10
80.74658149482207
 20
563.630817792212
 30
0.0
 11
80.74658149482207
 21
564.630817792212
 31
0.0
  0
LINE
  5
77F6
330
2
100
AcDbEntity
  8
AM_7
100
AcDbLine
 10
76.99658149482207
 20
564.130817792212
 30
0.0
 11
78.24658149482207
 21
564.130817792212
 31
0.0
  0
LINE
  5
77F7
330
2
100
AcDbEntity
  8
AM_7
100
AcDbLine
 10
83.24658149482207
 20
564.130817792212
 30
0.0
 11
84.49658149482207
 21
564.130817792212
 31
0.0
  0
LINE
  5
77F8
330
2
100
AcDbEntity
  8
AM_7
100
AcDbLine
 10
80.74658149482207
 20
560.380817792212
 30
0.0
 11
80.74658149482207
 21
561.630817792212
 31
0.0
  0
LINE
  5
77F9
330
2
100
AcDbEntity
  8
AM_7
100
AcDbLine
 10
80.74658149482207
 20
566.630817792212
 30
0.0
 11
80.74658149482207
 21
567.880817792212
 31
0.0
  0
LINE
  5
77FA
330
2
100
AcDbEntity
  8
AM_7
100
AcDbLine
 10
60.24658149482206
 20
544.130817792212
 30
0.0
 11
61.24658149482207
 21
544.130817792212
 31
0.0
  0
LINE
  5
77FB
330
2
100
AcDbEntity
  8
AM_7
100
AcDbLine
 10
60.74658149482207
 20
543.630817792212
 30
0.0
 11
60.74658149482207
 21
544.630817792212
 31
0.0
  0
LINE
  5
77FC
330
2
100
AcDbEntity
  8
AM_7
100
AcDbLine
 10
56.99658149482207
 20
544.130817792212
 30
0.0
 11
58.24658149482207
 21
544.130817792212
 31
0.0
  0
LINE
  5
77FD
330
2
100
AcDbEntity
  8
AM_7
100
AcDbLine
 10
63.24658149482207
 20
544.130817792212
 30
0.0
 11
64.49658149482207
 21
544.130817792212
 31
0.0
  0
LINE
  5
77FE
330
2
100
AcDbEntity
  8
AM_7
100
AcDbLine
 10
60.74658149482207
 20
540.380817792212
 30
0.0
 11
60.74658149482207
 21
541.630817792212
 31
0.0
  0
LINE
  5
77FF
330
2
100
AcDbEntity
  8
AM_7
100
AcDbLine
 10
60.74658149482207
 20
546.630817792212
 30
0.0
 11
60.74658149482207
 21
547.880817792212
 31
0.0
  0
LINE
  5
7800
330
2
100
AcDbEntity
  8
AM_7
100
AcDbLine
 10
70.74658149482252
 20
643.630817792212
 30
0.0
 11
70.74658149482252
 21
579.130817792212
 31
0.0
  0
LINE
  5
7801
330
2
100
AcDbEntity
  8
AM_7
100
AcDbLine
 10
40.36518568892847
 20
594.630817792212
 30
0.0
 11
53.04429528573632
 21
594.630817792212
 31
0.0
  0
LINE
  5
7802
330
2
100
AcDbEntity
  8
AM_7
100
AcDbLine
 10
70.74658149482207
 20
703.797573641981
 30
0.0
 11
70.74658149482207
 21
701.1975736419811
 31
0.0
  0
LINE
  5
7803
330
2
100
AcDbEntity
  8
AM_7
100
AcDbLine
 10
70.24658149482206
 20
740.297573641981
 30
0.0
 11
71.24658149482207
 21
740.297573641981
 31
0.0
  0
LINE
  5
7804
330
2
100
AcDbEntity
  8
AM_7
100
AcDbLine
 10
70.74658149482207
 20
739.7975736419811
 30
0.0
 11
70.74658149482207
 21
740.797573641981
 31
0.0
  0
LINE
  5
7805
330
2
100
AcDbEntity
  8
AM_7
100
AcDbLine
 10
34.24658149482207
 20
740.297573641981
 30
0.0
 11
68.24658149482207
 21
740.297573641981
 31
0.0
  0
LINE
  5
7806
330
2
100
AcDbEntity
  8
AM_7
100
AcDbLine
 10
73.24658149482207
 20
740.297573641981
 30
0.0
 11
107.246581494822
 21
740.297573641981
 31
0.0
  0
LINE
  5
7807
330
2
100
AcDbEntity
  8
AM_7
100
AcDbLine
 10
70.74658149482207
 20
703.797573641981
 30
0.0
 11
70.74658149482207
 21
737.7975736419811
 31
0.0
  0
LINE
  5
7808
330
2
100
AcDbEntity
  8
AM_7
100
AcDbLine
 10
70.74658149482207
 20
742.7975736419811
 30
0.0
 11
70.74658149482207
 21
776.7975736419811
 31
0.0
  0
LINE
  5
7809
330
2
100
AcDbEntity
  8
AM_7
100
AcDbLine
 10
224.0761057382181
 20
397.5308177922121
 30
0.0
 11
224.0761057382181
 21
408.0308177922121
 31
0.0
  0
LINE
  5
780A
330
2
100
AcDbEntity
  8
AM_7
100
AcDbLine
 10
224.0761057382181
 20
425.6293643099812
 30
0.0
 11
224.0761057382181
 21
565.5308177922121
 31
0.0
  0
LINE
  5
780B
330
2
100
AcDbEntity
  8
AM_7
100
AcDbLine
 10
187.5761057382181
 20
554.130817792212
 30
0.0
 11
184.9761057382181
 21
554.130817792212
 31
0.0
  0
LINE
  5
780C
330
2
100
AcDbEntity
  8
AM_7
100
AcDbLine
 10
224.0761057382181
 20
579.130817792212
 30
0.0
 11
224.0761057382181
 21
643.630817792212
 31
0.0
  0
LINE
  5
780D
330
2
100
AcDbEntity
  8
AM_7
100
AcDbLine
 10
223.5761057382181
 20
552.630817792212
 30
0.0
 11
224.5761057382181
 21
552.630817792212
 31
0.0
  0
LINE
  5
780E
330
2
100
AcDbEntity
  8
AM_7
100
AcDbLine
 10
224.0761057382181
 20
552.130817792212
 30
0.0
 11
224.0761057382181
 21
553.130817792212
 31
0.0
  0
LINE
  5
780F
330
2
100
AcDbEntity
  8
AM_7
100
AcDbLine
 10
214.4688945617559
 20
552.630817792212
 30
0.0
 11
221.5761057382181
 21
552.630817792212
 31
0.0
  0
LINE
  5
7810
330
2
100
AcDbEntity
  8
AM_7
100
AcDbLine
 10
226.5761057382181
 20
552.630817792212
 30
0.0
 11
233.6833169146803
 21
552.630817792212
 31
0.0
  0
LINE
  5
7811
330
2
100
AcDbEntity
  8
AM_7
100
AcDbLine
 10
224.0761057382181
 20
543.0236066157497
 30
0.0
 11
224.0761057382181
 21
550.130817792212
 31
0.0
  0
LINE
  5
7812
330
2
100
AcDbEntity
  8
AM_7
100
AcDbLine
 10
224.0761057382181
 20
555.130817792212
 30
0.0
 11
224.0761057382181
 21
562.2380289686742
 31
0.0
  0
DIMENSION
  5
7813
330
2
100
AcDbEntity
  8
AM_REFDIM
100
AcDbDimension
  2
*D66
 10
184.5761057382181
 20
389.2747330254768
 30
0.0
 11
204.3261057382181
 21
389.2747330254768
 31
0.0
 70
   160
 71
     5
 42
39.5
  3
AM_ISO$0
100
AcDbAlignedDimension
 13
224.0761057382181
 23
397.5308177922121
 33
0.0
 14
184.5761057382181
 24
441.130817792212
 34
0.0
100
AcDbRotatedDimension
1001
ACAD
1000
DSTYLE
1002
{
1070
   271
1070
     0
1070
   272
1070
     8
1002
}
  0
DIMENSION
  5
7814
330
2
100
AcDbEntity
  8
AM_REFDIM
100
AcDbDimension
  2
*D67
 10
185.9761057382181
 20
664.377296665452
 30
0.0
 11
205.0261057382181
 21
669.877296665452
 31
0.0
 70
    32
 71
     5
 42
38.09999999999991
  3
AM_ISO$0
100
AcDbAlignedDimension
 13
224.0761057382181
 23
643.630817792212
 33
0.0
 14
185.9761057382181
 24
564.630817792212
 34
0.0
100
AcDbRotatedDimension
1001
ACAD
1000
DSTYLE
1002
{
1070
   271
1070
     0
1002
}
  0
DIMENSION
  5
7815
330
2
100
AcDbEntity
  8
AM_REFDIM
100
AcDbDimension
  2
*D68
 10
264.0761057382181
 20
664.377296665452
 30
0.0
 11
244.0761057382181
 21
669.877296665452
 31
0.0
 70
    32
 71
     5
 42
40.0
  3
AM_ISO$0
100
AcDbAlignedDimension
 13
224.0761057382181
 23
643.630817792212
 33
0.0
 14
264.0761057382181
 24
602.630817792212
 34
0.0
100
AcDbRotatedDimension
1001
ACAD
1000
DSTYLE
1002
{
1070
    40
1040
2.0
1002
}
  0
LINE
  5
7816
330
2
100
AcDbEntity
  8
AM_7
100
AcDbLine
 10
260.0761057382181
 20
594.630817792212
 30
0.0
 11
265.0761057382181
 21
594.630817792212
 31
0.0
  0
DIMENSION
  5
7817
330
2
100
AcDbEntity
  8
AM_REFDIM
100
AcDbDimension
  2
*D69
 10
283.9746841018348
 20
642.6308177922119
 30
0.0
 11
278.4746841018347
 21
618.6308177922121
 31
0.0
 70
    32
 71
     5
 42
47.99999999999989
  3
AM_ISO$0
100
AcDbAlignedDimension
 13
265.0761057382181
 23
594.630817792212
 33
0.0
 14
243.0761057382181
 24
642.630817792212
 34
0.0
 50
90.0
100
AcDbRotatedDimension
1001
ACAD
1000
DSTYLE
1002
{
1070
    40
1040
2.0
1002
}
  0
DIMENSION
  5
7818
330
2
100
AcDbEntity
  8
AM_REFDIM
100
AcDbDimension
  2
*D70
 10
299.9746841018348
 20
642.6308177922119
 30
0.0
 11
294.4746841018347
 21
597.630817792212
 31
0.0
 70
    32
 71
     5
 42
90.0
  3
AM_ISO$0
100
AcDbAlignedDimension
 13
233.6833169146803
 23
552.630817792212
 33
0.0
 14
243.0761057382181
 24
642.630817792212
 34
0.0
 50
90.0
100
AcDbRotatedDimension
1001
ACAD
1000
DSTYLE
1002
{
1070
    40
1040
2.0
1070
   174
1070
     1
1002
}
  0
DIMENSION
  5
7819
330
2
100
AcDbEntity
  8
AM_REFDIM
100
AcDbDimension
  2
*D71
 10
299.9746841018348
 20
552.6308177922119
 30
0.0
 11
294.4746841018347
 21
475.580817792212
 31
0.0
 70
    32
 71
     5
 42
154.0999999999998
  3
AM_ISO$0
100
AcDbAlignedDimension
 13
226.176105738218
 23
398.5308177922121
 33
0.0
 14
233.6833169146803
 24
552.630817792212
 34
0.0
 50
90.0
100
AcDbRotatedDimension
1001
ACAD
1000
DSTYLE
1002
{
1070
    40
1040
2.0
1070
   174
1070
     1
1070
   271
1070
     0
1002
}
  0
DIMENSION
  5
781A
330
2
100
AcDbEntity
  8
AM_REFDIM
100
AcDbDimension
  2
*D72
 10
315.9746841018348
 20
642.6308177922119
 30
0.0
 11
310.1246841018347
 21
520.580817792212
 31
0.0
 70
    32
  1
(<>)
 71
     5
 42
244.0999999999998
  3
AM_ISO$0
100
AcDbAlignedDimension
 13
226.176105738218
 23
398.5308177922121
 33
0.0
 14
243.0761057382181
 24
642.630817792212
 34
0.0
 50
90.0
100
AcDbRotatedDimension
1001
ACAD
1000
DSTYLE
1002
{
1070
    40
1040
2.0
1070
   174
1070
     1
1070
   271
1070
     0
1002
}
  0
LINE
  5
781B
330
2
100
AcDbEntity
  8
AM_7
100
AcDbLine
 10
48.74658149482207
 20
590.292993634497
 30
0.0
 11
48.74658149482207
 21
599.1575097168057
 31
0.0
  0
LINE
  5
781C
330
2
100
AcDbEntity
  8
AM_7
100
AcDbLine
 10
87.43086477869269
 20
594.630817792212
 30
0.0
 11
100.1099743755005
 21
594.630817792212
 31
0.0
  0
LINE
  5
781D
330
2
100
AcDbEntity
  8
AM_7
100
AcDbLine
 10
92.74658149482183
 20
590.1985597510575
 30
0.0
 11
92.74658149482183
 21
599.0630758333662
 31
0.0
  0
DIMENSION
  5
781E
330
2
100
AcDbEntity
  8
AM_REFDIM
100
AcDbDimension
  2
*D73
 10
92.74658149482183
 20
664.377296665452
 30
0.0
 11
70.74658149482195
 21
669.877296665452
 31
0.0
 70
    32
 71
     5
 42
43.99999999999977
  3
AM_ISO$0
100
AcDbAlignedDimension
 13
48.74658149482207
 23
599.1575097168057
 33
0.0
 14
92.74658149482183
 24
599.0630758333662
 34
0.0
100
AcDbRotatedDimension
1001
ACAD
1000
DSTYLE
1002
{
1070
    40
1040
2.0
1002
}
  0
DIMENSION
  5
781F
330
2
100
AcDbEntity
  8
AM_REFDIM
100
AcDbDimension
  2
*D74
 10
103.7465814948218
 20
680.377296665452
 30
0.0
 11
70.74658149482184
 21
685.877296665452
 31
0.0
 70
    32
 71
     5
 42
66.0
  3
AM_ISO$0
100
AcDbAlignedDimension
 13
37.74658149482184
 23
594.630817792212
 33
0.0
 14
103.7465814948218
 24
594.630817792212
 34
0.0
100
AcDbRotatedDimension
1001
ACAD
1000
DSTYLE
1002
{
1070
    40
1040
2.0
1002
}
  0
DIMENSION
  5
7820
330
2
100
AcDbEntity
  8
AM_REFDIM
100
AcDbDimension
  2
*D75
 10
73.19658149482188
 20
389.2747330254768
 30
0.0
 11
94.22178947706788
 21
389.2747330254768
 31
0.0
 70
   160
  1
%%c<>
 71
     5
 42
4.90000000000009
  3
AM_ISO$0
100
AcDbAlignedDimension
 13
68.29658149482179
 23
404.2308177922119
 33
0.0
 14
73.19658149482188
 24
404.2308177922119
 34
0.0
100
AcDbRotatedDimension
1001
ACAD
1000
DSTYLE
1002
{
1070
    40
1040
2.0
1070
   271
1070
     0
1002
}
  0
LINE
  5
7821
330
2
100
AcDbEntity
  8
AM_7
100
AcDbLine
 10
70.74658149482207
 20
423.930817792212
 30
0.0
 11
70.74658149482207
 21
408.1308177922117
 31
0.0
  0
LINE
  5
7822
330
2
100
AcDbEntity
  8
AM_7
100
AcDbLine
 10
224.0761057382179
 20
423.930817792212
 30
0.0
 11
224.0761057382179
 21
408.1308177922117
 31
0.0
  0
SPLINE
  5
7823
330
2
100
AcDbEntity
  8
AM_VIS
100
AcDbSpline
210
0.0
220
0.0
230
1.0
 70
    12
 71
     2
 72
     6
 73
     3
 74
     0
 42
0.0000000001
 43
0.0000000001
 40
0.0
 40
0.0
 40
0.0
 40
11.81893801825526
 40
11.81893801825526
 40
11.81893801825526
 10
76.58658149482199
 20
414.7569462915193
 30
0.0
 41
1.0
 10
79.50658149482212
 20
416.4428090775528
 30
0.0
 41
1.154700538379299
 10
82.42658149482213
 20
414.7569462915193
 30
0.0
 41
1.0
  0
SPLINE
  5
7824
330
2
100
AcDbEntity
  8
AM_VIS
100
AcDbSpline
210
0.0
220
0.0
230
1.0
 70
    12
 71
     2
 72
     6
 73
     3
 74
     0
 42
0.0000000001
 43
0.0000000001
 40
0.0
 40
0.0
 40
0.0
 40
11.81893801825515
 40
11.81893801825515
 40
11.81893801825515
 10
82.42658149482213
 20
409.9046892929046
 30
0.0
 41
1.0
 10
79.50658149482205
 20
408.2188265068708
 30
0.0
 41
1.154700538379293
 10
76.58658149482199
 20
409.9046892929046
 30
0.0
 41
1.0
  0
LINE
  5
7825
330
2
100
AcDbEntity
  8
AM_VIS
100
AcDbLine
 10
82.42658149482213
 20
409.9046892929046
 30
0.0
 11
82.42658149482213
 21
414.7569462915193
 31
0.0
  0
LINE
  5
7826
330
2
100
AcDbEntity
  8
AM_VIS
100
AcDbLine
 10
59.06658149482223
 20
414.7569462915193
 30
0.0
 11
59.06658149482223
 21
409.9046892929046
 31
0.0
  0
SPLINE
  5
7827
330
2
100
AcDbEntity
  8
AM_VIS
100
AcDbSpline
210
0.0
220
0.0
230
1.0
 70
    12
 71
     2
 72
     6
 73
     3
 74
     0
 42
0.0000000001
 43
0.0000000001
 40
0.0
 40
0.0
 40
0.0
 40
11.81893801825497
 40
11.81893801825497
 40
11.81893801825497
 10
59.06658149482201
 20
414.7569462915193
 30
0.0
 41
1.0
 10
61.98658149482202
 20
416.4428090775528
 30
0.0
 41
1.154700538379268
 10
64.90658149482214
 20
414.7569462915193
 30
0.0
 41
1.0
  0
SPLINE
  5
7828
330
2
100
AcDbEntity
  8
AM_VIS
100
AcDbSpline
210
0.0
220
0.0
230
1.0
 70
    12
 71
     2
 72
     6
 73
     3
 74
     0
 42
0.0000000001
 43
0.0000000001
 40
0.0
 40
0.0
 40
0.0
 40
11.81893801825485
 40
11.81893801825485
 40
11.81893801825485
 10
64.90658149482214
 20
409.9046892929046
 30
0.0
 41
1.0
 10
61.98658149482202
 20
408.2188265068711
 30
0.0
 41
1.154700538379263
 10
59.06658149482223
 20
409.9046892929046
 30
0.0
 41
1.0
  0
LINE
  5
7829
330
2
100
AcDbEntity
  8
AM_VIS
100
AcDbLine
 10
64.90658149482214
 20
409.9046892929046
 30
0.0
 11
64.90658149482214
 21
414.7569462915193
 31
0.0
  0
SPLINE
  5
782A
330
2
100
AcDbEntity
  8
AM_VIS
100
AcDbSpline
210
0.0
220
0.0
230
1.0
 70
    12
 71
     2
 72
     6
 73
     3
 74
     0
 42
0.0000000001
 43
0.0000000001
 40
0.0
 40
0.0
 40
0.0
 40
11.81893801825497
 40
11.81893801825497
 40
11.81893801825497
 10
64.90658149482192
 20
414.7569462915193
 30
0.0
 41
1.0
 10
70.74658149482207
 20
416.4428090775528
 30
0.0
 41
1.154700538379268
 10
76.58658149482199
 20
414.7569462915193
 30
0.0
 41
1.0
  0
LINE
  5
782B
330
2
100
AcDbEntity
  8
AM_VIS
100
AcDbLine
 10
76.58658149482199
 20
409.9046892929046
 30
0.0
 11
76.58658149482199
 21
414.7569462915193
 31
0.0
  0
SPLINE
  5
782C
330
2
100
AcDbEntity
  8
AM_VIS
100
AcDbSpline
210
0.0
220
0.0
230
1.0
 70
    12
 71
     2
 72
     6
 73
     3
 74
     0
 42
0.0000000001
 43
0.0000000001
 40
0.0
 40
0.0
 40
0.0
 40
11.81893801825485
 40
11.81893801825485
 40
11.81893801825485
 10
76.58658149482199
 20
409.9046892929046
 30
0.0
 41
1.0
 10
70.74658149482207
 20
408.2188265068711
 30
0.0
 41
1.154700538379263
 10
64.90658149482214
 20
409.9046892929046
 30
0.0
 41
1.0
  0
LINE
  5
782D
330
2
100
AcDbEntity
  8
AM_VIS
100
AcDbLine
 10
80.56658149482201
 20
408.8308177922121
 30
0.0
 11
82.42658149482213
 21
409.9046892929046
 31
0.0
  0
LINE
  5
782E
330
2
100
AcDbEntity
  8
AM_VIS
100
AcDbLine
 10
60.92658149482213
 20
408.8308177922118
 30
0.0
 11
59.06658149482223
 21
409.9046892929046
 31
0.0
  0
LINE
  5
782F
330
2
100
AcDbEntity
  8
AM_VIS
100
AcDbLine
 10
60.92658149482213
 20
415.8308177922121
 30
0.0
 11
59.06658149482201
 21
414.7569462915193
 31
0.0
  0
LINE
  5
7830
330
2
100
AcDbEntity
  8
AM_VIS
100
AcDbLine
 10
80.56658149482201
 20
415.8308177922118
 30
0.0
 11
82.42658149482213
 21
414.7569462915193
 31
0.0
  0
LINE
  5
7831
330
2
100
AcDbEntity
  8
AM_VIS
100
AcDbLine
 10
60.92658149482213
 20
408.8308177922121
 30
0.0
 11
80.56658149482201
 21
408.8308177922118
 31
0.0
  0
LINE
  5
7832
330
2
100
AcDbEntity
  8
AM_VIS
100
AcDbLine
 10
60.92658149482213
 20
415.8308177922121
 30
0.0
 11
80.56658149482201
 21
415.8308177922118
 31
0.0
  0
LINE
  5
7833
330
2
100
AcDbEntity
  8
AM_VIS
100
AcDbLine
 10
72.75512420364316
 20
407.0308177922121
 30
0.0
 11
73.11389232628243
 21
407.0308177922121
 31
0.0
  0
LINE
  5
7834
330
2
100
AcDbEntity
  8
AM_VIS
100
AcDbLine
 10
68.37927066336146
 20
407.0308177922121
 30
0.0
 11
68.73803878600075
 21
407.0308177922121
 31
0.0
  0
LINE
  5
7835
330
2
100
AcDbEntity
  8
AM_VIS
100
AcDbLine
 10
66.49658149482184
 20
407.630817792212
 30
0.0
 11
66.49658149482184
 21
407.0308177922121
 31
0.0
  0
LINE
  5
7836
330
2
100
AcDbEntity
  8
AM_VIS
100
AcDbLine
 10
74.99658149482184
 20
407.630817792212
 30
0.0
 11
74.99658149482184
 21
407.0308177922121
 31
0.0
  0
LINE
  5
7837
330
2
100
AcDbEntity
  8
AM_VIS
100
AcDbLine
 10
74.99658149482184
 20
407.0308177922121
 30
0.0
 11
74.13098382529438
 21
407.0308177922121
 31
0.0
  0
LINE
  5
7838
330
2
100
AcDbEntity
  8
AM_VIS
100
AcDbLine
 10
67.3621791643493
 20
407.0308177922121
 30
0.0
 11
66.49658149482184
 21
407.0308177922121
 31
0.0
  0
LINE
  5
7839
330
2
100
AcDbEntity
  8
AM_VIS
100
AcDbLine
 10
74.13098382529415
 20
407.0308177922121
 30
0.0
 11
73.11389232628243
 21
407.0308177922121
 31
0.0
  0
LINE
  5
783A
330
2
100
AcDbEntity
  8
AM_VIS
100
AcDbLine
 10
68.37927066336146
 20
407.0308177922121
 30
0.0
 11
67.36217916434952
 21
407.0308177922121
 31
0.0
  0
LINE
  5
783B
330
2
100
AcDbEntity
  8
AM_VIS
100
AcDbLine
 10
73.19658149482188
 20
399.730817792212
 30
0.0
 11
73.19658149482188
 21
400.0308177922121
 31
0.0
  0
LINE
  5
783C
330
2
100
AcDbEntity
  8
AM_VIS
100
AcDbLine
 10
68.29658149482179
 20
399.730817792212
 30
0.0
 11
68.29658149482179
 21
400.0308177922121
 31
0.0
  0
LINE
  5
783D
330
2
100
AcDbEntity
  8
AM_VIS
100
AcDbLine
 10
72.84658149482197
 20
398.5308177922121
 30
0.0
 11
73.19658149482188
 21
399.730817792212
 31
0.0
  0
LINE
  5
783E
330
2
100
AcDbEntity
  8
AM_VIS
100
AcDbLine
 10
68.64658149482193
 20
398.5308177922121
 30
0.0
 11
68.29658149482179
 21
399.730817792212
 31
0.0
  0
LINE
  5
783F
330
2
100
AcDbEntity
  8
AM_VIS
100
AcDbLine
 10
73.19658149482188
 20
401.2308177922119
 30
0.0
 11
73.19658149482188
 21
401.5308177922121
 31
0.0
  0
LINE
  5
7840
330
2
100
AcDbEntity
  8
AM_VIS
100
AcDbLine
 10
68.29658149482179
 20
401.2308177922119
 30
0.0
 11
68.29658149482179
 21
401.5308177922121
 31
0.0
  0
LINE
  5
7841
330
2
100
AcDbEntity
  8
AM_VIS
100
AcDbLine
 10
72.84658149482197
 20
400.0308177922121
 30
0.0
 11
73.19658149482188
 21
401.2308177922119
 31
0.0
  0
LINE
  5
7842
330
2
100
AcDbEntity
  8
AM_VIS
100
AcDbLine
 10
68.64658149482193
 20
400.0308177922121
 30
0.0
 11
68.29658149482179
 21
401.2308177922119
 31
0.0
  0
LINE
  5
7843
330
2
100
AcDbEntity
  8
AM_VIS
100
AcDbLine
 10
73.19658149482188
 20
402.7308177922119
 30
0.0
 11
73.19658149482188
 21
403.0308177922121
 31
0.0
  0
LINE
  5
7844
330
2
100
AcDbEntity
  8
AM_VIS
100
AcDbLine
 10
68.29658149482179
 20
402.7308177922119
 30
0.0
 11
68.29658149482179
 21
403.0308177922121
 31
0.0
  0
LINE
  5
7845
330
2
100
AcDbEntity
  8
AM_VIS
100
AcDbLine
 10
72.84658149482197
 20
401.5308177922121
 30
0.0
 11
73.19658149482188
 21
402.7308177922119
 31
0.0
  0
LINE
  5
7846
330
2
100
AcDbEntity
  8
AM_VIS
100
AcDbLine
 10
68.64658149482193
 20
401.5308177922121
 30
0.0
 11
68.29658149482179
 21
402.7308177922119
 31
0.0
  0
LINE
  5
7847
330
2
100
AcDbEntity
  8
AM_VIS
100
AcDbLine
 10
72.84658149482197
 20
403.0308177922121
 30
0.0
 11
73.19658149482188
 21
404.2308177922119
 31
0.0
  0
LINE
  5
7848
330
2
100
AcDbEntity
  8
AM_VIS
100
AcDbLine
 10
68.64658149482193
 20
403.0308177922121
 30
0.0
 11
68.29658149482179
 21
404.2308177922119
 31
0.0
  0
LINE
  5
7849
330
2
100
AcDbEntity
  8
AM_VIS
100
AcDbLine
 10
73.19658149482188
 20
404.2308177922119
 30
0.0
 11
73.19658149482188
 21
407.0308177922121
 31
0.0
  0
LINE
  5
784A
330
2
100
AcDbEntity
  8
AM_VIS
100
AcDbLine
 10
68.29658149482179
 20
404.2308177922119
 30
0.0
 11
68.29658149482179
 21
407.0308177922121
 31
0.0
  0
LINE
  5
784B
330
2
100
AcDbEntity
  8
AM_VIS
100
AcDbLine
 10
73.19658149482188
 20
399.730817792212
 30
0.0
 11
68.29658149482179
 21
399.730817792212
 31
0.0
  0
LINE
  5
784C
330
2
100
AcDbEntity
  8
AM_VIS
100
AcDbLine
 10
68.64658149482193
 20
398.5308177922121
 30
0.0
 11
72.84658149482197
 21
398.5308177922121
 31
0.0
  0
LINE
  5
784D
330
2
100
AcDbEntity
  8
AM_VIS
100
AcDbLine
 10
73.19658149482188
 20
401.2308177922119
 30
0.0
 11
68.29658149482179
 21
401.2308177922119
 31
0.0
  0
LINE
  5
784E
330
2
100
AcDbEntity
  8
AM_VIS
100
AcDbLine
 10
68.29658149482179
 20
400.0308177922121
 30
0.0
 11
73.19658149482188
 21
400.0308177922121
 31
0.0
  0
LINE
  5
784F
330
2
100
AcDbEntity
  8
AM_VIS
100
AcDbLine
 10
73.19658149482188
 20
402.7308177922119
 30
0.0
 11
68.29658149482179
 21
402.7308177922119
 31
0.0
  0
LINE
  5
7850
330
2
100
AcDbEntity
  8
AM_VIS
100
AcDbLine
 10
68.29658149482179
 20
401.5308177922121
 30
0.0
 11
73.19658149482188
 21
401.5308177922121
 31
0.0
  0
LINE
  5
7851
330
2
100
AcDbEntity
  8
AM_VIS
100
AcDbLine
 10
68.29658149482179
 20
403.0308177922121
 30
0.0
 11
73.19658149482188
 21
403.0308177922121
 31
0.0
  0
LINE
  5
7852
330
2
100
AcDbEntity
  8
AM_VIS
100
AcDbLine
 10
73.19658149482188
 20
404.2308177922119
 30
0.0
 11
68.29658149482179
 21
404.2308177922119
 31
0.0
  0
LINE
  5
7853
330
2
100
AcDbEntity
  8
AM_VIS
100
AcDbLine
 10
68.73803878600075
 20
407.0308177922121
 30
0.0
 11
72.75512420364316
 21
407.0308177922121
 31
0.0
  0
LINE
  5
7854
330
2
100
AcDbEntity
  8
AM_VIS
100
AcDbLine
 10
76.14658149482216
 20
407.630817792212
 30
0.0
 11
77.3465814948222
 21
408.8308177922118
 31
0.0
  0
LINE
  5
7855
330
2
100
AcDbEntity
  8
AM_VIS
100
AcDbLine
 10
65.34658149482197
 20
407.630817792212
 30
0.0
 11
64.14658149482216
 21
408.8308177922121
 31
0.0
  0
LINE
  5
7856
330
2
100
AcDbEntity
  8
AM_VIS
100
AcDbLine
 10
63.84658149482198
 20
416.130817792212
 30
0.0
 11
63.84658149482198
 21
415.8308177922121
 31
0.0
  0
LINE
  5
7857
330
2
100
AcDbEntity
  8
AM_VIS
100
AcDbLine
 10
77.64658149482215
 20
416.130817792212
 30
0.0
 11
77.64658149482215
 21
415.8308177922118
 31
0.0
  0
LINE
  5
7858
330
2
100
AcDbEntity
  8
AM_VIS
100
AcDbLine
 10
76.14658149482216
 20
407.630817792212
 30
0.0
 11
65.34658149482197
 21
407.630817792212
 31
0.0
  0
LINE
  5
7859
330
2
100
AcDbEntity
  8
AM_VIS
100
AcDbLine
 10
81.99658149482207
 20
435.4083815926068
 30
0.0
 11
80.74658149482207
 21
434.6870677922121
 31
0.0
  0
LINE
  5
785A
330
2
100
AcDbEntity
  8
AM_VIS
100
AcDbLine
 10
79.49658149482207
 20
435.4083815926068
 30
0.0
 11
79.49658149482207
 21
436.8532539918172
 31
0.0
  0
LINE
  5
785B
330
2
100
AcDbEntity
  8
AM_VIS
100
AcDbLine
 10
80.74658149482207
 20
434.6870677922121
 30
0.0
 11
79.49658149482207
 21
435.4083815926068
 31
0.0
  0
LINE
  5
785C
330
2
100
AcDbEntity
  8
AM_VIS
100
AcDbLine
 10
81.99658149482207
 20
436.8532539918172
 30
0.0
 11
81.99658149482207
 21
435.4083815926068
 31
0.0
  0
LINE
  5
785D
330
2
100
AcDbEntity
  8
AM_VIS
100
AcDbLine
 10
80.74658149482207
 20
437.5745677922119
 30
0.0
 11
81.99658149482207
 21
436.8532539918172
 31
0.0
  0
LINE
  5
785E
330
2
100
AcDbEntity
  8
AM_VIS
100
AcDbLine
 10
79.49658149482207
 20
436.8532539918172
 30
0.0
 11
80.74658149482207
 21
437.5745677922119
 31
0.0
  0
CIRCLE
  5
785F
330
2
100
AcDbEntity
  8
AM_VIS
100
AcDbCircle
 10
80.74658149482207
 20
436.130817792212
 30
0.0
 40
3.800000000000011
  0
LINE
  5
7860
330
2
100
AcDbEntity
  8
AM_VIS
100
AcDbLine
 10
81.99658149482207
 20
501.4083815926068
 30
0.0
 11
80.74658149482207
 21
500.6870677922121
 31
0.0
  0
LINE
  5
7861
330
2
100
AcDbEntity
  8
AM_VIS
100
AcDbLine
 10
79.49658149482207
 20
501.4083815926068
 30
0.0
 11
79.49658149482207
 21
502.8532539918172
 31
0.0
  0
LINE
  5
7862
330
2
100
AcDbEntity
  8
AM_VIS
100
AcDbLine
 10
80.74658149482207
 20
500.6870677922121
 30
0.0
 11
79.49658149482207
 21
501.4083815926068
 31
0.0
  0
LINE
  5
7863
330
2
100
AcDbEntity
  8
AM_VIS
100
AcDbLine
 10
81.99658149482207
 20
502.8532539918172
 30
0.0
 11
81.99658149482207
 21
501.4083815926068
 31
0.0
  0
LINE
  5
7864
330
2
100
AcDbEntity
  8
AM_VIS
100
AcDbLine
 10
80.74658149482207
 20
503.5745677922119
 30
0.0
 11
81.99658149482207
 21
502.8532539918172
 31
0.0
  0
LINE
  5
7865
330
2
100
AcDbEntity
  8
AM_VIS
100
AcDbLine
 10
79.49658149482207
 20
502.8532539918172
 30
0.0
 11
80.74658149482207
 21
503.5745677922119
 31
0.0
  0
CIRCLE
  5
7866
330
2
100
AcDbEntity
  8
AM_VIS
100
AcDbCircle
 10
80.74658149482207
 20
502.130817792212
 30
0.0
 40
3.800000000000011
  0
LINE
  5
7867
330
2
100
AcDbEntity
  8
AM_VIS
100
AcDbLine
 10
82.99658149482207
 20
492.130817792212
 30
0.0
 11
82.99658149482207
 21
446.130817792212
 31
0.0
  0
LINE
  5
7868
330
2
100
AcDbEntity
  8
AM_VIS
100
AcDbLine
 10
78.49658149482206
 20
446.130817792212
 30
0.0
 11
78.49658149482206
 21
492.130817792212
 31
0.0
  0
LINE
  5
7869
330
2
100
AcDbEntity
  8
AM_VIS
100
AcDbLine
 10
82.99658149482207
 20
446.130817792212
 30
0.0
 11
78.49658149482206
 21
446.130817792212
 31
0.0
  0
LINE
  5
786A
330
2
100
AcDbEntity
  8
AM_VIS
100
AcDbLine
 10
89.74658149482207
 20
429.130817792212
 30
0.0
 11
89.74658149482207
 21
509.130817792212
 31
0.0
  0
LINE
  5
786B
330
2
100
AcDbEntity
  8
AM_VIS
100
AcDbLine
 10
88.74658149482206
 20
510.130817792212
 30
0.0
 11
72.74658149482206
 21
510.130817792212
 31
0.0
  0
LINE
  5
786C
330
2
100
AcDbEntity
  8
AM_VIS
100
AcDbLine
 10
72.74658149482206
 20
428.130817792212
 30
0.0
 11
88.74658149482206
 21
428.130817792212
 31
0.0
  0
LINE
  5
786D
330
2
100
AcDbEntity
  8
AM_VIS
100
AcDbLine
 10
71.74658149482207
 20
509.130817792212
 30
0.0
 11
71.74658149482207
 21
429.130817792212
 31
0.0
  0
LINE
  5
786E
330
2
100
AcDbEntity
  8
AM_VIS
100
AcDbLine
 10
78.49658149482206
 20
492.130817792212
 30
0.0
 11
82.99658149482207
 21
492.130817792212
 31
0.0
  0
LINE
  5
786F
330
2
100
AcDbEntity
  8
AM_VIS
100
AcDbLine
 10
76.74658149482207
 20
497.130817792212
 30
0.0
 11
84.74658149482207
 21
497.130817792212
 31
0.0
  0
LINE
  5
7870
330
2
100
AcDbEntity
  8
AM_VIS
100
AcDbLine
 10
75.74658149482207
 20
442.130817792212
 30
0.0
 11
75.74658149482207
 21
496.130817792212
 31
0.0
  0
LINE
  5
7871
330
2
100
AcDbEntity
  8
AM_VIS
100
AcDbLine
 10
84.74658149482207
 20
441.130817792212
 30
0.0
 11
76.74658149482207
 21
441.130817792212
 31
0.0
  0
LINE
  5
7872
330
2
100
AcDbEntity
  8
AM_VIS
100
AcDbLine
 10
85.74658149482207
 20
496.130817792212
 30
0.0
 11
85.74658149482207
 21
442.130817792212
 31
0.0
  0
CIRCLE
  5
7873
330
2
100
AcDbEntity
  8
AM_VIS
100
AcDbCircle
 10
80.74658149482207
 20
436.130817792212
 30
0.0
 40
4.0
  0
CIRCLE
  5
7874
330
2
100
AcDbEntity
  8
AM_VIS
100
AcDbCircle
 10
80.74658149482207
 20
502.130817792212
 30
0.0
 40
4.0
  0
ARC
  5
7875
330
2
100
AcDbEntity
  8
AM_VIS
100
AcDbCircle
 10
88.74658149482206
 20
509.130817792212
 30
0.0
 40
0.9999999999999998
100
AcDbArc
 50
0.0
 51
90.0
  0
ARC
  5
7876
330
2
100
AcDbEntity
  8
AM_VIS
100
AcDbCircle
 10
88.74658149482206
 20
429.130817792212
 30
0.0
 40
1.0
100
AcDbArc
 50
270.0
 51
0.0
  0
ARC
  5
7877
330
2
100
AcDbEntity
  8
AM_VIS
100
AcDbCircle
 10
72.74658149482206
 20
429.130817792212
 30
0.0
 40
0.9999999999999998
100
AcDbArc
 50
180.0
 51
270.0
  0
ARC
  5
7878
330
2
100
AcDbEntity
  8
AM_VIS
100
AcDbCircle
 10
72.74658149482206
 20
509.130817792212
 30
0.0
 40
1.0
100
AcDbArc
 50
90.0
 51
180.0
  0
ARC
  5
7879
330
2
100
AcDbEntity
  8
AM_VIS
100
AcDbCircle
 10
84.74658149482207
 20
496.130817792212
 30
0.0
 40
0.9999999999999998
100
AcDbArc
 50
0.0
 51
90.0
  0
ARC
  5
787A
330
2
100
AcDbEntity
  8
AM_VIS
100
AcDbCircle
 10
76.74658149482207
 20
496.130817792212
 30
0.0
 40
0.9999999999999998
100
AcDbArc
 50
90.0
 51
180.0
  0
ARC
  5
787B
330
2
100
AcDbEntity
  8
AM_VIS
100
AcDbCircle
 10
76.74658149482207
 20
442.130817792212
 30
0.0
 40
0.9999999999999998
100
AcDbArc
 50
180.0
 51
270.0
  0
ARC
  5
787C
330
2
100
AcDbEntity
  8
AM_VIS
100
AcDbCircle
 10
84.74658149482207
 20
442.130817792212
 30
0.0
 40
0.9999999999999998
100
AcDbArc
 50
270.0
 51
0.0
  0
LINE
  5
787D
330
2
100
AcDbEntity
  8
AM_VIS
100
AcDbLine
 10
78.74658149482207
 20
446.130817792212
 30
0.0
 11
78.74658149482207
 21
492.1308177922123
 31
0.0
  0
LINE
  5
787E
330
2
100
AcDbEntity
  8
AM_VIS
100
AcDbLine
 10
82.74658149482206
 20
492.130817792212
 30
0.0
 11
82.74658149482206
 21
446.130817792212
 31
0.0
  0
LINE
  5
787F
330
2
100
AcDbEntity
  8
AM_VIS
100
AcDbLine
 10
44.24658149482207
 20
426.6293643099812
 30
0.0
 11
44.24658149482207
 21
426.130817792212
 31
0.0
  0
LINE
  5
7880
330
2
100
AcDbEntity
  8
AM_VIS
100
AcDbLine
 10
44.24658149482207
 20
512.130817792212
 30
0.0
 11
44.24658149482207
 21
426.6293643099812
 31
0.0
  0
LINE
  5
7881
330
2
100
AcDbEntity
  8
AM_VIS
100
AcDbLine
 10
97.24658149482207
 20
426.6293643099812
 30
0.0
 11
97.24658149482207
 21
426.130817792212
 31
0.0
  0
LINE
  5
7882
330
2
100
AcDbEntity
  8
AM_VIS
100
AcDbLine
 10
97.24658149482207
 20
512.130817792212
 30
0.0
 11
97.24658149482207
 21
426.6293643099812
 31
0.0
  0
LINE
  5
7883
330
2
100
AcDbEntity
  8
AM_VIS
100
AcDbLine
 10
82.74658149482206
 20
416.130817792212
 30
0.0
 11
85.61105276916192
 21
418.9952890665519
 31
0.0
  0
LINE
  5
7884
330
2
100
AcDbEntity
  8
AM_VIS
100
AcDbLine
 10
58.74658149482207
 20
416.130817792212
 30
0.0
 11
55.88211022048222
 21
418.9952890665519
 31
0.0
  0
LINE
  5
7885
330
2
100
AcDbEntity
  8
AM_VIS
100
AcDbLine
 10
43.25178982815532
 20
514.630817792212
 30
0.0
 11
43.24658149482206
 21
512.130817792212
 31
0.0
  0
LINE
  5
7886
330
2
100
AcDbEntity
  8
AM_VIS
100
AcDbLine
 10
98.24137316148858
 20
514.630817792212
 30
0.0
 11
98.24658149482207
 21
512.130817792212
 31
0.0
  0
LINE
  5
7887
330
2
100
AcDbEntity
  8
AM_VIS
100
AcDbLine
 10
85.61105276916192
 20
418.9952890665519
 30
0.0
 11
55.88211022048222
 21
418.9952890665519
 31
0.0
  0
LINE
  5
7888
330
2
100
AcDbEntity
  8
AM_VIS
100
AcDbLine
 10
97.24658149482207
 20
426.130817792212
 30
0.0
 11
44.24658149482207
 21
426.130817792212
 31
0.0
  0
LINE
  5
7889
330
2
100
AcDbEntity
  8
AM_VIS
100
AcDbLine
 10
44.24658149482207
 20
512.130817792212
 30
0.0
 11
43.24658149482206
 21
512.130817792212
 31
0.0
  0
LINE
  5
788A
330
2
100
AcDbEntity
  8
AM_VIS
100
AcDbLine
 10
97.24658149482207
 20
512.130817792212
 30
0.0
 11
44.24658149482207
 21
512.130817792212
 31
0.0
  0
LINE
  5
788B
330
2
100
AcDbEntity
  8
AM_VIS
100
AcDbLine
 10
98.24658149482207
 20
512.130817792212
 30
0.0
 11
97.24658149482207
 21
512.130817792212
 31
0.0
  0
LINE
  5
788C
330
2
100
AcDbEntity
  8
AM_VIS
100
AcDbLine
 10
82.74658149482206
 20
416.130817792212
 30
0.0
 11
58.74658149482207
 21
416.130817792212
 31
0.0
  0
ARC
  5
788D
330
2
100
AcDbEntity
  8
AM_VIS
100
AcDbCircle
 10
70.74658149482207
 20
456.130817792212
 30
0.0
 40
40.0
100
AcDbArc
 50
228.5903778907302
 51
248.1849455660716
  0
ARC
  5
788E
330
2
100
AcDbEntity
  8
AM_VIS
100
AcDbCircle
 10
70.74658149482207
 20
456.130817792212
 30
0.0
 40
40.0
100
AcDbArc
 50
291.8150544339284
 51
311.4096221092698
  0
LINE
  5
788F
330
2
100
AcDbEntity
  8
AM_VIS
100
AcDbLine
 10
62.24658149482206
 20
543.8783177922119
 30
0.0
 11
60.99908149482212
 21
543.8783177922119
 31
0.0
  0
LINE
  5
7890
330
2
100
AcDbEntity
  8
AM_VIS
100
AcDbLine
 10
60.49408149482201
 20
543.8783177922119
 30
0.0
 11
59.24658149482207
 21
543.8783177922119
 31
0.0
  0
LINE
  5
7891
330
2
100
AcDbEntity
  8
AM_VIS
100
AcDbLine
 10
59.24658149482207
 20
543.8783177922119
 30
0.0
 11
59.24658149482207
 21
544.3833177922121
 31
0.0
  0
LINE
  5
7892
330
2
100
AcDbEntity
  8
AM_VIS
100
AcDbLine
 10
60.74658149482207
 20
544.130817792212
 30
0.0
 11
60.74658149482207
 21
543.8783177922119
 31
0.0
  0
LINE
  5
7893
330
2
100
AcDbEntity
  8
AM_VIS
100
AcDbLine
 10
62.24658149482206
 20
544.3833177922121
 30
0.0
 11
62.24658149482206
 21
543.8783177922119
 31
0.0
  0
LINE
  5
7894
330
2
100
AcDbEntity
  8
AM_VIS
100
AcDbLine
 10
60.74658149482207
 20
544.3833177922121
 30
0.0
 11
60.74658149482207
 21
544.130817792212
 31
0.0
  0
LINE
  5
7895
330
2
100
AcDbEntity
  8
AM_VIS
100
AcDbLine
 10
60.99908149482212
 20
544.3833177922121
 30
0.0
 11
62.24658149482206
 21
544.3833177922121
 31
0.0
  0
LINE
  5
7896
330
2
100
AcDbEntity
  8
AM_VIS
100
AcDbLine
 10
59.24658149482207
 20
544.3833177922121
 30
0.0
 11
60.49408149482201
 21
544.3833177922121
 31
0.0
  0
LINE
  5
7897
330
2
100
AcDbEntity
  8
AM_VIS
100
AcDbLine
 10
60.49408149482201
 20
544.3833177922121
 30
0.0
 11
60.49408149482201
 21
545.630817792212
 31
0.0
  0
LINE
  5
7898
330
2
100
AcDbEntity
  8
AM_VIS
100
AcDbLine
 10
60.49408149482201
 20
543.8783177922119
 30
0.0
 11
60.49408149482201
 21
544.3833177922121
 31
0.0
  0
LINE
  5
7899
330
2
100
AcDbEntity
  8
AM_VIS
100
AcDbLine
 10
60.49408149482201
 20
542.630817792212
 30
0.0
 11
60.49408149482201
 21
543.8783177922119
 31
0.0
  0
LINE
  5
789A
330
2
100
AcDbEntity
  8
AM_VIS
100
AcDbLine
 10
60.74658149482207
 20
544.130817792212
 30
0.0
 11
60.49408149482201
 21
543.8783177922119
 31
0.0
  0
LINE
  5
789B
330
2
100
AcDbEntity
  8
AM_VIS
100
AcDbLine
 10
60.99908149482212
 20
543.8783177922119
 30
0.0
 11
60.74658149482207
 21
544.130817792212
 31
0.0
  0
LINE
  5
789C
330
2
100
AcDbEntity
  8
AM_VIS
100
AcDbLine
 10
60.99908149482212
 20
542.630817792212
 30
0.0
 11
60.49408149482201
 21
542.630817792212
 31
0.0
  0
LINE
  5
789D
330
2
100
AcDbEntity
  8
AM_VIS
100
AcDbLine
 10
60.49408149482201
 20
543.8783177922119
 30
0.0
 11
60.99908149482212
 21
543.8783177922119
 31
0.0
  0
LINE
  5
789E
330
2
100
AcDbEntity
  8
AM_VIS
100
AcDbLine
 10
60.74658149482207
 20
544.130817792212
 30
0.0
 11
60.49408149482201
 21
544.130817792212
 31
0.0
  0
LINE
  5
789F
330
2
100
AcDbEntity
  8
AM_VIS
100
AcDbLine
 10
60.49408149482201
 20
544.3833177922121
 30
0.0
 11
60.74658149482207
 21
544.130817792212
 31
0.0
  0
LINE
  5
78A0
330
2
100
AcDbEntity
  8
AM_VIS
100
AcDbLine
 10
60.49408149482201
 20
545.630817792212
 30
0.0
 11
60.99908149482212
 21
545.630817792212
 31
0.0
  0
LINE
  5
78A1
330
2
100
AcDbEntity
  8
AM_VIS
100
AcDbLine
 10
60.99908149482212
 20
544.3833177922121
 30
0.0
 11
60.49408149482201
 21
544.3833177922121
 31
0.0
  0
LINE
  5
78A2
330
2
100
AcDbEntity
  8
AM_VIS
100
AcDbLine
 10
60.99908149482212
 20
544.130817792212
 30
0.0
 11
60.74658149482207
 21
544.130817792212
 31
0.0
  0
LINE
  5
78A3
330
2
100
AcDbEntity
  8
AM_VIS
100
AcDbLine
 10
60.74658149482207
 20
544.130817792212
 30
0.0
 11
60.99908149482212
 21
544.3833177922121
 31
0.0
  0
LINE
  5
78A4
330
2
100
AcDbEntity
  8
AM_VIS
100
AcDbLine
 10
60.99908149482212
 20
545.630817792212
 30
0.0
 11
60.99908149482212
 21
544.3833177922121
 31
0.0
  0
LINE
  5
78A5
330
2
100
AcDbEntity
  8
AM_VIS
100
AcDbLine
 10
60.99908149482212
 20
543.8783177922119
 30
0.0
 11
60.99908149482212
 21
542.630817792212
 31
0.0
  0
LINE
  5
78A6
330
2
100
AcDbEntity
  8
AM_VIS
100
AcDbLine
 10
60.99908149482212
 20
544.3833177922121
 30
0.0
 11
60.99908149482212
 21
543.8783177922119
 31
0.0
  0
CIRCLE
  5
78A7
330
2
100
AcDbEntity
  8
AM_VIS
100
AcDbCircle
 10
60.74658149482207
 20
544.130817792212
 30
0.0
 40
2.349999999999965
  0
LINE
  5
78A8
330
2
100
AcDbEntity
  8
AM_VIS
100
AcDbLine
 10
82.24658149482207
 20
563.8783177922119
 30
0.0
 11
80.99908149482212
 21
563.8783177922119
 31
0.0
  0
LINE
  5
78A9
330
2
100
AcDbEntity
  8
AM_VIS
100
AcDbLine
 10
80.49408149482202
 20
563.8783177922119
 30
0.0
 11
79.24658149482207
 21
563.8783177922119
 31
0.0
  0
LINE
  5
78AA
330
2
100
AcDbEntity
  8
AM_VIS
100
AcDbLine
 10
79.24658149482207
 20
563.8783177922119
 30
0.0
 11
79.24658149482207
 21
564.3833177922121
 31
0.0
  0
LINE
  5
78AB
330
2
100
AcDbEntity
  8
AM_VIS
100
AcDbLine
 10
80.74658149482207
 20
564.130817792212
 30
0.0
 11
80.74658149482207
 21
563.8783177922119
 31
0.0
  0
LINE
  5
78AC
330
2
100
AcDbEntity
  8
AM_VIS
100
AcDbLine
 10
82.24658149482207
 20
564.3833177922121
 30
0.0
 11
82.24658149482207
 21
563.8783177922119
 31
0.0
  0
LINE
  5
78AD
330
2
100
AcDbEntity
  8
AM_VIS
100
AcDbLine
 10
80.74658149482207
 20
564.3833177922121
 30
0.0
 11
80.74658149482207
 21
564.130817792212
 31
0.0
  0
LINE
  5
78AE
330
2
100
AcDbEntity
  8
AM_VIS
100
AcDbLine
 10
80.99908149482212
 20
564.3833177922121
 30
0.0
 11
82.24658149482207
 21
564.3833177922121
 31
0.0
  0
LINE
  5
78AF
330
2
100
AcDbEntity
  8
AM_VIS
100
AcDbLine
 10
79.24658149482207
 20
564.3833177922121
 30
0.0
 11
80.49408149482202
 21
564.3833177922121
 31
0.0
  0
LINE
  5
78B0
330
2
100
AcDbEntity
  8
AM_VIS
100
AcDbLine
 10
80.49408149482202
 20
564.3833177922121
 30
0.0
 11
80.49408149482202
 21
565.630817792212
 31
0.0
  0
LINE
  5
78B1
330
2
100
AcDbEntity
  8
AM_VIS
100
AcDbLine
 10
80.49408149482202
 20
563.8783177922119
 30
0.0
 11
80.49408149482202
 21
564.3833177922121
 31
0.0
  0
LINE
  5
78B2
330
2
100
AcDbEntity
  8
AM_VIS
100
AcDbLine
 10
80.49408149482202
 20
562.630817792212
 30
0.0
 11
80.49408149482202
 21
563.8783177922119
 31
0.0
  0
LINE
  5
78B3
330
2
100
AcDbEntity
  8
AM_VIS
100
AcDbLine
 10
80.74658149482207
 20
564.130817792212
 30
0.0
 11
80.49408149482223
 21
563.8783177922119
 31
0.0
  0
LINE
  5
78B4
330
2
100
AcDbEntity
  8
AM_VIS
100
AcDbLine
 10
80.99908149482212
 20
563.8783177922119
 30
0.0
 11
80.74658149482207
 21
564.130817792212
 31
0.0
  0
LINE
  5
78B5
330
2
100
AcDbEntity
  8
AM_VIS
100
AcDbLine
 10
80.99908149482212
 20
562.630817792212
 30
0.0
 11
80.49408149482202
 21
562.630817792212
 31
0.0
  0
LINE
  5
78B6
330
2
100
AcDbEntity
  8
AM_VIS
100
AcDbLine
 10
80.49408149482202
 20
563.8783177922119
 30
0.0
 11
80.99908149482212
 21
563.8783177922119
 31
0.0
  0
LINE
  5
78B7
330
2
100
AcDbEntity
  8
AM_VIS
100
AcDbLine
 10
80.74658149482207
 20
564.130817792212
 30
0.0
 11
80.49408149482223
 21
564.130817792212
 31
0.0
  0
LINE
  5
78B8
330
2
100
AcDbEntity
  8
AM_VIS
100
AcDbLine
 10
80.49408149482202
 20
564.3833177922121
 30
0.0
 11
80.74658149482207
 21
564.130817792212
 31
0.0
  0
LINE
  5
78B9
330
2
100
AcDbEntity
  8
AM_VIS
100
AcDbLine
 10
80.49408149482202
 20
565.630817792212
 30
0.0
 11
80.99908149482212
 21
565.630817792212
 31
0.0
  0
LINE
  5
78BA
330
2
100
AcDbEntity
  8
AM_VIS
100
AcDbLine
 10
80.99908149482212
 20
564.3833177922121
 30
0.0
 11
80.49408149482202
 21
564.3833177922121
 31
0.0
  0
LINE
  5
78BB
330
2
100
AcDbEntity
  8
AM_VIS
100
AcDbLine
 10
80.99908149482212
 20
564.130817792212
 30
0.0
 11
80.74658149482207
 21
564.130817792212
 31
0.0
  0
LINE
  5
78BC
330
2
100
AcDbEntity
  8
AM_VIS
100
AcDbLine
 10
80.74658149482207
 20
564.130817792212
 30
0.0
 11
80.99908149482212
 21
564.3833177922121
 31
0.0
  0
LINE
  5
78BD
330
2
100
AcDbEntity
  8
AM_VIS
100
AcDbLine
 10
80.99908149482212
 20
565.630817792212
 30
0.0
 11
80.99908149482212
 21
564.3833177922121
 31
0.0
  0
LINE
  5
78BE
330
2
100
AcDbEntity
  8
AM_VIS
100
AcDbLine
 10
80.99908149482212
 20
563.8783177922119
 30
0.0
 11
80.99908149482212
 21
562.630817792212
 31
0.0
  0
LINE
  5
78BF
330
2
100
AcDbEntity
  8
AM_VIS
100
AcDbLine
 10
80.99908149482212
 20
564.3833177922121
 30
0.0
 11
80.99908149482212
 21
563.8783177922119
 31
0.0
  0
CIRCLE
  5
78C0
330
2
100
AcDbEntity
  8
AM_VIS
100
AcDbCircle
 10
80.74658149482207
 20
564.130817792212
 30
0.0
 40
2.349999999999965
  0
LINE
  5
78C1
330
2
100
AcDbEntity
  8
AM_VIS
100
AcDbLine
 10
58.24658149482207
 20
567.630817792212
 30
0.0
 11
83.24658149482207
 21
567.630817792212
 31
0.0
  0
LINE
  5
78C2
330
2
100
AcDbEntity
  8
AM_VIS
100
AcDbLine
 10
84.24658149482207
 20
566.630817792212
 30
0.0
 11
84.24658149482207
 21
541.630817792212
 31
0.0
  0
LINE
  5
78C3
330
2
100
AcDbEntity
  8
AM_VIS
100
AcDbLine
 10
83.24658149482207
 20
540.630817792212
 30
0.0
 11
58.24658149482207
 21
540.630817792212
 31
0.0
  0
LINE
  5
78C4
330
2
100
AcDbEntity
  8
AM_VIS
100
AcDbLine
 10
57.24658149482206
 20
541.630817792212
 30
0.0
 11
57.24658149482206
 21
566.630817792212
 31
0.0
  0
ARC
  5
78C5
330
2
100
AcDbEntity
  8
AM_VIS
100
AcDbCircle
 10
58.24658149482207
 20
566.630817792212
 30
0.0
 40
0.9999999999999998
100
AcDbArc
 50
90.0
 51
180.0
  0
ARC
  5
78C6
330
2
100
AcDbEntity
  8
AM_VIS
100
AcDbCircle
 10
83.24658149482207
 20
566.630817792212
 30
0.0
 40
0.9999999999999998
100
AcDbArc
 50
0.0
 51
90.0
  0
ARC
  5
78C7
330
2
100
AcDbEntity
  8
AM_VIS
100
AcDbCircle
 10
83.24658149482207
 20
541.630817792212
 30
0.0
 40
0.9999999999999998
100
AcDbArc
 50
270.0
 51
0.0
  0
ARC
  5
78C8
330
2
100
AcDbEntity
  8
AM_VIS
100
AcDbCircle
 10
58.24658149482207
 20
541.630817792212
 30
0.0
 40
0.9999999999999998
100
AcDbArc
 50
180.0
 51
270.0
  0
CIRCLE
  5
78C9
330
2
100
AcDbEntity
  8
AM_VIS
100
AcDbCircle
 10
70.74658149482207
 20
554.130817792212
 30
0.0
 40
10.5
  0
CIRCLE
  5
78CA
330
2
100
AcDbEntity
  8
AM_VIS
100
AcDbCircle
 10
80.74658149482207
 20
564.130817792212
 30
0.0
 40
2.75
  0
CIRCLE
  5
78CB
330
2
100
AcDbEntity
  8
AM_VIS
100
AcDbCircle
 10
60.74658149482207
 20
544.130817792212
 30
0.0
 40
2.75
  0
LINE
  5
78CC
330
2
100
AcDbEntity
  8
AM_VIS
100
AcDbLine
 10
76.61149584977988
 20
640.3772968572565
 30
0.0
 11
76.97833958229626
 21
606.0912608824795
 31
0.0
  0
LINE
  5
78CD
330
2
100
AcDbEntity
  8
AM_VIS
100
AcDbLine
 10
64.5148234073697
 20
606.0912608824797
 30
0.0
 11
64.88166713984492
 21
640.3772968572558
 31
0.0
  0
LINE
  5
78CE
330
2
100
AcDbEntity
  8
AM_VIS
100
AcDbLine
 10
63.92182730838385
 20
604.6308179584736
 30
0.0
 11
64.30669477568494
 21
639.6308179695656
 31
0.0
  0
LINE
  5
78CF
330
2
100
AcDbEntity
  8
AM_VIS
100
AcDbLine
 10
59.30242964582726
 20
604.6308179584736
 30
0.0
 11
59.68729711312858
 21
639.6308179695656
 31
0.0
  0
LINE
  5
78D0
330
2
100
AcDbEntity
  8
AM_VIS
100
AcDbLine
 10
77.18646821396032
 20
639.6308179695656
 30
0.0
 11
77.57133568126142
 21
604.6308179584736
 31
0.0
  0
LINE
  5
78D1
330
2
100
AcDbEntity
  8
AM_VIS
100
AcDbLine
 10
47.73735257496582
 20
604.6308187606893
 30
0.0
 11
48.66650483567742
 21
639.6308188253002
 31
0.0
  0
LINE
  5
78D2
330
2
100
AcDbEntity
  8
AM_VIS
100
AcDbLine
 10
90.91324099214194
 20
639.6308188253002
 30
0.0
 11
91.84239325285375
 21
604.6308187606895
 31
0.0
  0
LINE
  5
78D3
330
2
100
AcDbEntity
  8
AM_VIS
100
AcDbLine
 10
92.82665473751581
 20
639.6308187346134
 30
0.0
 11
93.71341576728969
 21
606.2280149517854
 31
0.0
  0
LINE
  5
78D4
330
2
100
AcDbEntity
  8
AM_VIS
100
AcDbLine
 10
48.66652260957039
 20
639.6308571049981
 30
0.0
 11
50.05463078267394
 21
640.3773401565983
 31
0.0
  0
LINE
  5
78D5
330
2
100
AcDbEntity
  8
AM_VIS
100
AcDbLine
 10
92.26598586750446
 20
639.9323924909339
 30
0.0
 11
92.8266225917539
 21
639.6308240255226
 31
0.0
  0
LINE
  5
78D6
330
2
100
AcDbEntity
  8
AM_VIS
100
AcDbLine
 10
89.52511504514701
 20
640.3773401565973
 30
0.0
 11
90.91322321824918
 21
639.6308571049981
 31
0.0
  0
LINE
  5
78D7
330
2
100
AcDbEntity
  8
AM_VIS
100
AcDbLine
 10
76.6115050354033
 20
640.3773175483594
 30
0.0
 11
77.1864765799587
 21
639.6308366589923
 31
0.0
  0
LINE
  5
78D8
330
2
100
AcDbEntity
  8
AM_VIS
100
AcDbLine
 10
64.30668640968633
 20
639.6308366589923
 30
0.0
 11
64.88165795424106
 21
640.3773175483585
 31
0.0
  0
LINE
  5
78D9
330
2
100
AcDbEntity
  8
AM_VIS
100
AcDbLine
 10
59.68728874712997
 20
639.6308366589923
 30
0.0
 11
60.26226029168469
 21
640.3773175483585
 31
0.0
  0
LINE
  5
78DA
330
2
100
AcDbEntity
  8
AM_VIS
100
AcDbLine
 10
47.779746805679
 20
606.2279992538671
 30
0.0
 11
48.66650825209603
 21
639.6308187346143
 31
0.0
  0
LINE
  5
78DB
330
2
100
AcDbEntity
  8
AM_VIS
100
AcDbLine
 10
48.66654039789091
 20
639.6308240255226
 30
0.0
 11
49.22717712214034
 21
639.9323924909341
 31
0.0
  0
ARC
  5
78DC
330
2
100
AcDbEntity
  8
AM_VIS
100
AcDbCircle
 10
47.88539828617877
 20
606.020169722357
 30
0.0
 40
1.406872732293804
100
AcDbArc
 50
215.9561294192255
 51
260.9481163163259
  0
LINE
  5
78DD
330
2
100
AcDbEntity
  8
AM_VIS
100
AcDbLine
 10
92.8266581539674
 20
639.6308188253002
 30
0.0
 11
93.75581041467899
 21
604.6308187606893
 31
0.0
  0
LINE
  5
78DE
330
2
100
AcDbEntity
  8
AM_VIS
100
AcDbLine
 10
91.4385322069727
 20
640.3773401565976
 30
0.0
 11
92.82664038007466
 21
639.6308571049981
 31
0.0
  0
ARC
  5
78DF
330
2
100
AcDbEntity
  8
AM_VIS
100
AcDbCircle
 10
93.61818076441682
 20
606.0032040938182
 30
0.0
 40
1.388500536287371
100
AcDbArc
 50
278.7375637982422
 51
324.3581904662231
  0
LINE
  5
78E0
330
2
100
AcDbEntity
  8
AM_VIS
100
AcDbLine
 10
89.52513491140644
 20
640.3772977827535
 30
0.0
 11
90.41077402716359
 21
606.0912617489868
 31
0.0
  0
LINE
  5
78E1
330
2
100
AcDbEntity
  8
AM_VIS
100
AcDbLine
 10
81.80586587651669
 20
639.6308179695656
 30
0.0
 11
82.19073334381802
 21
604.6308179584736
 31
0.0
  0
LINE
  5
78E2
330
2
100
AcDbEntity
  8
AM_VIS
100
AcDbLine
 10
81.23090269795989
 20
640.3773175483594
 30
0.0
 11
81.8058742425153
 21
639.6308366589923
 31
0.0
  0
ARC
  5
78E3
330
2
100
AcDbEntity
  8
AM_VIS
100
AcDbCircle
 10
91.84499649024406
 20
606.0616476575806
 30
0.0
 40
1.434568636376219
100
AcDbArc
 50
178.8171893676628
 51
265.8625213658872
  0
ARC
  5
78E4
330
2
100
AcDbEntity
  8
AM_VIS
100
AcDbCircle
 10
87.06839130622848
 20
585.1013099454595
 30
0.0
 40
20.07486491154212
100
AcDbArc
 50
76.61433671475383
 51
103.3856632852461
  0
SPLINE
  5
78E5
330
2
100
AcDbEntity
  8
AM_VIS
100
AcDbSpline
210
0.0
220
0.0
230
1.0
 70
     8
 71
     3
 72
    14
 73
    10
 74
     0
 42
0.0000000001
 43
0.0000000001
 40
0.0
 40
0.0
 40
0.0
 40
0.0
 40
0.5402435453850974
 40
0.5402435453850974
 40
1.114447522162251
 40
1.114447522162251
 40
1.699413537159117
 40
1.699413537159117
 40
2.267815161163194
 40
2.267815161163194
 40
2.267815161163194
 40
2.267815161163194
 10
63.96362176317484
 20
604.630817792212
 30
0.0
 10
64.03253584792856
 20
604.630817792212
 30
0.0
 10
64.10061049863429
 20
604.6675474701183
 30
0.0
 10
64.23191338427727
 20
604.8107635505242
 30
0.0
 10
64.29317088305356
 20
604.9199163634646
 30
0.0
 10
64.39755262394169
 20
605.1945568943677
 30
0.0
 10
64.43957961306046
 20
605.3591034927061
 30
0.0
 10
64.49699691096589
 20
605.7139489641764
 30
0.0
 10
64.51281096179378
 20
605.9015522574615
 30
0.0
 10
64.51484019123995
 20
606.0912607029003
 30
0.0
  0
SPLINE
  5
78E6
330
2
100
AcDbEntity
  8
AM_VIS
100
AcDbSpline
210
0.0
220
0.0
230
1.0
 70
     8
 71
     3
 72
    14
 73
    10
 74
     0
 42
0.0000000001
 43
0.0000000001
 40
0.0
 40
0.0
 40
0.0
 40
0.0
 40
0.6055408160244738
 40
0.6055408160244738
 40
1.217375489854319
 40
1.217375489854319
 40
1.78180582336518
 40
1.78180582336518
 40
2.271351589224975
 40
2.271351589224975
 40
2.271351589224975
 40
2.271351589224975
 10
76.97832279840508
 20
606.0912607029003
 30
0.0
 10
76.98048102514917
 20
605.8894925680767
 30
0.0
 10
76.99823043560695
 20
605.6901802914916
 30
0.0
 10
77.06205671484986
 20
605.3200301877296
 30
0.0
 10
77.10804119516229
 20
605.1517420164028
 30
0.0
 10
77.21807125456894
 20
604.8851348391096
 30
0.0
 10
77.27969300677955
 20
604.7842457124537
 30
0.0
 10
77.40545814419533
 20
604.6608962275935
 30
0.0
 10
77.46718697116057
 20
604.630817792212
 30
0.0
 10
77.5295412264702
 20
604.630817792212
 30
0.0
  0
ARC
  5
78E7
330
2
100
AcDbEntity
  8
AM_VIS
100
AcDbCircle
 10
70.74658149482252
 20
565.8883385487757
 30
0.0
 40
39.29601438935856
100
AcDbArc
 50
80.37175572092225
 51
99.62824427907776
  0
LINE
  5
78E8
330
2
100
AcDbEntity
  8
AM_VIS
100
AcDbLine
 10
49.65076973679129
 20
604.6308187606893
 30
0.0
 11
50.57992199750287
 21
639.6308188253002
 31
0.0
  0
LINE
  5
78E9
330
2
100
AcDbEntity
  8
AM_VIS
100
AcDbLine
 10
50.57993977139585
 20
639.6308571049981
 30
0.0
 11
51.9680479444994
 21
640.3773401565983
 31
0.0
  0
LINE
  5
78EA
330
2
100
AcDbEntity
  8
AM_VIS
100
AcDbLine
 10
51.08238896243188
 20
606.0912617489877
 30
0.0
 11
51.96802807828817
 21
640.377297782753
 31
0.0
  0
ARC
  5
78EB
330
2
100
AcDbEntity
  8
AM_VIS
100
AcDbCircle
 10
49.64820085097745
 20
606.0616163563437
 30
0.0
 40
1.434534938611204
100
AcDbArc
 50
274.1362003974335
 51
1.184088869010069
  0
ARC
  5
78EC
330
2
100
AcDbEntity
  8
AM_VIS
100
AcDbCircle
 10
54.42477168341634
 20
586.439741396338
 30
0.0
 40
18.77535046066562
100
AcDbArc
 50
75.66873154246888
 51
104.3312684575311
  0
LINE
  5
78ED
330
2
100
AcDbEntity
  8
AM_VIS
100
AcDbLine
 10
92.74658149482252
 20
597.630817792212
 30
0.0
 11
94.74658149482252
 21
600.630817792212
 31
0.0
  0
LINE
  5
78EE
330
2
100
AcDbEntity
  8
AM_VIS
100
AcDbLine
 10
48.74658149482252
 20
597.630817792212
 30
0.0
 11
46.74658149482229
 21
600.630817792212
 31
0.0
  0
LINE
  5
78EF
330
2
100
AcDbEntity
  8
AM_VIS
100
AcDbLine
 10
46.74658149482229
 20
605.1941024123897
 30
0.0
 11
46.74658149482229
 21
600.630817792212
 31
0.0
  0
LINE
  5
78F0
330
2
100
AcDbEntity
  8
AM_VIS
100
AcDbLine
 10
94.74658149482252
 20
605.1941024123897
 30
0.0
 11
94.74658149482252
 21
600.630817792212
 31
0.0
  0
LINE
  5
78F1
330
2
100
AcDbEntity
  8
AM_VIS
100
AcDbLine
 10
51.74658149482252
 20
642.630817792212
 30
0.0
 11
51.74658149482252
 21
641.630817792212
 31
0.0
  0
LINE
  5
78F2
330
2
100
AcDbEntity
  8
AM_VIS
100
AcDbLine
 10
89.74658149482252
 20
642.630817792212
 30
0.0
 11
89.74658149482252
 21
641.630817792212
 31
0.0
  0
LINE
  5
78F3
330
2
100
AcDbEntity
  8
AM_VIS
100
AcDbLine
 10
51.74658149482252
 20
641.630817792212
 30
0.0
 11
49.23953924130137
 21
640.3772966654515
 31
0.0
  0
LINE
  5
78F4
330
2
100
AcDbEntity
  8
AM_VIS
100
AcDbLine
 10
89.74658149482252
 20
641.630817792212
 30
0.0
 11
92.25362374834345
 21
640.3772966654515
 31
0.0
  0
LINE
  5
78F5
330
2
100
AcDbEntity
  8
AM_VIS
100
AcDbLine
 10
49.23953924130137
 20
640.3772966654515
 30
0.0
 11
49.22718061180034
 21
639.9323860034138
 31
0.0
  0
SPLINE
  5
78F6
330
2
100
AcDbEntity
  8
AM_VIS
100
AcDbSpline
210
0.0
220
0.0
230
1.0
 70
     8
 71
     1
 72
     5
 73
     3
 74
     0
 42
0.0000000001
 43
0.0000000001
 40
0.0
 40
0.0
 40
1.135003531807443
 40
1.466495858127493
 40
1.466495858127493
 10
46.74658149482252
 20
605.1941024123897
 30
0.0
 10
47.58619638832669
 20
605.9578300129261
 30
0.0
 10
47.77978018049362
 20
606.2279983678491
 30
0.0
  0
LINE
  5
78F7
330
2
100
AcDbEntity
  8
AM_VIS
100
AcDbLine
 10
92.25362374834345
 20
640.3772966654515
 30
0.0
 11
92.2659823778447
 21
639.932386003414
 31
0.0
  0
SPLINE
  5
78F8
330
2
100
AcDbEntity
  8
AM_VIS
100
AcDbSpline
210
0.0
220
0.0
230
1.0
 70
     8
 71
     1
 72
     5
 73
     3
 74
     0
 42
0.0000000001
 43
0.0000000001
 40
1.905975479024931
 40
1.905975479024931
 40
2.249471387791436
 40
3.37257749248998
 40
3.37257749248998
 10
93.71338239250508
 20
606.2280140657679
 30
0.0
 10
93.91446742322841
 20
605.9483924721586
 30
0.0
 10
94.74658149482252
 20
605.1941024123897
 30
0.0
  0
LINE
  5
78F9
330
2
100
AcDbEntity
  8
AM_VIS
100
AcDbLine
 10
48.74658149482252
 20
597.630817792212
 30
0.0
 11
92.74658149482252
 21
597.630817792212
 31
0.0
  0
LINE
  5
78FA
330
2
100
AcDbEntity
  8
AM_VIS
100
AcDbLine
 10
46.74658149482229
 20
600.630817792212
 30
0.0
 11
94.74658149482252
 21
600.630817792212
 31
0.0
  0
LINE
  5
78FB
330
2
100
AcDbEntity
  8
AM_VIS
100
AcDbLine
 10
51.74658149482252
 20
642.630817792212
 30
0.0
 11
89.74658149482252
 21
642.630817792212
 31
0.0
  0
LINE
  5
78FC
330
2
100
AcDbEntity
  8
AM_VIS
100
AcDbLine
 10
59.30244476570511
 20
604.630817792212
 30
0.0
 11
63.92184242826147
 21
604.630817792212
 31
0.0
  0
LINE
  5
78FD
330
2
100
AcDbEntity
  8
AM_VIS
100
AcDbLine
 10
77.57132056138357
 20
604.630817792212
 30
0.0
 11
82.19071822394017
 21
604.630817792212
 31
0.0
  0
LINE
  5
78FE
330
2
100
AcDbEntity
  8
AM_VIS
100
AcDbLine
 10
47.73738905629147
 20
604.630817792212
 30
0.0
 11
49.65080621811671
 21
604.630817792212
 31
0.0
  0
LINE
  5
78FF
330
2
100
AcDbEntity
  8
AM_VIS
100
AcDbLine
 10
91.84235677152811
 20
604.630817792212
 30
0.0
 11
93.75577393335357
 21
604.630817792212
 31
0.0
  0
LINE
  5
7900
330
2
100
AcDbEntity
  8
AM_VIS
100
AcDbLine
 10
50.57996091263612
 20
639.630817792212
 30
0.0
 11
48.66654375081066
 21
639.630817792212
 31
0.0
  0
LINE
  5
7901
330
2
100
AcDbEntity
  8
AM_VIS
100
AcDbLine
 10
92.82661923883438
 20
639.630817792212
 30
0.0
 11
90.91320207700892
 21
639.630817792212
 31
0.0
  0
LINE
  5
7902
330
2
100
AcDbEntity
  8
AM_VIS
100
AcDbLine
 10
81.80584974792759
 20
639.630817792212
 30
0.0
 11
77.18645208537123
 21
639.630817792212
 31
0.0
  0
LINE
  5
7903
330
2
100
AcDbEntity
  8
AM_VIS
100
AcDbLine
 10
64.88168506635088
 20
640.3772966654515
 30
0.0
 11
76.61147792329416
 21
640.3772966654515
 31
0.0
  0
LINE
  5
7904
330
2
100
AcDbEntity
  8
AM_VIS
100
AcDbLine
 10
64.30671090427404
 20
639.630817792212
 30
0.0
 11
59.68731324171745
 21
639.630817792212
 31
0.0
  0
LINE
  5
7905
330
2
100
AcDbEntity
  8
AM_VIS
100
AcDbLine
 10
51.74658149482252
 20
641.630817792212
 30
0.0
 11
89.74658149482252
 21
641.630817792212
 31
0.0
  0
LINE
  5
7906
330
2
100
AcDbEntity
  8
AM_VIS
100
AcDbLine
 10
49.23953924130137
 20
640.3772966654515
 30
0.0
 11
50.05465417091068
 21
640.3772966654515
 31
0.0
  0
LINE
  5
7907
330
2
100
AcDbEntity
  8
AM_VIS
100
AcDbLine
 10
47.66405669706273
 20
604.630817792212
 30
0.0
 11
47.73738905629147
 21
604.630817792212
 31
0.0
  0
LINE
  5
7908
330
2
100
AcDbEntity
  8
AM_VIS
100
AcDbLine
 10
91.43850881873413
 20
640.3772966654515
 30
0.0
 11
92.25362374834345
 21
640.3772966654515
 31
0.0
  0
LINE
  5
7909
330
2
100
AcDbEntity
  8
AM_VIS
100
AcDbLine
 10
93.75577393335357
 20
604.630817792212
 30
0.0
 11
93.82910629258208
 21
604.630817792212
 31
0.0
  0
LINE
  5
790A
330
2
100
AcDbEntity
  8
AM_VIS
100
AcDbLine
 10
81.23087558585075
 20
640.3772966654515
 30
0.0
 11
89.52509165690868
 21
640.3772966654515
 31
0.0
  0
LINE
  5
790B
330
2
100
AcDbEntity
  8
AM_VIS
100
AcDbLine
 10
82.19071822394017
 20
604.630817792212
 30
0.0
 11
82.42097003412073
 21
604.630817792212
 31
0.0
  0
LINE
  5
790C
330
2
100
AcDbEntity
  8
AM_VIS
100
AcDbLine
 10
91.71581257832917
 20
604.630817792212
 30
0.0
 11
91.84235677152811
 21
604.630817792212
 31
0.0
  0
LINE
  5
790D
330
2
100
AcDbEntity
  8
AM_VIS
100
AcDbLine
 10
77.31902768789382
 20
604.630817792212
 30
0.0
 11
77.57132056138357
 21
604.630817792212
 31
0.0
  0
LINE
  5
790E
330
2
100
AcDbEntity
  8
AM_VIS
100
AcDbLine
 10
63.92184242826147
 20
604.630817792212
 30
0.0
 11
64.17413530175145
 21
604.630817792212
 31
0.0
  0
LINE
  5
790F
330
2
100
AcDbEntity
  8
AM_VIS
100
AcDbLine
 10
51.96807133273637
 20
640.3772966654515
 30
0.0
 11
60.26228740379451
 21
640.3772966654515
 31
0.0
  0
LINE
  5
7910
330
2
100
AcDbEntity
  8
AM_VIS
100
AcDbLine
 10
49.65080621811671
 20
604.630817792212
 30
0.0
 11
49.77735041131587
 21
604.630817792212
 31
0.0
  0
LINE
  5
7911
330
2
100
AcDbEntity
  8
AM_VIS
100
AcDbLine
 10
59.07219295552431
 20
604.630817792212
 30
0.0
 11
59.30244476570511
 21
604.630817792212
 31
0.0
  0
LINE
  5
7912
330
2
100
AcDbEntity
  8
AM_VIS
100
AcDbLine
 10
47.14658149482192
 20
583.9308177922119
 30
0.0
 11
47.14658149482192
 21
582.630817792212
 31
0.0
  0
ELLIPSE
  5
7913
330
2
100
AcDbEntity
  8
AM_VIS
100
AcDbEllipse
 10
89.74658149482207
 20
583.3451619212702
 30
0.0
 11
0.0000000000000139
 21
-12.63839612949096
 31
0.0000000000000001
210
0.0
220
0.0
230
1.0
 40
0.3639702342662106
 41
1.514244449250912
 42
1.617152341295626
  0
ELLIPSE
  5
7914
330
2
100
AcDbEntity
  8
AM_VIS
100
AcDbEllipse
 10
89.74658149482207
 20
581.9164736631538
 30
0.0
 11
0.0000000000000139
 21
-12.6383961294911
 31
0.0000000000000001
210
0.0
220
0.0
230
1.0
 40
0.3639702342662066
 41
1.627348204338884
 42
1.730861849721085
  0
LINE
  5
7915
330
2
100
AcDbEntity
  8
AM_VIS
100
AcDbLine
 10
94.34658149482197
 20
583.9308177922119
 30
0.0
 11
94.34658149482197
 21
583.3451619212702
 31
0.0
  0
ELLIPSE
  5
7916
330
2
100
AcDbEntity
  8
AM_VIS
100
AcDbEllipse
 10
89.74658149482207
 20
580.3451619212702
 30
0.0
 11
0.0000000000000002
 21
-12.63839612949096
 31
0.0000000000000001
210
0.0
220
0.0
230
1.0
 40
0.3639702342662106
 41
1.514244449250912
 42
1.593400476508817
  0
ELLIPSE
  5
7917
330
2
100
AcDbEntity
  8
AM_VIS
100
AcDbEllipse
 10
89.74658149482207
 20
578.9164736631538
 30
0.0
 11
0.0000000000000002
 21
-12.6383961294911
 31
0.0000000000000001
210
0.0
220
0.0
230
1.0
 40
0.3639702342662066
 41
1.627348204338884
 42
1.706861486979012
  0
LINE
  5
7918
330
2
100
AcDbEntity
  8
AM_VIS
100
AcDbLine
 10
85.14658149482215
 20
580.630817792212
 30
0.0
 11
85.14658149482215
 21
579.630817792212
 31
0.0
  0
LINE
  5
7919
330
2
100
AcDbEntity
  8
AM_VIS
100
AcDbLine
 10
94.34658149482197
 20
580.630817792212
 30
0.0
 11
94.34658149482197
 21
580.3451619212702
 31
0.0
  0
LINE
  5
791A
330
2
100
AcDbEntity
  8
AM_VIS
100
AcDbLine
 10
46.99658149482206
 20
583.9308177922119
 30
0.0
 11
46.99658149482206
 21
584.3108177922121
 31
0.0
  0
LINE
  5
791B
330
2
100
AcDbEntity
  8
AM_VIS
100
AcDbLine
 10
49.74658149482206
 20
583.9308177922119
 30
0.0
 11
46.99658149482206
 21
583.9308177922119
 31
0.0
  0
LINE
  5
791C
330
2
100
AcDbEntity
  8
AM_VIS
100
AcDbLine
 10
50.74658149482207
 20
586.680817792212
 30
0.0
 11
49.36658149482195
 21
586.680817792212
 31
0.0
  0
ARC
  5
791D
330
2
100
AcDbEntity
  8
AM_VIS
100
AcDbCircle
 10
49.36658149482195
 20
584.3108177922121
 30
0.0
 40
2.369999999999999
100
AcDbArc
 50
90.0
 51
180.0
  0
LINE
  5
791E
330
2
100
AcDbEntity
  8
AM_VIS
100
AcDbLine
 10
94.49658149482207
 20
583.9308177922119
 30
0.0
 11
94.49658149482207
 21
584.3108177922121
 31
0.0
  0
LINE
  5
791F
330
2
100
AcDbEntity
  8
AM_VIS
100
AcDbLine
 10
94.49658149482207
 20
583.9308177922119
 30
0.0
 11
91.74658149482207
 21
583.9308177922119
 31
0.0
  0
LINE
  5
7920
330
2
100
AcDbEntity
  8
AM_VIS
100
AcDbLine
 10
92.12658149482194
 20
586.680817792212
 30
0.0
 11
90.74658149482207
 21
586.680817792212
 31
0.0
  0
ARC
  5
7921
330
2
100
AcDbEntity
  8
AM_VIS
100
AcDbCircle
 10
92.12658149482194
 20
584.3108177922121
 30
0.0
 40
2.369999999999999
100
AcDbArc
 50
0.0
 51
90.0
  0
LINE
  5
7922
330
2
100
AcDbEntity
  8
AM_VIS
100
AcDbLine
 10
94.49658149482207
 20
580.630817792212
 30
0.0
 11
94.49658149482207
 21
581.0108177922121
 31
0.0
  0
LINE
  5
7923
330
2
100
AcDbEntity
  8
AM_VIS
100
AcDbLine
 10
84.99658149482206
 20
580.630817792212
 30
0.0
 11
84.99658149482206
 21
581.0108177922121
 31
0.0
  0
LINE
  5
7924
330
2
100
AcDbEntity
  8
AM_VIS
100
AcDbLine
 10
94.49658149482207
 20
580.630817792212
 30
0.0
 11
84.99658149482206
 21
580.630817792212
 31
0.0
  0
LINE
  5
7925
330
2
100
AcDbEntity
  8
AM_VIS
100
AcDbLine
 10
92.12658149482217
 20
583.380817792212
 30
0.0
 11
87.36658149482195
 21
583.380817792212
 31
0.0
  0
ARC
  5
7926
330
2
100
AcDbEntity
  8
AM_VIS
100
AcDbCircle
 10
87.36658149482195
 20
581.0108177922121
 30
0.0
 40
2.369999999999999
100
AcDbArc
 50
90.0
 51
180.0
  0
ARC
  5
7927
330
2
100
AcDbEntity
  8
AM_VIS
100
AcDbCircle
 10
92.12658149482217
 20
581.0108177922121
 30
0.0
 40
2.369999999999999
100
AcDbArc
 50
0.0
 51
90.0
  0
LINE
  5
7928
330
2
100
AcDbEntity
  8
AM_VIS
100
AcDbLine
 10
56.49658149482206
 20
580.9308177922122
 30
0.0
 11
56.49658149482206
 21
581.3108177922123
 31
0.0
  0
LINE
  5
7929
330
2
100
AcDbEntity
  8
AM_VIS
100
AcDbLine
 10
46.99658149482206
 20
580.9308177922122
 30
0.0
 11
46.99658149482206
 21
581.3108177922123
 31
0.0
  0
LINE
  5
792A
330
2
100
AcDbEntity
  8
AM_VIS
100
AcDbLine
 10
56.49658149482206
 20
580.9308177922122
 30
0.0
 11
46.99658149482206
 21
580.9308177922122
 31
0.0
  0
LINE
  5
792B
330
2
100
AcDbEntity
  8
AM_VIS
100
AcDbLine
 10
54.12658149482218
 20
583.6808177922121
 30
0.0
 11
49.36658149482219
 21
583.6808177922121
 31
0.0
  0
ARC
  5
792C
330
2
100
AcDbEntity
  8
AM_VIS
100
AcDbCircle
 10
49.36658149482195
 20
581.3108177922123
 30
0.0
 40
2.369999999999999
100
AcDbArc
 50
90.0
 51
180.0
  0
ARC
  5
792D
330
2
100
AcDbEntity
  8
AM_VIS
100
AcDbCircle
 10
54.12658149482218
 20
581.3108177922123
 30
0.0
 40
2.369999999999999
100
AcDbArc
 50
0.0
 51
90.0
  0
ELLIPSE
  5
792E
330
2
100
AcDbEntity
  8
AM_VIS
100
AcDbEllipse
 10
51.74658149482207
 20
580.3451619212705
 30
0.0
 11
4.304833067380881
 21
-12.62630297581284
 31
-0.0000000000000001
210
0.0
220
0.0
230
1.0
 40
0.1284016297267228
 41
1.470494914598275
 42
1.573402806642989
  0
ELLIPSE
  5
792F
330
2
100
AcDbEntity
  8
AM_VIS
100
AcDbEllipse
 10
51.74658149482207
 20
578.9164736631541
 30
0.0
 11
4.304833067380879
 21
-12.62630297581298
 31
-0.0000000000000001
210
0.0
220
0.0
230
0.9999999999999998
 40
0.1284016297267217
 41
1.58359866968624
 42
1.687112315068441
  0
LINE
  5
7930
330
2
100
AcDbEntity
  8
AM_VIS
100
AcDbLine
 10
47.14658149482215
 20
580.9308177922122
 30
0.0
 11
47.14658149482215
 21
579.6308177922123
 31
0.0
  0
LINE
  5
7931
330
2
100
AcDbEntity
  8
AM_VIS
100
AcDbLine
 10
56.3465814948222
 20
580.9308177922122
 30
0.0
 11
56.3465814948222
 21
579.630817792212
 31
0.0
  0
LINE
  5
7932
330
2
100
AcDbEntity
  8
AM_VIS
100
AcDbLine
 10
95.74658149482207
 20
569.630817792212
 30
0.0
 11
95.74658149482207
 21
579.130817792212
 31
0.0
  0
LINE
  5
7933
330
2
100
AcDbEntity
  8
AM_VIS
100
AcDbLine
 10
45.74658149482206
 20
579.130817792212
 30
0.0
 11
45.74658149482206
 21
569.630817792212
 31
0.0
  0
LINE
  5
7934
330
2
100
AcDbEntity
  8
AM_VIS
100
AcDbLine
 10
51.74658149482207
 20
569.630817792212
 30
0.0
 11
89.74658149482207
 21
569.630817792212
 31
0.0
  0
LINE
  5
7935
330
2
100
AcDbEntity
  8
AM_VIS
100
AcDbLine
 10
89.74658149482207
 20
579.630817792212
 30
0.0
 11
51.74658149482207
 21
579.630817792212
 31
0.0
  0
LINE
  5
7936
330
2
100
AcDbEntity
  8
AM_VIS
100
AcDbLine
 10
90.74658149482207
 20
585.630817792212
 30
0.0
 11
90.74658149482207
 21
592.630817792212
 31
0.0
  0
LINE
  5
7937
330
2
100
AcDbEntity
  8
AM_VIS
100
AcDbLine
 10
50.74658149482207
 20
585.630817792212
 30
0.0
 11
50.74658149482207
 21
592.630817792212
 31
0.0
  0
LINE
  5
7938
330
2
100
AcDbEntity
  8
AM_VIS
100
AcDbLine
 10
88.74658149482206
 20
594.630817792212
 30
0.0
 11
88.74658149482206
 21
597.630817792212
 31
0.0
  0
LINE
  5
7939
330
2
100
AcDbEntity
  8
AM_VIS
100
AcDbLine
 10
52.74658149482206
 20
594.630817792212
 30
0.0
 11
52.74658149482206
 21
597.630817792212
 31
0.0
  0
LINE
  5
793A
330
2
100
AcDbEntity
  8
AM_VIS
100
AcDbLine
 10
52.74658149482206
 20
594.630817792212
 30
0.0
 11
50.74658149482207
 21
592.630817792212
 31
0.0
  0
LINE
  5
793B
330
2
100
AcDbEntity
  8
AM_VIS
100
AcDbLine
 10
88.74658149482206
 20
594.630817792212
 30
0.0
 11
90.74658149482207
 21
592.630817792212
 31
0.0
  0
LINE
  5
793C
330
2
100
AcDbEntity
  8
AM_VIS
100
AcDbLine
 10
50.74658149482207
 20
585.630817792212
 30
0.0
 11
49.74658149482206
 21
584.630817792212
 31
0.0
  0
LINE
  5
793D
330
2
100
AcDbEntity
  8
AM_VIS
100
AcDbLine
 10
90.74658149482207
 20
585.630817792212
 30
0.0
 11
91.74658149482207
 21
584.630817792212
 31
0.0
  0
LINE
  5
793E
330
2
100
AcDbEntity
  8
AM_VIS
100
AcDbLine
 10
91.74658149482207
 20
583.380817792212
 30
0.0
 11
91.74658149482207
 21
584.630817792212
 31
0.0
  0
LINE
  5
793F
330
2
100
AcDbEntity
  8
AM_VIS
100
AcDbLine
 10
49.74658149482206
 20
583.6808177922121
 30
0.0
 11
49.74658149482206
 21
584.630817792212
 31
0.0
  0
LINE
  5
7940
330
2
100
AcDbEntity
  8
AM_VIS
100
AcDbLine
 10
90.74658149482207
 20
592.630817792212
 30
0.0
 11
50.74658149482207
 21
592.630817792212
 31
0.0
  0
LINE
  5
7941
102
{ACAD_REACTORS
330
7C7D
102
}
330
2
100
AcDbEntity
  8
AM_VIS
100
AcDbLine
 10
88.74658149482206
 20
594.630817792212
 30
0.0
 11
52.74658149482206
 21
594.630817792212
 31
0.0
  0
LINE
  5
7942
330
2
100
AcDbEntity
  8
AM_VIS
100
AcDbLine
 10
90.74658149482207
 20
585.630817792212
 30
0.0
 11
50.74658149482207
 21
585.630817792212
 31
0.0
  0
ARC
  5
7943
330
2
100
AcDbEntity
  8
AM_VIS
100
AcDbCircle
 10
95.24658149482206
 20
579.130817792212
 30
0.0
 40
0.5
100
AcDbArc
 50
0.0
 51
90.0
  0
ARC
  5
7944
330
2
100
AcDbEntity
  8
AM_VIS
100
AcDbCircle
 10
46.24658149482207
 20
579.130817792212
 30
0.0
 40
0.5
100
AcDbArc
 50
90.0
 51
180.0
  0
LINE
  5
7945
330
2
100
AcDbEntity
  8
AM_VIS
100
AcDbLine
 10
91.74658149482207
 20
584.630817792212
 30
0.0
 11
49.74658149482206
 21
584.630817792212
 31
0.0
  0
LINE
  5
7946
330
2
100
AcDbEntity
  8
AM_VIS
100
AcDbLine
 10
89.74658149482207
 20
579.630817792212
 30
0.0
 11
95.24658149482206
 21
579.630817792212
 31
0.0
  0
LINE
  5
7947
330
2
100
AcDbEntity
  8
AM_VIS
100
AcDbLine
 10
46.24658149482207
 20
579.630817792212
 30
0.0
 11
51.74658149482207
 21
579.630817792212
 31
0.0
  0
LINE
  5
7948
330
2
100
AcDbEntity
  8
AM_VIS
100
AcDbLine
 10
106.7465814948221
 20
567.630817792212
 30
0.0
 11
96.066581494822
 21
567.630817792212
 31
0.0
  0
LINE
  5
7949
330
2
100
AcDbEntity
  8
AM_VIS
100
AcDbLine
 10
106.7465814948221
 20
537.630817792212
 30
0.0
 11
101.3406985763788
 21
537.630817792212
 31
0.0
  0
LINE
  5
794A
330
2
100
AcDbEntity
  8
AM_VIS
100
AcDbLine
 10
100.1918383735528
 20
542.6312696039136
 30
0.0
 11
101.3410727400119
 21
541.6312477845357
 31
0.0
  0
LINE
  5
794B
330
2
100
AcDbEntity
  8
AM_VIS
100
AcDbLine
 10
79.05320535774013
 20
517.630817792212
 30
0.0
 11
79.05320535774013
 21
540.630817792212
 31
0.0
  0
LINE
  5
794C
330
2
100
AcDbEntity
  8
AM_VIS
100
AcDbLine
 10
101.3406985763788
 20
537.630817792212
 30
0.0
 11
101.3406985763788
 21
541.630817792212
 31
0.0
  0
LINE
  5
794D
330
2
100
AcDbEntity
  8
AM_VIS
100
AcDbLine
 10
40.15209024963223
 20
541.6312477845357
 30
0.0
 11
41.30132461609128
 21
542.6312696039136
 31
0.0
  0
LINE
  5
794E
330
2
100
AcDbEntity
  8
AM_VIS
100
AcDbLine
 10
40.15246441326531
 20
537.630817792212
 30
0.0
 11
34.74658149482207
 21
537.630817792212
 31
0.0
  0
LINE
  5
794F
330
2
100
AcDbEntity
  8
AM_VIS
100
AcDbLine
 10
45.42658149482213
 20
567.630817792212
 30
0.0
 11
34.74658149482207
 21
567.630817792212
 31
0.0
  0
LINE
  5
7950
330
2
100
AcDbEntity
  8
AM_VIS
100
AcDbLine
 10
45.42658149482213
 20
542.630817792212
 30
0.0
 11
45.42658149482213
 21
567.630817792212
 31
0.0
  0
LINE
  5
7951
330
2
100
AcDbEntity
  8
AM_VIS
100
AcDbLine
 10
96.74658149482207
 20
569.630817792212
 30
0.0
 11
96.74658149482207
 21
567.630817792212
 31
0.0
  0
LINE
  5
7952
330
2
100
AcDbEntity
  8
AM_VIS
100
AcDbLine
 10
96.066581494822
 20
567.630817792212
 30
0.0
 11
96.066581494822
 21
542.630817792212
 31
0.0
  0
LINE
  5
7953
330
2
100
AcDbEntity
  8
AM_VIS
100
AcDbLine
 10
104.746581494822
 20
543.630817792212
 30
0.0
 11
96.74658149482207
 21
543.630817792212
 31
0.0
  0
LINE
  5
7954
330
2
100
AcDbEntity
  8
AM_VIS
100
AcDbLine
 10
96.74658149482207
 20
563.630817792212
 30
0.0
 11
104.746581494822
 21
563.630817792212
 31
0.0
  0
LINE
  5
7955
330
2
100
AcDbEntity
  8
AM_VIS
100
AcDbLine
 10
104.746581494822
 20
563.630817792212
 30
0.0
 11
104.746581494822
 21
543.630817792212
 31
0.0
  0
LINE
  5
7956
330
2
100
AcDbEntity
  8
AM_VIS
100
AcDbLine
 10
103.746581494822
 20
543.630817792212
 30
0.0
 11
103.746581494822
 21
563.630817792212
 31
0.0
  0
LINE
  5
7957
330
2
100
AcDbEntity
  8
AM_VIS
100
AcDbLine
 10
97.74658149482206
 20
543.630817792212
 30
0.0
 11
97.74658149482206
 21
563.630817792212
 31
0.0
  0
LINE
  5
7958
330
2
100
AcDbEntity
  8
AM_VIS
100
AcDbLine
 10
96.74658149482207
 20
543.630817792212
 30
0.0
 11
96.74658149482207
 21
563.630817792212
 31
0.0
  0
LINE
  5
7959
330
2
100
AcDbEntity
  8
AM_VIS
100
AcDbLine
 10
44.74658149482206
 20
543.630817792212
 30
0.0
 11
36.74658149482207
 21
543.630817792212
 31
0.0
  0
LINE
  5
795A
330
2
100
AcDbEntity
  8
AM_VIS
100
AcDbLine
 10
36.74658149482207
 20
563.630817792212
 30
0.0
 11
44.74658149482206
 21
563.630817792212
 31
0.0
  0
LINE
  5
795B
330
2
100
AcDbEntity
  8
AM_VIS
100
AcDbLine
 10
36.74658149482207
 20
543.630817792212
 30
0.0
 11
36.74658149482207
 21
563.630817792212
 31
0.0
  0
LINE
  5
795C
330
2
100
AcDbEntity
  8
AM_VIS
100
AcDbLine
 10
44.74658149482206
 20
563.630817792212
 30
0.0
 11
44.74658149482206
 21
543.630817792212
 31
0.0
  0
LINE
  5
795D
330
2
100
AcDbEntity
  8
AM_VIS
100
AcDbLine
 10
43.74658149482207
 20
543.630817792212
 30
0.0
 11
43.74658149482207
 21
563.630817792212
 31
0.0
  0
LINE
  5
795E
330
2
100
AcDbEntity
  8
AM_VIS
100
AcDbLine
 10
37.74658149482207
 20
543.630817792212
 30
0.0
 11
37.74658149482207
 21
563.630817792212
 31
0.0
  0
LINE
  5
795F
330
2
100
AcDbEntity
  8
AM_VIS
100
AcDbLine
 10
40.15246441326531
 20
541.630817792212
 30
0.0
 11
40.15246441326531
 21
537.630817792212
 31
0.0
  0
LINE
  5
7960
330
2
100
AcDbEntity
  8
AM_VIS
100
AcDbLine
 10
62.43995763190401
 20
517.630817792212
 30
0.0
 11
62.43995763190401
 21
540.630817792212
 31
0.0
  0
SPLINE
  5
7961
330
2
100
AcDbEntity
  8
AM_VIS
100
AcDbSpline
210
0.0
220
-0.0000000000000096
230
-1.0
 70
    12
 71
     2
 72
     6
 73
     3
 74
     0
 42
0.0000000001
 43
0.0000000001
 40
0.0
 40
0.0
 40
0.0
 40
16.88194301613429
 40
16.88194301613429
 40
16.88194301613429
 10
62.43995763190401
 20
517.630817792212
 30
0.0
 41
1.0
 10
70.74658149482207
 20
514.673674935069
 30
0.0000000000000284
 41
1.029411764705882
 10
79.05320535774013
 20
517.630817792212
 30
0.0
 41
1.0
  0
LINE
  5
7962
330
2
100
AcDbEntity
  8
AM_VIS
100
AcDbLine
 10
44.74658149482206
 20
569.630817792212
 30
0.0
 11
44.74658149482206
 21
567.630817792212
 31
0.0
  0
LINE
  5
7963
330
2
100
AcDbEntity
  8
AM_VIS
100
AcDbLine
 10
57.99658149482207
 20
567.880817792212
 30
0.0
 11
83.49658149482207
 21
567.880817792212
 31
0.0
  0
LINE
  5
7964
330
2
100
AcDbEntity
  8
AM_VIS
100
AcDbLine
 10
56.99658149482207
 20
542.630817792212
 30
0.0
 11
56.99658149482207
 21
566.880817792212
 31
0.0
  0
LINE
  5
7965
330
2
100
AcDbEntity
  8
AM_VIS
100
AcDbLine
 10
84.49658149482207
 20
566.880817792212
 30
0.0
 11
84.49658149482207
 21
542.630817792212
 31
0.0
  0
LINE
  5
7966
330
2
100
AcDbEntity
  8
AM_VIS
100
AcDbLine
 10
34.74658149482207
 20
537.630817792212
 30
0.0
 11
34.74658149482207
 21
567.630817792212
 31
0.0
  0
LINE
  5
7967
330
2
100
AcDbEntity
  8
AM_VIS
100
AcDbLine
 10
106.7465814948221
 20
537.630817792212
 30
0.0
 11
106.7465814948221
 21
567.630817792212
 31
0.0
  0
LINE
  5
7968
330
2
100
AcDbEntity
  8
AM_VIS
100
AcDbLine
 10
71.24658149482207
 20
522.630817792212
 30
0.0
 11
66.24658149482207
 21
522.630817792212
 31
0.0
  0
LINE
  5
7969
330
2
100
AcDbEntity
  8
AM_VIS
100
AcDbLine
 10
71.24658149482207
 20
521.630817792212
 30
0.0
 11
71.24658149482207
 21
522.630817792212
 31
0.0
  0
LINE
  5
796A
330
2
100
AcDbEntity
  8
AM_VIS
100
AcDbLine
 10
75.24658149482206
 20
523.630817792212
 30
0.0
 11
71.24658149482207
 21
521.630817792212
 31
0.0
  0
LINE
  5
796B
330
2
100
AcDbEntity
  8
AM_VIS
100
AcDbLine
 10
71.24658149482207
 20
525.630817792212
 30
0.0
 11
75.24658149482206
 21
523.630817792212
 31
0.0
  0
LINE
  5
796C
330
2
100
AcDbEntity
  8
AM_VIS
100
AcDbLine
 10
71.24658149482207
 20
524.630817792212
 30
0.0
 11
71.24658149482207
 21
525.630817792212
 31
0.0
  0
LINE
  5
796D
330
2
100
AcDbEntity
  8
AM_VIS
100
AcDbLine
 10
66.24658149482207
 20
524.630817792212
 30
0.0
 11
71.24658149482207
 21
524.630817792212
 31
0.0
  0
LINE
  5
796E
330
2
100
AcDbEntity
  8
AM_VIS
100
AcDbLine
 10
66.24658149482207
 20
522.630817792212
 30
0.0
 11
66.24658149482207
 21
524.630817792212
 31
0.0
  0
LINE
  5
796F
330
2
100
AcDbEntity
  8
AM_VIS
100
AcDbLine
 10
51.5113795763566
 20
569.630817792212
 30
0.0
 11
89.98178341328753
 21
569.630817792212
 31
0.0
  0
LINE
  5
7970
330
2
100
AcDbEntity
  8
AM_VIS
100
AcDbLine
 10
44.74658149482206
 20
569.630817792212
 30
0.0
 11
45.51617382402582
 21
569.630817792212
 31
0.0
  0
LINE
  5
7971
330
2
100
AcDbEntity
  8
AM_VIS
100
AcDbLine
 10
95.9769891656183
 20
569.630817792212
 30
0.0
 11
96.74658149482207
 21
569.630817792212
 31
0.0
  0
SPLINE
  5
7972
330
2
100
AcDbEntity
  8
AM_VIS
100
AcDbSpline
210
0.0
220
0.0
230
1.0
 70
     8
 71
     3
 72
     8
 73
     4
 74
     0
 42
0.0000000001
 43
0.0000000001
 40
0.0
 40
0.0
 40
0.0
 40
0.0
 40
80.0
 40
80.0
 40
80.0
 40
80.0
 10
80.66405086805957
 20
523.0785711211154
 30
0.0
 10
80.57391350156718
 20
523.0077488993225
 30
0.0
 10
80.52884485516143
 20
522.8644948849056
 30
0.0
 10
80.52884485516143
 20
522.6488091515462
 30
0.0
  0
LINE
  5
7973
330
2
100
AcDbEntity
  8
AM_VIS
100
AcDbLine
 10
80.52884485516143
 20
522.6488091515462
 30
0.0
 11
80.52884485516143
 21
520.1136964097055
 31
0.0
  0
SPLINE
  5
7974
330
2
100
AcDbEntity
  8
AM_VIS
100
AcDbSpline
210
0.0
220
0.0
230
1.0
 70
     8
 71
     3
 72
     8
 73
     4
 74
     0
 42
0.0000000001
 43
0.0000000001
 40
0.0
 40
0.0
 40
0.0
 40
0.0
 40
80.0
 40
80.0
 40
80.0
 40
80.0
 10
80.52884485516143
 20
520.1136964097055
 30
0.0
 10
80.52884485516143
 20
519.9978055415071
 30
0.0
 10
80.55781757221097
 20
519.925373748883
 30
0.0
 10
80.61576300631031
 20
519.8964010318335
 30
0.0
  0
SPLINE
  5
7975
330
2
100
AcDbEntity
  8
AM_VIS
100
AcDbSpline
210
0.0
220
0.0
230
1.0
 70
     8
 71
     3
 72
     8
 73
     4
 74
     0
 42
0.0000000001
 43
0.0000000001
 40
0.0
 40
0.0
 40
0.0
 40
0.0
 40
69.91902018706094
 40
69.91902018706094
 40
69.91902018706094
 40
69.91902018706094
 10
80.61576300631031
 20
519.8964010318335
 30
0.0
 10
80.66922009640279
 20
519.8738927867626
 30
0.0
 10
80.78292256868394
 20
519.8612204788101
 30
0.0
 10
80.95687042315331
 20
519.8583841571656
 30
0.0
  0
LINE
  5
7976
330
2
100
AcDbEntity
  8
AM_VIS
100
AcDbLine
 10
80.95687042315331
 20
519.6935920124862
 30
0.0
 11
79.74658149482206
 21
519.6935920124862
 31
0.0
  0
LINE
  5
7977
330
2
100
AcDbEntity
  8
AM_VIS
100
AcDbLine
 10
79.74658149482206
 20
519.6935920124862
 30
0.0
 11
79.74658149482206
 21
519.7901677359849
 31
0.0
  0
SPLINE
  5
7978
330
2
100
AcDbEntity
  8
AM_VIS
100
AcDbSpline
210
0.0
220
0.0
230
1.0
 70
     8
 71
     3
 72
     8
 73
     4
 74
     0
 42
0.0000000001
 43
0.0000000001
 40
0.0
 40
0.0
 40
0.0
 40
0.0
 40
80.0
 40
80.0
 40
80.0
 40
80.0
 10
79.74658149482206
 20
519.7901677359849
 30
0.0
 10
79.91397936643216
 20
519.8062637390222
 30
0.0
 10
80.03147987914326
 20
519.8448940284216
 30
0.0
 10
80.09908288559222
 20
519.9060586041833
 30
0.0
  0
SPLINE
  5
7979
330
2
100
AcDbEntity
  8
AM_VIS
100
AcDbSpline
210
0.0
220
0.0
230
1.0
 70
     8
 71
     3
 72
     8
 73
     4
 74
     0
 42
0.0000000001
 43
0.0000000001
 40
0.0
 40
0.0
 40
0.0
 40
0.0
 40
80.0
 40
80.0
 40
80.0
 40
80.0
 10
80.09908288559222
 20
519.9060586041833
 30
0.0
 10
80.18278182139738
 20
519.9865383983262
 30
0.0
 10
80.22463132614053
 20
520.1265731237177
 30
0.0
 10
80.22463132614053
 20
520.3261630014027
 30
0.0
  0
LINE
  5
797A
330
2
100
AcDbEntity
  8
AM_VIS
100
AcDbLine
 10
80.22463132614053
 20
520.3261630014027
 30
0.0
 11
80.22463132614053
 21
522.6488091515462
 31
0.0
  0
SPLINE
  5
797B
330
2
100
AcDbEntity
  8
AM_VIS
100
AcDbSpline
210
0.0
220
0.0
230
1.0
 70
     8
 71
     3
 72
     8
 73
     4
 74
     0
 42
0.0000000001
 43
0.0000000001
 40
0.0
 40
0.0
 40
0.0
 40
0.0
 40
80.0
 40
80.0
 40
80.0
 40
80.0
 10
80.22463132614053
 20
522.6488091515462
 30
0.0
 10
80.22463132614053
 20
522.8548373125557
 30
0.0
 10
80.18117225056608
 20
522.9932625407979
 30
0.0
 10
80.09425409941741
 20
523.0640847625905
 30
0.0
  0
SPLINE
  5
797C
330
2
100
AcDbEntity
  8
AM_VIS
100
AcDbSpline
210
0.0
220
0.0
230
1.0
 70
     8
 71
     3
 72
     8
 73
     4
 74
     0
 42
0.0000000001
 43
0.0000000001
 40
0.0
 40
0.0
 40
0.0
 40
0.0
 40
80.0
 40
80.0
 40
80.0
 40
80.0
 10
80.09425409941741
 20
523.0640847625905
 30
0.0
 10
80.03630866531807
 20
523.1091534089961
 30
0.0
 10
79.92041772343828
 20
523.1381261260459
 30
0.0
 10
79.74658149482206
 20
523.1510029137394
 30
0.0
  0
LINE
  5
797D
330
2
100
AcDbEntity
  8
AM_VIS
100
AcDbLine
 10
79.74658149482206
 20
523.1510029137394
 30
0.0
 11
79.74658149482206
 21
523.2475786372382
 31
0.0
  0
LINE
  5
797E
330
2
100
AcDbEntity
  8
AM_VIS
100
AcDbLine
 10
79.74658149482206
 20
523.2475786372382
 30
0.0
 11
80.95687042315331
 21
523.2475786372382
 31
0.0
  0
SPLINE
  5
797F
330
2
100
AcDbEntity
  8
AM_VIS
100
AcDbSpline
210
0.0
220
0.0
230
1.0
 70
     8
 71
     3
 72
     8
 73
     4
 74
     0
 42
0.0000000001
 43
0.0000000001
 40
11.50275187972993
 40
11.50275187972993
 40
11.50275187972993
 40
11.50275187972993
 40
80.0
 40
80.0
 40
80.0
 40
80.0
 10
80.95687042315331
 20
523.1495054622447
 30
0.0
 10
80.81678377743605
 20
523.1435607220849
 30
0.0
 10
80.71917727448795
 20
523.1199159417084
 30
0.0
 10
80.66405086805957
 20
523.0785711211154
 30
0.0
  0
LINE
  5
7980
330
2
100
AcDbEntity
  8
AM_VIS
100
AcDbLine
 10
88.73053817328809
 20
523.329668002212
 30
0.0
 11
88.6049897327398
 21
523.3200104298622
 31
0.0
  0
LINE
  5
7981
330
2
100
AcDbEntity
  8
AM_VIS
100
AcDbLine
 10
88.76916846268727
 20
522.1659305340582
 30
0.0
 11
88.73053817328786
 21
523.3296680022171
 31
0.0
  0
LINE
  5
7982
330
2
100
AcDbEntity
  8
AM_VIS
100
AcDbLine
 10
88.66776395301394
 20
522.1562729617029
 30
0.0
 11
88.7691684626875
 21
522.1659305340527
 31
0.0
  0
SPLINE
  5
7983
330
2
100
AcDbEntity
  8
AM_VIS
100
AcDbSpline
210
0.0
220
0.0
230
1.0
 70
     8
 71
     3
 72
    14
 73
    10
 74
     0
 42
0.0000000001
 43
0.0000000001
 40
-1.706964598607035
 40
-1.706964598607035
 40
-1.706964598607035
 40
-1.706964598607035
 40
-1.270530423358237
 40
-1.270530423358237
 40
-0.8928963665178809
 40
-0.8928963665178809
 40
-0.4854625957733438
 40
-0.4854625957733438
 40
0.0
 40
0.0
 40
0.0
 40
0.0
 10
88.66776395301394
 20
522.1562729617029
 30
0.0
 10
88.63576967908739
 20
522.2969144473341
 30
0.0
 10
88.59260773079018
 20
522.4366320725003
 30
0.0
 10
88.48307236788992
 20
522.676688503967
 30
0.0
 10
88.42048172923227
 20
522.7800933501809
 30
0.0
 10
88.25943251427839
 20
522.9647959203549
 30
0.0
 10
88.16292663292847
 20
523.038663252168
 30
0.0
 10
87.92217325679962
 20
523.1507646600165
 30
0.0
 10
87.78155828820535
 20
523.1751468446142
 30
0.0
 10
87.63923249775279
 20
523.1751468446142
 30
0.0
  0
ARC
  5
7984
330
2
100
AcDbEntity
  8
AM_VIS
100
AcDbCircle
 10
87.64994929235195
 20
521.764698692974
 30
0.0
 40
1.41048886495118
100
AcDbArc
 50
90.43533346745631
 51
109.6487138035932
  0
ARC
  5
7985
330
2
100
AcDbEntity
  8
AM_VIS
100
AcDbCircle
 10
87.55083372145326
 20
522.0491063777512
 30
0.0
 40
1.10931620948714
100
AcDbArc
 50
109.7669144302169
 51
135.0881955613225
  0
ARC
  5
7986
330
2
100
AcDbEntity
  8
AM_VIS
100
AcDbCircle
 10
88.40725379007791
 20
521.6019171855131
 30
0.0
 40
2.051856978316659
100
AcDbArc
 50
143.1555209322707
 51
183.6698019538814
  0
ARC
  5
7987
330
2
100
AcDbEntity
  8
AM_VIS
100
AcDbCircle
 10
88.0828852566101
 20
521.3602471241411
 30
0.0
 40
1.726809848148664
100
AcDbArc
 50
176.3364680555067
 51
221.9706485802952
  0
ARC
  5
7988
330
2
100
AcDbEntity
  8
AM_VIS
100
AcDbCircle
 10
87.69063115033782
 20
521.040890534494
 30
0.0
 40
1.221857537780324
100
AcDbArc
 50
223.137515549257
 51
270.7598826177913
  0
ARC
  5
7989
330
2
100
AcDbEntity
  8
AM_VIS
100
AcDbCircle
 10
87.65800431348202
 20
521.2184468896513
 30
0.0
 40
1.400158201327294
100
AcDbArc
 50
271.9986231623276
 51
323.1775395691624
  0
LINE
  5
798A
330
2
100
AcDbEntity
  8
AM_VIS
100
AcDbLine
 10
88.83677146913669
 20
520.2923614981781
 30
0.0
 11
88.77882603503735
 21
520.379279649327
 31
0.0
  0
ARC
  5
798B
330
2
100
AcDbEntity
  8
AM_VIS
100
AcDbCircle
 10
87.73470680267882
 20
520.9981363062714
 30
0.0
 40
1.308688125106221
100
AcDbArc
 50
304.9428641437752
 51
327.3640367584335
  0
ARC
  5
798C
330
2
100
AcDbEntity
  8
AM_VIS
100
AcDbCircle
 10
87.58641513808152
 20
521.1461293481939
 30
0.0
 40
1.515383689711188
100
AcDbArc
 50
269.4409543896054
 51
306.334152754476
  0
ARC
  5
798D
330
2
100
AcDbEntity
  8
AM_VIS
100
AcDbCircle
 10
87.5323810837674
 20
521.0730795631749
 30
0.0
 40
1.442795707463603
100
AcDbArc
 50
224.8383702164617
 51
271.5588108108355
  0
ARC
  5
798E
330
2
100
AcDbEntity
  8
AM_VIS
100
AcDbCircle
 10
87.95253072989954
 20
521.3587339484917
 30
0.0
 40
1.944399541054823
100
AcDbArc
 50
176.4171513653821
 51
222.0764046455328
  0
ARC
  5
798F
330
2
100
AcDbEntity
  8
AM_VIS
100
AcDbCircle
 10
87.93732368174437
 20
521.5673952742898
 30
0.0
 40
1.927363580549557
100
AcDbArc
 50
138.0242479486508
 51
182.591709573883
  0
ARC
  5
7990
330
2
100
AcDbEntity
  8
AM_VIS
100
AcDbCircle
 10
87.57781831699913
 20
521.8763297442661
 30
0.0
 40
1.453516837781639
100
AcDbArc
 50
89.10185128527876
 51
137.5996082595608
  0
ARC
  5
7991
330
2
100
AcDbEntity
  8
AM_VIS
100
AcDbCircle
 10
87.57910914790931
 20
521.4699106122528
 30
0.0
 40
1.859881582562518
100
AcDbArc
 50
72.40178008445972
 51
89.33786695098985
  0
LINE
  5
7992
330
2
100
AcDbEntity
  8
AM_VIS
100
AcDbLine
 10
88.14141014718847
 20
523.2426957396909
 30
0.0
 11
88.43574951746019
 21
523.155050227802
 31
0.0
  0
SPLINE
  5
7993
330
2
100
AcDbEntity
  8
AM_VIS
100
AcDbSpline
210
0.0
220
0.0
230
1.0
 70
     8
 71
     3
 72
    14
 73
    10
 74
     0
 42
0.0000000001
 43
0.0000000001
 40
-0.276621112061822
 40
-0.276621112061822
 40
-0.276621112061822
 40
-0.276621112061822
 40
-0.2249149572444357
 40
-0.2249149572444357
 40
-0.1766768488555395
 40
-0.1766768488555395
 40
-0.1050668319936997
 40
-0.1050668319936997
 40
0.0
 40
0.0
 40
0.0
 40
0.0
 10
88.43598221661705
 20
523.1558316999143
 30
0.0
 10
88.45094095553918
 20
523.1558316999143
 30
0.0
 10
88.46585986488207
 20
523.1575797150286
 30
0.0
 10
88.49393247499097
 20
523.1654693633385
 30
0.0
 10
88.50683326641547
 20
523.1712226973055
 30
0.0
 10
88.53696110506348
 20
523.1909277974303
 30
0.0
 10
88.5520871929482
 20
523.2067367593189
 30
0.0
 10
88.58340552623918
 20
523.2532645944189
 30
0.0
 10
88.59612558076491
 20
523.2865236259985
 30
0.0
 10
88.6049897327398
 20
523.3200104298622
 30
0.0
  0
LINE
  5
7994
330
2
100
AcDbEntity
  8
AM_VIS
100
AcDbLine
 10
81.03103861735462
 20
523.2475786372382
 30
0.0
 11
81.03103861735462
 21
523.1510029137394
 31
0.0
  0
LINE
  5
7995
330
2
100
AcDbEntity
  8
AM_VIS
100
AcDbLine
 10
80.95686504815626
 20
523.1497743822548
 30
0.0
 11
81.03103354257177
 21
523.151256813545
 31
0.0
  0
LINE
  5
7996
330
2
100
AcDbEntity
  8
AM_VIS
100
AcDbLine
 10
80.95687042315331
 20
523.1495054622447
 30
0.0
 11
80.95687042315331
 21
523.2475786372382
 31
0.0
  0
LINE
  5
7997
330
2
100
AcDbEntity
  8
AM_VIS
100
AcDbLine
 10
80.95687042315331
 20
519.6935920124862
 30
0.0
 11
80.95687042315331
 21
519.8583841571656
 31
0.0
  0
LINE
  5
7998
330
2
100
AcDbEntity
  8
AM_VIS
100
AcDbLine
 10
80.95686957686211
 20
519.858274078185
 30
0.0
 11
81.0358666040031
 21
519.8576667462174
 31
0.0
  0
ARC
  5
7999
330
2
100
AcDbEntity
  8
AM_VIS
100
AcDbCircle
 10
81.1642160012018
 20
522.4088617700596
 30
0.0
 40
2.554317676749783
100
AcDbArc
 50
267.1198057810108
 51
286.0692242834432
  0
SPLINE
  5
799A
330
2
100
AcDbEntity
  8
AM_VIS
100
AcDbSpline
210
0.0
220
0.0
230
1.0
 70
     8
 71
     3
 72
    12
 73
     8
 74
     0
 42
0.0000000001
 43
0.0000000001
 40
-0.8364857571736971
 40
-0.8364857571736971
 40
-0.8364857571736971
 40
-0.8364857571736971
 40
-0.6551944784409946
 40
-0.6551944784409946
 40
-0.4567880596337164
 40
-0.4567880596337164
 40
0.0
 40
0.0
 40
0.0
 40
0.0
 10
81.87124741179331
 20
519.9543464659326
 30
0.0
 10
81.92449548067679
 20
519.9771670751735
 30
0.0
 10
81.97363398487709
 20
520.0078637330899
 30
0.0
 10
82.06872943097824
 20
520.0854437045189
 30
0.0
 10
82.11310708519363
 20
520.1328971450858
 30
0.0
 10
82.24413902891001
 20
520.3023356299146
 30
0.0
 10
82.3143712031001
 20
520.4458903808069
 30
0.0
 10
82.36861238781171
 20
520.5869174548491
 30
0.0
  0
LINE
  5
799B
330
2
100
AcDbEntity
  8
AM_VIS
100
AcDbLine
 10
82.25755030578808
 20
519.6935920124862
 30
0.0
 11
82.47001689748527
 21
520.5869174548491
 31
0.0
  0
ARC
  5
799C
330
2
100
AcDbEntity
  8
AM_VIS
100
AcDbCircle
 10
84.19246393815773
 20
522.2015026261153
 30
0.0
 40
1.002707839981438
100
AcDbArc
 50
37.92646899627619
 51
89.22848169100838
  0
ARC
  5
799D
330
2
100
AcDbEntity
  8
AM_VIS
100
AcDbCircle
 10
84.2204379481925
 20
522.2192257827365
 30
0.0
 40
0.985000104940955
100
AcDbArc
 50
90.84186637718644
 51
142.5761538611147
  0
ARC
  5
799E
330
2
100
AcDbEntity
  8
AM_VIS
100
AcDbCircle
 10
85.08218446380078
 20
521.5963784580593
 30
0.0
 40
2.04808055135714
100
AcDbArc
 50
143.3887912036235
 51
183.2506771203163
  0
ARC
  5
799F
330
2
100
AcDbEntity
  8
AM_VIS
100
AcDbCircle
 10
85.0692998860045
 20
521.3643365556464
 30
0.0
 40
2.035203768908707
100
AcDbArc
 50
176.7351970358481
 51
216.0438836322157
  0
ARC
  5
79A0
330
2
100
AcDbEntity
  8
AM_VIS
100
AcDbCircle
 10
84.21028656123031
 20
520.7500930643622
 30
0.0
 40
0.979250006609954
100
AcDbArc
 50
216.5582356740941
 51
269.7471760991996
  0
ARC
  5
79A1
330
2
100
AcDbEntity
  8
AM_VIS
100
AcDbCircle
 10
84.19741683453002
 20
520.7778511428354
 30
0.0
 40
1.007034837020827
100
AcDbArc
 50
270.4863882412804
 51
322.6437141128737
  0
ARC
  5
79A2
330
2
100
AcDbEntity
  8
AM_VIS
100
AcDbCircle
 10
83.35205013286691
 20
521.3644067345368
 30
0.0
 40
2.035437994852099
100
AcDbArc
 50
323.9584711511505
 51
3.262448180781951
  0
ARC
  5
79A3
330
2
100
AcDbEntity
  8
AM_VIS
100
AcDbCircle
 10
83.34112204354211
 20
521.5968932019594
 30
0.0
 40
2.046394714833357
100
AcDbArc
 50
356.7322066907725
 51
36.62832498527938
  0
ARC
  5
79A4
330
2
100
AcDbEntity
  8
AM_VIS
100
AcDbCircle
 10
84.69889804995274
 20
521.386556703712
 30
0.0
 40
2.011135320933695
100
AcDbArc
 50
177.4676928802007
 51
218.910398519097
  0
ARC
  5
79A5
330
2
100
AcDbEntity
  8
AM_VIS
100
AcDbCircle
 10
84.67769999522147
 20
521.5748094771303
 30
0.0
 40
1.990456577465743
100
AcDbArc
 50
139.5530930067719
 51
182.8623103462505
  0
ARC
  5
79A6
330
2
100
AcDbEntity
  8
AM_VIS
100
AcDbCircle
 10
84.18584205188381
 20
521.9697690451597
 30
0.0
 40
1.360047840209245
100
AcDbArc
 50
89.15221196288149
 51
138.7727659862755
  0
ARC
  5
79A7
330
2
100
AcDbEntity
  8
AM_VIS
100
AcDbCircle
 10
84.22848247686374
 20
521.964498994393
 30
0.0
 40
1.365354691251932
100
AcDbArc
 50
41.32621163416247
 51
90.9449446864726
  0
ARC
  5
79A8
330
2
100
AcDbEntity
  8
AM_VIS
100
AcDbCircle
 10
83.73082869655901
 20
521.5789314822233
 30
0.0
 40
1.994064438237499
100
AcDbArc
 50
357.0242808667154
 51
40.20334160779728
  0
ARC
  5
79A9
330
2
100
AcDbEntity
  8
AM_VIS
100
AcDbCircle
 10
83.69998260408214
 20
521.3852004502065
 30
0.0
 40
2.02423305009392
100
AcDbArc
 50
321.4373391742525
 51
2.554337613930566
  0
ARC
  5
79AA
330
2
100
AcDbEntity
  8
AM_VIS
100
AcDbCircle
 10
84.23483703561101
 20
520.9910761568384
 30
0.0
 40
1.360564729266343
100
AcDbArc
 50
268.7840786195701
 51
320.3745496118265
  0
ARC
  5
79AB
330
2
100
AcDbEntity
  8
AM_VIS
100
AcDbCircle
 10
84.17948504118612
 20
520.9860298183979
 30
0.0
 40
1.355470712360747
100
AcDbArc
 50
219.5268716611502
 51
271.1194019981653
  0
SPLINE
  5
79AC
330
2
100
AcDbEntity
  8
AM_VIS
100
AcDbSpline
210
0.0
220
0.0
230
1.0
 70
     8
 71
     3
 72
    12
 73
     8
 74
     0
 42
0.0000000001
 43
0.0000000001
 40
-0.447473408859837
 40
-0.447473408859837
 40
-0.447473408859837
 40
-0.447473408859837
 40
-0.1908836137139183
 40
-0.1908836137139183
 40
-0.0638795944550511
 40
-0.0638795944550511
 40
0.0
 40
0.0
 40
0.0
 40
0.0
 10
91.00972524785744
 20
522.5860349312721
 30
0.0
 10
91.07440711663912
 20
522.6655397559465
 30
0.0
 10
91.13703965049285
 20
522.7509298894464
 30
0.0
 10
91.20257611957027
 20
522.8706117491403
 30
0.0
 10
91.22163101374804
 20
522.9124898653696
 30
0.0
 10
91.23774654965586
 20
522.9729102487771
 30
0.0
 10
91.24150696800871
 20
522.9945037026896
 30
0.0
 10
91.24150698425433
 20
523.0157969008413
 30
0.0
  0
ARC
  5
79AD
330
2
100
AcDbEntity
  8
AM_VIS
100
AcDbCircle
 10
91.14471391149232
 20
523.0260097502438
 30
0.0
 40
0.0973303715578021
100
AcDbArc
 50
353.9768821005673
 51
69.54207806905793
  0
ARC
  5
79AE
330
2
100
AcDbEntity
  8
AM_VIS
100
AcDbCircle
 10
90.91793613205869
 20
522.1335523224994
 30
0.0
 40
1.017634714214914
100
AcDbArc
 50
75.15071826331494
 51
88.91006094804554
  0
LINE
  5
79AF
330
2
100
AcDbEntity
  8
AM_VIS
100
AcDbLine
 10
90.93729345523319
 20
523.1510029137394
 30
0.0
 11
90.93729345523319
 21
523.2475786372382
 31
0.0
  0
LINE
  5
79B0
330
2
100
AcDbEntity
  8
AM_VIS
100
AcDbLine
 10
91.64059977757483
 20
523.2475786372382
 30
0.0
 11
91.64059977757483
 21
523.0360191890075
 31
0.0
  0
SPLINE
  5
79B1
330
2
100
AcDbEntity
  8
AM_VIS
100
AcDbSpline
210
0.0
220
0.0
230
1.0
 70
     8
 71
     3
 72
     8
 73
     4
 74
     0
 42
0.0000000001
 43
0.0000000001
 40
-0.3758505634013368
 40
-0.3758505634013368
 40
-0.3758505634013368
 40
-0.3758505634013368
 40
0.0
 40
0.0
 40
0.0
 40
0.0
 10
91.64059977757483
 20
523.0360191890075
 30
0.0
 10
91.5534129232194
 20
522.9707859493425
 30
0.0
 10
91.46113896013753
 20
522.8739968241085
 30
0.0
 10
91.38637056950233
 20
522.7888439506192
 30
0.0
  0
LINE
  5
79B2
330
2
100
AcDbEntity
  8
AM_VIS
100
AcDbLine
 10
90.41578454834029
 20
521.7265109921337
 30
0.0
 11
91.38637056950233
 21
522.7888439506192
 31
0.0
  0
LINE
  5
79B3
330
2
100
AcDbEntity
  8
AM_VIS
100
AcDbLine
 10
91.5795220164996
 20
520.2923614981781
 30
0.0
 11
90.41578454834029
 21
521.7265109921337
 31
0.0
  0
LINE
  5
79B4
330
2
100
AcDbEntity
  8
AM_VIS
100
AcDbLine
 10
91.57939979589674
 20
520.2922582812638
 30
0.0
 11
91.64047232590428
 21
520.2199414378616
 31
0.0
  0
LINE
  5
79B5
330
2
100
AcDbEntity
  8
AM_VIS
100
AcDbLine
 10
91.64059977757483
 20
520.2200490724816
 30
0.0
 11
91.64059977757483
 21
519.6935920124862
 31
0.0
  0
LINE
  5
79B6
330
2
100
AcDbEntity
  8
AM_VIS
100
AcDbLine
 10
90.96626617228299
 20
519.6935920124862
 30
0.0
 11
90.96626617228299
 21
519.7901677359849
 31
0.0
  0
ARC
  5
79B7
330
2
100
AcDbEntity
  8
AM_VIS
100
AcDbCircle
 10
90.90114206882754
 20
520.9300737364324
 30
0.0
 40
1.141764791324215
100
AcDbArc
 50
273.2698174701744
 51
287.8522039122152
  0
SPLINE
  5
79B8
330
2
100
AcDbEntity
  8
AM_VIS
100
AcDbSpline
210
0.0
220
0.0
230
1.0
 70
     8
 71
     3
 72
    14
 73
    10
 74
     0
 42
0.0000000001
 43
0.0000000001
 40
-0.1628232258807955
 40
-0.1628232258807955
 40
-0.1628232258807955
 40
-0.1628232258807955
 40
-0.1278843595755925
 40
-0.1278843595755925
 40
-0.096316472142314
 40
-0.096316472142314
 40
-0.0539764738041701
 40
-0.0539764738041701
 40
0.0
 40
0.0
 40
0.0
 40
0.0
 10
91.25116455660394
 20
519.8432843839092
 30
0.0
 10
91.26020423702062
 20
519.8469002560758
 30
0.0
 10
91.26903628020045
 20
519.8515048755626
 30
0.0
 10
91.28465536022918
 20
519.862698996524
 30
0.0
 10
91.2914993674674
 20
519.8690121337468
 30
0.0
 10
91.30560529527679
 20
519.8865681576856
 30
0.0
 10
91.31175068943434
 20
519.8981823671402
 30
0.0
 10
91.32150748928234
 20
519.9279886681459
 30
0.0
 10
91.32359634922819
 20
519.9460118803478
 30
0.0
 10
91.32359634922819
 20
519.9640040382824
 30
0.0
  0
ARC
  5
79B9
330
2
100
AcDbEntity
  8
AM_VIS
100
AcDbCircle
 10
87.71156087118948
 20
518.1372643591158
 30
0.0
 40
4.047688000581421
100
AcDbArc
 50
26.82740810036826
 51
42.4994836066237
  0
LINE
  5
79BA
330
2
100
AcDbEntity
  8
AM_VIS
100
AcDbLine
 10
90.19366038429348
 20
521.4850716833869
 30
0.0
 11
90.69585414648669
 21
520.8718158391703
 31
0.0
  0
LINE
  5
79BB
330
2
100
AcDbEntity
  8
AM_VIS
100
AcDbLine
 10
89.9329059308468
 20
521.2243172299405
 30
0.0
 11
90.19366038429348
 21
521.4850716833869
 31
0.0
  0
LINE
  5
79BC
330
2
100
AcDbEntity
  8
AM_VIS
100
AcDbLine
 10
89.9329059308468
 20
521.2243172299405
 30
0.0
 11
89.9329059308468
 21
520.2875327120031
 31
0.0
  0
ARC
  5
79BD
330
2
100
AcDbEntity
  8
AM_VIS
100
AcDbCircle
 10
90.50142641646857
 20
520.2344435422259
 30
0.0
 40
0.5709938725758855
100
AcDbArc
 50
174.6651178003267
 51
215.1074158977072
  0
ARC
  5
79BE
330
2
100
AcDbEntity
  8
AM_VIS
100
AcDbCircle
 10
90.42930037084648
 20
520.5209081145132
 30
0.0
 40
0.7307920124165488
100
AcDbArc
 50
237.2826112600702
 51
269.3189002719329
  0
LINE
  5
79BF
330
2
100
AcDbEntity
  8
AM_VIS
100
AcDbLine
 10
90.42061333451533
 20
519.7901677359849
 30
0.0
 11
90.42061333451533
 21
519.6935920124862
 31
0.0
  0
LINE
  5
79C0
330
2
100
AcDbEntity
  8
AM_VIS
100
AcDbLine
 10
89.14098499815759
 20
519.6935920124862
 30
0.0
 11
89.14098499815759
 21
519.7901677359849
 31
0.0
  0
SPLINE
  5
79C1
330
2
100
AcDbEntity
  8
AM_VIS
100
AcDbSpline
210
0.0
220
0.0
230
1.0
 70
     8
 71
     3
 72
    10
 73
     6
 74
     0
 42
0.0000000001
 43
0.0000000001
 40
-0.4230995852053584
 40
-0.4230995852053584
 40
-0.4230995852053584
 40
-0.4230995852053584
 40
-0.1061256929813819
 40
-0.1061256929813819
 40
0.0
 40
0.0
 40
0.0
 40
0.0
 10
89.14098499815759
 20
519.7901677359849
 30
0.0
 10
89.25841363742506
 20
519.7999534857875
 30
0.0
 10
89.3710638524392
 20
519.8207393757312
 30
0.0
 10
89.48144164715632
 20
519.8752077170373
 30
0.0
 10
89.50922921584675
 20
519.8928287140528
 30
0.0
 10
89.53211667832716
 20
519.9157161765332
 30
0.0
  0
SPLINE
  5
79C2
330
2
100
AcDbEntity
  8
AM_VIS
100
AcDbSpline
210
0.0
220
0.0
230
1.0
 70
     8
 71
     3
 72
    12
 73
     8
 74
     0
 42
0.0000000001
 43
0.0000000001
 40
-0.4479981359946353
 40
-0.4479981359946353
 40
-0.4479981359946353
 40
-0.4479981359946353
 40
-0.3659892905244749
 40
-0.3659892905244749
 40
-0.2659742177172149
 40
-0.2659742177172149
 40
0.0
 40
0.0
 40
0.0
 40
0.0
 10
89.53211667832716
 20
519.9157161765332
 30
0.0
 10
89.5487720972717
 20
519.9350014206449
 30
0.0
 10
89.56185971206924
 20
519.958395318171
 30
0.0
 10
89.5849321698463
 20
520.0130393358009
 30
0.0
 10
89.59413404297015
 20
520.0461527061159
 30
0.0
 10
89.61899467540229
 20
520.1652256400167
 30
0.0
 10
89.62386361565108
 20
520.2664776458797
 30
0.0
 10
89.62386361565108
 20
520.3551357184522
 30
0.0
  0
LINE
  5
79C3
330
2
100
AcDbEntity
  8
AM_VIS
100
AcDbLine
 10
89.62386361565108
 20
520.3551357184522
 30
0.0
 11
89.62386361565108
 21
522.6777818685958
 31
0.0
  0
SPLINE
  5
79C4
330
2
100
AcDbEntity
  8
AM_VIS
100
AcDbSpline
210
0.0
220
0.0
230
1.0
 70
     8
 71
     3
 72
    12
 73
     8
 74
     0
 42
0.0000000001
 43
0.0000000001
 40
-0.4329187047158288
 40
-0.4329187047158288
 40
-0.4329187047158288
 40
-0.4329187047158288
 40
-0.2063024014262036
 40
-0.2063024014262036
 40
-0.0902267369376524
 40
-0.0902267369376524
 40
0.0
 40
0.0
 40
0.0
 40
0.0
 10
89.62386361565108
 20
522.6777818685958
 30
0.0
 10
89.62386361565108
 20
522.7530380091028
 30
0.0
 10
89.61832620652899
 20
522.83542781084
 30
0.0
 10
89.59009115342519
 20
522.9446223901353
 30
0.0
 10
89.57661451501667
 20
522.9807999059836
 30
0.0
 10
89.54253112979017
 20
523.0366010363349
 30
0.0
 10
89.52459989289833
 20
523.0574358104083
 30
0.0
 10
89.50314396127783
 20
523.0737423349404
 30
0.0
  0
ARC
  5
79C5
330
2
100
AcDbEntity
  8
AM_VIS
100
AcDbCircle
 10
89.13884815172355
 20
522.2535460868672
 30
0.0
 40
0.8974593707862915
100
AcDbArc
 50
66.05127081785981
 51
89.86357889636833
  0
LINE
  5
79C6
330
2
100
AcDbEntity
  8
AM_VIS
100
AcDbLine
 10
89.14098499815759
 20
523.1510029137394
 30
0.0
 11
89.14098499815759
 21
523.2475786372382
 31
0.0
  0
LINE
  5
79C7
330
2
100
AcDbEntity
  8
AM_VIS
100
AcDbLine
 10
90.43027090686519
 20
523.2475786372382
 30
0.0
 11
90.43027090686519
 21
523.1510029137394
 31
0.0
  0
SPLINE
  5
79C8
330
2
100
AcDbEntity
  8
AM_VIS
100
AcDbSpline
210
0.0
220
0.0
230
1.0
 70
     8
 71
     3
 72
    10
 73
     6
 74
     0
 42
0.0000000001
 43
0.0000000001
 40
-0.3259767420877853
 40
-0.3259767420877853
 40
-0.3259767420877853
 40
-0.3259767420877853
 40
-0.0666918747446805
 40
-0.0666918747446805
 40
0.0
 40
0.0
 40
0.0
 40
0.0
 10
90.43027090686519
 20
523.1510029137394
 30
0.0
 10
90.29780406907184
 20
523.1406539116879
 30
0.0
 10
90.17387858919756
 20
523.1232571331284
 30
0.0
 10
90.07500782076817
 20
523.0857053687747
 30
0.0
 10
90.0548433512697
 20
523.0760937903236
 30
0.0
 10
90.03913922669539
 20
523.0640847625905
 30
0.0
  0
SPLINE
  5
79C9
330
2
100
AcDbEntity
  8
AM_VIS
100
AcDbSpline
210
0.0
220
0.0
230
1.0
 70
     8
 71
     3
 72
    12
 73
     8
 74
     0
 42
0.0000000001
 43
0.0000000001
 40
-0.4539031940227421
 40
-0.4539031940227421
 40
-0.4539031940227421
 40
-0.4539031940227421
 40
-0.3617887394012284
 40
-0.3617887394012284
 40
-0.2571436190196215
 40
-0.2571436190196215
 40
0.0
 40
0.0
 40
0.0
 40
0.0
 10
90.03913922669539
 20
523.0640847625905
 30
0.0
 10
90.02064307718365
 20
523.0481108144102
 30
0.0
 10
90.00533458400946
 20
523.0281917847652
 30
0.0
 10
89.97826969551624
 20
522.9798045509856
 30
0.0
 10
89.96753910009671
 20
522.9509997935203
 30
0.0
 10
89.93961730791829
 20
522.849462050187
 30
0.0
 10
89.9329059308468
 20
522.7634964082691
 30
0.0
 10
89.9329059308468
 20
522.6777818685958
 30
0.0
  0
LINE
  5
79CA
330
2
100
AcDbEntity
  8
AM_VIS
100
AcDbLine
 10
89.9329059308468
 20
522.6777818685958
 30
0.0
 11
89.9329059308468
 21
521.4222974631128
 31
0.0
  0
LINE
  5
79CB
330
2
100
AcDbEntity
  8
AM_VIS
100
AcDbLine
 10
89.93610684803503
 20
521.4193146687915
 30
0.0
 11
91.0170027882914
 21
522.5792533105665
 31
0.0
  0
LINE
  5
79CC
330
2
100
AcDbEntity
  8
AM_VIS
100
AcDbLine
 10
105.7465814948221
 20
517.630817792212
 30
0.0
 11
105.7465814948221
 21
537.630817792212
 31
0.0
  0
LINE
  5
79CD
330
2
100
AcDbEntity
  8
AM_VIS
100
AcDbLine
 10
35.74658149482207
 20
517.630817792212
 30
0.0
 11
35.74658149482207
 21
537.630817792212
 31
0.0
  0
LINE
  5
79CE
330
2
100
AcDbEntity
  8
AM_VIS
100
AcDbLine
 10
103.746581494822
 20
514.630817792212
 30
0.0
 11
105.7465814948221
 21
517.630817792212
 31
0.0
  0
LINE
  5
79CF
330
2
100
AcDbEntity
  8
AM_VIS
100
AcDbLine
 10
37.74658149482207
 20
514.630817792212
 30
0.0
 11
35.74658149482207
 21
517.630817792212
 31
0.0
  0
LINE
  5
79D0
330
2
100
AcDbEntity
  8
AM_VIS
100
AcDbLine
 10
101.3406985763788
 20
541.630817792212
 30
0.0
 11
84.24658149482207
 21
541.630817792212
 31
0.0
  0
LINE
  5
79D1
330
2
100
AcDbEntity
  8
AM_VIS
100
AcDbLine
 10
84.24658149482207
 20
542.630817792212
 30
0.0
 11
100.191445223493
 21
542.630817792212
 31
0.0
  0
LINE
  5
79D2
330
2
100
AcDbEntity
  8
AM_VIS
100
AcDbLine
 10
41.30171776615111
 20
542.630817792212
 30
0.0
 11
57.24658149482206
 21
542.630817792212
 31
0.0
  0
LINE
  5
79D3
330
2
100
AcDbEntity
  8
AM_VIS
100
AcDbLine
 10
57.24658149482206
 20
541.630817792212
 30
0.0
 11
40.15246441326531
 21
541.630817792212
 31
0.0
  0
LINE
  5
79D4
330
2
100
AcDbEntity
  8
AM_VIS
100
AcDbLine
 10
62.43995763190401
 20
517.630817792212
 30
0.0
 11
35.74658149482207
 21
517.630817792212
 31
0.0
  0
LINE
  5
79D5
330
2
100
AcDbEntity
  8
AM_VIS
100
AcDbLine
 10
105.7465814948221
 20
517.630817792212
 30
0.0
 11
79.05320535774013
 21
517.630817792212
 31
0.0
  0
LINE
  5
79D6
330
2
100
AcDbEntity
  8
AM_VIS
100
AcDbLine
 10
37.74658149482207
 20
514.630817792212
 30
0.0
 11
103.746581494822
 21
514.630817792212
 31
0.0
  0
ARC
  5
79D7
330
2
100
AcDbEntity
  8
AM_VIS
100
AcDbCircle
 10
57.99658149482207
 20
566.880817792212
 30
0.0
 40
0.9999999999999998
100
AcDbArc
 50
90.0
 51
180.0
  0
ARC
  5
79D8
330
2
100
AcDbEntity
  8
AM_VIS
100
AcDbCircle
 10
83.49658149482207
 20
566.880817792212
 30
0.0
 40
0.9999999999999998
100
AcDbArc
 50
0.0
 51
90.0
  0
LINE
  5
79D9
330
2
100
AcDbEntity
  8
AM_VIS
100
AcDbLine
 10
45.51617382402582
 20
569.630817792212
 30
0.0
 11
51.5113795763566
 21
569.630817792212
 31
0.0
  0
LINE
  5
79DA
330
2
100
AcDbEntity
  8
AM_VIS
100
AcDbLine
 10
89.98178341328753
 20
569.630817792212
 30
0.0
 11
95.9769891656183
 21
569.630817792212
 31
0.0
  0
LINE
  5
79DB
330
2
100
AcDbEntity
  8
AM_VIS
100
AcDbLine
 10
81.03103861735462
 20
523.2475786372382
 30
0.0
 11
80.95687042315331
 21
523.2475786372382
 31
0.0
  0
LINE
  5
79DC
330
2
100
AcDbEntity
  8
AM_VIS
100
AcDbLine
 10
82.47001689748527
 20
520.5869174548491
 30
0.0
 11
82.36861238781171
 21
520.5869174548491
 31
0.0
  0
LINE
  5
79DD
330
2
100
AcDbEntity
  8
AM_VIS
100
AcDbLine
 10
80.95687042315331
 20
519.6935920124862
 30
0.0
 11
82.25755030578808
 21
519.6935920124862
 31
0.0
  0
LINE
  5
79DE
330
2
100
AcDbEntity
  8
AM_VIS
100
AcDbLine
 10
91.64059977757483
 20
523.2475786372382
 30
0.0
 11
90.93729345523319
 21
523.2475786372382
 31
0.0
  0
LINE
  5
79DF
330
2
100
AcDbEntity
  8
AM_VIS
100
AcDbLine
 10
90.96626617228299
 20
519.6935920124862
 30
0.0
 11
91.64059977757483
 21
519.6935920124862
 31
0.0
  0
LINE
  5
79E0
330
2
100
AcDbEntity
  8
AM_VIS
100
AcDbLine
 10
89.14098499815759
 20
519.6935920124862
 30
0.0
 11
90.42061333451533
 21
519.6935920124862
 31
0.0
  0
LINE
  5
79E1
330
2
100
AcDbEntity
  8
AM_VIS
100
AcDbLine
 10
90.43027090686519
 20
523.2475786372382
 30
0.0
 11
89.14098499815759
 21
523.2475786372382
 31
0.0
  0
LINE
  5
79E2
330
2
100
AcDbEntity
  8
AM_VIS
100
AcDbLine
 10
37.74658149482184
 20
579.630817792212
 30
0.0
 11
37.74658149482184
 21
583.630817792212
 31
0.0
  0
LINE
  5
79E3
330
2
100
AcDbEntity
  8
AM_VIS
100
AcDbLine
 10
45.74658149482206
 20
582.630817792212
 30
0.0
 11
45.74658149482206
 21
579.630817792212
 31
0.0
  0
LINE
  5
79E4
330
2
100
AcDbEntity
  8
AM_VIS
100
AcDbLine
 10
95.74658149482207
 20
579.630817792212
 30
0.0
 11
95.74658149482207
 21
582.630817792212
 31
0.0
  0
LINE
  5
79E5
330
2
100
AcDbEntity
  8
AM_VIS
100
AcDbLine
 10
103.7465814948218
 20
579.630817792212
 30
0.0
 11
103.7465814948218
 21
583.630817792212
 31
0.0
  0
LINE
  5
79E6
330
2
100
AcDbEntity
  8
AM_VIS
100
AcDbLine
 10
95.74658149482207
 20
582.630817792212
 30
0.0
 11
103.4502851985255
 21
582.630817792212
 31
0.0
  0
LINE
  5
79E7
330
2
100
AcDbEntity
  8
AM_VIS
100
AcDbLine
 10
93.85646588402256
 20
582.630817792212
 30
0.0
 11
95.74658149482207
 21
582.630817792212
 31
0.0
  0
LINE
  5
79E8
330
2
100
AcDbEntity
  8
AM_VIS
100
AcDbLine
 10
45.74658149482184
 20
582.630817792212
 30
0.0
 11
47.39820653054289
 21
582.630817792212
 31
0.0
  0
LINE
  5
79E9
330
2
100
AcDbEntity
  8
AM_VIS
100
AcDbLine
 10
38.04287779111815
 20
582.630817792212
 30
0.0
 11
45.74658149482206
 21
582.630817792212
 31
0.0
  0
ELLIPSE
  5
79EA
330
2
100
AcDbEntity
  8
AM_VIS
100
AcDbEllipse
 10
38.04287779111815
 20
583.630817792212
 30
0.0
 11
-0.0000000000000004
 21
-1.0
 31
0.0
210
0.0
220
0.0
230
1.0
 40
0.2962962962962991
 41
4.712388980384691
 42
6.283185307179588
  0
LINE
  5
79EB
330
2
100
AcDbEntity
  8
AM_VIS
100
AcDbLine
 10
45.74658149482184
 20
597.630817792212
 30
0.0
 11
48.74658149482252
 21
597.630817792212
 31
0.0
  0
LINE
  5
79EC
330
2
100
AcDbEntity
  8
AM_VIS
100
AcDbLine
 10
50.74658149482207
 20
591.630817792212
 30
0.0
 11
45.74658149482184
 21
591.630817792212
 31
0.0
  0
LINE
  5
79ED
330
2
100
AcDbEntity
  8
AM_VIS
100
AcDbLine
 10
92.74658149482252
 20
597.630817792212
 30
0.0
 11
95.74658149482184
 21
597.630817792212
 31
0.0
  0
LINE
  5
79EE
330
2
100
AcDbEntity
  8
AM_VIS
100
AcDbLine
 10
95.74658149482184
 20
591.630817792212
 30
0.0
 11
90.74658149482207
 21
591.630817792212
 31
0.0
  0
LINE
  5
79EF
330
2
100
AcDbEntity
  8
AM_VIS
100
AcDbLine
 10
37.74658149482184
 20
583.630817792212
 30
0.0
 11
37.74658149482184
 21
594.630817792212
 31
0.0
  0
LINE
  5
79F0
330
2
100
AcDbEntity
  8
AM_VIS
100
AcDbLine
 10
45.74658149482184
 20
602.630817792212
 30
0.0
 11
46.74658149482229
 21
602.630817792212
 31
0.0
  0
LINE
  5
79F1
330
2
100
AcDbEntity
  8
AM_VIS
100
AcDbLine
 10
94.74658149482252
 20
602.630817792212
 30
0.0
 11
95.74658149482184
 21
602.630817792212
 31
0.0
  0
LINE
  5
79F2
330
2
100
AcDbEntity
  8
AM_VIS
100
AcDbLine
 10
103.7465814948218
 20
583.630817792212
 30
0.0
 11
103.7465814948218
 21
594.630817792212
 31
0.0
  0
ELLIPSE
  5
79F3
330
2
100
AcDbEntity
  8
AM_VIS
100
AcDbEllipse
 10
103.4502851985255
 20
583.630817792212
 30
0.0
 11
0.0000000000000001
 21
0.9999999999999998
 31
0.0
210
0.0
220
0.0
230
1.0
 40
0.2962962962962934
 41
3.141592653589791
 42
4.712388980384689
  0
LINE
  5
79F4
330
2
100
AcDbEntity
  8
AM_VIS
100
AcDbLine
 10
45.74658149482206
 20
579.630817792212
 30
0.0
 11
37.74658149482184
 21
579.630817792212
 31
0.0
  0
LINE
  5
79F5
330
2
100
AcDbEntity
  8
AM_VIS
100
AcDbLine
 10
45.74658149482184
 20
579.630817792212
 30
0.0
 11
46.24658149482207
 21
579.630817792212
 31
0.0
  0
LINE
  5
79F6
330
2
100
AcDbEntity
  8
AM_VIS
100
AcDbLine
 10
95.24658149482206
 20
579.630817792212
 30
0.0
 11
95.74658149482207
 21
579.630817792212
 31
0.0
  0
LINE
  5
79F7
330
2
100
AcDbEntity
  8
AM_VIS
100
AcDbLine
 10
103.7465814948218
 20
579.630817792212
 30
0.0
 11
95.74658149482207
 21
579.630817792212
 31
0.0
  0
ARC
  5
79F8
330
2
100
AcDbEntity
  8
AM_VIS
100
AcDbCircle
 10
51.74658149482183
 20
594.630817792212
 30
0.0
 40
3.0
100
AcDbArc
 50
70.52877936549982
 51
90.0
  0
ARC
  5
79F9
330
2
100
AcDbEntity
  8
AM_VIS
100
AcDbCircle
 10
45.74658149482184
 20
594.630817792212
 30
0.0
 40
3.0
100
AcDbArc
 50
90.0
 51
270.0
  0
ARC
  5
79FA
330
2
100
AcDbEntity
  8
AM_VIS
100
AcDbCircle
 10
95.74658149482184
 20
594.630817792212
 30
0.0
 40
3.0
100
AcDbArc
 50
270.0
 51
90.0
  0
ARC
  5
79FB
330
2
100
AcDbEntity
  8
AM_VIS
100
AcDbCircle
 10
89.74658149482184
 20
594.630817792212
 30
0.0
 40
3.0
100
AcDbArc
 50
90.0
 51
109.4712206344899
  0
ARC
  5
79FC
330
2
100
AcDbEntity
  8
AM_VIS
100
AcDbCircle
 10
45.74658149482184
 20
594.630817792212
 30
0.0
 40
8.0
100
AcDbArc
 50
90.0
 51
180.0
  0
ARC
  5
79FD
330
2
100
AcDbEntity
  8
AM_VIS
100
AcDbCircle
 10
95.74658149482184
 20
594.630817792212
 30
0.0
 40
7.999999999999999
100
AcDbArc
 50
0.0
 51
90.0
  0
LINE
  5
79FE
330
2
100
AcDbEntity
  8
AM_VIS
100
AcDbLine
 10
78.84658149482198
 20
701.0975736419813
 30
0.0
 11
82.64658149482215
 21
701.0975736419813
 31
0.0
  0
ARC
  5
79FF
330
2
100
AcDbEntity
  8
AM_VIS
100
AcDbCircle
 10
82.64658149482192
 20
702.9975736419814
 30
0.0
 40
1.9
100
AcDbArc
 50
270.0
 51
296.525352016604
  0
ARC
  5
7A00
330
2
100
AcDbEntity
  8
AM_VIS
100
AcDbCircle
 10
78.84658149482198
 20
702.9975736419814
 30
0.0
 40
1.9
100
AcDbArc
 50
243.474647983396
 51
270.0
  0
LINE
  5
7A01
330
2
100
AcDbEntity
  8
AM_VIS
100
AcDbLine
 10
89.74658149482207
 20
702.2975736419811
 30
0.0
 11
89.74658149482207
 21
710.3100762472335
 31
0.0
  0
LINE
  5
7A02
330
2
100
AcDbEntity
  8
AM_VIS
100
AcDbLine
 10
72.74658149482206
 20
701.2975736419811
 30
0.0
 11
88.74658149482206
 21
701.2975736419811
 31
0.0
  0
LINE
  5
7A03
330
2
100
AcDbEntity
  8
AM_VIS
100
AcDbLine
 10
76.74658149482207
 20
700.7975736419811
 30
0.0
 11
84.74658149482207
 21
700.7975736419811
 31
0.0
  0
LINE
  5
7A04
330
2
100
AcDbEntity
  8
AM_VIS
100
AcDbLine
 10
75.74658149482207
 20
701.2975736419811
 30
0.0
 11
75.74658149482207
 21
700.7975736419811
 31
0.0
  0
LINE
  5
7A05
330
2
100
AcDbEntity
  8
AM_VIS
100
AcDbLine
 10
85.74658149482207
 20
700.7975736419811
 30
0.0
 11
85.74658149482207
 21
701.2975736419811
 31
0.0
  0
ARC
  5
7A06
330
2
100
AcDbEntity
  8
AM_VIS
100
AcDbCircle
 10
72.74658149482206
 20
702.2975736419811
 30
0.0
 40
0.9999999999999998
100
AcDbArc
 50
185.7391704772617
 51
270.0
  0
ARC
  5
7A07
330
2
100
AcDbEntity
  8
AM_VIS
100
AcDbCircle
 10
88.74658149482206
 20
702.2975736419811
 30
0.0
 40
0.9999999999999998
100
AcDbArc
 50
270.0
 51
0.0
  0
LINE
  5
7A08
330
2
100
AcDbEntity
  8
AM_VIS
100
AcDbLine
 10
85.74658149482207
 20
700.7975736419811
 30
0.0
 11
84.74658149482207
 21
700.7975736419811
 31
0.0
  0
LINE
  5
7A09
330
2
100
AcDbEntity
  8
AM_VIS
100
AcDbLine
 10
76.74658149482207
 20
700.7975736419811
 30
0.0
 11
75.74658149482207
 21
700.7975736419811
 31
0.0
  0
LINE
  5
7A0A
330
2
100
AcDbEntity
  8
AM_VIS
100
AcDbLine
 10
84.24658149482207
 20
702.797573641981
 30
0.0
 11
84.24658149482207
 21
715.297573641981
 31
0.0
  0
LINE
  5
7A0B
330
2
100
AcDbEntity
  8
AM_VIS
100
AcDbLine
 10
58.24658149482207
 20
702.797573641981
 30
0.0
 11
83.24658149482207
 21
702.797573641981
 31
0.0
  0
LINE
  5
7A0C
330
2
100
AcDbEntity
  8
AM_VIS
100
AcDbLine
 10
57.24658149482206
 20
715.297573641981
 30
0.0
 11
57.24658149482206
 21
702.797573641981
 31
0.0
  0
LINE
  5
7A0D
330
2
100
AcDbEntity
  8
AM_VIS
100
AcDbLine
 10
60.24658149482206
 20
702.797573641981
 30
0.0
 11
60.24658149482206
 21
702.1975736419811
 31
0.0
  0
LINE
  5
7A0E
330
2
100
AcDbEntity
  8
AM_VIS
100
AcDbLine
 10
81.24658149482206
 20
702.797573641981
 30
0.0
 11
81.24658149482206
 21
702.1975736419811
 31
0.0
  0
LINE
  5
7A0F
330
2
100
AcDbEntity
  8
AM_VIS
100
AcDbLine
 10
58.24658149482207
 20
702.797573641981
 30
0.0
 11
57.24658149482206
 21
702.797573641981
 31
0.0
  0
LINE
  5
7A10
330
2
100
AcDbEntity
  8
AM_VIS
100
AcDbLine
 10
84.24658149482207
 20
702.797573641981
 30
0.0
 11
83.24658149482207
 21
702.797573641981
 31
0.0
  0
LINE
  5
7A11
330
2
100
AcDbEntity
  8
AM_VIS
100
AcDbLine
 10
81.24658149482206
 20
702.1975736419811
 30
0.0
 11
60.24658149482206
 21
702.1975736419811
 31
0.0
  0
LINE
  5
7A12
330
2
100
AcDbEntity
  8
AM_VIS
100
AcDbLine
 10
63.92184242826147
 20
717.28838120345
 30
0.0
 11
64.30671090427404
 21
718.2175358979694
 31
0.0
  0
LINE
  5
7A13
330
2
100
AcDbEntity
  8
AM_VIS
100
AcDbLine
 10
59.30244476570511
 20
719.2017983652755
 30
0.0
 11
59.68731324171745
 21
720.1309530597949
 31
0.0
  0
LINE
  5
7A14
330
2
100
AcDbEntity
  8
AM_VIS
100
AcDbLine
 10
77.18645208537123
 20
718.2175358979694
 30
0.0
 11
77.57132056138357
 21
717.2883812034503
 31
0.0
  0
LINE
  5
7A15
330
2
100
AcDbEntity
  8
AM_VIS
100
AcDbLine
 10
47.73738905629147
 20
733.47283457542
 30
0.0
 11
48.66654375081066
 21
733.8577030514326
 31
0.0
  0
LINE
  5
7A16
330
2
100
AcDbEntity
  8
AM_VIS
100
AcDbLine
 10
90.91320207700892
 20
729.2383053888764
 30
0.0
 11
91.84235677152811
 21
728.8534369128639
 31
0.0
  0
LINE
  5
7A17
330
2
100
AcDbEntity
  8
AM_VIS
100
AcDbLine
 10
49.65080621811671
 20
751.7417103710985
 30
0.0
 11
50.57996091263589
 21
751.3568418950861
 31
0.0
  0
LINE
  5
7A18
330
2
100
AcDbEntity
  8
AM_VIS
100
AcDbLine
 10
92.82661923883415
 20
746.73744423253
 30
0.0
 11
93.75577393335357
 21
747.1223127085425
 31
0.0
  0
LINE
  5
7A19
330
2
100
AcDbEntity
  8
AM_VIS
100
AcDbLine
 10
63.92184242826124
 20
763.3067660805123
 30
0.0
 11
64.30671090427381
 21
762.3776113859932
 31
0.0
  0
LINE
  5
7A1A
330
2
100
AcDbEntity
  8
AM_VIS
100
AcDbLine
 10
81.80584974792713
 20
760.4641942241677
 30
0.0
 11
82.19071822393971
 21
761.3933489186869
 31
0.0
  0
LINE
  5
7A1B
330
2
100
AcDbEntity
  8
AM_VIS
100
AcDbLine
 10
48.66654375081066
 20
733.8577030514326
 30
0.0
 11
50.05465417091158
 21
734.4326772135099
 31
0.0
  0
LINE
  5
7A1C
330
2
100
AcDbEntity
  8
AM_VIS
100
AcDbLine
 10
50.57996091263589
 20
751.3568418950861
 30
0.0
 11
51.96807133273523
 21
750.7818677330095
 31
0.0
  0
LINE
  5
7A1D
330
2
100
AcDbEntity
  8
AM_VIS
100
AcDbLine
 10
64.30671090427359
 20
762.3776113859929
 30
0.0
 11
64.88168506635088
 21
760.9895009658922
 31
0.0
  0
LINE
  5
7A1E
330
2
100
AcDbEntity
  8
AM_VIS
100
AcDbLine
 10
81.23087558585075
 20
759.0760838040686
 30
0.0
 11
81.80584974792713
 21
760.4641942241677
 31
0.0
  0
LINE
  5
7A1F
330
2
100
AcDbEntity
  8
AM_VIS
100
AcDbLine
 10
91.43850881873346
 20
746.1624700704527
 30
0.0
 11
92.82661923883415
 21
746.73744423253
 31
0.0
  0
LINE
  5
7A20
330
2
100
AcDbEntity
  8
AM_VIS
100
AcDbLine
 10
89.52509165690958
 20
729.813279550953
 30
0.0
 11
90.91320207700892
 21
729.2383053888764
 31
0.0
  0
LINE
  5
7A21
330
2
100
AcDbEntity
  8
AM_VIS
100
AcDbLine
 10
76.61147792329393
 20
719.6056463180704
 30
0.0
 11
77.18645208537123
 21
718.2175358979694
 31
0.0
  0
LINE
  5
7A22
330
2
100
AcDbEntity
  8
AM_VIS
100
AcDbLine
 10
64.30671090427404
 20
718.2175358979694
 30
0.0
 11
64.88168506635043
 21
719.6056463180688
 31
0.0
  0
LINE
  5
7A23
330
2
100
AcDbEntity
  8
AM_VIS
100
AcDbLine
 10
59.68731324171767
 20
720.1309530597949
 30
0.0
 11
60.26228740379406
 21
721.519063479894
 31
0.0
  0
LINE
  5
7A24
330
2
100
AcDbEntity
  8
AM_VIS
100
AcDbLine
 10
62.96838149482232
 20
748.0757228280021
 30
0.0
 11
64.19338149482246
 21
744.8862084890789
 31
0.0
  0
LINE
  5
7A25
330
2
100
AcDbEntity
  8
AM_VIS
100
AcDbLine
 10
64.19252865193584
 20
735.7101570124772
 30
0.0
 11
62.96838149482255
 21
732.5194244559601
 31
0.0
  0
LINE
  5
7A26
330
2
100
AcDbEntity
  8
AM_VIS
100
AcDbLine
 10
62.55443143061461
 20
734.5627085759575
 30
0.0
 11
64.19252865193584
 21
735.7101570124772
 31
0.0
  0
LINE
  5
7A27
330
2
100
AcDbEntity
  8
AM_VIS
100
AcDbLine
 10
64.19338149482246
 20
744.8862084890789
 30
0.0
 11
62.5548704839191
 21
746.03306583654
 31
0.0
  0
LINE
  5
7A28
330
2
100
AcDbEntity
  8
AM_VIS
100
AcDbLine
 10
47.73738905629125
 20
747.1223127085421
 30
0.0
 11
48.66654375081044
 21
746.7374442325298
 31
0.0
  0
LINE
  5
7A29
330
2
100
AcDbEntity
  8
AM_VIS
100
AcDbLine
 10
48.66654375081044
 20
746.7374442325298
 30
0.0
 11
50.05465417090977
 21
746.1624700704532
 31
0.0
  0
ARC
  5
7A2A
330
2
100
AcDbEntity
  8
AM_VIS
100
AcDbCircle
 10
70.74586369748067
 20
740.2975736419813
 30
0.0
 40
23.9993096435159
100
AcDbArc
 50
164.1059226517474
 51
195.8940773482525
  0
LINE
  5
7A2B
330
2
100
AcDbEntity
  8
AM_VIS
100
AcDbLine
 10
59.30244476570488
 20
761.3933489186869
 30
0.0
 11
59.68731324171722
 21
760.4641942241677
 31
0.0
  0
LINE
  5
7A2C
330
2
100
AcDbEntity
  8
AM_VIS
100
AcDbLine
 10
59.68731324171722
 20
760.4641942241677
 30
0.0
 11
60.26228740379429
 21
759.0760838040668
 31
0.0
  0
ARC
  5
7A2D
330
2
100
AcDbEntity
  8
AM_VIS
100
AcDbCircle
 10
70.74607393545488
 20
740.2980812013487
 30
0.0
 40
23.99930964351649
100
AcDbArc
 50
119.1059226517473
 51
150.8940773482527
  0
LINE
  5
7A2E
330
2
100
AcDbEntity
  8
AM_VIS
100
AcDbLine
 10
77.18645208537077
 20
762.3776113859932
 30
0.0
 11
77.57132056138335
 21
763.3067660805123
 31
0.0
  0
LINE
  5
7A2F
330
2
100
AcDbEntity
  8
AM_VIS
100
AcDbLine
 10
76.61147792329416
 20
760.9895009658938
 30
0.0
 11
77.18645208537077
 21
762.3776113859932
 31
0.0
  0
ARC
  5
7A30
330
2
100
AcDbEntity
  8
AM_VIS
100
AcDbCircle
 10
70.74658149482252
 20
740.2982914393236
 30
0.0
 40
23.99930964351538
100
AcDbArc
 50
74.10592265174651
 51
105.8940773482535
  0
LINE
  5
7A31
330
2
100
AcDbEntity
  8
AM_VIS
100
AcDbLine
 10
90.91320207700869
 20
751.3568418950864
 30
0.0
 11
91.84235677152788
 21
751.741710371099
 31
0.0
  0
LINE
  5
7A32
330
2
100
AcDbEntity
  8
AM_VIS
100
AcDbLine
 10
89.52509165690775
 20
750.7818677330093
 30
0.0
 11
90.91320207700869
 21
751.3568418950864
 31
0.0
  0
ARC
  5
7A33
330
2
100
AcDbEntity
  8
AM_VIS
100
AcDbCircle
 10
70.7470890541897
 20
740.2980812013487
 30
0.0
 40
23.99930964351654
100
AcDbArc
 50
29.10592265174731
 51
60.8940773482527
  0
LINE
  5
7A34
330
2
100
AcDbEntity
  8
AM_VIS
100
AcDbLine
 10
92.82661923883438
 20
733.8577030514328
 30
0.0
 11
93.75577393335357
 21
733.4728345754204
 31
0.0
  0
LINE
  5
7A35
330
2
100
AcDbEntity
  8
AM_VIS
100
AcDbLine
 10
91.43850881873504
 20
734.4326772135095
 30
0.0
 11
92.82661923883438
 21
733.8577030514328
 31
0.0
  0
ARC
  5
7A36
330
2
100
AcDbEntity
  8
AM_VIS
100
AcDbCircle
 10
70.74729929216278
 20
740.2975736419813
 30
0.0
 40
23.9993096435173
100
AcDbArc
 50
344.1059226517474
 51
15.89407734825259
  0
LINE
  5
7A37
330
2
100
AcDbEntity
  8
AM_VIS
100
AcDbLine
 10
81.80584974792759
 20
720.1309530597949
 30
0.0
 11
82.19071822394017
 21
719.2017983652757
 31
0.0
  0
LINE
  5
7A38
330
2
100
AcDbEntity
  8
AM_VIS
100
AcDbLine
 10
81.2308755858503
 20
721.5190634798958
 30
0.0
 11
81.80584974792759
 21
720.1309530597949
 31
0.0
  0
ARC
  5
7A39
330
2
100
AcDbEntity
  8
AM_VIS
100
AcDbCircle
 10
70.74708905418924
 20
740.2970660826146
 30
0.0
 40
23.99930964351737
100
AcDbArc
 50
299.1059226517473
 51
330.8940773482527
  0
ARC
  5
7A3A
330
2
100
AcDbEntity
  8
AM_VIS
100
AcDbCircle
 10
70.74658149482252
 20
740.2968558446405
 30
0.0
 40
23.99930964351694
100
AcDbArc
 50
254.1059226517465
 51
285.8940773482535
  0
LINE
  5
7A3B
330
2
100
AcDbEntity
  8
AM_VIS
100
AcDbLine
 10
49.65080621811694
 20
728.8534369128637
 30
0.0
 11
50.57996091263612
 21
729.238305388876
 31
0.0
  0
LINE
  5
7A3C
330
2
100
AcDbEntity
  8
AM_VIS
100
AcDbLine
 10
50.57996091263612
 20
729.238305388876
 30
0.0
 11
51.96807133273683
 21
729.8132795509533
 31
0.0
  0
ARC
  5
7A3D
330
2
100
AcDbEntity
  8
AM_VIS
100
AcDbCircle
 10
70.7460739354558
 20
740.2970660826146
 30
0.0
 40
23.99930964351751
100
AcDbArc
 50
209.1059226517473
 51
240.8940773482527
  0
CIRCLE
  5
7A3E
330
2
100
AcDbEntity
  8
AM_VIS
100
AcDbCircle
 10
70.74658149482252
 20
740.2975736419813
 30
0.0
 40
19.0
  0
CIRCLE
  5
7A3F
330
2
100
AcDbEntity
  8
AM_VIS
100
AcDbCircle
 10
70.74658149482252
 20
740.2975736419813
 30
0.0
 40
15.0
  0
ARC
  5
7A40
330
2
100
AcDbEntity
  8
AM_VIS
100
AcDbCircle
 10
70.74658149482252
 20
740.2975736419813
 30
0.0
 40
24.00000000000003
100
AcDbArc
 50
241.5208432037034
 51
253.4791567962992
  0
ARC
  5
7A41
330
2
100
AcDbEntity
  8
AM_VIS
100
AcDbCircle
 10
70.74658149482252
 20
740.2975736419813
 30
0.0
 40
24.00000000000003
100
AcDbArc
 50
286.5208432037008
 51
298.4791567963082
  0
ARC
  5
7A42
330
2
100
AcDbEntity
  8
AM_VIS
100
AcDbCircle
 10
70.74658149482252
 20
740.2975736419813
 30
0.0
 40
24.00000000000003
100
AcDbArc
 50
196.5208432037007
 51
208.4791567963082
  0
ARC
  5
7A43
330
2
100
AcDbEntity
  8
AM_VIS
100
AcDbCircle
 10
70.74658149482252
 20
740.2975736419813
 30
0.0
 40
24.00000000000003
100
AcDbArc
 50
331.5208432037063
 51
343.4791567962992
  0
ARC
  5
7A44
330
2
100
AcDbEntity
  8
AM_VIS
100
AcDbCircle
 10
70.74658149482252
 20
740.2975736419813
 30
0.0
 40
24.00000000000003
100
AcDbArc
 50
151.5208432037063
 51
163.4791567962992
  0
ARC
  5
7A45
330
2
100
AcDbEntity
  8
AM_VIS
100
AcDbCircle
 10
70.74658149482252
 20
740.2975736419813
 30
0.0
 40
24.00000000000003
100
AcDbArc
 50
16.52084320370079
 51
28.47915679630824
  0
ARC
  5
7A46
330
2
100
AcDbEntity
  8
AM_VIS
100
AcDbCircle
 10
70.74658149482252
 20
740.2975736419813
 30
0.0
 40
24.00000000000003
100
AcDbArc
 50
106.5208432037008
 51
118.4791567963082
  0
ARC
  5
7A47
330
2
100
AcDbEntity
  8
AM_VIS
100
AcDbCircle
 10
70.74658149482252
 20
740.2975736419813
 30
0.0
 40
24.00000000000003
100
AcDbArc
 50
61.52084320370346
 51
73.4791567962992
  0
ARC
  5
7A48
330
2
100
AcDbEntity
  8
AM_VIS
100
AcDbCircle
 10
70.74658149482252
 20
740.2975736419813
 30
0.0
 40
23.0
100
AcDbArc
 50
196.2598689017464
 51
208.7401310982528
  0
ARC
  5
7A49
330
2
100
AcDbEntity
  8
AM_VIS
100
AcDbCircle
 10
70.74658149482252
 20
740.2975736419813
 30
0.0
 40
23.0
100
AcDbArc
 50
151.2598689017472
 51
163.7401310982536
  0
ARC
  5
7A4A
330
2
100
AcDbEntity
  8
AM_VIS
100
AcDbCircle
 10
70.74658149482252
 20
740.2975736419813
 30
0.0
 40
23.0
100
AcDbArc
 50
106.2598689017464
 51
118.7401310982571
  0
ARC
  5
7A4B
330
2
100
AcDbEntity
  8
AM_VIS
100
AcDbCircle
 10
70.74658149482252
 20
740.2975736419813
 30
0.0
 40
23.0
100
AcDbArc
 50
61.25986890174284
 51
73.7401310982536
  0
ARC
  5
7A4C
330
2
100
AcDbEntity
  8
AM_VIS
100
AcDbCircle
 10
70.74658149482252
 20
740.2975736419813
 30
0.0
 40
23.0
100
AcDbArc
 50
16.2598689017464
 51
28.74013109825274
  0
ARC
  5
7A4D
330
2
100
AcDbEntity
  8
AM_VIS
100
AcDbCircle
 10
70.74658149482252
 20
740.2975736419813
 30
0.0
 40
23.0
100
AcDbArc
 50
331.2598689017473
 51
343.7401310982536
  0
ARC
  5
7A4E
330
2
100
AcDbEntity
  8
AM_VIS
100
AcDbCircle
 10
70.74658149482252
 20
740.2975736419813
 30
0.0
 40
23.0
100
AcDbArc
 50
286.2598689017464
 51
298.7401310982556
  0
ARC
  5
7A4F
330
2
100
AcDbEntity
  8
AM_VIS
100
AcDbCircle
 10
70.74658149482252
 20
740.2975736419813
 30
0.0
 40
21.50704225352113
100
AcDbArc
 50
254.1752089333563
 51
285.8247910666437
  0
ARC
  5
7A50
330
2
100
AcDbEntity
  8
AM_VIS
100
AcDbCircle
 10
70.74658149482252
 20
740.2975736419813
 30
0.0
 40
23.0
100
AcDbArc
 50
241.2598689017428
 51
253.7401310982536
  0
ARC
  5
7A51
330
2
100
AcDbEntity
  8
AM_VIS
100
AcDbCircle
 10
70.74658149482252
 20
740.297573641981
 30
0.0
 40
11.0
100
AcDbArc
 50
135.0001871535902
 51
224.9998128464098
  0
ARC
  5
7A52
330
2
100
AcDbEntity
  8
AM_VIS
100
AcDbCircle
 10
70.74658149482252
 20
740.297573641981
 30
0.0
 40
10.0
100
AcDbArc
 50
145.0019036699011
 51
214.9937100846327
  0
ARC
  5
7A53
330
2
100
AcDbEntity
  8
AM_VIS
100
AcDbCircle
 10
70.74658149482252
 20
740.2975736419813
 30
0.0
 40
21.50704225352113
100
AcDbArc
 50
164.1752089333562
 51
195.8247910666438
  0
ARC
  5
7A54
330
2
100
AcDbEntity
  8
AM_VIS
100
AcDbCircle
 10
70.74658149482252
 20
740.2975736419813
 30
0.0
 40
24.00000000000003
100
AcDbArc
 50
163.4791567962992
 51
164.1063919419443
  0
ARC
  5
7A55
330
2
100
AcDbEntity
  8
AM_VIS
100
AcDbCircle
 10
70.74658149482252
 20
740.2975736419813
 30
0.0
 40
24.00000000000003
100
AcDbArc
 50
195.8936080580557
 51
196.5208432037007
  0
ARC
  5
7A56
330
2
100
AcDbEntity
  8
AM_VIS
100
AcDbCircle
 10
70.74658149482252
 20
740.2975736419813
 30
0.0
 40
21.50704225352113
100
AcDbArc
 50
119.1752089333467
 51
150.8247910666533
  0
ARC
  5
7A57
330
2
100
AcDbEntity
  8
AM_VIS
100
AcDbCircle
 10
70.74658149482252
 20
740.2975736419813
 30
0.0
 40
24.00000000000003
100
AcDbArc
 50
118.4791567963082
 51
119.106391941952
  0
ARC
  5
7A58
330
2
100
AcDbEntity
  8
AM_VIS
100
AcDbCircle
 10
70.74658149482252
 20
740.2975736419813
 30
0.0
 40
24.00000000000003
100
AcDbArc
 50
150.8936080580596
 51
151.5208432037063
  0
ARC
  5
7A59
330
2
100
AcDbEntity
  8
AM_VIS
100
AcDbCircle
 10
70.74658149482252
 20
740.2975736419813
 30
0.0
 40
21.50704225352113
100
AcDbArc
 50
74.17520893335624
 51
105.8247910666437
  0
ARC
  5
7A5A
330
2
100
AcDbEntity
  8
AM_VIS
100
AcDbCircle
 10
70.74658149482252
 20
740.2975736419813
 30
0.0
 40
24.00000000000003
100
AcDbArc
 50
73.4791567962992
 51
74.10639194194432
  0
ARC
  5
7A5B
330
2
100
AcDbEntity
  8
AM_VIS
100
AcDbCircle
 10
70.74658149482252
 20
740.2975736419813
 30
0.0
 40
24.00000000000003
100
AcDbArc
 50
105.8936080580556
 51
106.5208432037008
  0
ARC
  5
7A5C
330
2
100
AcDbEntity
  8
AM_VIS
100
AcDbCircle
 10
70.74658149482252
 20
740.2975736419813
 30
0.0
 40
21.50704225352113
100
AcDbArc
 50
29.17520893334671
 51
60.82479106665329
  0
ARC
  5
7A5D
330
2
100
AcDbEntity
  8
AM_VIS
100
AcDbCircle
 10
70.74658149482252
 20
740.2975736419813
 30
0.0
 40
24.00000000000003
100
AcDbArc
 50
28.47915679630824
 51
29.10639194195648
  0
ARC
  5
7A5E
330
2
100
AcDbEntity
  8
AM_VIS
100
AcDbCircle
 10
70.74658149482252
 20
740.2975736419813
 30
0.0
 40
24.00000000000003
100
AcDbArc
 50
60.89360805805966
 51
61.52084320370346
  0
ARC
  5
7A5F
330
2
100
AcDbEntity
  8
AM_VIS
100
AcDbCircle
 10
70.74658149482252
 20
740.2975736419813
 30
0.0
 40
21.50704225352113
100
AcDbArc
 50
344.1752089333562
 51
15.82479106664377
  0
ARC
  5
7A60
330
2
100
AcDbEntity
  8
AM_VIS
100
AcDbCircle
 10
70.74658149482252
 20
740.2975736419813
 30
0.0
 40
24.00000000000003
100
AcDbArc
 50
343.4791567962992
 51
344.1063919419443
  0
ARC
  5
7A61
330
2
100
AcDbEntity
  8
AM_VIS
100
AcDbCircle
 10
70.74658149482252
 20
740.2975736419813
 30
0.0
 40
24.00000000000003
100
AcDbArc
 50
15.89360805805569
 51
16.52084320370079
  0
ARC
  5
7A62
330
2
100
AcDbEntity
  8
AM_VIS
100
AcDbCircle
 10
70.74658149482252
 20
740.2975736419813
 30
0.0
 40
21.50704225352113
100
AcDbArc
 50
299.1752089333467
 51
330.8247910666533
  0
ARC
  5
7A63
330
2
100
AcDbEntity
  8
AM_VIS
100
AcDbCircle
 10
70.74658149482252
 20
740.2975736419813
 30
0.0
 40
24.00000000000003
100
AcDbArc
 50
298.4791567963082
 51
299.106391941952
  0
ARC
  5
7A64
330
2
100
AcDbEntity
  8
AM_VIS
100
AcDbCircle
 10
70.74658149482252
 20
740.2975736419813
 30
0.0
 40
24.00000000000003
100
AcDbArc
 50
330.8936080580597
 51
331.5208432037063
  0
ARC
  5
7A65
330
2
100
AcDbEntity
  8
AM_VIS
100
AcDbCircle
 10
70.74658149482252
 20
740.2975736419813
 30
0.0
 40
24.00000000000003
100
AcDbArc
 50
285.8936080580556
 51
286.5208432037008
  0
ARC
  5
7A66
330
2
100
AcDbEntity
  8
AM_VIS
100
AcDbCircle
 10
70.74658149482252
 20
740.2975736419813
 30
0.0
 40
24.00000000000003
100
AcDbArc
 50
253.4791567962992
 51
254.1063919419443
  0
ARC
  5
7A67
330
2
100
AcDbEntity
  8
AM_VIS
100
AcDbCircle
 10
70.74658149482252
 20
740.2975736419813
 30
0.0
 40
21.50704225352113
100
AcDbArc
 50
209.1752089333467
 51
240.8247910666533
  0
ARC
  5
7A68
330
2
100
AcDbEntity
  8
AM_VIS
100
AcDbCircle
 10
70.74658149482252
 20
740.2975736419813
 30
0.0
 40
24.00000000000003
100
AcDbArc
 50
208.4791567963082
 51
209.1063919419565
  0
ARC
  5
7A69
330
2
100
AcDbEntity
  8
AM_VIS
100
AcDbCircle
 10
70.74658149482252
 20
740.2975736419813
 30
0.0
 40
24.00000000000003
100
AcDbArc
 50
240.8936080580597
 51
241.5208432037034
  0
LINE
  5
7A6A
330
2
100
AcDbEntity
  8
AM_VIS
100
AcDbLine
 10
50.87965805529575
 20
757.797573641981
 30
0.0
 11
50.01408149482199
 21
759.2975736419811
 31
0.0
  0
LINE
  5
7A6B
330
2
100
AcDbEntity
  8
AM_VIS
100
AcDbLine
 10
50.87965805529575
 20
760.7975736419811
 30
0.0
 11
52.61350493434815
 21
760.7975736419811
 31
0.0
  0
LINE
  5
7A6C
330
2
100
AcDbEntity
  8
AM_VIS
100
AcDbLine
 10
50.01408149482199
 20
759.2975736419811
 30
0.0
 11
50.87965805529575
 21
760.7975736419811
 31
0.0
  0
LINE
  5
7A6D
330
2
100
AcDbEntity
  8
AM_VIS
100
AcDbLine
 10
52.61350493434815
 20
757.797573641981
 30
0.0
 11
50.87965805529575
 21
757.797573641981
 31
0.0
  0
LINE
  5
7A6E
330
2
100
AcDbEntity
  8
AM_VIS
100
AcDbLine
 10
53.47908149482191
 20
759.2975736419811
 30
0.0
 11
52.61350493434815
 21
757.797573641981
 31
0.0
  0
LINE
  5
7A6F
330
2
100
AcDbEntity
  8
AM_VIS
100
AcDbLine
 10
52.61350493434815
 20
760.7975736419811
 30
0.0
 11
53.47908149482191
 21
759.2975736419811
 31
0.0
  0
ARC
  5
7A70
330
2
100
AcDbEntity
  8
AM_VIS
100
AcDbCircle
 10
51.74658149482207
 20
759.2975736419811
 30
0.0
 40
4.75
100
AcDbArc
 50
3.674057809584777
 51
266.3259421904152
  0
LINE
  5
7A71
330
2
100
AcDbEntity
  8
AM_VIS
100
AcDbLine
 10
88.87965805529574
 20
757.7975736419813
 30
0.0
 11
88.01408149482199
 21
759.2975736419813
 31
0.0
  0
LINE
  5
7A72
330
2
100
AcDbEntity
  8
AM_VIS
100
AcDbLine
 10
88.87965805529574
 20
760.7975736419813
 30
0.0
 11
90.61350493434815
 21
760.7975736419813
 31
0.0
  0
LINE
  5
7A73
330
2
100
AcDbEntity
  8
AM_VIS
100
AcDbLine
 10
88.01408149482199
 20
759.2975736419813
 30
0.0
 11
88.87965805529574
 21
760.7975736419813
 31
0.0
  0
LINE
  5
7A74
330
2
100
AcDbEntity
  8
AM_VIS
100
AcDbLine
 10
90.61350493434815
 20
757.7975736419813
 30
0.0
 11
88.87965805529574
 21
757.7975736419813
 31
0.0
  0
LINE
  5
7A75
330
2
100
AcDbEntity
  8
AM_VIS
100
AcDbLine
 10
91.47908149482191
 20
759.2975736419813
 30
0.0
 11
90.61350493434815
 21
757.7975736419813
 31
0.0
  0
LINE
  5
7A76
330
2
100
AcDbEntity
  8
AM_VIS
100
AcDbLine
 10
90.61350493434815
 20
760.7975736419813
 30
0.0
 11
91.47908149482191
 21
759.2975736419813
 31
0.0
  0
ARC
  5
7A77
330
2
100
AcDbEntity
  8
AM_VIS
100
AcDbCircle
 10
89.74658149482207
 20
759.2975736419811
 30
0.0
 40
4.75
100
AcDbArc
 50
273.674057809598
 51
176.325942190402
  0
LINE
  5
7A78
330
2
100
AcDbEntity
  8
AM_VIS
100
AcDbLine
 10
88.87965805529598
 20
719.797573641981
 30
0.0
 11
88.01408149482199
 21
721.2975736419811
 31
0.0
  0
LINE
  5
7A79
330
2
100
AcDbEntity
  8
AM_VIS
100
AcDbLine
 10
88.87965805529598
 20
722.7975736419811
 30
0.0
 11
90.61350493434838
 21
722.7975736419811
 31
0.0
  0
LINE
  5
7A7A
330
2
100
AcDbEntity
  8
AM_VIS
100
AcDbLine
 10
88.01408149482199
 20
721.2975736419813
 30
0.0
 11
88.87965805529598
 21
722.7975736419811
 31
0.0
  0
LINE
  5
7A7B
330
2
100
AcDbEntity
  8
AM_VIS
100
AcDbLine
 10
90.61350493434815
 20
719.797573641981
 30
0.0
 11
88.87965805529574
 21
719.797573641981
 31
0.0
  0
LINE
  5
7A7C
330
2
100
AcDbEntity
  8
AM_VIS
100
AcDbLine
 10
91.47908149482214
 20
721.2975736419813
 30
0.0
 11
90.61350493434815
 21
719.797573641981
 31
0.0
  0
LINE
  5
7A7D
330
2
100
AcDbEntity
  8
AM_VIS
100
AcDbLine
 10
90.61350493434815
 20
722.7975736419811
 30
0.0
 11
91.47908149482214
 21
721.2975736419811
 31
0.0
  0
ARC
  5
7A7E
330
2
100
AcDbEntity
  8
AM_VIS
100
AcDbCircle
 10
89.74658149482207
 20
721.2975736419811
 30
0.0
 40
4.75
100
AcDbArc
 50
183.6740578095847
 51
86.32594219040202
  0
LINE
  5
7A7F
330
2
100
AcDbEntity
  8
AM_VIS
100
AcDbLine
 10
50.08384232754337
 20
720.8108964269844
 30
0.0
 11
50.49320003425783
 21
722.4936468689678
 31
0.0
  0
LINE
  5
7A80
330
2
100
AcDbEntity
  8
AM_VIS
100
AcDbLine
 10
52.15496479851549
 20
722.9812539344551
 30
0.0
 11
53.40932066210076
 21
721.7842508569782
 31
0.0
  0
LINE
  5
7A81
330
2
100
AcDbEntity
  8
AM_VIS
100
AcDbLine
 10
50.49320003425783
 20
722.4936468689678
 30
0.0
 11
52.15496479851549
 21
722.9812539344551
 31
0.0
  0
LINE
  5
7A82
330
2
100
AcDbEntity
  8
AM_VIS
100
AcDbLine
 10
51.33819819112864
 20
719.6138933495075
 30
0.0
 11
50.08384232754337
 21
720.8108964269844
 31
0.0
  0
LINE
  5
7A83
330
2
100
AcDbEntity
  8
AM_VIS
100
AcDbLine
 10
52.99996295538631
 20
720.1015004149947
 30
0.0
 11
51.33819819112864
 21
719.6138933495075
 31
0.0
  0
LINE
  5
7A84
330
2
100
AcDbEntity
  8
AM_VIS
100
AcDbLine
 10
53.40932066210098
 20
721.784250856978
 30
0.0
 11
52.99996295538631
 21
720.1015004149947
 31
0.0
  0
ARC
  5
7A85
330
2
100
AcDbEntity
  8
AM_VIS
100
AcDbCircle
 10
51.74658149482207
 20
721.2975736419813
 30
0.0
 40
4.75
100
AcDbArc
 50
93.67405780958476
 51
356.3259421904152
  0
LINE
  5
7A86
330
2
100
AcDbEntity
  8
AM_VIS
100
AcDbLine
 10
95.74658149482207
 20
721.2975736419811
 30
0.0
 11
95.74658149482207
 21
750.2975736419811
 31
0.0
  0
LINE
  5
7A87
330
2
100
AcDbEntity
  8
AM_VIS
100
AcDbLine
 10
51.74658149482207
 20
715.297573641981
 30
0.0
 11
89.74658149482207
 21
715.297573641981
 31
0.0
  0
LINE
  5
7A88
330
2
100
AcDbEntity
  8
AM_VIS
100
AcDbLine
 10
45.74658149482206
 20
750.2975736419811
 30
0.0
 11
45.74658149482206
 21
721.2975736419811
 31
0.0
  0
ARC
  5
7A89
330
2
100
AcDbEntity
  8
AM_VIS
100
AcDbCircle
 10
89.74658149482207
 20
721.2975736419811
 30
0.0
 40
6.0
100
AcDbArc
 50
270.0
 51
0.0
  0
ARC
  5
7A8A
330
2
100
AcDbEntity
  8
AM_VIS
100
AcDbCircle
 10
51.74658149482207
 20
721.2975736419811
 30
0.0
 40
6.0
100
AcDbArc
 50
180.0
 51
270.0
  0
LINE
  5
7A8B
330
2
100
AcDbEntity
  8
AM_VIS
100
AcDbLine
 10
97.82065556889598
 20
757.297573641981
 30
0.0
 11
106.7465814948221
 21
757.297573641981
 31
0.0
  0
LINE
  5
7A8C
330
2
100
AcDbEntity
  8
AM_VIS
100
AcDbLine
 10
106.7465814948221
 20
723.2975736419811
 30
0.0
 11
96.066581494822
 21
723.2975736419811
 31
0.0
  0
LINE
  5
7A8D
330
2
100
AcDbEntity
  8
AM_VIS
100
AcDbLine
 10
34.74658149482207
 20
757.297573641981
 30
0.0
 11
43.67250742074793
 21
757.297573641981
 31
0.0
  0
LINE
  5
7A8E
330
2
100
AcDbEntity
  8
AM_VIS
100
AcDbLine
 10
45.42658149482213
 20
723.2975736419811
 30
0.0
 11
34.74658149482207
 21
723.2975736419811
 31
0.0
  0
LINE
  5
7A8F
330
2
100
AcDbEntity
  8
AM_VIS
100
AcDbLine
 10
34.74658149482207
 20
723.2975736419811
 30
0.0
 11
34.74658149482207
 21
757.297573641981
 31
0.0
  0
LINE
  5
7A90
330
2
100
AcDbEntity
  8
AM_VIS
100
AcDbLine
 10
106.7465814948221
 20
757.297573641981
 30
0.0
 11
106.7465814948221
 21
723.2975736419811
 31
0.0
  0
LINE
  5
7A91
330
2
100
AcDbEntity
  8
AM_VIS
100
AcDbLine
 10
51.5113795763566
 20
715.297573641981
 30
0.0
 11
51.74658149482207
 21
715.297573641981
 31
0.0
  0
LINE
  5
7A92
330
2
100
AcDbEntity
  8
AM_VIS
100
AcDbLine
 10
89.74658149482207
 20
715.297573641981
 30
0.0
 11
89.98178341328753
 21
715.297573641981
 31
0.0
  0
LINE
  5
7A93
330
2
100
AcDbEntity
  8
AM_VIS
100
AcDbLine
 10
44.74658149482206
 20
740.297573641981
 30
0.0
 11
45.51617382402582
 21
721.0577654118879
 31
0.0
  0
LINE
  5
7A94
330
2
100
AcDbEntity
  8
AM_VIS
100
AcDbLine
 10
45.2179471335885
 20
752.0817146111438
 30
0.0
 11
44.74658149482206
 21
740.297573641981
 31
0.0
  0
LINE
  5
7A95
330
2
100
AcDbEntity
  8
AM_VIS
100
AcDbLine
 10
96.74658149482207
 20
740.297573641981
 30
0.0
 11
96.27521585605542
 21
752.0817146111445
 31
0.0
  0
LINE
  5
7A96
330
2
100
AcDbEntity
  8
AM_VIS
100
AcDbLine
 10
95.9769891656183
 20
721.0577654118879
 30
0.0
 11
96.74658149482207
 21
740.297573641981
 31
0.0
  0
LINE
  5
7A97
330
2
100
AcDbEntity
  8
AM_VIS
100
AcDbLine
 10
91.5795220164996
 20
711.5975736419812
 30
0.0
 11
91.64059977757483
 21
711.5975736419812
 31
0.0
  0
LINE
  5
7A98
330
2
100
AcDbEntity
  8
AM_VIS
100
AcDbLine
 10
91.64059977757483
 20
711.5975736419812
 30
0.0
 11
90.93729345523319
 21
711.5975736419812
 31
0.0
  0
LINE
  5
7A99
330
2
100
AcDbEntity
  8
AM_VIS
100
AcDbLine
 10
90.77930472457797
 20
711.5975736419812
 30
0.0
 11
90.93729345523319
 21
711.5975736419812
 31
0.0
  0
LINE
  5
7A9A
330
2
100
AcDbEntity
  8
AM_VIS
100
AcDbLine
 10
89.14098499815759
 20
709.9348346391098
 30
0.0
 11
89.14098499815759
 21
710.5209734371814
 31
0.0
  0
LINE
  5
7A9B
330
2
100
AcDbEntity
  8
AM_VIS
100
AcDbLine
 10
85.7222043863037
 20
708.1109192800855
 30
0.0
 11
85.7222043863037
 21
708.6632454681106
 31
0.0
  0
LINE
  5
7A9C
330
2
100
AcDbEntity
  8
AM_VIS
100
AcDbLine
 10
86.01193155679993
 20
708.2473148679045
 30
0.0
 11
86.01193155679993
 21
708.8020328864189
 31
0.0
  0
LINE
  5
7A9D
330
2
100
AcDbEntity
  8
AM_VIS
100
AcDbLine
 10
88.83677146913669
 20
709.7526063528643
 30
0.0
 11
88.83677146913669
 21
710.3351801011905
 31
0.0
  0
ARC
  5
7A9E
330
2
100
AcDbEntity
  8
AM_VIS
100
AcDbCircle
 10
70.74658149482207
 20
740.297573641981
 30
0.0
 40
35.5
100
AcDbArc
 50
300.2022411792142
 51
300.4369789591406
  0
ARC
  5
7A9F
330
2
100
AcDbEntity
  8
AM_VIS
100
AcDbCircle
 10
70.74658149482207
 20
740.297573641981
 30
0.0
 40
35.5
100
AcDbArc
 50
300.4369789591406
 51
300.5093195514019
  0
LINE
  5
7AA0
330
2
100
AcDbEntity
  8
AM_VIS
100
AcDbLine
 10
88.76916861602149
 20
709.7126692789278
 30
0.0
 11
88.77882618608486
 21
709.7183621983698
 31
0.0
  0
ARC
  5
7AA1
330
2
100
AcDbEntity
  8
AM_VIS
100
AcDbCircle
 10
70.74658149482207
 20
740.297573641981
 30
0.0
 40
35.5
100
AcDbArc
 50
300.5274131060611
 51
300.6360453332449
  0
LINE
  5
7AA2
330
2
100
AcDbEntity
  8
AM_VIS
100
AcDbLine
 10
86.01215912498242
 20
708.2468467691668
 30
0.0
 11
86.50461529417407
 21
708.4862811783927
 31
0.0
  0
LINE
  5
7AA3
330
2
100
AcDbEntity
  8
AM_VIS
100
AcDbLine
 10
86.50604429485497
 20
708.4835432836515
 30
0.0
 11
87.60165399633001
 21
709.0514733984913
 31
0.0
  0
LINE
  5
7AA4
330
2
100
AcDbEntity
  8
AM_VIS
100
AcDbLine
 10
87.60096279931918
 20
709.0528476747212
 30
0.0
 11
88.1417836209223
 21
709.3506911245071
 31
0.0
  0
LINE
  5
7AA5
330
2
100
AcDbEntity
  8
AM_VIS
100
AcDbLine
 10
88.14148539280608
 20
709.3512359600248
 30
0.0
 11
88.43605647443292
 21
709.5186336670182
 31
0.0
  0
LINE
  5
7AA6
330
2
100
AcDbEntity
  8
AM_VIS
100
AcDbLine
 10
88.43601989042236
 20
709.518699206027
 30
0.0
 11
88.60502577133798
 21
709.6164543918645
 31
0.0
  0
LINE
  5
7AA7
330
2
100
AcDbEntity
  8
AM_VIS
100
AcDbLine
 10
84.24760370912554
 20
707.4622857462242
 30
0.0
 11
85.25461484657489
 21
707.8952396281348
 31
0.0
  0
LINE
  5
7AA8
330
2
100
AcDbEntity
  8
AM_VIS
100
AcDbLine
 10
85.25400415852937
 20
707.896686016685
 30
0.0
 11
85.72239383497594
 21
708.1105042743546
 31
0.0
  0
LINE
  5
7AA9
330
2
100
AcDbEntity
  8
AM_VIS
100
AcDbLine
 10
90.43071101556916
 20
710.7536969014248
 30
0.0
 11
90.93761645798668
 21
711.0980373662272
 31
0.0
  0
ARC
  5
7AAA
330
2
100
AcDbEntity
  8
AM_VIS
100
AcDbCircle
 10
70.74658149482207
 20
740.297573641981
 30
0.0
 40
35.0
100
AcDbArc
 50
292.6880911508717
 51
330.9407189319613
  0
ARC
  5
7AAB
330
2
100
AcDbEntity
  8
AM_VIS
100
AcDbCircle
 10
70.74658149482207
 20
740.297573641981
 30
0.0
 40
35.0
100
AcDbArc
 50
29.0592810680387
 51
36.36116979758091
  0
ARC
  5
7AAC
330
2
100
AcDbEntity
  8
AM_VIS
100
AcDbCircle
 10
70.74658149482207
 20
740.297573641981
 30
0.0
 40
34.0
100
AcDbArc
 50
144.9259642774185
 51
149.9999999999994
  0
ARC
  5
7AAD
330
2
100
AcDbEntity
  8
AM_VIS
100
AcDbCircle
 10
70.74658149482207
 20
740.297573641981
 30
0.0
 40
34.0
100
AcDbArc
 50
30.00000000000055
 51
35.07403572258152
  0
ARC
  5
7AAE
330
2
100
AcDbEntity
  8
AM_VIS
100
AcDbCircle
 10
70.74658149482207
 20
740.297573641981
 30
0.0
 40
34.0
100
AcDbArc
 50
293.3944396225958
 51
329.9999999999995
  0
ARC
  5
7AAF
330
2
100
AcDbEntity
  8
AM_VIS
100
AcDbCircle
 10
70.74658149482207
 20
740.297573641981
 30
0.0
 40
34.0
100
AcDbArc
 50
210.0000000000005
 51
246.6055603774042
  0
ARC
  5
7AB0
330
2
100
AcDbEntity
  8
AM_VIS
100
AcDbCircle
 10
70.74658149482207
 20
740.297573641981
 30
0.0
 40
35.0
100
AcDbArc
 50
143.6388302024353
 51
150.9407189319613
  0
ARC
  5
7AB1
330
2
100
AcDbEntity
  8
AM_VIS
100
AcDbCircle
 10
70.74658149482207
 20
740.297573641981
 30
0.0
 40
35.0
100
AcDbArc
 50
209.0592810680387
 51
247.3119088491283
  0
ARC
  5
7AB2
330
2
100
AcDbEntity
  8
AM_VIS
100
AcDbCircle
 10
51.5113795763566
 20
721.2975736419811
 30
0.0
 40
6.0
100
AcDbArc
 50
182.2906100426394
 51
270.0
  0
ARC
  5
7AB3
330
2
100
AcDbEntity
  8
AM_VIS
100
AcDbCircle
 10
89.98178341328753
 20
721.2975736419811
 30
0.0
 40
6.0
100
AcDbArc
 50
270.0
 51
357.7093899573605
  0
ARC
  5
7AB4
330
2
100
AcDbEntity
  8
AM_VIS
100
AcDbCircle
 10
70.74658149482207
 20
740.297573641981
 30
0.0
 40
35.5
100
AcDbArc
 50
304.6632760109874
 51
306.0551639504526
  0
ARC
  5
7AB5
330
2
100
AcDbEntity
  8
AM_VIS
100
AcDbCircle
 10
70.74658149482207
 20
740.297573641981
 30
0.0
 40
35.5
100
AcDbArc
 50
301.2083869105468
 51
303.6742260116451
  0
LINE
  5
7AB6
330
2
100
AcDbEntity
  8
AM_VIS
100
AcDbLine
 10
37.74658149482184
 20
780.2975736419811
 30
0.0
 11
37.74658149482184
 21
777.2975736419811
 31
0.0
  0
LINE
  5
7AB7
330
2
100
AcDbEntity
  8
AM_VIS
100
AcDbLine
 10
45.74658149482184
 20
780.2975736419811
 30
0.0
 11
95.74658149482184
 21
780.2975736419811
 31
0.0
  0
LINE
  5
7AB8
102
{ACAD_REACTORS
330
7C76
102
}
330
2
100
AcDbEntity
  8
AM_VIS
100
AcDbLine
 10
103.7465814948218
 20
777.2975736419813
 30
0.0
 11
103.7465814948218
 21
780.2975736419813
 31
0.0
  0
LINE
  5
7AB9
330
2
100
AcDbEntity
  8
AM_VIS
100
AcDbLine
 10
95.74658149482207
 20
750.2975736419811
 30
0.0
 11
103.4502851985255
 21
776.2975736419811
 31
0.0
  0
LINE
  5
7ABA
330
2
100
AcDbEntity
  8
AM_VIS
100
AcDbLine
 10
92.5640057240937
 20
750.2975736419811
 30
0.0
 11
95.74658149482184
 21
750.2975736419811
 31
0.0
  0
LINE
  5
7ABB
330
2
100
AcDbEntity
  8
AM_VIS
100
AcDbLine
 10
45.74658149482184
 20
750.2975736419811
 30
0.0
 11
48.92915726555088
 21
750.2975736419811
 31
0.0
  0
LINE
  5
7ABC
330
2
100
AcDbEntity
  8
AM_VIS
100
AcDbLine
 10
38.04287779111815
 20
776.2975736419811
 30
0.0
 11
45.74658149482206
 21
750.2975736419811
 31
0.0
  0
ELLIPSE
  5
7ABD
330
2
100
AcDbEntity
  8
AM_VIS
100
AcDbEllipse
 10
70.74658149482184
 20
778.2265193996928
 30
0.0
 11
-0.0000000000000156
 21
5.656854249492381
 31
0.0
210
0.0
220
0.0
230
1.0
 40
0.7071067811865474
 41
2.356194490192349
 42
3.926990816987245
  0
LINE
  5
7ABE
330
2
100
AcDbEntity
  8
AM_VIS
100
AcDbLine
 10
67.91815437007563
 20
774.2265193996928
 30
0.0
 11
66.45369787114851
 21
776.2975736419811
 31
0.0
  0
ELLIPSE
  5
7ABF
330
2
100
AcDbEntity
  8
AM_VIS
100
AcDbEllipse
 10
67.16080465233495
 20
776.2975736419811
 30
0.0
 11
0.9238795325113278
 21
-0.9238795325112448
 31
0.0000000000000001
210
0.0
220
0.0
230
1.0
 40
0.4142135623730951
 41
2.748893571890538
 42
4.319689898685433
  0
LINE
  5
7AC0
330
2
100
AcDbEntity
  8
AM_VIS
100
AcDbLine
 10
37.74658149482184
 20
777.2975736419811
 30
0.0
 11
38.04287779111815
 21
776.2975736419811
 31
0.0
  0
LINE
  5
7AC1
330
2
100
AcDbEntity
  8
AM_VIS
100
AcDbLine
 10
45.74658149482184
 20
777.2975736419811
 30
0.0
 11
95.74658149482184
 21
777.2975736419811
 31
0.0
  0
LINE
  5
7AC2
330
2
100
AcDbEntity
  8
AM_VIS
100
AcDbLine
 10
75.03946511849517
 20
776.2975736419811
 30
0.0
 11
73.57500861956805
 21
774.2265193996928
 31
0.0
  0
ELLIPSE
  5
7AC3
330
2
100
AcDbEntity
  8
AM_VIS
100
AcDbEllipse
 10
74.33235833730873
 20
776.2975736419811
 30
0.0
 11
0.9238795325112844
 21
0.9238795325112892
 31
-0.0000000000000001
210
0.0
220
0.0
230
1.0
 40
0.4142135623730951
 41
5.105088062083414
 42
6.675884388878313
  0
LINE
  5
7AC4
330
2
100
AcDbEntity
  8
AM_VIS
100
AcDbLine
 10
103.4502851985255
 20
776.2975736419811
 30
0.0
 11
103.7465814948218
 21
777.2975736419811
 31
0.0
  0
LINE
  5
7AC5
330
2
100
AcDbEntity
  8
AM_VIS
100
AcDbLine
 10
37.74658149482184
 20
780.2975736419811
 30
0.0
 11
45.74658149482184
 21
780.2975736419811
 31
0.0
  0
LINE
  5
7AC6
330
2
100
AcDbEntity
  8
AM_VIS
100
AcDbLine
 10
95.74658149482184
 20
780.2975736419811
 30
0.0
 11
103.7465814948218
 21
780.2975736419811
 31
0.0
  0
LINE
  5
7AC7
330
2
100
AcDbEntity
  8
AM_VIS
100
AcDbLine
 10
45.74658149482184
 20
777.2975736419811
 30
0.0
 11
37.74658149482184
 21
777.2975736419811
 31
0.0
  0
LINE
  5
7AC8
330
2
100
AcDbEntity
  8
AM_VIS
100
AcDbLine
 10
103.7465814948218
 20
777.2975736419813
 30
0.0
 11
95.74658149482184
 21
777.2975736419811
 31
0.0
  0
SPLINE
  5
7AC9
330
2
100
AcDbEntity
  8
AM_VIS
100
AcDbSpline
210
0.0
220
0.0
230
1.0
 70
    12
 71
     2
 72
     6
 73
     3
 74
     0
 42
0.0000000001
 43
0.0000000001
 40
0.0
 40
0.0
 40
0.0
 40
11.81893801825526
 40
11.81893801825526
 40
11.81893801825526
 10
213.9609290220158
 20
414.7569462915193
 30
0.0
 41
1.0
 10
219.0185173801169
 20
416.4428090775528
 30
0.0
 41
1.154700538379299
 10
224.0761057382181
 20
414.7569462915193
 30
0.0
 41
1.0
  0
SPLINE
  5
7ACA
330
2
100
AcDbEntity
  8
AM_VIS
100
AcDbSpline
210
0.0
220
0.0
230
1.0
 70
    12
 71
     2
 72
     6
 73
     3
 74
     0
 42
0.0000000001
 43
0.0000000001
 40
0.0
 40
0.0
 40
0.0
 40
11.81893801825515
 40
11.81893801825515
 40
11.81893801825515
 10
224.0761057382181
 20
409.9046892929046
 30
0.0
 41
1.0
 10
219.0185173801169
 20
408.2188265068708
 30
0.0
 41
1.154700538379293
 10
213.9609290220158
 20
409.9046892929046
 30
0.0
 41
1.0
  0
LINE
  5
7ACB
330
2
100
AcDbEntity
  8
AM_VIS
100
AcDbLine
 10
224.0761057382181
 20
409.9046892929046
 30
0.0
 11
224.0761057382181
 21
414.7569462915193
 31
0.0
  0
SPLINE
  5
7ACC
330
2
100
AcDbEntity
  8
AM_VIS
100
AcDbSpline
210
0.0
220
0.0
230
1.0
 70
    12
 71
     2
 72
     6
 73
     3
 74
     0
 42
0.0000000001
 43
0.0000000001
 40
0.0
 40
0.0
 40
0.0
 40
11.81893801825497
 40
11.81893801825497
 40
11.81893801825497
 10
224.0761057382181
 20
414.7569462915193
 30
0.0
 41
1.0
 10
229.133694096319
 20
416.4428090775528
 30
0.0
 41
1.154700538379268
 10
234.1912824544202
 20
414.7569462915193
 30
0.0
 41
1.0
  0
SPLINE
  5
7ACD
330
2
100
AcDbEntity
  8
AM_VIS
100
AcDbSpline
210
0.0
220
-0.0000000000000169
230
1.0
 70
    12
 71
     2
 72
     6
 73
     3
 74
     0
 42
0.0000000001
 43
0.0000000001
 40
0.0
 40
0.0
 40
0.0
 40
11.81893801825484
 40
11.81893801825484
 40
11.81893801825484
 10
234.1912824544202
 20
409.9046892929046
 30
0.0
 41
1.0
 10
229.1336940963188
 20
408.2188265068711
 30
-0.0000000000000284
 41
1.154700538379263
 10
224.0761057382181
 20
409.9046892929046
 30
0.0
 41
1.0
  0
LINE
  5
7ACE
330
2
100
AcDbEntity
  8
AM_VIS
100
AcDbLine
 10
234.1912824544202
 20
409.9046892929046
 30
0.0
 11
234.1912824544202
 21
414.7569462915193
 31
0.0
  0
LINE
  5
7ACF
330
2
100
AcDbEntity
  8
AM_VIS
100
AcDbLine
 10
234.1912824544202
 20
415.660397435654
 30
0.0
 11
234.1912824544202
 21
414.7569462915193
 31
0.0
  0
LINE
  5
7AD0
330
2
100
AcDbEntity
  8
AM_VIS
100
AcDbLine
 10
234.1912824544202
 20
409.9046892929046
 30
0.0
 11
234.1912824544202
 21
409.0012381487698
 31
0.0
  0
LINE
  5
7AD1
330
2
100
AcDbEntity
  8
AM_VIS
100
AcDbLine
 10
213.9609290220158
 20
415.660397435654
 30
0.0
 11
213.9609290220158
 21
414.7569462915193
 31
0.0
  0
LINE
  5
7AD2
330
2
100
AcDbEntity
  8
AM_VIS
100
AcDbLine
 10
213.9609290220158
 20
409.9046892929046
 30
0.0
 11
213.9609290220158
 21
414.7569462915193
 31
0.0
  0
LINE
  5
7AD3
330
2
100
AcDbEntity
  8
AM_VIS
100
AcDbLine
 10
213.9609290220158
 20
409.9046892929046
 30
0.0
 11
213.9609290220158
 21
409.0012381487698
 31
0.0
  0
LINE
  5
7AD4
330
2
100
AcDbEntity
  8
AM_VIS
100
AcDbLine
 10
233.8961057382178
 20
408.8308177922118
 30
0.0
 11
234.1912824544202
 21
409.0012381487698
 31
0.0
  0
LINE
  5
7AD5
330
2
100
AcDbEntity
  8
AM_VIS
100
AcDbLine
 10
214.2561057382179
 20
408.8308177922118
 30
0.0
 11
213.9609290220158
 21
409.0012381487698
 31
0.0
  0
LINE
  5
7AD6
330
2
100
AcDbEntity
  8
AM_VIS
100
AcDbLine
 10
214.2561057382179
 20
415.8308177922121
 30
0.0
 11
213.9609290220158
 21
415.660397435654
 31
0.0
  0
LINE
  5
7AD7
330
2
100
AcDbEntity
  8
AM_VIS
100
AcDbLine
 10
233.8961057382178
 20
415.8308177922118
 30
0.0
 11
234.1912824544202
 21
415.660397435654
 31
0.0
  0
LINE
  5
7AD8
330
2
100
AcDbEntity
  8
AM_VIS
100
AcDbLine
 10
214.2561057382179
 20
408.8308177922118
 30
0.0
 11
233.896105738218
 21
408.8308177922118
 31
0.0
  0
LINE
  5
7AD9
330
2
100
AcDbEntity
  8
AM_VIS
100
AcDbLine
 10
214.2561057382179
 20
415.8308177922121
 30
0.0
 11
233.896105738218
 21
415.8308177922118
 31
0.0
  0
LINE
  5
7ADA
330
2
100
AcDbEntity
  8
AM_VIS
100
AcDbLine
 10
228.3261057382181
 20
407.630817792212
 30
0.0
 11
228.3261057382181
 21
407.0308177922121
 31
0.0
  0
LINE
  5
7ADB
330
2
100
AcDbEntity
  8
AM_VIS
100
AcDbLine
 10
221.2742848250079
 20
407.630817792212
 30
0.0
 11
221.2742848250079
 21
407.0308177922121
 31
0.0
  0
LINE
  5
7ADC
330
2
100
AcDbEntity
  8
AM_VIS
100
AcDbLine
 10
228.3261057382181
 20
407.0308177922121
 30
0.0
 11
221.5054402863373
 21
407.0308177922121
 31
0.0
  0
LINE
  5
7ADD
330
2
100
AcDbEntity
  8
AM_VIS
100
AcDbLine
 10
221.5054402863373
 20
407.0308177922121
 30
0.0
 11
221.2742848250079
 21
407.0308177922121
 31
0.0
  0
LINE
  5
7ADE
330
2
100
AcDbEntity
  8
AM_VIS
100
AcDbLine
 10
226.5261057382179
 20
399.730817792212
 30
0.0
 11
226.5261057382179
 21
400.0308177922121
 31
0.0
  0
LINE
  5
7ADF
330
2
100
AcDbEntity
  8
AM_VIS
100
AcDbLine
 10
221.626105738218
 20
399.730817792212
 30
0.0
 11
221.626105738218
 21
400.0308177922121
 31
0.0
  0
LINE
  5
7AE0
330
2
100
AcDbEntity
  8
AM_VIS
100
AcDbLine
 10
226.176105738218
 20
398.5308177922121
 30
0.0
 11
226.5261057382179
 21
399.730817792212
 31
0.0
  0
LINE
  5
7AE1
330
2
100
AcDbEntity
  8
AM_VIS
100
AcDbLine
 10
221.9761057382179
 20
398.5308177922121
 30
0.0
 11
221.626105738218
 21
399.730817792212
 31
0.0
  0
LINE
  5
7AE2
330
2
100
AcDbEntity
  8
AM_VIS
100
AcDbLine
 10
226.5261057382179
 20
401.2308177922119
 30
0.0
 11
226.5261057382179
 21
401.5308177922121
 31
0.0
  0
LINE
  5
7AE3
330
2
100
AcDbEntity
  8
AM_VIS
100
AcDbLine
 10
221.626105738218
 20
401.2308177922119
 30
0.0
 11
221.626105738218
 21
401.5308177922121
 31
0.0
  0
LINE
  5
7AE4
330
2
100
AcDbEntity
  8
AM_VIS
100
AcDbLine
 10
226.176105738218
 20
400.0308177922121
 30
0.0
 11
226.5261057382179
 21
401.2308177922119
 31
0.0
  0
LINE
  5
7AE5
330
2
100
AcDbEntity
  8
AM_VIS
100
AcDbLine
 10
221.9761057382179
 20
400.0308177922121
 30
0.0
 11
221.626105738218
 21
401.2308177922119
 31
0.0
  0
LINE
  5
7AE6
330
2
100
AcDbEntity
  8
AM_VIS
100
AcDbLine
 10
226.5261057382179
 20
402.7308177922119
 30
0.0
 11
226.5261057382179
 21
403.0308177922121
 31
0.0
  0
LINE
  5
7AE7
330
2
100
AcDbEntity
  8
AM_VIS
100
AcDbLine
 10
221.626105738218
 20
402.7308177922119
 30
0.0
 11
221.626105738218
 21
403.0308177922121
 31
0.0
  0
LINE
  5
7AE8
330
2
100
AcDbEntity
  8
AM_VIS
100
AcDbLine
 10
226.176105738218
 20
401.5308177922121
 30
0.0
 11
226.5261057382179
 21
402.7308177922119
 31
0.0
  0
LINE
  5
7AE9
330
2
100
AcDbEntity
  8
AM_VIS
100
AcDbLine
 10
221.9761057382179
 20
401.5308177922121
 30
0.0
 11
221.626105738218
 21
402.7308177922119
 31
0.0
  0
LINE
  5
7AEA
330
2
100
AcDbEntity
  8
AM_VIS
100
AcDbLine
 10
226.176105738218
 20
403.0308177922121
 30
0.0
 11
226.5261057382179
 21
404.2308177922119
 31
0.0
  0
LINE
  5
7AEB
330
2
100
AcDbEntity
  8
AM_VIS
100
AcDbLine
 10
221.9761057382179
 20
403.0308177922121
 30
0.0
 11
221.626105738218
 21
404.2308177922119
 31
0.0
  0
LINE
  5
7AEC
330
2
100
AcDbEntity
  8
AM_VIS
100
AcDbLine
 10
226.5261057382179
 20
404.2308177922119
 30
0.0
 11
226.5261057382179
 21
407.0308177922121
 31
0.0
  0
LINE
  5
7AED
330
2
100
AcDbEntity
  8
AM_VIS
100
AcDbLine
 10
221.626105738218
 20
404.2308177922119
 30
0.0
 11
221.626105738218
 21
407.0308177922121
 31
0.0
  0
LINE
  5
7AEE
330
2
100
AcDbEntity
  8
AM_VIS
100
AcDbLine
 10
226.5261057382179
 20
399.730817792212
 30
0.0
 11
221.626105738218
 21
399.730817792212
 31
0.0
  0
LINE
  5
7AEF
330
2
100
AcDbEntity
  8
AM_VIS
100
AcDbLine
 10
221.9761057382179
 20
398.5308177922121
 30
0.0
 11
226.176105738218
 21
398.5308177922121
 31
0.0
  0
LINE
  5
7AF0
330
2
100
AcDbEntity
  8
AM_VIS
100
AcDbLine
 10
226.5261057382179
 20
401.2308177922119
 30
0.0
 11
221.626105738218
 21
401.2308177922119
 31
0.0
  0
LINE
  5
7AF1
330
2
100
AcDbEntity
  8
AM_VIS
100
AcDbLine
 10
221.626105738218
 20
400.0308177922121
 30
0.0
 11
226.5261057382179
 21
400.0308177922121
 31
0.0
  0
LINE
  5
7AF2
330
2
100
AcDbEntity
  8
AM_VIS
100
AcDbLine
 10
226.5261057382179
 20
402.7308177922119
 30
0.0
 11
221.626105738218
 21
402.7308177922119
 31
0.0
  0
LINE
  5
7AF3
330
2
100
AcDbEntity
  8
AM_VIS
100
AcDbLine
 10
221.626105738218
 20
401.5308177922121
 30
0.0
 11
226.5261057382179
 21
401.5308177922121
 31
0.0
  0
LINE
  5
7AF4
330
2
100
AcDbEntity
  8
AM_VIS
100
AcDbLine
 10
221.626105738218
 20
403.0308177922121
 30
0.0
 11
226.5261057382179
 21
403.0308177922121
 31
0.0
  0
LINE
  5
7AF5
330
2
100
AcDbEntity
  8
AM_VIS
100
AcDbLine
 10
226.5261057382179
 20
404.2308177922119
 30
0.0
 11
221.626105738218
 21
404.2308177922119
 31
0.0
  0
LINE
  5
7AF6
330
2
100
AcDbEntity
  8
AM_VIS
100
AcDbLine
 10
229.4761057382179
 20
407.630817792212
 30
0.0
 11
230.676105738218
 21
408.8308177922118
 31
0.0
  0
LINE
  5
7AF7
330
2
100
AcDbEntity
  8
AM_VIS
100
AcDbLine
 10
218.676105738218
 20
407.630817792212
 30
0.0
 11
217.476105738218
 21
408.8308177922118
 31
0.0
  0
LINE
  5
7AF8
330
2
100
AcDbEntity
  8
AM_VIS
100
AcDbLine
 10
217.176105738218
 20
416.130817792212
 30
0.0
 11
217.176105738218
 21
415.8308177922118
 31
0.0
  0
LINE
  5
7AF9
330
2
100
AcDbEntity
  8
AM_VIS
100
AcDbLine
 10
230.9761057382179
 20
416.130817792212
 30
0.0
 11
230.9761057382179
 21
415.8308177922118
 31
0.0
  0
LINE
  5
7AFA
330
2
100
AcDbEntity
  8
AM_VIS
100
AcDbLine
 10
229.4761057382179
 20
407.630817792212
 30
0.0
 11
218.676105738218
 21
407.630817792212
 31
0.0
  0
LINE
  5
7AFB
330
2
100
AcDbEntity
  8
AM_VIS
100
AcDbLine
 10
184.8761057382182
 20
438.0308177922121
 30
0.0
 11
184.8761057382182
 21
434.2308177922119
 31
0.0
  0
ARC
  5
7AFC
330
2
100
AcDbEntity
  8
AM_VIS
100
AcDbCircle
 10
186.7761057382181
 20
434.2308177922119
 30
0.0
 40
1.9
100
AcDbArc
 50
180.0
 51
206.5253520166011
  0
ARC
  5
7AFD
330
2
100
AcDbEntity
  8
AM_VIS
100
AcDbCircle
 10
186.7761057382181
 20
438.0308177922121
 30
0.0
 40
1.9
100
AcDbArc
 50
153.4746479833988
 51
180.0
  0
LINE
  5
7AFE
330
2
100
AcDbEntity
  8
AM_VIS
100
AcDbLine
 10
184.8761057382182
 20
504.0308177922121
 30
0.0
 11
184.8761057382182
 21
500.2308177922119
 31
0.0
  0
ARC
  5
7AFF
330
2
100
AcDbEntity
  8
AM_VIS
100
AcDbCircle
 10
186.7761057382181
 20
500.2308177922119
 30
0.0
 40
1.9
100
AcDbArc
 50
180.0
 51
206.5253520166011
  0
ARC
  5
7B00
330
2
100
AcDbEntity
  8
AM_VIS
100
AcDbCircle
 10
186.7761057382181
 20
504.0308177922121
 30
0.0
 40
1.9
100
AcDbArc
 50
153.4746479833988
 51
180.0
  0
LINE
  5
7B01
330
2
100
AcDbEntity
  8
AM_VIS
100
AcDbLine
 10
202.1284951486907
 20
510.130817792212
 30
0.0
 11
186.0761057382181
 21
510.130817792212
 31
0.0
  0
LINE
  5
7B02
330
2
100
AcDbEntity
  8
AM_VIS
100
AcDbLine
 10
185.0761057382181
 20
509.130817792212
 30
0.0
 11
185.0761057382181
 21
429.130817792212
 31
0.0
  0
LINE
  5
7B03
330
2
100
AcDbEntity
  8
AM_VIS
100
AcDbLine
 10
186.0761057382181
 20
428.130817792212
 30
0.0
 11
203.4463199418867
 21
428.130817792212
 31
0.0
  0
ARC
  5
7B04
330
2
100
AcDbEntity
  8
AM_VIS
100
AcDbCircle
 10
203.4037253326994
 20
429.0970051783314
 30
0.0
 40
0.9671258272984976
100
AcDbArc
 50
272.5242641061608
 51
2.003581032658521
  0
LINE
  5
7B05
330
2
100
AcDbEntity
  8
AM_VIS
100
AcDbLine
 10
203.0222504701385
 20
509.1307601084933
 30
0.0
 11
204.366459999977
 21
429.1307539439164
 31
0.0
  0
ARC
  5
7B06
330
2
100
AcDbEntity
  8
AM_VIS
100
AcDbCircle
 10
202.0487898709055
 20
509.1568336864642
 30
0.0
 40
0.9772399754187251
100
AcDbArc
 50
358.4745025740682
 51
85.32166651622329
  0
LINE
  5
7B07
330
2
100
AcDbEntity
  8
AM_VIS
100
AcDbLine
 10
185.0761057382181
 20
497.130817792212
 30
0.0
 11
184.5761057382181
 21
497.130817792212
 31
0.0
  0
LINE
  5
7B08
330
2
100
AcDbEntity
  8
AM_VIS
100
AcDbLine
 10
184.5761057382181
 20
496.130817792212
 30
0.0
 11
184.5761057382181
 21
442.130817792212
 31
0.0
  0
LINE
  5
7B09
330
2
100
AcDbEntity
  8
AM_VIS
100
AcDbLine
 10
184.5761057382181
 20
441.130817792212
 30
0.0
 11
185.0761057382181
 21
441.130817792212
 31
0.0
  0
ARC
  5
7B0A
330
2
100
AcDbEntity
  8
AM_VIS
100
AcDbCircle
 10
186.0761057382181
 20
509.130817792212
 30
0.0
 40
1.0
100
AcDbArc
 50
90.0
 51
180.0
  0
ARC
  5
7B0B
330
2
100
AcDbEntity
  8
AM_VIS
100
AcDbCircle
 10
186.0761057382181
 20
429.130817792212
 30
0.0
 40
1.0
100
AcDbArc
 50
180.0
 51
270.0
  0
LINE
  5
7B0C
330
2
100
AcDbEntity
  8
AM_VIS
100
AcDbLine
 10
184.5761057382181
 20
496.130817792212
 30
0.0
 11
184.5761057382181
 21
497.130817792212
 31
0.0
  0
LINE
  5
7B0D
330
2
100
AcDbEntity
  8
AM_VIS
100
AcDbLine
 10
184.5761057382181
 20
441.130817792212
 30
0.0
 11
184.5761057382181
 21
442.130817792212
 31
0.0
  0
LINE
  5
7B0E
330
2
100
AcDbEntity
  8
AM_VIS
100
AcDbLine
 10
230.4439648908221
 20
426.6292203051379
 30
0.0
 11
231.4345675243635
 21
512.1307020204864
 31
0.0
  0
SPLINE
  5
7B0F
330
2
100
AcDbEntity
  8
AM_VIS
100
AcDbSpline
210
0.0
220
0.0
230
1.0
 70
     8
 71
     3
 72
    22
 73
    18
 74
     0
 42
0.0000000001
 43
0.0000000001
 40
-6.1006211501114
 40
-6.1006211501114
 40
-6.1006211501114
 40
-6.1006211501114
 40
-6.065908688766395
 40
-6.065908688766395
 40
-6.022565889213563
 40
-6.022565889213563
 40
-5.873408695712271
 40
-5.873408695712271
 40
-5.619075567145561
 40
-5.619075567145561
 40
-5.364742438578847
 40
-5.364742438578847
 40
-4.85607618144542
 40
-4.85607618144542
 40
-4.13943573711699
 40
-4.13943573711699
 40
-3.431992775673761
 40
-3.431992775673761
 40
-3.431992775673761
 40
-3.431992775673761
 10
230.4315354594182
 20
426.6293643099812
 30
0.0
 10
230.4313892095799
 20
426.6176313077234
 30
0.0
 10
230.4289926492168
 20
426.6040472011544
 30
0.0
 10
230.420946927635
 20
426.5793040291852
 30
0.0
 10
230.4128941486176
 20
426.5639505776583
 30
0.0
 10
230.3765650421695
 20
426.5110586421798
 30
0.0
 10
230.3284759742025
 20
426.475744332307
 30
0.0
 10
230.2126365137031
 20
426.407402532406
 30
0.0
 10
230.1316273115347
 20
426.3760629293316
 30
0.0
 10
229.9624297560581
 20
426.3216059793109
 30
0.0
 10
229.8739875877593
 20
426.2992804084154
 30
0.0
 10
229.6047171834155
 20
426.2416776483085
 30
0.0
 10
229.4204618043129
 20
426.2159663938663
 30
0.0
 10
229.0144858961473
 20
426.1712095563376
 30
0.0
 10
228.7525035828385
 20
426.1539671796864
 30
0.0
 10
228.2311396158823
 20
426.1339728301824
 30
0.0
 10
227.9717761785716
 20
426.130817792212
 30
0.0
 10
227.7353612238346
 20
426.130817792212
 30
0.0
  0
LINE
  5
7B10
330
2
100
AcDbEntity
  8
AM_VIS
100
AcDbLine
 10
227.7353612238346
 20
426.130817792212
 30
0.0
 11
220.4168502526013
 21
426.130817792212
 31
0.0
  0
SPLINE
  5
7B11
330
2
100
AcDbEntity
  8
AM_VIS
100
AcDbSpline
210
0.0
220
0.0
230
1.0
 70
     8
 71
     3
 72
    22
 73
    18
 74
     0
 42
0.0000000001
 43
0.0000000001
 40
3.431992775673763
 40
3.431992775673763
 40
3.431992775673763
 40
3.431992775673763
 40
4.139435737116992
 40
4.139435737116992
 40
4.856076181445422
 40
4.856076181445422
 40
5.364742438578848
 40
5.364742438578848
 40
5.619075567145561
 40
5.619075567145561
 40
5.873408695712274
 40
5.873408695712274
 40
6.022565889213567
 40
6.022565889213567
 40
6.065908688766398
 40
6.065908688766398
 40
6.100621150111405
 40
6.100621150111405
 40
6.100621150111405
 40
6.100621150111405
 10
220.4168502526013
 20
426.130817792212
 30
0.0
 10
220.1804352978645
 20
426.130817792212
 30
0.0
 10
219.9210718605536
 20
426.1339728301824
 30
0.0
 10
219.3997078935975
 20
426.1539671796864
 30
0.0
 10
219.1377255802888
 20
426.1712095563376
 30
0.0
 10
218.7317496721232
 20
426.2159663938663
 30
0.0
 10
218.5474942930202
 20
426.2416776483085
 30
0.0
 10
218.2782238886769
 20
426.2992804084154
 30
0.0
 10
218.1897817203778
 20
426.3216059793109
 30
0.0
 10
218.0205841649015
 20
426.3760629293316
 30
0.0
 10
217.9395749627329
 20
426.407402532406
 30
0.0
 10
217.8237355022334
 20
426.475744332307
 30
0.0
 10
217.7756464342667
 20
426.5110586421798
 30
0.0
 10
217.7393173278185
 20
426.5639505776583
 30
0.0
 10
217.7312645488012
 20
426.5793040291852
 30
0.0
 10
217.7232188272192
 20
426.6040472011544
 30
0.0
 10
217.720822266856
 20
426.6176313077234
 30
0.0
 10
217.7206760170177
 20
426.6293643099812
 30
0.0
  0
LINE
  5
7B12
330
2
100
AcDbEntity
  8
AM_VIS
100
AcDbLine
 10
216.7176439520724
 20
512.1307020204864
 30
0.0
 11
217.708246585614
 21
426.6292203051379
 31
0.0
  0
LINE
  5
7B13
330
2
100
AcDbEntity
  8
AM_VIS
100
AcDbLine
 10
236.0761057382181
 20
416.130817792212
 30
0.0
 11
238.9405770125579
 21
418.9952890665519
 31
0.0
  0
LINE
  5
7B14
330
2
100
AcDbEntity
  8
AM_VIS
100
AcDbLine
 10
212.0761057382181
 20
416.130817792212
 30
0.0
 11
209.211634463878
 21
418.9952890665519
 31
0.0
  0
LINE
  5
7B15
330
2
100
AcDbEntity
  8
AM_VIS
100
AcDbLine
 10
196.5813140715513
 20
514.630817792212
 30
0.0
 11
196.5761057382181
 21
512.130817792212
 31
0.0
  0
LINE
  5
7B16
330
2
100
AcDbEntity
  8
AM_VIS
100
AcDbLine
 10
251.5708974048846
 20
514.630817792212
 30
0.0
 11
251.5761057382181
 21
512.130817792212
 31
0.0
  0
LINE
  5
7B17
330
2
100
AcDbEntity
  8
AM_VIS
100
AcDbLine
 10
251.3275550013511
 20
426.6293643099812
 30
0.0
 11
251.5761057382181
 21
512.130817792212
 31
0.0
  0
LINE
  5
7B18
330
2
100
AcDbEntity
  8
AM_VIS
100
AcDbLine
 10
196.824656475085
 20
426.6293643099812
 30
0.0
 11
196.8202917847295
 21
428.130817792212
 31
0.0
  0
LINE
  5
7B19
330
2
100
AcDbEntity
  8
AM_VIS
100
AcDbLine
 10
196.5819196917064
 20
510.130817792212
 30
0.0
 11
196.5761057382181
 21
512.130817792212
 31
0.0
  0
LINE
  5
7B1A
330
2
100
AcDbEntity
  8
AM_VIS
100
AcDbLine
 10
238.9405770125579
 20
418.9952890665519
 30
0.0
 11
209.211634463878
 21
418.9952890665519
 31
0.0
  0
LINE
  5
7B1B
330
2
100
AcDbEntity
  8
AM_VIS
100
AcDbLine
 10
220.4168502526013
 20
426.130817792212
 30
0.0
 11
197.3246543624698
 21
426.130817792212
 31
0.0
  0
LINE
  5
7B1C
330
2
100
AcDbEntity
  8
AM_VIS
100
AcDbLine
 10
250.8275571139661
 20
426.130817792212
 30
0.0
 11
227.7353612238346
 21
426.130817792212
 31
0.0
  0
LINE
  5
7B1D
330
2
100
AcDbEntity
  8
AM_VIS
100
AcDbLine
 10
251.5761057382181
 20
512.130817792212
 30
0.0
 11
231.4245749665677
 21
512.130817792212
 31
0.0
  0
LINE
  5
7B1E
330
2
100
AcDbEntity
  8
AM_VIS
100
AcDbLine
 10
216.7276365098685
 20
512.130817792212
 30
0.0
 11
196.5761057382181
 21
512.130817792212
 31
0.0
  0
LINE
  5
7B1F
330
2
100
AcDbEntity
  8
AM_VIS
100
AcDbLine
 10
231.4245749665679
 20
512.130817792212
 30
0.0
 11
216.7276365098685
 21
512.130817792212
 31
0.0
  0
LINE
  5
7B20
330
2
100
AcDbEntity
  8
AM_VIS
100
AcDbLine
 10
236.0761057382181
 20
416.130817792212
 30
0.0
 11
212.0761057382181
 21
416.130817792212
 31
0.0
  0
ARC
  5
7B21
330
2
100
AcDbEntity
  8
AM_VIS
100
AcDbCircle
 10
224.0761057382181
 20
456.130817792212
 30
0.0
 40
40.0
100
AcDbArc
 50
228.5903778907302
 51
248.1849455660716
  0
ARC
  5
7B22
330
2
100
AcDbEntity
  8
AM_VIS
100
AcDbCircle
 10
224.0761057382181
 20
456.130817792212
 30
0.0
 40
40.0
100
AcDbArc
 50
291.8150544339284
 51
311.4096221092698
  0
ARC
  5
7B23
330
2
100
AcDbEntity
  8
AM_VIS
100
AcDbCircle
 10
197.3246543624698
 20
426.630817792212
 30
0.0
 40
0.5
100
AcDbArc
 50
180.1665570294217
 51
270.0
  0
ARC
  5
7B24
330
2
100
AcDbEntity
  8
AM_VIS
100
AcDbCircle
 10
250.8275571139661
 20
426.630817792212
 30
0.0
 40
0.5
100
AcDbArc
 50
270.0
 51
359.8334429705783
  0
LINE
  5
7B25
330
2
100
AcDbEntity
  8
AM_VIS
100
AcDbLine
 10
251.0761057382181
 20
567.630817792212
 30
0.0
 11
249.0761057382181
 21
567.630817792212
 31
0.0
  0
LINE
  5
7B26
330
2
100
AcDbEntity
  8
AM_VIS
100
AcDbLine
 10
251.0761057382181
 20
542.630817792212
 30
0.0
 11
251.0761057382181
 21
566.630817792212
 31
0.0
  0
LINE
  5
7B27
330
2
100
AcDbEntity
  8
AM_VIS
100
AcDbLine
 10
251.0761057382181
 20
567.630817792212
 30
0.0
 11
251.0761057382181
 21
566.630817792212
 31
0.0
  0
LINE
  5
7B28
330
2
100
AcDbEntity
  8
AM_VIS
100
AcDbLine
 10
199.076105738218
 20
567.630817792212
 30
0.0
 11
186.576105738218
 21
567.630817792212
 31
0.0
  0
LINE
  5
7B29
330
2
100
AcDbEntity
  8
AM_VIS
100
AcDbLine
 10
186.576105738218
 20
540.630817792212
 30
0.0
 11
191.3843636616629
 21
540.630817792212
 31
0.0
  0
LINE
  5
7B2A
330
2
100
AcDbEntity
  8
AM_VIS
100
AcDbLine
 10
186.576105738218
 20
566.630817792212
 30
0.0
 11
186.576105738218
 21
541.630817792212
 31
0.0
  0
LINE
  5
7B2B
330
2
100
AcDbEntity
  8
AM_VIS
100
AcDbLine
 10
186.576105738218
 20
564.630817792212
 30
0.0
 11
185.9761057382181
 21
564.630817792212
 31
0.0
  0
LINE
  5
7B2C
330
2
100
AcDbEntity
  8
AM_VIS
100
AcDbLine
 10
186.576105738218
 20
543.630817792212
 30
0.0
 11
185.9761057382181
 21
543.630817792212
 31
0.0
  0
LINE
  5
7B2D
330
2
100
AcDbEntity
  8
AM_VIS
100
AcDbLine
 10
186.576105738218
 20
566.630817792212
 30
0.0
 11
186.576105738218
 21
567.630817792212
 31
0.0
  0
LINE
  5
7B2E
330
2
100
AcDbEntity
  8
AM_VIS
100
AcDbLine
 10
186.576105738218
 20
540.630817792212
 30
0.0
 11
186.576105738218
 21
541.630817792212
 31
0.0
  0
LINE
  5
7B2F
330
2
100
AcDbEntity
  8
AM_VIS
100
AcDbLine
 10
185.9761057382181
 20
543.630817792212
 30
0.0
 11
185.9761057382181
 21
564.630817792212
 31
0.0
  0
LINE
  5
7B30
330
2
100
AcDbEntity
  8
AM_VIS
100
AcDbLine
 10
201.1092710490745
 20
606.2279992538671
 30
0.0
 11
201.996032495492
 21
639.6308187346143
 31
0.0
  0
LINE
  5
7B31
330
2
100
AcDbEntity
  8
AM_VIS
100
AcDbLine
 10
201.0668768183616
 20
604.6308187606895
 30
0.0
 11
201.9960290790732
 21
639.6308188253002
 31
0.0
  0
LINE
  5
7B32
330
2
100
AcDbEntity
  8
AM_VIS
100
AcDbLine
 10
212.6319538892228
 20
604.6308179584736
 30
0.0
 11
213.0168213565243
 21
639.6308179695656
 31
0.0
  0
LINE
  5
7B33
330
2
100
AcDbEntity
  8
AM_VIS
100
AcDbLine
 10
230.5159924573561
 20
639.6308179695656
 30
0.0
 11
230.900859924657
 21
604.6308179584736
 31
0.0
  0
LINE
  5
7B34
330
2
100
AcDbEntity
  8
AM_VIS
100
AcDbLine
 10
246.1561789809116
 20
639.6308187346134
 30
0.0
 11
247.0429400106852
 21
606.2280149517852
 31
0.0
  0
LINE
  5
7B35
330
2
100
AcDbEntity
  8
AM_VIS
100
AcDbLine
 10
244.2427652355379
 20
639.6308188253002
 30
0.0
 11
245.1719174962493
 21
604.6308187606893
 31
0.0
  0
LINE
  5
7B36
330
2
100
AcDbEntity
  8
AM_VIS
100
AcDbLine
 10
245.5955101109002
 20
639.9323924909339
 30
0.0
 11
246.1561468351497
 21
639.6308240255226
 31
0.0
  0
LINE
  5
7B37
330
2
100
AcDbEntity
  8
AM_VIS
100
AcDbLine
 10
242.854639288543
 20
640.3773401565973
 30
0.0
 11
244.242747461645
 21
639.6308571049981
 31
0.0
  0
LINE
  5
7B38
330
2
100
AcDbEntity
  8
AM_VIS
100
AcDbLine
 10
229.9410292787991
 20
640.3773175483594
 30
0.0
 11
230.5160008233545
 21
639.6308366589923
 31
0.0
  0
LINE
  5
7B39
330
2
100
AcDbEntity
  8
AM_VIS
100
AcDbLine
 10
213.0168129905257
 20
639.6308366589924
 30
0.0
 11
213.5917845350805
 21
640.3773175483587
 31
0.0
  0
LINE
  5
7B3A
330
2
100
AcDbEntity
  8
AM_VIS
100
AcDbLine
 10
201.996046852966
 20
639.6308571049981
 30
0.0
 11
203.3841550260697
 21
640.3773401565983
 31
0.0
  0
LINE
  5
7B3B
330
2
100
AcDbEntity
  8
AM_VIS
100
AcDbLine
 10
201.9960646412867
 20
639.6308240255226
 30
0.0
 11
202.5567013655361
 21
639.9323924909341
 31
0.0
  0
LINE
  5
7B3C
330
2
100
AcDbEntity
  8
AM_VIS
100
AcDbLine
 10
246.1561823973632
 20
639.6308188253002
 30
0.0
 11
247.0853346580748
 21
604.6308187606893
 31
0.0
  0
LINE
  5
7B3D
330
2
100
AcDbEntity
  8
AM_VIS
100
AcDbLine
 10
244.7680564503682
 20
640.3773401565973
 30
0.0
 11
246.1561646234704
 21
639.6308571049981
 31
0.0
  0
ARC
  5
7B3E
330
2
100
AcDbEntity
  8
AM_VIS
100
AcDbCircle
 10
246.9477050078124
 20
606.0032040938186
 30
0.0
 40
1.38850053628781
100
AcDbArc
 50
278.7375637982422
 51
324.3581904662049
  0
LINE
  5
7B3F
330
2
100
AcDbEntity
  8
AM_VIS
100
AcDbLine
 10
242.8546591548022
 20
640.3772977827535
 30
0.0
 11
243.7402982705592
 21
606.0912617489868
 31
0.0
  0
LINE
  5
7B40
330
2
100
AcDbEntity
  8
AM_VIS
100
AcDbLine
 10
235.1353901199122
 20
639.6308179695656
 30
0.0
 11
235.5202575872138
 21
604.6308179584736
 31
0.0
  0
LINE
  5
7B41
330
2
100
AcDbEntity
  8
AM_VIS
100
AcDbLine
 10
234.5604269413554
 20
640.3773175483594
 30
0.0
 11
235.1353984859108
 21
639.6308366589923
 31
0.0
  0
ARC
  5
7B42
330
2
100
AcDbEntity
  8
AM_VIS
100
AcDbCircle
 10
245.1745207336399
 20
606.0616476575806
 30
0.0
 40
1.43456863637625
100
AcDbArc
 50
178.8171893676628
 51
265.8625213658872
  0
ARC
  5
7B43
330
2
100
AcDbEntity
  8
AM_VIS
100
AcDbCircle
 10
240.3979155496243
 20
585.1013099454588
 30
0.0
 40
20.07486491154265
100
AcDbArc
 50
76.61433671475383
 51
103.3856632852461
  0
LINE
  5
7B44
330
2
100
AcDbEntity
  8
AM_VIS
100
AcDbLine
 10
229.9410200931754
 20
640.3772968572565
 30
0.0
 11
230.307863825692
 21
606.0912608824795
 31
0.0
  0
LINE
  5
7B45
330
2
100
AcDbEntity
  8
AM_VIS
100
AcDbLine
 10
217.2513515517794
 20
604.6308179584736
 30
0.0
 11
217.6362190190805
 21
639.6308179695656
 31
0.0
  0
LINE
  5
7B46
330
2
100
AcDbEntity
  8
AM_VIS
100
AcDbLine
 10
217.6362106530821
 20
639.6308366589923
 30
0.0
 11
218.2111821976369
 21
640.3773175483587
 31
0.0
  0
LINE
  5
7B47
330
2
100
AcDbEntity
  8
AM_VIS
100
AcDbLine
 10
217.8443476507657
 20
606.0912608824797
 30
0.0
 11
218.2111913832405
 21
640.3772968572558
 31
0.0
  0
SPLINE
  5
7B48
330
2
100
AcDbEntity
  8
AM_VIS
100
AcDbSpline
210
0.0
220
0.0
230
1.0
 70
     8
 71
     3
 72
    14
 73
    10
 74
     0
 42
0.0000000001
 43
0.0000000001
 40
0.0
 40
0.0
 40
0.0
 40
0.0
 40
0.5402435453851082
 40
0.5402435453851082
 40
1.114447522162285
 40
1.114447522162285
 40
1.699413537159164
 40
1.699413537159164
 40
2.267815161163222
 40
2.267815161163222
 40
2.267815161163222
 40
2.267815161163222
 10
217.2931460065706
 20
604.630817792212
 30
0.0
 10
217.3620600913243
 20
604.630817792212
 30
0.0
 10
217.4301347420301
 20
604.6675474701183
 30
0.0
 10
217.5614376276728
 20
604.8107635505242
 30
0.0
 10
217.6226951264491
 20
604.9199163634646
 30
0.0
 10
217.7270768673375
 20
605.1945568943677
 30
0.0
 10
217.7691038564562
 20
605.3591034927061
 30
0.0
 10
217.8265211543617
 20
605.7139489641764
 30
0.0
 10
217.8423352051893
 20
605.9015522574615
 30
0.0
 10
217.8443644346357
 20
606.0912607029003
 30
0.0
  0
SPLINE
  5
7B49
330
2
100
AcDbEntity
  8
AM_VIS
100
AcDbSpline
210
0.0
220
0.0
230
1.0
 70
     8
 71
     3
 72
    14
 73
    10
 74
     0
 42
0.0000000001
 43
0.0000000001
 40
0.0
 40
0.0
 40
0.0
 40
0.0
 40
0.6055408160244454
 40
0.6055408160244454
 40
1.21737548985441
 40
1.21737548985441
 40
1.781805823365389
 40
1.781805823365389
 40
2.271351589225273
 40
2.271351589225273
 40
2.271351589225273
 40
2.271351589225273
 10
230.3078470418009
 20
606.0912607029003
 30
0.0
 10
230.3100052685447
 20
605.8894925680767
 30
0.0
 10
230.3277546790027
 20
605.6901802914918
 30
0.0
 10
230.3915809582457
 20
605.3200301877296
 30
0.0
 10
230.4375654385578
 20
605.1517420164028
 30
0.0
 10
230.5475954979645
 20
604.8851348391096
 30
0.0
 10
230.6092172501751
 20
604.7842457124537
 30
0.0
 10
230.7349823875911
 20
604.6608962275935
 30
0.0
 10
230.7967112145564
 20
604.630817792212
 30
0.0
 10
230.859065469866
 20
604.630817792212
 30
0.0
  0
ARC
  5
7B4A
330
2
100
AcDbEntity
  8
AM_VIS
100
AcDbCircle
 10
224.0761057382183
 20
565.8883385487732
 30
0.0
 40
39.296014389361
100
AcDbArc
 50
80.37175572092225
 51
99.62824427907776
  0
LINE
  5
7B4B
330
2
100
AcDbEntity
  8
AM_VIS
100
AcDbLine
 10
202.9802939801871
 20
604.6308187606893
 30
0.0
 11
203.9094462408987
 21
639.6308188253002
 31
0.0
  0
LINE
  5
7B4C
330
2
100
AcDbEntity
  8
AM_VIS
100
AcDbLine
 10
203.9094640147916
 20
639.6308571049981
 30
0.0
 11
205.2975721878952
 21
640.3773401565983
 31
0.0
  0
LINE
  5
7B4D
330
2
100
AcDbEntity
  8
AM_VIS
100
AcDbLine
 10
204.4119132058274
 20
606.0912617489877
 30
0.0
 11
205.297552321684
 21
640.377297782753
 31
0.0
  0
ARC
  5
7B4E
330
2
100
AcDbEntity
  8
AM_VIS
100
AcDbCircle
 10
202.9777250943732
 20
606.0616163563437
 30
0.0
 40
1.434534938611205
100
AcDbArc
 50
274.1362003974335
 51
1.184088869010069
  0
ARC
  5
7B4F
330
2
100
AcDbEntity
  8
AM_VIS
100
AcDbCircle
 10
207.7542959268121
 20
586.4397413963378
 30
0.0
 40
18.77535046066588
100
AcDbArc
 50
75.66873154246888
 51
104.3312684575311
  0
ARC
  5
7B50
330
2
100
AcDbEntity
  8
AM_VIS
100
AcDbCircle
 10
201.21492252958
 20
606.0201697223657
 30
0.0
 40
1.406872732303374
100
AcDbArc
 50
215.9561294193844
 51
260.9481163161679
  0
LINE
  5
7B51
330
2
100
AcDbEntity
  8
AM_VIS
100
AcDbLine
 10
246.0761057382181
 20
597.630817792212
 30
0.0
 11
248.0761057382181
 21
600.630817792212
 31
0.0
  0
LINE
  5
7B52
330
2
100
AcDbEntity
  8
AM_VIS
100
AcDbLine
 10
202.0761057382181
 20
597.630817792212
 30
0.0
 11
200.0761057382181
 21
600.630817792212
 31
0.0
  0
LINE
  5
7B53
330
2
100
AcDbEntity
  8
AM_VIS
100
AcDbLine
 10
200.0761057382181
 20
605.1941024123897
 30
0.0
 11
200.0761057382181
 21
600.630817792212
 31
0.0
  0
LINE
  5
7B54
330
2
100
AcDbEntity
  8
AM_VIS
100
AcDbLine
 10
248.0761057382181
 20
605.1941024123897
 30
0.0
 11
248.0761057382181
 21
600.630817792212
 31
0.0
  0
LINE
  5
7B55
330
2
100
AcDbEntity
  8
AM_VIS
100
AcDbLine
 10
205.0761057382181
 20
642.630817792212
 30
0.0
 11
205.0761057382181
 21
641.630817792212
 31
0.0
  0
LINE
  5
7B56
330
2
100
AcDbEntity
  8
AM_VIS
100
AcDbLine
 10
243.0761057382181
 20
642.630817792212
 30
0.0
 11
243.0761057382181
 21
641.630817792212
 31
0.0
  0
LINE
  5
7B57
330
2
100
AcDbEntity
  8
AM_VIS
100
AcDbLine
 10
202.5690634846971
 20
640.3772966654515
 30
0.0
 11
202.5567048551959
 21
639.932386003414
 31
0.0
  0
LINE
  5
7B58
330
2
100
AcDbEntity
  8
AM_VIS
100
AcDbLine
 10
205.0761057382181
 20
641.630817792212
 30
0.0
 11
202.5690634846971
 21
640.3772966654515
 31
0.0
  0
LINE
  5
7B59
330
2
100
AcDbEntity
  8
AM_VIS
100
AcDbLine
 10
243.0761057382181
 20
641.630817792212
 30
0.0
 11
245.5831479917392
 21
640.3772966654515
 31
0.0
  0
LINE
  5
7B5A
330
2
100
AcDbEntity
  8
AM_VIS
100
AcDbLine
 10
245.5831479917392
 20
640.3772966654515
 30
0.0
 11
245.5955066212403
 21
639.9323860034138
 31
0.0
  0
SPLINE
  5
7B5B
330
2
100
AcDbEntity
  8
AM_VIS
100
AcDbSpline
210
0.0
220
0.0
230
1.0
 70
     8
 71
     1
 72
     5
 73
     3
 74
     0
 42
0.0000000001
 43
0.0000000001
 40
1.905975479025136
 40
1.905975479025136
 40
2.249471387781666
 40
3.372577492490002
 40
3.372577492490002
 10
247.0429066359009
 20
606.2280140657679
 30
0.0
 10
247.2439916666179
 20
605.9483924721663
 30
0.0
 10
248.0761057382181
 20
605.1941024123897
 30
0.0
  0
SPLINE
  5
7B5C
330
2
100
AcDbEntity
  8
AM_VIS
100
AcDbSpline
210
0.0
220
0.0
230
1.0
 70
     8
 71
     1
 72
     5
 73
     3
 74
     0
 42
0.0000000001
 43
0.0000000001
 40
0.0
 40
0.0
 40
1.135003531818764
 40
1.466495858127395
 40
1.466495858127395
 10
200.0761057382181
 20
605.1941024123897
 30
0.0
 10
200.9157206317295
 20
605.9578300129352
 30
0.0
 10
201.1093044238894
 20
606.2279983678491
 30
0.0
  0
LINE
  5
7B5D
330
2
100
AcDbEntity
  8
AM_VIS
100
AcDbLine
 10
202.0761057382181
 20
597.630817792212
 30
0.0
 11
246.0761057382181
 21
597.630817792212
 31
0.0
  0
LINE
  5
7B5E
330
2
100
AcDbEntity
  8
AM_VIS
100
AcDbLine
 10
200.0761057382181
 20
600.630817792212
 30
0.0
 11
248.0761057382181
 21
600.630817792212
 31
0.0
  0
LINE
  5
7B5F
330
2
100
AcDbEntity
  8
AM_VIS
100
AcDbLine
 10
205.0761057382181
 20
642.630817792212
 30
0.0
 11
243.0761057382181
 21
642.630817792212
 31
0.0
  0
LINE
  5
7B60
330
2
100
AcDbEntity
  8
AM_VIS
100
AcDbLine
 10
201.066913299687
 20
604.630817792212
 30
0.0
 11
202.9803304615127
 21
604.630817792212
 31
0.0
  0
LINE
  5
7B61
330
2
100
AcDbEntity
  8
AM_VIS
100
AcDbLine
 10
212.6319690091009
 20
604.630817792212
 30
0.0
 11
217.2513666716572
 21
604.630817792212
 31
0.0
  0
LINE
  5
7B62
330
2
100
AcDbEntity
  8
AM_VIS
100
AcDbLine
 10
230.9008448047793
 20
604.630817792212
 30
0.0
 11
235.5202424673357
 21
604.630817792212
 31
0.0
  0
LINE
  5
7B63
330
2
100
AcDbEntity
  8
AM_VIS
100
AcDbLine
 10
245.1718810149239
 20
604.630817792212
 30
0.0
 11
247.0852981767493
 21
604.630817792212
 31
0.0
  0
LINE
  5
7B64
330
2
100
AcDbEntity
  8
AM_VIS
100
AcDbLine
 10
246.15614348223
 20
639.630817792212
 30
0.0
 11
244.2427263204047
 21
639.630817792212
 31
0.0
  0
LINE
  5
7B65
330
2
100
AcDbEntity
  8
AM_VIS
100
AcDbLine
 10
235.1353739913232
 20
639.630817792212
 30
0.0
 11
230.5159763287668
 21
639.630817792212
 31
0.0
  0
LINE
  5
7B66
330
2
100
AcDbEntity
  8
AM_VIS
100
AcDbLine
 10
217.6362351476698
 20
639.630817792212
 30
0.0
 11
213.0168374851134
 21
639.630817792212
 31
0.0
  0
LINE
  5
7B67
330
2
100
AcDbEntity
  8
AM_VIS
100
AcDbLine
 10
203.9094851560319
 20
639.630817792212
 30
0.0
 11
201.9960679942062
 21
639.630817792212
 31
0.0
  0
LINE
  5
7B68
330
2
100
AcDbEntity
  8
AM_VIS
100
AcDbLine
 10
202.5690634846971
 20
640.3772966654515
 30
0.0
 11
203.3841784143064
 21
640.3772966654515
 31
0.0
  0
LINE
  5
7B69
330
2
100
AcDbEntity
  8
AM_VIS
100
AcDbLine
 10
205.0761057382181
 20
641.630817792212
 30
0.0
 11
243.0761057382181
 21
641.630817792212
 31
0.0
  0
LINE
  5
7B6A
330
2
100
AcDbEntity
  8
AM_VIS
100
AcDbLine
 10
244.7680330621299
 20
640.3772966654515
 30
0.0
 11
245.5831479917395
 21
640.3772966654515
 31
0.0
  0
LINE
  5
7B6B
330
2
100
AcDbEntity
  8
AM_VIS
100
AcDbLine
 10
247.0852981767493
 20
604.630817792212
 30
0.0
 11
247.1586305359776
 21
604.630817792212
 31
0.0
  0
LINE
  5
7B6C
330
2
100
AcDbEntity
  8
AM_VIS
100
AcDbLine
 10
234.5603998292465
 20
640.3772966654515
 30
0.0
 11
242.8546159003047
 21
640.3772966654515
 31
0.0
  0
LINE
  5
7B6D
330
2
100
AcDbEntity
  8
AM_VIS
100
AcDbLine
 10
235.5202424673357
 20
604.630817792212
 30
0.0
 11
235.7504942775165
 21
604.630817792212
 31
0.0
  0
LINE
  5
7B6E
330
2
100
AcDbEntity
  8
AM_VIS
100
AcDbLine
 10
245.045336821725
 20
604.630817792212
 30
0.0
 11
245.1718810149239
 21
604.630817792212
 31
0.0
  0
LINE
  5
7B6F
330
2
100
AcDbEntity
  8
AM_VIS
100
AcDbLine
 10
218.2112093097464
 20
640.3772966654515
 30
0.0
 11
229.9410021666899
 21
640.3772966654515
 31
0.0
  0
LINE
  5
7B70
330
2
100
AcDbEntity
  8
AM_VIS
100
AcDbLine
 10
217.2513666716572
 20
604.630817792212
 30
0.0
 11
217.5036595451472
 21
604.630817792212
 31
0.0
  0
LINE
  5
7B71
330
2
100
AcDbEntity
  8
AM_VIS
100
AcDbLine
 10
230.6485519312894
 20
604.630817792212
 30
0.0
 11
230.9008448047793
 21
604.630817792212
 31
0.0
  0
LINE
  5
7B72
330
2
100
AcDbEntity
  8
AM_VIS
100
AcDbLine
 10
205.2975955761319
 20
640.3772966654515
 30
0.0
 11
213.5918116471903
 21
640.3772966654515
 31
0.0
  0
LINE
  5
7B73
330
2
100
AcDbEntity
  8
AM_VIS
100
AcDbLine
 10
202.9803304615127
 20
604.630817792212
 30
0.0
 11
203.1068746547114
 21
604.630817792212
 31
0.0
  0
LINE
  5
7B74
330
2
100
AcDbEntity
  8
AM_VIS
100
AcDbLine
 10
212.4017171989201
 20
604.630817792212
 30
0.0
 11
212.6319690091009
 21
604.630817792212
 31
0.0
  0
LINE
  5
7B75
330
2
100
AcDbEntity
  8
AM_VIS
100
AcDbLine
 10
200.9935809404585
 20
604.630817792212
 30
0.0
 11
201.066913299687
 21
604.630817792212
 31
0.0
  0
LINE
  5
7B76
330
2
100
AcDbEntity
  8
AM_VIS
100
AcDbLine
 10
243.3361057382181
 20
582.630817792212
 30
0.0
 11
242.8629444336721
 21
583.9308177922119
 31
0.0
  0
LINE
  5
7B77
330
2
100
AcDbEntity
  8
AM_VIS
100
AcDbLine
 10
242.3429444336721
 20
583.9308177922119
 30
0.0
 11
242.8161057382181
 21
582.630817792212
 31
0.0
  0
LINE
  5
7B78
330
2
100
AcDbEntity
  8
AM_VIS
100
AcDbLine
 10
238.4761057382182
 20
583.9308177922119
 30
0.0
 11
238.4761057382182
 21
582.630817792212
 31
0.0
  0
LINE
  5
7B79
330
2
100
AcDbEntity
  8
AM_VIS
100
AcDbLine
 10
247.676105738218
 20
583.9308177922119
 30
0.0
 11
247.676105738218
 21
582.630817792212
 31
0.0
  0
LINE
  5
7B7A
330
2
100
AcDbEntity
  8
AM_VIS
100
AcDbLine
 10
205.336105738218
 20
579.630817792212
 30
0.0
 11
204.9721355039519
 21
580.630817792212
 31
0.0
  0
LINE
  5
7B7B
330
2
100
AcDbEntity
  8
AM_VIS
100
AcDbLine
 10
204.4521355039519
 20
580.630817792212
 30
0.0
 11
204.8161057382181
 21
579.630817792212
 31
0.0
  0
LINE
  5
7B7C
330
2
100
AcDbEntity
  8
AM_VIS
100
AcDbLine
 10
200.4761057382182
 20
580.630817792212
 30
0.0
 11
200.4761057382182
 21
579.630817792212
 31
0.0
  0
LINE
  5
7B7D
330
2
100
AcDbEntity
  8
AM_VIS
100
AcDbLine
 10
209.676105738218
 20
580.630817792212
 30
0.0
 11
209.676105738218
 21
579.630817792212
 31
0.0
  0
LINE
  5
7B7E
330
2
100
AcDbEntity
  8
AM_VIS
100
AcDbLine
 10
247.8261057382181
 20
583.9308177922119
 30
0.0
 11
247.8261057382181
 21
584.3108177922118
 31
0.0
  0
LINE
  5
7B7F
330
2
100
AcDbEntity
  8
AM_VIS
100
AcDbLine
 10
238.3261057382181
 20
583.9308177922119
 30
0.0
 11
238.3261057382181
 21
584.3108177922121
 31
0.0
  0
LINE
  5
7B80
330
2
100
AcDbEntity
  8
AM_VIS
100
AcDbLine
 10
247.8261057382181
 20
583.9308177922119
 30
0.0
 11
238.3261057382181
 21
583.9308177922119
 31
0.0
  0
LINE
  5
7B81
330
2
100
AcDbEntity
  8
AM_VIS
100
AcDbLine
 10
245.4561057382182
 20
586.680817792212
 30
0.0
 11
240.6961057382182
 21
586.680817792212
 31
0.0
  0
ARC
  5
7B82
330
2
100
AcDbEntity
  8
AM_VIS
100
AcDbCircle
 10
240.696105738218
 20
584.3108177922121
 30
0.0
 40
2.369999999999999
100
AcDbArc
 50
90.0
 51
180.0
  0
ARC
  5
7B83
330
2
100
AcDbEntity
  8
AM_VIS
100
AcDbCircle
 10
245.4561057382182
 20
584.3108177922121
 30
0.0
 40
2.369999999999999
100
AcDbArc
 50
0.0
 51
90.0
  0
LINE
  5
7B84
330
2
100
AcDbEntity
  8
AM_VIS
100
AcDbLine
 10
209.8261057382181
 20
580.630817792212
 30
0.0
 11
209.8261057382181
 21
581.0108177922119
 31
0.0
  0
LINE
  5
7B85
330
2
100
AcDbEntity
  8
AM_VIS
100
AcDbLine
 10
200.3261057382181
 20
580.630817792212
 30
0.0
 11
200.3261057382181
 21
581.0108177922121
 31
0.0
  0
LINE
  5
7B86
330
2
100
AcDbEntity
  8
AM_VIS
100
AcDbLine
 10
209.8261057382181
 20
580.630817792212
 30
0.0
 11
200.3261057382181
 21
580.630817792212
 31
0.0
  0
LINE
  5
7B87
330
2
100
AcDbEntity
  8
AM_VIS
100
AcDbLine
 10
207.4561057382182
 20
583.380817792212
 30
0.0
 11
202.6961057382182
 21
583.380817792212
 31
0.0
  0
ARC
  5
7B88
330
2
100
AcDbEntity
  8
AM_VIS
100
AcDbCircle
 10
202.696105738218
 20
581.0108177922121
 30
0.0
 40
2.369999999999999
100
AcDbArc
 50
90.0
 51
180.0
  0
ARC
  5
7B89
330
2
100
AcDbEntity
  8
AM_VIS
100
AcDbCircle
 10
207.4561057382182
 20
581.0108177922121
 30
0.0
 40
2.369999999999999
100
AcDbArc
 50
0.0
 51
90.0
  0
LINE
  5
7B8A
330
2
100
AcDbEntity
  8
AM_VIS
100
AcDbLine
 10
200.3261057382181
 20
581.0108177922121
 30
0.0
 11
200.3261057382181
 21
581.3108177922123
 31
0.0
  0
LINE
  5
7B8B
330
2
100
AcDbEntity
  8
AM_VIS
100
AcDbLine
 10
203.0761057382181
 20
583.6808177922121
 30
0.0
 11
202.6961057382182
 21
583.6808177922121
 31
0.0
  0
ARC
  5
7B8C
330
2
100
AcDbEntity
  8
AM_VIS
100
AcDbCircle
 10
202.6961057382182
 20
581.3108177922123
 30
0.0
 40
2.369999999999999
100
AcDbArc
 50
90.0
 51
180.0
  0
LINE
  5
7B8D
330
2
100
AcDbEntity
  8
AM_VIS
100
AcDbLine
 10
249.0761057382179
 20
569.630817792212
 30
0.0
 11
249.0761057382179
 21
579.130817792212
 31
0.0
  0
LINE
  5
7B8E
330
2
100
AcDbEntity
  8
AM_VIS
100
AcDbLine
 10
199.0761057382178
 20
579.130817792212
 30
0.0
 11
199.0761057382178
 21
569.630817792212
 31
0.0
  0
LINE
  5
7B8F
330
2
100
AcDbEntity
  8
AM_VIS
100
AcDbLine
 10
234.0761057382181
 20
579.630817792212
 30
0.0
 11
205.0761057382179
 21
579.630817792212
 31
0.0
  0
LINE
  5
7B90
330
2
100
AcDbEntity
  8
AM_VIS
100
AcDbLine
 10
244.0761057382179
 20
586.680817792212
 30
0.0
 11
244.0761057382179
 21
592.630817792212
 31
0.0
  0
LINE
  5
7B91
330
2
100
AcDbEntity
  8
AM_VIS
100
AcDbLine
 10
204.0761057382178
 20
585.630817792212
 30
0.0
 11
204.0761057382178
 21
592.630817792212
 31
0.0
  0
LINE
  5
7B92
330
2
100
AcDbEntity
  8
AM_VIS
100
AcDbLine
 10
242.0761057382179
 20
594.630817792212
 30
0.0
 11
242.0761057382179
 21
597.630817792212
 31
0.0
  0
LINE
  5
7B93
330
2
100
AcDbEntity
  8
AM_VIS
100
AcDbLine
 10
206.0761057382178
 20
594.630817792212
 30
0.0
 11
206.0761057382178
 21
597.630817792212
 31
0.0
  0
LINE
  5
7B94
330
2
100
AcDbEntity
  8
AM_VIS
100
AcDbLine
 10
206.0761057382178
 20
594.630817792212
 30
0.0
 11
204.0761057382178
 21
592.630817792212
 31
0.0
  0
LINE
  5
7B95
330
2
100
AcDbEntity
  8
AM_VIS
100
AcDbLine
 10
242.0761057382179
 20
594.630817792212
 30
0.0
 11
244.0761057382179
 21
592.630817792212
 31
0.0
  0
LINE
  5
7B96
330
2
100
AcDbEntity
  8
AM_VIS
100
AcDbLine
 10
204.0761057382178
 20
585.630817792212
 30
0.0
 11
203.0761057382179
 21
584.630817792212
 31
0.0
  0
LINE
  5
7B97
330
2
100
AcDbEntity
  8
AM_VIS
100
AcDbLine
 10
203.0761057382179
 20
583.380817792212
 30
0.0
 11
203.0761057382179
 21
584.630817792212
 31
0.0
  0
LINE
  5
7B98
330
2
100
AcDbEntity
  8
AM_VIS
100
AcDbLine
 10
244.0761057382179
 20
592.630817792212
 30
0.0
 11
204.0761057382178
 21
592.630817792212
 31
0.0
  0
LINE
  5
7B99
330
2
100
AcDbEntity
  8
AM_VIS
100
AcDbLine
 10
242.0761057382179
 20
594.630817792212
 30
0.0
 11
206.0761057382178
 21
594.630817792212
 31
0.0
  0
LINE
  5
7B9A
330
2
100
AcDbEntity
  8
AM_VIS
100
AcDbLine
 10
238.7277307739391
 20
585.630817792212
 30
0.0
 11
204.0761057382178
 21
585.630817792212
 31
0.0
  0
ARC
  5
7B9B
330
2
100
AcDbEntity
  8
AM_VIS
100
AcDbCircle
 10
199.5761057382178
 20
579.130817792212
 30
0.0
 40
0.5
100
AcDbArc
 50
90.0
 51
180.0
  0
ARC
  5
7B9C
330
2
100
AcDbEntity
  8
AM_VIS
100
AcDbCircle
 10
248.5761057382179
 20
579.130817792212
 30
0.0
 40
0.5
100
AcDbArc
 50
0.0
 51
90.0
  0
LINE
  5
7B9D
330
2
100
AcDbEntity
  8
AM_VIS
100
AcDbLine
 10
238.3478084827582
 20
584.630817792212
 30
0.0
 11
203.0761057382179
 21
584.630817792212
 31
0.0
  0
LINE
  5
7B9E
330
2
100
AcDbEntity
  8
AM_VIS
100
AcDbLine
 10
199.5761057382178
 20
579.630817792212
 30
0.0
 11
205.0761057382179
 21
579.630817792212
 31
0.0
  0
LINE
  5
7B9F
330
2
100
AcDbEntity
  8
AM_VIS
100
AcDbLine
 10
190.076105738218
 20
517.630817792212
 30
0.0
 11
190.076105738218
 21
519.6935920124862
 31
0.0
  0
LINE
  5
7BA0
330
2
100
AcDbEntity
  8
AM_VIS
100
AcDbLine
 10
190.076105738218
 20
523.2475786372382
 30
0.0
 11
190.076105738218
 21
540.630817792212
 31
0.0
  0
LINE
  5
7BA1
330
2
100
AcDbEntity
  8
AM_VIS
100
AcDbLine
 10
224.0761057382181
 20
569.630817792212
 30
0.0
 11
224.0761057382181
 21
567.630817792212
 31
0.0
  0
LINE
  5
7BA2
330
2
100
AcDbEntity
  8
AM_VIS
100
AcDbLine
 10
258.0761057382181
 20
517.630817792212
 30
0.0
 11
258.0761057382181
 21
541.630817792212
 31
0.0
  0
LINE
  5
7BA3
330
2
100
AcDbEntity
  8
AM_VIS
100
AcDbLine
 10
258.0761057382181
 20
542.630817792212
 30
0.0
 11
258.0761057382181
 21
541.630817792212
 31
0.0
  0
LINE
  5
7BA4
330
2
100
AcDbEntity
  8
AM_VIS
100
AcDbLine
 10
190.076105738218
 20
517.630817792212
 30
0.0
 11
190.076105738218
 21
516.130817792212
 31
0.0
  0
LINE
  5
7BA5
330
2
100
AcDbEntity
  8
AM_VIS
100
AcDbLine
 10
258.0761057382181
 20
517.630817792212
 30
0.0
 11
258.0761057382181
 21
516.130817792212
 31
0.0
  0
LINE
  5
7BA6
330
2
100
AcDbEntity
  8
AM_VIS
100
AcDbLine
 10
199.076105738218
 20
569.630817792212
 30
0.0
 11
199.076105738218
 21
542.630817792212
 31
0.0
  0
LINE
  5
7BA7
330
2
100
AcDbEntity
  8
AM_VIS
100
AcDbLine
 10
249.0761057382181
 20
542.630817792212
 30
0.0
 11
249.0761057382181
 21
569.630817792212
 31
0.0
  0
LINE
  5
7BA8
330
2
100
AcDbEntity
  8
AM_VIS
100
AcDbLine
 10
241.0761057382181
 20
537.630817792212
 30
0.0
 11
241.0761057382181
 21
567.630817792212
 31
0.0
  0
LINE
  5
7BA9
330
2
100
AcDbEntity
  8
AM_VIS
100
AcDbLine
 10
241.0761057382181
 20
537.630817792212
 30
0.0
 11
207.0761057382181
 21
537.630817792212
 31
0.0
  0
LINE
  5
7BAA
330
2
100
AcDbEntity
  8
AM_VIS
100
AcDbLine
 10
207.0761057382181
 20
537.630817792212
 30
0.0
 11
207.0761057382181
 21
567.630817792212
 31
0.0
  0
LINE
  5
7BAB
330
2
100
AcDbEntity
  8
AM_VIS
100
AcDbLine
 10
241.0761057382181
 20
567.630817792212
 30
0.0
 11
207.0761057382181
 21
567.630817792212
 31
0.0
  0
LINE
  5
7BAC
330
2
100
AcDbEntity
  8
AM_VIS
100
AcDbLine
 10
258.5761057382181
 20
521.630817792212
 30
0.0
 11
258.5761057382181
 21
523.630817792212
 31
0.0
  0
LINE
  5
7BAD
330
2
100
AcDbEntity
  8
AM_VIS
100
AcDbLine
 10
258.0761057382181
 20
521.630817792212
 30
0.0
 11
258.5761057382181
 21
521.630817792212
 31
0.0
  0
LINE
  5
7BAE
330
2
100
AcDbEntity
  8
AM_VIS
100
AcDbLine
 10
258.0761057382181
 20
523.630817792212
 30
0.0
 11
258.5761057382181
 21
523.630817792212
 31
0.0
  0
LINE
  5
7BAF
330
2
100
AcDbEntity
  8
AM_VIS
100
AcDbLine
 10
258.0761057382181
 20
525.630817792212
 30
0.0
 11
258.5761057382181
 21
525.630817792212
 31
0.0
  0
LINE
  5
7BB0
330
2
100
AcDbEntity
  8
AM_VIS
100
AcDbLine
 10
258.5761057382181
 20
523.630817792212
 30
0.0
 11
258.5761057382181
 21
525.630817792212
 31
0.0
  0
LINE
  5
7BB1
330
2
100
AcDbEntity
  8
AM_VIS
100
AcDbLine
 10
190.076105738218
 20
521.630817792212
 30
0.0
 11
189.5761057382181
 21
521.630817792212
 31
0.0
  0
LINE
  5
7BB2
330
2
100
AcDbEntity
  8
AM_VIS
100
AcDbLine
 10
189.5761057382181
 20
523.630817792212
 30
0.0
 11
189.5761057382181
 21
521.630817792212
 31
0.0
  0
LINE
  5
7BB3
330
2
100
AcDbEntity
  8
AM_VIS
100
AcDbLine
 10
190.076105738218
 20
523.630817792212
 30
0.0
 11
189.5761057382181
 21
523.630817792212
 31
0.0
  0
LINE
  5
7BB4
330
2
100
AcDbEntity
  8
AM_VIS
100
AcDbLine
 10
189.5761057382181
 20
525.630817792212
 30
0.0
 11
189.5761057382181
 21
523.630817792212
 31
0.0
  0
LINE
  5
7BB5
330
2
100
AcDbEntity
  8
AM_VIS
100
AcDbLine
 10
190.076105738218
 20
525.630817792212
 30
0.0
 11
189.5761057382181
 21
525.630817792212
 31
0.0
  0
LINE
  5
7BB6
330
2
100
AcDbEntity
  8
AM_VIS
100
AcDbLine
 10
224.0761057382181
 20
569.630817792212
 30
0.0
 11
243.3159139683112
 21
569.630817792212
 31
0.0
  0
LINE
  5
7BB7
330
2
100
AcDbEntity
  8
AM_VIS
100
AcDbLine
 10
204.8362975081247
 20
569.630817792212
 30
0.0
 11
224.0761057382181
 21
569.630817792212
 31
0.0
  0
LINE
  5
7BB8
330
2
100
AcDbEntity
  8
AM_VIS
100
AcDbLine
 10
195.376105738218
 20
520.2923614981781
 30
0.0
 11
195.376105738218
 21
520.2200490724816
 31
0.0
  0
LINE
  5
7BB9
330
2
100
AcDbEntity
  8
AM_VIS
100
AcDbLine
 10
195.376105738218
 20
523.0360191890075
 30
0.0
 11
195.376105738218
 21
522.7888439506192
 31
0.0
  0
LINE
  5
7BBA
330
2
100
AcDbEntity
  8
AM_VIS
100
AcDbLine
 10
195.1927349696821
 20
522.7888439506192
 30
0.0
 11
195.376105738218
 21
522.7888439506192
 31
0.0
  0
LINE
  5
7BBB
330
2
100
AcDbEntity
  8
AM_VIS
100
AcDbLine
 10
195.376105738218
 20
522.1243937720952
 30
0.0
 11
195.376105738218
 21
522.7888439506192
 31
0.0
  0
ELLIPSE
  5
7BBC
330
2
100
AcDbEntity
  8
AM_VIS
100
AcDbEllipse
 10
224.0761057382181
 20
500.198030038034
 30
0.0
 11
0.0000000000000085
 21
38.30845771144279
 31
0.0
210
0.0
220
0.0
230
1.0
 40
0.9136363636363636
 41
0.9614110187641008
 42
0.9740220572956992
  0
LINE
  5
7BBD
330
2
100
AcDbEntity
  8
AM_VIS
100
AcDbLine
 10
194.5232302226361
 20
521.7265109921337
 30
0.0
 11
195.1257611592762
 21
521.7265109921337
 31
0.0
  0
ELLIPSE
  5
7BBE
330
2
100
AcDbEntity
  8
AM_VIS
100
AcDbEllipse
 10
224.0761057382181
 20
545.966151269706
 30
0.0
 11
-0.0000000000000096
 21
-43.13278008298754
 31
0.0
210
0.0
220
0.0
230
1.0
 40
0.8114478114478114
 41
5.309163249883886
 42
5.321774288415484
  0
LINE
  5
7BBF
330
2
100
AcDbEntity
  8
AM_VIS
100
AcDbLine
 10
195.376105738218
 20
520.2923614981781
 30
0.0
 11
195.376105738218
 21
521.2785213973512
 31
0.0
  0
LINE
  5
7BC0
330
2
100
AcDbEntity
  8
AM_VIS
100
AcDbLine
 10
195.3317395211618
 20
520.2923614981781
 30
0.0
 11
195.376105738218
 21
520.2923614981781
 31
0.0
  0
ARC
  5
7BC1
330
2
100
AcDbEntity
  8
AM_VIS
100
AcDbCircle
 10
195.924636100505
 20
521.6289555046979
 30
0.0
 40
4.621883132407575
100
AcDbArc
 50
165.0945680163928
 51
181.8438535575047
  0
LINE
  5
7BC2
330
2
100
AcDbEntity
  8
AM_VIS
100
AcDbLine
 10
191.4574765483641
 20
522.8181135724504
 30
0.0
 11
191.5031940967503
 21
522.9405192454707
 31
0.0
  0
LINE
  5
7BC3
330
2
100
AcDbEntity
  8
AM_VIS
100
AcDbLine
 10
190.9223259992902
 20
522.817816667669
 30
0.0
 11
191.4582714910254
 21
522.817816667669
 31
0.0
  0
LINE
  5
7BC4
330
2
100
AcDbEntity
  8
AM_VIS
100
AcDbLine
 10
190.076105738218
 20
519.8964010318335
 30
0.0
 11
190.2958361086728
 21
519.8964010318335
 31
0.0
  0
LINE
  5
7BC5
330
2
100
AcDbEntity
  8
AM_VIS
100
AcDbLine
 10
190.4709376304856
 20
522.6488091515462
 30
0.0
 11
190.4709376304856
 21
520.2347601477787
 31
0.0
  0
ARC
  5
7BC6
330
2
100
AcDbEntity
  8
AM_VIS
100
AcDbCircle
 10
192.0663389591461
 20
522.7183158416117
 30
0.0
 40
1.596914706380887
100
AcDbArc
 50
166.9621567872306
 51
182.494621965338
  0
LINE
  5
7BC7
330
2
100
AcDbEntity
  8
AM_VIS
100
AcDbLine
 10
190.6212116015631
 20
523.2475786372382
 30
0.0
 11
190.6212116015631
 21
523.1510029137394
 31
0.0
  0
LINE
  5
7BC8
330
2
100
AcDbEntity
  8
AM_VIS
100
AcDbLine
 10
190.0984668900757
 20
523.2475786372382
 30
0.0
 11
190.6212116015631
 21
523.2475786372382
 31
0.0
  0
LINE
  5
7BC9
330
2
100
AcDbEntity
  8
AM_VIS
100
AcDbLine
 10
193.4684710339966
 20
523.329668002212
 30
0.0
 11
194.0498288763249
 21
523.329668002212
 31
0.0
  0
ELLIPSE
  5
7BCA
330
2
100
AcDbEntity
  8
AM_VIS
100
AcDbEllipse
 10
224.0761057382181
 20
1065.096362941002
 30
0.0
 11
-0.0000000000002341
 21
-1054.375
 31
0.0
210
0.0
220
0.0
230
1.0
 40
0.033195020746888
 41
5.252029155758376
 42
5.252119910674534
  0
LINE
  5
7BCB
330
2
100
AcDbEntity
  8
AM_VIS
100
AcDbLine
 10
193.491201635283
 20
522.1659305340527
 30
0.0
 11
194.0112056098185
 21
522.1659305340527
 31
0.0
  0
LINE
  5
7BCC
330
2
100
AcDbEntity
  8
AM_VIS
100
AcDbLine
 10
193.4316736289393
 20
522.1562729617029
 30
0.0
 11
194.0112056098185
 21
522.1562729617029
 31
0.0
  0
LINE
  5
7BCD
330
2
100
AcDbEntity
  8
AM_VIS
100
AcDbLine
 10
192.6065159263521
 20
523.0930574796401
 30
0.0
 11
193.076439032905
 21
523.0930574796401
 31
0.0
  0
ARC
  5
7BCE
330
2
100
AcDbEntity
  8
AM_VIS
100
AcDbCircle
 10
193.5846179008642
 20
522.5350517701684
 30
0.0
 40
0.6945152593276661
100
AcDbArc
 50
131.9105036479328
 51
154.6594144558037
  0
LINE
  5
7BCF
330
2
100
AcDbEntity
  8
AM_VIS
100
AcDbLine
 10
192.3956204206672
 20
522.8323030261937
 30
0.0
 11
192.9569291752762
 21
522.8323030261937
 31
0.0
  0
ARC
  5
7BD0
330
2
100
AcDbEntity
  8
AM_VIS
100
AcDbCircle
 10
196.3161603370938
 20
521.6290653338015
 30
0.0
 40
3.568222939071912
100
AcDbArc
 50
160.293064091965
 51
182.5455874752191
  0
LINE
  5
7BD1
330
2
100
AcDbEntity
  8
AM_VIS
100
AcDbLine
 10
192.1937670032212
 20
521.4705853248621
 30
0.0
 11
192.7514585221186
 21
521.4705853248621
 31
0.0
  0
ARC
  5
7BD2
330
2
100
AcDbEntity
  8
AM_VIS
100
AcDbCircle
 10
195.6332819792421
 20
521.3261005218138
 30
0.0
 40
2.885443171566306
100
AcDbArc
 50
177.1297882746817
 51
202.853924437198
  0
LINE
  5
7BD3
330
2
100
AcDbEntity
  8
AM_VIS
100
AcDbLine
 10
192.4127341688001
 20
520.2054433470292
 30
0.0
 11
192.9743517821623
 21
520.2054433470292
 31
0.0
  0
SPLINE
  5
7BD4
330
2
100
AcDbEntity
  8
AM_VIS
100
AcDbSpline
210
0.0
220
0.0
230
1.0
 70
     8
 71
     3
 72
     8
 73
     4
 74
     0
 42
0.0000000001
 43
0.0000000001
 40
0.0
 40
0.0
 40
0.0
 40
0.0
 40
0.5158625148028452
 40
0.5158625148028452
 40
0.5158625148028452
 40
0.5158625148028452
 10
192.9743517821623
 20
520.2054433470292
 30
0.0
 10
193.0326401161037
 20
520.0896133944162
 30
0.0
 10
193.098280639555
 20
519.9974216535659
 30
0.0
 10
193.1725446994155
 20
519.9322021093766
 30
0.0
  0
LINE
  5
7BD5
330
2
100
AcDbEntity
  8
AM_VIS
100
AcDbLine
 10
194.8035084049509
 20
522.6777818685958
 30
0.0
 11
194.8035084049509
 21
522.37721623814
 31
0.0
  0
ARC
  5
7BD6
330
2
100
AcDbEntity
  8
AM_VIS
100
AcDbCircle
 10
195.5626742241241
 20
522.7398796568857
 30
0.0
 40
0.7617013038661382
100
AcDbArc
 50
154.8092719325453
 51
184.6762349227875
  0
ARC
  5
7BD7
330
2
100
AcDbEntity
  8
AM_VIS
100
AcDbCircle
 10
195.0537897128561
 20
522.8645924605333
 30
0.0
 40
0.2689472937457699
100
AcDbArc
 50
98.92889128015603
 51
132.1190916593276
  0
LINE
  5
7BD8
330
2
100
AcDbEntity
  8
AM_VIS
100
AcDbLine
 10
194.2759846619146
 20
523.0640847625905
 30
0.0
 11
194.8734138047277
 21
523.0640847625905
 31
0.0
  0
LINE
  5
7BD9
330
2
100
AcDbEntity
  8
AM_VIS
100
AcDbLine
 10
194.5328768840418
 20
523.1510029137394
 30
0.0
 11
194.877044956547
 21
523.1510029137394
 31
0.0
  0
LINE
  5
7BDA
330
2
100
AcDbEntity
  8
AM_VIS
100
AcDbLine
 10
194.5328768840418
 20
523.2475786372382
 30
0.0
 11
194.877044956547
 21
523.2475786372382
 31
0.0
  0
LINE
  5
7BDB
330
2
100
AcDbEntity
  8
AM_VIS
100
AcDbLine
 10
194.5264446374415
 20
519.6935920124862
 30
0.0
 11
194.8971004168563
 21
519.6935920124862
 31
0.0
  0
ARC
  5
7BDC
330
2
100
AcDbEntity
  8
AM_VIS
100
AcDbCircle
 10
195.0849015969888
 20
520.0822892951695
 30
0.0
 40
0.2777473844407746
100
AcDbArc
 50
219.3829037364955
 51
256.0315303300072
  0
LINE
  5
7BDD
330
2
100
AcDbEntity
  8
AM_VIS
100
AcDbLine
 10
194.5264446374415
 20
519.7901677359849
 30
0.0
 11
194.8971004168563
 21
519.7901677359849
 31
0.0
  0
ARC
  5
7BDE
330
2
100
AcDbEntity
  8
AM_VIS
100
AcDbCircle
 10
195.6013899537931
 20
520.2305029165954
 30
0.0
 40
0.799917097921637
100
AcDbArc
 50
175.9116500008484
 51
203.9285700687802
  0
LINE
  5
7BDF
330
2
100
AcDbEntity
  8
AM_VIS
100
AcDbLine
 10
194.272859067473
 20
519.9060586041833
 30
0.0
 11
194.8702242737379
 21
519.9060586041833
 31
0.0
  0
LINE
  5
7BE0
330
2
100
AcDbEntity
  8
AM_VIS
100
AcDbLine
 10
194.8035084049509
 20
520.7062570440365
 30
0.0
 11
194.8035084049509
 21
520.2875327120031
 31
0.0
  0
LINE
  5
7BE1
330
2
100
AcDbEntity
  8
AM_VIS
100
AcDbLine
 10
194.2074774698224
 20
521.2243172299405
 30
0.0
 11
194.5175128983185
 21
521.2243172299405
 31
0.0
  0
SPLINE
  5
7BE2
330
2
100
AcDbEntity
  8
AM_VIS
100
AcDbSpline
210
0.0
220
0.0
230
1.0
 70
     8
 71
     3
 72
    12
 73
     8
 74
     0
 42
0.0000000001
 43
0.0000000001
 40
0.0022838477304168
 40
0.0022838477304168
 40
0.0022838477304168
 40
0.0022838477304168
 40
0.6265795750896911
 40
0.6265795750896911
 40
0.9651693938955329
 40
0.9651693938955329
 40
1.321219030963453
 40
1.321219030963453
 40
1.321219030963453
 40
1.321219030963453
 10
192.2368158985339
 20
520.1216980699529
 30
0.0
 10
192.1772802413738
 20
519.9709240263051
 30
0.0
 10
192.1093824733882
 20
519.8498402758076
 30
0.0
 10
191.9913243433564
 20
519.7199725136243
 30
0.0
 10
191.9486029497911
 20
519.6866127348895
 30
0.0
 10
191.8591837016454
 20
519.6412491390227
 30
0.0
 10
191.8131515881925
 20
519.630817792212
 30
0.0
 10
191.7675158360839
 20
519.630817792212
 30
0.0
  0
LINE
  5
7BE3
330
2
100
AcDbEntity
  8
AM_VIS
100
AcDbLine
 10
191.2265245922692
 20
519.630817792212
 30
0.0
 11
191.7675158360839
 21
519.630817792212
 31
0.0
  0
LINE
  5
7BE4
330
2
100
AcDbEntity
  8
AM_VIS
100
AcDbLine
 10
191.6886267968098
 20
520.1233539820553
 30
0.0
 11
192.2360934444764
 21
520.1233539820553
 31
0.0
  0
LINE
  5
7BE5
330
2
100
AcDbEntity
  8
AM_VIS
100
AcDbLine
 10
192.2243874279277
 20
522.8661565907251
 30
0.0
 11
192.2456152128829
 21
522.8130306128065
 31
0.0
  0
LINE
  5
7BE6
330
2
100
AcDbEntity
  8
AM_VIS
100
AcDbLine
 10
191.2265245922692
 20
523.329668002212
 30
0.0
 11
191.7675158360839
 21
523.329668002212
 31
0.0
  0
SPLINE
  5
7BE7
330
2
100
AcDbEntity
  8
AM_VIS
100
AcDbSpline
210
0.0
220
0.0
230
1.0
 70
     8
 71
     3
 72
    12
 73
     8
 74
     0
 42
0.0000000001
 43
0.0000000001
 40
0.0
 40
0.0
 40
0.0
 40
0.0
 40
0.6386009420685502
 40
0.6386009420685502
 40
0.9518571226779608
 40
0.9518571226779608
 40
1.275330465967274
 40
1.275330465967274
 40
1.275330465967274
 40
1.275330465967274
 10
191.7675158360839
 20
523.329668002212
 30
0.0
 10
191.8493746486826
 20
523.329668002212
 30
0.0
 10
191.9311631360808
 20
523.2950732457387
 30
0.0
 10
192.0491927687474
 20
523.1769905001807
 30
0.0
 10
192.0863706787579
 20
523.128422642735
 30
0.0
 10
192.1584323810759
 20
523.0107336582519
 30
0.0
 10
192.1925410956921
 20
522.942070241383
 30
0.0
 10
192.2242571360555
 20
522.8661045294183
 30
0.0
  0
LINE
  5
7BE8
330
2
100
AcDbEntity
  8
AM_VIS
100
AcDbLine
 10
191.6756387759183
 20
522.8661045294183
 30
0.0
 11
192.2242571360555
 21
522.8661045294183
 31
0.0
  0
LINE
  5
7BE9
330
2
100
AcDbEntity
  8
AM_VIS
100
AcDbLine
 10
191.451600581235
 20
520.1664327570159
 30
0.0
 11
191.5025202370118
 21
520.027455992934
 31
0.0
  0
ARC
  5
7BEA
330
2
100
AcDbEntity
  8
AM_VIS
100
AcDbCircle
 10
195.9281192663011
 20
521.3343864901018
 30
0.0
 40
4.625273545788027
100
AcDbArc
 50
178.1928977488368
 51
194.6215538998288
  0
LINE
  5
7BEB
330
2
100
AcDbEntity
  8
AM_VIS
100
AcDbLine
 10
190.9167841006731
 20
520.1668130576298
 30
0.0
 11
191.4526385487522
 21
520.1668130576298
 31
0.0
  0
ELLIPSE
  5
7BEC
330
2
100
AcDbEntity
  8
AM_VIS
100
AcDbEllipse
 10
224.0761057382181
 20
471.2952004209243
 30
0.0
 11
0.0000000000000327
 21
147.1590909090909
 31
0.0
210
0.0
220
0.0
230
1.0
 40
0.2378378378378378
 41
1.235505310331471
 42
1.235673863326433
  0
LINE
  5
7BED
330
2
100
AcDbEntity
  8
AM_VIS
100
AcDbLine
 10
190.4941522954391
 20
519.6935920124862
 30
0.0
 11
191.0231543263853
 21
519.6935920124862
 31
0.0
  0
LINE
  5
7BEE
330
2
100
AcDbEntity
  8
AM_VIS
100
AcDbLine
 10
190.076105738218
 20
523.0785711211154
 30
0.0
 11
190.076105738218
 21
522.6488091515462
 31
0.0
  0
LINE
  5
7BEF
330
2
100
AcDbEntity
  8
AM_VIS
100
AcDbLine
 10
190.076105738218
 20
522.6488091515462
 30
0.0
 11
190.076105738218
 21
520.1136964097055
 31
0.0
  0
LINE
  5
7BF0
330
2
100
AcDbEntity
  8
AM_VIS
100
AcDbLine
 10
190.076105738218
 20
520.1136964097055
 30
0.0
 11
190.076105738218
 21
519.8964010318335
 31
0.0
  0
LINE
  5
7BF1
330
2
100
AcDbEntity
  8
AM_VIS
100
AcDbLine
 10
190.076105738218
 20
519.8964010318335
 30
0.0
 11
190.076105738218
 21
519.8583841571656
 31
0.0
  0
LINE
  5
7BF2
330
2
100
AcDbEntity
  8
AM_VIS
100
AcDbLine
 10
190.5677327195292
 20
520.5869174548491
 30
0.0
 11
190.7030950351668
 21
520.5869174548491
 31
0.0
  0
LINE
  5
7BF3
330
2
100
AcDbEntity
  8
AM_VIS
100
AcDbLine
 10
190.0984668900757
 20
523.1510029137394
 30
0.0
 11
190.6212116015631
 21
523.1510029137394
 31
0.0
  0
ARC
  5
7BF4
330
2
100
AcDbEntity
  8
AM_VIS
100
AcDbCircle
 10
190.6132364028312
 20
523.0424945849894
 30
0.0
 40
0.1088010165529296
100
AcDbArc
 50
85.79640494302084
 51
160.6351321588135
  0
LINE
  5
7BF5
330
2
100
AcDbEntity
  8
AM_VIS
100
AcDbLine
 10
190.076105738218
 20
523.0785711211154
 30
0.0
 11
190.5105906783997
 21
523.0785711211154
 31
0.0
  0
LINE
  5
7BF6
330
2
100
AcDbEntity
  8
AM_VIS
100
AcDbLine
 10
190.076105738218
 20
523.1495054622447
 30
0.0
 11
190.076105738218
 21
523.0785711211154
 31
0.0
  0
LINE
  5
7BF7
330
2
100
AcDbEntity
  8
AM_VIS
100
AcDbLine
 10
193.4013494378162
 20
523.3300807560723
 30
0.0
 11
193.4495271397329
 21
523.3275851398978
 31
0.0
  0
LINE
  5
7BF8
330
2
100
AcDbEntity
  8
AM_VIS
100
AcDbLine
 10
192.832034528021
 20
523.329668002212
 30
0.0
 11
193.40132805707
 21
523.329668002212
 31
0.0
  0
SPLINE
  5
7BF9
330
2
100
AcDbEntity
  8
AM_VIS
100
AcDbSpline
210
0.0
220
0.0
230
1.0
 70
     8
 71
     3
 72
     8
 73
     4
 74
     0
 42
0.0000000001
 43
0.0000000001
 40
0.0
 40
0.0
 40
0.0
 40
0.0
 40
0.2513734295682922
 40
0.2513734295682922
 40
0.2513734295682922
 40
0.2513734295682922
 10
193.9036944372763
 20
519.925373748883
 30
0.0
 10
193.8677011317497
 20
519.8809121407515
 30
0.0
 10
193.8307871452505
 20
519.8412966482968
 30
0.0
 10
193.792977967025
 20
519.8066554766943
 30
0.0
  0
ARC
  5
7BFA
330
2
100
AcDbEntity
  8
AM_VIS
100
AcDbCircle
 10
193.378886291556
 20
520.1891647278342
 30
0.0
 40
0.5583852448843821
100
AcDbArc
 50
270.6711584155908
 51
306.7992958515276
  0
LINE
  5
7BFB
330
2
100
AcDbEntity
  8
AM_VIS
100
AcDbLine
 10
192.8164230796226
 20
519.630817792212
 30
0.0
 11
193.3854270243789
 21
519.630817792212
 31
0.0
  0
LINE
  5
7BFC
330
2
100
AcDbEntity
  8
AM_VIS
100
AcDbLine
 10
193.9046768583271
 20
519.9246690127523
 30
0.0
 11
193.9935194360882
 21
520.0485179468322
 31
0.0
  0
LINE
  5
7BFD
330
2
100
AcDbEntity
  8
AM_VIS
100
AcDbLine
 10
193.3250991902493
 20
519.925373748883
 30
0.0
 11
193.9036944372763
 21
519.925373748883
 31
0.0
  0
LINE
  5
7BFE
330
2
100
AcDbEntity
  8
AM_VIS
100
AcDbLine
 10
193.5311384491012
 20
520.2923614981781
 30
0.0
 11
194.0106587203454
 21
520.2923614981781
 31
0.0
  0
LINE
  5
7BFF
330
2
100
AcDbEntity
  8
AM_VIS
100
AcDbLine
 10
193.4968945508465
 20
520.3792796493267
 30
0.0
 11
194.0112056098185
 21
520.3792796493267
 31
0.0
  0
ELLIPSE
  5
7C00
330
2
100
AcDbEntity
  8
AM_VIS
100
AcDbEllipse
 10
224.0761057382181
 20
521.9462867192532
 30
0.0
 11
35.5
 21
-0.0000000000000079
 31
0.0
210
0.0
220
0.0
230
1.0
 40
0.0769230769230769
 41
2.610367156392641
 42
2.61446410353121
  0
ELLIPSE
  5
7C01
330
2
100
AcDbEntity
  8
AM_VIS
100
AcDbEllipse
 10
224.0761057382181
 20
1065.096362941001
 30
0.0
 11
-0.0000000000002375
 21
-1069.4375
 31
0.0
210
0.0
220
0.0
230
1.0
 40
0.033195020746888
 41
5.243614477581835
 42
5.244877059099803
  0
ELLIPSE
  5
7C02
330
2
100
AcDbEntity
  8
AM_VIS
100
AcDbEllipse
 10
224.0761057382181
 20
520.4494936799703
 30
0.0
 11
-35.5
 21
0.0000000000000079
 31
0.0
210
0.0
220
0.0
230
1.0
 40
0.0952380952380953
 41
5.750697228464467
 42
5.754009510557851
  0
SPLINE
  5
7C03
330
2
100
AcDbEntity
  8
AM_VIS
100
AcDbSpline
210
0.0
220
0.0
230
1.0
 70
     8
 71
     3
 72
    14
 73
    10
 74
     0
 42
0.0000000001
 43
0.0000000001
 40
-1.706964598607035
 40
-1.706964598607035
 40
-1.706964598607035
 40
-1.706964598607035
 40
-1.270530423358237
 40
-1.270530423358237
 40
-0.8928963665178809
 40
-0.8928963665178809
 40
-0.4854625957733438
 40
-0.4854625957733438
 40
0.0
 40
0.0
 40
0.0
 40
0.0
 10
193.4316736289393
 20
522.1562729617029
 30
0.0
 10
193.412963044954
 20
522.2969144473341
 30
0.0
 10
193.3877699739059
 20
522.4366320725003
 30
0.0
 10
193.3243523118142
 20
522.676688503967
 30
0.0
 10
193.2882638758199
 20
522.7800933501809
 30
0.0
 10
193.1963500655968
 20
522.9647959203549
 30
0.0
 10
193.1417113999441
 20
523.038663252168
 30
0.0
 10
193.0072865941222
 20
523.1507646600165
 30
0.0
 10
192.9299061042124
 20
523.1751468446142
 30
0.0
 10
192.8529037548662
 20
523.1751468446142
 30
0.0
  0
ARC
  5
7C04
330
2
100
AcDbEntity
  8
AM_VIS
100
AcDbCircle
 10
192.8638378238959
 20
522.7315225763858
 30
0.0
 40
0.4437589945304816
100
AcDbArc
 50
91.41189119227615
 51
125.4412997122414
  0
ARC
  5
7C05
330
2
100
AcDbEntity
  8
AM_VIS
100
AcDbCircle
 10
193.016190967817
 20
522.5460542633729
 30
0.0
 40
0.6834077539846161
100
AcDbArc
 50
126.8311729943372
 51
155.2376793187722
  0
ARC
  5
7C06
330
2
100
AcDbEntity
  8
AM_VIS
100
AcDbCircle
 10
195.8157376982347
 20
521.6295043043523
 30
0.0
 40
3.62545541381757
100
AcDbArc
 50
160.6240694026713
 51
182.5123203018548
  0
ARC
  5
7C07
330
2
100
AcDbEntity
  8
AM_VIS
100
AcDbCircle
 10
195.118627685287
 20
521.325291775368
 30
0.0
 40
2.928467214264049
100
AcDbArc
 50
177.1561483663306
 51
202.4824779569861
  0
SPLINE
  5
7C08
330
2
100
AcDbEntity
  8
AM_VIS
100
AcDbSpline
210
0.0
220
0.0
230
1.0
 70
     8
 71
     3
 72
    10
 73
     6
 74
     0
 42
0.0000000001
 43
0.0000000001
 40
-1.133917827610742
 40
-1.133917827610742
 40
-1.133917827610742
 40
-1.133917827610742
 40
-0.5596113076727366
 40
-0.5596113076727366
 40
0.0
 40
0.0
 40
0.0
 40
0.0
 10
192.4127341688001
 20
520.2054433470292
 30
0.0
 10
192.4766084223959
 20
520.0762210814876
 30
0.0
 10
192.5494303481171
 20
519.9764848802186
 30
0.0
 10
192.7142533668243
 20
519.8467155408763
 30
0.0
 10
192.8004548673909
 20
519.8191404530344
 30
0.0
 10
192.889573646026
 20
519.8191404530344
 30
0.0
  0
SPLINE
  5
7C09
330
2
100
AcDbEntity
  8
AM_VIS
100
AcDbSpline
210
0.0
220
0.0
230
1.0
 70
     8
 71
     3
 72
    12
 73
     8
 74
     0
 42
0.0000000001
 43
0.0000000001
 40
-1.39605255879632
 40
-1.39605255879632
 40
-1.39605255879632
 40
-1.39605255879632
 40
-1.055136264384962
 40
-1.055136264384962
 40
-0.7134396272223925
 40
-0.7134396272223925
 40
0.0
 40
0.0
 40
0.0
 40
0.0
 10
192.889573646026
 20
519.8191404530344
 30
0.0
 10
192.943873083982
 20
519.8191404530344
 30
0.0
 10
192.9980656217444
 20
519.8310126243492
 30
0.0
 10
193.1060722228455
 20
519.880150213383
 30
0.0
 10
193.158635839158
 20
519.9169060345833
 30
0.0
 10
193.3162257048534
 20
520.0651019485845
 30
0.0
 10
193.4118742345777
 20
520.210343707297
 30
0.0
 10
193.4968945508465
 20
520.3792796493267
 30
0.0
  0
ELLIPSE
  5
7C0A
330
2
100
AcDbEntity
  8
AM_VIS
100
AcDbEllipse
 10
224.0761057382181
 20
547.4276464596499
 30
0.0
 11
-0.0000000000000118
 21
-53.25
 31
0.0
210
0.0
220
0.0
230
1.0
 40
0.6666666666666666
 41
5.245192851201885
 42
5.247088841240037
  0
ARC
  5
7C0B
330
2
100
AcDbEntity
  8
AM_VIS
100
AcDbCircle
 10
192.3077146537823
 20
520.7379001849675
 30
0.0
 40
1.302025539065403
100
AcDbArc
 50
321.3876526111848
 51
339.9897100897937
  0
ARC
  5
7C0C
330
2
100
AcDbEntity
  8
AM_VIS
100
AcDbCircle
 10
192.7760245128186
 20
520.2870838768904
 30
0.0
 40
0.6575083407066912
100
AcDbArc
 50
273.5225807274392
 51
326.624583047122
  0
SPLINE
  5
7C0D
330
2
100
AcDbEntity
  8
AM_VIS
100
AcDbSpline
210
0.0
220
0.0
230
1.0
 70
     8
 71
     3
 72
    10
 73
     6
 74
     0
 42
0.0000000001
 43
0.0000000001
 40
-1.310437799948758
 40
-1.310437799948758
 40
-1.310437799948758
 40
-1.310437799948758
 40
-0.6232639936559714
 40
-0.6232639936559714
 40
0.0
 40
0.0
 40
0.0
 40
0.0
 10
192.8164230796226
 20
519.630817792212
 30
0.0
 10
192.7078925088997
 20
519.630817792212
 30
0.0
 10
192.6023398777008
 20
519.6627083949993
 30
0.0
 10
192.4146356309588
 20
519.8119835147484
 30
0.0
 10
192.3362119365822
 20
519.9171112758703
 30
0.0
 10
192.2675091858561
 20
520.0557509756062
 30
0.0
  0
ARC
  5
7C0E
330
2
100
AcDbEntity
  8
AM_VIS
100
AcDbCircle
 10
195.3864543468539
 20
521.3176185382166
 30
0.0
 40
3.364539888733766
100
AcDbArc
 50
177.2295405541526
 51
202.027345811275
  0
ARC
  5
7C0F
330
2
100
AcDbEntity
  8
AM_VIS
100
AcDbCircle
 10
195.3400423271712
 20
521.6129318170059
 30
0.0
 40
3.31685050217286
100
AcDbArc
 50
157.9813480171761
 51
182.2927003619359
  0
SPLINE
  5
7C10
330
2
100
AcDbEntity
  8
AM_VIS
100
AcDbSpline
210
0.0
220
0.0
230
1.0
 70
     8
 71
     3
 72
    12
 73
     8
 74
     0
 42
0.0000000001
 43
0.0000000001
 40
-1.362617591308354
 40
-1.362617591308354
 40
-1.362617591308354
 40
-1.362617591308354
 40
-1.011755587542293
 40
-1.011755587542293
 40
-0.6689377136459396
 40
-0.6689377136459396
 40
0.0
 40
0.0
 40
0.0
 40
0.0
 10
192.2651167426731
 20
522.8564469570684
 30
0.0
 10
192.3028684085757
 20
522.9367548857143
 30
0.0
 10
192.3438957163735
 20
523.0085846005744
 30
0.0
 10
192.4323345800182
 20
523.1310790292151
 30
0.0
 10
192.4787195492556
 20
523.1809995963581
 30
0.0
 10
192.6239507064772
 20
523.2970230509744
 30
0.0
 10
192.7261726493182
 20
523.329668002212
 30
0.0
 10
192.832034528021
 20
523.329668002212
 30
0.0
  0
ARC
  5
7C11
330
2
100
AcDbEntity
  8
AM_VIS
100
AcDbCircle
 10
192.8090800852858
 20
522.6972604898613
 30
0.0
 40
0.6328239629778065
100
AcDbArc
 50
59.54101563957213
 51
87.92125244195755
  0
LINE
  5
7C12
330
2
100
AcDbEntity
  8
AM_VIS
100
AcDbLine
 10
193.1298185704932
 20
523.2426476701174
 30
0.0
 11
193.2969093119168
 21
523.1550929081446
 31
0.0
  0
SPLINE
  5
7C13
330
2
100
AcDbEntity
  8
AM_VIS
100
AcDbSpline
210
0.0
220
0.0
230
1.0
 70
     8
 71
     3
 72
    14
 73
    10
 74
     0
 42
0.0000000001
 43
0.0000000001
 40
-0.276621112061822
 40
-0.276621112061822
 40
-0.276621112061822
 40
-0.276621112061822
 40
-0.2249149572444357
 40
-0.2249149572444357
 40
-0.1766768488555395
 40
-0.1766768488555395
 40
-0.1050668319936997
 40
-0.1050668319936997
 40
0.0
 40
0.0
 40
0.0
 40
0.0
 10
193.2972964353264
 20
523.1558316999143
 30
0.0
 10
193.3058936206328
 20
523.1558316999143
 30
0.0
 10
193.3144826485497
 20
523.1575797150286
 30
0.0
 10
193.330670665445
 20
523.1654693633385
 30
0.0
 10
193.3381218544898
 20
523.1712226973055
 30
0.0
 10
193.3555454281779
 20
523.1909277974303
 30
0.0
 10
193.3643135041041
 20
523.2067367593189
 30
0.0
 10
193.3824879625572
 20
523.2532645944189
 30
0.0
 10
193.3898892702684
 20
523.2865236259985
 30
0.0
 10
193.3950487941054
 20
523.3200104298622
 30
0.0
  0
LINE
  5
7C14
330
2
100
AcDbEntity
  8
AM_VIS
100
AcDbLine
 10
190.0984668900757
 20
523.2475786372382
 30
0.0
 11
190.0984668900757
 21
523.1510029137394
 31
0.0
  0
SPLINE
  5
7C15
330
2
100
AcDbEntity
  8
AM_VIS
100
AcDbSpline
210
0.0
220
0.0
230
1.0
 70
     8
 71
     3
 72
     8
 73
     4
 74
     0
 42
0.0000000001
 43
0.0000000001
 40
-0.0772733517679616
 40
-0.0772733517679616
 40
-0.0772733517679616
 40
-0.0772733517679616
 40
0.0
 40
0.0
 40
0.0
 40
0.0
 10
190.0984668900757
 20
523.1510029137394
 30
0.0
 10
190.091005348964
 20
523.1510029137394
 30
0.0
 10
190.0835079204623
 20
523.1505514745625
 30
0.0
 10
190.076105738218
 20
523.1495054622447
 30
0.0
  0
LINE
  5
7C16
330
2
100
AcDbEntity
  8
AM_VIS
100
AcDbLine
 10
190.076105738218
 20
523.1495054622447
 30
0.0
 11
190.076105738218
 21
523.2475786372382
 31
0.0
  0
LINE
  5
7C17
330
2
100
AcDbEntity
  8
AM_VIS
100
AcDbLine
 10
190.076105738218
 20
519.6935920124862
 30
0.0
 11
190.076105738218
 21
519.8583841571656
 31
0.0
  0
LINE
  5
7C18
330
2
100
AcDbEntity
  8
AM_VIS
100
AcDbLine
 10
190.0761029153675
 20
519.8582732607293
 30
0.0
 11
190.09992621188
 21
519.857666842675
 31
0.0
  0
SPLINE
  5
7C19
330
2
100
AcDbEntity
  8
AM_VIS
100
AcDbSpline
210
0.0
220
0.0
230
1.0
 70
     8
 71
     3
 72
    10
 73
     6
 74
     0
 42
0.0000000001
 43
0.0000000001
 40
-0.7246244471137413
 40
-0.7246244471137413
 40
-0.7246244471137413
 40
-0.7246244471137413
 40
-0.1897060352087315
 40
-0.1897060352087315
 40
0.0
 40
0.0
 40
0.0
 40
0.0
 10
190.0999288566311
 20
519.8577707424338
 30
0.0
 10
190.1592855887613
 20
519.8577707424338
 30
0.0
 10
190.2386459330448
 20
519.8646400612416
 30
0.0
 10
190.3230843573649
 20
519.9114113062063
 30
0.0
 10
190.3460848853683
 20
519.9287973477554
 30
0.0
 10
190.3642115725711
 20
519.9543464659326
 30
0.0
  0
ARC
  5
7C1A
330
2
100
AcDbEntity
  8
AM_VIS
100
AcDbCircle
 10
188.8632353727171
 20
520.69214228683
 30
0.0
 40
1.672504776035536
100
AcDbArc
 50
333.8238535350529
 51
356.3928813311824
  0
ELLIPSE
  5
7C1B
330
2
100
AcDbEntity
  8
AM_VIS
100
AcDbEllipse
 10
224.0761057382181
 20
471.2952004209243
 30
0.0
 11
0.0000000000000331
 21
149.2613636363636
 31
0.0
210
0.0
220
0.0
230
1.0
 40
0.2378378378378378
 41
1.234241022578898
 42
1.240574748843929
  0
SPLINE
  5
7C1C
330
2
100
AcDbEntity
  8
AM_VIS
100
AcDbSpline
210
0.0
220
0.0
230
1.0
 70
     8
 71
     3
 72
    12
 73
     8
 74
     0
 42
0.0000000001
 43
0.0000000001
 40
-0.9629909969220868
 40
-0.9629909969220868
 40
-0.9629909969220868
 40
-0.9629909969220868
 40
-0.6897455999797259
 40
-0.6897455999797259
 40
-0.4347712854611593
 40
-0.4347712854611593
 40
0.0
 40
0.0
 40
0.0
 40
0.0
 10
191.5559120739815
 20
522.817816667669
 30
0.0
 10
191.5308738998794
 20
522.8841273781832
 30
0.0
 10
191.5037456575248
 20
522.9450610245102
 30
0.0
 10
191.4470285465538
 20
523.0473456190528
 30
0.0
 10
191.4180707754558
 20
523.089112564127
 30
0.0
 10
191.3353266431918
 20
523.1777186921378
 30
0.0
 10
191.2814706363756
 20
523.2041195616638
 30
0.0
 10
191.2265245922692
 20
523.2041195616638
 30
0.0
  0
SPLINE
  5
7C1D
330
2
100
AcDbEntity
  8
AM_VIS
100
AcDbSpline
210
0.0
220
0.0
230
1.0
 70
     8
 71
     3
 72
    12
 73
     8
 74
     0
 42
0.0000000001
 43
0.0000000001
 40
-0.9452682466580823
 40
-0.9452682466580823
 40
-0.9452682466580823
 40
-0.9452682466580823
 40
-0.7081474074737434
 40
-0.7081474074737434
 40
-0.4748681781915388
 40
-0.4748681781915388
 40
0.0
 40
0.0
 40
0.0
 40
0.0
 10
191.2265245922692
 20
523.2041195616638
 30
0.0
 10
191.1965486537447
 20
523.2041195616638
 30
0.0
 10
191.1670997864669
 20
523.1960882985641
 30
0.0
 10
191.1099936525986
 20
523.1619731468073
 30
0.0
 10
191.0829966222943
 20
523.1365918041282
 30
0.0
 10
191.004837236826
 20
523.0342793606906
 30
0.0
 10
190.9604169078147
 20
522.9348794505514
 30
0.0
 10
190.9223259992902
 20
522.817816667669
 30
0.0
  0
ARC
  5
7C1E
330
2
100
AcDbEntity
  8
AM_VIS
100
AcDbCircle
 10
195.4677406591829
 20
521.6285591412202
 30
0.0
 40
4.698417594742216
100
AcDbArc
 50
165.3378599801556
 51
181.8089721965715
  0
ARC
  5
7C1F
330
2
100
AcDbEntity
  8
AM_VIS
100
AcDbCircle
 10
195.4626938087365
 20
521.333817813943
 30
0.0
 40
4.693313879885266
100
AcDbArc
 50
178.2121585943479
 51
194.3977950420755
  0
SPLINE
  5
7C20
330
2
100
AcDbEntity
  8
AM_VIS
100
AcDbSpline
210
0.0
220
0.0
230
1.0
 70
     8
 71
     3
 72
    12
 73
     8
 74
     0
 42
0.0000000001
 43
0.0000000001
 40
-0.9674560714658435
 40
-0.9674560714658435
 40
-0.9674560714658435
 40
-0.9674560714658435
 40
-0.6906819038494861
 40
-0.6906819038494861
 40
-0.4314313471673957
 40
-0.4314313471673957
 40
0.0
 40
0.0
 40
0.0
 40
0.0
 10
190.9167841006731
 20
520.1668130576298
 30
0.0
 10
190.9384743527218
 20
520.0973764205017
 30
0.0
 10
190.9625524777739
 20
520.0337689085928
 30
0.0
 10
191.0145709988726
 20
519.9273529084792
 30
0.0
 10
191.0417183269546
 20
519.884407990273
 30
0.0
 10
191.1199844819841
 20
519.7958427738448
 30
0.0
 10
191.1720006468681
 20
519.7708525912852
 30
0.0
 10
191.2265245922692
 20
519.7708525912852
 30
0.0
  0
SPLINE
  5
7C21
330
2
100
AcDbEntity
  8
AM_VIS
100
AcDbSpline
210
0.0
220
0.0
230
1.0
 70
     8
 71
     3
 72
    12
 73
     8
 74
     0
 42
0.0000000001
 43
0.0000000001
 40
-0.9818287606303403
 40
-0.9818287606303403
 40
-0.9818287606303403
 40
-0.9818287606303403
 40
-0.7346660513873264
 40
-0.7346660513873264
 40
-0.4924538759920696
 40
-0.4924538759920696
 40
0.0
 40
0.0
 40
0.0
 40
0.0
 10
191.2265245922692
 20
519.7708525912852
 30
0.0
 10
191.2577630114356
 20
519.7708525912852
 30
0.0
 10
191.2889988563718
 20
519.7790556453529
 30
0.0
 10
191.3504384462258
 20
519.8138861595572
 30
0.0
 10
191.3799622803928
 20
519.8397519486042
 30
0.0
 10
191.4666599357808
 20
519.9442445394248
 30
0.0
 10
191.5176742892295
 20
520.0459335100942
 30
0.0
 10
191.5622578147918
 20
520.1668130576298
 30
0.0
  0
ARC
  5
7C22
330
2
100
AcDbEntity
  8
AM_VIS
100
AcDbCircle
 10
187.6681704587881
 20
521.3449642089662
 30
0.0
 40
4.068409575200518
100
AcDbArc
 50
343.1668765380314
 51
1.905493223323539
  0
ARC
  5
7C23
330
2
100
AcDbEntity
  8
AM_VIS
100
AcDbCircle
 10
187.660716078019
 20
521.6175520769446
 30
0.0
 40
4.075927739142132
100
AcDbArc
 50
358.0694639846834
 51
17.1261436209019
  0
ARC
  5
7C24
330
2
100
AcDbEntity
  8
AM_VIS
100
AcDbCircle
 10
195.2712548469017
 20
521.3441078752331
 30
0.0
 40
4.627706052526526
100
AcDbArc
 50
178.3740749970719
 51
195.2952120155775
  0
ARC
  5
7C25
330
2
100
AcDbEntity
  8
AM_VIS
100
AcDbCircle
 10
195.1575203386187
 20
521.6206726779929
 30
0.0
 40
4.514445885051559
100
AcDbArc
 50
163.9857147085513
 51
181.8438895528346
  0
SPLINE
  5
7C26
330
2
100
AcDbEntity
  8
AM_VIS
100
AcDbSpline
210
0.0
220
0.0
230
1.0
 70
     8
 71
     3
 72
    12
 73
     8
 74
     0
 42
0.0000000001
 43
0.0000000001
 40
-1.254153580625506
 40
-1.254153580625506
 40
-1.254153580625506
 40
-1.254153580625506
 40
-0.9144253902974893
 40
-0.9144253902974893
 40
-0.5875773296066809
 40
-0.5875773296066809
 40
0.0
 40
0.0
 40
0.0
 40
0.0
 10
190.8182668138158
 20
522.8661045294183
 30
0.0
 10
190.8459694262594
 20
522.9470530422815
 30
0.0
 10
190.8764324599276
 20
523.019832033227
 30
0.0
 10
190.9424784347843
 20
523.1426331904288
 30
0.0
 10
190.977138566029
 20
523.1921367106044
 30
0.0
 10
191.0810137069857
 20
523.2997766334523
 30
0.0
 10
191.1522670436495
 20
523.329668002212
 30
0.0
 10
191.2265245922692
 20
523.329668002212
 30
0.0
  0
SPLINE
  5
7C27
330
2
100
AcDbEntity
  8
AM_VIS
100
AcDbSpline
210
0.0
220
0.0
230
1.0
 70
     8
 71
     3
 72
    12
 73
     8
 74
     0
 42
0.0000000001
 43
0.0000000001
 40
-1.273119345728781
 40
-1.273119345728781
 40
-1.273119345728781
 40
-1.273119345728781
 40
-0.9369348800100654
 40
-0.9369348800100654
 40
-0.6143188062719567
 40
-0.6143188062719567
 40
0.0
 40
0.0
 40
0.0
 40
0.0
 10
191.2265245922692
 20
523.329668002212
 30
0.0
 10
191.2690080468058
 20
523.329668002212
 30
0.0
 10
191.3118060262329
 20
523.3200351314504
 30
0.0
 10
191.3954259200266
 20
523.2784827396234
 30
0.0
 10
191.4356278203188
 20
523.247790397378
 30
0.0
 10
191.5494830146885
 20
523.1262697402599
 30
0.0
 10
191.6163386046655
 20
523.0105856910698
 30
0.0
 10
191.6756387759183
 20
522.8661045294183
 30
0.0
  0
ARC
  5
7C28
330
2
100
AcDbEntity
  8
AM_VIS
100
AcDbCircle
 10
188.1178354147039
 20
521.6073261563277
 30
0.0
 40
3.773922064593866
100
AcDbArc
 50
357.9968999941196
 51
19.48417360075703
  0
ARC
  5
7C29
330
2
100
AcDbEntity
  8
AM_VIS
100
AcDbCircle
 10
188.0235852836533
 20
521.3586755014417
 30
0.0
 40
3.867628284804298
100
AcDbArc
 50
341.373340343149
 51
1.729650619587347
  0
SPLINE
  5
7C2A
330
2
100
AcDbEntity
  8
AM_VIS
100
AcDbSpline
210
0.0
220
0.0
230
1.0
 70
     8
 71
     3
 72
    12
 73
     8
 74
     0
 42
0.0000000001
 43
0.0000000001
 40
-1.316878691661426
 40
-1.316878691661426
 40
-1.316878691661426
 40
-1.316878691661426
 40
-0.9686160074347556
 40
-0.9686160074347556
 40
-0.6321837204961664
 40
-0.6321837204961664
 40
0.0
 40
0.0
 40
0.0
 40
0.0
 10
191.6886267968098
 20
520.1233539820553
 30
0.0
 10
191.6559663790819
 20
520.0390078151626
 30
0.0
 10
191.6204227961373
 20
519.9630847834142
 30
0.0
 10
191.5445702158265
 20
519.8342073917846
 30
0.0
 10
191.5052627077323
 20
519.7819130872216
 30
0.0
 10
191.386538743114
 20
519.6638681742611
 30
0.0
 10
191.3064194605629
 20
519.630817792212
 30
0.0
 10
191.2265245922692
 20
519.630817792212
 30
0.0
  0
SPLINE
  5
7C2B
330
2
100
AcDbEntity
  8
AM_VIS
100
AcDbSpline
210
0.0
220
0.0
230
1.0
 70
     8
 71
     3
 72
    12
 73
     8
 74
     0
 42
0.0000000001
 43
0.0000000001
 40
-1.299983160598686
 40
-1.299983160598686
 40
-1.299983160598686
 40
-1.299983160598686
 40
-0.9454469603745041
 40
-0.9454469603745041
 40
-0.6070201347144299
 40
-0.6070201347144299
 40
0.0
 40
0.0
 40
0.0
 40
0.0
 10
191.2265245922692
 20
519.630817792212
 30
0.0
 10
191.1817165574996
 20
519.630817792212
 30
0.0
 10
191.1376202676506
 20
519.6413695081559
 30
0.0
 10
191.0539025792368
 20
519.6878205722279
 30
0.0
 10
191.0148746938153
 20
519.7221521294683
 30
0.0
 10
190.9113455821457
 20
519.8538859954506
 30
0.0
 10
190.8552851267318
 20
519.9744909264469
 30
0.0
 10
190.8074646142761
 20
520.1233539820553
 30
0.0
  0
ARC
  5
7C2C
330
2
100
AcDbEntity
  8
AM_VIS
100
AcDbCircle
 10
194.0201093880052
 20
523.1746479674264
 30
0.0
 40
1.081385151180299
100
AcDbArc
 50
327.0222053400486
 51
351.552916831381
  0
SPLINE
  5
7C2D
330
2
100
AcDbEntity
  8
AM_VIS
100
AcDbSpline
210
0.0
220
0.0
230
1.0
 70
     8
 71
     3
 72
    14
 73
    10
 74
     0
 42
0.0000000001
 43
0.0000000001
 40
-0.1383148487632989
 40
-0.1383148487632989
 40
-0.1383148487632989
 40
-0.1383148487632989
 40
-0.1097498509611022
 40
-0.1097498509611022
 40
-0.0837143975274951
 40
-0.0837143975274951
 40
-0.0479313932305402
 40
-0.0479313932305402
 40
0.0
 40
0.0
 40
0.0
 40
0.0
 10
195.0897636236525
 20
523.0157969008413
 30
0.0
 10
195.0897636140173
 20
523.0253230265569
 30
0.0
 10
195.0892574910535
 20
523.0348822599377
 30
0.0
 10
195.0869331788258
 20
523.0526430722444
 30
0.0
 10
195.0852496844761
 20
523.0607796951741
 30
0.0
 10
195.0796162340352
 20
523.0789417093441
 30
0.0
 10
195.0752531733524
 20
523.0878908332321
 30
0.0
 10
195.0627527987967
 20
523.1054852149444
 30
0.0
 10
195.0542526559752
 20
523.1124077091104
 30
0.0
 10
195.045480624138
 20
523.1172014105148
 30
0.0
  0
ARC
  5
7C2E
330
2
100
AcDbEntity
  8
AM_VIS
100
AcDbCircle
 10
194.8608290898114
 20
522.6336327810696
 30
0.0
 40
0.5176241962203252
100
AcDbArc
 50
69.10055520332824
 51
88.20477332636427
  0
LINE
  5
7C2F
330
2
100
AcDbEntity
  8
AM_VIS
100
AcDbLine
 10
194.877044956547
 20
523.1510029137394
 30
0.0
 11
194.877044956547
 21
523.2475786372382
 31
0.0
  0
LINE
  5
7C30
330
2
100
AcDbEntity
  8
AM_VIS
100
AcDbLine
 10
195.376105738218
 20
523.2475786372382
 30
0.0
 11
195.376105738218
 21
523.0360191890075
 31
0.0
  0
SPLINE
  5
7C31
330
2
100
AcDbEntity
  8
AM_VIS
100
AcDbSpline
210
0.0
220
0.0
230
1.0
 70
     8
 71
     3
 72
     8
 73
     4
 74
     0
 42
0.0000000001
 43
0.0000000001
 40
-0.3758505634013368
 40
-0.3758505634013368
 40
-0.3758505634013368
 40
-0.3758505634013368
 40
0.0
 40
0.0
 40
0.0
 40
0.0
 10
195.376105738218
 20
523.0360191890075
 30
0.0
 10
195.3126324375591
 20
522.9707859493425
 30
0.0
 10
195.2461637687142
 20
522.8739968241085
 30
0.0
 10
195.1927349696821
 20
522.7888439506192
 30
0.0
  0
ELLIPSE
  5
7C32
330
2
100
AcDbEntity
  8
AM_VIS
100
AcDbEllipse
 10
224.0761057382181
 20
500.198030038034
 30
0.0
 11
0.0000000000000086
 21
38.85572139303482
 31
0.0
210
0.0
220
0.0
230
1.0
 40
0.9136363636363638
 41
0.9503448984250246
 42
0.9835604742363248
  0
ELLIPSE
  5
7C33
330
2
100
AcDbEntity
  8
AM_VIS
100
AcDbEllipse
 10
224.0761057382181
 20
545.966151269706
 30
0.0
 11
-0.0000000000000097
 21
-43.74896265560166
 31
0.0
210
0.0
220
0.0
230
1.0
 40
0.8114478114478114
 41
5.29962483294326
 42
5.339543803120557
  0
LINE
  5
7C34
330
2
100
AcDbEntity
  8
AM_VIS
100
AcDbLine
 10
195.3316174773058
 20
520.2922866331556
 30
0.0
 11
195.3759780217499
 21
520.2199707277244
 31
0.0
  0
LINE
  5
7C35
330
2
100
AcDbEntity
  8
AM_VIS
100
AcDbLine
 10
195.376105738218
 20
520.2200490724816
 30
0.0
 11
195.376105738218
 21
519.6935920124862
 31
0.0
  0
LINE
  5
7C36
330
2
100
AcDbEntity
  8
AM_VIS
100
AcDbLine
 10
194.8971004168563
 20
519.6935920124862
 30
0.0
 11
194.8971004168563
 21
519.7901677359849
 31
0.0
  0
ARC
  5
7C37
330
2
100
AcDbEntity
  8
AM_VIS
100
AcDbCircle
 10
194.8446052384606
 20
520.3885131587868
 30
0.0
 40
0.6006438118741709
100
AcDbArc
 50
275.0139440706233
 51
294.8050368482359
  0
SPLINE
  5
7C38
330
2
100
AcDbEntity
  8
AM_VIS
100
AcDbSpline
210
0.0
220
0.0
230
1.0
 70
     8
 71
     3
 72
    14
 73
    10
 74
     0
 42
0.0000000001
 43
0.0000000001
 40
-0.1628232258807955
 40
-0.1628232258807955
 40
-0.1628232258807955
 40
-0.1628232258807955
 40
-0.1278843595755925
 40
-0.1278843595755925
 40
-0.096316472142314
 40
-0.096316472142314
 40
-0.0539764738041701
 40
-0.0539764738041701
 40
0.0
 40
0.0
 40
0.0
 40
0.0
 10
195.096594467969
 20
519.8432843839092
 30
0.0
 10
195.1029905343564
 20
519.8469002560758
 30
0.0
 10
195.1092462131339
 20
519.8515048755626
 30
0.0
 10
195.1203186744267
 20
519.862698996524
 30
0.0
 10
195.1251747652118
 20
519.8690121337468
 30
0.0
 10
195.1351893983954
 20
519.8865681576856
 30
0.0
 10
195.1395571587832
 20
519.8981823671402
 30
0.0
 10
195.1464934814105
 20
519.9279886681459
 30
0.0
 10
195.1479799834865
 20
519.9460118803478
 30
0.0
 10
195.1479799834865
 20
519.9640040382824
 30
0.0
  0
ARC
  5
7C39
330
2
100
AcDbEntity
  8
AM_VIS
100
AcDbCircle
 10
190.6430960273808
 20
518.3571431634917
 30
0.0
 40
4.782884206094951
100
AcDbArc
 50
19.63096500602659
 51
31.7197507839801
  0
ELLIPSE
  5
7C3A
330
2
100
AcDbEntity
  8
AM_VIS
100
AcDbEllipse
 10
224.0761057382181
 20
545.232946865722
 30
0.0
 11
-0.0000000000000096
 21
-43.35096153846151
 31
0.0
210
0.0
220
0.0
230
1.0
 40
0.8188976377952755
 41
5.292127308339751
 42
5.309131952730632
  0
ARC
  5
7C3B
330
2
100
AcDbEntity
  8
AM_VIS
100
AcDbCircle
 10
224.0761057382181
 20
502.0379927939158
 30
0.0
 40
35.5
100
AcDbArc
 50
146.7834405862044
 51
147.2850521428556
  0
LINE
  5
7C3C
330
2
100
AcDbEntity
  8
AM_VIS
100
AcDbLine
 10
194.2074774698224
 20
521.2243172299405
 30
0.0
 11
194.2074774698224
 21
520.2875327120031
 31
0.0
  0
ARC
  5
7C3D
330
2
100
AcDbEntity
  8
AM_VIS
100
AcDbCircle
 10
195.0231039533703
 20
520.2309845450335
 30
0.0
 40
0.8175844028921588
100
AcDbArc
 50
176.0339750927307
 51
203.4171071621376
  0
SPLINE
  5
7C3E
330
2
100
AcDbEntity
  8
AM_VIS
100
AcDbSpline
210
0.0
220
0.0
230
1.0
 70
     8
 71
     3
 72
    12
 73
     8
 74
     0
 42
0.0000000001
 43
0.0000000001
 40
-0.4668920957975369
 40
-0.4668920957975369
 40
-0.4668920957975369
 40
-0.4668920957975369
 40
-0.3826734997139989
 40
-0.3826734997139989
 40
-0.276926785505845
 40
-0.276926785505845
 40
0.0
 40
0.0
 40
0.0
 40
0.0
 10
194.272859067473
 20
519.9060586041833
 30
0.0
 10
194.2850806186054
 20
519.8889725110354
 30
0.0
 10
194.2992698533505
 20
519.8752586809809
 30
0.0
 10
194.3311993081929
 20
519.850367630209
 30
0.0
 10
194.3504897215662
 20
519.8395157247831
 30
0.0
 10
194.4185277814194
 20
519.8084742626277
 30
0.0
 10
194.4754140149864
 20
519.7966631854156
 30
0.0
 10
194.5264446374415
 20
519.7901677359849
 30
0.0
  0
LINE
  5
7C3F
330
2
100
AcDbEntity
  8
AM_VIS
100
AcDbLine
 10
194.5264446374415
 20
519.7901677359849
 30
0.0
 11
194.5264446374415
 21
519.6935920124862
 31
0.0
  0
LINE
  5
7C40
330
2
100
AcDbEntity
  8
AM_VIS
100
AcDbLine
 10
193.7133667353466
 20
519.6935920124862
 30
0.0
 11
193.7133667353466
 21
519.7901677359849
 31
0.0
  0
SPLINE
  5
7C41
330
2
100
AcDbEntity
  8
AM_VIS
100
AcDbSpline
210
0.0
220
0.0
230
1.0
 70
     8
 71
     3
 72
    10
 73
     6
 74
     0
 42
0.0000000001
 43
0.0000000001
 40
-0.4230995852053584
 40
-0.4230995852053584
 40
-0.4230995852053584
 40
-0.4230995852053584
 40
-0.1061256929813819
 40
-0.1061256929813819
 40
0.0
 40
0.0
 40
0.0
 40
0.0
 10
193.7133667353466
 20
519.7901677359849
 30
0.0
 10
193.7845075429441
 20
519.7999534857875
 30
0.0
 10
193.8537940518033
 20
519.8207393757312
 30
0.0
 10
193.9222324170653
 20
519.8752077170373
 30
0.0
 10
193.9395203631668
 20
519.8928287140528
 30
0.0
 10
193.953793943316
 20
519.9157161765332
 30
0.0
  0
ARC
  5
7C42
330
2
100
AcDbEntity
  8
AM_VIS
100
AcDbCircle
 10
192.828057017497
 20
520.2862578435675
 30
0.0
 40
1.185151784861838
100
AcDbArc
 50
341.7807937902005
 51
3.331755940600694
  0
LINE
  5
7C43
330
2
100
AcDbEntity
  8
AM_VIS
100
AcDbLine
 10
194.0112056098185
 20
520.3551357184522
 30
0.0
 11
194.0112056098185
 21
522.6777818685958
 31
0.0
  0
SPLINE
  5
7C44
330
2
100
AcDbEntity
  8
AM_VIS
100
AcDbSpline
210
0.0
220
0.0
230
1.0
 70
     8
 71
     3
 72
    12
 73
     8
 74
     0
 42
0.0000000001
 43
0.0000000001
 40
-0.4329187047158288
 40
-0.4329187047158288
 40
-0.4329187047158288
 40
-0.4329187047158288
 40
-0.2063024014262036
 40
-0.2063024014262036
 40
-0.0902267369376524
 40
-0.0902267369376524
 40
0.0
 40
0.0
 40
0.0
 40
0.0
 10
194.0112056098185
 20
522.6777818685958
 30
0.0
 10
194.0112056098185
 20
522.7530380091028
 30
0.0
 10
194.007721393456
 20
522.83542781084
 30
0.0
 10
193.9900247182429
 20
522.9446223901353
 30
0.0
 10
193.9815818546064
 20
522.9807999059836
 30
0.0
 10
193.9602862031909
 20
523.0366010363349
 30
0.0
 10
193.9490968644645
 20
523.0574358104083
 30
0.0
 10
193.9357446846084
 20
523.0737423349404
 30
0.0
  0
ARC
  5
7C45
330
2
100
AcDbEntity
  8
AM_VIS
100
AcDbCircle
 10
193.7020183247821
 20
522.7596751316308
 30
0.0
 40
0.3914922981009479
100
AcDbArc
 50
53.34366504919874
 51
88.33890186947796
  0
LINE
  5
7C46
330
2
100
AcDbEntity
  8
AM_VIS
100
AcDbLine
 10
193.7133667353466
 20
523.1510029137394
 30
0.0
 11
193.7133667353466
 21
523.2475786372382
 31
0.0
  0
LINE
  5
7C47
330
2
100
AcDbEntity
  8
AM_VIS
100
AcDbLine
 10
194.532876884042
 20
523.2475786372382
 30
0.0
 11
194.532876884042
 21
523.1510029137394
 31
0.0
  0
SPLINE
  5
7C48
330
2
100
AcDbEntity
  8
AM_VIS
100
AcDbSpline
210
0.0
220
0.0
230
1.0
 70
     8
 71
     3
 72
    10
 73
     6
 74
     0
 42
0.0000000001
 43
0.0000000001
 40
-0.3259767420877853
 40
-0.3259767420877853
 40
-0.3259767420877853
 40
-0.3259767420877853
 40
-0.0666918747446805
 40
-0.0666918747446805
 40
0.0
 40
0.0
 40
0.0
 40
0.0
 10
194.532876884042
 20
523.1510029137394
 30
0.0
 10
194.444618552314
 20
523.1406539116879
 30
0.0
 10
194.3635002329686
 20
523.1232571331284
 30
0.0
 10
194.2992268243206
 20
523.0857053687747
 30
0.0
 10
194.2861514907406
 20
523.0760937903236
 30
0.0
 10
194.2759846619146
 20
523.0640847625905
 30
0.0
  0
SPLINE
  5
7C49
330
2
100
AcDbEntity
  8
AM_VIS
100
AcDbSpline
210
0.0
220
0.0
230
1.0
 70
     8
 71
     3
 72
    12
 73
     8
 74
     0
 42
0.0000000001
 43
0.0000000001
 40
-0.4539031940227421
 40
-0.4539031940227421
 40
-0.4539031940227421
 40
-0.4539031940227421
 40
-0.3617887394012284
 40
-0.3617887394012284
 40
-0.2571436190196215
 40
-0.2571436190196215
 40
0.0
 40
0.0
 40
0.0
 40
0.0
 10
194.2759846619146
 20
523.0640847625905
 30
0.0
 10
194.264010279953
 20
523.0481108144102
 30
0.0
 10
194.2541229600006
 20
523.0281917847652
 30
0.0
 10
194.2366609981654
 20
522.9798045509856
 30
0.0
 10
194.2297511705312
 20
522.9509997935203
 30
0.0
 10
194.2117803101821
 20
522.849462050187
 30
0.0
 10
194.2074774698224
 20
522.7634964082691
 30
0.0
 10
194.2074774698224
 20
522.6777818685958
 30
0.0
  0
LINE
  5
7C4A
330
2
100
AcDbEntity
  8
AM_VIS
100
AcDbLine
 10
194.2074774698224
 20
522.6777818685958
 30
0.0
 11
194.2074774698224
 21
521.4222974631128
 31
0.0
  0
LINE
  5
7C4B
330
2
100
AcDbEntity
  8
AM_VIS
100
AcDbLine
 10
194.2077091505296
 20
521.4221532103212
 30
0.0
 11
194.9309534936224
 21
522.5837373926066
 31
0.0
  0
LINE
  5
7C4C
330
2
100
AcDbEntity
  8
AM_VIS
100
AcDbLine
 10
258.0761057382181
 20
519.9060586041833
 30
0.0
 11
258.0761057382181
 21
519.7901677359849
 31
0.0
  0
LINE
  5
7C4D
330
2
100
AcDbEntity
  8
AM_VIS
100
AcDbLine
 10
258.0761057382181
 20
520.3261630014027
 30
0.0
 11
258.0761057382181
 21
519.9060586041833
 31
0.0
  0
LINE
  5
7C4E
330
2
100
AcDbEntity
  8
AM_VIS
100
AcDbLine
 10
257.0761057382181
 20
514.630817792212
 30
0.0
 11
258.0761057382181
 21
516.130817792212
 31
0.0
  0
LINE
  5
7C4F
330
2
100
AcDbEntity
  8
AM_VIS
100
AcDbLine
 10
191.076105738218
 20
514.630817792212
 30
0.0
 11
190.076105738218
 21
516.130817792212
 31
0.0
  0
LINE
  5
7C50
330
2
100
AcDbEntity
  8
AM_VIS
100
AcDbLine
 10
207.0761057382181
 20
541.630817792212
 30
0.0
 11
191.7844659532829
 21
541.630817792212
 31
0.0
  0
LINE
  5
7C51
330
2
100
AcDbEntity
  8
AM_VIS
100
AcDbLine
 10
258.0761057382181
 20
541.630817792212
 30
0.0
 11
241.0761057382181
 21
541.630817792212
 31
0.0
  0
LINE
  5
7C52
330
2
100
AcDbEntity
  8
AM_VIS
100
AcDbLine
 10
241.0761057382181
 20
542.630817792212
 30
0.0
 11
258.0761057382181
 21
542.630817792212
 31
0.0
  0
LINE
  5
7C53
330
2
100
AcDbEntity
  8
AM_VIS
100
AcDbLine
 10
192.8711381849582
 20
542.630817792212
 30
0.0
 11
207.0761057382181
 21
542.630817792212
 31
0.0
  0
LINE
  5
7C54
330
2
100
AcDbEntity
  8
AM_VIS
100
AcDbLine
 10
258.0761057382181
 20
517.630817792212
 30
0.0
 11
190.076105738218
 21
517.630817792212
 31
0.0
  0
LINE
  5
7C55
330
2
100
AcDbEntity
  8
AM_VIS
100
AcDbLine
 10
191.076105738218
 20
514.630817792212
 30
0.0
 11
257.0761057382181
 21
514.630817792212
 31
0.0
  0
CIRCLE
  5
7C56
330
2
100
AcDbEntity
  8
AM_VIS
100
AcDbCircle
 10
224.0761057382181
 20
552.630817792212
 30
0.0
 40
10.5
  0
CIRCLE
  5
7C57
102
{ACAD_REACTORS
330
7C6F
102
}
330
2
100
AcDbEntity
  8
AM_VIS
100
AcDbCircle
 10
224.0761057382181
 20
552.630817792212
 30
0.0
 40
8.96073457753819
  0
LINE
  5
7C58
330
2
100
AcDbEntity
  8
AM_VIS
100
AcDbLine
 10
243.3159139683112
 20
569.630817792212
 30
0.0
 11
249.0761057382181
 21
569.630817792212
 31
0.0
  0
LINE
  5
7C59
330
2
100
AcDbEntity
  8
AM_VIS
100
AcDbLine
 10
199.076105738218
 20
569.630817792212
 30
0.0
 11
204.8362975081247
 21
569.630817792212
 31
0.0
  0
LINE
  5
7C5A
330
2
100
AcDbEntity
  8
AM_VIS
100
AcDbLine
 10
190.0984668900757
 20
523.2475786372382
 30
0.0
 11
190.076105738218
 21
523.2475786372382
 31
0.0
  0
LINE
  5
7C5B
330
2
100
AcDbEntity
  8
AM_VIS
100
AcDbLine
 10
190.5677327195292
 20
520.5869174548491
 30
0.0
 11
190.5324267819317
 21
520.5869174548491
 31
0.0
  0
LINE
  5
7C5C
330
2
100
AcDbEntity
  8
AM_VIS
100
AcDbLine
 10
190.076105738218
 20
519.6935920124862
 30
0.0
 11
190.4941522954391
 21
519.6935920124862
 31
0.0
  0
LINE
  5
7C5D
330
2
100
AcDbEntity
  8
AM_VIS
100
AcDbLine
 10
195.376105738218
 20
523.2475786372382
 30
0.0
 11
194.877044956547
 21
523.2475786372382
 31
0.0
  0
LINE
  5
7C5E
330
2
100
AcDbEntity
  8
AM_VIS
100
AcDbLine
 10
194.8971004168563
 20
519.6935920124862
 30
0.0
 11
195.376105738218
 21
519.6935920124862
 31
0.0
  0
LINE
  5
7C5F
330
2
100
AcDbEntity
  8
AM_VIS
100
AcDbLine
 10
193.7133667353466
 20
519.6935920124862
 30
0.0
 11
194.5264446374415
 21
519.6935920124862
 31
0.0
  0
LINE
  5
7C60
330
2
100
AcDbEntity
  8
AM_VIS
100
AcDbLine
 10
194.532876884042
 20
523.2475786372382
 30
0.0
 11
193.7133667353466
 21
523.2475786372382
 31
0.0
  0
LINE
  5
7C61
330
2
100
AcDbEntity
  8
AM_VIS
100
AcDbLine
 10
264.0761057382181
 20
594.630817792212
 30
0.0
 11
264.0761057382181
 21
582.630817792212
 31
0.0
  0
LINE
  5
7C62
330
2
100
AcDbEntity
  8
AM_VIS
100
AcDbLine
 10
234.0761057382181
 20
579.630817792212
 30
0.0
 11
234.0761057382181
 21
582.630817792212
 31
0.0
  0
LINE
  5
7C63
330
2
100
AcDbEntity
  8
AM_VIS
100
AcDbLine
 10
261.0761057382181
 20
579.630817792212
 30
0.0
 11
261.0761057382181
 21
583.630817792212
 31
0.0
  0
LINE
  5
7C64
330
2
100
AcDbEntity
  8
AM_VIS
100
AcDbLine
 10
264.0761057382181
 20
602.630817792212
 30
0.0
 11
261.0761057382181
 21
602.630817792212
 31
0.0
  0
LINE
  5
7C65
330
2
100
AcDbEntity
  8
AM_VIS
100
AcDbLine
 10
234.0761057382181
 20
582.630817792212
 30
0.0
 11
260.0761057382181
 21
582.630817792212
 31
0.0
  0
LINE
  5
7C66
330
2
100
AcDbEntity
  8
AM_VIS
100
AcDbLine
 10
261.0761057382181
 20
583.630817792212
 30
0.0
 11
261.0761057382181
 21
594.630817792212
 31
0.0
  0
ARC
  5
7C67
330
2
100
AcDbEntity
  8
AM_VIS
100
AcDbCircle
 10
260.0761057382181
 20
583.630817792212
 30
0.0
 40
1.0
100
AcDbArc
 50
270.0
 51
0.0
  0
LINE
  5
7C68
330
2
100
AcDbEntity
  8
AM_VIS
100
AcDbLine
 10
261.0761057382181
 20
579.630817792212
 30
0.0
 11
234.0761057382181
 21
579.630817792212
 31
0.0
  0
LINE
  5
7C69
330
2
100
AcDbEntity
  8
AM_VIS
100
AcDbLine
 10
261.0761057382181
 20
587.3587262839927
 30
0.0
 11
256.3481972464374
 21
582.630817792212
 31
0.0
  0
LINE
  5
7C6A
330
2
100
AcDbEntity
  8
AM_VIS
100
AcDbLine
 10
264.0761057382181
 20
602.630817792212
 30
0.0
 11
264.0761057382181
 21
594.630817792212
 31
0.0
  0
LINE
  5
7C6B
330
2
100
AcDbEntity
  8
AM_VIS
100
AcDbLine
 10
261.0761057382181
 20
594.630817792212
 30
0.0
 11
261.0761057382181
 21
602.630817792212
 31
0.0
  0
ARC
  5
7C6C
330
2
100
AcDbEntity
  8
AM_VIS
100
AcDbCircle
 10
261.0761057382181
 20
582.630817792212
 30
0.0
 40
3.0
100
AcDbArc
 50
270.0
 51
0.0
  0
DIMENSION
  5
7C6D
102
{ACAD_XDICTIONARY
360
7C6E
102
}
102
{ACAD_REACTORS
330
7C6F
102
}
330
2
100
AcDbEntity
  8
AM_REFDIM
100
AcDbDimension
  2
*D78
 10
230.3693376601978
 20
559.00968886359
 30
0.0
 11
153.9669011797141
 21
500.358715221511
 31
0.0
 70
   163
  1
2-PT1/4
 71
     5
 42
17.92146915507646
  3
AM_ISO$3
100
AcDbDiametricDimension
 15
217.7828738162385
 25
546.2519467208339
 35
0.0
 40
0.0
1001
ACAD
1000
DSTYLE
1002
{
1070
   178
1070
   256
1070
    40
1040
2.0
1070
   144
1040
1.0
1002
}
  0
LINE
  5
7C70
330
2
100
AcDbEntity
  8
AM_VIS
100
AcDbLine
 10
191.3843636616629
 20
540.630817792212
 30
0.0
 11
191.7844659532829
 21
541.630817792212
 31
0.0
  0
LINE
  5
7C71
330
2
100
AcDbEntity
  8
AM_VIS
100
AcDbLine
 10
191.7844659532829
 20
541.630817792212
 30
0.0
 11
192.8711381849582
 21
542.630817792212
 31
0.0
  0
DIMENSION
  5
7C72
330
2
100
AcDbEntity
  8
AM_REFDIM
100
AcDbDimension
  2
*D76
 10
121.3705102700649
 20
597.630817792212
 30
0.0
 11
121.3705102700648
 21
594.630817792212
 31
0.0
 70
   160
 71
     5
 42
6.0
  3
AM_ISO$0
100
AcDbAlignedDimension
 13
95.74658149482184
 23
591.630817792212
 33
0.0
 14
95.74658149482184
 24
597.630817792212
 34
0.0
 50
90.0
100
AcDbRotatedDimension
  0
DIMENSION
  5
7C73
330
2
100
AcDbEntity
  8
AM_REFDIM
100
AcDbDimension
  2
*D77
 10
106.7465814948221
 20
797.7982636183591
 30
0.0
 11
71.39877551000177
 21
797.7982636183591
 31
0.0
 70
   160
 71
     5
 42
72.0
  3
AM_ISO$0
100
AcDbAlignedDimension
 13
34.74658149482207
 23
757.297573641981
 33
0.0
 14
106.7465814948221
 24
757.297573641981
 34
0.0
100
AcDbRotatedDimension
  0
DIMENSION
  5
7C74
102
{ACAD_XDICTIONARY
360
7C75
102
}
102
{ACAD_REACTORS
330
7C76
102
}
330
2
100
AcDbEntity
  8
AM_REFDIM
100
AcDbDimension
  2
*D79
 10
130.5949281827218
 20
700.7975736419811
 30
0.0
 11
125.0949281827217
 21
740.5475736419812
 31
0.0
 70
    32
 71
     5
 42
79.50000000000023
  3
AM_ISO$0
100
AcDbAlignedDimension
 13
103.7465814948218
 23
780.2975736419813
 33
0.0
 14
85.74658149482207
 24
700.7975736419811
 34
0.0
 50
90.0
100
AcDbRotatedDimension
1001
ACAD
1000
DSTYLE
1002
{
1070
   271
1070
     0
1002
}
  0
ARC
  5
7C77
102
{ACAD_REACTORS
330
7C7D
102
}
330
2
100
AcDbEntity
  8
AM_7
  6
CENTER
100
AcDbCircle
 10
51.7465814948224
 20
594.630817792212
 30
0.0
 40
3.0
100
AcDbArc
 50
270.0
 51
90.0
  0
LINE
  5
7C78
330
2
100
AcDbEntity
  8
AM_7
  6
CENTER
100
AcDbLine
 10
51.7465814948224
 20
591.630817792212
 30
0.0
 11
50.74658149482207
 21
591.630817792212
 31
0.0
  0
ARC
  5
7C79
330
2
100
AcDbEntity
  8
AM_7
  6
CENTER
100
AcDbCircle
 10
89.74658149482264
 20
594.630817792212
 30
0.0
 40
3.0
100
AcDbArc
 50
90.0
 51
270.0
  0
LINE
  5
7C7A
330
2
100
AcDbEntity
  8
AM_7
  6
CENTER
100
AcDbLine
 10
89.74658149482264
 20
591.630817792212
 30
0.0
 11
90.74658149482297
 21
591.630817792212
 31
0.0
  0
DIMENSION
  5
7C7B
102
{ACAD_XDICTIONARY
360
7C7C
102
}
102
{ACAD_REACTORS
330
7C7D
102
}
330
2
100
AcDbEntity
  8
AM_REFDIM
100
AcDbDimension
  2
*D80
 10
54.74658149482241
 20
650.0439633321185
 30
0.0
 11
48.74658149482212
 21
650.0439633321185
 31
0.0
 70
   160
 71
     5
 42
12.00000000000057
  3
AM_ISO$0
100
AcDbAlignedDimension
 13
42.74658149482184
 23
594.630817792212
 33
0.0
 14
54.74658149482241
 24
594.630817792212
 34
0.0
100
AcDbRotatedDimension
  0
ENDSEC
  0
SECTION
  2
OBJECTS
  0
DICTIONARY
  5
1A
330
0
100
AcDbDictionary
281
     1
  3
ACAD_COLOR
350
5B6D
  3
ACAD_GROUP
350
18
  3
ACAD_LAYOUT
350
59A5
  3
ACAD_MATERIAL
350
5B6C
  3
ACAD_MLINESTYLE
350
19
  3
ACAD_PLOTSETTINGS
350
59A6
  3
ACAD_PLOTSTYLENAME
350
59A3
  3
ACAD_TABLESTYLE
350
5B6E
  3
ACDBHEADERROUNDTRIPXREC
350
7E87
  3
AcDbVariableDictionary
350
A08
  3
AcmDictionary
350
5BCB
  3
AMG
350
5B78
  3
AMGSNAPSETTINGS
350
5CB4
  0
DICTIONARY
  5
5C22
330
A
100
AcDbDictionary
280
     1
281
     1
  3
ACAD_LAYERFILTERS
360
689B
  3
ACAD_LAYERSTATES
360
5C23
  3
ACLYDICTIONARY
360
689A
  0
DICTIONARY
  5
59CA
330
2
100
AcDbDictionary
280
     1
281
     1
  3
ACAD_LAYOUTSELFREF
360
5B3F
  3
ACAD_SORTENTS
360
59CB
  0
DICTIONARY
  5
59F8
330
7
100
AcDbDictionary
280
     1
281
     1
  3
ACAD_LAYOUTSELFREF
360
5B40
  0
DICTIONARY
  5
7C6E
330
7C6D
100
AcDbDictionary
280
     1
281
     1
  3
ACAD_DIMASSOC
360
7C6F
  0
DICTIONARY
  5
7C75
330
7C74
100
AcDbDictionary
280
     1
281
     1
  3
ACAD_DIMASSOC
360
7C76
  0
DICTIONARY
  5
7C7C
330
7C7B
100
AcDbDictionary
280
     1
281
     1
  3
ACAD_DIMASSOC
360
7C7D
  0
DICTIONARY
  5
5B6D
102
{ACAD_REACTORS
330
1A
102
}
330
1A
100
AcDbDictionary
281
     1
  0
DICTIONARY
  5
18
102
{ACAD_REACTORS
330
1A
102
}
330
1A
100
AcDbDictionary
281
     1
  0
DICTIONARY
  5
59A5
102
{ACAD_REACTORS
330
1A
102
}
330
1A
100
AcDbDictionary
281
     1
  3
Model
350
59A7
  3
配置1
350
59A8
  0
DICTIONARY
  5
5B6C
102
{ACAD_REACTORS
330
1A
102
}
330
1A
100
AcDbDictionary
281
     1
  0
DICTIONARY
  5
19
102
{ACAD_REACTORS
330
1A
102
}
330
1A
100
AcDbDictionary
281
     1
  3
STANDARD
350
1D
  0
DICTIONARY
  5
59A6
102
{ACAD_REACTORS
330
1A
102
}
330
1A
100
AcDbDictionary
281
     1
  0
ACDBDICTIONARYWDFLT
  5
59A3
102
{ACAD_REACTORS
330
1A
102
}
330
1A
100
AcDbDictionary
281
     1
  3
Normal
350
59A4
100
AcDbDictionaryWithDefault
340
59A4
1001
ACAD
1000
TREAT_AS_HARD
1070
     0
1000
TREAT_AS_HARD
1070
     0
1000
TREAT_AS_HARD
1070
     0
  0
DICTIONARY
  5
5B6E
102
{ACAD_REACTORS
330
1A
102
}
330
1A
100
AcDbDictionary
281
     1
  3
Standard
350
5B6F
  0
DICTIONARY
  5
7E87
102
{ACAD_REACTORS
330
1A
102
}
330
1A
100
AcDbDictionary
281
     1
  0
DICTIONARY
  5
A08
102
{ACAD_REACTORS
330
1A
102
}
330
1A
100
AcDbDictionary
281
     1
  3
CTABLESTYLE
350
68B5
  3
DIMASSOC
350
68B6
  3
PROJECTNAME
350
68B7
  3
SORTENTS
350
A09
  0
DICTIONARY
  5
5BCB
102
{ACAD_REACTORS
330
1A
102
}
330
1A
100
AcDbDictionary
281
     1
  3
AcmStdDictionary
350
5BD8
  3
AMDTSECTSYM_ARROWCOLOR
350
5BF8
  0
DICTIONARY
  5
5B78
102
{ACAD_REACTORS
330
1A
102
}
330
1A
100
AcDbDictionary
281
     1
  0
DICTIONARY
  5
5CB4
102
{ACAD_REACTORS
330
1A
102
}
330
1A
100
AcDbDictionary
281
     1
  0
DICTIONARY
  5
689B
102
{ACAD_REACTORS
330
5C22
102
}
330
5C22
100
AcDbDictionary
281
     1
  0
DICTIONARY
  5
5C23
102
{ACAD_REACTORS
330
5C22
102
}
330
5C22
100
AcDbDictionary
281
     1
  0
DICTIONARY
  5
689A
102
{ACAD_REACTORS
330
5C22
102
}
330
5C22
100
AcDbDictionary
281
     1
1001
ACAD
1000
<All
  0
XRECORD
  5
5B3F
102
{ACAD_REACTORS
330
59CA
102
}
330
59CA
100
AcDbXrecord
280
     1
340
2
  0
SORTENTSTABLE
  5
59CB
102
{ACAD_REACTORS
330
59CA
102
}
330
59CA
100
AcDbSortentsTable
330
2
331
4482
  5
4482
331
5652
  5
5652
331
1F73
  5
1F73
331
1FBB
  5
1FBB
331
2095
  5
2095
331
5655
  5
5655
331
5656
  5
5656
  0
XRECORD
  5
5B40
102
{ACAD_REACTORS
330
59F8
102
}
330
59F8
100
AcDbXrecord
280
     1
340
7
  0
DIMASSOC
  5
7C6F
102
{ACAD_REACTORS
330
7C6E
102
}
330
7C6E
100
AcDbDimAssoc
330
7C6D
 90
        2
 70
     0
 71
     0
  1
AcDbOsnapPointRef
 72
     3
331
7C57
 73
     2
 91
        0
 40
0.0
 10
0.0
 20
0.0
 30
0.0
 75
     0
  0
DIMASSOC
  5
7C76
102
{ACAD_REACTORS
330
7C75
102
}
330
7C75
100
AcDbDimAssoc
330
7C74
 90
        1
 70
     0
 71
     0
  1
AcDbOsnapPointRef
 72
     1
331
7AB8
 73
     0
 91
        0
 40
0.0
 10
0.0
 20
0.0
 30
2.000000000000000E+50
 75
     0
  0
DIMASSOC
  5
7C7D
102
{ACAD_REACTORS
330
7C7C
102
}
330
7C7C
100
AcDbDimAssoc
330
7C7B
 90
        2
 70
     0
 71
     0
  1
AcDbOsnapPointRef
 72
     6
331
7941
 73
     0
 91
        0
 40
0.944444444444435
 10
0.0
 20
0.0
 30
0.0
332
7C77
 74
     0
 92
        0
 75
     0
  0
LAYOUT
  5
59A7
102
{ACAD_XDICTIONARY
360
7E88
102
}
102
{ACAD_REACTORS
330
59A5
102
}
330
59A5
100
AcDbPlotSettings
  1

  2
DWF Classic.pc3
  4
ISO_expand_A3_(297.00_x_420.00_MM)
  6

 40
5.793749809265136
 41
10.79374980926513
 42
5.79376220703125
 43
10.79376220703125
 44
297.0
 45
420.0
 46
0.0
 47
49.95
 48
0.0
 49
0.0
140
0.0
141
0.0
142
1.0
143
0.8966588850094245
 70
 11956
 72
     1
 73
     0
 74
     1
  7
acad.ctb
 75
     0
147
1.115251314316134
148
18.22110011069549
149
36.29912410926642
100
AcDbLayout
  1
Model
 70
     1
 71
     0
 10
0.0
 20
0.0
 11
12.0
 21
9.0
 12
0.0
 22
0.0
 32
0.0
 14
0.0
 24
0.0
 34
0.0
 15
0.0
 25
0.0
 35
0.0
146
0.0
 13
0.0
 23
0.0
 33
0.0
 16
1.0
 26
0.0
 36
0.0
 17
0.0
 27
1.0
 37
0.0
 76
     0
330
2
  0
LAYOUT
  5
59A8
102
{ACAD_XDICTIONARY
360
7E8A
102
}
102
{ACAD_REACTORS
330
59A5
102
}
330
59A5
100
AcDbPlotSettings
  1

  2
\\USER3\EPSON Stylus Photo 750 單色
  4

  6

 40
0.0
 41
0.0
 42
0.0
 43
0.0
 44
0.0
 45
0.0
 46
0.0
 47
0.0
 48
0.0
 49
0.0
140
0.0
141
0.0
142
1.0
143
1.0
 70
   688
 72
     0
 73
     0
 74
     5
  7
acad.ctb
 75
    16
147
1.0
148
0.0
149
0.0
100
AcDbLayout
  1
配置1
 70
     0
 71
     1
 10
0.0
 20
0.0
 11
12.0
 21
9.0
 12
0.0
 22
0.0
 32
0.0
 14
1.000000000000000E+20
 24
1.000000000000000E+20
 34
1.000000000000000E+20
 15
-1.000000000000000E+20
 25
-1.000000000000000E+20
 35
-1.000000000000000E+20
146
0.0
 13
0.0
 23
0.0
 33
0.0
 16
1.0
 26
0.0
 36
0.0
 17
0.0
 27
1.0
 37
0.0
 76
     0
330
7
  0
MLINESTYLE
  5
1D
102
{ACAD_REACTORS
330
19
102
}
330
19
100
AcDbMlineStyle
  2
STANDARD
 70
     0
  3

 62
   256
 51
90.0
 52
90.0
 71
     2
 49
0.5
 62
   256
  6
BYLAYER
 49
-0.5
 62
   256
  6
BYLAYER
  0
ACDBPLACEHOLDER
  5
59A4
102
{ACAD_REACTORS
330
59A3
102
}
330
59A3
  0
TABLESTYLE
  5
5B6F
102
{ACAD_REACTORS
330
5B6E
102
}
330
5B6E
100
AcDbTableStyle
  3
Standard
 70
     0
 71
     0
 40
0.06
 41
0.06
280
     0
281
     0
  7
STANDARD
140
0.18
170
     2
 62
     0
 63
     7
283
     0
274
    -2
284
     1
 64
     0
275
    -2
285
     1
 65
     0
276
    -2
286
     1
 66
     0
277
    -2
287
     1
 67
     0
278
    -2
288
     1
 68
     0
279
    -2
289
     1
 69
     0
  7
STANDARD
140
0.25
170
     5
 62
     0
 63
     7
283
     0
274
    -2
284
     1
 64
     0
275
    -2
285
     1
 65
     0
276
    -2
286
     1
 66
     0
277
    -2
287
     1
 67
     0
278
    -2
288
     1
 68
     0
279
    -2
289
     1
 69
     0
  7
STANDARD
140
0.18
170
     5
 62
     0
 63
     7
283
     0
274
    -2
284
     1
 64
     0
275
    -2
285
     1
 65
     0
276
    -2
286
     1
 66
     0
277
    -2
287
     1
 67
     0
278
    -2
288
     1
 68
     0
279
    -2
289
     1
 69
     0
  0
DICTIONARYVAR
  5
68B5
102
{ACAD_REACTORS
330
A08
102
}
330
A08
100
DictionaryVariables
280
     0
  1
STANDARD
  0
DICTIONARYVAR
  5
68B6
102
{ACAD_REACTORS
330
A08
102
}
330
A08
100
DictionaryVariables
280
     0
  1
1
  0
DICTIONARYVAR
  5
68B7
102
{ACAD_REACTORS
330
A08
102
}
330
A08
100
DictionaryVariables
280
     0
  1

  0
DICTIONARYVAR
  5
A09
102
{ACAD_REACTORS
330
A08
102
}
330
A08
100
DictionaryVariables
280
     0
  1
127
  0
DICTIONARY
  5
5BD8
102
{ACAD_REACTORS
330
5BCB
102
}
330
5BCB
100
AcDbDictionary
281
     1
  0
XRECORD
  5
5BF8
102
{ACAD_REACTORS
330
5BCB
102
}
330
5BCB
100
AcDbXrecord
280
     1
 90
-1023410169
  0
DICTIONARY
  5
7E88
330
59A7
100
AcDbDictionary
280
     1
281
     1
  3
ACAD_XREC_ROUNDTRIP
360
7E89
  0
DICTIONARY
  5
7E8A
330
59A8
100
AcDbDictionary
280
     1
281
     1
  3
ACAD_XREC_ROUNDTRIP
360
7E8B
  0
XRECORD
  5
7E89
102
{ACAD_REACTORS
330
7E88
102
}
330
7E88
100
AcDbXrecord
280
     1
102
SHADEPLOT
 70
     0
102
SHADEPLOTRESLEVEL
 70
     2
102
SHADEPLOTCUSTOMDPI
 70
   300
  0
XRECORD
  5
7E8B
102
{ACAD_REACTORS
330
7E8A
102
}
330
7E8A
100
AcDbXrecord
280
     1
102
SHADEPLOT
 70
     0
102
SHADEPLOTRESLEVEL
 70
     2
102
SHADEPLOTCUSTOMDPI
 70
   300
  0
ENDSEC
  0
EOF
