  0
SECTION
  2
HEADER
  9
$ACADVER
  1
AC1012
  9
$DWGCODEPAGE
  3
big5
  9
$INSBASE
 10
0.0
 20
0.0
 30
0.0
  9
$EXTMIN
 10
36.5157332972235
 20
277.1862749201409
 30
-0.0000000000000059
  9
$EXTMAX
 10
1353.49849910938
 20
1386.94715950775
 30
0.0000000000000093
  9
$LIMMIN
 10
0.0
 20
0.0
  9
$LIMMAX
 10
420.0
 20
297.0
  9
$ORTHOMODE
 70
     1
  9
$REGENMODE
 70
     1
  9
$FILLMODE
 70
     1
  9
$QTEXTMODE
 70
     0
  9
$MIRRTEXT
 70
     1
  9
$DRAGMODE
 70
     2
  9
$LTSCALE
 40
20.0
  9
$OSMODE
 70
    55
  9
$ATTMODE
 70
     1
  9
$TEXTSIZE
 40
5.25
  9
$TRACEWID
 40
1.0
  9
$TEXTSTYLE
  7
DAYUS
  9
$CLAYER
  8
0
  9
$CELTYPE
  6
BYLAYER
  9
$CECOLOR
 62
   256
  9
$CELTSCALE
 40
1.0
  9
$DELOBJ
 70
     1
  9
$DISPSILH
 70
     0
  9
$DIMSCALE
 40
1.0
  9
$DIMASZ
 40
3.0
  9
$DIMEXO
 40
2.0
  9
$DIMDLI
 40
10.5
  9
$DIMRND
 40
0.0
  9
$DIMDLE
 40
0.0
  9
$DIMEXE
 40
1.0
  9
$DIMTP
 40
0.01
  9
$DIMTM
 40
0.01
  9
$DIMTXT
 40
3.5
  9
$DIMCEN
 40
3.0
  9
$DIMTSZ
 40
0.0
  9
$DIMTOL
 70
     0
  9
$DIMLIM
 70
     0
  9
$DIMTIH
 70
     0
  9
$DIMTOH
 70
     0
  9
$DIMSE1
 70
     0
  9
$DIMSE2
 70
     0
  9
$DIMTAD
 70
     1
  9
$DIMZIN
 70
     8
  9
$DIMBLK
  1

  9
$DIMASO
 70
     1
  9
$DIMSHO
 70
     1
  9
$DIMPOST
  1

  9
$DIMAPOST
  1

  9
$DIMALT
 70
     0
  9
$DIMALTD
 70
     2
  9
$DIMALTF
 40
25.4
  9
$DIMLFAC
 40
1.0
  9
$DIMTOFL
 70
     1
  9
$DIMTVP
 40
0.0
  9
$DIMTIX
 70
     0
  9
$DIMSOXD
 70
     0
  9
$DIMSAH
 70
     0
  9
$DIMBLK1
  1

  9
$DIMBLK2
  1

  9
$DIMSTYLE
  2
STANDARD
  9
$DIMCLRD
 70
   256
  9
$DIMCLRE
 70
   256
  9
$DIMCLRT
 70
   256
  9
$DIMTFAC
 40
0.6
  9
$DIMGAP
 40
0.8
  9
$DIMJUST
 70
     0
  9
$DIMSD1
 70
     0
  9
$DIMSD2
 70
     0
  9
$DIMTOLJ
 70
     0
  9
$DIMTZIN
 70
     8
  9
$DIMALTZ
 70
     0
  9
$DIMALTTZ
 70
     0
  9
$DIMFIT
 70
     3
  9
$DIMUPT
 70
     0
  9
$DIMUNIT
 70
     2
  9
$DIMDEC
 70
     2
  9
$DIMTDEC
 70
     8
  9
$DIMALTU
 70
     2
  9
$DIMALTTD
 70
     2
  9
$DIMTXSTY
  7
STANDARD
  9
$DIMAUNIT
 70
     0
  9
$LUNITS
 70
     2
  9
$LUPREC
 70
     2
  9
$SKETCHINC
 40
1.0
  9
$FILLETRAD
 40
0.5
  9
$AUNITS
 70
     0
  9
$AUPREC
 70
     0
  9
$MENU
  1
.
  9
$ELEVATION
 40
0.0
  9
$PELEVATION
 40
0.0
  9
$THICKNESS
 40
0.0
  9
$LIMCHECK
 70
     0
  9
$BLIPMODE
 70
     0
  9
$CHAMFERA
 40
2.5
  9
$CHAMFERB
 40
2.5
  9
$CHAMFERC
 40
20.0
  9
$CHAMFERD
 40
0.0
  9
$SKPOLY
 70
     0
  9
$TDCREATE
 40
2452292.457678333
  9
$TDUPDATE
 40
2453346.612156493
  9
$TDINDWG
 40
3.1418365856
  9
$TDUSRTIMER
 40
3.1418364699
  9
$USRTIMER
 70
     1
  9
$ANGBASE
 50
0.0
  9
$ANGDIR
 70
     0
  9
$PDMODE
 70
     0
  9
$PDSIZE
 40
0.0
  9
$PLINEWID
 40
0.0
  9
$COORDS
 70
     1
  9
$SPLFRAME
 70
     0
  9
$SPLINETYPE
 70
     6
  9
$SPLINESEGS
 70
     8
  9
$ATTDIA
 70
     1
  9
$ATTREQ
 70
     1
  9
$HANDLING
 70
 22529
  9
$HANDSEED
  5
12309
  9
$SURFTAB1
 70
     6
  9
$SURFTAB2
 70
     6
  9
$SURFTYPE
 70
     6
  9
$SURFU
 70
     6
  9
$SURFV
 70
     6
  9
$UCSNAME
  2

  9
$UCSORG
 10
0.0
 20
0.0
 30
0.0
  9
$UCSXDIR
 10
1.0
 20
0.0
 30
0.0
  9
$UCSYDIR
 10
0.0
 20
1.0
 30
0.0
  9
$PUCSNAME
  2

  9
$PUCSORG
 10
0.0
 20
0.0
 30
0.0
  9
$PUCSXDIR
 10
1.0
 20
0.0
 30
0.0
  9
$PUCSYDIR
 10
0.0
 20
1.0
 30
0.0
  9
$USERI1
 70
     0
  9
$USERI2
 70
     0
  9
$USERI3
 70
     0
  9
$USERI4
 70
     0
  9
$USERI5
 70
     0
  9
$USERR1
 40
0.0
  9
$USERR2
 40
0.0
  9
$USERR3
 40
0.0
  9
$USERR4
 40
0.0
  9
$USERR5
 40
0.0
  9
$WORLDVIEW
 70
     1
  9
$SHADEDGE
 70
     3
  9
$SHADEDIF
 70
    70
  9
$TILEMODE
 70
     1
  9
$MAXACTVP
 70
    64
  9
$PINSBASE
 10
0.0
 20
0.0
 30
0.0
  9
$PLIMCHECK
 70
     0
  9
$PEXTMIN
 10
1.000000000000000E+20
 20
1.000000000000000E+20
 30
1.000000000000000E+20
  9
$PEXTMAX
 10
-1.000000000000000E+20
 20
-1.000000000000000E+20
 30
-1.000000000000000E+20
  9
$PLIMMIN
 10
0.0
 20
0.0
  9
$PLIMMAX
 10
420.0
 20
297.0
  9
$UNITMODE
 70
     0
  9
$VISRETAIN
 70
     1
  9
$PLINEGEN
 70
     0
  9
$PSLTSCALE
 70
     1
  9
$TREEDEPTH
 70
  3020
  9
$PICKSTYLE
 70
     1
  9
$CMLSTYLE
  2
STANDARD
  9
$CMLJUST
 70
     0
  9
$CMLSCALE
 40
20.0
  9
$SAVEIMAGES
 70
     1
  0
ENDSEC
  0
SECTION
  2
CLASSES
  0
CLASS
  1
ACDBDICTIONARYWDFLT
  2
AcDbDictionaryWithDefault
  3
AutoCAD 2000
 90
    32768
280
     0
281
     0
  0
CLASS
  1
ACDBPLACEHOLDER
  2
AcDbPlaceHolder
  3
AutoCAD 2000
 90
    32768
280
     0
281
     0
  0
CLASS
  1
LAYOUT
  2
AcDbLayout
  3
AutoCAD 2000
 90
    32768
280
     0
281
     0
  0
CLASS
  1
AMGSETTINGSOBJ
  2
AmgSettingsObj
  3
"AcadM|Product Description: AutoCAD Mechanical 2000|Company: Autodesk"
 90
    32768
280
     0
281
     0
  0
CLASS
  1
ACME_DOCUMENT
  2
AcMeDbDoc
  3
AcMeServices
 90
    32768
280
     0
281
     0
  0
CLASS
  1
ACMESCOPE
  2
AcMeScope
  3
AcMeServices
 90
    32768
280
     0
281
     0
  0
CLASS
  1
ACMECOMMANDHISTORY
  2
AcMeCommandHistory
  3
AcMeServices
 90
    32768
280
     0
281
     0
  0
CLASS
  1
DICTIONARYVAR
  2
AcDbDictionaryVar
  3
AutoCAD 2000
 90
    32768
280
     0
281
     0
  0
CLASS
  1
ACIMSYSVARMAN
  2
AcImSysVarManager
  3
AcMeServices
 90
    32768
280
     0
281
     0
  0
CLASS
  1
ACIMREALSYSVAR
  2
AcImRealSysVar
  3
AcMeServices
 90
    32768
280
     0
281
     0
  0
CLASS
  1
ACIMINTSYSVAR
  2
AcImIntSysVar
  3
AcMeServices
 90
    32768
280
     0
281
     0
  0
CLASS
  1
ACMEDRAWINGMAN
  2
AcMeDrawingMan
  3
AcMeServices
 90
    32768
280
     0
281
     0
  0
CLASS
  1
ACMEVIEW
  2
AcMeView
  3
AcMeServices
 90
    32768
280
     0
281
     0
  0
CLASS
  1
ACDBENTITYCACHE
  2
AcMeEntityCache
  3
AcMeServices
 90
    32768
280
     0
281
     0
  0
CLASS
  1
GSMANAGER
  2
AcMeGSManager
  3
AcMeServices
 90
    32768
280
     0
281
     0
  0
CLASS
  1
AMDTINTERNALREACTOR
  2
AmdtInternalReactor
  3
AcMeServices
 90
    32768
280
     0
281
     0
  0
CLASS
  1
ACMESTATEMGR
  2
AcMeStateMgr
  3
AcMeServices
 90
    32768
280
     0
281
     0
  0
CLASS
  1
ACME_DATABASE
  2
AcMeDbDatabase
  3
AcMeServices
 90
    32768
280
     0
281
     0
  0
CLASS
  1
ACRFINSADJUSTERMGR
  2
AcRfInsAdjusterMgr
  3
AcMeServices
 90
    32768
280
     0
281
     0
  0
CLASS
  1
ACMDATADICTIONARY
  2
AcmDataDictionary
  3
"AcmSymBB|Product Description: AutoCAD Mechanical 2000|Company: Autodesk"
 90
    32768
280
     0
281
     0
  0
CLASS
  1
ACMDATAENTRYBLOCK
  2
AcmDataEntryBlock
  3
"AcmSymBB|Product Description: AutoCAD Mechanical 2000|Company: Autodesk"
 90
    32768
280
     0
281
     0
  0
CLASS
  1
AMGOBJPROPCFG
  2
AmgObjPropCfg
  3
"AmgLay|Product Description: AutoCAD Mechanical 2000|Company: Autodesk"
 90
    32769
280
     0
281
     0
  0
CLASS
  1
ACAMGFILTERDAT
  2
AcAmgFilterDat
  3
"AcadM|Product Description: AutoCAD Mechanical 2000|Company: Autodesk"
 90
    32768
280
     0
281
     0
  0
CLASS
  1
LAYER_INDEX
  2
AcDbLayerIndex
  3
AutoCAD 2000
 90
    32768
280
     0
281
     0
  0
CLASS
  1
IDBUFFER
  2
AcDbIdBuffer
  3
AutoCAD 2000
 90
    32768
280
     0
281
     0
  0
CLASS
  1
ACIMSTRSYSVAR
  2
AcImStrSysVar
  3
AcMeServices
 90
    32768
280
     0
281
     0
  0
CLASS
  1
ACMSTANDARDISO
  2
AcmStandardISO
  3
"Amdt_StdImp|Product Description: AutoCAD Mechanical 2000|Company: Autodesk"
 90
    32768
280
     0
281
     0
  0
CLASS
  1
AMDTEDGESTANDARDISO
  2
AmdtEdgeStdISO
  3
"Amdt_StdImp|Product Description: AutoCAD Mechanical 2000|Company: Autodesk"
 90
    32768
280
     0
281
     0
  0
CLASS
  1
ACMSURFSTANDARDISO
  2
AcmSurfTextStdISO
  3
"Amdt_StdImp|Product Description: AutoCAD Mechanical 2000|Company: Autodesk"
 90
    32768
280
     0
281
     0
  0
CLASS
  1
ACMFCFSTANDARDISO
  2
AcmFCFStdISO
  3
"Amdt_StdImp|Product Description: AutoCAD Mechanical 2000|Company: Autodesk"
 90
    32768
280
     0
281
     0
  0
CLASS
  1
ACMWELDSTANDARDISO
  2
AcmWeldingStdISO
  3
"Amdt_StdImp|Product Description: AutoCAD Mechanical 2000|Company: Autodesk"
 90
    32768
280
     0
281
     0
  0
CLASS
  1
ACMIDSTANDARDISO
  2
AcmIdStdISO
  3
"Amdt_StdImp|Product Description: AutoCAD Mechanical 2000|Company: Autodesk"
 90
    32768
280
     0
281
     0
  0
CLASS
  1
ACMDATUMSTANDARDISO
  2
AcmDatumStdISO
  3
"Amdt_StdImp|Product Description: AutoCAD Mechanical 2000|Company: Autodesk"
 90
    32768
280
     0
281
     0
  0
CLASS
  1
ACMBOMSTANDARDISO
  2
AcmBOMStdISO
  3
"Amdt_StdImp|Product Description: AutoCAD Mechanical 2000|Company: Autodesk"
 90
    32768
280
     0
281
     0
  0
CLASS
  1
AMDTNOTE
  2
AmdtNote
  3
"AcmSymBB|Product Description: AutoCAD Mechanical 2000|Company: Autodesk"
 90
    33791
280
     0
281
     1
  0
CLASS
  1
ACGREFMASTER
  2
AcGrefMaster
  3
AcAttribServices
 90
    32768
280
     0
281
     0
  0
CLASS
  1
ACGREFACADMASTER
  2
AcGrefacadMaster
  3
AcGrefServices
 90
    32768
280
     0
281
     0
  0
CLASS
  1
AMIMASTER
  2
AmiMaster
  3
AmiServices
 90
    32768
280
     0
281
     0
  0
CLASS
  1
ACAMGTITLESTD
  2
AcAmgTitleStd
  3
"TITLEAPP"
 90
    32768
280
     0
281
     0
  0
CLASS
  1
ACMDETAILSTANDARDISO
  2
AmdtDetailSymStdISO
  3
"Amdt_StdImp|Product Description: AutoCAD Mechanical 2000|Company: Autodesk"
 90
    32768
280
     0
281
     0
  0
CLASS
  1
ACMSECTIONSTANDARDISO
  2
AmdtSectionSymStdISO
  3
"Amdt_StdImp|Product Description: AutoCAD Mechanical 2000|Company: Autodesk"
 90
    32768
280
     0
281
     0
  0
CLASS
  1
ACMCENTERLINESTANDARDISO
  2
AmdtCenterLineStdISO
  3
"Amdt_StdImp|Product Description: AutoCAD Mechanical 2000|Company: Autodesk"
 90
    32768
280
     0
281
     0
  0
CLASS
  1
ACMNOTESTANDARDISO
  2
AmdtNoteStdISO
  3
"Amdt_StdImp|Product Description: AutoCAD Mechanical 2000|Company: Autodesk"
 90
    32768
280
     0
281
     0
  0
CLASS
  1
ACAMGLAYSTD
  2
AcAmgLayStd
  3
"AcAmgLayStd|Product Description: AutoCAD Mechanical 2000|Company: Autodesk"
 90
    32768
280
     0
281
     0
  0
CLASS
  1
ACAMGDIMSTD
  2
AcAmgDimStd
  3
"AcAmgDimStd|Product Description: AutoCAD Mechanical 2000|Company: Autodesk"
 90
    32768
280
     0
281
     0
  0
CLASS
  1
ACAMGHOLECHARTSTDISO
  2
AcAmgHoleChartStdISO
  3
ACMSYMBB_MODULE_NAME
 90
    32768
280
     0
281
     0
  0
CLASS
  1
AMDTFORMULAUPDATEDISPATCHER
  2
AmdtFormulaUpdateDispatcher
  3
AcMeServices
 90
    32768
280
     0
281
     0
  0
CLASS
  1
ACMSTANDARDANSI
  2
AcmStandardANSI
  3
"Amdt_StdImp|Product Description: AutoCAD Mechanical 2000|Company: Autodesk"
 90
    32768
280
     0
281
     0
  0
CLASS
  1
ACMSURFSTANDARDANSI
  2
AcmSurfTextStdANSI
  3
"Amdt_StdImp|Product Description: AutoCAD Mechanical 2000|Company: Autodesk"
 90
    32768
280
     0
281
     0
  0
CLASS
  1
ACMFCFSTANDARDANSI
  2
AcmFCFStdANSI
  3
"Amdt_StdImp|Product Description: AutoCAD Mechanical 2000|Company: Autodesk"
 90
    32768
280
     0
281
     0
  0
CLASS
  1
ACMWELDSTANDARDANSI
  2
AcmWeldingStdANSI
  3
"Amdt_StdImp|Product Description: AutoCAD Mechanical 2000|Company: Autodesk"
 90
    32768
280
     0
281
     0
  0
CLASS
  1
ACMIDSTANDARDANSI
  2
AcmIdStdANSI
  3
"Amdt_StdImp|Product Description: AutoCAD Mechanical 2000|Company: Autodesk"
 90
    32768
280
     0
281
     0
  0
CLASS
  1
ACMDATUMSTANDARDANSI
  2
AcmDatumStdANSI
  3
"Amdt_StdImp|Product Description: AutoCAD Mechanical 2000|Company: Autodesk"
 90
    32768
280
     0
281
     0
  0
CLASS
  1
ACMBOMSTANDARDANSI
  2
AcmBOMStdANSI
  3
"Amdt_StdImp|Product Description: AutoCAD Mechanical 2000|Company: Autodesk"
 90
    32768
280
     0
281
     0
  0
CLASS
  1
ACMDETAILSTANDARDANSI
  2
AmdtDetailSymStdANSI
  3
"Amdt_StdImp|Product Description: AutoCAD Mechanical 2000|Company: Autodesk"
 90
    32768
280
     0
281
     0
  0
CLASS
  1
ACMSECTIONSTANDARDANSI
  2
AmdtSectionSymStdANSI
  3
"Amdt_StdImp|Product Description: AutoCAD Mechanical 2000|Company: Autodesk"
 90
    32768
280
     0
281
     0
  0
CLASS
  1
ACMCENTERLINESTANDARDANSI
  2
AmdtCenterLineStdANSI
  3
"Amdt_StdImp|Product Description: AutoCAD Mechanical 2000|Company: Autodesk"
 90
    32768
280
     0
281
     0
  0
CLASS
  1
ACMNOTESTANDARDANSI
  2
AmdtNoteStdANSI
  3
"Amdt_StdImp|Product Description: AutoCAD Mechanical 2000|Company: Autodesk"
 90
    32768
280
     0
281
     0
  0
CLASS
  1
ACAMGHOLECHARTSTDANSI
  2
AcAmgHoleChartStdANSI
  3
ACMSYMBB_MODULE_NAME
 90
    32768
280
     0
281
     0
  0
CLASS
  1
STDPART2D
  2
AmgStdPart
  3
"AmgStdPart|Product Description: AutoCAD Mechanical 2000|Company: Autodesk"
 90
    33791
280
     0
281
     1
  0
CLASS
  1
ACMDATAENTRYPART
  2
AcmDataEntryPart
  3
"AcmSymBB|Product Description: AutoCAD Mechanical 2000|Company: Autodesk"
 90
    32768
280
     0
281
     0
  0
CLASS
  1
ACMPARTREF
  2
AcmPartRef
  3
"AcmSymBB|Product Description: AutoCAD Mechanical 2000|Company: Autodesk"
 90
    33791
280
     0
281
     1
  0
CLASS
  1
ACDBSTDPARTRES_LINE
  2
AcDbStdPartRes_Line
  3
"AcDbStdPartRes_Line|Product Description: AutoCAD Mechanical 2000|Company: Autodesk"
 90
    32768
280
     0
281
     0
  0
CLASS
  1
RASTERVARIABLES
  2
AcDbRasterVariables
  3
ISM
 90
    32768
280
     0
281
     0
  0
CLASS
  1
IMAGEDEF
  2
AcDbRasterImageDef
  3
ISM
 90
    32768
280
     0
281
     0
  0
CLASS
  1
IMAGEDEF_REACTOR
  2
AcDbRasterImageDefReactor
  3
ISM
 90
    32769
280
     0
281
     0
  0
CLASS
  1
IMAGE
  2
AcDbRasterImage
  3
ISM
 90
    32895
280
     0
281
     1
  0
CLASS
  1
DIMASSOC
  2
AcDbDimAssoc
  3
"AcDbDimAssoc|Product Desc:     AcDim ARX App For Dimension|Company:          Autodesk, Inc.|WEB Address:      www.autodesk.com"
 90
    32768
280
     0
281
     0
  0
CLASS
  1
ACDBSTDPARTRES_ARC
  2
AcDbStdPartRes_Arc
  3
"AcDbStdPartRes_Arc|Product Description: AutoCAD Mechanical 2000|Company: Autodesk"
 90
    32768
280
     0
281
     0
  0
CLASS
  1
LONG_TRANSACTION
  2
AcDbLongTransaction
  3
AutoCAD 2000
 90
    32768
280
     0
281
     0
  0
CLASS
  1
LWPOLYLINE
  2
AcDbPolyline
  3
AutoCAD 2000
 90
    32768
280
     0
281
     1
  0
CLASS
  1
HATCH
  2
AcDbHatch
  3
AutoCAD 2000
 90
    32768
280
     0
281
     1
  0
CLASS
  1
XRECORD
  2
AcDbXrecord
  3
AutoCAD 2000
 90
    32768
280
     0
281
     0
  0
ENDSEC
  0
SECTION
  2
TABLES
  0
TABLE
  2
VPORT
  5
8
330
0
100
AcDbSymbolTable
 70
     5
  0
VPORT
  5
122D7
330
8
100
AcDbSymbolTableRecord
100
AcDbViewportTableRecord
  2
*ACTIVE
 70
     0
 10
0.0
 20
0.0
 11
1.0
 21
1.0
 12
695.017997110522
 22
832.0633567852013
 13
0.0
 23
0.0
 14
2.5
 24
2.5
 15
10.0
 25
10.0
 16
0.0
 26
0.0
 36
1.0
 17
0.0
 27
0.0
 37
0.0
 40
1122.520642838669
 41
1.756554307116104
 42
50.0
 43
0.0
 44
0.0
 50
0.0
 51
0.0
 71
     0
 72
   100
 73
     1
 74
     3
 75
     0
 76
     0
 77
     0
 78
     0
  0
ENDTAB
  0
TABLE
  2
LTYPE
  5
5
330
0
100
AcDbSymbolTable
 70
    15
  0
LTYPE
  5
14
330
5
100
AcDbSymbolTableRecord
100
AcDbLinetypeTableRecord
  2
BYBLOCK
 70
     0
  3

 72
    65
 73
     0
 40
0.0
  0
LTYPE
  5
15
330
5
100
AcDbSymbolTableRecord
100
AcDbLinetypeTableRecord
  2
BYLAYER
 70
     0
  3

 72
    65
 73
     0
 40
0.0
  0
LTYPE
  5
16
330
5
100
AcDbSymbolTableRecord
100
AcDbLinetypeTableRecord
  2
CONTINUOUS
 70
     0
  3
Solid line
 72
    65
 73
     0
 40
0.0
  0
LTYPE
  5
4B
330
5
100
AcDbSymbolTableRecord
100
AcDbLinetypeTableRecord
  2
AM_ISO02W050
 70
     0
  3
__ __ __ __ __ __ __ __ __ __ __ __ __ __ __
 72
    65
 73
     2
 40
7.5
 49
6.0
 74
     0
 49
-1.5
 74
     0
  0
LTYPE
  5
4C
330
5
100
AcDbSymbolTableRecord
100
AcDbLinetypeTableRecord
  2
AM_ISO08W050
 70
     0
  3
____ . ____ . ____ . ____ . ____ . ____ . ____
 72
    65
 73
     4
 40
18.0
 49
12.0
 74
     0
 49
-1.5
 74
     0
 49
3.0
 74
     0
 49
-1.5
 74
     0
  0
LTYPE
  5
4D
330
5
100
AcDbSymbolTableRecord
100
AcDbLinetypeTableRecord
  2
AM_ISO09W050
 70
     0
  3
_____ . . _____ . . _____ . . ____ .. ____
 72
    65
 73
     6
 40
22.5
 49
12.0
 74
     0
 49
-1.5
 74
     0
 49
3.0
 74
     0
 49
-1.5
 74
     0
 49
3.0
 74
     0
 49
-1.5
 74
     0
  0
LTYPE
  5
4E
330
5
100
AcDbSymbolTableRecord
100
AcDbLinetypeTableRecord
  2
AMCONSTR
 70
     0
  3
_______________________
 72
    65
 73
     2
 40
9999.0
 49
9999.0
 74
     0
 49
0.0
 74
     0
  0
LTYPE
  5
4F
330
5
100
AcDbSymbolTableRecord
100
AcDbLinetypeTableRecord
  2
AM_ISO02W050X2
 70
     0
  3
 _ _ _ _ _ _ _ _ _ _ _ _
 72
    65
 73
     2
 40
3.75
 49
3.0
 74
     0
 49
-0.75
 74
     0
  0
LTYPE
  5
50
330
5
100
AcDbSymbolTableRecord
100
AcDbLinetypeTableRecord
  2
AM_ISO08W050X2
 70
     0
  3
__ . __ . __ . __ . __ . __
 72
    65
 73
     4
 40
9.0
 49
6.0
 74
     0
 49
-0.75
 74
     0
 49
1.5
 74
     0
 49
-0.75
 74
     0
  0
LTYPE
  5
53
330
5
100
AcDbSymbolTableRecord
100
AcDbLinetypeTableRecord
  2
AMZIGZAG
 70
     0
  3
/\/-/\/-/\/-/\/-/\/-/\/
 72
    65
 73
     2
 40
11.00009999999999
 49
0.0001
 74
     4
 75
   135
340
52
 46
0.04
 50
0.0
 44
0.0
 45
0.0
 49
-11.0
 74
     0
  0
LTYPE
  5
144B
330
5
100
AcDbSymbolTableRecord
100
AcDbLinetypeTableRecord
  2
ACISOWELD
 70
     0
  3
_ _ _ _ _
 72
    65
 73
     2
 40
2.0
 49
2.0
 74
     0
 49
-1.0
 74
     0
  0
LTYPE
  5
144C
330
5
100
AcDbSymbolTableRecord
100
AcDbLinetypeTableRecord
  2
ACISOTGB
 70
     0
  3
__ . . __ . .
 72
    65
 73
     6
 40
9.0
 49
4.0
 74
     0
 49
-1.0
 74
     0
 49
1.0
 74
     0
 49
-1.0
 74
     0
 49
1.0
 74
     0
 49
-1.0
 74
     0
  0
LTYPE
  5
144D
330
5
100
AcDbSymbolTableRecord
100
AcDbLinetypeTableRecord
  2
ACISOTGL
 70
     0
  3
_ _ _ _ _
 72
    65
 73
     2
 40
3.0
 49
2.0
 74
     0
 49
-1.0
 74
     0
  0
LTYPE
  5
1C35
330
5
100
AcDbSymbolTableRecord
100
AcDbLinetypeTableRecord
  2
CENTER
 70
     0
  3
Center ____ _ ____ _ ____ _ ____ _ ____ _ ____
 72
    65
 73
     4
 40
2.0
 49
1.25
 74
     0
 49
-0.25
 74
     0
 49
0.25
 74
     0
 49
-0.25
 74
     0
  0
LTYPE
  5
B899
330
5
100
AcDbSymbolTableRecord
100
AcDbLinetypeTableRecord
  2
PHANTOM2
 70
     0
  3
Phantom (.5x) ___ _ _ ___ _ _ ___ _ _ ___ _ _
 72
    65
 73
     6
 40
31.75
 49
15.875
 74
     0
 49
-3.174999999999999
 74
     0
 49
3.174999999999999
 74
     0
 49
-3.174999999999999
 74
     0
 49
3.174999999999999
 74
     0
 49
-3.174999999999999
 74
     0
  0
LTYPE
  5
BE5A
330
5
100
AcDbSymbolTableRecord
100
AcDbLinetypeTableRecord
  2
ACANSTGB
 70
     0
  3
__ . . __ . .
 72
    65
 73
     6
 40
0.35433070866
 49
0.15748031496
 74
     0
 49
-0.03937007874
 74
     0
 49
0.03937007874
 74
     0
 49
-0.03937007874
 74
     0
 49
0.03937007874
 74
     0
 49
-0.03937007874
 74
     0
  0
LTYPE
  5
BE5B
330
5
100
AcDbSymbolTableRecord
100
AcDbLinetypeTableRecord
  2
ACANSTGL
 70
     0
  3
_ _ _ _ _
 72
    65
 73
     2
 40
0.11811023622
 49
0.07874015748
 74
     0
 49
-0.03937007874
 74
     0
  0
ENDTAB
  0
TABLE
  2
LAYER
  5
2
330
0
100
AcDbSymbolTable
 70
    11
  0
LAYER
  5
10
330
2
100
AcDbSymbolTableRecord
100
AcDbLayerTableRecord
  2
0
 70
     0
 62
     7
  6
CONTINUOUS
  0
LAYER
  5
D0
330
2
100
AcDbSymbolTableRecord
100
AcDbLayerTableRecord
  2
圖層2
 70
     0
 62
     3
  6
CONTINUOUS
  0
LAYER
  5
450
330
2
100
AcDbSymbolTableRecord
100
AcDbLayerTableRecord
  2
DEFPOINTS
 70
     0
 62
    -7
  6
CONTINUOUS
  0
LAYER
  5
989
330
2
100
AcDbSymbolTableRecord
100
AcDbLayerTableRecord
  2
AM_5
 70
     0
 62
     5
  6
CONTINUOUS
  0
LAYER
  5
1C3A
330
2
100
AcDbSymbolTableRecord
100
AcDbLayerTableRecord
  2
AM_REFDIM
 70
     0
 62
     5
  6
CONTINUOUS
  0
LAYER
  5
DF31
330
2
100
AcDbSymbolTableRecord
100
AcDbLayerTableRecord
  2
AM_7
 70
     0
 62
     1
  6
AM_ISO08W050
  0
LAYER
  5
1092D
330
2
100
AcDbSymbolTableRecord
100
AcDbLayerTableRecord
  2
DRG
 70
     0
 62
     7
  6
CONTINUOUS
  0
LAYER
  5
1092E
330
2
100
AcDbSymbolTableRecord
100
AcDbLayerTableRecord
  2
CEN
 70
     0
 62
     1
  6
CENTER
  0
LAYER
  5
11049
330
2
100
AcDbSymbolTableRecord
100
AcDbLayerTableRecord
  2
AM_0N
 70
     0
 62
     7
  6
CONTINUOUS
  0
LAYER
  5
11616
330
2
100
AcDbSymbolTableRecord
100
AcDbLayerTableRecord
  2
M_1
 70
     0
 62
     7
  6
CONTINUOUS
  0
LAYER
  5
11EE7
330
2
100
AcDbSymbolTableRecord
100
AcDbLayerTableRecord
  2
LOGO
 70
     0
 62
     7
  6
CONTINUOUS
  0
ENDTAB
  0
TABLE
  2
STYLE
  5
3
330
0
100
AcDbSymbolTable
 70
    10
  0
STYLE
  5
11
330
3
100
AcDbSymbolTableRecord
100
AcDbTextStyleTableRecord
  2
STANDARD
 70
     0
 40
0.0
 41
1.0
 50
0.0
 71
     0
 42
3.0
  3
ISOCP.SHX
  4
CHINESET.SHX
  0
STYLE
  5
52
330
3
100
AcDbSymbolTableRecord
100
AcDbTextStyleTableRecord
  2

 70
     1
 40
0.0
 41
1.0
 50
0.0
 71
     0
 42
2.5
  3
ltypeshp.shx
  4

  0
STYLE
  5
D3
330
3
100
AcDbSymbolTableRecord
100
AcDbTextStyleTableRecord
  2
ROMAND
 70
     0
 40
0.0
 41
1.0
 50
0.0
 71
     0
 42
6.0
  3
romand.shx
  4
chineset.shx
  0
STYLE
  5
1442
330
3
100
AcDbSymbolTableRecord
100
AcDbTextStyleTableRecord
  2
ACISOTS
 70
     0
 40
1.0
 41
1.0
 50
0.0
 71
     0
 42
1.0
  3
isocp.shx
  4
chineset.shx
  0
STYLE
  5
144A
330
3
100
AcDbSymbolTableRecord
100
AcDbTextStyleTableRecord
  2
ACISOGDT
 70
     0
 40
0.0
 41
1.0
 50
0.0
 71
     0
 42
2.5
  3
amgdt.shx
  4

  0
STYLE
  5
167B
330
3
100
AcDbSymbolTableRecord
100
AcDbTextStyleTableRecord
  2
DAYUS
 70
     0
 40
0.0
 41
1.0
 50
0.0
 71
     0
 42
5.25
  3
simplex
  4
dayus
  0
STYLE
  5
BE5E
330
3
100
AcDbSymbolTableRecord
100
AcDbTextStyleTableRecord
  2
ACANSTS
 70
     0
 40
1.0
 41
1.0
 50
0.0
 71
     0
 42
1.5
  3
romans.shx
  4
chineset.shx
  0
STYLE
  5
BE5F
330
3
100
AcDbSymbolTableRecord
100
AcDbTextStyleTableRecord
  2
ACANSGDT
 70
     0
 40
0.0
 41
1.0
 50
0.0
 71
     0
 42
1.5
  3
amgdtans.shx
  4

  0
STYLE
  5
11EE8
330
3
100
AcDbSymbolTableRecord
100
AcDbTextStyleTableRecord
  2
CHINESET
 70
     0
 40
0.0
 41
1.0
 50
0.0
 71
     0
 42
25.0
  3
simplex.shx
  4
chineset.shx
  0
STYLE
  5
11EE9
330
3
100
AcDbSymbolTableRecord
100
AcDbTextStyleTableRecord
  2
LOGO
 70
     0
 40
0.0
 41
1.0
 50
0.0
 71
     0
 42
5.0
  3
LEI00DP.TTF
  4

1001
ACAD
1000
文鼎中粗隸
1071
    34865
  0
ENDTAB
  0
TABLE
  2
VIEW
  5
6
330
0
100
AcDbSymbolTable
 70
     0
  0
ENDTAB
  0
TABLE
  2
UCS
  5
7
330
0
100
AcDbSymbolTable
 70
     0
  0
ENDTAB
  0
TABLE
  2
APPID
  5
9
330
0
100
AcDbSymbolTable
 70
    20
  0
APPID
  5
12
330
9
100
AcDbSymbolTableRecord
100
AcDbRegAppTableRecord
  2
ACAD
 70
     0
  0
APPID
  5
30
330
9
100
AcDbSymbolTableRecord
100
AcDbRegAppTableRecord
  2
MCAD_NO_VIS
 70
     0
  0
APPID
  5
31
330
9
100
AcDbSymbolTableRecord
100
AcDbRegAppTableRecord
  2
ACAD_TEMP_GRAPHIC
 70
     0
  0
APPID
  5
455
330
9
100
AcDbSymbolTableRecord
100
AcDbRegAppTableRecord
  2
GENIUS_GENDTOL_13
 70
     0
  0
APPID
  5
6B34
330
9
100
AcDbSymbolTableRecord
100
AcDbRegAppTableRecord
  2
ACATTRIBSERVICES
 70
     0
  0
APPID
  5
DF34
330
9
100
AcDbSymbolTableRecord
100
AcDbRegAppTableRecord
  2
GENIUS_GENOREF_13
 70
     0
  0
APPID
  5
E304
330
9
100
AcDbSymbolTableRecord
100
AcDbRegAppTableRecord
  2
GENIUS_GENREC_14
 70
     0
  0
APPID
  5
E305
330
9
100
AcDbSymbolTableRecord
100
AcDbRegAppTableRecord
  2
GENIUS_GENODEF_13
 70
     0
  0
APPID
  5
E306
330
9
100
AcDbSymbolTableRecord
100
AcDbRegAppTableRecord
  2
GENIUS_GENOBJ-N-REC_13
 70
     0
  0
APPID
  5
E7E4
330
9
100
AcDbSymbolTableRecord
100
AcDbRegAppTableRecord
  2
GEVID1067829771
 70
     0
  0
APPID
  5
E7E5
330
9
100
AcDbSymbolTableRecord
100
AcDbRegAppTableRecord
  2
GEVDC
 70
     0
  0
APPID
  5
E7E6
330
9
100
AcDbSymbolTableRecord
100
AcDbRegAppTableRecord
  2
GEVRADREF
 70
     0
  0
APPID
  5
E7E9
330
9
100
AcDbSymbolTableRecord
100
AcDbRegAppTableRecord
  2
GENIUS_GENBH_13
 70
     0
  0
APPID
  5
E7EC
330
9
100
AcDbSymbolTableRecord
100
AcDbRegAppTableRecord
  2
GENIUS_GENOBJ-NBEHI-BHF_13
 70
     0
  0
APPID
  5
E7ED
330
9
100
AcDbSymbolTableRecord
100
AcDbRegAppTableRecord
  2
GENIUS_GENOENT_13
 70
     0
  0
APPID
  5
E7EE
330
9
100
AcDbSymbolTableRecord
100
AcDbRegAppTableRecord
  2
GENIUS_GENOLIS_13
 70
     0
  0
APPID
  5
E7F0
330
9
100
AcDbSymbolTableRecord
100
AcDbRegAppTableRecord
  2
GENIUS_GENOBJ-NBEHI-BHB_13
 70
     0
  0
APPID
  5
E805
330
9
100
AcDbSymbolTableRecord
100
AcDbRegAppTableRecord
  2
GEVID1067829772
 70
     0
  0
APPID
  5
11032
330
9
100
AcDbSymbolTableRecord
100
AcDbRegAppTableRecord
  2
GENIUS_GENOBJ-N-CEN_13
 70
     0
  0
APPID
  5
11045
330
9
100
AcDbSymbolTableRecord
100
AcDbRegAppTableRecord
  2
GEVID1100508099
 70
     0
  0
ENDTAB
  0
TABLE
  2
DIMSTYLE
  5
A
330
0
100
AcDbSymbolTable
 70
    14
  0
DIMSTYLE
105
98A
102
{ACAD_REACTORS
330
10B8F
330
111C2
330
11261
330
10D9B
330
11321
330
11364
330
11FEE
330
12059
330
11FED
102
}
330
A
100
AcDbSymbolTableRecord
100
AcDbDimStyleTableRecord
  2
AM_ISO
 70
     0
  3

  4
"
  5

  6

  7

 40
0.6
 41
3.0
 42
2.0
 43
10.0
 44
1.5
 45
0.0
 46
0.0
 47
0.1
 48
0.1
140
3.0
141
0.0
142
0.0
143
0.0393701
144
1.0
145
0.0
146
0.71
147
0.8
 71
     0
 72
     0
 73
     0
 74
     0
 75
     0
 76
     0
 77
     1
 78
     8
170
     0
171
     2
172
     1
173
     0
174
     0
175
     0
176
     5
177
   256
178
     5
270
     2
271
     2
272
     2
273
     2
274
     2
340
11
275
     0
280
     0
281
     0
282
     0
283
     0
284
     0
285
     0
286
     0
287
     3
288
     0
  0
DIMSTYLE
105
98B
330
A
100
AcDbSymbolTableRecord
100
AcDbDimStyleTableRecord
  2
AM_ISO$3
 70
     0
  3

  4
"
  5

  6

  7

 40
0.6
 41
3.0
 42
2.0
 43
10.0
 44
1.5
 45
0.0
 46
0.0
 47
0.1
 48
0.1
140
3.0
141
0.0
142
0.0
143
0.0393701
144
1.0
145
0.0
146
0.71
147
0.8
 71
     0
 72
     0
 73
     0
 74
     1
 75
     0
 76
     0
 77
     1
 78
     8
170
     0
171
     2
172
     0
173
     0
174
     0
175
     0
176
     5
177
   256
178
     5
270
     2
271
     2
272
     2
273
     2
274
     2
340
11
275
     0
280
     0
281
     0
282
     0
283
     0
284
     0
285
     0
286
     0
287
     0
288
     1
  0
DIMSTYLE
105
98C
330
A
100
AcDbSymbolTableRecord
100
AcDbDimStyleTableRecord
  2
AM_ISO$4
 70
     0
  3

  4
"
  5

  6

  7

 40
0.6
 41
3.0
 42
2.0
 43
10.0
 44
1.5
 45
0.0
 46
0.0
 47
0.1
 48
0.1
140
3.0
141
0.0
142
0.0
143
0.0393701
144
1.0
145
0.0
146
0.71
147
0.8
 71
     0
 72
     0
 73
     0
 74
     1
 75
     0
 76
     0
 77
     1
 78
     8
170
     0
171
     2
172
     0
173
     0
174
     0
175
     0
176
     5
177
   256
178
     5
270
     2
271
     2
272
     2
273
     2
274
     2
340
11
275
     0
280
     0
281
     0
282
     0
283
     0
284
     0
285
     0
286
     0
287
     0
288
     1
  0
DIMSTYLE
105
98D
330
A
100
AcDbSymbolTableRecord
100
AcDbDimStyleTableRecord
  2
AM_ISO$6
 70
     0
  3

  4
"
  5

  6

  7

 40
0.6
 41
3.0
 42
2.0
 43
10.0
 44
1.5
 45
0.0
 46
0.0
 47
0.1
 48
0.1
140
3.0
141
0.0
142
0.0
143
0.0393701
144
1.0
145
0.0
146
0.71
147
0.8
 71
     0
 72
     0
 73
     0
 74
     0
 75
     0
 76
     0
 77
     0
 78
     8
170
     0
171
     2
172
     1
173
     0
174
     0
175
     0
176
     5
177
   256
178
     5
270
     2
271
     2
272
     2
273
     2
274
     2
340
11
275
     0
280
     0
281
     0
282
     0
283
     0
284
     0
285
     0
286
     0
287
     3
288
     0
  0
DIMSTYLE
105
98E
330
A
100
AcDbSymbolTableRecord
100
AcDbDimStyleTableRecord
  2
AM_ISO$7
 70
     0
  3

  4
"
  5

  6

  7

 40
0.6
 41
3.0
 42
2.0
 43
10.0
 44
1.5
 45
0.0
 46
0.0
 47
0.1
 48
0.1
140
5.0
141
0.0
142
0.0
143
0.0393701
144
1.0
145
0.0
146
0.71
147
0.8
 71
     0
 72
     0
 73
     0
 74
     0
 75
     0
 76
     0
 77
     1
 78
     8
170
     0
171
     2
172
     1
173
     0
174
     0
175
     0
176
     5
177
   256
178
     5
270
     2
271
     2
272
     2
273
     2
274
     2
340
11
275
     0
280
     0
281
     0
282
     0
283
     0
284
     0
285
     0
286
     0
287
     3
288
     0
  0
DIMSTYLE
105
98F
330
A
100
AcDbSymbolTableRecord
100
AcDbDimStyleTableRecord
  2
AM_ISO$SF
 70
     0
  3

  4
"
  5

  6

  7

 40
0.5
 41
2.5
 42
1.0
 43
10.0
 44
1.0
 45
0.0
 46
0.0
 47
0.1
 48
0.1
140
3.5
141
0.0
142
0.0
143
0.0393701
144
1.0
145
0.0
146
0.71
147
1.5
 71
     0
 72
     0
 73
     0
 74
     0
 75
     1
 76
     1
 77
     1
 78
     8
170
     0
171
     2
172
     1
173
     0
174
     0
175
     0
176
   256
177
   256
178
     2
270
     2
271
     2
272
     2
273
     2
274
     2
340
11
275
     0
280
     0
281
     0
282
     0
283
     0
284
     0
285
     0
286
     0
287
     3
288
     0
  0
DIMSTYLE
105
994
330
A
100
AcDbSymbolTableRecord
100
AcDbDimStyleTableRecord
  2
AM_ISO$SH
 70
     0
  3

  4
"
  5

  6
GENAXEH
  7

 40
0.5
 41
2.5
 42
1.0
 43
10.0
 44
1.0
 45
0.0
 46
0.0
 47
0.1
 48
0.1
140
3.5
141
0.0
142
0.0
143
0.0393701
144
2.0
145
0.0
146
0.71
147
1.5
 71
     0
 72
     0
 73
     0
 74
     0
 75
     1
 76
     1
 77
     1
 78
     8
170
     0
171
     2
172
     1
173
     1
174
     0
175
     0
176
   256
177
   256
178
     2
270
     2
271
     2
272
     2
273
     2
274
     2
340
11
275
     0
280
     0
281
     0
282
     0
283
     0
284
     0
285
     0
286
     0
287
     3
288
     0
  0
DIMSTYLE
105
6E5D
330
A
100
AcDbSymbolTableRecord
100
AcDbDimStyleTableRecord
  2
AM_ANSI
 70
     0
  3

  4
"
  5

  6

  7

 40
0.8
 41
3.0
 42
1.5
 43
5.0
 44
2.0
 45
0.0
 46
0.0
 47
0.1
 48
0.1
140
3.0
141
-1.5
142
0.0
143
0.0393701
144
0.833333333
145
0.0
146
0.6
147
0.8
 71
     0
 72
     0
 73
     0
 74
     0
 75
     0
 76
     0
 77
     1
 78
     8
170
     0
171
     2
172
     1
173
     0
174
     0
175
     0
176
   256
177
   256
178
   256
270
     2
271
     2
272
     2
273
     2
274
     2
340
167B
275
     0
280
     0
281
     0
282
     0
283
     1
284
     8
285
     0
286
     0
287
     3
288
     0
  0
DIMSTYLE
105
6E5E
330
A
100
AcDbSymbolTableRecord
100
AcDbDimStyleTableRecord
  2
AM_ANSI$3
 70
     0
  3

  4
"
  5

  6

  7

 40
0.8
 41
3.0
 42
1.5
 43
5.0
 44
2.0
 45
0.0
 46
0.0
 47
0.1
 48
0.1
140
3.0
141
-1.5
142
0.0
143
0.0393701
144
0.833333333
145
0.0
146
0.6
147
0.8
 71
     0
 72
     0
 73
     0
 74
     0
 75
     0
 76
     0
 77
     1
 78
     8
170
     0
171
     2
172
     1
173
     0
174
     0
175
     0
176
   256
177
   256
178
   256
270
     2
271
     2
272
     2
273
     2
274
     2
340
167B
275
     0
280
     0
281
     0
282
     0
283
     1
284
     8
285
     0
286
     0
287
     0
288
     1
  0
DIMSTYLE
105
6E5F
330
A
100
AcDbSymbolTableRecord
100
AcDbDimStyleTableRecord
  2
AM_ANSI$7
 70
     0
  3

  4
"
  5

  6

  7

 40
0.8
 41
3.0
 42
1.5
 43
5.0
 44
2.0
 45
0.0
 46
0.0
 47
0.1
 48
0.1
140
5.0
141
-1.5
142
0.0
143
0.0393701
144
0.833333333
145
0.0
146
0.6
147
0.8
 71
     0
 72
     0
 73
     0
 74
     0
 75
     0
 76
     0
 77
     1
 78
     8
170
     0
171
     2
172
     1
173
     0
174
     0
175
     0
176
   256
177
   256
178
   256
270
     2
271
     2
272
     2
273
     2
274
     2
340
167B
275
     0
280
     0
281
     0
282
     0
283
     1
284
     8
285
     0
286
     0
287
     3
288
     0
  0
DIMSTYLE
105
B991
330
A
100
AcDbSymbolTableRecord
100
AcDbDimStyleTableRecord
  2
STANDARD
 70
     0
  3

  4

  5

  6

  7

 40
1.0
 41
3.0
 42
2.0
 43
10.5
 44
1.0
 45
0.0
 46
0.0
 47
0.01
 48
0.01
140
3.5
141
3.0
142
0.0
143
25.4
144
1.0
145
0.0
146
0.6
147
0.8
 71
     0
 72
     0
 73
     0
 74
     0
 75
     0
 76
     0
 77
     1
 78
     8
170
     0
171
     2
172
     1
173
     0
174
     0
175
     0
176
   256
177
   256
178
   256
270
     2
271
     2
272
     2
273
     2
274
     2
340
11
275
     0
280
     0
281
     0
282
     0
283
     0
284
     8
285
     0
286
     0
287
     3
288
     0
  0
DIMSTYLE
105
BE61
330
A
100
AcDbSymbolTableRecord
100
AcDbDimStyleTableRecord
  2
AM_ANSI$4
 70
     0
  3

  4
mm
  5

  6

  7

 40
1.0
 41
0.1
 42
0.05
 43
0.5
 44
0.1
 45
0.0
 46
0.0
 47
0.1
 48
0.1
140
0.12
141
0.0
142
0.0
143
25.4
144
1.0
145
0.0
146
0.71
147
0.06
 71
     0
 72
     0
 73
     1
 74
     1
 75
     0
 76
     0
 77
     0
 78
     7
170
     0
171
     2
172
     0
173
     0
174
     0
175
     0
176
   256
177
   256
178
     2
270
     2
271
     4
272
     4
273
     2
274
     4
340
11
275
     0
280
     0
281
     0
282
     0
283
     1
284
     7
285
     0
286
     0
287
     0
288
     1
  0
DIMSTYLE
105
BE62
330
A
100
AcDbSymbolTableRecord
100
AcDbDimStyleTableRecord
  2
AM_ANSI$SF
 70
     0
  3

  4
mm
  5

  6

  7

 40
1.0
 41
0.1
 42
0.05
 43
0.5
 44
0.1
 45
0.0
 46
0.0
 47
0.1
 48
0.1
140
0.12
141
0.0
142
0.0
143
25.4
144
1.0
145
0.0
146
0.71
147
0.06
 71
     0
 72
     0
 73
     1
 74
     1
 75
     1
 76
     1
 77
     0
 78
     7
170
     0
171
     2
172
     0
173
     0
174
     0
175
     0
176
   256
177
   256
178
     2
270
     2
271
     4
272
     4
273
     2
274
     4
340
11
275
     0
280
     0
281
     0
282
     0
283
     1
284
     7
285
     0
286
     0
287
     3
288
     0
  0
DIMSTYLE
105
BE63
330
A
100
AcDbSymbolTableRecord
100
AcDbDimStyleTableRecord
  2
AM_ANSI$SH
 70
     0
  3

  4
mm
  5

  6
GENAXEH
  7

 40
1.0
 41
0.1
 42
0.05
 43
0.5
 44
0.1
 45
0.0
 46
0.0
 47
0.1
 48
0.1
140
0.12
141
0.0
142
0.0
143
25.4
144
1.0
145
0.0
146
0.71
147
0.06
 71
     0
 72
     0
 73
     1
 74
     1
 75
     1
 76
     1
 77
     0
 78
     7
170
     0
171
     2
172
     0
173
     1
174
     0
175
     0
176
   256
177
   256
178
     2
270
     2
271
     4
272
     4
273
     2
274
     4
340
11
275
     0
280
     0
281
     0
282
     0
283
     1
284
     7
285
     0
286
     0
287
     3
288
     0
  0
ENDTAB
  0
TABLE
  2
BLOCK_RECORD
  5
1
330
0
100
AcDbSymbolTable
 70
    14
  0
BLOCK_RECORD
  5
1F
102
{ACAD_XDICTIONARY
360
3A4
102
}
330
1
100
AcDbSymbolTableRecord
100
AcDbBlockTableRecord
  2
*MODEL_SPACE
  0
BLOCK_RECORD
  5
1B
102
{ACAD_XDICTIONARY
360
122D8
102
}
330
1
100
AcDbSymbolTableRecord
100
AcDbBlockTableRecord
  2
*PAPER_SPACE
  0
BLOCK_RECORD
  5
990
330
1
100
AcDbSymbolTableRecord
100
AcDbBlockTableRecord
  2
GENAXEH
  0
BLOCK_RECORD
  5
10DE8
330
1
100
AcDbSymbolTableRecord
100
AcDbBlockTableRecord
  2
*D2
  0
BLOCK_RECORD
  5
10DF4
330
1
100
AcDbSymbolTableRecord
100
AcDbBlockTableRecord
  2
*D3
  0
BLOCK_RECORD
  5
111C3
330
1
100
AcDbSymbolTableRecord
100
AcDbBlockTableRecord
  2
*D4
  0
BLOCK_RECORD
  5
11262
330
1
100
AcDbSymbolTableRecord
100
AcDbBlockTableRecord
  2
*D5
  0
BLOCK_RECORD
  5
11322
330
1
100
AcDbSymbolTableRecord
100
AcDbBlockTableRecord
  2
*D6
  0
BLOCK_RECORD
  5
11365
330
1
100
AcDbSymbolTableRecord
100
AcDbBlockTableRecord
  2
*D7
  0
BLOCK_RECORD
  5
12079
330
1
100
AcDbSymbolTableRecord
100
AcDbBlockTableRecord
  2
*D8
  0
BLOCK_RECORD
  5
12085
330
1
100
AcDbSymbolTableRecord
100
AcDbBlockTableRecord
  2
*D9
  0
BLOCK_RECORD
  5
12091
330
1
100
AcDbSymbolTableRecord
100
AcDbBlockTableRecord
  2
*D10
  0
BLOCK_RECORD
  5
122EB
330
1
100
AcDbSymbolTableRecord
100
AcDbBlockTableRecord
  2
*S11
  0
BLOCK_RECORD
  5
122F4
330
1
100
AcDbSymbolTableRecord
100
AcDbBlockTableRecord
  2
*S12
  0
BLOCK_RECORD
  5
122FC
330
1
100
AcDbSymbolTableRecord
100
AcDbBlockTableRecord
  2
*S13
  0
ENDTAB
  0
ENDSEC
  0
SECTION
  2
BLOCKS
  0
BLOCK
  5
20
330
1F
100
AcDbEntity
  8
0
100
AcDbBlockBegin
  2
*MODEL_SPACE
 70
     0
 10
0.0
 20
0.0
 30
0.0
  3
*MODEL_SPACE
  1

  0
ENDBLK
  5
21
330
1F
100
AcDbEntity
  8
0
100
AcDbBlockEnd
  0
BLOCK
  5
1C
330
1B
100
AcDbEntity
 67
     1
  8
0
100
AcDbBlockBegin
  2
*PAPER_SPACE
 70
     0
 10
0.0
 20
0.0
 30
0.0
  3
*PAPER_SPACE
  1

  0
ENDBLK
  5
1D
330
1B
100
AcDbEntity
 67
     1
  8
0
100
AcDbBlockEnd
  0
BLOCK
  5
992
330
990
100
AcDbEntity
  8
0
100
AcDbBlockBegin
  2
GENAXEH
 70
     0
 10
0.0
 20
0.0
 30
0.0
  3
GENAXEH
  1

  0
LINE
  5
991
330
990
100
AcDbEntity
  8
0
100
AcDbLine
 10
-1.0
 20
0.0
 30
0.0
 11
1.0
 21
0.0
 31
0.0
  0
ENDBLK
  5
993
330
990
100
AcDbEntity
  8
0
100
AcDbBlockEnd
  0
BLOCK
  5
10DF2
330
10DE8
100
AcDbEntity
  8
0
100
AcDbBlockBegin
  2
*D2
 70
     1
 10
0.0
 20
0.0
 30
0.0
  3
*D2
  1

  0
LINE
  5
121E4
330
10DE8
100
AcDbEntity
  8
AM_5
100
AcDbLine
 10
674.2933896278043
 20
1183.643823290134
 30
0.0
 11
674.2933896278043
 21
1083.919294643164
 31
0.0
  0
LINE
  5
121E5
330
10DE8
100
AcDbEntity
  8
AM_5
100
AcDbLine
 10
881.7935498376559
 20
1183.643823290134
 30
0.0
 11
881.7935498376559
 21
1083.919294643164
 31
0.0
  0
LINE
  5
121E6
330
10DE8
100
AcDbEntity
  8
AM_5
 62
     5
100
AcDbLine
 10
686.2933896278043
 20
1089.919294643164
 30
0.0
 11
869.793549837656
 21
1089.919294643164
 31
0.0
  0
SOLID
  5
121E7
330
10DE8
100
AcDbEntity
  8
AM_5
 62
     5
100
AcDbTrace
 10
686.2933896278043
 20
1091.919294643164
 30
0.0
 11
686.2933896278043
 21
1087.919294643164
 31
0.0
 12
674.2933896278043
 22
1089.919294643164
 32
0.0
 13
674.2933896278043
 23
1089.919294643164
 33
0.0
  0
SOLID
  5
121E8
330
10DE8
100
AcDbEntity
  8
AM_5
 62
     5
100
AcDbTrace
 10
869.793549837656
 20
1091.919294643164
 30
0.0
 11
869.793549837656
 21
1087.919294643164
 31
0.0
 12
881.7935498376559
 22
1089.919294643164
 32
0.0
 13
881.7935498376559
 23
1089.919294643164
 33
0.0
  0
MTEXT
  5
121E9
330
10DE8
100
AcDbEntity
  8
AM_5
 62
     5
100
AcDbMText
 10
778.0434697327302
 20
1099.120475745526
 30
0.0
 40
12.0
 41
0.0
 71
     5
 72
     1
  1
208
1001
ACAD
1000
MTEXTBEGIN
1070
    73
1070
     1
1070
    44
1040
1.0
1070
    74
1070
     0
1000
MTEXTEND
  0
POINT
  5
121EA
330
10DE8
100
AcDbEntity
  8
DEFPOINTS
 62
     0
100
AcDbPoint
 10
674.2933896278043
 20
1191.643823290134
 30
0.0
  0
POINT
  5
121EB
330
10DE8
100
AcDbEntity
  8
DEFPOINTS
 62
     0
100
AcDbPoint
 10
881.7935498376559
 20
1191.643823290134
 30
0.0
  0
POINT
  5
121EC
330
10DE8
100
AcDbEntity
  8
DEFPOINTS
 62
     0
100
AcDbPoint
 10
881.7935498376559
 20
1089.919294643164
 30
0.0
  0
ENDBLK
  5
10DF3
330
10DE8
100
AcDbEntity
  8
0
100
AcDbBlockEnd
  0
BLOCK
  5
10DFE
330
10DF4
100
AcDbEntity
  8
0
100
AcDbBlockBegin
  2
*D3
 70
     1
 10
0.0
 20
0.0
 30
0.0
  3
*D3
  1

  0
LINE
  5
121F6
330
10DF4
100
AcDbEntity
  8
AM_5
100
AcDbLine
 10
786.0434697327304
 20
1332.947772920029
 30
0.0
 11
941.4797871493147
 21
1332.947772920029
 31
0.0
  0
LINE
  5
121F7
330
10DF4
100
AcDbEntity
  8
AM_5
100
AcDbLine
 10
786.0434697327304
 20
1130.599369590463
 30
0.0
 11
941.4797871493147
 21
1130.599369590463
 31
0.0
  0
LINE
  5
121F8
330
10DF4
100
AcDbEntity
  8
AM_5
 62
     5
100
AcDbLine
 10
935.4797871493147
 20
1320.947772920029
 30
0.0
 11
935.4797871493147
 21
1142.599369590463
 31
0.0
  0
SOLID
  5
121F9
330
10DF4
100
AcDbEntity
  8
AM_5
 62
     5
100
AcDbTrace
 10
933.4797871493147
 20
1320.947772920029
 30
0.0
 11
937.4797871493148
 21
1320.947772920029
 31
0.0
 12
935.4797871493147
 22
1332.947772920029
 32
0.0
 13
935.4797871493147
 23
1332.947772920029
 33
0.0
  0
SOLID
  5
121FA
330
10DF4
100
AcDbEntity
  8
AM_5
 62
     5
100
AcDbTrace
 10
933.4797871493147
 20
1142.599369590463
 30
0.0
 11
937.4797871493147
 21
1142.599369590463
 31
0.0
 12
935.4797871493147
 22
1130.599369590463
 32
0.0
 13
935.4797871493147
 23
1130.599369590463
 33
0.0
  0
MTEXT
  5
121FB
330
10DF4
100
AcDbEntity
  8
AM_5
 62
     5
100
AcDbMText
 10
926.2786060469524
 20
1231.773571255246
 30
0.0
 40
12.0
 41
0.0
 71
     5
 72
     1
  1
%%c202
 11
0.0000000000000001
 21
1.0
 31
0.0
1001
ACAD
1000
MTEXTBEGIN
1070
    73
1070
     1
1070
    44
1040
1.0
1070
    74
1070
     0
1000
MTEXTEND
  0
POINT
  5
121FC
330
10DF4
100
AcDbEntity
  8
DEFPOINTS
 62
     0
100
AcDbPoint
 10
778.0434697327304
 20
1332.947772920029
 30
0.0
  0
POINT
  5
121FD
330
10DF4
100
AcDbEntity
  8
DEFPOINTS
 62
     0
100
AcDbPoint
 10
778.0434697327304
 20
1130.599369590463
 30
0.0
  0
POINT
  5
121FE
330
10DF4
100
AcDbEntity
  8
DEFPOINTS
 62
     0
100
AcDbPoint
 10
935.4797871493147
 20
1130.599369590463
 30
0.0
  0
ENDBLK
  5
10DFF
330
10DF4
100
AcDbEntity
  8
0
100
AcDbBlockEnd
  0
BLOCK
  5
111CD
330
111C3
100
AcDbEntity
  8
0
100
AcDbBlockBegin
  2
*D4
 70
     1
 10
0.0
 20
0.0
 30
0.0
  3
*D4
  1

  0
LINE
  5
121BA
330
111C3
100
AcDbEntity
  8
AM_5
100
AcDbLine
 10
897.9029164596946
 20
977.5607841650225
 30
0.0
 11
925.0829950664734
 21
977.5607841650225
 31
0.0
  0
LINE
  5
121BB
330
111C3
100
AcDbEntity
  8
AM_5
100
AcDbLine
 10
790.9522774827296
 20
586.2114676458661
 30
0.0
 11
925.0829950664732
 21
586.2114676458661
 31
0.0
  0
LINE
  5
121BC
330
111C3
100
AcDbEntity
  8
AM_5
 62
     5
100
AcDbLine
 10
919.0829950664733
 20
965.5607841650226
 30
0.0
 11
919.0829950664733
 21
598.2114676458661
 31
0.0
  0
SOLID
  5
121BD
330
111C3
100
AcDbEntity
  8
AM_5
 62
     5
100
AcDbTrace
 10
917.0829950664733
 20
965.5607841650226
 30
0.0
 11
921.0829950664733
 21
965.5607841650226
 31
0.0
 12
919.0829950664733
 22
977.5607841650225
 32
0.0
 13
919.0829950664733
 23
977.5607841650225
 33
0.0
  0
SOLID
  5
121BE
330
111C3
100
AcDbEntity
  8
AM_5
 62
     5
100
AcDbTrace
 10
917.0829950664732
 20
598.2114676458661
 30
0.0
 11
921.0829950664733
 21
598.2114676458661
 31
0.0
 12
919.0829950664733
 22
586.2114676458661
 32
0.0
 13
919.0829950664733
 23
586.2114676458661
 33
0.0
  0
MTEXT
  5
121BF
330
111C3
100
AcDbEntity
  8
AM_5
 62
     5
100
AcDbMText
 10
909.8829950664731
 20
781.8861259054444
 30
0.0
 40
12.0
 41
0.0
 71
     5
 72
     1
  1
391
 11
0.0000000000000001
 21
1.0
 31
0.0
1001
ACAD
1000
MTEXTBEGIN
1070
    73
1070
     1
1070
    44
1040
1.0
1070
    74
1070
     0
1000
MTEXTEND
  0
POINT
  5
121C0
330
111C3
100
AcDbEntity
  8
DEFPOINTS
 62
     0
100
AcDbPoint
 10
889.9029164596946
 20
977.5607841650225
 30
0.0
  0
POINT
  5
121C1
330
111C3
100
AcDbEntity
  8
DEFPOINTS
 62
     0
100
AcDbPoint
 10
782.9522774827296
 20
586.2114676458661
 30
0.0
  0
POINT
  5
121C2
330
111C3
100
AcDbEntity
  8
DEFPOINTS
 62
     0
100
AcDbPoint
 10
919.0829950664733
 20
586.2114676458661
 30
0.0
  0
ENDBLK
  5
111CE
330
111C3
100
AcDbEntity
  8
0
100
AcDbBlockEnd
  0
BLOCK
  5
1126C
330
11262
100
AcDbEntity
  8
0
100
AcDbBlockBegin
  2
*D5
 70
     1
 10
0.0
 20
0.0
 30
0.0
  3
*D5
  1

  0
LINE
  5
121ED
330
11262
100
AcDbEntity
  8
AM_5
100
AcDbLine
 10
666.2933896278043
 20
1271.903319220359
 30
0.0
 11
622.6975498626825
 21
1271.903319220359
 31
0.0
  0
LINE
  5
121EE
330
11262
100
AcDbEntity
  8
AM_5
100
AcDbLine
 10
666.2933896278043
 20
1191.643823290134
 30
0.0
 11
622.6975498626825
 21
1191.643823290134
 31
0.0
  0
LINE
  5
121EF
330
11262
100
AcDbEntity
  8
AM_5
 62
     5
100
AcDbLine
 10
628.6975498626825
 20
1259.903319220359
 30
0.0
 11
628.6975498626825
 21
1203.643823290134
 31
0.0
  0
SOLID
  5
121F0
330
11262
100
AcDbEntity
  8
AM_5
 62
     5
100
AcDbTrace
 10
626.6975498626825
 20
1259.903319220359
 30
0.0
 11
630.6975498626825
 21
1259.903319220359
 31
0.0
 12
628.6975498626825
 22
1271.903319220359
 32
0.0
 13
628.6975498626825
 23
1271.903319220359
 33
0.0
  0
SOLID
  5
121F1
330
11262
100
AcDbEntity
  8
AM_5
 62
     5
100
AcDbTrace
 10
626.6975498626825
 20
1203.643823290134
 30
0.0
 11
630.6975498626825
 21
1203.643823290134
 31
0.0
 12
628.6975498626825
 22
1191.643823290134
 32
0.0
 13
628.6975498626825
 23
1191.643823290134
 33
0.0
  0
MTEXT
  5
121F2
330
11262
100
AcDbEntity
  8
AM_5
 62
     5
100
AcDbMText
 10
619.4975498626823
 20
1231.773571255246
 30
0.0
 40
12.0
 41
0.0
 71
     5
 72
     1
  1
80
 11
0.0000000000000001
 21
1.0
 31
0.0
1001
ACAD
1000
MTEXTBEGIN
1070
    73
1070
     1
1070
    44
1040
1.0
1070
    74
1070
     0
1000
MTEXTEND
  0
POINT
  5
121F3
330
11262
100
AcDbEntity
  8
DEFPOINTS
 62
     0
100
AcDbPoint
 10
674.2933896278043
 20
1271.903319220359
 30
0.0
  0
POINT
  5
121F4
330
11262
100
AcDbEntity
  8
DEFPOINTS
 62
     0
100
AcDbPoint
 10
674.2933896278043
 20
1191.643823290134
 30
0.0
  0
POINT
  5
121F5
330
11262
100
AcDbEntity
  8
DEFPOINTS
 62
     0
100
AcDbPoint
 10
628.6975498626825
 20
1191.643823290134
 30
0.0
  0
ENDBLK
  5
1126D
330
11262
100
AcDbEntity
  8
0
100
AcDbBlockEnd
  0
BLOCK
  5
1132C
330
11322
100
AcDbEntity
  8
0
100
AcDbBlockBegin
  2
*D6
 70
     1
 10
0.0
 20
0.0
 30
0.0
  3
*D6
  1

  0
LINE
  5
121D5
330
11322
100
AcDbEntity
  8
AM_5
100
AcDbLine
 10
795.8312131388554
 20
1024.367423305685
 30
0.0
 11
925.082995066473
 21
1024.367423305685
 31
0.0
  0
LINE
  5
121D6
330
11322
100
AcDbEntity
  8
AM_5
100
AcDbLine
 10
897.9029164596946
 20
977.5607841650225
 30
0.0
 11
925.082995066473
 21
977.5607841650225
 31
0.0
  0
LINE
  5
121D7
330
11322
100
AcDbEntity
  8
AM_5
 62
     5
100
AcDbLine
 10
919.0829950664729
 20
1012.367423305685
 30
0.0
 11
919.0829950664729
 21
989.5607841650226
 31
0.0
  0
SOLID
  5
121D8
330
11322
100
AcDbEntity
  8
AM_5
 62
     5
100
AcDbTrace
 10
917.082995066473
 20
1012.367423305685
 30
0.0
 11
921.0829950664729
 21
1012.367423305685
 31
0.0
 12
919.0829950664729
 22
1024.367423305685
 32
0.0
 13
919.0829950664729
 23
1024.367423305685
 33
0.0
  0
SOLID
  5
121D9
330
11322
100
AcDbEntity
  8
AM_5
 62
     5
100
AcDbTrace
 10
917.082995066473
 20
989.5607841650226
 30
0.0
 11
921.0829950664729
 21
989.5607841650226
 31
0.0
 12
919.0829950664729
 22
977.5607841650225
 32
0.0
 13
919.0829950664729
 23
977.5607841650225
 33
0.0
  0
MTEXT
  5
121DA
330
11322
100
AcDbEntity
  8
AM_5
 62
     5
100
AcDbMText
 10
909.8829950664729
 20
1000.964103735354
 30
0.0
 40
12.0
 41
0.0
 71
     5
 72
     1
  1
47
 11
0.0000000000000001
 21
1.0
 31
0.0
1001
ACAD
1000
MTEXTBEGIN
1070
    73
1070
     1
1070
    44
1040
1.0
1070
    74
1070
     0
1000
MTEXTEND
  0
POINT
  5
121DB
330
11322
100
AcDbEntity
  8
DEFPOINTS
 62
     0
100
AcDbPoint
 10
787.8312131388554
 20
1024.367423305685
 30
0.0
  0
POINT
  5
121DC
330
11322
100
AcDbEntity
  8
DEFPOINTS
 62
     0
100
AcDbPoint
 10
889.9029164596946
 20
977.5607841650225
 30
0.0
  0
POINT
  5
121DD
330
11322
100
AcDbEntity
  8
DEFPOINTS
 62
     0
100
AcDbPoint
 10
919.0829950664729
 20
977.5607841650225
 30
0.0
  0
ENDBLK
  5
1132D
330
11322
100
AcDbEntity
  8
0
100
AcDbBlockEnd
  0
BLOCK
  5
1136F
330
11365
100
AcDbEntity
  8
0
100
AcDbBlockBegin
  2
*D7
 70
     1
 10
0.0
 20
0.0
 30
0.0
  3
*D7
  1

  0
LINE
  5
121C3
330
11365
100
AcDbEntity
  8
AM_5
100
AcDbLine
 10
795.8312131388554
 20
1024.367423305685
 30
0.0
 11
967.4765423191047
 21
1024.367423305685
 31
0.0
  0
LINE
  5
121C4
330
11365
100
AcDbEntity
  8
AM_5
100
AcDbLine
 10
790.9522774827296
 20
586.2114676458661
 30
0.0
 11
967.4765423191045
 21
586.2114676458661
 31
0.0
  0
LINE
  5
121C5
330
11365
100
AcDbEntity
  8
AM_5
 62
     5
100
AcDbLine
 10
961.4765423191046
 20
1012.367423305685
 30
0.0
 11
961.4765423191046
 21
598.2114676458661
 31
0.0
  0
SOLID
  5
121C6
330
11365
100
AcDbEntity
  8
AM_5
 62
     5
100
AcDbTrace
 10
959.4765423191047
 20
1012.367423305685
 30
0.0
 11
963.4765423191048
 21
1012.367423305685
 31
0.0
 12
961.4765423191046
 22
1024.367423305685
 32
0.0
 13
961.4765423191046
 23
1024.367423305685
 33
0.0
  0
SOLID
  5
121C7
330
11365
100
AcDbEntity
  8
AM_5
 62
     5
100
AcDbTrace
 10
959.4765423191047
 20
598.2114676458661
 30
0.0
 11
963.4765423191046
 21
598.2114676458661
 31
0.0
 12
961.4765423191046
 22
586.2114676458661
 32
0.0
 13
961.4765423191046
 23
586.2114676458661
 33
0.0
  0
MTEXT
  5
121C8
330
11365
100
AcDbEntity
  8
AM_5
 62
     5
100
AcDbMText
 10
952.2765423191044
 20
805.289445475776
 30
0.0
 40
12.0
 41
0.0
 71
     5
 72
     1
  1
438
 11
0.0000000000000001
 21
1.0
 31
0.0
1001
ACAD
1000
MTEXTBEGIN
1070
    73
1070
     1
1070
    44
1040
1.0
1070
    74
1070
     0
1000
MTEXTEND
  0
POINT
  5
121C9
330
11365
100
AcDbEntity
  8
DEFPOINTS
 62
     0
100
AcDbPoint
 10
787.8312131388554
 20
1024.367423305685
 30
0.0
  0
POINT
  5
121CA
330
11365
100
AcDbEntity
  8
DEFPOINTS
 62
     0
100
AcDbPoint
 10
782.9522774827296
 20
586.2114676458661
 30
0.0
  0
POINT
  5
121CB
330
11365
100
AcDbEntity
  8
DEFPOINTS
 62
     0
100
AcDbPoint
 10
961.4765423191046
 20
586.2114676458661
 30
0.0
  0
ENDBLK
  5
11370
330
11365
100
AcDbEntity
  8
0
100
AcDbBlockEnd
  0
BLOCK
  5
12083
330
12079
100
AcDbEntity
  8
0
100
AcDbBlockBegin
  2
*D8
 70
     1
 10
0.0
 20
0.0
 30
0.0
  3
*D8
  1

  0
LINE
  5
12196
330
12079
100
AcDbEntity
  8
AM_5
100
AcDbLine
 10
455.2078109981453
 20
977.5607841650225
 30
0.0
 11
482.387889604924
 21
977.5607841650225
 31
0.0
  0
LINE
  5
12197
330
12079
100
AcDbEntity
  8
AM_5
100
AcDbLine
 10
349.9600153680792
 20
599.4661981926334
 30
0.0
 11
482.3878896049239
 21
599.4661981926334
 31
0.0
  0
LINE
  5
12198
330
12079
100
AcDbEntity
  8
AM_5
 62
     5
100
AcDbLine
 10
476.3878896049241
 20
965.5607841650226
 30
0.0
 11
476.3878896049239
 21
611.4661981926334
 31
0.0
  0
SOLID
  5
12199
330
12079
100
AcDbEntity
  8
AM_5
 62
     5
100
AcDbTrace
 10
474.387889604924
 20
965.5607841650226
 30
0.0
 11
478.387889604924
 21
965.5607841650226
 31
0.0
 12
476.3878896049241
 22
977.5607841650225
 32
0.0
 13
476.3878896049241
 23
977.5607841650225
 33
0.0
  0
SOLID
  5
1219A
330
12079
100
AcDbEntity
  8
AM_5
 62
     5
100
AcDbTrace
 10
474.3878896049239
 20
611.4661981926334
 30
0.0
 11
478.3878896049239
 21
611.4661981926334
 31
0.0
 12
476.3878896049239
 22
599.4661981926334
 32
0.0
 13
476.3878896049239
 23
599.4661981926334
 33
0.0
  0
MTEXT
  5
1219B
330
12079
100
AcDbEntity
  8
AM_5
 62
     5
100
AcDbMText
 10
467.1878896049238
 20
781.8861259054444
 30
0.0
 40
12.0
 41
0.0
 71
     5
 72
     1
  1
378
 11
0.0000000000000001
 21
1.0
 31
0.0
1001
ACAD
1000
MTEXTBEGIN
1070
    73
1070
     1
1070
    44
1040
1.0
1070
    74
1070
     0
1000
MTEXTEND
  0
POINT
  5
1219C
330
12079
100
AcDbEntity
  8
DEFPOINTS
 62
     0
100
AcDbPoint
 10
447.2078109981453
 20
977.5607841650225
 30
0.0
  0
POINT
  5
1219D
330
12079
100
AcDbEntity
  8
DEFPOINTS
 62
     0
100
AcDbPoint
 10
341.9600153680792
 20
599.4661981926334
 30
0.0
  0
POINT
  5
1219E
330
12079
100
AcDbEntity
  8
DEFPOINTS
 62
     0
100
AcDbPoint
 10
476.3878896049239
 20
599.4661981926334
 30
0.0
  0
ENDBLK
  5
12084
330
12079
100
AcDbEntity
  8
0
100
AcDbBlockEnd
  0
BLOCK
  5
1208F
330
12085
100
AcDbEntity
  8
0
100
AcDbBlockBegin
  2
*D9
 70
     1
 10
0.0
 20
0.0
 30
0.0
  3
*D9
  1

  0
LINE
  5
121A8
330
12085
100
AcDbEntity
  8
AM_5
100
AcDbLine
 10
353.1361076773062
 20
1024.367423305685
 30
0.0
 11
482.3878896049238
 21
1024.367423305685
 31
0.0
  0
LINE
  5
121A9
330
12085
100
AcDbEntity
  8
AM_5
100
AcDbLine
 10
455.2078109981453
 20
977.5607841650225
 30
0.0
 11
482.3878896049238
 21
977.5607841650225
 31
0.0
  0
LINE
  5
121AA
330
12085
100
AcDbEntity
  8
AM_5
 62
     5
100
AcDbLine
 10
476.3878896049237
 20
1012.367423305685
 30
0.0
 11
476.3878896049237
 21
989.5607841650226
 31
0.0
  0
SOLID
  5
121AB
330
12085
100
AcDbEntity
  8
AM_5
 62
     5
100
AcDbTrace
 10
474.3878896049237
 20
1012.367423305685
 30
0.0
 11
478.3878896049237
 21
1012.367423305685
 31
0.0
 12
476.3878896049237
 22
1024.367423305685
 32
0.0
 13
476.3878896049237
 23
1024.367423305685
 33
0.0
  0
SOLID
  5
121AC
330
12085
100
AcDbEntity
  8
AM_5
 62
     5
100
AcDbTrace
 10
474.3878896049237
 20
989.5607841650226
 30
0.0
 11
478.3878896049237
 21
989.5607841650226
 31
0.0
 12
476.3878896049237
 22
977.5607841650225
 32
0.0
 13
476.3878896049237
 23
977.5607841650225
 33
0.0
  0
MTEXT
  5
121AD
330
12085
100
AcDbEntity
  8
AM_5
 62
     5
100
AcDbMText
 10
467.1878896049236
 20
1000.964103735354
 30
0.0
 40
12.0
 41
0.0
 71
     5
 72
     1
  1
47
 11
0.0000000000000001
 21
1.0
 31
0.0
1001
ACAD
1000
MTEXTBEGIN
1070
    73
1070
     1
1070
    44
1040
1.0
1070
    74
1070
     0
1000
MTEXTEND
  0
POINT
  5
121AE
330
12085
100
AcDbEntity
  8
DEFPOINTS
 62
     0
100
AcDbPoint
 10
345.1361076773062
 20
1024.367423305685
 30
0.0
  0
POINT
  5
121AF
330
12085
100
AcDbEntity
  8
DEFPOINTS
 62
     0
100
AcDbPoint
 10
447.2078109981453
 20
977.5607841650225
 30
0.0
  0
POINT
  5
121B0
330
12085
100
AcDbEntity
  8
DEFPOINTS
 62
     0
100
AcDbPoint
 10
476.3878896049237
 20
977.5607841650225
 30
0.0
  0
ENDBLK
  5
12090
330
12085
100
AcDbEntity
  8
0
100
AcDbBlockEnd
  0
BLOCK
  5
1209B
330
12091
100
AcDbEntity
  8
0
100
AcDbBlockBegin
  2
*D10
 70
     1
 10
0.0
 20
0.0
 30
0.0
  3
*D10
  1

  0
LINE
  5
1219F
330
12091
100
AcDbEntity
  8
AM_5
100
AcDbLine
 10
353.1361076773062
 20
1024.367423305685
 30
0.0
 11
524.7814368575554
 21
1024.367423305685
 31
0.0
  0
LINE
  5
121A0
330
12091
100
AcDbEntity
  8
AM_5
100
AcDbLine
 10
349.9600153680792
 20
599.4661981926334
 30
0.0
 11
524.7814368575554
 21
599.4661981926334
 31
0.0
  0
LINE
  5
121A1
330
12091
100
AcDbEntity
  8
AM_5
 62
     5
100
AcDbLine
 10
518.7814368575555
 20
1012.367423305685
 30
0.0
 11
518.7814368575553
 21
611.4661981926334
 31
0.0
  0
SOLID
  5
121A2
330
12091
100
AcDbEntity
  8
AM_5
 62
     5
100
AcDbTrace
 10
516.7814368575554
 20
1012.367423305685
 30
0.0
 11
520.7814368575554
 21
1012.367423305685
 31
0.0
 12
518.7814368575555
 22
1024.367423305685
 32
0.0
 13
518.7814368575555
 23
1024.367423305685
 33
0.0
  0
SOLID
  5
121A3
330
12091
100
AcDbEntity
  8
AM_5
 62
     5
100
AcDbTrace
 10
516.7814368575553
 20
611.4661981926334
 30
0.0
 11
520.7814368575554
 21
611.4661981926334
 31
0.0
 12
518.7814368575553
 22
599.4661981926334
 32
0.0
 13
518.7814368575553
 23
599.4661981926334
 33
0.0
  0
MTEXT
  5
121A4
330
12091
100
AcDbEntity
  8
AM_5
 62
     5
100
AcDbMText
 10
509.580255755193
 20
811.9168107491596
 30
0.0
 40
12.0
 41
0.0
 71
     5
 72
     1
  1
425
 11
0.0000000000000001
 21
1.0
 31
0.0
1001
ACAD
1000
MTEXTBEGIN
1070
    73
1070
     1
1070
    44
1040
1.0
1070
    74
1070
     0
1000
MTEXTEND
  0
POINT
  5
121A5
330
12091
100
AcDbEntity
  8
DEFPOINTS
 62
     0
100
AcDbPoint
 10
345.1361076773062
 20
1024.367423305685
 30
0.0
  0
POINT
  5
121A6
330
12091
100
AcDbEntity
  8
DEFPOINTS
 62
     0
100
AcDbPoint
 10
341.9600153680792
 20
599.4661981926334
 30
0.0
  0
POINT
  5
121A7
330
12091
100
AcDbEntity
  8
DEFPOINTS
 62
     0
100
AcDbPoint
 10
518.7814368575553
 20
599.4661981926334
 30
0.0
  0
ENDBLK
  5
1209C
330
12091
100
AcDbEntity
  8
0
100
AcDbBlockEnd
  0
BLOCK
  5
122F0
330
122EB
100
AcDbEntity
  8
0
100
AcDbBlockBegin
  2
*S11
 70
     1
 10
0.0
 20
0.0
 30
0.0
  3
*S11
  1

  0
LINE
  5
122EC
330
122EB
100
AcDbEntity
  8
AM_5
100
AcDbLine
 10
419.3834544065766
 20
563.1563237443668
 30
0.0
 11
364.8072519603447
 21
563.1563237443668
 31
0.0
  0
LINE
  5
122ED
330
122EB
100
AcDbEntity
  8
AM_5
100
AcDbLine
 10
364.8072519603447
 20
563.1563237443668
 30
0.0
 11
344.4209339564013
 21
588.2837316050713
 31
0.0
  0
TRACE
  5
122EE
330
122EB
100
AcDbEntity
  8
AM_5
100
AcDbTrace
 10
345.8931390228097
 20
589.4781580583368
 30
0.0
 11
342.9487288899928
 21
587.0893051518057
 31
0.0
 12
335.3483642711823
 22
599.4662393429112
 32
0.0
 13
335.3483642711823
 23
599.4662393429112
 33
0.0
  0
MTEXT
  5
122EF
330
122EB
100
AcDbEntity
  8
AM_5
 62
     2
100
AcDbMText
 10
419.3834544065766
 20
558.423483355828
 30
0.0
 40
28.0
 41
0.0
 71
     7
 72
     1
  1

  7
ACISOTS
  0
ENDBLK
  5
122F1
330
122EB
100
AcDbEntity
  8
0
100
AcDbBlockEnd
  0
BLOCK
  5
122F9
330
122F4
100
AcDbEntity
  8
0
100
AcDbBlockBegin
  2
*S12
 70
     1
 10
0.0
 20
0.0
 30
0.0
  3
*S12
  1

  0
LINE
  5
122F5
330
122F4
100
AcDbEntity
  8
AM_5
100
AcDbLine
 10
589.087155447286
 20
1005.288980214929
 30
0.0
 11
648.882600150596
 21
1005.288980214929
 31
0.0
  0
LINE
  5
122F6
330
122F4
100
AcDbEntity
  8
AM_5
100
AcDbLine
 10
648.882600150596
 20
1005.288980214929
 30
0.0
 11
667.8557959489467
 21
987.4304480686703
 31
0.0
  0
TRACE
  5
122F7
330
122F4
100
AcDbEntity
  8
AM_5
100
AcDbTrace
 10
666.5564300514806
 20
986.0499805484723
 30
0.0
 11
669.1551618464127
 21
988.8109155888683
 31
0.0
 12
678.3414878397583
 22
977.5607841650225
 32
0.0
 13
678.3414878397583
 23
977.5607841650225
 33
0.0
  0
MTEXT
  5
122F8
330
122F4
100
AcDbEntity
  8
AM_5
 62
     2
100
AcDbMText
 10
589.087155447286
 20
1000.55613982639
 30
0.0
 40
28.0
 41
0.0
 71
     7
 72
     1
  1

  7
ACISOTS
210
0.0
220
0.0
230
-1.0
 11
-1.0
 21
0.0
 31
0.0
  0
ENDBLK
  5
122FA
330
122F4
100
AcDbEntity
  8
0
100
AcDbBlockEnd
  0
BLOCK
  5
12301
330
122FC
100
AcDbEntity
  8
0
100
AcDbBlockBegin
  2
*S13
 70
     1
 10
0.0
 20
0.0
 30
0.0
  3
*S13
  1

  0
LINE
  5
122FD
330
122FC
100
AcDbEntity
  8
AM_5
100
AcDbLine
 10
146.3920499857367
 20
1005.288980214929
 30
0.0
 11
206.1874946890467
 21
1005.288980214929
 31
0.0
  0
LINE
  5
122FE
330
122FC
100
AcDbEntity
  8
AM_5
100
AcDbLine
 10
206.1874946890467
 20
1005.288980214929
 30
0.0
 11
225.1606904873974
 21
987.4304480686703
 31
0.0
  0
TRACE
  5
122FF
330
122FC
100
AcDbEntity
  8
AM_5
100
AcDbTrace
 10
223.8613245899314
 20
986.0499805484723
 30
0.0
 11
226.4600563848634
 21
988.8109155888683
 31
0.0
 12
235.646382378209
 22
977.5607841650225
 32
0.0
 13
235.646382378209
 23
977.5607841650225
 33
0.0
  0
MTEXT
  5
12300
330
122FC
100
AcDbEntity
  8
AM_5
 62
     2
100
AcDbMText
 10
146.3920499857367
 20
1000.55613982639
 30
0.0
 40
28.0
 41
0.0
 71
     7
 72
     1
  1

  7
ACISOTS
210
0.0
220
0.0
230
-1.0
 11
-1.0
 21
0.0
 31
0.0
  0
ENDBLK
  5
12302
330
122FC
100
AcDbEntity
  8
0
100
AcDbBlockEnd
  0
ENDSEC
  0
SECTION
  2
ENTITIES
  0
MTEXT
  5
20A1
330
1F
100
AcDbEntity
  8
AM_REFDIM
100
AcDbMText
 10
561.1885018225272
 20
211.9777653808241
 30
0.0
 40
5.0
 41
0.0
 71
     9
 72
     1
  1

  7
DAYUS
1001
ACAD
1000
MTEXTBEGIN
1070
    73
1070
     1
1070
    44
1040
1.0
1070
    74
1070
     0
1000
MTEXTEND
  0
MTEXT
  5
21E1
330
1F
100
AcDbEntity
  8
AM_REFDIM
100
AcDbMText
 10
755.6608394056113
 20
277.1617022919267
 30
0.0
 40
5.0
 41
0.0
 71
     9
 72
     1
  1

  7
DAYUS
1001
ACAD
1000
MTEXTBEGIN
1070
    73
1070
     1
1070
    44
1040
1.0
1070
    74
1070
     0
1000
MTEXTEND
  0
MTEXT
  5
21E8
330
1F
100
AcDbEntity
  8
AM_REFDIM
100
AcDbMText
 10
749.57448324194
 20
209.4269307825009
 30
0.0
 40
5.0
 41
0.0
 71
     9
 72
     1
  1

  7
DAYUS
1001
ACAD
1000
MTEXTBEGIN
1070
    73
1070
     1
1070
    44
1040
1.0
1070
    74
1070
     0
1000
MTEXTEND
  0
MTEXT
  5
950E
330
1F
100
AcDbEntity
  8
AM_REFDIM
100
AcDbMText
 10
883.1481342807478
 20
-16.56429920726827
 30
0.0
 40
5.0
 41
0.0
 71
     9
 72
     1
  1

  7
DAYUS
1001
ACAD
1000
MTEXTBEGIN
1070
    73
1070
     1
1070
    44
1040
1.0
1070
    74
1070
     0
1000
MTEXTEND
  0
MTEXT
  5
9515
330
1F
100
AcDbEntity
  8
AM_REFDIM
100
AcDbMText
 10
877.0617781170765
 20
-84.29907071669413
 30
0.0
 40
5.0
 41
0.0
 71
     9
 72
     1
  1

  7
DAYUS
1001
ACAD
1000
MTEXTBEGIN
1070
    73
1070
     1
1070
    44
1040
1.0
1070
    74
1070
     0
1000
MTEXTEND
  0
MTEXT
  5
9538
330
1F
100
AcDbEntity
  8
AM_REFDIM
100
AcDbMText
 10
688.6757966976639
 20
-81.74823611837087
 30
0.0
 40
5.0
 41
0.0
 71
     9
 72
     1
  1

  7
DAYUS
1001
ACAD
1000
MTEXTBEGIN
1070
    73
1070
     1
1070
    44
1040
1.0
1070
    74
1070
     0
1000
MTEXTEND
  0
MTEXT
  5
D169
330
1F
100
AcDbEntity
  8
圖層2
100
AcDbMText
 10
715.61673495723
 20
206.7204113137814
 30
0.0
 40
2.4
 41
0.0
 71
     1
 72
     1
  1

  7
DAYUS
1001
ACAD
1000
MTEXTBEGIN
1070
    73
1070
     1
1070
    44
1040
1.0
1070
    74
1070
     0
1000
MTEXTEND
  0
MTEXT
  5
D16D
330
1F
100
AcDbEntity
  8
圖層2
100
AcDbMText
 10
487.3356342227076
 20
201.008806919202
 30
0.0
 40
2.4
 41
0.0
 71
     9
 72
     1
  1

  7
DAYUS
1001
ACAD
1000
MTEXTBEGIN
1070
    73
1070
     1
1070
    44
1040
1.0
1070
    74
1070
     0
1000
MTEXTEND
  0
MTEXT
  5
D622
330
1F
100
AcDbEntity
  8
AM_5
 62
     2
100
AcDbMText
 10
364.1980009625231
 20
217.5933376591914
 30
0.0
 40
3.5
 41
0.0
 71
     7
 72
     1
  1

  7
ACISOTS
1001
ACAD
1000
MTEXTBEGIN
1070
    73
1070
     1
1070
    44
1040
1.0
1070
    74
1070
     0
1000
MTEXTEND
  0
MTEXT
  5
D62D
330
1F
100
AcDbEntity
  8
AM_5
 62
     2
100
AcDbMText
 10
375.2854589832454
 20
224.3263974052412
 30
0.0
 40
3.5
 41
0.0
 71
     9
 72
     1
  1

  7
ACISOTS
1001
ACAD
1000
MTEXTBEGIN
1070
    73
1070
     1
1070
    44
1040
1.0
1070
    74
1070
     0
1000
MTEXTEND
  0
MTEXT
  5
DBAB
330
1F
100
AcDbEntity
  8
圖層2
100
AcDbMText
 10
403.5453401996071
 20
241.6457643110565
 30
0.0
 40
6.0
 41
29.7
 71
     1
 72
     1
  1

  7
ROMAND
1001
ACAD
1000
MTEXTBEGIN
1070
    73
1070
     1
1070
    44
1040
1.0
1070
    74
1070
     0
1000
MTEXTEND
  0
MTEXT
  5
DBAC
330
1F
100
AcDbEntity
  8
圖層2
100
AcDbMText
 10
405.9710179574619
 20
231.7492930806483
 30
0.0
 40
4.3125
 41
25.28999999999999
 71
     1
 72
     1
  1
{\FARIAL.TTF;}
  7
ROMAND
1001
ACAD
1000
MTEXTBEGIN
1070
    73
1070
     1
1070
    44
1040
1.0
1070
    74
1070
     0
1000
MTEXTEND
  0
DIMENSION
  5
10B8F
330
1F
100
AcDbEntity
  8
AM_5
100
AcDbDimension
  2
*D2
 10
881.7935498376559
 20
1089.919294643164
 30
0.0
 11
778.0434697327302
 21
1099.120475745526
 31
0.0
 70
    32
  3
AM_ISO
100
AcDbAlignedDimension
 13
674.2933896278043
 23
1191.643823290134
 33
0.0
 14
881.7935498376559
 24
1191.643823290134
 34
0.0
100
AcDbRotatedDimension
1001
ACAD
1000
DSTYLE
1002
{
1070
    40
1040
4.0
1070
   271
1070
     0
1070
   272
1070
     8
1002
}
  0
LINE
  5
10B90
330
1F
100
AcDbEntity
  8
DRG
100
AcDbLine
 10
1160.256650891557
 20
1017.068621278104
 30
0.0
 11
1160.256650891557
 21
1024.171668437563
 31
0.0
  0
ARC
  5
10B91
330
1F
100
AcDbEntity
  8
DRG
100
AcDbCircle
 10
1140.681164079307
 20
835.8342596443321
 30
0.0
 40
185.9671247163749
100
AcDbArc
 50
74.09202390200164
 51
83.95767158094248
  0
LINE
  5
10B92
330
1F
100
AcDbEntity
  8
DRG
100
AcDbLine
 10
1121.105677267057
 20
1017.068621278104
 30
0.0
 11
1121.105677267057
 21
1024.171668437563
 31
0.0
  0
ARC
  5
10B93
330
1F
100
AcDbEntity
  8
DRG
100
AcDbCircle
 10
1140.681164079307
 20
835.8342596443321
 30
0.0
 40
185.9671247163749
100
AcDbArc
 50
96.04232841905751
 51
105.9079760979983
  0
LINE
  5
10B94
330
1F
100
AcDbEntity
  8
DRG
100
AcDbLine
 10
845.3831443668724
 20
1021.801384360707
 30
0.0
 11
845.4652123919581
 21
1019.451263607864
 31
0.0
  0
LINE
  5
10B95
330
1F
100
AcDbEntity
  8
DRG
100
AcDbLine
 10
710.703795098589
 20
1021.801384360707
 30
0.0
 11
710.6217270735019
 21
1019.451263607864
 31
0.0
  0
ARC
  5
10B96
330
1F
100
AcDbEntity
  8
DRG
100
AcDbCircle
 10
778.0434697327304
 20
835.8342596443321
 30
0.0
 40
185.9671247163749
100
AcDbArc
 50
90.0
 51
105.9079760979983
  0
ARC
  5
10B97
330
1F
100
AcDbEntity
  8
DRG
100
AcDbCircle
 10
778.0434697327304
 20
835.8342596443321
 30
0.0
 40
185.9671247163749
100
AcDbArc
 50
74.09202390200164
 51
90.0
  0
LINE
  5
10B98
330
1F
100
AcDbEntity
  8
AM_7
  6
CENTER
 48
2.0
100
AcDbLine
 10
778.0434697327304
 20
594.9436754549329
 30
0.0
 11
778.0434697327304
 21
1029.406763458718
 31
0.0
  0
LINE
  5
10B99
330
1F
100
AcDbEntity
  8
AM_7
  6
CENTER
 48
2.0
100
AcDbLine
 10
1140.681164079307
 20
582.3038348768773
 30
0.0
 11
1140.681164079307
 21
1032.013489296437
 31
0.0
  0
ARC
  5
10B9A
330
1F
100
AcDbEntity
  8
DRG
100
AcDbCircle
 10
823.3819941624069
 20
994.9123336671858
 30
0.0
 40
20.5542611528625
100
AcDbArc
 50
2.000000000003498
 51
74.09202390200164
  0
ARC
  5
10B9B
330
1F
100
AcDbEntity
  8
DRG
100
AcDbCircle
 10
822.6348166489888
 20
1138.819988410868
 30
0.0
 40
121.5366354195563
100
AcDbArc
 50
268.034718246595
 51
280.8272859257212
  0
LINE
  5
10B9C
330
1F
100
AcDbEntity
  8
DRG
100
AcDbLine
 10
861.528638199924
 20
942.0312756007877
 30
0.0
 11
778.0434697327304
 21
942.0312756007877
 31
0.0
  0
LINE
  5
10B9D
330
1F
100
AcDbEntity
  8
DRG
100
AcDbLine
 10
866.2585596731648
 20
894.3649652129604
 30
0.0
 11
778.0434697327304
 21
894.3649652129604
 31
0.0
  0
LINE
  5
10B9F
330
1F
100
AcDbEntity
  8
DRG
100
AcDbLine
 10
865.4755402006742
 20
889.6668483780198
 30
0.0
 11
778.0434697327304
 21
889.6668483780198
 31
0.0
  0
LINE
  5
10BA0
330
1F
100
AcDbEntity
  8
DRG
100
AcDbLine
 10
880.8147754970434
 20
889.6668483780171
 30
0.0
 11
778.0434697327304
 21
889.6668483780171
 31
0.0
  0
LINE
  5
10BA1
330
1F
100
AcDbEntity
  8
DRG
100
AcDbLine
 10
822.2212586403864
 20
735.4500431642816
 30
0.0
 11
836.435937178453
 21
740.9065470246341
 31
0.0
  0
LINE
  5
10BA2
330
1F
100
AcDbEntity
  8
DRG
100
AcDbLine
 10
685.4839371573935
 20
898.7094078478614
 30
0.0
 11
870.6030023080657
 21
898.709407847863
 31
0.0
  0
LINE
  5
10BA3
330
1F
100
AcDbEntity
  8
AM_7
  6
CENTER
 48
2.0
100
AcDbLine
 10
673.0949054574876
 20
977.5607841650225
 30
0.0
 11
889.9029164596946
 21
977.5607841650225
 31
0.0
  0
LINE
  5
10BA7
330
1F
100
AcDbEntity
  8
DRG
100
AcDbLine
 10
695.847303921123
 20
889.6668483780171
 30
0.0
 11
700.8349040175862
 21
767.1253506233429
 31
0.0
  0
LINE
  5
10BAB
330
1F
100
AcDbEntity
  8
DRG
100
AcDbLine
 10
780.8426145291562
 20
688.7436054918325
 30
0.0
 11
780.8426145291562
 21
633.118260238649
 31
0.0
  0
LINE
  5
10BAC
330
1F
100
AcDbEntity
  8
DRG
100
AcDbLine
 10
783.093457077075
 20
633.118260238649
 30
0.0
 11
783.093457077075
 21
688.7436054918325
 31
0.0
  0
LINE
  5
10BAD
330
1F
100
AcDbEntity
  8
DRG
100
AcDbLine
 10
781.8866404924762
 20
688.7436054918325
 30
0.0
 11
781.8866404924762
 21
633.118260238649
 31
0.0
  0
LINE
  5
10BAE
330
1F
100
AcDbEntity
  8
DRG
100
AcDbLine
 10
775.244324936304
 20
688.7436054918325
 30
0.0
 11
775.244324936304
 21
633.118260238649
 31
0.0
  0
LINE
  5
10BAF
330
1F
100
AcDbEntity
  8
DRG
100
AcDbLine
 10
772.9934823883851
 20
633.118260238649
 30
0.0
 11
772.9934823883852
 21
688.7436054918325
 31
0.0
  0
LINE
  5
10BB0
330
1F
100
AcDbEntity
  8
DRG
100
AcDbLine
 10
774.2002989729851
 20
688.7436054918325
 30
0.0
 11
774.2002989729851
 21
633.118260238649
 31
0.0
  0
LINE
  5
10BB1
330
1F
100
AcDbEntity
  8
DRG
100
AcDbLine
 10
746.5210845172062
 20
693.0394144720776
 30
0.0
 11
748.5531837686828
 21
627.8697629741475
 31
0.0
  0
LINE
  5
10BB2
330
1F
100
AcDbEntity
  8
DRG
100
AcDbLine
 10
809.5337108803196
 20
692.0085505989365
 30
0.0
 11
807.5337556967761
 21
627.8697629741475
 31
0.0
  0
ARC
  5
10C53
330
1F
100
AcDbEntity
  8
DRG
100
AcDbCircle
 10
763.6014127968024
 20
628.3389920438338
 30
0.0
 40
15.05554292619721
100
AcDbArc
 50
181.7859999999974
 51
249.9999999999965
  0
ARC
  5
10C54
330
1F
100
AcDbEntity
  8
DRG
100
AcDbCircle
 10
763.6014127968024
 20
628.3389920438338
 30
0.0
 40
15.05554292619721
100
AcDbArc
 50
181.7859999999974
 51
249.9999999999965
  0
LINE
  5
10C57
330
1F
100
AcDbEntity
  8
DRG
100
AcDbLine
 10
766.232152949371
 20
611.3597067995931
 30
0.0
 11
758.4521138473392
 21
614.1914094541589
 31
0.0
  0
LINE
  5
10C58
330
1F
100
AcDbEntity
  8
DRG
100
AcDbLine
 10
766.232152949371
 20
611.3597067995931
 30
0.0
 11
758.4521138473392
 21
614.1914094541615
 31
0.0
  0
ARC
  5
10C8B
330
1F
100
AcDbEntity
  8
DRG
100
AcDbCircle
 10
792.4855266686563
 20
628.3389920438338
 30
0.0
 40
15.05554292619721
100
AcDbArc
 50
290.0000000000034
 51
358.2140000000025
  0
ARC
  5
10C8D
330
1F
100
AcDbEntity
  8
DRG
100
AcDbCircle
 10
792.4855266686563
 20
628.3389920438338
 30
0.0
 40
15.05554292619721
100
AcDbArc
 50
290.0000000000034
 51
358.2140000000025
  0
LINE
  5
10C8E
330
1F
100
AcDbEntity
  8
DRG
100
AcDbLine
 10
789.8547865160892
 20
611.3597067995931
 30
0.0
 11
797.6348256181197
 21
614.1914094541589
 31
0.0
  0
LINE
  5
10C8F
330
1F
100
AcDbEntity
  8
DRG
100
AcDbLine
 10
789.8547865160892
 20
611.3597067995931
 30
0.0
 11
797.6348256181197
 21
614.1914094541615
 31
0.0
  0
ARC
  5
10CCC
330
1F
100
AcDbEntity
  8
DRG
100
AcDbCircle
 10
730.1738428923933
 20
768.3194840152411
 30
0.0
 40
29.363230218375
100
AcDbArc
 50
182.3307271110043
 51
249.0000000000027
  0
LINE
  5
10CCD
330
1F
100
AcDbEntity
  8
DRG
100
AcDbLine
 10
817.1998379557576
 20
728.3448972360075
 30
0.0
 11
816.6698168600078
 21
708.1042081944008
 31
0.0
  0
LINE
  5
10CCE
330
1F
100
AcDbEntity
  8
DRG
100
AcDbLine
 10
799.8902103066478
 20
708.1042081944008
 30
0.0
 11
799.8902103066478
 21
726.8743694951565
 31
0.0
  0
LINE
  5
10CCF
330
1F
100
AcDbEntity
  8
DRG
100
AcDbLine
 10
738.8871015097038
 20
728.3448972360075
 30
0.0
 11
739.4171226054536
 21
708.1042081944008
 31
0.0
  0
LINE
  5
10CD0
330
1F
100
AcDbEntity
  8
DRG
100
AcDbLine
 10
756.1967291588125
 20
708.1042081944008
 30
0.0
 11
756.1967291588125
 21
727.44933873201
 31
0.0
  0
LINE
  5
10CD1
330
1F
100
AcDbEntity
  8
DRG
100
AcDbLine
 10
769.1678876777205
 20
702.3785576343107
 30
0.0
 11
786.9190517877385
 21
702.3785576343107
 31
0.0
  0
CIRCLE
  5
10CD2
330
1F
100
AcDbEntity
  8
DRG
100
AcDbCircle
 10
770.814372464735
 20
697.4887231796486
 30
0.0
 40
2.65230703799262
  0
LINE
  5
10CD3
330
1F
100
AcDbEntity
  8
DRG
100
AcDbLine
 10
771.6118885334483
 20
688.7436054918325
 30
0.0
 11
784.4750509320133
 21
688.7436054918325
 31
0.0
  0
LINE
  5
10CD4
330
1F
100
AcDbEntity
  8
CEN
100
AcDbLine
 10
766.0771422482493
 20
697.4887231796486
 30
0.0
 11
790.1872874542373
 21
697.4887231796486
 31
0.0
  0
LINE
  5
10CD5
330
1F
100
AcDbEntity
  8
DRG
100
AcDbLine
 10
739.4171226054536
 20
708.1042081944008
 30
0.0
 11
816.6698168600078
 21
708.1042081944008
 31
0.0
  0
LINE
  5
10CD6
330
1F
100
AcDbEntity
  8
DRG
100
AcDbLine
 10
743.3941619297695
 20
706.8931006400226
 30
0.0
 11
746.5210845172062
 21
693.0394144720776
 31
0.0
  0
ARC
  5
10CD7
330
1F
100
AcDbEntity
  8
DRG
100
AcDbCircle
 10
749.440137395442
 20
709.0936557466307
 30
0.0
 40
6.433992703503079
100
AcDbArc
 50
188.8463008507772
 51
199.9999999999892
  0
LINE
  5
10CD8
330
1F
100
AcDbEntity
  8
DRG
100
AcDbLine
 10
746.4374183238428
 20
693.0394144720776
 30
0.0
 11
768.8625707860897
 21
693.0394144720776
 31
0.0
  0
LINE
  5
10CD9
330
1F
100
AcDbEntity
  8
DRG
100
AcDbLine
 10
768.606472010013
 20
698.9583857959728
 30
0.0
 11
772.2840350810599
 21
695.2808227249254
 31
0.0
  0
LINE
  5
10CDA
330
1F
100
AcDbEntity
  8
DRG
100
AcDbLine
 10
771.6118885334483
 20
688.7436054918325
 30
0.0
 11
768.0028987129538
 21
694.3826520863531
 31
0.0
  0
LINE
  5
10CDB
330
1F
100
AcDbEntity
  8
DRG
100
AcDbLine
 10
769.3447098484112
 20
699.6966236343719
 30
0.0
 11
773.0222729194574
 21
696.0190605633244
 31
0.0
  0
ARC
  5
10CDC
330
1F
100
AcDbEntity
  8
DRG
100
AcDbCircle
 10
769.1678876777205
 20
700.7063465224985
 30
0.0
 40
1.672211111813496
100
AcDbArc
 50
90.0
 51
180.0
  0
ARC
  5
10CDD
330
1F
100
AcDbEntity
  8
DRG
100
AcDbCircle
 10
770.7114671655467
 20
696.116135896012
 30
0.0
 40
3.215790599641339
100
AcDbArc
 50
180.0
 51
212.6192430711909
  0
LINE
  5
10CDE
330
1F
100
AcDbEntity
  8
DRG
100
AcDbLine
 10
767.4956765659053
 20
700.7063465224985
 30
0.0
 11
767.4956765659053
 21
696.116135896012
 31
0.0
  0
LINE
  5
10CDF
330
1F
100
AcDbEntity
  8
0
  6
CENTER
 62
     1
 48
10.0
100
AcDbLine
 10
770.814372464735
 20
701.0606978144011
 30
0.0
 11
770.814372464735
 21
694.2149110114423
 31
0.0
  0
LINE
  5
10CE0
330
1F
100
AcDbEntity
  8
DRG
100
AcDbLine
 10
787.2243686793697
 20
693.0394144720776
 30
0.0
 11
809.6495211416161
 21
693.0394144720776
 31
0.0
  0
LINE
  5
10CE1
330
1F
100
AcDbEntity
  8
DRG
100
AcDbLine
 10
784.4750509320133
 20
688.7436054918325
 30
0.0
 11
788.0840407525051
 21
694.3826520863531
 31
0.0
  0
CIRCLE
  5
10CE2
330
1F
100
AcDbEntity
  8
DRG
100
AcDbCircle
 10
785.2725670007226
 20
697.4887231796486
 30
0.0
 40
2.65230703799262
  0
ARC
  5
10CE3
330
1F
100
AcDbEntity
  8
DRG
100
AcDbCircle
 10
786.9190517877385
 20
700.7063465224985
 30
0.0
 40
1.672211111813496
100
AcDbArc
 50
0.0
 51
90.0
  0
LINE
  5
10CE4
330
1F
100
AcDbEntity
  8
DRG
100
AcDbLine
 10
783.0646665460008
 20
698.9583857959728
 30
0.0
 11
786.7422296170477
 21
695.2808227249254
 31
0.0
  0
LINE
  5
10CE5
330
1F
100
AcDbEntity
  8
DRG
100
AcDbLine
 10
783.8029043843989
 20
699.6966236343719
 30
0.0
 11
787.4804674554459
 21
696.0190605633244
 31
0.0
  0
LINE
  5
10CE6
330
1F
100
AcDbEntity
  8
DRG
100
AcDbLine
 10
774.4417842611303
 20
688.7436054918325
 30
0.0
 11
774.4417842611303
 21
702.3785576343107
 31
0.0
  0
LINE
  5
10CE7
330
1F
100
AcDbEntity
  8
DRG
100
AcDbLine
 10
781.6451552043251
 20
688.7436054918325
 30
0.0
 11
781.6451552043251
 21
702.3785576343107
 31
0.0
  0
LINE
  5
10CE8
330
1F
100
AcDbEntity
  8
0
  6
CENTER
 62
     1
 48
10.0
100
AcDbLine
 10
785.2725670007226
 20
701.0606978144011
 30
0.0
 11
785.2725670007226
 21
694.2149110114423
 31
0.0
  0
ARC
  5
10CE9
330
1F
100
AcDbEntity
  8
DRG
100
AcDbCircle
 10
785.3754722999085
 20
696.116135896012
 30
0.0
 40
3.215790599641339
100
AcDbArc
 50
327.3807569288083
 51
0.0
  0
LINE
  5
10CEA
330
1F
100
AcDbEntity
  8
DRG
100
AcDbLine
 10
788.5912628995511
 20
700.7063465224985
 30
0.0
 11
788.5912628995511
 21
696.116135896012
 31
0.0
  0
LINE
  5
10CEB
330
1F
100
AcDbEntity
  8
DRG
100
AcDbLine
 10
812.6983370586758
 20
707.1832016305402
 30
0.0
 11
809.9186025206822
 21
694.0085804620904
 31
0.0
  0
ARC
  5
10CEC
330
1F
100
AcDbEntity
  8
DRG
100
AcDbCircle
 10
815.9645779863526
 20
691.8080253554823
 30
0.0
 40
6.433992703503079
100
AcDbArc
 50
160.0000000000107
 51
178.2140000000025
  0
ARC
  5
10CED
330
1F
100
AcDbEntity
  8
DRG
100
AcDbCircle
 10
806.652361593003
 20
709.3837567371483
 30
0.0
 40
6.433992703503079
100
AcDbArc
 50
340.0000000000107
 51
348.5289270160262
  0
ARC
  5
10CEE
330
1F
100
AcDbEntity
  8
DRG
100
AcDbCircle
 10
758.3717917886015
 20
801.8261784154905
 30
0.0
 40
69.22980748221338
100
AcDbArc
 50
253.4919289964896
 51
286.5080710035103
  0
ARC
  5
10CEF
330
1F
100
AcDbEntity
  8
DRG
100
AcDbCircle
 10
731.0595899969732
 20
728.1399266334524
 30
0.0
 40
7.830194724899999
100
AcDbArc
 50
1.4999999999898
 51
69.00000000000274
  0
LINE
  5
10CF0
330
1F
100
AcDbEntity
  8
DRG
100
AcDbLine
 10
719.6510022870079
 20
740.9065470246341
 30
0.0
 11
733.8656808250748
 21
735.45004316428
 31
0.0
  0
ARC
  5
10CF1
330
1F
100
AcDbEntity
  8
DRG
100
AcDbCircle
 10
797.7151476768588
 20
801.8261784154905
 30
0.0
 40
69.22980748221338
100
AcDbArc
 50
253.4919289964896
 51
286.5080710035103
  0
ARC
  5
10CF2
330
1F
100
AcDbEntity
  8
DRG
100
AcDbCircle
 10
825.0273494684885
 20
728.1399266334524
 30
0.0
 40
7.830194724899999
100
AcDbArc
 50
110.9999999999972
 51
178.5000000000102
  0
LINE
  5
10CF3
330
1F
100
AcDbEntity
  8
DRG
100
AcDbLine
 10
679.7155932132259
 20
1016.910013677058
 30
0.0
 11
675.2721639684182
 21
889.6668483780198
 31
0.0
  0
LINE
  5
10CF4
330
1F
100
AcDbEntity
  8
DRG
100
AcDbLine
 10
686.7328764836968
 20
934.4743507308681
 30
0.0
 11
685.4839371573935
 21
898.7094078478614
 31
0.0
  0
LINE
  5
10CF5
330
1F
100
AcDbEntity
  8
DRG
100
AcDbLine
 10
690.6113992647872
 20
889.6668483780198
 30
0.0
 11
778.0434697327304
 21
889.6668483780198
 31
0.0
  0
LINE
  5
10CF7
330
1F
100
AcDbEntity
  8
DRG
100
AcDbLine
 10
689.8283797922967
 20
894.3649652129604
 30
0.0
 11
778.0434697327304
 21
894.3649652129604
 31
0.0
  0
LINE
  5
10CF8
330
1F
100
AcDbEntity
  8
DRG
100
AcDbLine
 10
675.2721639684168
 20
889.6668483780171
 30
0.0
 11
778.0434697327304
 21
889.6668483780171
 31
0.0
  0
LINE
  5
10CF9
330
1F
100
AcDbEntity
  8
DRG
100
AcDbLine
 10
685.4839371573935
 20
898.7094078478614
 30
0.0
 11
689.8283797922967
 21
894.3649652129604
 31
0.0
  0
LINE
  5
10CFA
330
1F
100
AcDbEntity
  8
DRG
100
AcDbLine
 10
689.8283797922967
 20
894.3649652129604
 30
0.0
 11
689.8283797922967
 21
890.4498678505072
 31
0.0
  0
LINE
  5
10CFB
330
1F
100
AcDbEntity
  8
DRG
100
AcDbLine
 10
689.8283797922967
 20
890.4498678505072
 30
0.0
 11
690.6113992647872
 21
889.6668483780171
 31
0.0
  0
ARC
  5
10CFC
330
1F
100
AcDbEntity
  8
DRG
100
AcDbCircle
 10
732.7049453030531
 20
994.9123336671858
 30
0.0
 40
20.5542611528625
100
AcDbArc
 50
105.9079760979983
 51
177.9999999999965
  0
ARC
  5
10CFD
330
1F
100
AcDbEntity
  8
DRG
100
AcDbCircle
 10
733.4521228164701
 20
1138.819988410868
 30
0.0
 40
121.5366354195563
100
AcDbArc
 50
259.1727140742786
 51
271.9652817534049
  0
LINE
  5
10CFE
330
1F
100
AcDbEntity
  8
DRG
100
AcDbLine
 10
694.5583012655363
 20
942.0312756007877
 30
0.0
 11
778.0434697327304
 21
942.0312756007877
 31
0.0
  0
LINE
  5
10CFF
330
1F
100
AcDbEntity
  8
DRG
100
AcDbLine
 10
710.6873486254449
 20
953.3666629056645
 30
0.0
 11
712.1632052507282
 21
995.6296670365123
 31
0.0
  0
ARC
  5
10D00
330
1F
100
AcDbEntity
  8
DRG
100
AcDbCircle
 10
694.5583012655363
 20
934.201080875888
 30
0.0
 40
7.830194724899999
100
AcDbArc
 50
90.0
 51
177.9999999999965
  0
ARC
  5
10D01
330
1F
100
AcDbEntity
  8
DRG
100
AcDbCircle
 10
698.9492114526865
 20
953.7765676881388
 30
0.0
 40
11.74529208735
100
AcDbArc
 50
270.0
 51
357.9999999999965
  0
LINE
  5
10D02
330
1F
100
AcDbEntity
  8
DRG
100
AcDbLine
 10
681.2260241985978
 20
1018.420444662428
 30
0.0
 11
710.6215767874505
 21
1019.446959978468
 31
0.0
  0
ARC
  5
10D03
330
1F
100
AcDbEntity
  8
DRG
100
AcDbCircle
 10
681.2806781695933
 20
1016.85535970606
 30
0.0
 40
1.56603894498
100
AcDbArc
 50
92.00000000000365
 51
177.9999999999965
  0
LINE
  5
10D04
330
1F
100
AcDbEntity
  8
DRG
100
AcDbLine
 10
1222.877329890915
 20
889.6668483780198
 30
0.0
 11
1217.88972979445
 21
767.1253506233429
 31
0.0
  0
LINE
  5
10D05
330
1F
100
AcDbEntity
  8
DRG
100
AcDbLine
 10
860.2396355443381
 20
889.6668483780198
 30
0.0
 11
855.2520354478751
 21
767.1253506233429
 31
0.0
  0
LINE
  5
10D06
330
1F
100
AcDbEntity
  8
DRG
100
AcDbLine
 10
1058.484998267698
 20
889.6668483780171
 30
0.0
 11
1063.472598364162
 21
767.1253506233429
 31
0.0
  0
ARC
  5
10D07
330
1F
100
AcDbEntity
  8
DRG
100
AcDbCircle
 10
1092.811537238969
 20
768.3194840152411
 30
0.0
 40
29.363230218375
100
AcDbArc
 50
182.3307271110043
 51
249.0000000000027
  0
ARC
  5
10D08
330
1F
100
AcDbEntity
  8
DRG
100
AcDbCircle
 10
825.913096573068
 20
768.3194840152411
 30
0.0
 40
29.363230218375
100
AcDbArc
 50
290.9999999999972
 51
357.6692728889956
  0
LINE
  5
10D09
330
1F
100
AcDbEntity
  8
DRG
100
AcDbLine
 10
1172.171405226897
 20
692.0085505989365
 30
0.0
 11
1170.171450043352
 21
627.8697629741475
 31
0.0
  0
LINE
  5
10D0A
330
1F
100
AcDbEntity
  8
DRG
100
AcDbLine
 10
1112.537777104732
 20
683.7981494417731
 30
0.0
 11
1112.537777104732
 21
634.4929040145646
 31
0.0
  0
LINE
  5
10D0B
330
1F
100
AcDbEntity
  8
DRG
100
AcDbLine
 10
1100.135931460942
 20
684.7792708763621
 30
0.0
 11
1100.135931460942
 21
633.511782579973
 31
0.0
  0
LINE
  5
10D0C
330
1F
100
AcDbEntity
  8
CEN
100
AcDbLine
 10
1119.854771725753
 20
624.3731425508327
 30
0.0
 11
1095.415446340195
 21
624.3731425508327
 31
0.0
  0
ARC
  5
10D0D
330
1F
100
AcDbEntity
  8
DRG
100
AcDbCircle
 10
1126.23910714338
 20
628.3389920438338
 30
0.0
 40
15.05554292619721
100
AcDbArc
 50
217.6087751676465
 51
249.9999999999965
  0
LINE
  5
10D0E
330
1F
100
AcDbEntity
  8
DRG
100
AcDbLine
 10
1112.010137804861
 20
633.9984499582414
 30
0.0
 11
1114.30662056801
 21
621.4340335717544
 31
0.0
  0
LINE
  5
10D0F
330
1F
100
AcDbEntity
  8
DRG
100
AcDbLine
 10
1103.102655798871
 20
633.9984499582414
 30
0.0
 11
1103.102655798871
 21
619.6816690243174
 31
0.0
  0
LINE
  5
10D10
330
1F
100
AcDbEntity
  8
DRG
100
AcDbLine
 10
1100.135931460942
 20
633.511782579973
 30
0.0
 11
1100.135931460943
 21
619.6816690243174
 31
0.0
  0
LINE
  5
10D11
330
1F
100
AcDbEntity
  8
DRG
100
AcDbLine
 10
1103.102655798871
 20
625.9297304130187
 30
0.0
 11
1113.484911864101
 21
625.9297304130187
 31
0.0
  0
LINE
  5
10D12
330
1F
100
AcDbEntity
  8
DRG
100
AcDbLine
 10
1100.135931460942
 20
619.6816690243174
 30
0.0
 11
1113.174351071212
 21
619.6816690243174
 31
0.0
  0
ARC
  5
10D13
330
1F
100
AcDbEntity
  8
DRG
100
AcDbCircle
 10
1113.174351071212
 20
618.1963601858391
 30
0.0
 40
1.485308838477614
100
AcDbArc
 50
35.64689372132669
 51
90.0
  0
ARC
  5
10D14
330
1F
100
AcDbEntity
  8
DRG
100
AcDbCircle
 10
1112.845517014537
 20
621.166977862795
 30
0.0
 40
1.485308838477614
100
AcDbArc
 50
270.0
 51
10.35800000000027
  0
LINE
  5
10D15
330
1F
100
AcDbEntity
  8
DRG
100
AcDbLine
 10
1103.102655798871
 20
633.9984499582414
 30
0.0
 11
1112.04332304841
 21
633.9984499582414
 31
0.0
  0
LINE
  5
10D16
330
1F
100
AcDbEntity
  8
DRG
100
AcDbLine
 10
1100.135931460942
 20
633.511782579973
 30
0.0
 11
1103.102655798871
 21
633.511782579973
 31
0.0
  0
ARC
  5
10D17
330
1F
100
AcDbEntity
  8
DRG
100
AcDbCircle
 10
1112.04332304841
 20
634.4929040145646
 30
0.0
 40
0.4944540563215126
100
AcDbArc
 50
270.0
 51
0.0
  0
ARC
  5
10D18
330
1F
100
AcDbEntity
  8
DRG
100
AcDbCircle
 10
1155.123221015232
 20
628.3389920438338
 30
0.0
 40
15.05554292619721
100
AcDbArc
 50
290.0000000000034
 51
358.2140000000025
  0
ARC
  5
10D19
330
1F
100
AcDbEntity
  8
DRG
100
AcDbCircle
 10
1155.123221015234
 20
628.3389920438338
 30
0.0
 40
15.05554292619721
100
AcDbArc
 50
290.0000000000034
 51
358.2140000000025
  0
LINE
  5
10D22
330
1F
100
AcDbEntity
  8
DRG
100
AcDbLine
 10
1128.869847295948
 20
611.3597067995931
 30
0.0
 11
1121.089808193916
 21
614.1914094541589
 31
0.0
  0
LINE
  5
10D23
330
1F
100
AcDbEntity
  8
DRG
100
AcDbLine
 10
1128.869847295948
 20
611.3597067995931
 30
0.0
 11
1121.089808193916
 21
614.1914094541615
 31
0.0
  0
LINE
  5
10D36
330
1F
100
AcDbEntity
  8
DRG
100
AcDbLine
 10
1152.492480862665
 20
611.3597067995931
 30
0.0
 11
1160.272519964697
 21
614.1914094541589
 31
0.0
  0
LINE
  5
10D37
330
1F
100
AcDbEntity
  8
DRG
100
AcDbLine
 10
1152.492480862665
 20
611.3597067995931
 30
0.0
 11
1160.272519964697
 21
614.1914094541615
 31
0.0
  0
LINE
  5
10D42
330
1F
100
AcDbEntity
  8
DRG
100
AcDbLine
 10
1095.876093956936
 20
708.1042081944008
 30
0.0
 11
1185.486234201676
 21
708.1042081944008
 31
0.0
  0
ARC
  5
10D43
330
1F
100
AcDbEntity
  8
DRG
100
AcDbCircle
 10
1163.442203520982
 20
824.7948294581281
 30
0.0
 40
92.19845852485129
100
AcDbArc
 50
255.7076242720193
 51
284.2923757279807
  0
LINE
  5
10D44
330
1F
100
AcDbEntity
  8
DRG
100
AcDbLine
 10
1162.527904653225
 20
708.1042081944008
 30
0.0
 11
1162.527904653225
 21
726.8743694951565
 31
0.0
  0
LINE
  5
10D45
330
1F
100
AcDbEntity
  8
DRG
100
AcDbLine
 10
1118.834423505388
 20
708.1042081944008
 30
0.0
 11
1118.834423505388
 21
727.44933873201
 31
0.0
  0
LINE
  5
10D46
330
1F
100
AcDbEntity
  8
DRG
100
AcDbLine
 10
1095.346072861186
 20
728.3448972360075
 30
0.0
 11
1095.876093956936
 21
708.1042081944008
 31
0.0
  0
LINE
  5
10D47
330
1F
100
AcDbEntity
  8
CEN
100
AcDbLine
 10
1119.854771725753
 20
693.9179109055023
 30
0.0
 11
1095.415446340195
 21
693.9179109055023
 31
0.0
  0
LINE
  5
10D48
330
1F
100
AcDbEntity
  8
DRG
100
AcDbLine
 10
1113.06532603174
 20
693.0394144720776
 30
0.0
 11
1172.287215488193
 21
693.0394144720776
 31
0.0
  0
LINE
  5
10D49
330
1F
100
AcDbEntity
  8
DRG
100
AcDbLine
 10
1103.102655798871
 20
698.6093844320176
 30
0.0
 11
1103.102655798871
 21
684.2926034980937
 31
0.0
  0
LINE
  5
10D4A
330
1F
100
AcDbEntity
  8
DRG
100
AcDbLine
 10
1113.320906451263
 20
697.0291214177231
 30
0.0
 11
1112.487276466852
 21
684.0158422897657
 31
0.0
  0
LINE
  5
10D4B
330
1F
100
AcDbEntity
  8
DRG
100
AcDbLine
 10
1100.135931460942
 20
684.7792708763621
 30
0.0
 11
1100.135931460942
 21
698.6093844320176
 31
0.0
  0
LINE
  5
10D4C
330
1F
100
AcDbEntity
  8
DRG
100
AcDbLine
 10
1112.04332304841
 20
684.2926034980937
 30
0.0
 11
1103.102655798871
 21
684.2926034980937
 31
0.0
  0
LINE
  5
10D4D
330
1F
100
AcDbEntity
  8
DRG
100
AcDbLine
 10
1103.102655798871
 20
684.7792708763621
 30
0.0
 11
1100.135931460942
 21
684.7792708763621
 31
0.0
  0
ARC
  5
10D4E
330
1F
100
AcDbEntity
  8
DRG
100
AcDbCircle
 10
1112.04332304841
 20
683.7981494417731
 30
0.0
 40
0.4944540563215126
100
AcDbArc
 50
0.0
 51
90.0
  0
LINE
  5
10D4F
330
1F
100
AcDbEntity
  8
DRG
100
AcDbLine
 10
1106.031856276347
 20
706.8931006400226
 30
0.0
 11
1107.764841043268
 21
699.2151916341414
 31
0.0
  0
LINE
  5
10D50
330
1F
100
AcDbEntity
  8
DRG
100
AcDbLine
 10
1103.102655798871
 20
692.3613230433163
 30
0.0
 11
1113.021887530066
 21
692.3613230433163
 31
0.0
  0
LINE
  5
10D51
330
1F
100
AcDbEntity
  8
DRG
100
AcDbLine
 10
1106.920316846273
 20
698.6093844320176
 30
0.0
 11
1100.135931460942
 21
698.6093844320176
 31
0.0
  0
ARC
  5
10D52
330
1F
100
AcDbEntity
  8
DRG
100
AcDbCircle
 10
1111.838635878745
 20
697.1240755935403
 30
0.0
 40
1.485308838477614
100
AcDbArc
 50
356.3346436808534
 51
90.0
  0
LINE
  5
10D53
330
1F
100
AcDbEntity
  8
DRG
100
AcDbLine
 10
1105.364986385704
 20
698.6093844320176
 30
0.0
 11
1111.838635878745
 21
698.6093844320176
 31
0.0
  0
ARC
  5
10D54
330
1F
100
AcDbEntity
  8
DRG
100
AcDbCircle
 10
1107.283088730629
 20
699.103838488339
 30
0.0
 40
0.4944540563215126
100
AcDbArc
 50
270.0
 51
13.01488798322796
  0
ARC
  5
10D55
330
1F
100
AcDbEntity
  8
DRG
100
AcDbCircle
 10
1112.077831742018
 20
709.0936557466307
 30
0.0
 40
6.433992703503079
100
AcDbArc
 50
188.8463008507772
 51
199.9999999999892
  0
LINE
  5
10D56
330
1F
100
AcDbEntity
  8
DRG
100
AcDbLine
 10
1175.336031405252
 20
707.1832016305402
 30
0.0
 11
1172.556296867257
 21
694.0085804620904
 31
0.0
  0
ARC
  5
10D57
330
1F
100
AcDbEntity
  8
DRG
100
AcDbCircle
 10
1178.60227233293
 20
691.8080253554823
 30
0.0
 40
6.433992703503079
100
AcDbArc
 50
160.0000000000107
 51
178.2140000000025
  0
ARC
  5
10D58
330
1F
100
AcDbEntity
  8
DRG
100
AcDbCircle
 10
1169.29005593958
 20
709.3837567371483
 30
0.0
 40
6.433992703503079
100
AcDbArc
 50
340.0000000000107
 51
348.5289270160262
  0
ARC
  5
10D59
330
1F
100
AcDbEntity
  8
DRG
100
AcDbCircle
 10
1117.920124637631
 20
824.7948294581298
 30
0.0
 40
92.19845852485372
100
AcDbArc
 50
255.7076242720193
 51
284.2923757279807
  0
LINE
  5
10D5A
330
1F
100
AcDbEntity
  8
DRG
100
AcDbLine
 10
1082.288696633585
 20
740.9065470246341
 30
0.0
 11
1090.324652176558
 21
735.45004316428
 31
0.0
  0
ARC
  5
10D5B
330
1F
100
AcDbEntity
  8
DRG
100
AcDbCircle
 10
1087.518561348454
 20
728.1399266334524
 30
0.0
 40
7.830194724899999
100
AcDbArc
 50
1.4999999999898
 51
69.00000000000274
  0
LINE
  5
10D5C
330
1F
100
AcDbEntity
  8
DRG
100
AcDbLine
 10
1186.016255297426
 20
728.3448972360075
 30
0.0
 11
1185.486234201676
 21
708.1042081944008
 31
0.0
  0
ARC
  5
10D5D
330
1F
100
AcDbEntity
  8
DRG
100
AcDbCircle
 10
1188.550790919644
 20
768.3194840152411
 30
0.0
 40
29.363230218375
100
AcDbArc
 50
290.9999999999972
 51
357.6692728889956
  0
ARC
  5
10D5E
330
1F
100
AcDbEntity
  8
DRG
100
AcDbCircle
 10
1193.843766810159
 20
728.1399266334524
 30
0.0
 40
7.830194724899999
100
AcDbArc
 50
110.9999999999972
 51
178.5000000000102
  0
LINE
  5
10D5F
330
1F
100
AcDbEntity
  8
DRG
100
AcDbLine
 10
1191.037675982056
 20
735.4500431642816
 30
0.0
 11
1199.073631525029
 21
740.9065470246341
 31
0.0
  0
LINE
  5
10D60
330
1F
100
AcDbEntity
  8
DRG
100
AcDbLine
 10
1057.195995612113
 20
942.0312756007877
 30
0.0
 11
1100.289472676081
 21
942.0312756007877
 31
0.0
  0
LINE
  5
10D61
330
1F
100
AcDbEntity
  8
DRG
100
AcDbLine
 10
1048.121631503971
 20
898.7094078478614
 30
0.0
 11
1098.776639718329
 21
898.7094078478614
 31
0.0
  0
LINE
  5
10D62
330
1F
100
AcDbEntity
  8
AM_7
  6
CENTER
 48
2.0
100
AcDbLine
 10
1067.026329835653
 20
977.5607841650225
 30
0.0
 11
1215.643565843086
 21
977.5607841650225
 31
0.0
  0
LINE
  5
10D63
330
1F
100
AcDbEntity
  8
DRG
100
AcDbLine
 10
1053.249093611362
 20
889.6668483780198
 30
0.0
 11
1228.113234547249
 21
889.6668483780198
 31
0.0
  0
LINE
  5
10D65
330
1F
100
AcDbEntity
  8
DRG
100
AcDbLine
 10
1052.466074138872
 20
894.3649652129604
 30
0.0
 11
1228.896254019741
 21
894.3649652129604
 31
0.0
  0
LINE
  5
10D66
330
1F
100
AcDbEntity
  8
DRG
100
AcDbLine
 10
1053.249093611363
 20
889.6668483780171
 30
0.0
 11
1228.113234547249
 21
889.6668483780198
 31
0.0
  0
LINE
  5
10D67
330
1F
100
AcDbEntity
  8
DRG
100
AcDbLine
 10
1049.370570830274
 20
934.4743507308681
 30
0.0
 11
1048.121631503971
 21
898.7094078478614
 31
0.0
  0
LINE
  5
10D68
330
1F
100
AcDbEntity
  8
DRG
100
AcDbLine
 10
876.371346252235
 20
1016.910013677058
 30
0.0
 11
880.8147754970434
 21
889.6668483780198
 31
0.0
  0
LINE
  5
10D69
330
1F
100
AcDbEntity
  8
DRG
100
AcDbLine
 10
869.354062981762
 20
934.4743507308681
 30
0.0
 11
870.6030023080657
 21
898.7094078478614
 31
0.0
  0
LINE
  5
10D6A
330
1F
100
AcDbEntity
  8
DRG
100
AcDbLine
 10
866.2585596731634
 20
890.4498678505072
 30
0.0
 11
865.4755402006742
 21
889.6668483780171
 31
0.0
  0
LINE
  5
10D6B
330
1F
100
AcDbEntity
  8
DRG
100
AcDbLine
 10
866.2585596731648
 20
894.3649652129604
 30
0.0
 11
866.2585596731634
 21
890.4498678505072
 31
0.0
  0
LINE
  5
10D6C
330
1F
100
AcDbEntity
  8
DRG
100
AcDbLine
 10
870.6030023080657
 20
898.7094078478614
 30
0.0
 11
866.2585596731648
 21
894.3649652129604
 31
0.0
  0
LINE
  5
10D6D
330
1F
100
AcDbEntity
  8
DRG
100
AcDbLine
 10
1048.121631503971
 20
898.7094078478614
 30
0.0
 11
1052.466074138872
 21
894.3649652129604
 31
0.0
  0
LINE
  5
10D6E
330
1F
100
AcDbEntity
  8
DRG
100
AcDbLine
 10
1052.466074138874
 20
890.4498678505072
 30
0.0
 11
1053.249093611363
 21
889.6668483780171
 31
0.0
  0
LINE
  5
10D6F
330
1F
100
AcDbEntity
  8
DRG
100
AcDbLine
 10
1052.466074138872
 20
894.3649652129604
 30
0.0
 11
1052.466074138874
 21
890.4498678505072
 31
0.0
  0
LINE
  5
10D70
330
1F
100
AcDbEntity
  8
DRG
100
AcDbLine
 10
845.3995908400143
 20
953.3666629056645
 30
0.0
 11
843.9237342147333
 21
995.6296670365123
 31
0.0
  0
ARC
  5
10D71
330
1F
100
AcDbEntity
  8
DRG
100
AcDbCircle
 10
857.1377280127721
 20
953.7765676881388
 30
0.0
 40
11.74529208735
100
AcDbArc
 50
182.0000000000034
 51
270.0
  0
ARC
  5
10D72
330
1F
100
AcDbEntity
  8
DRG
100
AcDbCircle
 10
861.528638199924
 20
934.201080875888
 30
0.0
 40
7.830194724899999
100
AcDbArc
 50
2.000000000003498
 51
90.0
  0
LINE
  5
10D73
330
1F
100
AcDbEntity
  8
DRG
100
AcDbLine
 10
874.8609152668636
 20
1018.420444662428
 30
0.0
 11
845.4653626780084
 21
1019.446959978468
 31
0.0
  0
ARC
  5
10D74
330
1F
100
AcDbEntity
  8
DRG
100
AcDbCircle
 10
874.8062612958676
 20
1016.85535970606
 30
0.0
 40
1.56603894498
100
AcDbArc
 50
2.000000000003498
 51
87.99999999999636
  0
ARC
  5
10D75
330
1F
100
AcDbEntity
  8
DRG
100
AcDbCircle
 10
1057.195995612113
 20
934.201080875888
 30
0.0
 40
7.830194724899999
100
AcDbArc
 50
90.0
 51
177.9999999999965
  0
LINE
  5
10D76
330
1F
100
AcDbEntity
  8
DRG
100
AcDbLine
 10
1182.585688440285
 20
898.7094078478614
 30
0.0
 11
1179.031720894779
 21
1000.481722640266
 31
0.0
  0
LINE
  5
10D77
330
1F
100
AcDbEntity
  8
DRG
100
AcDbLine
 10
1231.99175732834
 20
934.4743507308681
 30
0.0
 11
1233.240696654642
 21
898.7094078478614
 31
0.0
  0
LINE
  5
10D78
330
1F
100
AcDbEntity
  8
DRG
100
AcDbLine
 10
1098.776639718329
 20
898.7094078478614
 30
0.0
 11
1102.330607263836
 21
1000.481722640266
 31
0.0
  0
ARC
  5
10D79
330
1F
100
AcDbEntity
  8
DRG
100
AcDbCircle
 10
1140.681164079307
 20
1075.942937064343
 30
0.0
 40
177.2025071816864
100
AcDbArc
 50
256.3569408045879
 51
283.643059195412
  0
LINE
  5
10D7A
330
1F
100
AcDbEntity
  8
DRG
100
AcDbLine
 10
1233.240696654642
 20
898.7094078478614
 30
0.0
 11
1228.896254019741
 21
894.3649652129604
 31
0.0
  0
LINE
  5
10D7B
330
1F
100
AcDbEntity
  8
DRG
100
AcDbLine
 10
1233.240696654642
 20
898.7094078478614
 30
0.0
 11
1182.585688440285
 21
898.7094078478614
 31
0.0
  0
LINE
  5
10D7C
330
1F
100
AcDbEntity
  8
DRG
100
AcDbLine
 10
1228.113234547249
 20
889.6668483780198
 30
0.0
 11
1228.89625401974
 21
890.4498678505097
 31
0.0
  0
LINE
  5
10D7D
330
1F
100
AcDbEntity
  8
DRG
100
AcDbLine
 10
1228.896254019741
 20
894.3649652129604
 30
0.0
 11
1228.89625401974
 21
890.4498678505097
 31
0.0
  0
ARC
  5
10D7E
330
1F
100
AcDbEntity
  8
DRG
100
AcDbCircle
 10
1166.315405624291
 20
1000.03765912592
 30
0.0
 40
12.7240664279625
100
AcDbArc
 50
2.000000000003498
 51
72.48015296945472
  0
LINE
  5
10D7F
330
1F
100
AcDbEntity
  8
DRG
100
AcDbLine
 10
1147.721996852583
 20
990.5712343944264
 30
0.0
 11
1147.721996852583
 21
950.8522280115821
 31
0.0
  0
LINE
  5
10D80
330
1F
100
AcDbEntity
  8
DRG
100
AcDbLine
 10
1073.325042972022
 20
953.3666629056645
 30
0.0
 11
1074.800899597303
 21
995.6296670365123
 31
0.0
  0
LINE
  5
10D81
330
1F
100
AcDbEntity
  8
DRG
100
AcDbLine
 10
1133.640331306031
 20
990.5712343944264
 30
0.0
 11
1133.640331306031
 21
950.8522280115821
 31
0.0
  0
CIRCLE
  5
10D82
330
1F
100
AcDbEntity
  8
DRG
100
AcDbCircle
 10
1140.681164079307
 20
977.5607841650225
 30
0.0
 40
33.86559218519246
  0
CIRCLE
  5
10D83
330
1F
100
AcDbEntity
  8
DRG
100
AcDbCircle
 10
1140.681164079307
 20
977.5607841650225
 30
0.0
 40
30.3909432760181
  0
CIRCLE
  5
10D84
330
1F
100
AcDbEntity
  8
DRG
100
AcDbCircle
 10
1140.681164079307
 20
977.5607841650225
 30
0.0
 40
27.62101189208466
  0
ARC
  5
10D85
330
1F
100
AcDbEntity
  8
DRG
100
AcDbCircle
 10
1061.586905799264
 20
953.7765676881388
 30
0.0
 40
11.74529208735
100
AcDbArc
 50
270.0
 51
357.9999999999965
  0
ARC
  5
10D86
330
1F
100
AcDbEntity
  8
DRG
100
AcDbCircle
 10
1140.163571864077
 20
969.2601169094416
 30
0.0
 40
52.34807149545428
100
AcDbArc
 50
111.3498103896378
 51
127.2030749673119
  0
ARC
  5
10D87
330
1F
100
AcDbEntity
  8
DRG
100
AcDbCircle
 10
1140.681164079307
 20
918.8343237282717
 30
0.0
 40
97.87743406124999
100
AcDbArc
 50
72.48015296945472
 51
107.5198470305452
  0
ARC
  5
10D88
330
1F
100
AcDbEntity
  8
DRG
100
AcDbCircle
 10
1095.342639649631
 20
994.9123336671858
 30
0.0
 40
20.5542611528625
100
AcDbArc
 50
105.9079760979983
 51
177.9999999999965
  0
ARC
  5
10D89
330
1F
100
AcDbEntity
  8
DRG
100
AcDbCircle
 10
1115.046922534323
 20
1000.03765912592
 30
0.0
 40
12.7240664279625
100
AcDbArc
 50
107.5198470305452
 51
177.9999999999965
  0
LINE
  5
10D8A
330
1F
100
AcDbEntity
  8
DRG
100
AcDbLine
 10
1147.583295951596
 20
991.2636249335951
 30
0.0
 11
1147.583295951596
 21
990.5712343944264
 31
0.0
  0
LINE
  5
10D8B
330
1F
100
AcDbEntity
  8
DRG
100
AcDbLine
 10
1133.779032207017
 20
991.2636249335951
 30
0.0
 11
1133.779032207017
 21
990.5712343944264
 31
0.0
  0
LINE
  5
10D8C
330
1F
100
AcDbEntity
  8
DRG
100
AcDbLine
 10
1133.640331306031
 20
990.5712343944264
 30
0.0
 11
1147.721996852583
 21
990.5712343944264
 31
0.0
  0
LINE
  5
10D8D
330
1F
100
AcDbEntity
  8
DRG
100
AcDbLine
 10
1131.610925825687
 20
991.2636249335951
 30
0.0
 11
1149.751402332926
 21
991.2636249335951
 31
0.0
  0
LINE
  5
10D8E
330
1F
100
AcDbEntity
  8
DRG
100
AcDbLine
 10
1121.105677267057
 20
1017.068621278104
 30
0.0
 11
1160.256650891557
 21
1017.068621278104
 31
0.0
  0
ARC
  5
10D8F
330
1F
100
AcDbEntity
  8
DRG
100
AcDbCircle
 10
1120.738646565653
 20
1001.626131583399
 30
0.0
 40
9.212980162446616
100
AcDbArc
 50
4.999999999999459
 51
8.392692924035596
  0
ARC
  5
10D90
330
1F
100
AcDbEntity
  8
DRG
100
AcDbCircle
 10
1131.610925825685
 20
992.0466444060862
 30
0.0
 40
0.7830194724900001
100
AcDbArc
 50
184.9999999999994
 51
270.0
  0
LINE
  5
10D91
330
1F
100
AcDbEntity
  8
DRG
100
AcDbLine
 10
1130.830885978688
 20
991.9783997623737
 30
0.0
 11
1129.916568557108
 21
1002.429095712376
 31
0.0
  0
ARC
  5
10D92
330
1F
100
AcDbEntity
  8
DRG
100
AcDbCircle
 10
1160.623681592958
 20
1001.626131583399
 30
0.0
 40
9.212980162446616
100
AcDbArc
 50
171.6073070759644
 51
175.0000000000005
  0
ARC
  5
10D93
330
1F
100
AcDbEntity
  8
DRG
100
AcDbCircle
 10
1149.751402332925
 20
992.0466444060862
 30
0.0
 40
0.7830194724900001
100
AcDbArc
 50
270.0
 51
355.0000000000005
  0
LINE
  5
10D94
330
1F
100
AcDbEntity
  8
DRG
100
AcDbLine
 10
1150.531442179922
 20
991.9783997623737
 30
0.0
 11
1151.445759601504
 21
1002.429095712376
 31
0.0
  0
ARC
  5
10D95
330
1F
100
AcDbEntity
  8
DRG
100
AcDbCircle
 10
1141.198756294536
 20
969.2601169094416
 30
0.0
 40
52.34807149545428
100
AcDbArc
 50
52.79692503268807
 51
68.6501896103761
  0
LINE
  5
10D96
330
1F
100
AcDbEntity
  8
DRG
100
AcDbLine
 10
1208.037285186591
 20
953.3666629056645
 30
0.0
 11
1206.56142856131
 21
995.6296670365123
 31
0.0
  0
ARC
  5
10D97
330
1F
100
AcDbEntity
  8
DRG
100
AcDbCircle
 10
1224.166332546501
 20
934.201080875888
 30
0.0
 40
7.830194724899999
100
AcDbArc
 50
2.000000000003498
 51
90.0
  0
LINE
  5
10D98
330
1F
100
AcDbEntity
  8
DRG
100
AcDbLine
 10
1224.166332546501
 20
942.0312756007877
 30
0.0
 11
1181.072855482532
 21
942.0312756007877
 31
0.0
  0
ARC
  5
10D99
330
1F
100
AcDbEntity
  8
DRG
100
AcDbCircle
 10
1219.775422359349
 20
953.7765676881388
 30
0.0
 40
11.74529208735
100
AcDbArc
 50
182.0000000000034
 51
270.0
  0
ARC
  5
10D9A
330
1F
100
AcDbEntity
  8
DRG
100
AcDbCircle
 10
1186.019688508983
 20
994.9123336671858
 30
0.0
 40
20.5542611528625
100
AcDbArc
 50
2.000000000003498
 51
74.09202390200164
  0
DIMENSION
  5
10D9B
330
1F
100
AcDbEntity
  8
AM_5
100
AcDbDimension
  2
*D3
 10
935.4797871493147
 20
1130.599369590463
 30
0.0
 11
926.2786060469524
 21
1231.773571255246
 31
0.0
 70
    32
  1
%%c<>
  3
AM_ISO
100
AcDbAlignedDimension
 13
778.0434697327304
 23
1332.947772920029
 33
0.0
 14
778.0434697327304
 24
1130.599369590463
 34
0.0
 50
90.0
100
AcDbRotatedDimension
1001
ACAD
1000
DSTYLE
1002
{
1070
    40
1040
4.0
1070
   271
1070
     0
1070
   272
1070
     8
1002
}
  0
ARC
  5
10D9C
330
1F
100
AcDbEntity
  8
DRG
100
AcDbCircle
 10
778.0434697327304
 20
1231.773571255246
 30
0.0
 40
77.08472008822737
100
AcDbArc
 50
31.12189708792414
 51
148.8781029120724
  0
POLYLINE
  5
10D9D
330
1F
100
AcDbEntity
  8
DRG
100
AcDb2dPolyline
 66
     1
 10
0.0
 20
0.0
 30
0.0
 70
     1
  0
VERTEX
  5
122DD
330
10D9D
100
AcDbEntity
  8
DRG
100
AcDbVertex
100
AcDb2dVertex
 10
834.8613695164845
 20
1228.298147727218
 30
0.0
  0
VERTEX
  5
122DE
330
10D9D
100
AcDbEntity
  8
DRG
100
AcDbVertex
100
AcDb2dVertex
 10
836.8679062259388
 20
1231.773571255246
 30
0.0
  0
VERTEX
  5
122DF
330
10D9D
100
AcDbEntity
  8
DRG
100
AcDbVertex
100
AcDb2dVertex
 10
834.8613695164845
 20
1235.248994783274
 30
0.0
  0
VERTEX
  5
122E0
330
10D9D
100
AcDbEntity
  8
DRG
100
AcDbVertex
100
AcDb2dVertex
 10
830.8482960975775
 20
1235.248994783274
 30
0.0
  0
VERTEX
  5
122E1
330
10D9D
100
AcDbEntity
  8
DRG
100
AcDbVertex
100
AcDb2dVertex
 10
828.8417593881227
 20
1231.773571255246
 30
0.0
  0
VERTEX
  5
122E2
330
10D9D
100
AcDbEntity
  8
DRG
100
AcDbVertex
100
AcDb2dVertex
 10
830.8482960975775
 20
1228.298147727218
 30
0.0
  0
SEQEND
  5
122E3
330
10D9D
100
AcDbEntity
  8
DRG
  0
CIRCLE
  5
10D9E
330
1F
100
AcDbEntity
  8
DRG
100
AcDbCircle
 10
832.8548328070306
 20
1231.773571255246
 30
0.0
 40
5.544756639569777
  0
CIRCLE
  5
10D9F
330
1F
100
AcDbEntity
  8
DRG
100
AcDbCircle
 10
832.8548328070306
 20
1231.773571255246
 30
0.0
 40
7.022705893894864
  0
CIRCLE
  5
10DA1
330
1F
100
AcDbEntity
  8
DRG
100
AcDbCircle
 10
832.8548328070306
 20
1231.773571255246
 30
0.0
 40
11.25590491704374
  0
ARC
  5
10DA2
330
1F
100
AcDbEntity
  8
DRG
100
AcDbCircle
 10
845.3120151350763
 20
1231.773571255246
 30
0.0
 40
39.15097362450005
100
AcDbArc
 50
212.8146867678567
 51
257.3196165081849
  0
ARC
  5
10DA3
330
1F
100
AcDbEntity
  8
DRG
100
AcDbCircle
 10
778.0434697327304
 20
1231.773571255246
 30
0.0
 40
77.08472008822737
100
AcDbArc
 50
211.1218970879275
 51
328.8781029120757
  0
ARC
  5
10DA4
330
1F
100
AcDbEntity
  8
DRG
100
AcDbCircle
 10
845.3120151350763
 20
1231.773571255246
 30
0.0
 40
39.15097362450005
100
AcDbArc
 50
102.6803834918322
 51
147.1853132321433
  0
ARC
  5
10DA5
330
1F
100
AcDbEntity
  8
DRG
100
AcDbCircle
 10
778.0434697327304
 20
1231.773571255246
 30
0.0
 40
101.1742016647826
100
AcDbArc
 50
203.368303767026
 51
336.631696232974
  0
ARC
  5
10DA6
330
1F
100
AcDbEntity
  8
DRG
100
AcDbCircle
 10
778.0434697327304
 20
1231.773571255246
 30
0.0
 40
101.1742016647826
100
AcDbArc
 50
23.36830376702614
 51
156.6316962329738
  0
LINE
  5
10DA7
330
1F
100
AcDbEntity
  8
AM_7
  6
CENTER
 48
2.0
100
AcDbLine
 10
889.1994566005244
 20
1231.773571255246
 30
0.0
 11
652.5685625403967
 21
1231.773571255246
 31
0.0
  0
LINE
  5
10DA8
330
1F
100
AcDbEntity
  8
DRG
100
AcDbLine
 10
791.5505556331825
 20
1021.801384360707
 30
0.0
 11
845.38314436687
 21
1021.801384360707
 31
0.0
  0
LINE
  5
10DA9
330
1F
100
AcDbEntity
  8
AM_7
  6
CENTER
 48
2.0
100
AcDbLine
 10
778.0434697327304
 20
1123.268257412562
 30
0.0
 11
778.0434697327304
 21
1343.950386637398
 31
0.0
  0
LINE
  5
10DAA
330
1F
100
AcDbEntity
  8
DRG
100
AcDbLine
 10
764.5363838322769
 20
1021.801384360707
 30
0.0
 11
710.703795098589
 21
1021.801384360707
 31
0.0
  0
LINE
  5
10DAB
330
1F
100
AcDbEntity
  8
DRG
100
AcDbLine
 10
778.0434697327304
 20
1024.367423305685
 30
0.0
 11
768.2557263266056
 21
1024.367423305685
 31
0.0
  0
LINE
  5
10DAC
330
1F
100
AcDbEntity
  8
DRG
100
AcDbLine
 10
764.552835123472
 20
1021.330281019217
 30
0.0
 11
778.0434697327304
 21
1021.801384360707
 31
0.0
  0
LINE
  5
10DAD
330
1F
100
AcDbEntity
  8
DRG
100
AcDbLine
 10
764.5363838322769
 20
1021.801384360707
 30
0.0
 11
750.1276566647147
 21
1021.801384360707
 31
0.0
  0
LINE
  5
10DAE
330
1F
100
AcDbEntity
  8
DRG
100
AcDbLine
 10
764.5363838322769
 20
1021.801384360707
 30
0.0
 11
764.552845151263
 21
1021.329993860863
 31
0.0
  0
LINE
  5
10DAF
330
1F
100
AcDbEntity
  8
DRG
100
AcDbLine
 10
768.2557263266056
 20
1024.367423305685
 30
0.0
 11
768.1919203669145
 21
1021.540259683019
 31
0.0
  0
LINE
  5
10DB0
330
1F
100
AcDbEntity
  8
DRG
100
AcDbLine
 10
791.5505556331847
 20
1021.801384360707
 30
0.0
 11
805.9592828007438
 21
1021.801384360707
 31
0.0
  0
LINE
  5
10DB1
330
1F
100
AcDbEntity
  8
DRG
100
AcDbLine
 10
787.8312131388554
 20
1024.367423305685
 30
0.0
 11
787.8950190985458
 21
1021.540259683019
 31
0.0
  0
LINE
  5
10DB2
330
1F
100
AcDbEntity
  8
DRG
100
AcDbLine
 10
791.5341043419889
 20
1021.330281019217
 30
0.0
 11
778.0434697327304
 21
1021.801384360707
 31
0.0
  0
LINE
  5
10DB3
330
1F
100
AcDbEntity
  8
DRG
100
AcDbLine
 10
778.0434697327304
 20
1024.367423305685
 30
0.0
 11
787.8312131388554
 21
1024.367423305685
 31
0.0
  0
LINE
  5
10DB4
330
1F
100
AcDbEntity
  8
DRG
100
AcDbLine
 10
791.5505556331825
 20
1021.801384360707
 30
0.0
 11
791.5340943141973
 21
1021.329993860863
 31
0.0
  0
LINE
  5
10DB5
330
1F
100
AcDbEntity
  8
DRG
100
AcDbLine
 10
710.7749243303837
 20
1191.643823290134
 30
0.0
 11
719.36904049186
 21
1193.577499426465
 31
0.0
  0
ARC
  5
10DB6
330
1F
100
AcDbEntity
  8
DRG
100
AcDbCircle
 10
710.7749243303837
 20
1231.773571255246
 30
0.0
 40
39.15097362450005
100
AcDbArc
 50
282.6803834918131
 51
327.1853132321432
  0
ARC
  5
10DB7
330
1F
100
AcDbEntity
  8
DRG
100
AcDbCircle
 10
731.9431982898822
 20
1231.773571255246
 30
0.0
 40
21.23940319129107
100
AcDbArc
 50
92.64129392480102
 51
267.358706075199
  0
ARC
  5
10DB9
330
1F
100
AcDbEntity
  8
DRG
100
AcDbCircle
 10
710.7749243303837
 20
1231.773571255246
 30
0.0
 40
39.15097362450005
100
AcDbArc
 50
32.81468676785673
 51
77.3196165081697
  0
LINE
  5
10DBA
330
1F
100
AcDbEntity
  8
DRG
100
AcDbLine
 10
710.7749243303837
 20
1271.903319220359
 30
0.0
 11
719.36904049186
 21
1269.969643084025
 31
0.0
  0
LINE
  5
10DBB
330
1F
100
AcDbEntity
  8
DRG
100
AcDbLine
 10
674.2933896278043
 20
1271.903319220359
 30
0.0
 11
674.2933896278043
 21
1191.643823290134
 31
0.0
  0
LINE
  5
10DBD
330
1F
100
AcDbEntity
  8
DRG
100
AcDbLine
 10
674.2933896278043
 20
1191.643823290134
 30
0.0
 11
710.7749243303837
 21
1191.643823290134
 31
0.0
  0
LINE
  5
10DBF
330
1F
100
AcDbEntity
  8
DRG
100
AcDbLine
 10
674.2933896278043
 20
1271.903319220359
 30
0.0
 11
710.7749243303837
 21
1271.903319220359
 31
0.0
  0
ARC
  5
10DC1
330
1F
100
AcDbEntity
  8
DRG
100
AcDbCircle
 10
743.2969806409872
 20
1231.773571255246
 30
0.0
 40
21.23940319129107
100
AcDbArc
 50
272.641293924801
 51
87.35870607519897
  0
ARC
  5
10DC3
330
1F
100
AcDbEntity
  8
DRG
100
AcDbCircle
 10
770.2166104047705
 20
1186.525749260688
 30
0.0
 40
48.55553135051462
100
AcDbArc
 50
29.66431170828808
 51
68.13966856218262
  0
LINE
  5
10DC4
330
1F
100
AcDbEntity
  8
DRG
100
AcDbLine
 10
744.2757549815996
 20
1210.556732454133
 30
0.0
 11
730.9644239492699
 21
1210.556732454133
 31
0.0
  0
LINE
  5
10DC8
330
1F
100
AcDbEntity
  8
DRG
100
AcDbLine
 10
767.8642165903604
 20
1234.122629672716
 30
0.0
 11
777.6519599964854
 21
1234.122629672716
 31
0.0
  0
LINE
  5
10DC9
330
1F
100
AcDbEntity
  8
DRG
100
AcDbLine
 10
767.8642165903604
 20
1229.424512837775
 30
0.0
 11
777.6519599964854
 21
1229.424512837775
 31
0.0
  0
POLYLINE
  5
10DCA
330
1F
100
AcDbEntity
  8
DRG
100
AcDb2dPolyline
 66
     1
 10
0.0
 20
0.0
 30
0.0
 70
     1
  0
VERTEX
  5
122E4
330
10DCA
100
AcDbEntity
  8
DRG
100
AcDbVertex
100
AcDb2dVertex
 10
725.2386433678843
 20
1228.298147727218
 30
0.0
  0
VERTEX
  5
122E5
330
10DCA
100
AcDbEntity
  8
DRG
100
AcDbVertex
100
AcDb2dVertex
 10
727.2451800773392
 20
1231.773571255246
 30
0.0
  0
VERTEX
  5
122E6
330
10DCA
100
AcDbEntity
  8
DRG
100
AcDbVertex
100
AcDb2dVertex
 10
725.2386433678843
 20
1235.248994783274
 30
0.0
  0
VERTEX
  5
122E7
330
10DCA
100
AcDbEntity
  8
DRG
100
AcDbVertex
100
AcDb2dVertex
 10
721.2255699489774
 20
1235.248994783274
 30
0.0
  0
VERTEX
  5
122E8
330
10DCA
100
AcDbEntity
  8
DRG
100
AcDbVertex
100
AcDb2dVertex
 10
719.2190332395226
 20
1231.773571255246
 30
0.0
  0
VERTEX
  5
122E9
330
10DCA
100
AcDbEntity
  8
DRG
100
AcDbVertex
100
AcDb2dVertex
 10
721.2255699489774
 20
1228.298147727218
 30
0.0
  0
SEQEND
  5
122EA
330
10DCA
100
AcDbEntity
  8
DRG
  0
CIRCLE
  5
10DCB
330
1F
100
AcDbEntity
  8
DRG
100
AcDbCircle
 10
723.2321066584304
 20
1231.773571255246
 30
0.0
 40
5.544756639569777
  0
CIRCLE
  5
10DCC
330
1F
100
AcDbEntity
  8
DRG
100
AcDbCircle
 10
723.2321066584304
 20
1231.773571255246
 30
0.0
 40
7.022705893894864
  0
LINE
  5
10DCE
330
1F
100
AcDbEntity
  8
0
  6
CENTER
 62
     1
100
AcDbLine
 10
723.2321066584304
 20
1241.655018777135
 30
0.0
 11
723.2321066584304
 21
1220.969535800416
 31
0.0
  0
LINE
  5
10DD0
330
1F
100
AcDbEntity
  8
DRG
100
AcDbLine
 10
767.8642165903604
 20
1229.424512837775
 30
0.0
 11
767.8642165903604
 21
1234.122629672716
 31
0.0
  0
LINE
  5
10DD1
330
1F
100
AcDbEntity
  8
DRG
100
AcDbLine
 10
730.9644239492699
 20
1252.990410056357
 30
0.0
 11
744.2757549815996
 21
1252.990410056357
 31
0.0
  0
ARC
  5
10DD3
330
1F
100
AcDbEntity
  8
DRG
100
AcDbCircle
 10
770.2166104047705
 20
1277.021393249802
 30
0.0
 40
48.55553135051462
100
AcDbArc
 50
291.8603314378221
 51
330.3356882917119
  0
LINE
  5
10DD5
330
1F
100
AcDbEntity
  8
DRG
100
AcDbLine
 10
777.6519599964854
 20
1238.102642300365
 30
0.0
 11
788.6142326113452
 21
1231.773571255246
 31
0.0
  0
LINE
  5
10DD6
330
1F
100
AcDbEntity
  8
DRG
100
AcDbLine
 10
777.6519599964854
 20
1225.444500210127
 30
0.0
 11
788.6142326113427
 21
1231.773571255246
 31
0.0
  0
LINE
  5
10DD9
330
1F
100
AcDbEntity
  8
DRG
100
AcDbLine
 10
777.6519599964854
 20
1225.444500210127
 30
0.0
 11
777.6519599964854
 21
1229.424512837775
 31
0.0
  0
LINE
  5
10DDA
330
1F
100
AcDbEntity
  8
DRG
100
AcDbLine
 10
777.6519599964854
 20
1234.122629672716
 30
0.0
 11
777.6519599964854
 21
1238.102642300365
 31
0.0
  0
LINE
  5
10DDC
330
1F
100
AcDbEntity
  8
AM_7
  6
CENTER
100
AcDbLine
 10
832.8548328070306
 20
1246.826389521316
 30
0.0
 11
832.8548328070306
 21
1218.014468148825
 31
0.0
  0
LINE
  5
10DDE
330
1F
100
AcDbEntity
  8
DRG
100
AcDbLine
 10
881.7935498376559
 20
1271.903319220359
 30
0.0
 11
881.7935498376559
 21
1191.643823290134
 31
0.0
  0
LINE
  5
10DE0
330
1F
100
AcDbEntity
  8
DRG
100
AcDbLine
 10
881.7935498376559
 20
1191.643823290134
 30
0.0
 11
845.3120151350763
 21
1191.643823290134
 31
0.0
  0
LINE
  5
10DE2
330
1F
100
AcDbEntity
  8
DRG
100
AcDbLine
 10
845.3120151350763
 20
1191.643823290134
 30
0.0
 11
836.7178989736014
 21
1193.577499426465
 31
0.0
  0
LINE
  5
10DE4
330
1F
100
AcDbEntity
  8
DRG
100
AcDbLine
 10
881.7935498376559
 20
1271.903319220359
 30
0.0
 11
845.3120151350763
 21
1271.903319220359
 31
0.0
  0
LINE
  5
10DE5
330
1F
100
AcDbEntity
  8
DRG
100
AcDbLine
 10
845.3120151350763
 20
1271.903319220359
 30
0.0
 11
836.7178989736014
 21
1269.969643084025
 31
0.0
  0
LINE
  5
10DE6
330
1F
100
AcDbEntity
  8
DRG
100
AcDbLine
 10
1150.468907485432
 20
1024.171668437563
 30
0.0
 11
1130.893420673181
 21
1024.171668437563
 31
0.0
  0
LINE
  5
10DE7
330
1F
100
AcDbEntity
  8
DRG
100
AcDbLine
 10
1160.256650891557
 20
1024.171668437563
 30
0.0
 11
1121.105677267057
 21
1024.171668437563
 31
0.0
  0
LINE
  5
10ED0
330
1F
100
AcDbEntity
  8
DRG
100
AcDbLine
 10
771.6118885334493
 20
633.118260238649
 30
0.0
 11
784.4750509320143
 21
633.118260238649
 31
0.0
  0
LINE
  5
10ED1
330
1F
100
AcDbEntity
  8
CEN
100
AcDbLine
 10
766.0771422482504
 20
624.3731425508327
 30
0.0
 11
790.1872874542383
 21
624.3731425508327
 31
0.0
  0
LINE
  5
10ED2
330
1F
100
AcDbEntity
  8
DRG
100
AcDbLine
 10
769.1678876777215
 20
619.4833080961707
 30
0.0
 11
786.9190517877394
 21
619.4833080961707
 31
0.0
  0
LINE
  5
10ED3
330
1F
100
AcDbEntity
  8
DRG
100
AcDbLine
 10
783.8029043844
 20
622.1652420961095
 30
0.0
 11
787.4804674554469
 21
625.8428051671569
 31
0.0
  0
LINE
  5
10ED4
330
1F
100
AcDbEntity
  8
DRG
100
AcDbLine
 10
783.0646665460018
 20
622.9034799345086
 30
0.0
 11
786.7422296170488
 21
626.581043005556
 31
0.0
  0
CIRCLE
  5
10ED5
330
1F
100
AcDbEntity
  8
DRG
100
AcDbCircle
 10
785.2725670007235
 20
624.3731425508327
 30
0.0
 40
2.65230703799262
  0
LINE
  5
10ED6
330
1F
100
AcDbEntity
  8
DRG
100
AcDbLine
 10
767.4956765659064
 20
621.1555192079829
 30
0.0
 11
767.4956765659064
 21
625.7457298344693
 31
0.0
  0
LINE
  5
10ED7
330
1F
100
AcDbEntity
  8
0
  6
CENTER
 62
     1
 48
10.0
100
AcDbLine
 10
770.814372464736
 20
620.8011679160803
 30
0.0
 11
770.814372464736
 21
627.646954719039
 31
0.0
  0
LINE
  5
10ED8
330
1F
100
AcDbEntity
  8
DRG
100
AcDbLine
 10
781.6451552043262
 20
633.118260238649
 30
0.0
 11
781.6451552043262
 21
619.4833080961707
 31
0.0
  0
LINE
  5
10ED9
330
1F
100
AcDbEntity
  8
DRG
100
AcDbLine
 10
774.4417842611313
 20
633.118260238649
 30
0.0
 11
774.4417842611313
 21
619.4833080961707
 31
0.0
  0
ARC
  5
10EDA
330
1F
100
AcDbEntity
  8
DRG
100
AcDbCircle
 10
770.7114671655477
 20
625.7457298344693
 30
0.0
 40
3.215790599641339
100
AcDbArc
 50
147.3807569288089
 51
180.0
  0
LINE
  5
10EDB
330
1F
100
AcDbEntity
  8
DRG
100
AcDbLine
 10
769.3447098484122
 20
622.1652420961095
 30
0.0
 11
773.0222729194585
 21
625.8428051671569
 31
0.0
  0
LINE
  5
10EDC
330
1F
100
AcDbEntity
  8
DRG
100
AcDbLine
 10
768.606472010014
 20
622.9034799345086
 30
0.0
 11
772.284035081061
 21
626.581043005556
 31
0.0
  0
CIRCLE
  5
10EDD
330
1F
100
AcDbEntity
  8
DRG
100
AcDbCircle
 10
770.814372464736
 20
624.3731425508327
 30
0.0
 40
2.65230703799262
  0
LINE
  5
10EDE
330
1F
100
AcDbEntity
  8
DRG
100
AcDbLine
 10
771.6118885334493
 20
633.118260238649
 30
0.0
 11
768.0028987129547
 21
627.4792136441283
 31
0.0
  0
ARC
  5
10EDF
330
1F
100
AcDbEntity
  8
DRG
100
AcDbCircle
 10
769.1678876777215
 20
621.1555192079829
 30
0.0
 40
1.672211111813496
100
AcDbArc
 50
180.0
 51
270.0
  0
LINE
  5
10EE0
330
1F
100
AcDbEntity
  8
DRG
100
AcDbLine
 10
788.5912628995521
 20
621.1555192079829
 30
0.0
 11
788.5912628995521
 21
625.7457298344693
 31
0.0
  0
LINE
  5
10EE1
330
1F
100
AcDbEntity
  8
0
  6
CENTER
 62
     1
 48
10.0
100
AcDbLine
 10
785.2725670007235
 20
620.8011679160803
 30
0.0
 11
785.2725670007235
 21
627.646954719039
 31
0.0
  0
ARC
  5
10EE2
330
1F
100
AcDbEntity
  8
DRG
100
AcDbCircle
 10
785.3754722999095
 20
625.7457298344693
 30
0.0
 40
3.215790599641339
100
AcDbArc
 50
0.0
 51
32.61924307119171
  0
LINE
  5
10EE3
330
1F
100
AcDbEntity
  8
DRG
100
AcDbLine
 10
784.4750509320143
 20
633.118260238649
 30
0.0
 11
788.0840407525062
 21
627.4792136441283
 31
0.0
  0
ARC
  5
10EE4
330
1F
100
AcDbEntity
  8
DRG
100
AcDbCircle
 10
786.9190517877394
 20
621.1555192079829
 30
0.0
 40
1.672211111813496
100
AcDbArc
 50
270.0
 51
0.0
  0
LINE
  5
11021
330
1F
100
AcDbEntity
  8
0
100
AcDbLine
 10
766.5434697327295
 20
611.2114676458662
 30
0.0
 11
789.5434697327296
 21
611.2114676458662
 31
0.0
  0
LINE
  5
11022
330
1F
100
AcDbEntity
  8
0
100
AcDbLine
 10
789.5434697327296
 20
611.2114676458662
 30
0.0
 11
789.5434697327296
 21
607.7114676458663
 31
0.0
  0
LINE
  5
11023
330
1F
100
AcDbEntity
  8
0
100
AcDbLine
 10
789.5434697327296
 20
607.7114676458663
 30
0.0
 11
766.5434697327295
 21
607.7114676458663
 31
0.0
  0
LINE
  5
11024
330
1F
100
AcDbEntity
  8
0
100
AcDbLine
 10
766.5434697327295
 20
607.7114676458663
 30
0.0
 11
766.5434697327295
 21
611.2114676458662
 31
0.0
  0
LINE
  5
11033
330
1F
100
AcDbEntity
  8
0
100
AcDbLine
 10
786.0434697327296
 20
595.2114676458662
 30
0.0
 11
770.0434697327295
 21
595.2114676458664
 31
0.0
  0
LINE
  5
11034
330
1F
100
AcDbEntity
  8
0
100
AcDbLine
 10
787.0434697327295
 20
607.7114676458664
 30
0.0
 11
786.0434697327296
 21
595.2114676458664
 31
0.0
1001
GENIUS_GENOBJ-N-CEN_13
1002
{
1000
OWNER
1000
GEN
1002
}
1001
GENIUS_GENODEF_13
1002
{
1000
HIER
1070
     0
1002
}
1002
{
1000
MANEDIT
1070
     0
1002
}
1002
{
1000
NOSEL
1070
     0
1002
}
1002
{
1000
BEHIND
1070
     0
1002
}
1002
{
1000
OTHER
1070
     0
1002
}
1002
{
1000
REACTOR
1002
}
  0
LINE
  5
11035
330
1F
100
AcDbEntity
  8
0
100
AcDbLine
 10
769.0434697327296
 20
607.7114676458664
 30
0.0
 11
770.0434697327295
 21
595.2114676458664
 31
0.0
1001
GENIUS_GENOBJ-N-CEN_13
1002
{
1000
OWNER
1000
GEN
1002
}
1001
GENIUS_GENODEF_13
1002
{
1000
HIER
1070
     0
1002
}
1002
{
1000
MANEDIT
1070
     0
1002
}
1002
{
1000
NOSEL
1070
     0
1002
}
1002
{
1000
BEHIND
1070
     0
1002
}
1002
{
1000
OTHER
1070
     0
1002
}
1002
{
1000
REACTOR
1002
}
  0
LINE
  5
11036
330
1F
100
AcDbEntity
  8
0
100
AcDbLine
 10
782.2934697327296
 20
593.2114676458661
 30
0.0
 11
773.7934697327296
 21
593.2114676458663
 31
0.0
  0
LINE
  5
11037
330
1F
100
AcDbEntity
  8
0
100
AcDbLine
 10
782.2934697327296
 20
595.2114676458661
 30
0.0
 11
782.2934697327296
 21
593.2114676458662
 31
0.0
1001
GENIUS_GENOBJ-N-CEN_13
1002
{
1000
OWNER
1000
GEN
1002
}
1001
GENIUS_GENODEF_13
1002
{
1000
HIER
1070
     0
1002
}
1002
{
1000
MANEDIT
1070
     0
1002
}
1002
{
1000
NOSEL
1070
     0
1002
}
1002
{
1000
BEHIND
1070
     0
1002
}
1002
{
1000
OTHER
1070
     0
1002
}
1002
{
1000
REACTOR
1002
}
  0
LINE
  5
11038
330
1F
100
AcDbEntity
  8
0
100
AcDbLine
 10
773.7934697327296
 20
595.2114676458662
 30
0.0
 11
773.7934697327296
 21
593.2114676458663
 31
0.0
1001
GENIUS_GENOBJ-N-CEN_13
1002
{
1000
OWNER
1000
GEN
1002
}
1001
GENIUS_GENODEF_13
1002
{
1000
HIER
1070
     0
1002
}
1002
{
1000
MANEDIT
1070
     0
1002
}
1002
{
1000
NOSEL
1070
     0
1002
}
1002
{
1000
BEHIND
1070
     0
1002
}
1002
{
1000
OTHER
1070
     0
1002
}
1002
{
1000
REACTOR
1002
}
  0
ARC
  5
11062
330
1F
100
AcDbEntity
  8
AM_0N
100
AcDbCircle
 10
778.0434697327295
 20
585.0977083236119
 30
0.0
 40
8.113759322254198
100
AcDbArc
 50
72.38752601447673
 51
107.6124739855232
1001
GENIUS_GENOREF_13
1005
11052
  0
LINE
  5
11063
330
1F
100
AcDbEntity
  8
AM_0N
100
AcDbLine
 10
774.4734277327295
 20
586.2114676458661
 30
0.0
 11
781.6135117327296
 21
586.2114676458661
 31
0.0
1001
GENIUS_GENOREF_13
1005
11052
  0
LINE
  5
11065
330
1F
100
AcDbEntity
  8
AM_0N
100
AcDbLine
 10
782.2935197327296
 20
593.2114676458661
 30
0.0
 11
773.7934197327295
 21
593.2114676458661
 31
0.0
1001
GENIUS_GENOREF_13
1005
11052
  0
LINE
  5
11066
330
1F
100
AcDbEntity
  8
AM_0N
100
AcDbLine
 10
773.1346619827295
 20
592.8311336815728
 30
0.0
 11
773.1346619827295
 21
586.2114676458661
 31
0.0
1001
GENIUS_GENOREF_13
1005
11052
  0
LINE
  5
11067
330
1F
100
AcDbEntity
  8
AM_0N
100
AcDbLine
 10
775.588429494299
 20
592.8311336815728
 30
0.0
 11
775.588429494299
 21
586.2114676458661
 31
0.0
1001
GENIUS_GENOREF_13
1005
11052
  0
ARC
  5
11068
330
1F
100
AcDbEntity
  8
AM_0N
100
AcDbCircle
 10
774.3615457385142
 20
591.0424558963248
 30
0.0
 40
2.169011749541255
100
AcDbArc
 50
55.55312761773671
 51
115.5531276177379
1001
GENIUS_GENOREF_13
1005
11052
  0
LINE
  5
11069
330
1F
100
AcDbEntity
  8
AM_0N
100
AcDbLine
 10
773.1346619827295
 20
592.8311336815728
 30
0.0
 11
773.7934197327295
 21
593.2114676458661
 31
0.0
1001
GENIUS_GENOREF_13
1005
11052
  0
LINE
  5
1106C
330
1F
100
AcDbEntity
  8
AM_0N
100
AcDbLine
 10
773.1346619827295
 20
586.2114676458661
 30
0.0
 11
774.4734277327295
 21
586.2114676458661
 31
0.0
1001
GENIUS_GENOREF_13
1005
11052
  0
LINE
  5
1106D
330
1F
100
AcDbEntity
  8
AM_0N
100
AcDbLine
 10
781.6135117327296
 20
586.2114676458661
 30
0.0
 11
782.9522774827296
 21
586.2114676458661
 31
0.0
1001
GENIUS_GENOREF_13
1005
11052
  0
LINE
  5
1106E
330
1F
100
AcDbEntity
  8
AM_0N
100
AcDbLine
 10
782.9522774827296
 20
592.8311336815728
 30
0.0
 11
782.2935197327296
 21
593.2114676458661
 31
0.0
1001
GENIUS_GENOREF_13
1005
11052
  0
LINE
  5
1106F
330
1F
100
AcDbEntity
  8
AM_0N
100
AcDbLine
 10
780.4985099711602
 20
592.8311336815728
 30
0.0
 11
780.4985099711602
 21
586.2114676458661
 31
0.0
1001
GENIUS_GENOREF_13
1005
11052
  0
ARC
  5
11070
330
1F
100
AcDbEntity
  8
AM_0N
100
AcDbCircle
 10
781.7253937269449
 20
591.0424558963248
 30
0.0
 40
2.169011749541255
100
AcDbArc
 50
64.44687238226201
 51
124.4468723822632
1001
GENIUS_GENOREF_13
1005
11052
  0
LINE
  5
11073
330
1F
100
AcDbEntity
  8
AM_0N
100
AcDbLine
 10
782.9522774827296
 20
592.8311336815728
 30
0.0
 11
782.9522774827296
 21
586.2114676458661
 31
0.0
1001
GENIUS_GENOREF_13
1005
11052
  0
ARC
  5
1109D
330
1F
100
AcDbEntity
  8
DRG
100
AcDbCircle
 10
765.6127053504633
 20
609.657788509059
 30
0.0
 40
1.811143615356182
100
AcDbArc
 50
59.07539030647682
 51
69.99999999999658
  0
ARC
  5
1109E
330
1F
100
AcDbEntity
  8
DRG
100
AcDbCircle
 10
765.6127053504633
 20
609.657788509059
 30
0.0
 40
1.811143615356182
100
AcDbArc
 50
59.07539030647682
 51
69.99999999999658
  0
ARC
  5
110BD
330
1F
100
AcDbEntity
  8
DRG
100
AcDbCircle
 10
790.4742341149954
 20
609.657788509059
 30
0.0
 40
1.811143615356182
100
AcDbArc
 50
110.0000000000034
 51
120.9246096935231
  0
ARC
  5
110BE
330
1F
100
AcDbEntity
  8
DRG
100
AcDbCircle
 10
790.4742341149954
 20
609.657788509059
 30
0.0
 40
1.811143615356182
100
AcDbArc
 50
110.0000000000034
 51
120.9246096935231
  0
LINE
  5
110CB
330
1F
100
AcDbEntity
  8
DRG
100
AcDbLine
 10
789.8547865160892
 20
611.3597067995931
 30
0.0
 11
797.6348256181197
 21
614.1914094541615
 31
0.0
  0
LINE
  5
110CC
330
1F
100
AcDbEntity
  8
DRG
100
AcDbLine
 10
789.8547865160892
 20
611.3597067995931
 30
0.0
 11
797.6348256181197
 21
614.1914094541589
 31
0.0
  0
LINE
  5
11196
330
1F
100
AcDbEntity
  8
0
100
AcDbLine
 10
1152.181164079306
 20
611.2114676458662
 30
0.0
 11
1152.181164079306
 21
607.7114676458663
 31
0.0
  0
LINE
  5
11197
330
1F
100
AcDbEntity
  8
0
100
AcDbLine
 10
1129.181164079306
 20
607.7114676458663
 30
0.0
 11
1129.181164079306
 21
611.2114676458662
 31
0.0
  0
LINE
  5
11198
330
1F
100
AcDbEntity
  8
0
100
AcDbLine
 10
1149.681164079306
 20
607.7114676458664
 30
0.0
 11
1148.681164079306
 21
595.2114676458664
 31
0.0
1001
GENIUS_GENOBJ-N-CEN_13
1002
{
1000
OWNER
1000
GEN
1002
}
1001
GENIUS_GENODEF_13
1002
{
1000
HIER
1070
     0
1002
}
1002
{
1000
MANEDIT
1070
     0
1002
}
1002
{
1000
NOSEL
1070
     0
1002
}
1002
{
1000
BEHIND
1070
     0
1002
}
1002
{
1000
OTHER
1070
     0
1002
}
1002
{
1000
REACTOR
1002
}
  0
LINE
  5
11199
330
1F
100
AcDbEntity
  8
AM_0N
100
AcDbLine
 10
1145.589971829306
 20
592.8311336815728
 30
0.0
 11
1145.589971829306
 21
586.2114676458661
 31
0.0
  0
LINE
  5
1119A
330
1F
100
AcDbEntity
  8
AM_0N
100
AcDbLine
 10
1143.136204317737
 20
592.8311336815728
 30
0.0
 11
1143.136204317737
 21
586.2114676458661
 31
0.0
  0
LINE
  5
1119B
330
1F
100
AcDbEntity
  8
AM_0N
100
AcDbLine
 10
1144.251206079306
 20
586.2114676458661
 30
0.0
 11
1145.589971829306
 21
586.2114676458661
 31
0.0
  0
ARC
  5
1119C
330
1F
100
AcDbEntity
  8
AM_0N
100
AcDbCircle
 10
1144.363088073521
 20
591.0424558963248
 30
0.0
 40
2.169011749541255
100
AcDbArc
 50
64.44687238226201
 51
124.4468723822632
  0
LINE
  5
1119D
330
1F
100
AcDbEntity
  8
AM_0N
100
AcDbLine
 10
1145.589971829306
 20
592.8311336815728
 30
0.0
 11
1144.931214079306
 21
593.2114676458661
 31
0.0
  0
LINE
  5
1119E
330
1F
100
AcDbEntity
  8
0
100
AcDbLine
 10
1144.931164079306
 20
595.2114676458661
 30
0.0
 11
1144.931164079306
 21
593.2114676458662
 31
0.0
1001
GENIUS_GENOBJ-N-CEN_13
1002
{
1000
OWNER
1000
GEN
1002
}
1001
GENIUS_GENODEF_13
1002
{
1000
HIER
1070
     0
1002
}
1002
{
1000
MANEDIT
1070
     0
1002
}
1002
{
1000
NOSEL
1070
     0
1002
}
1002
{
1000
BEHIND
1070
     0
1002
}
1002
{
1000
OTHER
1070
     0
1002
}
1002
{
1000
REACTOR
1002
}
  0
LINE
  5
1119F
330
1F
100
AcDbEntity
  8
AM_0N
100
AcDbLine
 10
1138.226123840875
 20
592.8311336815728
 30
0.0
 11
1138.226123840875
 21
586.2114676458661
 31
0.0
  0
LINE
  5
111A0
330
1F
100
AcDbEntity
  8
0
100
AcDbLine
 10
1136.431164079306
 20
595.2114676458662
 30
0.0
 11
1136.431164079306
 21
593.2114676458663
 31
0.0
1001
GENIUS_GENOBJ-N-CEN_13
1002
{
1000
OWNER
1000
GEN
1002
}
1001
GENIUS_GENODEF_13
1002
{
1000
HIER
1070
     0
1002
}
1002
{
1000
MANEDIT
1070
     0
1002
}
1002
{
1000
NOSEL
1070
     0
1002
}
1002
{
1000
BEHIND
1070
     0
1002
}
1002
{
1000
OTHER
1070
     0
1002
}
1002
{
1000
REACTOR
1002
}
  0
LINE
  5
111A1
330
1F
100
AcDbEntity
  8
AM_0N
100
AcDbLine
 10
1137.111122079306
 20
586.2114676458661
 30
0.0
 11
1144.251206079306
 21
586.2114676458661
 31
0.0
  0
LINE
  5
111A2
330
1F
100
AcDbEntity
  8
AM_0N
100
AcDbLine
 10
1144.931214079306
 20
593.2114676458661
 30
0.0
 11
1136.431114079306
 21
593.2114676458661
 31
0.0
  0
LINE
  5
111A3
330
1F
100
AcDbEntity
  8
0
100
AcDbLine
 10
1144.931164079306
 20
593.2114676458661
 30
0.0
 11
1136.431164079306
 21
593.2114676458663
 31
0.0
  0
ARC
  5
111A4
330
1F
100
AcDbEntity
  8
AM_0N
100
AcDbCircle
 10
1140.681164079306
 20
585.0977083236119
 30
0.0
 40
8.113759322254198
100
AcDbArc
 50
72.38752601447673
 51
107.6124739855232
  0
LINE
  5
111A5
330
1F
100
AcDbEntity
  8
AM_0N
100
AcDbLine
 10
1135.772356329306
 20
592.8311336815728
 30
0.0
 11
1135.772356329306
 21
586.2114676458661
 31
0.0
  0
LINE
  5
111A6
330
1F
100
AcDbEntity
  8
AM_0N
100
AcDbLine
 10
1135.772356329306
 20
586.2114676458661
 30
0.0
 11
1137.111122079306
 21
586.2114676458661
 31
0.0
  0
LINE
  5
111A7
330
1F
100
AcDbEntity
  8
AM_0N
100
AcDbLine
 10
1135.772356329306
 20
592.8311336815728
 30
0.0
 11
1136.431114079306
 21
593.2114676458661
 31
0.0
  0
ARC
  5
111A8
330
1F
100
AcDbEntity
  8
AM_0N
100
AcDbCircle
 10
1136.999240085091
 20
591.0424558963248
 30
0.0
 40
2.169011749541255
100
AcDbArc
 50
55.55312761773671
 51
115.5531276177379
  0
LINE
  5
111A9
330
1F
100
AcDbEntity
  8
0
100
AcDbLine
 10
1131.681164079306
 20
607.7114676458664
 30
0.0
 11
1132.681164079306
 21
595.2114676458664
 31
0.0
1001
GENIUS_GENOBJ-N-CEN_13
1002
{
1000
OWNER
1000
GEN
1002
}
1001
GENIUS_GENODEF_13
1002
{
1000
HIER
1070
     0
1002
}
1002
{
1000
MANEDIT
1070
     0
1002
}
1002
{
1000
NOSEL
1070
     0
1002
}
1002
{
1000
BEHIND
1070
     0
1002
}
1002
{
1000
OTHER
1070
     0
1002
}
1002
{
1000
REACTOR
1002
}
  0
LINE
  5
111AA
330
1F
100
AcDbEntity
  8
0
100
AcDbLine
 10
1152.181164079306
 20
607.7114676458663
 30
0.0
 11
1129.181164079306
 21
607.7114676458663
 31
0.0
  0
LINE
  5
111AB
330
1F
100
AcDbEntity
  8
0
100
AcDbLine
 10
1148.681164079306
 20
595.2114676458662
 30
0.0
 11
1132.681164079306
 21
595.2114676458664
 31
0.0
  0
ARC
  5
111AC
330
1F
100
AcDbEntity
  8
DRG
100
AcDbCircle
 10
1153.111928461572
 20
609.657788509059
 30
0.0
 40
1.811143615356182
100
AcDbArc
 50
110.0000000000034
 51
120.9246096935231
  0
ARC
  5
111AD
330
1F
100
AcDbEntity
  8
DRG
100
AcDbCircle
 10
1153.111928461572
 20
609.657788509059
 30
0.0
 40
1.811143615356182
100
AcDbArc
 50
110.0000000000034
 51
120.9246096935231
  0
ARC
  5
111AE
330
1F
100
AcDbEntity
  8
DRG
100
AcDbCircle
 10
1128.25039969704
 20
609.657788509059
 30
0.0
 40
1.811143615356182
100
AcDbArc
 50
59.07539030647682
 51
69.99999999999658
  0
ARC
  5
111AF
330
1F
100
AcDbEntity
  8
DRG
100
AcDbCircle
 10
1128.25039969704
 20
609.657788509059
 30
0.0
 40
1.811143615356182
100
AcDbArc
 50
59.07539030647682
 51
69.99999999999658
  0
LINE
  5
111B0
330
1F
100
AcDbEntity
  8
0
100
AcDbLine
 10
1129.181164079306
 20
611.2114676458662
 30
0.0
 11
1152.181164079306
 21
611.2114676458662
 31
0.0
  0
DIMENSION
  5
111C2
330
1F
100
AcDbEntity
  8
AM_5
100
AcDbDimension
  2
*D4
 10
919.0829950664733
 20
586.2114676458661
 30
0.0
 11
919.0829950664731
 21
781.8861259054444
 31
0.0
 70
   160
  3
AM_ISO
100
AcDbAlignedDimension
 13
889.9029164596946
 23
977.5607841650225
 33
0.0
 14
782.9522774827296
 24
586.2114676458661
 34
0.0
 50
90.00000000000003
100
AcDbRotatedDimension
1001
ACAD
1000
DSTYLE
1002
{
1070
    40
1040
4.0
1070
   271
1070
     0
1070
   272
1070
     8
1002
}
  0
DIMENSION
  5
11261
330
1F
100
AcDbEntity
  8
AM_5
100
AcDbDimension
  2
*D5
 10
628.6975498626825
 20
1191.643823290134
 30
0.0
 11
619.4975498626823
 21
1231.773571255246
 31
0.0
 70
    32
  3
AM_ISO
100
AcDbAlignedDimension
 13
674.2933896278043
 23
1271.903319220359
 33
0.0
 14
674.2933896278043
 24
1191.643823290134
 34
0.0
 50
90.0
100
AcDbRotatedDimension
1001
ACAD
1000
DSTYLE
1002
{
1070
    40
1040
4.0
1070
   271
1070
     0
1070
   272
1070
     8
1002
}
  0
DIMENSION
  5
11321
330
1F
100
AcDbEntity
  8
AM_5
100
AcDbDimension
  2
*D6
 10
919.0829950664729
 20
977.5607841650225
 30
0.0
 11
909.8829950664729
 21
1000.964103735354
 31
0.0
 70
    32
  3
AM_ISO
100
AcDbAlignedDimension
 13
787.8312131388554
 23
1024.367423305685
 33
0.0
 14
889.9029164596946
 24
977.5607841650225
 34
0.0
 50
90.00000000000003
100
AcDbRotatedDimension
1001
ACAD
1000
DSTYLE
1002
{
1070
    40
1040
4.0
1070
   271
1070
     0
1070
   272
1070
     8
1002
}
  0
DIMENSION
  5
11364
330
1F
100
AcDbEntity
  8
AM_5
100
AcDbDimension
  2
*D7
 10
961.4765423191046
 20
586.2114676458661
 30
0.0
 11
952.2765423191044
 21
805.289445475776
 31
0.0
 70
    32
  3
AM_ISO
100
AcDbAlignedDimension
 13
787.8312131388554
 23
1024.367423305685
 33
0.0
 14
782.9522774827296
 24
586.2114676458661
 34
0.0
 50
90.00000000000003
100
AcDbRotatedDimension
1001
ACAD
1000
DSTYLE
1002
{
1070
    40
1040
4.0
1070
   271
1070
     0
1070
   272
1070
     8
1002
}
  0
TEXT
  5
11451
330
1F
100
AcDbEntity
  8
M_1
 62
     4
100
AcDbText
 10
168.221867604464
 20
1052.630606603415
 30
0.0
 40
17.5
  1
auto drain type
 41
0.75
  7
DAYUS
100
AcDbText
  0
TEXT
  5
115A8
330
1F
100
AcDbEntity
  8
AM_5
100
AcDbText
 10
369.6147895359117
 20
565.8468945005449
 30
0.0
 40
10.0
  1
PT 1/8  
 41
0.75
  7
DAYUS
 11
369.6147895359117
 21
565.8468945005449
 31
0.0
100
AcDbText
 73
     1
  0
INSERT
  5
115A9
330
1F
100
AcDbEntity
  8
AM_5
100
AcDbBlockReference
  2
*S11
 10
0.0
 20
0.0
 30
0.0
  0
INSERT
  5
11E41
330
1F
100
AcDbEntity
  8
AM_5
100
AcDbBlockReference
  2
*S12
 10
0.0
 20
0.0
 30
0.0
  0
TEXT
  5
11E42
330
1F
100
AcDbEntity
  8
AM_5
100
AcDbText
 10
592.7233032574285
 20
1010.385238344206
 30
0.0
 40
11.0
  1
2-PT 2  
 41
0.75
  7
DAYUS
 11
592.7233032574285
 21
1010.385238344206
 31
0.0
100
AcDbText
 73
     1
  0
POLYLINE
  5
11F61
330
1F
100
AcDbEntity
  8
0
 62
     4
100
AcDb2dPolyline
 66
     1
 10
0.0
 20
0.0
 30
0.0
 70
     1
  0
VERTEX
  5
11F62
330
11F61
100
AcDbEntity
  8
0
 62
     4
100
AcDbVertex
100
AcDb2dVertex
 10
1353.491519046959
 20
507.8310898420512
 30
0.0
  0
VERTEX
  5
11F63
330
11F61
100
AcDbEntity
  8
0
 62
     4
100
AcDbVertex
100
AcDb2dVertex
 10
36.56049423761396
 20
507.8310898420512
 30
0.0
  0
VERTEX
  5
11F64
330
11F61
100
AcDbEntity
  8
0
 62
     4
100
AcDbVertex
100
AcDb2dVertex
 10
36.56049423761396
 20
1386.860715772577
 30
0.0
  0
VERTEX
  5
11F65
330
11F61
100
AcDbEntity
  8
0
 62
     4
100
AcDbVertex
100
AcDb2dVertex
 10
1353.491519046959
 20
1386.860715772577
 30
0.0
  0
SEQEND
  5
11F66
330
11F61
100
AcDbEntity
  8
0
 62
     4
  0
TEXT
  5
11F67
330
1F
100
AcDbEntity
  8
LOGO
 62
     6
100
AcDbText
 10
234.9806115101681
 20
381.0113078302989
 30
0.0
 40
23.05814218395495
  1
單位 Unit:
 41
0.9
  7
CHINESET
 72
     4
 11
297.8861056557702
 21
392.5403789222764
 31
0.0
100
AcDbText
  0
TEXT
  5
11F68
330
1F
100
AcDbEntity
  8
LOGO
 62
     6
100
AcDbText
 10
232.7262663591475
 20
427.4519418852617
 30
0.0
 40
23.05814218395495
  1
投影 View:
 41
0.9
  7
CHINESET
 72
     4
 11
297.8861056557702
 21
438.6566632901863
 31
0.0
100
AcDbText
  0
LINE
  5
11F69
330
1F
100
AcDbEntity
  8
LOGO
 62
     1
100
AcDbLine
 10
543.8396222846231
 20
369.4822367383217
 30
0.0
 11
36.56049423761396
 21
369.4822367383217
 31
0.0
  0
TEXT
  5
11F6A
330
1F
100
AcDbEntity
  8
LOGO
  6
CONTINUOUS
 62
     5
100
AcDbText
 10
44.10781349054286
 20
322.5470403451749
 30
0.0
 40
34.58721327593243
  1
金器工業股份有限公司
 41
0.8
  7
LOGO
100
AcDbText
  0
TEXT
  5
11F6B
330
1F
100
AcDbEntity
  8
LOGO
  6
CONTINUOUS
 62
     5
100
AcDbText
 10
54.01150527096979
 20
287.9530506871826
 30
0.0
 40
23.05814218395495
  1
MINDMAN INDUSTRIAL CO.,LTD
 41
0.85
  7
CHINESET
100
AcDbText
  0
TEXT
  5
11F6C
330
1F
100
AcDbEntity
  8
LOGO
 62
     6
100
AcDbText
 10
224.6662104082383
 20
473.2552240770362
 30
0.0
 40
23.05814218395495
  1
比例 Scale:
 41
0.9
  7
CHINESET
 72
     4
 11
297.8861056557702
 21
484.7729476580964
 31
0.0
100
AcDbText
  0
LINE
  5
11F6D
330
1F
100
AcDbEntity
  8
LOGO
 62
     1
100
AcDbLine
 10
543.8396222846231
 20
461.7148054741415
 30
0.0
 11
205.6535369199496
 21
461.7148054741415
 31
0.0
  0
LINE
  5
11F6E
330
1F
100
AcDbEntity
  8
LOGO
 62
     1
100
AcDbLine
 10
543.8396222846231
 20
415.5985211062314
 30
0.0
 11
205.6535369199496
 21
415.5985211062314
 31
0.0
  0
LINE
  5
11F6F
330
1F
100
AcDbEntity
  8
LOGO
 62
     1
100
AcDbLine
 10
1353.491519046959
 20
507.8310898420512
 30
0.0
 11
36.56049423761396
 21
507.8310898420512
 31
0.0
  0
LINE
  5
11F70
330
1F
100
AcDbEntity
  8
LOGO
 62
     1
100
AcDbLine
 10
1353.491519046959
 20
277.2496680025017
 30
0.0
 11
36.56049423761396
 21
277.2496680025017
 31
0.0
  0
POLYLINE
  5
11F71
330
1F
100
AcDbEntity
  8
LOGO
 62
     5
100
AcDb2dPolyline
 66
     1
 10
0.0
 20
0.0
 30
0.0
 70
     1
 40
3.443349232803941
 41
3.443349232803941
  0
VERTEX
  5
11F72
330
11F71
100
AcDbEntity
  8
LOGO
 62
     5
100
AcDbVertex
100
AcDb2dVertex
 10
154.4405205038119
 20
382.0293169958184
 30
0.0
 42
1.0
  0
VERTEX
  5
11F73
330
11F71
100
AcDbEntity
  8
LOGO
 62
     5
100
AcDbVertex
100
AcDb2dVertex
 10
168.2139174350268
 20
382.0293169958184
 30
0.0
 42
1.0
  0
SEQEND
  5
11F74
330
11F71
100
AcDbEntity
  8
LOGO
 62
     5
  0
POLYLINE
  5
11F75
330
1F
100
AcDbEntity
  8
LOGO
 62
     5
100
AcDb2dPolyline
 66
     1
 10
0.0
 20
0.0
 30
0.0
 70
     1
  0
VERTEX
  5
11F76
330
11F75
100
AcDbEntity
  8
LOGO
 62
     5
100
AcDbVertex
100
AcDb2dVertex
 10
156.1704591583738
 20
382.0293169958199
 30
0.0
 42
1.000000057330635
  0
VERTEX
  5
11F77
330
11F75
100
AcDbEntity
  8
LOGO
 62
     5
100
AcDbVertex
100
AcDb2dVertex
 10
166.4839787804694
 20
382.0293169958199
 30
0.0
 42
1.000000057330635
  0
SEQEND
  5
11F78
330
11F75
100
AcDbEntity
  8
LOGO
 62
     5
  0
CIRCLE
  5
11F79
330
1F
100
AcDbEntity
  8
LOGO
 62
     5
100
AcDbCircle
 10
161.3272189694216
 20
382.0293169958199
 30
0.0
 40
5.156759811047182
  0
SOLID
  5
11F7A
330
1F
100
AcDbEntity
  8
LOGO
 62
     5
100
AcDbTrace
 10
126.1464284025096
 20
415.3763637739216
 30
0.0
 11
136.1161640371983
 21
451.9320611011244
 31
0.0
 12
173.5886186641391
 22
502.353712586922
 32
0.0
 13
163.6188830294477
 23
502.353712586922
 33
0.0
  0
SOLID
  5
11F7B
330
1F
100
AcDbEntity
  8
LOGO
 62
     5
100
AcDbTrace
 10
126.1464284025096
 20
407.8131160510553
 30
0.0
 11
136.1161640371983
 21
407.8131160510553
 31
0.0
 12
173.5886186641391
 22
494.7904648640493
 32
0.0
 13
163.6188830294477
 23
458.2347675368463
 33
0.0
  0
SOLID
  5
11F7C
330
1F
100
AcDbEntity
  8
LOGO
 62
     2
100
AcDbTrace
 10
122.0210205536686
 20
407.8131160510553
 30
0.0
 11
126.1464284025096
 21
407.8131160510553
 31
0.0
 12
173.5886186641391
 22
502.353712586922
 32
0.0
 13
177.714026512981
 23
502.3537125869155
 33
0.0
  0
SOLID
  5
11F7D
330
1F
100
AcDbEntity
  8
LOGO
 62
     5
100
AcDbTrace
 10
173.5886186641391
 20
494.7904648640493
 30
0.0
 11
163.6188830294477
 21
458.2347675368463
 31
0.0
 12
173.5886186641391
 22
407.8131160510519
 32
0.0
 13
163.6188830294477
 23
407.8131160510519
 33
0.0
  0
SOLID
  5
11F7E
330
1F
100
AcDbEntity
  8
LOGO
 62
     5
100
AcDbTrace
 10
112.051284918979
 20
407.8131160510553
 30
0.0
 11
122.0210205536686
 21
407.8131160510553
 31
0.0
 12
112.051284918979
 22
458.2347675368463
 32
0.0
 13
122.0210205536686
 23
494.7904648640493
 33
0.0
  0
SOLID
  5
11F7F
330
1F
100
AcDbEntity
  8
LOGO
 62
     5
100
AcDbTrace
 10
60.4836868085049
 20
407.8131160510553
 30
0.0
 11
70.45342244319545
 21
407.8131160510519
 31
0.0
 12
112.051284918979
 22
502.353712586922
 32
0.0
 13
122.0210205536686
 23
502.3537125869155
 33
0.0
  0
SOLID
  5
11F80
330
1F
100
AcDbEntity
  8
LOGO
 62
     5
100
AcDbTrace
 10
74.57883029203912
 20
407.8131160510553
 30
0.0
 11
84.54856592672967
 21
407.8131160510553
 31
0.0
 12
122.0210205536686
 22
494.7904648640493
 32
0.0
 13
112.051284918979
 23
458.2347675368463
 33
0.0
  0
SOLID
  5
11F81
330
1F
100
AcDbEntity
  8
LOGO
 62
     2
100
AcDbTrace
 10
70.45342244319545
 20
407.8131160510519
 30
0.0
 11
74.57883029203912
 21
407.8131160510553
 31
0.0
 12
122.0210205536686
 22
502.3537125869155
 32
0.0
 13
126.1464284025096
 23
502.3537125869155
 33
0.0
  0
SOLID
  5
11F82
330
1F
100
AcDbEntity
  8
LOGO
 62
     5
100
AcDbTrace
 10
126.1464284025096
 20
502.3537125869155
 30
0.0
 11
136.1161640371983
 21
502.353712586922
 31
0.0
 12
126.1464284025096
 22
415.3763637739216
 32
0.0
 13
136.1161640371983
 23
451.9320611011244
 33
0.0
  0
SOLID
  5
11F83
330
1F
100
AcDbEntity
  8
LOGO
 62
     2
100
AcDbTrace
 10
122.0210205536686
 20
502.3537125869155
 30
0.0
 11
126.1464284025096
 21
502.3537125869155
 31
0.0
 12
122.0210205536686
 22
407.8131160510553
 32
0.0
 13
126.1464284025096
 23
407.8131160510553
 33
0.0
  0
LINE
  5
11F84
330
1F
100
AcDbEntity
  8
LOGO
 62
     1
100
AcDbLine
 10
36.56049423761396
 20
277.2496680025017
 30
0.0
 11
36.56049423761396
 21
507.8310898420512
 31
0.0
  0
SOLID
  5
11F85
330
1F
100
AcDbEntity
  8
LOGO
 62
     5
100
AcDbTrace
 10
70.73788478619462
 20
390.6239166808973
 30
0.0
 11
74.17572466022284
 21
390.6239166808973
 31
0.0
 12
70.73788478619462
 22
373.4347173107426
 32
0.0
 13
74.17572466022284
 23
373.4347173107426
 33
0.0
  0
SOLID
  5
11F86
330
1F
100
AcDbEntity
  8
LOGO
 62
     5
100
AcDbTrace
 10
57.61882024681381
 20
373.4347173107426
 30
0.0
 11
61.05666012084384
 21
373.4347173107426
 31
0.0
 12
70.73788478619462
 22
390.6239166808973
 32
0.0
 13
74.17572466022284
 23
390.6239166808973
 33
0.0
  0
SOLID
  5
11F87
330
1F
100
AcDbEntity
  8
LOGO
 62
     5
100
AcDbTrace
 10
44.49975570743663
 20
373.4347173107426
 30
0.0
 11
47.93759558147121
 21
373.4347173107426
 31
0.0
 12
57.61882024681381
 22
390.6239166808973
 32
0.0
 13
61.05666012084384
 23
390.6239166808973
 33
0.0
  0
SOLID
  5
11F88
330
1F
100
AcDbEntity
  8
LOGO
 62
     5
100
AcDbTrace
 10
57.61882024681381
 20
390.6239166808973
 30
0.0
 11
61.05666012084384
 21
390.6239166808973
 31
0.0
 12
57.61882024681381
 22
373.4347173107426
 32
0.0
 13
61.05666012084384
 23
373.4347173107426
 33
0.0
  0
POLYLINE
  5
11F89
330
1F
100
AcDbEntity
  8
LOGO
 62
     5
100
AcDb2dPolyline
 66
     1
 10
0.0
 20
0.0
 30
0.0
 70
     1
 40
3.443349232803941
 41
3.443349232803941
  0
VERTEX
  5
11F8A
330
11F89
100
AcDbEntity
  8
LOGO
 62
     5
100
AcDbVertex
100
AcDb2dVertex
 10
105.1645864533684
 20
382.0293169958184
 30
0.0
 42
1.0
  0
VERTEX
  5
11F8B
330
11F89
100
AcDbEntity
  8
LOGO
 62
     5
100
AcDbVertex
100
AcDb2dVertex
 10
118.937983384585
 20
382.0293169958184
 30
0.0
 42
1.0
  0
SEQEND
  5
11F8C
330
11F89
100
AcDbEntity
  8
LOGO
 62
     5
  0
SOLID
  5
11F8D
330
1F
100
AcDbEntity
  8
LOGO
 62
     5
100
AcDbTrace
 10
117.2077009460417
 20
395.7806764919463
 30
0.0
 11
120.6455408200686
 21
395.7806764919463
 31
0.0
 12
117.2077009460417
 22
373.4347173107426
 32
0.0
 13
120.6455408200686
 23
373.4347173107426
 33
0.0
  0
POLYLINE
  5
11F8E
330
1F
100
AcDbEntity
  8
LOGO
 62
     5
100
AcDb2dPolyline
 66
     1
 10
0.0
 20
0.0
 30
0.0
 40
3.443349232803941
 41
3.443349232803941
  0
VERTEX
  5
11F8F
330
11F8E
100
AcDbEntity
  8
LOGO
 62
     5
100
AcDbVertex
100
AcDb2dVertex
 10
97.73475777002296
 20
383.748236932834
 30
0.0
 42
1.0
  0
VERTEX
  5
11F90
330
11F8E
100
AcDbEntity
  8
LOGO
 62
     5
100
AcDbVertex
100
AcDb2dVertex
 10
87.40471007161067
 20
383.748236932834
 30
0.0
 42
1.0
  0
SEQEND
  5
11F91
330
11F8E
100
AcDbEntity
  8
LOGO
 62
     5
  0
SOLID
  5
11F92
330
1F
100
AcDbEntity
  8
LOGO
 62
     5
100
AcDbTrace
 10
78.24528651769014
 20
390.6239166808973
 30
0.0
 11
81.68312639172837
 21
390.6239166808973
 31
0.0
 12
78.24528651769014
 22
373.4347173107362
 32
0.0
 13
81.68312639172837
 23
373.4347173107426
 33
0.0
  0
SOLID
  5
11F93
330
1F
100
AcDbEntity
  8
LOGO
 62
     5
100
AcDbTrace
 10
85.69405417275721
 20
390.6239166808973
 30
0.0
 11
89.13189404678542
 21
390.6239166808973
 31
0.0
 12
85.69405417275721
 22
373.4347173107426
 32
0.0
 13
89.13189404678542
 23
373.4347173107426
 33
0.0
  0
SOLID
  5
11F94
330
1F
100
AcDbEntity
  8
LOGO
 62
     5
100
AcDbTrace
 10
78.24528651769014
 20
393.0304045927178
 30
0.0
 11
81.68312639172837
 21
393.0304045927178
 31
0.0
 12
78.24528651769014
 22
395.7806764919463
 32
0.0
 13
81.68312639172837
 23
395.7806764919463
 33
0.0
  0
SOLID
  5
11F95
330
1F
100
AcDbEntity
  8
LOGO
 62
     5
100
AcDbTrace
 10
96.00757379484821
 20
383.748236932834
 30
0.0
 11
99.44541366888188
 21
383.748236932834
 31
0.0
 12
96.00757379484821
 22
373.4347173107426
 32
0.0
 13
99.44541366888188
 23
373.4347173107426
 33
0.0
  0
POLYLINE
  5
11F96
330
1F
100
AcDbEntity
  8
LOGO
 62
     5
100
AcDb2dPolyline
 66
     1
 10
0.0
 20
0.0
 30
0.0
 40
3.443349232803941
 41
3.443349232803941
  0
VERTEX
  5
11F97
330
11F96
100
AcDbEntity
  8
LOGO
 62
     5
100
AcDbVertex
100
AcDb2dVertex
 10
147.0106918204655
 20
383.748236932834
 30
0.0
 42
1.0
  0
VERTEX
  5
11F98
330
11F96
100
AcDbEntity
  8
LOGO
 62
     5
100
AcDbVertex
100
AcDb2dVertex
 10
136.6806441220533
 20
383.748236932834
 30
0.0
 42
1.0
  0
SEQEND
  5
11F99
330
11F96
100
AcDbEntity
  8
LOGO
 62
     5
  0
SOLID
  5
11F9A
330
1F
100
AcDbEntity
  8
LOGO
 62
     5
100
AcDbTrace
 10
124.656468601107
 20
390.6239166808973
 30
0.0
 11
128.094308475137
 21
390.6239166808973
 31
0.0
 12
124.656468601107
 22
373.4347173107426
 32
0.0
 13
128.094308475137
 23
373.4347173107426
 33
0.0
  0
SOLID
  5
11F9B
330
1F
100
AcDbEntity
  8
LOGO
 62
     5
100
AcDbTrace
 10
134.9699882231993
 20
383.748236932834
 30
0.0
 11
138.407828097228
 21
383.748236932834
 31
0.0
 12
134.9699882231993
 22
373.4347173107426
 32
0.0
 13
138.407828097228
 23
373.4347173107426
 33
0.0
  0
POLYLINE
  5
11F9C
330
1F
100
AcDbEntity
  8
LOGO
 62
     5
100
AcDb2dPolyline
 66
     1
 10
0.0
 20
0.0
 30
0.0
 40
3.443349232803941
 41
3.443349232803941
  0
VERTEX
  5
11F9D
330
11F9C
100
AcDbEntity
  8
LOGO
 62
     5
100
AcDbVertex
100
AcDb2dVertex
 10
136.6971721983745
 20
383.748236932834
 30
0.0
 42
1.0
  0
VERTEX
  5
11F9E
330
11F9C
100
AcDbEntity
  8
LOGO
 62
     5
100
AcDbVertex
100
AcDb2dVertex
 10
126.3671244999618
 20
383.748236932834
 30
0.0
 42
1.0
  0
SEQEND
  5
11F9F
330
11F9C
100
AcDbEntity
  8
LOGO
 62
     5
  0
SOLID
  5
11FA0
330
1F
100
AcDbEntity
  8
LOGO
 62
     5
100
AcDbTrace
 10
145.2835078452917
 20
383.748236932834
 30
0.0
 11
148.721347719319
 21
383.748236932834
 31
0.0
 12
145.2835078452917
 22
373.4347173107362
 32
0.0
 13
148.721347719319
 23
373.4347173107362
 33
0.0
  0
LINE
  5
11FA1
330
1F
100
AcDbEntity
  8
LOGO
 62
     1
100
AcDbLine
 10
205.6535369199496
 20
369.4822367383214
 30
0.0
 11
205.6535369199496
 21
507.8310898420512
 31
0.0
  0
SOLID
  5
11FA2
330
1F
100
AcDbEntity
  8
LOGO
 62
     5
100
AcDbTrace
 10
177.714026512981
 20
407.8131160510519
 30
0.0
 11
187.6837621476706
 21
407.8131160510519
 31
0.0
 12
177.714026512981
 22
502.3537125869155
 32
0.0
 13
187.6837621476706
 23
502.353712586922
 33
0.0
  0
SOLID
  5
11FA3
330
1F
100
AcDbEntity
  8
LOGO
 62
     2
100
AcDbTrace
 10
173.5886186641391
 20
502.353712586922
 30
0.0
 11
177.714026512981
 21
502.3537125869155
 31
0.0
 12
173.5886186641391
 22
407.8131160510519
 32
0.0
 13
177.714026512981
 23
407.8131160510519
 33
0.0
  0
SOLID
  5
11FA4
330
1F
100
AcDbEntity
  8
LOGO
 62
     5
100
AcDbTrace
 10
184.245922273641
 20
383.748236932834
 30
0.0
 11
187.6837621476706
 21
383.7482369328336
 31
0.0
 12
184.245922273641
 22
373.4347173107426
 32
0.0
 13
187.6837621476706
 23
373.4347173107426
 33
0.0
  0
POLYLINE
  5
11FA5
330
1F
100
AcDbEntity
  8
LOGO
 62
     5
100
AcDb2dPolyline
 66
     1
 10
0.0
 20
0.0
 30
0.0
 40
3.443349232803941
 41
3.443349232803941
  0
VERTEX
  5
11FA6
330
11FA5
100
AcDbEntity
  8
LOGO
 62
     5
100
AcDbVertex
100
AcDb2dVertex
 10
185.9731062488162
 20
383.748236932834
 30
0.0
 42
1.0
  0
VERTEX
  5
11FA7
330
11FA5
100
AcDbEntity
  8
LOGO
 62
     5
100
AcDbVertex
100
AcDb2dVertex
 10
175.6430585504035
 20
383.748236932834
 30
0.0
 42
1.0
  0
SEQEND
  5
11FA8
330
11FA5
100
AcDbEntity
  8
LOGO
 62
     5
  0
SOLID
  5
11FA9
330
1F
100
AcDbEntity
  8
LOGO
 62
     5
100
AcDbTrace
 10
173.9324026515432
 20
373.4347173107426
 30
0.0
 11
177.3702425255787
 21
373.4347173107426
 31
0.0
 12
173.9324026515432
 22
390.6239166808973
 32
0.0
 13
177.3702425255787
 23
390.6239166808973
 33
0.0
  0
SOLID
  5
11FAA
330
1F
100
AcDbEntity
  8
LOGO
 62
     5
100
AcDbTrace
 10
166.4836349964871
 20
390.6239166808973
 30
0.0
 11
169.9214748705153
 21
390.6239166808973
 31
0.0
 12
166.4836349964871
 22
373.4347173107426
 32
0.0
 13
169.9214748705153
 23
373.4347173107426
 33
0.0
  0
LINE
  5
11FAB
330
1F
100
AcDbEntity
  8
LOGO
 62
     5
100
AcDbLine
 10
187.6837621476706
 20
373.4347173107426
 30
0.0
 11
187.6837621476706
 21
383.748236932834
 31
0.0
  0
TEXT
  5
11FAC
330
1F
100
AcDbEntity
  8
LOGO
  6
CONTINUOUS
 62
     7
100
AcDbText
 10
899.0582964909156
 20
430.9706158955347
 30
0.0
 40
38.43023697325827
  1
MAF901
  7
CHINESET
 72
     1
 11
998.7939114929432
 21
450.1857343821638
 31
0.0
100
AcDbText
 73
     2
  0
LINE
  5
11FAD
330
1F
100
AcDbEntity
  8
LOGO
 62
     6
100
AcDbLine
 10
1141.150409529499
 20
484.7729476580964
 30
0.0
 11
860.9941343019068
 21
484.7729476580964
 31
0.0
  0
LINE
  5
11FAE
330
1F
100
AcDbEntity
  8
LOGO
 62
     6
100
AcDbLine
 10
1141.150409529499
 20
415.5985211062314
 30
0.0
 11
860.9941343019068
 21
415.5985211062314
 31
0.0
  0
TEXT
  5
11FAF
330
1F
100
AcDbEntity
  8
LOGO
 62
     7
100
AcDbText
 10
562.7138387893309
 20
450.0987458733158
 30
0.0
 40
46.11628436790991
  1
訂購代號:
  7
CHINESET
100
AcDbText
  0
TEXT
  5
11FB0
330
1F
100
AcDbEntity
  8
LOGO
 62
     7
100
AcDbText
 10
557.1980769348242
 20
406.8172926123156
 30
0.0
 40
30.74418957860661
  1
Order example:
 41
0.8
  7
CHINESET
100
AcDbText
  0
LINE
  5
11FB1
330
1F
100
AcDbEntity
  8
LOGO
  6
CONTINUOUS
 62
     6
100
AcDbLine
 10
474.9751578653886
 20
446.5502262901909
 30
0.0
 11
516.9460831009819
 21
452.0940849045445
 31
0.0
  0
CIRCLE
  5
11FB2
330
1F
100
AcDbEntity
  8
LOGO
  6
CONTINUOUS
 62
     6
100
AcDbCircle
 10
432.8137087120158
 20
438.705984825053
 30
0.0
 40
13.38810007949152
  0
LINE
  5
11FB3
330
1F
100
AcDbEntity
  8
LOGO
 62
     6
100
AcDbLine
 10
516.9460831009819
 20
425.3178847455616
 30
0.0
 11
516.9460831009819
 21
452.0940849045445
 31
0.0
  0
LINE
  5
11FB4
330
1F
100
AcDbEntity
  8
LOGO
 62
     1
100
AcDbLine
 10
390.1186743915886
 20
369.4822367383214
 30
0.0
 11
390.1186743915886
 21
507.8310898420512
 31
0.0
  0
TEXT
  5
11FB5
330
1F
100
AcDbEntity
  8
LOGO
 62
     6
100
AcDbText
 10
424.7096896493058
 20
381.0113078302989
 30
0.0
 40
23.05814218395495
  1
m/m
  7
CHINESET
 72
     1
 11
465.3359401638931
 21
392.5403789222764
 31
0.0
100
AcDbText
 73
     2
  0
CIRCLE
  5
11FB6
330
1F
100
AcDbEntity
  8
LOGO
  6
CONTINUOUS
 62
     6
100
AcDbCircle
 10
432.8137087120158
 20
438.705984825053
 30
0.0
 40
7.844241465137963
  0
LINE
  5
11FB7
330
1F
100
AcDbEntity
  8
LOGO
  6
CONTINUOUS
 62
     6
100
AcDbLine
 10
474.9751578653886
 20
430.8617433599152
 30
0.0
 11
516.9460831009819
 21
425.3178847455616
 31
0.0
  0
LINE
  5
11FB8
330
1F
100
AcDbEntity
  8
LOGO
 62
     6
100
AcDbLine
 10
474.9751578653886
 20
430.8617433599152
 30
0.0
 11
474.9751578653886
 21
446.5502262901911
 31
0.0
  0
TEXT
  5
11FB9
330
1F
100
AcDbEntity
  8
LOGO
 62
     6
100
AcDbText
 10
424.7096896493058
 20
473.2438765661189
 30
0.0
 40
23.05814218395495
  1
1 : 1
  7
CHINESET
 72
     1
 11
465.3359401638931
 21
484.7729476580964
 31
0.0
100
AcDbText
 73
     2
  0
LINE
  5
11FBA
330
1F
100
AcDbEntity
  8
LOGO
 62
     1
100
AcDbLine
 10
543.8396222846231
 20
277.2496680025017
 30
0.0
 11
543.8396222846231
 21
507.8310898420512
 31
0.0
  0
LINE
  5
11FBB
330
1F
100
AcDbEntity
  8
LOGO
 62
     6
100
AcDbLine
 10
860.9941343019068
 20
484.7729476580964
 30
0.0
 11
860.9941343019068
 21
415.5985211062314
 31
0.0
  0
TEXT
  5
11FBC
330
1F
100
AcDbEntity
  8
LOGO
  6
CONTINUOUS
 62
     6
100
AcDbText
 10
964.4720462268873
 20
306.0723457324451
 30
0.0
 40
19.21511848662913
  1
Model
  7
CHINESET
 72
     4
 11
1001.072271915704
 21
315.6799049757596
 31
0.0
100
AcDbText
  0
LINE
  5
11FBD
330
1F
100
AcDbEntity
  8
LOGO
 62
     6
100
AcDbLine
 10
1077.932745862221
 20
381.0113078302988
 30
0.0
 11
924.2117979691874
 21
381.0113078302988
 31
0.0
  0
LINE
  5
11FBE
330
1F
100
AcDbEntity
  8
LOGO
 62
     6
100
AcDbLine
 10
1077.932745862221
 20
296.4647864891308
 30
0.0
 11
924.2117979691874
 21
296.4647864891306
 31
0.0
  0
TEXT
  5
11FBF
330
1F
100
AcDbEntity
  8
LOGO
 62
     6
100
AcDbText
 10
970.3280823370981
 20
339.5248079166478
 30
0.0
 40
30.74418957860661
  1
型式
  7
CHINESET
 72
     4
 11
1001.072271915704
 21
354.1101419490182
 31
0.0
100
AcDbText
  0
LINE
  5
11FC0
330
1F
100
AcDbEntity
  8
LOGO
 62
     6
100
AcDbLine
 10
924.2117979691874
 20
381.0113078302988
 30
0.0
 11
924.2117979691874
 21
296.4647864891306
 31
0.0
  0
LINE
  5
11FC1
330
1F
100
AcDbEntity
  8
LOGO
 62
     6
100
AcDbLine
 10
1001.072271915704
 20
415.5985211062314
 30
0.0
 11
1001.072271915704
 21
381.0113078302988
 31
0.0
  0
LINE
  5
11FC2
330
1F
100
AcDbEntity
  8
LOGO
 62
     6
100
AcDbLine
 10
1077.932745862221
 20
381.0113078302988
 30
0.0
 11
1077.932745862221
 21
296.4647864891308
 31
0.0
  0
LINE
  5
11FC3
330
1F
100
AcDbEntity
  8
LOGO
 62
     6
100
AcDbLine
 10
1324.777586960247
 20
484.7729476580964
 30
0.0
 11
1196.740195464794
 21
484.7729476580964
 31
0.0
  0
LINE
  5
11FC4
330
1F
100
AcDbEntity
  8
LOGO
 62
     6
100
AcDbLine
 10
1340.149681749549
 20
381.0113078302988
 30
0.0
 11
1181.368100675491
 21
381.0113078302988
 31
0.0
  0
LINE
  5
11FC5
330
1F
100
AcDbEntity
  8
LOGO
 62
     6
100
AcDbLine
 10
1324.777586960244
 20
415.5985211062314
 30
0.0
 11
1196.740195464794
 21
415.5985211062314
 31
0.0
  0
LINE
  5
11FC6
330
1F
100
AcDbEntity
  8
LOGO
 62
     6
100
AcDbLine
 10
1340.149681749549
 20
296.4647864891308
 30
0.0
 11
1181.368100675491
 21
296.4647864891306
 31
0.0
  0
TEXT
  5
11FC7
330
1F
100
AcDbEntity
  8
LOGO
  6
CONTINUOUS
 62
     6
100
AcDbText
 10
1208.054566220623
 20
306.0723457324451
 30
0.0
 40
19.21511848662913
  1
Bore size
 41
0.8
  7
CHINESET
 72
     4
 11
1260.75889121252
 21
315.6799049757596
 31
0.0
100
AcDbText
  0
TEXT
  5
11FC8
330
1F
100
AcDbEntity
  8
LOGO
 62
     6
100
AcDbText
 10
1205.131123193728
 20
338.7380471597147
 30
0.0
 40
30.74418957860661
  1
配管口徑
 41
0.9
  7
CHINESET
 72
     4
 11
1260.75889121252
 21
354.110141949018
 31
0.0
100
AcDbText
  0
TEXT
  5
11FC9
330
1F
100
AcDbEntity
  8
LOGO
  6
CONTINUOUS
 62
     7
100
AcDbText
 10
1233.235522484422
 20
430.5348145866621
 30
0.0
 40
38.43023697325827
  1
?A
  7
CHINESET
 72
     1
 11
1264.345714319916
 21
449.7499330732912
 31
0.0
100
AcDbText
 73
     2
  0
LINE
  5
11FCA
330
1F
100
AcDbEntity
  8
LOGO
 62
     6
100
AcDbLine
 10
1196.740195464794
 20
484.7729476580964
 30
0.0
 11
1196.740195464794
 21
415.5985211062314
 31
0.0
  0
LINE
  5
11FCB
330
1F
100
AcDbEntity
  8
LOGO
 62
     6
100
AcDbLine
 10
1141.150409529501
 20
484.7729476580964
 30
0.0
 11
1141.150409529501
 21
415.5985211062314
 31
0.0
  0
LINE
  5
11FCC
330
1F
100
AcDbEntity
  8
LOGO
 62
     6
100
AcDbLine
 10
1181.368100675491
 20
381.0113078302988
 30
0.0
 11
1181.368100675491
 21
296.4647864891306
 31
0.0
  0
LINE
  5
11FCD
330
1F
100
AcDbEntity
  8
LOGO
 62
     6
100
AcDbLine
 10
1262.386726262513
 20
415.5985211062314
 30
0.0
 11
1262.386726262513
 21
381.0113078302988
 31
0.0
  0
LINE
  5
11FCE
330
1F
100
AcDbEntity
  8
LOGO
  6
CONTINUOUS
 62
     7
100
AcDbLine
 10
1154.232644053622
 20
449.9407076311745
 30
0.0
 11
1184.777546756259
 21
449.9407076311745
 31
0.0
  0
LINE
  5
11FCF
330
1F
100
AcDbEntity
  8
LOGO
 62
     1
100
AcDbLine
 10
1353.491519046959
 20
277.2496680025017
 30
0.0
 11
1353.491519046959
 21
507.8310898420512
 31
0.0
  0
LINE
  5
11FD0
330
1F
100
AcDbEntity
  8
LOGO
 62
     6
100
AcDbLine
 10
1324.777586960247
 20
484.7729476580964
 30
0.0
 11
1324.777586960244
 21
415.5985211062314
 31
0.0
  0
LINE
  5
11FD1
330
1F
100
AcDbEntity
  8
LOGO
 62
     6
100
AcDbLine
 10
1340.149681749549
 20
381.0113078302988
 30
0.0
 11
1340.149681749549
 21
296.1459900427334
 31
0.0
  0
LINE
  5
11FD4
330
1F
100
AcDbEntity
  8
DRG
100
AcDbLine
 10
321.8412783707276
 20
1021.801384360707
 30
0.0
 11
268.0086896370398
 21
1021.801384360707
 31
0.0
  0
LINE
  5
11FD5
330
1F
100
AcDbEntity
  8
DRG
100
AcDbLine
 10
251.8631958039871
 20
942.0312756007877
 30
0.0
 11
335.3483642711812
 21
942.0312756007877
 31
0.0
  0
ARC
  5
11FD6
330
1F
100
AcDbEntity
  8
DRG
100
AcDbCircle
 10
290.7570173549208
 20
1138.819988410868
 30
0.0
 40
121.5366354195563
100
AcDbArc
 50
259.1727140742786
 51
271.9652817534049
  0
LINE
  5
11FD7
330
1F
100
AcDbEntity
  8
DRG
100
AcDbLine
 10
232.5770585068676
 20
889.6668483780171
 30
0.0
 11
335.3483642711812
 21
889.6668483780171
 31
0.0
  0
LINE
  5
11FD8
330
1F
100
AcDbEntity
  8
DRG
100
AcDbLine
 10
247.1332743307475
 20
894.3649652129604
 30
0.0
 11
335.3483642711812
 21
894.3649652129604
 31
0.0
  0
LINE
  5
11FD9
330
1F
100
AcDbEntity
  8
DRG
100
AcDbLine
 10
247.9162938032379
 20
889.6668483780198
 30
0.0
 11
335.3483642711812
 21
889.6668483780198
 31
0.0
  0
ARC
  5
11FDA
330
1F
100
AcDbEntity
  8
DRG
100
AcDbCircle
 10
288.364484535424
 20
728.1399266334524
 30
0.0
 40
7.830194724899999
100
AcDbArc
 50
1.4999999999898
 51
69.00000000000274
  0
LINE
  5
11FDB
330
1F
100
AcDbEntity
  8
AM_7
  6
CENTER
 48
2.0
100
AcDbLine
 10
230.3997999959383
 20
977.5607841650225
 30
0.0
 11
447.2078109981453
 21
977.5607841650225
 31
0.0
  0
LINE
  5
11FDC
330
1F
100
AcDbEntity
  8
DRG
100
AcDbLine
 10
242.7888316958442
 20
898.7094078478614
 30
0.0
 11
427.9078968465164
 21
898.709407847863
 31
0.0
  0
ARC
  5
11FDD
330
1F
100
AcDbEntity
  8
DRG
100
AcDbCircle
 10
335.3483642711812
 20
835.8342596443321
 30
0.0
 40
185.9671247163749
100
AcDbArc
 50
90.0
 51
105.9079760979983
  0
LINE
  5
11FDE
330
1F
100
AcDbEntity
  8
DRG
100
AcDbLine
 10
253.1521984595737
 20
889.6668483780171
 30
0.0
 11
258.139798556037
 21
767.1253506233429
 31
0.0
  0
ARC
  5
11FDF
330
1F
100
AcDbEntity
  8
DRG
100
AcDbCircle
 10
287.4787374308441
 20
768.3194840152411
 30
0.0
 40
29.363230218375
100
AcDbArc
 50
182.3307271110043
 51
249.0000000000027
  0
LINE
  5
11FE0
330
1F
100
AcDbEntity
  8
DRG
100
AcDbLine
 10
276.9558968254587
 20
740.9065470246341
 30
0.0
 11
291.1705753635255
 21
735.45004316428
 31
0.0
  0
LINE
  5
11FE1
330
1F
100
AcDbEntity
  8
DRG
100
AcDbLine
 10
267.9922431638956
 20
953.3666629056645
 30
0.0
 11
269.4680997891789
 21
995.6296670365123
 31
0.0
  0
LINE
  5
11FE2
330
1F
100
AcDbEntity
  8
DRG
100
AcDbLine
 10
237.0204877516767
 20
1016.910013677058
 30
0.0
 11
232.5770585068689
 21
889.6668483780198
 31
0.0
  0
LINE
  5
11FE3
330
1F
100
AcDbEntity
  8
DRG
100
AcDbLine
 10
242.7888316958442
 20
898.7094078478614
 30
0.0
 11
247.1332743307475
 21
894.3649652129604
 31
0.0
  0
LINE
  5
11FE4
330
1F
100
AcDbEntity
  8
DRG
100
AcDbLine
 10
247.1332743307475
 20
890.4498678505072
 30
0.0
 11
247.9162938032379
 21
889.6668483780171
 31
0.0
  0
LINE
  5
11FE5
330
1F
100
AcDbEntity
  8
DRG
100
AcDbLine
 10
247.1332743307475
 20
894.3649652129604
 30
0.0
 11
247.1332743307475
 21
890.4498678505072
 31
0.0
  0
ARC
  5
11FE6
330
1F
100
AcDbEntity
  8
DRG
100
AcDbCircle
 10
256.2541059911373
 20
953.7765676881388
 30
0.0
 40
11.74529208735
100
AcDbArc
 50
270.0
 51
357.9999999999965
  0
LINE
  5
11FE7
330
1F
100
AcDbEntity
  8
DRG
100
AcDbLine
 10
244.0377710221475
 20
934.4743507308681
 30
0.0
 11
242.7888316958442
 21
898.7094078478614
 31
0.0
  0
ARC
  5
11FE8
330
1F
100
AcDbEntity
  8
DRG
100
AcDbCircle
 10
251.8631958039871
 20
934.201080875888
 30
0.0
 40
7.830194724899999
100
AcDbArc
 50
90.0
 51
177.9999999999965
  0
LINE
  5
11FE9
330
1F
100
AcDbEntity
  8
DRG
100
AcDbLine
 10
238.5309187370485
 20
1018.420444662428
 30
0.0
 11
267.9264713259012
 21
1019.446959978468
 31
0.0
  0
ARC
  5
11FEA
330
1F
100
AcDbEntity
  8
DRG
100
AcDbCircle
 10
238.5855727080441
 20
1016.85535970606
 30
0.0
 40
1.56603894498
100
AcDbArc
 50
92.00000000000365
 51
177.9999999999965
  0
ARC
  5
11FEB
330
1F
100
AcDbEntity
  8
DRG
100
AcDbCircle
 10
290.0098398415039
 20
994.9123336671858
 30
0.0
 40
20.5542611528625
100
AcDbArc
 50
105.9079760979983
 51
177.9999999999965
  0
LINE
  5
11FEC
330
1F
100
AcDbEntity
  8
DRG
100
AcDbLine
 10
268.0086896370398
 20
1021.801384360707
 30
0.0
 11
267.9266216119526
 21
1019.451263607864
 31
0.0
  0
DIMENSION
  5
11FED
330
1F
100
AcDbEntity
  8
AM_5
100
AcDbDimension
  2
*D10
 10
518.7814368575553
 20
599.4661981926334
 30
0.0
 11
509.580255755193
 21
811.9168107491596
 31
0.0
 70
    32
  3
AM_ISO
100
AcDbAlignedDimension
 13
345.1361076773062
 23
1024.367423305685
 33
0.0
 14
341.9600153680792
 24
599.4661981926334
 34
0.0
 50
90.0
100
AcDbRotatedDimension
1001
ACAD
1000
DSTYLE
1002
{
1070
    40
1040
4.0
1070
   271
1070
     0
1070
   272
1070
     8
1002
}
  0
DIMENSION
  5
11FEE
330
1F
100
AcDbEntity
  8
AM_5
100
AcDbDimension
  2
*D8
 10
476.3878896049239
 20
599.4661981926334
 30
0.0
 11
476.3878896049239
 21
781.8861259054444
 31
0.0
 70
   160
  3
AM_ISO
100
AcDbAlignedDimension
 13
447.2078109981453
 23
977.5607841650225
 33
0.0
 14
341.9600153680792
 24
599.4661981926334
 34
0.0
 50
90.0
100
AcDbRotatedDimension
1001
ACAD
1000
DSTYLE
1002
{
1070
    40
1040
4.0
1070
   271
1070
     0
1070
   272
1070
     8
1002
}
  0
LINE
  5
11FEF
330
1F
100
AcDbEntity
  8
DRG
100
AcDbLine
 10
417.5445300827889
 20
889.6668483780198
 30
0.0
 11
412.5569299863259
 21
767.1253506233429
 31
0.0
  0
LINE
  5
11FF0
330
1F
100
AcDbEntity
  8
AM_7
  6
CENTER
 48
2.0
100
AcDbLine
 10
335.3483642711812
 20
594.9436754549329
 30
0.0
 11
335.3483642711812
 21
1029.406763458718
 31
0.0
  0
ARC
  5
11FF1
330
1F
100
AcDbEntity
  8
DRG
100
AcDbCircle
 10
383.2179911115188
 20
768.3194840152411
 30
0.0
 40
29.363230218375
100
AcDbArc
 50
290.9999999999972
 51
357.6692728889956
  0
LINE
  5
11FF2
330
1F
100
AcDbEntity
  8
DRG
100
AcDbLine
 10
366.8386054187704
 20
692.0085505989365
 30
0.0
 11
364.8386502352268
 21
627.8697629741475
 31
0.0
  0
LINE
  5
11FF3
330
1F
100
AcDbEntity
  8
DRG
100
AcDbLine
 10
303.8259790556569
 20
693.0394144720776
 30
0.0
 11
305.8580783071336
 21
627.8697629741475
 31
0.0
  0
LINE
  5
11FF4
330
1F
100
AcDbEntity
  8
DRG
100
AcDbLine
 10
331.5051935114358
 20
688.7436054918325
 30
0.0
 11
331.5051935114358
 21
633.118260238649
 31
0.0
  0
LINE
  5
11FF5
330
1F
100
AcDbEntity
  8
DRG
100
AcDbLine
 10
330.2983769268357
 20
633.118260238649
 30
0.0
 11
330.2983769268359
 21
688.7436054918325
 31
0.0
  0
LINE
  5
11FF6
330
1F
100
AcDbEntity
  8
DRG
100
AcDbLine
 10
332.5492194747548
 20
688.7436054918325
 30
0.0
 11
332.5492194747548
 21
633.118260238649
 31
0.0
  0
LINE
  5
11FF7
330
1F
100
AcDbEntity
  8
DRG
100
AcDbLine
 10
339.191535030927
 20
688.7436054918325
 30
0.0
 11
339.191535030927
 21
633.118260238649
 31
0.0
  0
LINE
  5
11FF8
330
1F
100
AcDbEntity
  8
DRG
100
AcDbLine
 10
340.3983516155258
 20
633.118260238649
 30
0.0
 11
340.3983516155258
 21
688.7436054918325
 31
0.0
  0
LINE
  5
11FF9
330
1F
100
AcDbEntity
  8
DRG
100
AcDbLine
 10
338.1475090676069
 20
688.7436054918325
 30
0.0
 11
338.1475090676069
 21
633.118260238649
 31
0.0
  0
LINE
  5
12000
330
1F
100
AcDbEntity
  8
DRG
100
AcDbLine
 10
323.5370474878218
 20
611.3597067995931
 30
0.0
 11
315.7570083857899
 21
614.1914094541615
 31
0.0
  0
LINE
  5
12001
330
1F
100
AcDbEntity
  8
DRG
100
AcDbLine
 10
323.5370474878218
 20
611.3597067995931
 30
0.0
 11
315.7570083857899
 21
614.1914094541589
 31
0.0
  0
LINE
  5
1201D
330
1F
100
AcDbEntity
  8
DRG
100
AcDbLine
 10
326.4727822161721
 20
619.4833080961707
 30
0.0
 11
344.2239463261903
 21
619.4833080961707
 31
0.0
  0
LINE
  5
1201E
330
1F
100
AcDbEntity
  8
CEN
100
AcDbLine
 10
323.382036786701
 20
624.3731425508327
 30
0.0
 11
347.492181992689
 21
624.3731425508327
 31
0.0
  0
LINE
  5
1201F
330
1F
100
AcDbEntity
  8
DRG
100
AcDbLine
 10
328.9167830719002
 20
633.118260238649
 30
0.0
 11
341.7799454704649
 21
633.118260238649
 31
0.0
  0
ARC
  5
12020
330
1F
100
AcDbEntity
  8
DRG
100
AcDbCircle
 10
326.4727822161721
 20
621.1555192079829
 30
0.0
 40
1.672211111813496
100
AcDbArc
 50
180.0
 51
270.0
  0
LINE
  5
12021
330
1F
100
AcDbEntity
  8
DRG
100
AcDbLine
 10
328.9167830719002
 20
633.118260238649
 30
0.0
 11
325.3077932514056
 21
627.4792136441283
 31
0.0
  0
CIRCLE
  5
12022
330
1F
100
AcDbEntity
  8
DRG
100
AcDbCircle
 10
328.1192670031868
 20
624.3731425508327
 30
0.0
 40
2.65230703799262
  0
LINE
  5
12023
330
1F
100
AcDbEntity
  8
DRG
100
AcDbLine
 10
325.9113665484647
 20
622.9034799345086
 30
0.0
 11
329.5889296195118
 21
626.581043005556
 31
0.0
  0
LINE
  5
12024
330
1F
100
AcDbEntity
  8
DRG
100
AcDbLine
 10
326.6496043868628
 20
622.1652420961095
 30
0.0
 11
330.3271674579091
 21
625.8428051671569
 31
0.0
  0
ARC
  5
12025
330
1F
100
AcDbEntity
  8
DRG
100
AcDbCircle
 10
328.0163617039984
 20
625.7457298344693
 30
0.0
 40
3.215790599641339
100
AcDbArc
 50
147.3807569288089
 51
180.0
  0
LINE
  5
12026
330
1F
100
AcDbEntity
  8
DRG
100
AcDbLine
 10
331.7466787995822
 20
633.118260238649
 30
0.0
 11
331.7466787995822
 21
619.4833080961707
 31
0.0
  0
LINE
  5
12027
330
1F
100
AcDbEntity
  8
0
  6
CENTER
 62
     1
 48
10.0
100
AcDbLine
 10
328.1192670031868
 20
620.8011679160803
 30
0.0
 11
328.1192670031868
 21
627.646954719039
 31
0.0
  0
LINE
  5
12028
330
1F
100
AcDbEntity
  8
DRG
100
AcDbLine
 10
324.800571104357
 20
621.1555192079829
 30
0.0
 11
324.800571104357
 21
625.7457298344693
 31
0.0
  0
ARC
  5
12029
330
1F
100
AcDbEntity
  8
DRG
100
AcDbCircle
 10
344.2239463261903
 20
621.1555192079829
 30
0.0
 40
1.672211111813496
100
AcDbArc
 50
270.0
 51
0.0
  0
LINE
  5
1202A
330
1F
100
AcDbEntity
  8
DRG
100
AcDbLine
 10
341.7799454704649
 20
633.118260238649
 30
0.0
 11
345.3889352909568
 21
627.4792136441283
 31
0.0
  0
ARC
  5
1202B
330
1F
100
AcDbEntity
  8
DRG
100
AcDbCircle
 10
342.6803668383604
 20
625.7457298344693
 30
0.0
 40
3.215790599641339
100
AcDbArc
 50
0.0
 51
32.61924307119171
  0
LINE
  5
1202C
330
1F
100
AcDbEntity
  8
0
  6
CENTER
 62
     1
 48
10.0
100
AcDbLine
 10
342.5774615391742
 20
620.8011679160803
 30
0.0
 11
342.5774615391742
 21
627.646954719039
 31
0.0
  0
LINE
  5
1202D
330
1F
100
AcDbEntity
  8
DRG
100
AcDbLine
 10
345.8961574380027
 20
621.1555192079829
 30
0.0
 11
345.8961574380027
 21
625.7457298344693
 31
0.0
  0
LINE
  5
1202E
330
1F
100
AcDbEntity
  8
DRG
100
AcDbLine
 10
338.950049742777
 20
633.118260238649
 30
0.0
 11
338.950049742777
 21
619.4833080961707
 31
0.0
  0
CIRCLE
  5
1202F
330
1F
100
AcDbEntity
  8
DRG
100
AcDbCircle
 10
342.5774615391742
 20
624.3731425508327
 30
0.0
 40
2.65230703799262
  0
LINE
  5
12030
330
1F
100
AcDbEntity
  8
DRG
100
AcDbLine
 10
340.3695610844524
 20
622.9034799345086
 30
0.0
 11
344.0471241554996
 21
626.581043005556
 31
0.0
  0
LINE
  5
12031
330
1F
100
AcDbEntity
  8
DRG
100
AcDbLine
 10
341.1077989228506
 20
622.1652420961095
 30
0.0
 11
344.7853619938978
 21
625.8428051671569
 31
0.0
  0
ARC
  5
12034
330
1F
100
AcDbEntity
  8
DRG
100
AcDbCircle
 10
355.0200422153095
 20
801.8261784154905
 30
0.0
 40
69.22980748221338
100
AcDbArc
 50
253.4919289964896
 51
286.5080710035103
  0
LINE
  5
12035
330
1F
100
AcDbEntity
  8
DRG
100
AcDbLine
 10
344.5292632178204
 20
693.0394144720776
 30
0.0
 11
366.9544156800668
 21
693.0394144720776
 31
0.0
  0
LINE
  5
12036
330
1F
100
AcDbEntity
  8
DRG
100
AcDbLine
 10
296.7220171439043
 20
708.1042081944008
 30
0.0
 11
373.9747113984585
 21
708.1042081944008
 31
0.0
  0
ARC
  5
12037
330
1F
100
AcDbEntity
  8
DRG
100
AcDbCircle
 10
315.6766863270522
 20
801.8261784154905
 30
0.0
 40
69.22980748221338
100
AcDbArc
 50
253.4919289964896
 51
286.5080710035103
  0
LINE
  5
12038
330
1F
100
AcDbEntity
  8
DRG
100
AcDbLine
 10
303.7423128622936
 20
693.0394144720776
 30
0.0
 11
326.1674653245404
 21
693.0394144720776
 31
0.0
  0
LINE
  5
12039
330
1F
100
AcDbEntity
  8
DRG
100
AcDbLine
 10
313.5016236972633
 20
708.1042081944008
 30
0.0
 11
313.5016236972633
 21
727.44933873201
 31
0.0
  0
LINE
  5
1203A
330
1F
100
AcDbEntity
  8
DRG
100
AcDbLine
 10
296.1919960481545
 20
728.3448972360075
 30
0.0
 11
296.7220171439043
 21
708.1042081944008
 31
0.0
  0
ARC
  5
1203B
330
1F
100
AcDbEntity
  8
DRG
100
AcDbCircle
 10
306.7450319338927
 20
709.0936557466307
 30
0.0
 40
6.433992703503079
100
AcDbArc
 50
188.8463008507772
 51
199.9999999999892
  0
LINE
  5
1203C
330
1F
100
AcDbEntity
  8
DRG
100
AcDbLine
 10
300.6990564682203
 20
706.8931006400226
 30
0.0
 11
303.8259790556569
 21
693.0394144720776
 31
0.0
  0
LINE
  5
1203D
330
1F
100
AcDbEntity
  8
CEN
100
AcDbLine
 10
323.3820367867001
 20
697.4887231796486
 30
0.0
 11
347.492181992688
 21
697.4887231796486
 31
0.0
  0
LINE
  5
1203E
330
1F
100
AcDbEntity
  8
DRG
100
AcDbLine
 10
328.916783071899
 20
688.7436054918325
 30
0.0
 11
341.7799454704641
 21
688.7436054918325
 31
0.0
  0
LINE
  5
1203F
330
1F
100
AcDbEntity
  8
DRG
100
AcDbLine
 10
326.4727822161712
 20
702.3785576343107
 30
0.0
 11
344.2239463261892
 21
702.3785576343107
 31
0.0
  0
LINE
  5
12040
330
1F
100
AcDbEntity
  8
DRG
100
AcDbLine
 10
331.7466787995811
 20
688.7436054918325
 30
0.0
 11
331.7466787995811
 21
702.3785576343107
 31
0.0
  0
LINE
  5
12041
330
1F
100
AcDbEntity
  8
0
  6
CENTER
 62
     1
 48
10.0
100
AcDbLine
 10
328.1192670031857
 20
701.0606978144011
 30
0.0
 11
328.1192670031857
 21
694.2149110114423
 31
0.0
  0
LINE
  5
12042
330
1F
100
AcDbEntity
  8
DRG
100
AcDbLine
 10
324.800571104356
 20
700.7063465224985
 30
0.0
 11
324.800571104356
 21
696.116135896012
 31
0.0
  0
ARC
  5
12043
330
1F
100
AcDbEntity
  8
DRG
100
AcDbCircle
 10
328.0163617039975
 20
696.116135896012
 30
0.0
 40
3.215790599641339
100
AcDbArc
 50
180.0
 51
212.6192430711909
  0
ARC
  5
12044
330
1F
100
AcDbEntity
  8
DRG
100
AcDbCircle
 10
326.4727822161712
 20
700.7063465224985
 30
0.0
 40
1.672211111813496
100
AcDbArc
 50
90.0
 51
180.0
  0
LINE
  5
12045
330
1F
100
AcDbEntity
  8
DRG
100
AcDbLine
 10
326.6496043868619
 20
699.6966236343719
 30
0.0
 11
330.3271674579082
 21
696.0190605633244
 31
0.0
  0
LINE
  5
12046
330
1F
100
AcDbEntity
  8
DRG
100
AcDbLine
 10
328.916783071899
 20
688.7436054918325
 30
0.0
 11
325.3077932514045
 21
694.3826520863531
 31
0.0
  0
LINE
  5
12047
330
1F
100
AcDbEntity
  8
DRG
100
AcDbLine
 10
325.9113665484637
 20
698.9583857959728
 30
0.0
 11
329.5889296195107
 21
695.2808227249254
 31
0.0
  0
CIRCLE
  5
12048
330
1F
100
AcDbEntity
  8
DRG
100
AcDbCircle
 10
328.1192670031857
 20
697.4887231796486
 30
0.0
 40
2.65230703799262
  0
LINE
  5
12049
330
1F
100
AcDbEntity
  8
DRG
100
AcDbLine
 10
345.8961574380018
 20
700.7063465224985
 30
0.0
 11
345.8961574380018
 21
696.116135896012
 31
0.0
  0
ARC
  5
1204A
330
1F
100
AcDbEntity
  8
DRG
100
AcDbCircle
 10
342.6803668383592
 20
696.116135896012
 30
0.0
 40
3.215790599641339
100
AcDbArc
 50
327.3807569288083
 51
0.0
  0
LINE
  5
1204B
330
1F
100
AcDbEntity
  8
0
  6
CENTER
 62
     1
 48
10.0
100
AcDbLine
 10
342.5774615391733
 20
701.0606978144011
 30
0.0
 11
342.5774615391733
 21
694.2149110114423
 31
0.0
  0
LINE
  5
1204C
330
1F
100
AcDbEntity
  8
DRG
100
AcDbLine
 10
338.9500497427759
 20
688.7436054918325
 30
0.0
 11
338.9500497427759
 21
702.3785576343107
 31
0.0
  0
LINE
  5
1204D
330
1F
100
AcDbEntity
  8
DRG
100
AcDbLine
 10
341.1077989228497
 20
699.6966236343719
 30
0.0
 11
344.7853619938967
 21
696.0190605633244
 31
0.0
  0
LINE
  5
1204E
330
1F
100
AcDbEntity
  8
DRG
100
AcDbLine
 10
340.3695610844515
 20
698.9583857959728
 30
0.0
 11
344.0471241554985
 21
695.2808227249254
 31
0.0
  0
ARC
  5
1204F
330
1F
100
AcDbEntity
  8
DRG
100
AcDbCircle
 10
344.2239463261892
 20
700.7063465224985
 30
0.0
 40
1.672211111813496
100
AcDbArc
 50
0.0
 51
90.0
  0
CIRCLE
  5
12050
330
1F
100
AcDbEntity
  8
DRG
100
AcDbCircle
 10
342.5774615391733
 20
697.4887231796486
 30
0.0
 40
2.65230703799262
  0
LINE
  5
12051
330
1F
100
AcDbEntity
  8
DRG
100
AcDbLine
 10
341.7799454704641
 20
688.7436054918325
 30
0.0
 11
345.3889352909559
 21
694.3826520863531
 31
0.0
  0
ARC
  5
12052
330
1F
100
AcDbEntity
  8
DRG
100
AcDbCircle
 10
382.3322440069391
 20
728.1399266334524
 30
0.0
 40
7.830194724899999
100
AcDbArc
 50
110.9999999999972
 51
178.5000000000102
  0
LINE
  5
12053
330
1F
100
AcDbEntity
  8
DRG
100
AcDbLine
 10
357.1951048450985
 20
708.1042081944008
 30
0.0
 11
357.1951048450985
 21
726.8743694951565
 31
0.0
  0
LINE
  5
12054
330
1F
100
AcDbEntity
  8
DRG
100
AcDbLine
 10
374.5047324942083
 20
728.3448972360075
 30
0.0
 11
373.9747113984585
 21
708.1042081944008
 31
0.0
  0
ARC
  5
12055
330
1F
100
AcDbEntity
  8
DRG
100
AcDbCircle
 10
363.9572561314537
 20
709.3837567371483
 30
0.0
 40
6.433992703503079
100
AcDbArc
 50
340.0000000000107
 51
348.5289270160262
  0
ARC
  5
12056
330
1F
100
AcDbEntity
  8
DRG
100
AcDbCircle
 10
373.2694725248034
 20
691.8080253554823
 30
0.0
 40
6.433992703503079
100
AcDbArc
 50
160.0000000000107
 51
178.2140000000025
  0
LINE
  5
12057
330
1F
100
AcDbEntity
  8
DRG
100
AcDbLine
 10
370.0032315971266
 20
707.1832016305402
 30
0.0
 11
367.223497059133
 21
694.0085804620904
 31
0.0
  0
LINE
  5
12058
330
1F
100
AcDbEntity
  8
DRG
100
AcDbLine
 10
379.5261531788371
 20
735.4500431642816
 30
0.0
 11
393.7408317169038
 21
740.9065470246341
 31
0.0
  0
DIMENSION
  5
12059
330
1F
100
AcDbEntity
  8
AM_5
100
AcDbDimension
  2
*D9
 10
476.3878896049237
 20
977.5607841650225
 30
0.0
 11
467.1878896049236
 21
1000.964103735354
 31
0.0
 70
    32
  3
AM_ISO
100
AcDbAlignedDimension
 13
345.1361076773062
 23
1024.367423305685
 33
0.0
 14
447.2078109981453
 24
977.5607841650225
 34
0.0
 50
90.0
100
AcDbRotatedDimension
1001
ACAD
1000
DSTYLE
1002
{
1070
    40
1040
4.0
1070
   271
1070
     0
1070
   272
1070
     8
1002
}
  0
LINE
  5
1205A
330
1F
100
AcDbEntity
  8
DRG
100
AcDbLine
 10
432.1658098053144
 20
1018.420444662428
 30
0.0
 11
402.7702572164591
 21
1019.446959978468
 31
0.0
  0
ARC
  5
1205B
330
1F
100
AcDbEntity
  8
DRG
100
AcDbCircle
 10
414.4426225512229
 20
953.7765676881388
 30
0.0
 40
11.74529208735
100
AcDbArc
 50
182.0000000000034
 51
270.0
  0
LINE
  5
1205C
330
1F
100
AcDbEntity
  8
DRG
100
AcDbLine
 10
438.1196700354942
 20
889.6668483780171
 30
0.0
 11
335.3483642711812
 21
889.6668483780171
 31
0.0
  0
LINE
  5
1205D
330
1F
100
AcDbEntity
  8
DRG
100
AcDbLine
 10
422.7804347391249
 20
889.6668483780198
 30
0.0
 11
335.3483642711812
 21
889.6668483780198
 31
0.0
  0
LINE
  5
1205E
330
1F
100
AcDbEntity
  8
DRG
100
AcDbLine
 10
423.5634542116156
 20
894.3649652129604
 30
0.0
 11
335.3483642711812
 21
894.3649652129604
 31
0.0
  0
LINE
  5
1205F
330
1F
100
AcDbEntity
  8
DRG
100
AcDbLine
 10
418.8335327383747
 20
942.0312756007877
 30
0.0
 11
335.3483642711812
 21
942.0312756007877
 31
0.0
  0
LINE
  5
12060
330
1F
100
AcDbEntity
  8
DRG
100
AcDbLine
 10
402.704485378465
 20
953.3666629056645
 30
0.0
 11
401.228628753184
 21
995.6296670365123
 31
0.0
  0
LINE
  5
12061
330
1F
100
AcDbEntity
  8
DRG
100
AcDbLine
 10
348.8389988804397
 20
1021.330281019217
 30
0.0
 11
335.3483642711812
 21
1021.801384360707
 31
0.0
  0
ARC
  5
12062
330
1F
100
AcDbEntity
  8
DRG
100
AcDbCircle
 10
335.3483642711812
 20
835.8342596443321
 30
0.0
 40
185.9671247163749
100
AcDbArc
 50
74.09202390200164
 51
90.0
  0
LINE
  5
12063
330
1F
100
AcDbEntity
  8
DRG
100
AcDbLine
 10
321.8412783707276
 20
1021.801384360707
 30
0.0
 11
307.4325512031655
 21
1021.801384360707
 31
0.0
  0
LINE
  5
12064
330
1F
100
AcDbEntity
  8
DRG
100
AcDbLine
 10
321.8577296619228
 20
1021.330281019217
 30
0.0
 11
335.3483642711812
 21
1021.801384360707
 31
0.0
  0
LINE
  5
12065
330
1F
100
AcDbEntity
  8
DRG
100
AcDbLine
 10
335.3483642711812
 20
1024.367423305685
 30
0.0
 11
325.5606208650563
 21
1024.367423305685
 31
0.0
  0
LINE
  5
12066
330
1F
100
AcDbEntity
  8
DRG
100
AcDbLine
 10
325.5606208650563
 20
1024.367423305685
 30
0.0
 11
325.4968149053652
 21
1021.540259683019
 31
0.0
  0
LINE
  5
12067
330
1F
100
AcDbEntity
  8
DRG
100
AcDbLine
 10
321.8412783707276
 20
1021.801384360707
 30
0.0
 11
321.8577396897137
 21
1021.329993860863
 31
0.0
  0
LINE
  5
12068
330
1F
100
AcDbEntity
  8
DRG
100
AcDbLine
 10
335.3483642711812
 20
1024.367423305685
 30
0.0
 11
345.1361076773062
 21
1024.367423305685
 31
0.0
  0
LINE
  5
12069
330
1F
100
AcDbEntity
  8
DRG
100
AcDbLine
 10
345.1361076773062
 20
1024.367423305685
 30
0.0
 11
345.1999136369966
 21
1021.540259683019
 31
0.0
  0
LINE
  5
1206A
330
1F
100
AcDbEntity
  8
DRG
100
AcDbLine
 10
348.8554501716332
 20
1021.801384360707
 30
0.0
 11
402.6880389053208
 21
1021.801384360707
 31
0.0
  0
ARC
  5
1206B
330
1F
100
AcDbEntity
  8
DRG
100
AcDbCircle
 10
379.9397111874395
 20
1138.819988410868
 30
0.0
 40
121.5366354195563
100
AcDbArc
 50
268.034718246595
 51
280.8272859257212
  0
LINE
  5
1206C
330
1F
100
AcDbEntity
  8
DRG
100
AcDbLine
 10
348.8554501716355
 20
1021.801384360707
 30
0.0
 11
363.2641773391946
 21
1021.801384360707
 31
0.0
  0
LINE
  5
1206D
330
1F
100
AcDbEntity
  8
DRG
100
AcDbLine
 10
348.8554501716332
 20
1021.801384360707
 30
0.0
 11
348.838988852648
 21
1021.329993860863
 31
0.0
  0
ARC
  5
1206E
330
1F
100
AcDbEntity
  8
DRG
100
AcDbCircle
 10
380.6868887008576
 20
994.9123336671858
 30
0.0
 40
20.5542611528625
100
AcDbArc
 50
2.000000000003498
 51
74.09202390200164
  0
LINE
  5
1206F
330
1F
100
AcDbEntity
  8
DRG
100
AcDbLine
 10
402.688038905323
 20
1021.801384360707
 30
0.0
 11
402.7701069304089
 21
1019.451263607864
 31
0.0
  0
LINE
  5
12070
330
1F
100
AcDbEntity
  8
DRG
100
AcDbLine
 10
433.6762407906858
 20
1016.910013677058
 30
0.0
 11
438.1196700354942
 21
889.6668483780198
 31
0.0
  0
LINE
  5
12071
330
1F
100
AcDbEntity
  8
DRG
100
AcDbLine
 10
427.9078968465164
 20
898.7094078478614
 30
0.0
 11
423.5634542116156
 21
894.3649652129604
 31
0.0
  0
LINE
  5
12072
330
1F
100
AcDbEntity
  8
DRG
100
AcDbLine
 10
423.5634542116156
 20
894.3649652129604
 30
0.0
 11
423.5634542116143
 21
890.4498678505072
 31
0.0
  0
LINE
  5
12073
330
1F
100
AcDbEntity
  8
DRG
100
AcDbLine
 10
423.5634542116143
 20
890.4498678505072
 30
0.0
 11
422.7804347391249
 21
889.6668483780171
 31
0.0
  0
LINE
  5
12074
330
1F
100
AcDbEntity
  8
DRG
100
AcDbLine
 10
426.6589575202129
 20
934.4743507308681
 30
0.0
 11
427.9078968465164
 21
898.7094078478614
 31
0.0
  0
ARC
  5
12075
330
1F
100
AcDbEntity
  8
DRG
100
AcDbCircle
 10
418.8335327383747
 20
934.201080875888
 30
0.0
 40
7.830194724899999
100
AcDbArc
 50
2.000000000003498
 51
90.0
  0
ARC
  5
12076
330
1F
100
AcDbEntity
  8
DRG
100
AcDbCircle
 10
432.1111558343184
 20
1016.85535970606
 30
0.0
 40
1.56603894498
100
AcDbArc
 50
2.000000000003498
 51
87.99999999999636
  0
INSERT
  5
12077
330
1F
100
AcDbEntity
  8
AM_5
100
AcDbBlockReference
  2
*S13
 10
0.0
 20
0.0
 30
0.0
  0
TEXT
  5
12078
330
1F
100
AcDbEntity
  8
AM_5
100
AcDbText
 10
150.0281977958793
 20
1010.385238344206
 30
0.0
 40
11.0
  1
2-PT 2  
 41
0.75
  7
DAYUS
 11
150.0281977958793
 21
1010.385238344206
 31
0.0
100
AcDbText
 73
     1
  0
LINE
  5
120B9
330
1F
100
AcDbEntity
  8
DRG
100
AcDbLine
 10
347.15968105454
 20
611.3597067995931
 30
0.0
 11
354.9397201565704
 21
614.1914094541615
 31
0.0
  0
LINE
  5
120BA
330
1F
100
AcDbEntity
  8
DRG
100
AcDbLine
 10
347.15968105454
 20
611.3597067995931
 30
0.0
 11
354.9397201565704
 21
614.1914094541589
 31
0.0
  0
LINE
  5
120BB
330
1F
100
AcDbEntity
  8
DRG
100
AcDbLine
 10
347.15968105454
 20
611.3597067995931
 30
0.0
 11
354.9397201565704
 21
614.1914094541589
 31
0.0
  0
LINE
  5
120BC
330
1F
100
AcDbEntity
  8
DRG
100
AcDbLine
 10
347.15968105454
 20
611.3597067995931
 30
0.0
 11
354.9397201565704
 21
614.1914094541615
 31
0.0
  0
LINE
  5
120BD
330
1F
100
AcDbEntity
  8
DRG
100
AcDbLine
 10
335.3483642711812
 20
606.7937435129938
 30
0.0
 11
325.6090731426823
 21
606.7937435129938
 31
0.0
  0
LINE
  5
120BE
330
1F
100
AcDbEntity
  8
DRG
100
AcDbLine
 10
335.3483642711803
 20
606.7937435129938
 30
0.0
 11
325.6090731426823
 21
606.7937435129938
 31
0.0
  0
ARC
  5
120BF
330
1F
100
AcDbEntity
  8
DRG
100
AcDbCircle
 10
327.606458901384
 20
600.5560292166303
 30
0.0
 40
6.237137982802573
100
AcDbArc
 50
66.39183763781914
 51
113.6081623621808
  0
ARC
  5
120C0
330
1F
100
AcDbEntity
  8
DRG
100
AcDbCircle
 10
327.606458901384
 20
609.1470297311477
 30
0.0
 40
6.237137982802573
100
AcDbArc
 50
246.3918376378191
 51
293.608162362195
  0
ARC
  5
120C1
330
1F
100
AcDbEntity
  8
DRG
100
AcDbCircle
 10
325.6090731426823
 20
607.597992600932
 30
0.0
 40
0.8042490879378849
100
AcDbArc
 50
182.0679651425807
 51
270.0
  0
ARC
  5
120C2
330
1F
100
AcDbEntity
  8
DRG
100
AcDbCircle
 10
325.6090731426823
 20
607.597992600932
 30
0.0
 40
0.8042490879378849
100
AcDbArc
 50
182.0679651425807
 51
270.0
  0
LINE
  5
120C3
330
1F
100
AcDbEntity
  8
DRG
100
AcDbLine
 10
324.7275639527624
 20
609.7231435626232
 30
0.0
 11
324.8053478416027
 21
607.5689713009223
 31
0.0
  0
LINE
  5
120C4
330
1F
100
AcDbEntity
  8
DRG
100
AcDbLine
 10
324.7275639527624
 20
609.7231435626232
 30
0.0
 11
324.8053478416027
 21
607.5689713009223
 31
0.0
  0
LINE
  5
120C5
330
1F
100
AcDbEntity
  8
DRG
100
AcDbLine
 10
325.1086125414501
 20
606.2711542177738
 30
0.0
 11
325.1086125414501
 21
603.4319047300043
 31
0.0
  0
ARC
  5
120C6
330
1F
100
AcDbEntity
  8
DRG
100
AcDbCircle
 10
322.917599888914
 20
609.657788509059
 30
0.0
 40
1.811143615356182
100
AcDbArc
 50
2.067965142580769
 51
69.99999999999658
  0
ARC
  5
120C7
330
1F
100
AcDbEntity
  8
DRG
100
AcDbCircle
 10
322.917599888914
 20
609.657788509059
 30
0.0
 40
1.811143615356182
100
AcDbArc
 50
2.067965142580769
 51
69.99999999999658
  0
LINE
  5
120C8
330
1F
100
AcDbEntity
  8
DRG
100
AcDbLine
 10
328.7367131742835
 20
599.4662804931888
 30
0.0
 11
341.9600153680792
 21
599.4661981926334
 31
0.0
  0
LINE
  5
120C9
330
1F
100
AcDbEntity
  8
DRG
100
AcDbLine
 10
327.9045896259469
 20
600.575792944006
 30
0.0
 11
342.7921458218825
 21
600.5757002852923
 31
0.0
  0
LINE
  5
120CA
330
1F
100
AcDbEntity
  8
DRG
100
AcDbLine
 10
327.606458901384
 20
602.9098917483451
 30
0.0
 11
343.0902696409789
 21
602.9075911530839
 31
0.0
  0
ARC
  5
120CB
330
1F
100
AcDbEntity
  8
DRG
100
AcDbCircle
 10
335.3483642711803
 20
580.2210077868042
 30
0.0
 40
26.57273572619013
100
AcDbArc
 50
78.61811795128581
 51
101.3818820487141
  0
ARC
  5
120CC
330
1F
100
AcDbEntity
  8
DRG
100
AcDbCircle
 10
335.3483642711803
 20
629.4820511609766
 30
0.0
 40
26.57273572619013
100
AcDbArc
 50
258.6181179512858
 51
281.3818820487142
  0
LINE
  5
120CD
330
1F
100
AcDbEntity
  8
DRG
100
AcDbLine
 10
335.3483642711812
 20
606.7937435129938
 30
0.0
 11
345.0876553996802
 21
606.7937435129938
 31
0.0
  0
LINE
  5
120CE
330
1F
100
AcDbEntity
  8
DRG
100
AcDbLine
 10
335.3483642711803
 20
606.7937435129938
 30
0.0
 11
345.0876553996802
 21
606.7937435129938
 31
0.0
  0
LINE
  5
120CF
330
1F
100
AcDbEntity
  8
DRG
100
AcDbLine
 10
327.9045827204793
 20
602.9104680619041
 30
0.0
 11
327.9045827204793
 21
600.5757929440494
 31
0.0
  0
LINE
  5
120D0
330
1F
100
AcDbEntity
  8
DRG
100
AcDbLine
 10
328.7367131742835
 20
602.9104680619041
 30
0.0
 11
328.7367131742835
 21
600.5757877649495
 31
0.0
  0
LINE
  5
120D1
330
1F
100
AcDbEntity
  8
DRG
100
AcDbLine
 10
328.7367131742835
 20
600.5757877649495
 30
0.0
 11
328.7367131742835
 21
599.4662804931888
 31
0.0
  0
LINE
  5
120D2
330
1F
100
AcDbEntity
  8
DRG
100
AcDbLine
 10
330.1043052613181
 20
603.4319047300043
 30
0.0
 11
330.1043052613181
 21
606.2711542177738
 31
0.0
  0
LINE
  5
120D3
330
1F
100
AcDbEntity
  8
AM_7
  6
AM_ISO08W050X2
100
AcDbLine
 10
335.3483642711803
 20
609.7937435129938
 30
0.0
 11
335.3483642711803
 21
595.7705382542804
 31
0.0
1001
GENIUS_GENOBJ-N-CEN_13
1002
{
1000
OWNER
1000
GEN
1002
}
1001
GENIUS_GENODEF_13
1002
{
1000
HIER
1070
     0
1002
}
1002
{
1000
MANEDIT
1070
     0
1002
}
1002
{
1000
NOSEL
1070
     0
1002
}
1002
{
1000
BEHIND
1070
     0
1002
}
1002
{
1000
OTHER
1070
     0
1002
}
1002
{
1000
REACTOR
1002
}
  0
ARC
  5
120D4
330
1F
100
AcDbEntity
  8
DRG
100
AcDbCircle
 10
345.0876553996802
 20
607.597992600932
 30
0.0
 40
0.8042490879378849
100
AcDbArc
 50
270.0
 51
357.9320348574192
  0
ARC
  5
120D5
330
1F
100
AcDbEntity
  8
DRG
100
AcDbCircle
 10
345.0876553996802
 20
607.597992600932
 30
0.0
 40
0.8042490879378849
100
AcDbArc
 50
270.0
 51
357.9320348573931
  0
LINE
  5
120D6
330
1F
100
AcDbEntity
  8
DRG
100
AcDbLine
 10
345.9691645896007
 20
609.7231435626232
 30
0.0
 11
345.891380700759
 21
607.5689713009223
 31
0.0
  0
LINE
  5
120D7
330
1F
100
AcDbEntity
  8
DRG
100
AcDbLine
 10
345.9691645896007
 20
609.7231435626232
 30
0.0
 11
345.891380700759
 21
607.5689713009223
 31
0.0
  0
LINE
  5
120D8
330
1F
100
AcDbEntity
  8
DRG
100
AcDbLine
 10
345.5881160009103
 20
606.2711542177738
 30
0.0
 11
345.5881160009103
 21
603.4319047300043
 31
0.0
  0
ARC
  5
120D9
330
1F
100
AcDbEntity
  8
DRG
100
AcDbCircle
 10
347.7791286534461
 20
609.657788509059
 30
0.0
 40
1.811143615356182
100
AcDbArc
 50
110.0000000000034
 51
177.9320348574192
  0
ARC
  5
120DA
330
1F
100
AcDbEntity
  8
DRG
100
AcDbCircle
 10
347.7791286534461
 20
609.657788509059
 30
0.0
 40
1.811143615356182
100
AcDbArc
 50
110.0000000000034
 51
177.9320348574192
  0
LINE
  5
120DB
330
1F
100
AcDbEntity
  8
DRG
100
AcDbLine
 10
340.592423281045
 20
603.4319047300043
 30
0.0
 11
340.5924232810462
 21
606.2711542177738
 31
0.0
  0
LINE
  5
120DC
330
1F
100
AcDbEntity
  8
DRG
100
AcDbLine
 10
342.7921458218825
 20
602.9104680619067
 30
0.0
 11
342.7921458218825
 21
600.5757002852923
 31
0.0
  0
LINE
  5
120DD
330
1F
100
AcDbEntity
  8
DRG
100
AcDbLine
 10
341.9600153680792
 20
602.9104680619041
 30
0.0
 11
341.9600153680783
 21
600.5757877649495
 31
0.0
  0
LINE
  5
120DE
330
1F
100
AcDbEntity
  8
DRG
100
AcDbLine
 10
341.9600153680783
 20
600.5757877649495
 30
0.0
 11
341.9600153680792
 21
599.4661981926334
 31
0.0
  0
ARC
  5
120DF
330
1F
100
AcDbEntity
  8
DRG
100
AcDbCircle
 10
343.0902696409789
 20
609.1196572252845
 30
0.0
 40
6.212066072201682
100
AcDbArc
 50
246.2907305226917
 51
293.7092694773082
  0
ARC
  5
120E0
330
1F
100
AcDbEntity
  8
DRG
100
AcDbCircle
 10
343.0902696409789
 20
600.5834017224929
 30
0.0
 40
6.212066072201682
100
AcDbArc
 50
66.29073052270594
 51
113.7092694773082
  0
LINE
  5
120E1
330
1F
100
AcDbEntity
  8
DRG
100
AcDbLine
 10
323.5370474878218
 20
611.3597067995931
 30
0.0
 11
315.7570083857899
 21
614.1914094541589
 31
0.0
  0
ARC
  5
120E2
330
1F
100
AcDbEntity
  8
DRG
100
AcDbCircle
 10
320.9063073352531
 20
628.3389920438338
 30
0.0
 40
15.05554292619721
100
AcDbArc
 50
181.7859999999974
 51
249.9999999999965
  0
ARC
  5
120E3
330
1F
100
AcDbEntity
  8
DRG
100
AcDbCircle
 10
349.7904212071071
 20
628.3389920438338
 30
0.0
 40
15.05554292619721
100
AcDbArc
 50
290.0000000000034
 51
358.2140000000025
  0
POLYLINE
  5
12104
330
1F
100
AcDbEntity
  8
0
  6
AM_ISO08W050X2
 62
     2
 48
0.5
100
AcDb2dPolyline
 66
     1
 10
0.0
 20
0.0
 30
0.0
 70
     1
1001
GENIUS_GENREC_14
1002
{
1000
PYDIR
1011
135.9636645172394
1021
538.2606977165778
1031
0.0
1002
}
1002
{
1000
PXDIR
1011
550.9881641551746
1021
1087.233738668288
1031
0.0
1002
}
1002
{
1000
PORI
1011
135.9636645172395
1021
1087.233738668288
1031
0.0
1002
}
1002
{
1000
PINS
1011
135.9636645172395
1021
1087.233738668288
1031
0.0
1002
}
1002
{
1000
PINS2
1011
550.9881641551746
1021
538.2606977165778
1031
0.0
1002
}
1002
{
1000
C
1070
     1
1002
}
1001
GENIUS_GENOBJ-N-REC_13
1002
{
1000
OWNER
1000
GEN
1002
}
1001
GENIUS_GENODEF_13
1002
{
1000
HIER
1070
     0
1002
}
1002
{
1000
MANEDIT
1070
     0
1002
}
1002
{
1000
NOSEL
1070
     0
1002
}
1002
{
1000
BEHIND
1070
     0
1002
}
1002
{
1000
OTHER
1070
     0
1002
}
1002
{
1000
REACTOR
1002
}
  0
VERTEX
  5
12304
330
12104
100
AcDbEntity
  8
0
  6
AM_ISO08W050X2
 62
     2
 48
0.5
100
AcDbVertex
100
AcDb2dVertex
 10
135.9636645172395
 20
1087.233738668288
 30
0.0
  0
VERTEX
  5
12305
330
12104
100
AcDbEntity
  8
0
  6
AM_ISO08W050X2
 62
     2
 48
0.5
100
AcDbVertex
100
AcDb2dVertex
 10
550.9881641551746
 20
1087.233738668288
 30
0.0
  0
VERTEX
  5
12306
330
12104
100
AcDbEntity
  8
0
  6
AM_ISO08W050X2
 62
     2
 48
0.5
100
AcDbVertex
100
AcDb2dVertex
 10
550.9881641551746
 20
538.2606977165778
 30
0.0
  0
VERTEX
  5
12307
330
12104
100
AcDbEntity
  8
0
  6
AM_ISO08W050X2
 62
     2
 48
0.5
100
AcDbVertex
100
AcDb2dVertex
 10
135.9636645172394
 20
538.2606977165778
 30
0.0
  0
SEQEND
  5
12308
330
12104
100
AcDbEntity
  8
0
  6
AM_ISO08W050X2
 62
     2
 48
0.5
  0
ENDSEC
  0
SECTION
  2
OBJECTS
  0
DICTIONARY
  5
C
330
0
100
AcDbDictionary
  3
ACAD_GROUP
350
D
  3
ACAD_IMAGE_DICT
350
F32A
  3
ACAD_IMAGE_VARS
350
F32B
  3
ACAD_LAYOUT
350
1A
  3
ACAD_MLINESTYLE
350
17
  3
ACAD_PLOTSETTINGS
350
19
  3
ACMDICTIONARY
350
43
  3
AMG
350
2B
  3
AMGSNAPSETTINGS
350
240
  3
DWGPROPS
350
1221A
1001
ACAD
1000
TREAT_AS_HARD
1070
     0
  0
DICTIONARY
  5
3A4
330
1F
100
AcDbDictionary
  3
ACAD_INDEX
350
1158E
  3
ACAD_LAYOUTSELFREF
350
122DA
1001
ACAD
1000
TREAT_AS_HARD
1070
     1
  0
DICTIONARY
  5
122D8
330
1B
100
AcDbDictionary
  3
ACAD_LAYOUTSELFREF
350
122D9
  0
DICTIONARY
  5
D
102
{ACAD_REACTORS
330
C
102
}
330
C
100
AcDbDictionary
1001
ACAD
1000
TREAT_AS_HARD
1070
     0
  0
DICTIONARY
  5
F32A
102
{ACAD_REACTORS
330
C
102
}
330
C
100
AcDbDictionary
1001
ACAD
1000
TREAT_AS_HARD
1070
     0
  0
RASTERVARIABLES
  5
F32B
102
{ACAD_REACTORS
330
C
102
}
330
C
100
AcDbRasterVariables
 90
        0
 70
     0
 71
     1
 72
     1
  0
DICTIONARY
  5
1A
102
{ACAD_REACTORS
330
C
102
}
330
C
100
AcDbDictionary
1001
ACAD
1000
TREAT_AS_HARD
1070
     0
  0
DICTIONARY
  5
17
102
{ACAD_REACTORS
330
C
102
}
330
C
100
AcDbDictionary
  3
STANDARD
350
18
1001
ACAD
1000
TREAT_AS_HARD
1070
     0
  0
DICTIONARY
  5
19
102
{ACAD_REACTORS
330
C
102
}
330
C
100
AcDbDictionary
1001
ACAD
1000
TREAT_AS_HARD
1070
     0
  0
DICTIONARY
  5
43
102
{ACAD_REACTORS
330
C
102
}
330
C
100
AcDbDictionary
  3
ACMSTDDICTIONARY
350
1440
1001
ACAD
1000
TREAT_AS_HARD
1070
     0
  0
DICTIONARY
  5
2B
102
{ACAD_REACTORS
330
C
102
}
330
C
100
AcDbDictionary
  3
ACMGSETTINGS
350
2C
1001
ACAD
1000
TREAT_AS_HARD
1070
     0
  0
DICTIONARY
  5
240
102
{ACAD_REACTORS
330
C
102
}
330
C
100
AcDbDictionary
1001
ACAD
1000
TREAT_AS_HARD
1070
     0
  0
XRECORD
  5
1221A
102
{ACAD_REACTORS
330
C
102
}
330
C
100
AcDbXrecord
  1
DWGPROPS COOKIE
  2

  3

  4

  6

  7

  8

  9

300
AmdtFileType=84
301
=
302
=
303
=
304
=
305
=
306
=
307
=
308
=
309
=
 40
3.136721956018518
 41
2452292.457678333
 42
2453342.711199919
  1

 90
        1
  0
DICTIONARY
  5
1158E
102
{ACAD_REACTORS
330
3A4
102
}
330
3A4
100
AcDbDictionary
  3
*A1
350
1158F
1001
ACAD
1000
TREAT_AS_HARD
1070
     0
  0
XRECORD
  5
122DA
102
{ACAD_REACTORS
330
3A4
102
}
330
3A4
100
AcDbXrecord
340
1F
  0
XRECORD
  5
122D9
102
{ACAD_REACTORS
330
122D8
102
}
330
122D8
100
AcDbXrecord
340
1B
  0
MLINESTYLE
  5
18
102
{ACAD_REACTORS
330
17
102
}
330
17
100
AcDbMlineStyle
  2
STANDARD
 70
     0
  3

 62
   256
 51
90.0
 52
90.0
 71
     2
 49
0.5
 62
   256
  6
BYLAYER
 49
-0.5
 62
   256
  6
BYLAYER
  0
DICTIONARY
  5
1440
102
{ACAD_REACTORS
330
43
102
}
330
43
100
AcDbDictionary
1001
ACAD
1000
TREAT_AS_HARD
1070
     0
  0
DICTIONARY
  5
2C
102
{ACAD_REACTORS
330
2B
102
}
330
2B
100
AcDbDictionary
  3
DWGSETTINGS
350
2D
1001
ACAD
1000
TREAT_AS_HARD
1070
     0
  0
LAYER_INDEX
  5
1158F
102
{ACAD_REACTORS
330
1158E
102
}
330
1158E
100
AcDbIndex
 40
2453346.612156493
100
AcDbLayerIndex
  8
0
360
11590
 90
       31
  8
圖層2
360
11592
 90
        4
  8
Defpoints
360
11593
 90
        0
  8
AM_5
360
11594
 90
       17
  8
AM_REFDIM
360
11595
 90
        6
  8
AM_7
360
11597
 90
       10
  8
drg
360
11598
 90
      435
  8
cen
360
11599
 90
        6
  8
AM_0N
360
1159A
 90
       26
  8
M_1
360
11629
 90
        1
  8
LOGO
360
11FD2
 90
       86
  0
XRECORD
  5
2D
102
{ACAD_REACTORS
330
2C
102
}
330
2C
100
AcDbXrecord
  1
VERSION
140
15.0
  1
PRODUCT
  2
AutoCAD Mechanical 2000
  0
IDBUFFER
  5
11590
330
0
100
AcDbIdBuffer
330
10CDF
330
10CE8
330
10DCE
330
10ED7
330
10EE1
330
11021
330
11022
330
11023
330
11024
330
11033
330
11034
330
11035
330
11036
330
11037
330
11038
330
11196
330
11197
330
11198
330
1119E
330
111A0
330
111A3
330
111A9
330
111AA
330
111AB
330
111B0
330
11F61
330
12027
330
1202C
330
12041
330
1204B
330
12104
  0
IDBUFFER
  5
11592
330
0
100
AcDbIdBuffer
330
D169
330
D16D
330
DBAB
330
DBAC
  0
IDBUFFER
  5
11593
330
0
100
AcDbIdBuffer
  0
IDBUFFER
  5
11594
330
0
100
AcDbIdBuffer
330
D622
330
D62D
330
10B8F
330
10D9B
330
111C2
330
11261
330
11321
330
11364
330
115A8
330
115A9
330
11E41
330
11E42
330
11FED
330
11FEE
330
12059
330
12077
330
12078
  0
IDBUFFER
  5
11595
330
0
100
AcDbIdBuffer
330
20A1
330
21E1
330
21E8
330
950E
330
9515
330
9538
  0
IDBUFFER
  5
11597
330
0
100
AcDbIdBuffer
330
10B98
330
10B99
330
10BA3
330
10D62
330
10DA7
330
10DA9
330
10DDC
330
11FDB
330
11FF0
330
120D3
  0
IDBUFFER
  5
11598
330
0
100
AcDbIdBuffer
330
10B90
330
10B91
330
10B92
330
10B93
330
10B94
330
10B95
330
10B96
330
10B97
330
10B9A
330
10B9B
330
10B9C
330
10B9D
330
10B9F
330
10BA0
330
10BA1
330
10BA2
330
10BA7
330
10BAB
330
10BAC
330
10BAD
330
10BAE
330
10BAF
330
10BB0
330
10BB1
330
10BB2
330
10C53
330
10C54
330
10C57
330
10C58
330
10C8B
330
10C8D
330
10C8E
330
10C8F
330
10CCC
330
10CCD
330
10CCE
330
10CCF
330
10CD0
330
10CD1
330
10CD2
330
10CD3
330
10CD5
330
10CD6
330
10CD7
330
10CD8
330
10CD9
330
10CDA
330
10CDB
330
10CDC
330
10CDD
330
10CDE
330
10CE0
330
10CE1
330
10CE2
330
10CE3
330
10CE4
330
10CE5
330
10CE6
330
10CE7
330
10CE9
330
10CEA
330
10CEB
330
10CEC
330
10CED
330
10CEE
330
10CEF
330
10CF0
330
10CF1
330
10CF2
330
10CF3
330
10CF4
330
10CF5
330
10CF7
330
10CF8
330
10CF9
330
10CFA
330
10CFB
330
10CFC
330
10CFD
330
10CFE
330
10CFF
330
10D00
330
10D01
330
10D02
330
10D03
330
10D04
330
10D05
330
10D06
330
10D07
330
10D08
330
10D09
330
10D0A
330
10D0B
330
10D0D
330
10D0E
330
10D0F
330
10D10
330
10D11
330
10D12
330
10D13
330
10D14
330
10D15
330
10D16
330
10D17
330
10D18
330
10D19
330
10D22
330
10D23
330
10D36
330
10D37
330
10D42
330
10D43
330
10D44
330
10D45
330
10D46
330
10D48
330
10D49
330
10D4A
330
10D4B
330
10D4C
330
10D4D
330
10D4E
330
10D4F
330
10D50
330
10D51
330
10D52
330
10D53
330
10D54
330
10D55
330
10D56
330
10D57
330
10D58
330
10D59
330
10D5A
330
10D5B
330
10D5C
330
10D5D
330
10D5E
330
10D5F
330
10D60
330
10D61
330
10D63
330
10D65
330
10D66
330
10D67
330
10D68
330
10D69
330
10D6A
330
10D6B
330
10D6C
330
10D6D
330
10D6E
330
10D6F
330
10D70
330
10D71
330
10D72
330
10D73
330
10D74
330
10D75
330
10D76
330
10D77
330
10D78
330
10D79
330
10D7A
330
10D7B
330
10D7C
330
10D7D
330
10D7E
330
10D7F
330
10D80
330
10D81
330
10D82
330
10D83
330
10D84
330
10D85
330
10D86
330
10D87
330
10D88
330
10D89
330
10D8A
330
10D8B
330
10D8C
330
10D8D
330
10D8E
330
10D8F
330
10D90
330
10D91
330
10D92
330
10D93
330
10D94
330
10D95
330
10D96
330
10D97
330
10D98
330
10D99
330
10D9A
330
10D9C
330
10D9D
330
10D9E
330
10D9F
330
10DA1
330
10DA2
330
10DA3
330
10DA4
330
10DA5
330
10DA6
330
10DA8
330
10DAA
330
10DAB
330
10DAC
330
10DAD
330
10DAE
330
10DAF
330
10DB0
330
10DB1
330
10DB2
330
10DB3
330
10DB4
330
10DB5
330
10DB6
330
10DB7
330
10DB9
330
10DBA
330
10DBB
330
10DBD
330
10DBF
330
10DC1
330
10DC3
330
10DC4
330
10DC8
330
10DC9
330
10DCA
330
10DCB
330
10DCC
330
10DD0
330
10DD1
330
10DD3
330
10DD5
330
10DD6
330
10DD9
330
10DDA
330
10DDE
330
10DE0
330
10DE2
330
10DE4
330
10DE5
330
10DE6
330
10DE7
330
10ED0
330
10ED2
330
10ED3
330
10ED4
330
10ED5
330
10ED6
330
10ED8
330
10ED9
330
10EDA
330
10EDB
330
10EDC
330
10EDD
330
10EDE
330
10EDF
330
10EE0
330
10EE2
330
10EE3
330
10EE4
330
1109D
330
1109E
330
110BD
330
110BE
330
110CB
330
110CC
330
111AC
330
111AD
330
111AE
330
111AF
330
11FD4
330
11FD5
330
11FD6
330
11FD7
330
11FD8
330
11FD9
330
11FDA
330
11FDC
330
11FDD
330
11FDE
330
11FDF
330
11FE0
330
11FE1
330
11FE2
330
11FE3
330
11FE4
330
11FE5
330
11FE6
330
11FE7
330
11FE8
330
11FE9
330
11FEA
330
11FEB
330
11FEC
330
11FEF
330
11FF1
330
11FF2
330
11FF3
330
11FF4
330
11FF5
330
11FF6
330
11FF7
330
11FF8
330
11FF9
330
12000
330
12001
330
1201D
330
1201F
330
12020
330
12021
330
12022
330
12023
330
12024
330
12025
330
12026
330
12028
330
12029
330
1202A
330
1202B
330
1202D
330
1202E
330
1202F
330
12030
330
12031
330
12034
330
12035
330
12036
330
12037
330
12038
330
12039
330
1203A
330
1203B
330
1203C
330
1203E
330
1203F
330
12040
330
12042
330
12043
330
12044
330
12045
330
12046
330
12047
330
12048
330
12049
330
1204A
330
1204C
330
1204D
330
1204E
330
1204F
330
12050
330
12051
330
12052
330
12053
330
12054
330
12055
330
12056
330
12057
330
12058
330
1205A
330
1205B
330
1205C
330
1205D
330
1205E
330
1205F
330
12060
330
12061
330
12062
330
12063
330
12064
330
12065
330
12066
330
12067
330
12068
330
12069
330
1206A
330
1206B
330
1206C
330
1206D
330
1206E
330
1206F
330
12070
330
12071
330
12072
330
12073
330
12074
330
12075
330
12076
330
120B9
330
120BA
330
120BB
330
120BC
330
120BD
330
120BE
330
120BF
330
120C0
330
120C1
330
120C2
330
120C3
330
120C4
330
120C5
330
120C6
330
120C7
330
120C8
330
120C9
330
120CA
330
120CB
330
120CC
330
120CD
330
120CE
330
120CF
330
120D0
330
120D1
330
120D2
330
120D4
330
120D5
330
120D6
330
120D7
330
120D8
330
120D9
330
120DA
330
120DB
330
120DC
330
120DD
330
120DE
330
120DF
330
120E0
330
120E1
330
120E2
330
120E3
  0
IDBUFFER
  5
11599
330
0
100
AcDbIdBuffer
330
10CD4
330
10D0C
330
10D47
330
10ED1
330
1201E
330
1203D
  0
IDBUFFER
  5
1159A
330
0
100
AcDbIdBuffer
330
11062
330
11063
330
11065
330
11066
330
11067
330
11068
330
11069
330
1106C
330
1106D
330
1106E
330
1106F
330
11070
330
11073
330
11199
330
1119A
330
1119B
330
1119C
330
1119D
330
1119F
330
111A1
330
111A2
330
111A4
330
111A5
330
111A6
330
111A7
330
111A8
  0
IDBUFFER
  5
11629
330
0
100
AcDbIdBuffer
330
11451
  0
IDBUFFER
  5
11FD2
330
0
100
AcDbIdBuffer
330
11F67
330
11F68
330
11F69
330
11F6A
330
11F6B
330
11F6C
330
11F6D
330
11F6E
330
11F6F
330
11F70
330
11F71
330
11F75
330
11F79
330
11F7A
330
11F7B
330
11F7C
330
11F7D
330
11F7E
330
11F7F
330
11F80
330
11F81
330
11F82
330
11F83
330
11F84
330
11F85
330
11F86
330
11F87
330
11F88
330
11F89
330
11F8D
330
11F8E
330
11F92
330
11F93
330
11F94
330
11F95
330
11F96
330
11F9A
330
11F9B
330
11F9C
330
11FA0
330
11FA1
330
11FA2
330
11FA3
330
11FA4
330
11FA5
330
11FA9
330
11FAA
330
11FAB
330
11FAC
330
11FAD
330
11FAE
330
11FAF
330
11FB0
330
11FB1
330
11FB2
330
11FB3
330
11FB4
330
11FB5
330
11FB6
330
11FB7
330
11FB8
330
11FB9
330
11FBA
330
11FBB
330
11FBC
330
11FBD
330
11FBE
330
11FBF
330
11FC0
330
11FC1
330
11FC2
330
11FC3
330
11FC4
330
11FC5
330
11FC6
330
11FC7
330
11FC8
330
11FC9
330
11FCA
330
11FCB
330
11FCC
330
11FCD
330
11FCE
330
11FCF
330
11FD0
330
11FD1
  0
ENDSEC
  0
EOF
