  0
SECTION
  2
HEADER
  9
$ACADVER
  1
AC1012
  9
$DWGCODEPAGE
  3
big5
  9
$INSBASE
 10
0.0
 20
0.0
 30
0.0
  9
$EXTMIN
 10
438.1073363710815
 20
-429.3450940081686
 30
-0.0000000000000124
  9
$EXTMAX
 10
1096.615302951635
 20
257.6197790854535
 30
0.0000000000000028
  9
$LIMMIN
 10
0.0
 20
0.0
  9
$LIMMAX
 10
420.0
 20
297.0
  9
$ORTHOMODE
 70
     1
  9
$REGENMODE
 70
     1
  9
$FILLMODE
 70
     1
  9
$QTEXTMODE
 70
     0
  9
$MIRRTEXT
 70
     1
  9
$DRAGMODE
 70
     2
  9
$LTSCALE
 40
15.0
  9
$OSMODE
 70
    55
  9
$ATTMODE
 70
     1
  9
$TEXTSIZE
 40
5.25
  9
$TRACEWID
 40
1.0
  9
$TEXTSTYLE
  7
DAYUS
  9
$CLAYER
  8
0
  9
$CELTYPE
  6
BYLAYER
  9
$CECOLOR
 62
   256
  9
$CELTSCALE
 40
1.0
  9
$DELOBJ
 70
     1
  9
$DISPSILH
 70
     0
  9
$DIMSCALE
 40
1.0
  9
$DIMASZ
 40
3.0
  9
$DIMEXO
 40
2.0
  9
$DIMDLI
 40
10.5
  9
$DIMRND
 40
0.0
  9
$DIMDLE
 40
0.0
  9
$DIMEXE
 40
1.0
  9
$DIMTP
 40
0.01
  9
$DIMTM
 40
0.01
  9
$DIMTXT
 40
3.5
  9
$DIMCEN
 40
3.0
  9
$DIMTSZ
 40
0.0
  9
$DIMTOL
 70
     0
  9
$DIMLIM
 70
     0
  9
$DIMTIH
 70
     0
  9
$DIMTOH
 70
     0
  9
$DIMSE1
 70
     0
  9
$DIMSE2
 70
     0
  9
$DIMTAD
 70
     1
  9
$DIMZIN
 70
     8
  9
$DIMBLK
  1

  9
$DIMASO
 70
     1
  9
$DIMSHO
 70
     1
  9
$DIMPOST
  1

  9
$DIMAPOST
  1

  9
$DIMALT
 70
     0
  9
$DIMALTD
 70
     2
  9
$DIMALTF
 40
25.4
  9
$DIMLFAC
 40
1.0
  9
$DIMTOFL
 70
     1
  9
$DIMTVP
 40
0.0
  9
$DIMTIX
 70
     0
  9
$DIMSOXD
 70
     0
  9
$DIMSAH
 70
     0
  9
$DIMBLK1
  1

  9
$DIMBLK2
  1

  9
$DIMSTYLE
  2
STANDARD
  9
$DIMCLRD
 70
   256
  9
$DIMCLRE
 70
   256
  9
$DIMCLRT
 70
   256
  9
$DIMTFAC
 40
0.6
  9
$DIMGAP
 40
0.8
  9
$DIMJUST
 70
     0
  9
$DIMSD1
 70
     0
  9
$DIMSD2
 70
     0
  9
$DIMTOLJ
 70
     0
  9
$DIMTZIN
 70
     8
  9
$DIMALTZ
 70
     0
  9
$DIMALTTZ
 70
     0
  9
$DIMFIT
 70
     3
  9
$DIMUPT
 70
     0
  9
$DIMUNIT
 70
     2
  9
$DIMDEC
 70
     0
  9
$DIMTDEC
 70
     8
  9
$DIMALTU
 70
     2
  9
$DIMALTTD
 70
     2
  9
$DIMTXSTY
  7
STANDARD
  9
$DIMAUNIT
 70
     0
  9
$LUNITS
 70
     2
  9
$LUPREC
 70
     2
  9
$SKETCHINC
 40
1.0
  9
$FILLETRAD
 40
0.5
  9
$AUNITS
 70
     0
  9
$AUPREC
 70
     0
  9
$MENU
  1
.
  9
$ELEVATION
 40
0.0
  9
$PELEVATION
 40
0.0
  9
$THICKNESS
 40
0.0
  9
$LIMCHECK
 70
     0
  9
$BLIPMODE
 70
     0
  9
$CHAMFERA
 40
2.5
  9
$CHAMFERB
 40
2.5
  9
$CHAMFERC
 40
20.0
  9
$CHAMFERD
 40
0.0
  9
$SKPOLY
 70
     0
  9
$TDCREATE
 40
2452292.457678333
  9
$TDUPDATE
 40
2453346.613626331
  9
$TDINDWG
 40
3.4896718981
  9
$TDUSRTIMER
 40
3.4896717824
  9
$USRTIMER
 70
     1
  9
$ANGBASE
 50
0.0
  9
$ANGDIR
 70
     0
  9
$PDMODE
 70
     0
  9
$PDSIZE
 40
0.0
  9
$PLINEWID
 40
0.0
  9
$COORDS
 70
     1
  9
$SPLFRAME
 70
     0
  9
$SPLINETYPE
 70
     6
  9
$SPLINESEGS
 70
     8
  9
$ATTDIA
 70
     1
  9
$ATTREQ
 70
     1
  9
$HANDLING
 70
 22529
  9
$HANDSEED
  5
11AA0
  9
$SURFTAB1
 70
     6
  9
$SURFTAB2
 70
     6
  9
$SURFTYPE
 70
     6
  9
$SURFU
 70
     6
  9
$SURFV
 70
     6
  9
$UCSNAME
  2

  9
$UCSORG
 10
0.0
 20
0.0
 30
0.0
  9
$UCSXDIR
 10
1.0
 20
0.0
 30
0.0
  9
$UCSYDIR
 10
0.0
 20
1.0
 30
0.0
  9
$PUCSNAME
  2

  9
$PUCSORG
 10
0.0
 20
0.0
 30
0.0
  9
$PUCSXDIR
 10
1.0
 20
0.0
 30
0.0
  9
$PUCSYDIR
 10
0.0
 20
1.0
 30
0.0
  9
$USERI1
 70
     0
  9
$USERI2
 70
     0
  9
$USERI3
 70
     0
  9
$USERI4
 70
     0
  9
$USERI5
 70
     0
  9
$USERR1
 40
0.0
  9
$USERR2
 40
0.0
  9
$USERR3
 40
0.0
  9
$USERR4
 40
0.0
  9
$USERR5
 40
0.0
  9
$WORLDVIEW
 70
     1
  9
$SHADEDGE
 70
     3
  9
$SHADEDIF
 70
    70
  9
$TILEMODE
 70
     1
  9
$MAXACTVP
 70
    64
  9
$PINSBASE
 10
0.0
 20
0.0
 30
0.0
  9
$PLIMCHECK
 70
     0
  9
$PEXTMIN
 10
1.000000000000000E+20
 20
1.000000000000000E+20
 30
1.000000000000000E+20
  9
$PEXTMAX
 10
-1.000000000000000E+20
 20
-1.000000000000000E+20
 30
-1.000000000000000E+20
  9
$PLIMMIN
 10
0.0
 20
0.0
  9
$PLIMMAX
 10
420.0
 20
297.0
  9
$UNITMODE
 70
     0
  9
$VISRETAIN
 70
     1
  9
$PLINEGEN
 70
     0
  9
$PSLTSCALE
 70
     1
  9
$TREEDEPTH
 70
  3020
  9
$PICKSTYLE
 70
     1
  9
$CMLSTYLE
  2
STANDARD
  9
$CMLJUST
 70
     0
  9
$CMLSCALE
 40
20.0
  9
$SAVEIMAGES
 70
     1
  0
ENDSEC
  0
SECTION
  2
CLASSES
  0
CLASS
  1
ACDBDICTIONARYWDFLT
  2
AcDbDictionaryWithDefault
  3
AutoCAD 2000
 90
    32768
280
     0
281
     0
  0
CLASS
  1
ACDBPLACEHOLDER
  2
AcDbPlaceHolder
  3
AutoCAD 2000
 90
    32768
280
     0
281
     0
  0
CLASS
  1
LAYOUT
  2
AcDbLayout
  3
AutoCAD 2000
 90
    32768
280
     0
281
     0
  0
CLASS
  1
AMGSETTINGSOBJ
  2
AmgSettingsObj
  3
"AcadM|Product Description: AutoCAD Mechanical 2000|Company: Autodesk"
 90
    32768
280
     0
281
     0
  0
CLASS
  1
ACME_DOCUMENT
  2
AcMeDbDoc
  3
AcMeServices
 90
    32768
280
     0
281
     0
  0
CLASS
  1
ACMESCOPE
  2
AcMeScope
  3
AcMeServices
 90
    32768
280
     0
281
     0
  0
CLASS
  1
ACMECOMMANDHISTORY
  2
AcMeCommandHistory
  3
AcMeServices
 90
    32768
280
     0
281
     0
  0
CLASS
  1
DICTIONARYVAR
  2
AcDbDictionaryVar
  3
AutoCAD 2000
 90
    32768
280
     0
281
     0
  0
CLASS
  1
ACIMSYSVARMAN
  2
AcImSysVarManager
  3
AcMeServices
 90
    32768
280
     0
281
     0
  0
CLASS
  1
ACIMREALSYSVAR
  2
AcImRealSysVar
  3
AcMeServices
 90
    32768
280
     0
281
     0
  0
CLASS
  1
ACIMINTSYSVAR
  2
AcImIntSysVar
  3
AcMeServices
 90
    32768
280
     0
281
     0
  0
CLASS
  1
ACMEDRAWINGMAN
  2
AcMeDrawingMan
  3
AcMeServices
 90
    32768
280
     0
281
     0
  0
CLASS
  1
ACMEVIEW
  2
AcMeView
  3
AcMeServices
 90
    32768
280
     0
281
     0
  0
CLASS
  1
ACDBENTITYCACHE
  2
AcMeEntityCache
  3
AcMeServices
 90
    32768
280
     0
281
     0
  0
CLASS
  1
GSMANAGER
  2
AcMeGSManager
  3
AcMeServices
 90
    32768
280
     0
281
     0
  0
CLASS
  1
AMDTINTERNALREACTOR
  2
AmdtInternalReactor
  3
AcMeServices
 90
    32768
280
     0
281
     0
  0
CLASS
  1
ACMESTATEMGR
  2
AcMeStateMgr
  3
AcMeServices
 90
    32768
280
     0
281
     0
  0
CLASS
  1
ACME_DATABASE
  2
AcMeDbDatabase
  3
AcMeServices
 90
    32768
280
     0
281
     0
  0
CLASS
  1
ACRFINSADJUSTERMGR
  2
AcRfInsAdjusterMgr
  3
AcMeServices
 90
    32768
280
     0
281
     0
  0
CLASS
  1
ACMDATADICTIONARY
  2
AcmDataDictionary
  3
"AcmSymBB|Product Description: AutoCAD Mechanical 2000|Company: Autodesk"
 90
    32768
280
     0
281
     0
  0
CLASS
  1
ACMDATAENTRYBLOCK
  2
AcmDataEntryBlock
  3
"AcmSymBB|Product Description: AutoCAD Mechanical 2000|Company: Autodesk"
 90
    32768
280
     0
281
     0
  0
CLASS
  1
AMGOBJPROPCFG
  2
AmgObjPropCfg
  3
"AmgLay|Product Description: AutoCAD Mechanical 2000|Company: Autodesk"
 90
    32769
280
     0
281
     0
  0
CLASS
  1
ACAMGFILTERDAT
  2
AcAmgFilterDat
  3
"AcadM|Product Description: AutoCAD Mechanical 2000|Company: Autodesk"
 90
    32768
280
     0
281
     0
  0
CLASS
  1
LAYER_INDEX
  2
AcDbLayerIndex
  3
AutoCAD 2000
 90
    32768
280
     0
281
     0
  0
CLASS
  1
IDBUFFER
  2
AcDbIdBuffer
  3
AutoCAD 2000
 90
    32768
280
     0
281
     0
  0
CLASS
  1
ACIMSTRSYSVAR
  2
AcImStrSysVar
  3
AcMeServices
 90
    32768
280
     0
281
     0
  0
CLASS
  1
ACMSTANDARDISO
  2
AcmStandardISO
  3
"Amdt_StdImp|Product Description: AutoCAD Mechanical 2000|Company: Autodesk"
 90
    32768
280
     0
281
     0
  0
CLASS
  1
AMDTEDGESTANDARDISO
  2
AmdtEdgeStdISO
  3
"Amdt_StdImp|Product Description: AutoCAD Mechanical 2000|Company: Autodesk"
 90
    32768
280
     0
281
     0
  0
CLASS
  1
ACMSURFSTANDARDISO
  2
AcmSurfTextStdISO
  3
"Amdt_StdImp|Product Description: AutoCAD Mechanical 2000|Company: Autodesk"
 90
    32768
280
     0
281
     0
  0
CLASS
  1
ACMFCFSTANDARDISO
  2
AcmFCFStdISO
  3
"Amdt_StdImp|Product Description: AutoCAD Mechanical 2000|Company: Autodesk"
 90
    32768
280
     0
281
     0
  0
CLASS
  1
ACMWELDSTANDARDISO
  2
AcmWeldingStdISO
  3
"Amdt_StdImp|Product Description: AutoCAD Mechanical 2000|Company: Autodesk"
 90
    32768
280
     0
281
     0
  0
CLASS
  1
ACMIDSTANDARDISO
  2
AcmIdStdISO
  3
"Amdt_StdImp|Product Description: AutoCAD Mechanical 2000|Company: Autodesk"
 90
    32768
280
     0
281
     0
  0
CLASS
  1
ACMDATUMSTANDARDISO
  2
AcmDatumStdISO
  3
"Amdt_StdImp|Product Description: AutoCAD Mechanical 2000|Company: Autodesk"
 90
    32768
280
     0
281
     0
  0
CLASS
  1
ACMBOMSTANDARDISO
  2
AcmBOMStdISO
  3
"Amdt_StdImp|Product Description: AutoCAD Mechanical 2000|Company: Autodesk"
 90
    32768
280
     0
281
     0
  0
CLASS
  1
AMDTNOTE
  2
AmdtNote
  3
"AcmSymBB|Product Description: AutoCAD Mechanical 2000|Company: Autodesk"
 90
    33791
280
     0
281
     1
  0
CLASS
  1
ACGREFMASTER
  2
AcGrefMaster
  3
AcAttribServices
 90
    32768
280
     0
281
     0
  0
CLASS
  1
ACGREFACADMASTER
  2
AcGrefacadMaster
  3
AcGrefServices
 90
    32768
280
     0
281
     0
  0
CLASS
  1
AMIMASTER
  2
AmiMaster
  3
AmiServices
 90
    32768
280
     0
281
     0
  0
CLASS
  1
ACAMGTITLESTD
  2
AcAmgTitleStd
  3
"TITLEAPP"
 90
    32768
280
     0
281
     0
  0
CLASS
  1
ACMDETAILSTANDARDISO
  2
AmdtDetailSymStdISO
  3
"Amdt_StdImp|Product Description: AutoCAD Mechanical 2000|Company: Autodesk"
 90
    32768
280
     0
281
     0
  0
CLASS
  1
ACMSECTIONSTANDARDISO
  2
AmdtSectionSymStdISO
  3
"Amdt_StdImp|Product Description: AutoCAD Mechanical 2000|Company: Autodesk"
 90
    32768
280
     0
281
     0
  0
CLASS
  1
ACMCENTERLINESTANDARDISO
  2
AmdtCenterLineStdISO
  3
"Amdt_StdImp|Product Description: AutoCAD Mechanical 2000|Company: Autodesk"
 90
    32768
280
     0
281
     0
  0
CLASS
  1
ACMNOTESTANDARDISO
  2
AmdtNoteStdISO
  3
"Amdt_StdImp|Product Description: AutoCAD Mechanical 2000|Company: Autodesk"
 90
    32768
280
     0
281
     0
  0
CLASS
  1
ACAMGLAYSTD
  2
AcAmgLayStd
  3
"AcAmgLayStd|Product Description: AutoCAD Mechanical 2000|Company: Autodesk"
 90
    32768
280
     0
281
     0
  0
CLASS
  1
ACAMGDIMSTD
  2
AcAmgDimStd
  3
"AcAmgDimStd|Product Description: AutoCAD Mechanical 2000|Company: Autodesk"
 90
    32768
280
     0
281
     0
  0
CLASS
  1
ACAMGHOLECHARTSTDISO
  2
AcAmgHoleChartStdISO
  3
ACMSYMBB_MODULE_NAME
 90
    32768
280
     0
281
     0
  0
CLASS
  1
AMDTFORMULAUPDATEDISPATCHER
  2
AmdtFormulaUpdateDispatcher
  3
AcMeServices
 90
    32768
280
     0
281
     0
  0
CLASS
  1
ACMSTANDARDANSI
  2
AcmStandardANSI
  3
"Amdt_StdImp|Product Description: AutoCAD Mechanical 2000|Company: Autodesk"
 90
    32768
280
     0
281
     0
  0
CLASS
  1
ACMSURFSTANDARDANSI
  2
AcmSurfTextStdANSI
  3
"Amdt_StdImp|Product Description: AutoCAD Mechanical 2000|Company: Autodesk"
 90
    32768
280
     0
281
     0
  0
CLASS
  1
ACMFCFSTANDARDANSI
  2
AcmFCFStdANSI
  3
"Amdt_StdImp|Product Description: AutoCAD Mechanical 2000|Company: Autodesk"
 90
    32768
280
     0
281
     0
  0
CLASS
  1
ACMWELDSTANDARDANSI
  2
AcmWeldingStdANSI
  3
"Amdt_StdImp|Product Description: AutoCAD Mechanical 2000|Company: Autodesk"
 90
    32768
280
     0
281
     0
  0
CLASS
  1
ACMIDSTANDARDANSI
  2
AcmIdStdANSI
  3
"Amdt_StdImp|Product Description: AutoCAD Mechanical 2000|Company: Autodesk"
 90
    32768
280
     0
281
     0
  0
CLASS
  1
ACMDATUMSTANDARDANSI
  2
AcmDatumStdANSI
  3
"Amdt_StdImp|Product Description: AutoCAD Mechanical 2000|Company: Autodesk"
 90
    32768
280
     0
281
     0
  0
CLASS
  1
ACMBOMSTANDARDANSI
  2
AcmBOMStdANSI
  3
"Amdt_StdImp|Product Description: AutoCAD Mechanical 2000|Company: Autodesk"
 90
    32768
280
     0
281
     0
  0
CLASS
  1
ACMDETAILSTANDARDANSI
  2
AmdtDetailSymStdANSI
  3
"Amdt_StdImp|Product Description: AutoCAD Mechanical 2000|Company: Autodesk"
 90
    32768
280
     0
281
     0
  0
CLASS
  1
ACMSECTIONSTANDARDANSI
  2
AmdtSectionSymStdANSI
  3
"Amdt_StdImp|Product Description: AutoCAD Mechanical 2000|Company: Autodesk"
 90
    32768
280
     0
281
     0
  0
CLASS
  1
ACMCENTERLINESTANDARDANSI
  2
AmdtCenterLineStdANSI
  3
"Amdt_StdImp|Product Description: AutoCAD Mechanical 2000|Company: Autodesk"
 90
    32768
280
     0
281
     0
  0
CLASS
  1
ACMNOTESTANDARDANSI
  2
AmdtNoteStdANSI
  3
"Amdt_StdImp|Product Description: AutoCAD Mechanical 2000|Company: Autodesk"
 90
    32768
280
     0
281
     0
  0
CLASS
  1
ACAMGHOLECHARTSTDANSI
  2
AcAmgHoleChartStdANSI
  3
ACMSYMBB_MODULE_NAME
 90
    32768
280
     0
281
     0
  0
CLASS
  1
STDPART2D
  2
AmgStdPart
  3
"AmgStdPart|Product Description: AutoCAD Mechanical 2000|Company: Autodesk"
 90
    33791
280
     0
281
     1
  0
CLASS
  1
ACMDATAENTRYPART
  2
AcmDataEntryPart
  3
"AcmSymBB|Product Description: AutoCAD Mechanical 2000|Company: Autodesk"
 90
    32768
280
     0
281
     0
  0
CLASS
  1
ACMPARTREF
  2
AcmPartRef
  3
"AcmSymBB|Product Description: AutoCAD Mechanical 2000|Company: Autodesk"
 90
    33791
280
     0
281
     1
  0
CLASS
  1
ACDBSTDPARTRES_LINE
  2
AcDbStdPartRes_Line
  3
"AcDbStdPartRes_Line|Product Description: AutoCAD Mechanical 2000|Company: Autodesk"
 90
    32768
280
     0
281
     0
  0
CLASS
  1
RASTERVARIABLES
  2
AcDbRasterVariables
  3
ISM
 90
    32768
280
     0
281
     0
  0
CLASS
  1
IMAGEDEF
  2
AcDbRasterImageDef
  3
ISM
 90
    32768
280
     0
281
     0
  0
CLASS
  1
IMAGEDEF_REACTOR
  2
AcDbRasterImageDefReactor
  3
ISM
 90
    32769
280
     0
281
     0
  0
CLASS
  1
IMAGE
  2
AcDbRasterImage
  3
ISM
 90
    32895
280
     0
281
     1
  0
CLASS
  1
DIMASSOC
  2
AcDbDimAssoc
  3
"AcDbDimAssoc|Product Desc:     AcDim ARX App For Dimension|Company:          Autodesk, Inc.|WEB Address:      www.autodesk.com"
 90
    32768
280
     0
281
     0
  0
CLASS
  1
LONG_TRANSACTION
  2
AcDbLongTransaction
  3
AutoCAD 2000
 90
    32768
280
     0
281
     0
  0
CLASS
  1
LWPOLYLINE
  2
AcDbPolyline
  3
AutoCAD 2000
 90
    32768
280
     0
281
     1
  0
CLASS
  1
HATCH
  2
AcDbHatch
  3
AutoCAD 2000
 90
    32768
280
     0
281
     1
  0
CLASS
  1
XRECORD
  2
AcDbXrecord
  3
AutoCAD 2000
 90
    32768
280
     0
281
     0
  0
ENDSEC
  0
SECTION
  2
TABLES
  0
TABLE
  2
VPORT
  5
8
330
0
100
AcDbSymbolTable
 70
     5
  0
VPORT
  5
11A79
330
8
100
AcDbSymbolTableRecord
100
AcDbViewportTableRecord
  2
*ACTIVE
 70
     0
 10
0.0
 20
0.0
 11
1.0
 21
1.0
 12
767.3127801117543
 22
-85.87868295764378
 13
0.0
 23
0.0
 14
2.5
 24
2.5
 15
10.0
 25
10.0
 16
0.0
 26
0.0
 36
1.0
 17
0.0
 27
0.0
 37
0.0
 40
694.8671405359345
 41
1.756554307116104
 42
50.0
 43
0.0
 44
0.0
 50
0.0
 51
0.0
 71
     0
 72
   100
 73
     1
 74
     3
 75
     0
 76
     0
 77
     0
 78
     0
  0
ENDTAB
  0
TABLE
  2
LTYPE
  5
5
330
0
100
AcDbSymbolTable
 70
    15
  0
LTYPE
  5
14
330
5
100
AcDbSymbolTableRecord
100
AcDbLinetypeTableRecord
  2
BYBLOCK
 70
     0
  3

 72
    65
 73
     0
 40
0.0
  0
LTYPE
  5
15
330
5
100
AcDbSymbolTableRecord
100
AcDbLinetypeTableRecord
  2
BYLAYER
 70
     0
  3

 72
    65
 73
     0
 40
0.0
  0
LTYPE
  5
16
330
5
100
AcDbSymbolTableRecord
100
AcDbLinetypeTableRecord
  2
CONTINUOUS
 70
     0
  3
Solid line
 72
    65
 73
     0
 40
0.0
  0
LTYPE
  5
4B
330
5
100
AcDbSymbolTableRecord
100
AcDbLinetypeTableRecord
  2
AM_ISO02W050
 70
     0
  3
__ __ __ __ __ __ __ __ __ __ __ __ __ __ __
 72
    65
 73
     2
 40
7.5
 49
6.0
 74
     0
 49
-1.5
 74
     0
  0
LTYPE
  5
4C
330
5
100
AcDbSymbolTableRecord
100
AcDbLinetypeTableRecord
  2
AM_ISO08W050
 70
     0
  3
____ . ____ . ____ . ____ . ____ . ____ . ____
 72
    65
 73
     4
 40
18.0
 49
12.0
 74
     0
 49
-1.5
 74
     0
 49
3.0
 74
     0
 49
-1.5
 74
     0
  0
LTYPE
  5
4D
330
5
100
AcDbSymbolTableRecord
100
AcDbLinetypeTableRecord
  2
AM_ISO09W050
 70
     0
  3
_____ . . _____ . . _____ . . ____ .. ____
 72
    65
 73
     6
 40
22.5
 49
12.0
 74
     0
 49
-1.5
 74
     0
 49
3.0
 74
     0
 49
-1.5
 74
     0
 49
3.0
 74
     0
 49
-1.5
 74
     0
  0
LTYPE
  5
4E
330
5
100
AcDbSymbolTableRecord
100
AcDbLinetypeTableRecord
  2
AMCONSTR
 70
     0
  3
_______________________
 72
    65
 73
     2
 40
9999.0
 49
9999.0
 74
     0
 49
0.0
 74
     0
  0
LTYPE
  5
4F
330
5
100
AcDbSymbolTableRecord
100
AcDbLinetypeTableRecord
  2
AM_ISO02W050X2
 70
     0
  3
 _ _ _ _ _ _ _ _ _ _ _ _
 72
    65
 73
     2
 40
3.75
 49
3.0
 74
     0
 49
-0.75
 74
     0
  0
LTYPE
  5
50
330
5
100
AcDbSymbolTableRecord
100
AcDbLinetypeTableRecord
  2
AM_ISO08W050X2
 70
     0
  3
__ . __ . __ . __ . __ . __
 72
    65
 73
     4
 40
9.0
 49
6.0
 74
     0
 49
-0.75
 74
     0
 49
1.5
 74
     0
 49
-0.75
 74
     0
  0
LTYPE
  5
53
330
5
100
AcDbSymbolTableRecord
100
AcDbLinetypeTableRecord
  2
AMZIGZAG
 70
     0
  3
/\/-/\/-/\/-/\/-/\/-/\/
 72
    65
 73
     2
 40
11.00009999999999
 49
0.0001
 74
     4
 75
   135
340
52
 46
0.04
 50
0.0
 44
0.0
 45
0.0
 49
-11.0
 74
     0
  0
LTYPE
  5
144B
330
5
100
AcDbSymbolTableRecord
100
AcDbLinetypeTableRecord
  2
ACISOWELD
 70
     0
  3
_ _ _ _ _
 72
    65
 73
     2
 40
2.0
 49
2.0
 74
     0
 49
-1.0
 74
     0
  0
LTYPE
  5
144C
330
5
100
AcDbSymbolTableRecord
100
AcDbLinetypeTableRecord
  2
ACISOTGB
 70
     0
  3
__ . . __ . .
 72
    65
 73
     6
 40
9.0
 49
4.0
 74
     0
 49
-1.0
 74
     0
 49
1.0
 74
     0
 49
-1.0
 74
     0
 49
1.0
 74
     0
 49
-1.0
 74
     0
  0
LTYPE
  5
144D
330
5
100
AcDbSymbolTableRecord
100
AcDbLinetypeTableRecord
  2
ACISOTGL
 70
     0
  3
_ _ _ _ _
 72
    65
 73
     2
 40
3.0
 49
2.0
 74
     0
 49
-1.0
 74
     0
  0
LTYPE
  5
1C35
330
5
100
AcDbSymbolTableRecord
100
AcDbLinetypeTableRecord
  2
CENTER
 70
     0
  3
Center ____ _ ____ _ ____ _ ____ _ ____ _ ____
 72
    65
 73
     4
 40
2.0
 49
1.25
 74
     0
 49
-0.25
 74
     0
 49
0.25
 74
     0
 49
-0.25
 74
     0
  0
LTYPE
  5
B899
330
5
100
AcDbSymbolTableRecord
100
AcDbLinetypeTableRecord
  2
PHANTOM2
 70
     0
  3
Phantom (.5x) ___ _ _ ___ _ _ ___ _ _ ___ _ _
 72
    65
 73
     6
 40
31.75
 49
15.875
 74
     0
 49
-3.174999999999999
 74
     0
 49
3.174999999999999
 74
     0
 49
-3.174999999999999
 74
     0
 49
3.174999999999999
 74
     0
 49
-3.174999999999999
 74
     0
  0
LTYPE
  5
BE5A
330
5
100
AcDbSymbolTableRecord
100
AcDbLinetypeTableRecord
  2
ACANSTGB
 70
     0
  3
__ . . __ . .
 72
    65
 73
     6
 40
0.35433070866
 49
0.15748031496
 74
     0
 49
-0.03937007874
 74
     0
 49
0.03937007874
 74
     0
 49
-0.03937007874
 74
     0
 49
0.03937007874
 74
     0
 49
-0.03937007874
 74
     0
  0
LTYPE
  5
BE5B
330
5
100
AcDbSymbolTableRecord
100
AcDbLinetypeTableRecord
  2
ACANSTGL
 70
     0
  3
_ _ _ _ _
 72
    65
 73
     2
 40
0.11811023622
 49
0.07874015748
 74
     0
 49
-0.03937007874
 74
     0
  0
ENDTAB
  0
TABLE
  2
LAYER
  5
2
330
0
100
AcDbSymbolTable
 70
    10
  0
LAYER
  5
10
330
2
100
AcDbSymbolTableRecord
100
AcDbLayerTableRecord
  2
0
 70
     0
 62
     7
  6
CONTINUOUS
  0
LAYER
  5
D0
330
2
100
AcDbSymbolTableRecord
100
AcDbLayerTableRecord
  2
圖層2
 70
     0
 62
     3
  6
CONTINUOUS
  0
LAYER
  5
450
330
2
100
AcDbSymbolTableRecord
100
AcDbLayerTableRecord
  2
DEFPOINTS
 70
     0
 62
    -7
  6
CONTINUOUS
  0
LAYER
  5
989
330
2
100
AcDbSymbolTableRecord
100
AcDbLayerTableRecord
  2
AM_5
 70
     0
 62
     5
  6
CONTINUOUS
  0
LAYER
  5
1C3A
330
2
100
AcDbSymbolTableRecord
100
AcDbLayerTableRecord
  2
AM_REFDIM
 70
     0
 62
     5
  6
CONTINUOUS
  0
LAYER
  5
10947
330
2
100
AcDbSymbolTableRecord
100
AcDbLayerTableRecord
  2
CEN
 70
     0
 62
     1
  6
CENTER
  0
LAYER
  5
10948
330
2
100
AcDbSymbolTableRecord
100
AcDbLayerTableRecord
  2
DIM
 70
     0
 62
     2
  6
CONTINUOUS
  0
LAYER
  5
10949
330
2
100
AcDbSymbolTableRecord
100
AcDbLayerTableRecord
  2
DRG
 70
     0
 62
     7
  6
CONTINUOUS
  0
LAYER
  5
1134B
330
2
100
AcDbSymbolTableRecord
100
AcDbLayerTableRecord
  2
M_1
 70
     0
 62
     7
  6
CONTINUOUS
  0
LAYER
  5
117D0
330
2
100
AcDbSymbolTableRecord
100
AcDbLayerTableRecord
  2
LOGO
 70
     0
 62
     7
  6
CONTINUOUS
  0
ENDTAB
  0
TABLE
  2
STYLE
  5
3
330
0
100
AcDbSymbolTable
 70
    10
  0
STYLE
  5
11
330
3
100
AcDbSymbolTableRecord
100
AcDbTextStyleTableRecord
  2
STANDARD
 70
     0
 40
0.0
 41
1.0
 50
0.0
 71
     0
 42
3.0
  3
ISOCP.SHX
  4
CHINESET.SHX
  0
STYLE
  5
52
330
3
100
AcDbSymbolTableRecord
100
AcDbTextStyleTableRecord
  2

 70
     1
 40
0.0
 41
1.0
 50
0.0
 71
     0
 42
2.5
  3
ltypeshp.shx
  4

  0
STYLE
  5
D3
330
3
100
AcDbSymbolTableRecord
100
AcDbTextStyleTableRecord
  2
ROMAND
 70
     0
 40
0.0
 41
1.0
 50
0.0
 71
     0
 42
6.0
  3
romand.shx
  4
chineset.shx
  0
STYLE
  5
1442
330
3
100
AcDbSymbolTableRecord
100
AcDbTextStyleTableRecord
  2
ACISOTS
 70
     0
 40
1.0
 41
1.0
 50
0.0
 71
     0
 42
1.0
  3
isocp.shx
  4
chineset.shx
  0
STYLE
  5
144A
330
3
100
AcDbSymbolTableRecord
100
AcDbTextStyleTableRecord
  2
ACISOGDT
 70
     0
 40
0.0
 41
1.0
 50
0.0
 71
     0
 42
2.5
  3
amgdt.shx
  4

  0
STYLE
  5
167B
330
3
100
AcDbSymbolTableRecord
100
AcDbTextStyleTableRecord
  2
DAYUS
 70
     0
 40
0.0
 41
1.0
 50
0.0
 71
     0
 42
5.25
  3
simplex
  4
dayus
  0
STYLE
  5
BE5E
330
3
100
AcDbSymbolTableRecord
100
AcDbTextStyleTableRecord
  2
ACANSTS
 70
     0
 40
1.0
 41
1.0
 50
0.0
 71
     0
 42
1.5
  3
romans.shx
  4
chineset.shx
  0
STYLE
  5
BE5F
330
3
100
AcDbSymbolTableRecord
100
AcDbTextStyleTableRecord
  2
ACANSGDT
 70
     0
 40
0.0
 41
1.0
 50
0.0
 71
     0
 42
1.5
  3
amgdtans.shx
  4

  0
STYLE
  5
117D1
330
3
100
AcDbSymbolTableRecord
100
AcDbTextStyleTableRecord
  2
CHINESET
 70
     0
 40
0.0
 41
1.0
 50
0.0
 71
     0
 42
25.0
  3
simplex.shx
  4
chineset.shx
  0
STYLE
  5
117D2
330
3
100
AcDbSymbolTableRecord
100
AcDbTextStyleTableRecord
  2
LOGO
 70
     0
 40
0.0
 41
1.0
 50
0.0
 71
     0
 42
5.0
  3
LEI00DP.TTF
  4

1001
ACAD
1000
文鼎中粗隸
1071
    34865
  0
ENDTAB
  0
TABLE
  2
VIEW
  5
6
330
0
100
AcDbSymbolTable
 70
     0
  0
ENDTAB
  0
TABLE
  2
UCS
  5
7
330
0
100
AcDbSymbolTable
 70
     0
  0
ENDTAB
  0
TABLE
  2
APPID
  5
9
330
0
100
AcDbSymbolTable
 70
    20
  0
APPID
  5
12
330
9
100
AcDbSymbolTableRecord
100
AcDbRegAppTableRecord
  2
ACAD
 70
     0
  0
APPID
  5
30
330
9
100
AcDbSymbolTableRecord
100
AcDbRegAppTableRecord
  2
MCAD_NO_VIS
 70
     0
  0
APPID
  5
31
330
9
100
AcDbSymbolTableRecord
100
AcDbRegAppTableRecord
  2
ACAD_TEMP_GRAPHIC
 70
     0
  0
APPID
  5
455
330
9
100
AcDbSymbolTableRecord
100
AcDbRegAppTableRecord
  2
GENIUS_GENDTOL_13
 70
     0
  0
APPID
  5
6B34
330
9
100
AcDbSymbolTableRecord
100
AcDbRegAppTableRecord
  2
ACATTRIBSERVICES
 70
     0
  0
APPID
  5
DF34
330
9
100
AcDbSymbolTableRecord
100
AcDbRegAppTableRecord
  2
GENIUS_GENOREF_13
 70
     0
  0
APPID
  5
E304
330
9
100
AcDbSymbolTableRecord
100
AcDbRegAppTableRecord
  2
GENIUS_GENREC_14
 70
     0
  0
APPID
  5
E305
330
9
100
AcDbSymbolTableRecord
100
AcDbRegAppTableRecord
  2
GENIUS_GENODEF_13
 70
     0
  0
APPID
  5
E306
330
9
100
AcDbSymbolTableRecord
100
AcDbRegAppTableRecord
  2
GENIUS_GENOBJ-N-REC_13
 70
     0
  0
APPID
  5
E7E4
330
9
100
AcDbSymbolTableRecord
100
AcDbRegAppTableRecord
  2
GEVID1067829771
 70
     0
  0
APPID
  5
E7E5
330
9
100
AcDbSymbolTableRecord
100
AcDbRegAppTableRecord
  2
GEVDC
 70
     0
  0
APPID
  5
E7E6
330
9
100
AcDbSymbolTableRecord
100
AcDbRegAppTableRecord
  2
GEVRADREF
 70
     0
  0
APPID
  5
E7E9
330
9
100
AcDbSymbolTableRecord
100
AcDbRegAppTableRecord
  2
GENIUS_GENBH_13
 70
     0
  0
APPID
  5
E7EC
330
9
100
AcDbSymbolTableRecord
100
AcDbRegAppTableRecord
  2
GENIUS_GENOBJ-NBEHI-BHF_13
 70
     0
  0
APPID
  5
E7ED
330
9
100
AcDbSymbolTableRecord
100
AcDbRegAppTableRecord
  2
GENIUS_GENOENT_13
 70
     0
  0
APPID
  5
E7EE
330
9
100
AcDbSymbolTableRecord
100
AcDbRegAppTableRecord
  2
GENIUS_GENOLIS_13
 70
     0
  0
APPID
  5
E7F0
330
9
100
AcDbSymbolTableRecord
100
AcDbRegAppTableRecord
  2
GENIUS_GENOBJ-NBEHI-BHB_13
 70
     0
  0
APPID
  5
E805
330
9
100
AcDbSymbolTableRecord
100
AcDbRegAppTableRecord
  2
GEVID1067829772
 70
     0
  0
APPID
  5
114A2
330
9
100
AcDbSymbolTableRecord
100
AcDbRegAppTableRecord
  2
GENIUS_GENOBJ-N-HTC_13
 70
     0
  0
APPID
  5
114A3
330
9
100
AcDbSymbolTableRecord
100
AcDbRegAppTableRecord
  2
GENIUS_GENHATCH_13
 70
     0
  0
ENDTAB
  0
TABLE
  2
DIMSTYLE
  5
A
330
0
100
AcDbSymbolTable
 70
    14
  0
DIMSTYLE
105
98A
102
{ACAD_REACTORS
330
10ABE
330
10AC1
330
10B8A
330
10AC6
330
10B87
330
10F28
330
10F75
330
110FB
330
11254
102
}
330
A
100
AcDbSymbolTableRecord
100
AcDbDimStyleTableRecord
  2
AM_ISO
 70
     0
  3

  4
"
  5

  6

  7

 40
0.6
 41
3.0
 42
2.0
 43
10.0
 44
1.5
 45
0.0
 46
0.0
 47
0.1
 48
0.1
140
3.0
141
0.0
142
0.0
143
0.0393701
144
1.0
145
0.0
146
0.71
147
0.8
 71
     0
 72
     0
 73
     0
 74
     0
 75
     0
 76
     0
 77
     1
 78
     8
170
     0
171
     2
172
     1
173
     0
174
     0
175
     0
176
     5
177
   256
178
     5
270
     2
271
     2
272
     2
273
     2
274
     2
340
11
275
     0
280
     0
281
     0
282
     0
283
     0
284
     0
285
     0
286
     0
287
     3
288
     0
  0
DIMSTYLE
105
98B
330
A
100
AcDbSymbolTableRecord
100
AcDbDimStyleTableRecord
  2
AM_ISO$3
 70
     0
  3

  4
"
  5

  6

  7

 40
0.6
 41
3.0
 42
2.0
 43
10.0
 44
1.5
 45
0.0
 46
0.0
 47
0.1
 48
0.1
140
3.0
141
0.0
142
0.0
143
0.0393701
144
1.0
145
0.0
146
0.71
147
0.8
 71
     0
 72
     0
 73
     0
 74
     1
 75
     0
 76
     0
 77
     1
 78
     8
170
     0
171
     2
172
     0
173
     0
174
     0
175
     0
176
     5
177
   256
178
     5
270
     2
271
     2
272
     2
273
     2
274
     2
340
11
275
     0
280
     0
281
     0
282
     0
283
     0
284
     0
285
     0
286
     0
287
     0
288
     1
  0
DIMSTYLE
105
98C
330
A
100
AcDbSymbolTableRecord
100
AcDbDimStyleTableRecord
  2
AM_ISO$4
 70
     0
  3

  4
"
  5

  6

  7

 40
0.6
 41
3.0
 42
2.0
 43
10.0
 44
1.5
 45
0.0
 46
0.0
 47
0.1
 48
0.1
140
3.0
141
0.0
142
0.0
143
0.0393701
144
1.0
145
0.0
146
0.71
147
0.8
 71
     0
 72
     0
 73
     0
 74
     1
 75
     0
 76
     0
 77
     1
 78
     8
170
     0
171
     2
172
     0
173
     0
174
     0
175
     0
176
     5
177
   256
178
     5
270
     2
271
     2
272
     2
273
     2
274
     2
340
11
275
     0
280
     0
281
     0
282
     0
283
     0
284
     0
285
     0
286
     0
287
     0
288
     1
  0
DIMSTYLE
105
98D
330
A
100
AcDbSymbolTableRecord
100
AcDbDimStyleTableRecord
  2
AM_ISO$6
 70
     0
  3

  4
"
  5

  6

  7

 40
0.6
 41
3.0
 42
2.0
 43
10.0
 44
1.5
 45
0.0
 46
0.0
 47
0.1
 48
0.1
140
3.0
141
0.0
142
0.0
143
0.0393701
144
1.0
145
0.0
146
0.71
147
0.8
 71
     0
 72
     0
 73
     0
 74
     0
 75
     0
 76
     0
 77
     0
 78
     8
170
     0
171
     2
172
     1
173
     0
174
     0
175
     0
176
     5
177
   256
178
     5
270
     2
271
     2
272
     2
273
     2
274
     2
340
11
275
     0
280
     0
281
     0
282
     0
283
     0
284
     0
285
     0
286
     0
287
     3
288
     0
  0
DIMSTYLE
105
98E
330
A
100
AcDbSymbolTableRecord
100
AcDbDimStyleTableRecord
  2
AM_ISO$7
 70
     0
  3

  4
"
  5

  6

  7

 40
0.6
 41
3.0
 42
2.0
 43
10.0
 44
1.5
 45
0.0
 46
0.0
 47
0.1
 48
0.1
140
5.0
141
0.0
142
0.0
143
0.0393701
144
1.0
145
0.0
146
0.71
147
0.8
 71
     0
 72
     0
 73
     0
 74
     0
 75
     0
 76
     0
 77
     1
 78
     8
170
     0
171
     2
172
     1
173
     0
174
     0
175
     0
176
     5
177
   256
178
     5
270
     2
271
     2
272
     2
273
     2
274
     2
340
11
275
     0
280
     0
281
     0
282
     0
283
     0
284
     0
285
     0
286
     0
287
     3
288
     0
  0
DIMSTYLE
105
98F
330
A
100
AcDbSymbolTableRecord
100
AcDbDimStyleTableRecord
  2
AM_ISO$SF
 70
     0
  3

  4
"
  5

  6

  7

 40
0.5
 41
2.5
 42
1.0
 43
10.0
 44
1.0
 45
0.0
 46
0.0
 47
0.1
 48
0.1
140
3.5
141
0.0
142
0.0
143
0.0393701
144
1.0
145
0.0
146
0.71
147
1.5
 71
     0
 72
     0
 73
     0
 74
     0
 75
     1
 76
     1
 77
     1
 78
     8
170
     0
171
     2
172
     1
173
     0
174
     0
175
     0
176
   256
177
   256
178
     2
270
     2
271
     2
272
     2
273
     2
274
     2
340
11
275
     0
280
     0
281
     0
282
     0
283
     0
284
     0
285
     0
286
     0
287
     3
288
     0
  0
DIMSTYLE
105
994
330
A
100
AcDbSymbolTableRecord
100
AcDbDimStyleTableRecord
  2
AM_ISO$SH
 70
     0
  3

  4
"
  5

  6
GENAXEH
  7

 40
0.5
 41
2.5
 42
1.0
 43
10.0
 44
1.0
 45
0.0
 46
0.0
 47
0.1
 48
0.1
140
3.5
141
0.0
142
0.0
143
0.0393701
144
2.0
145
0.0
146
0.71
147
1.5
 71
     0
 72
     0
 73
     0
 74
     0
 75
     1
 76
     1
 77
     1
 78
     8
170
     0
171
     2
172
     1
173
     1
174
     0
175
     0
176
   256
177
   256
178
     2
270
     2
271
     2
272
     2
273
     2
274
     2
340
11
275
     0
280
     0
281
     0
282
     0
283
     0
284
     0
285
     0
286
     0
287
     3
288
     0
  0
DIMSTYLE
105
6E5D
330
A
100
AcDbSymbolTableRecord
100
AcDbDimStyleTableRecord
  2
AM_ANSI
 70
     0
  3

  4
"
  5

  6

  7

 40
0.8
 41
3.0
 42
1.5
 43
5.0
 44
2.0
 45
0.0
 46
0.0
 47
0.1
 48
0.1
140
3.0
141
-1.5
142
0.0
143
0.0393701
144
0.833333333
145
0.0
146
0.6
147
0.8
 71
     0
 72
     0
 73
     0
 74
     0
 75
     0
 76
     0
 77
     1
 78
     8
170
     0
171
     2
172
     1
173
     0
174
     0
175
     0
176
   256
177
   256
178
   256
270
     2
271
     2
272
     2
273
     2
274
     2
340
167B
275
     0
280
     0
281
     0
282
     0
283
     1
284
     8
285
     0
286
     0
287
     3
288
     0
  0
DIMSTYLE
105
6E5E
330
A
100
AcDbSymbolTableRecord
100
AcDbDimStyleTableRecord
  2
AM_ANSI$3
 70
     0
  3

  4
"
  5

  6

  7

 40
0.8
 41
3.0
 42
1.5
 43
5.0
 44
2.0
 45
0.0
 46
0.0
 47
0.1
 48
0.1
140
3.0
141
-1.5
142
0.0
143
0.0393701
144
0.833333333
145
0.0
146
0.6
147
0.8
 71
     0
 72
     0
 73
     0
 74
     0
 75
     0
 76
     0
 77
     1
 78
     8
170
     0
171
     2
172
     1
173
     0
174
     0
175
     0
176
   256
177
   256
178
   256
270
     2
271
     2
272
     2
273
     2
274
     2
340
167B
275
     0
280
     0
281
     0
282
     0
283
     1
284
     8
285
     0
286
     0
287
     0
288
     1
  0
DIMSTYLE
105
6E5F
330
A
100
AcDbSymbolTableRecord
100
AcDbDimStyleTableRecord
  2
AM_ANSI$7
 70
     0
  3

  4
"
  5

  6

  7

 40
0.8
 41
3.0
 42
1.5
 43
5.0
 44
2.0
 45
0.0
 46
0.0
 47
0.1
 48
0.1
140
5.0
141
-1.5
142
0.0
143
0.0393701
144
0.833333333
145
0.0
146
0.6
147
0.8
 71
     0
 72
     0
 73
     0
 74
     0
 75
     0
 76
     0
 77
     1
 78
     8
170
     0
171
     2
172
     1
173
     0
174
     0
175
     0
176
   256
177
   256
178
   256
270
     2
271
     2
272
     2
273
     2
274
     2
340
167B
275
     0
280
     0
281
     0
282
     0
283
     1
284
     8
285
     0
286
     0
287
     3
288
     0
  0
DIMSTYLE
105
B991
330
A
100
AcDbSymbolTableRecord
100
AcDbDimStyleTableRecord
  2
STANDARD
 70
     0
  3

  4

  5

  6

  7

 40
1.0
 41
3.0
 42
2.0
 43
10.5
 44
1.0
 45
0.0
 46
0.0
 47
0.01
 48
0.01
140
3.5
141
3.0
142
0.0
143
25.4
144
1.0
145
0.0
146
0.6
147
0.8
 71
     0
 72
     0
 73
     0
 74
     0
 75
     0
 76
     0
 77
     1
 78
     8
170
     0
171
     2
172
     1
173
     0
174
     0
175
     0
176
   256
177
   256
178
   256
270
     2
271
     2
272
     2
273
     2
274
     2
340
11
275
     0
280
     0
281
     0
282
     0
283
     0
284
     8
285
     0
286
     0
287
     3
288
     0
  0
DIMSTYLE
105
BE61
330
A
100
AcDbSymbolTableRecord
100
AcDbDimStyleTableRecord
  2
AM_ANSI$4
 70
     0
  3

  4
mm
  5

  6

  7

 40
1.0
 41
0.1
 42
0.05
 43
0.5
 44
0.1
 45
0.0
 46
0.0
 47
0.1
 48
0.1
140
0.12
141
0.0
142
0.0
143
25.4
144
1.0
145
0.0
146
0.71
147
0.06
 71
     0
 72
     0
 73
     1
 74
     1
 75
     0
 76
     0
 77
     0
 78
     7
170
     0
171
     2
172
     0
173
     0
174
     0
175
     0
176
   256
177
   256
178
     2
270
     2
271
     4
272
     4
273
     2
274
     4
340
11
275
     0
280
     0
281
     0
282
     0
283
     1
284
     7
285
     0
286
     0
287
     0
288
     1
  0
DIMSTYLE
105
BE62
330
A
100
AcDbSymbolTableRecord
100
AcDbDimStyleTableRecord
  2
AM_ANSI$SF
 70
     0
  3

  4
mm
  5

  6

  7

 40
1.0
 41
0.1
 42
0.05
 43
0.5
 44
0.1
 45
0.0
 46
0.0
 47
0.1
 48
0.1
140
0.12
141
0.0
142
0.0
143
25.4
144
1.0
145
0.0
146
0.71
147
0.06
 71
     0
 72
     0
 73
     1
 74
     1
 75
     1
 76
     1
 77
     0
 78
     7
170
     0
171
     2
172
     0
173
     0
174
     0
175
     0
176
   256
177
   256
178
     2
270
     2
271
     4
272
     4
273
     2
274
     4
340
11
275
     0
280
     0
281
     0
282
     0
283
     1
284
     7
285
     0
286
     0
287
     3
288
     0
  0
DIMSTYLE
105
BE63
330
A
100
AcDbSymbolTableRecord
100
AcDbDimStyleTableRecord
  2
AM_ANSI$SH
 70
     0
  3

  4
mm
  5

  6
GENAXEH
  7

 40
1.0
 41
0.1
 42
0.05
 43
0.5
 44
0.1
 45
0.0
 46
0.0
 47
0.1
 48
0.1
140
0.12
141
0.0
142
0.0
143
25.4
144
1.0
145
0.0
146
0.71
147
0.06
 71
     0
 72
     0
 73
     1
 74
     1
 75
     1
 76
     1
 77
     0
 78
     7
170
     0
171
     2
172
     0
173
     1
174
     0
175
     0
176
   256
177
   256
178
     2
270
     2
271
     4
272
     4
273
     2
274
     4
340
11
275
     0
280
     0
281
     0
282
     0
283
     1
284
     7
285
     0
286
     0
287
     3
288
     0
  0
ENDTAB
  0
TABLE
  2
BLOCK_RECORD
  5
1
330
0
100
AcDbSymbolTable
 70
    14
  0
BLOCK_RECORD
  5
1F
102
{ACAD_XDICTIONARY
360
3A4
102
}
330
1
100
AcDbSymbolTableRecord
100
AcDbBlockTableRecord
  2
*MODEL_SPACE
  0
BLOCK_RECORD
  5
1B
102
{ACAD_XDICTIONARY
360
11A7A
102
}
330
1
100
AcDbSymbolTableRecord
100
AcDbBlockTableRecord
  2
*PAPER_SPACE
  0
BLOCK_RECORD
  5
990
330
1
100
AcDbSymbolTableRecord
100
AcDbBlockTableRecord
  2
GENAXEH
  0
BLOCK_RECORD
  5
10C2D
330
1
100
AcDbSymbolTableRecord
100
AcDbBlockTableRecord
  2
*D2
  0
BLOCK_RECORD
  5
10C39
330
1
100
AcDbSymbolTableRecord
100
AcDbBlockTableRecord
  2
*D3
  0
BLOCK_RECORD
  5
10C45
330
1
100
AcDbSymbolTableRecord
100
AcDbBlockTableRecord
  2
*D4
  0
BLOCK_RECORD
  5
10C51
330
1
100
AcDbSymbolTableRecord
100
AcDbBlockTableRecord
  2
*D5
  0
BLOCK_RECORD
  5
10C5D
330
1
100
AcDbSymbolTableRecord
100
AcDbBlockTableRecord
  2
*D6
  0
BLOCK_RECORD
  5
10F29
330
1
100
AcDbSymbolTableRecord
100
AcDbBlockTableRecord
  2
*D7
  0
BLOCK_RECORD
  5
10F76
330
1
100
AcDbSymbolTableRecord
100
AcDbBlockTableRecord
  2
*D8
  0
BLOCK_RECORD
  5
110FC
330
1
100
AcDbSymbolTableRecord
100
AcDbBlockTableRecord
  2
*D9
  0
BLOCK_RECORD
  5
11255
330
1
100
AcDbSymbolTableRecord
100
AcDbBlockTableRecord
  2
*D10
  0
BLOCK_RECORD
  5
11A87
330
1
100
AcDbSymbolTableRecord
100
AcDbBlockTableRecord
  2
*S11
  0
BLOCK_RECORD
  5
11A90
330
1
100
AcDbSymbolTableRecord
100
AcDbBlockTableRecord
  2
*S12
  0
BLOCK_RECORD
  5
11A98
330
1
100
AcDbSymbolTableRecord
100
AcDbBlockTableRecord
  2
*S13
  0
ENDTAB
  0
ENDSEC
  0
SECTION
  2
BLOCKS
  0
BLOCK
  5
20
330
1F
100
AcDbEntity
  8
0
100
AcDbBlockBegin
  2
*MODEL_SPACE
 70
     0
 10
0.0
 20
0.0
 30
0.0
  3
*MODEL_SPACE
  1

  0
ENDBLK
  5
21
330
1F
100
AcDbEntity
  8
0
100
AcDbBlockEnd
  0
BLOCK
  5
1C
330
1B
100
AcDbEntity
 67
     1
  8
0
100
AcDbBlockBegin
  2
*PAPER_SPACE
 70
     0
 10
0.0
 20
0.0
 30
0.0
  3
*PAPER_SPACE
  1

  0
ENDBLK
  5
1D
330
1B
100
AcDbEntity
 67
     1
  8
0
100
AcDbBlockEnd
  0
BLOCK
  5
992
330
990
100
AcDbEntity
  8
0
100
AcDbBlockBegin
  2
GENAXEH
 70
     0
 10
0.0
 20
0.0
 30
0.0
  3
GENAXEH
  1

  0
LINE
  5
991
330
990
100
AcDbEntity
  8
0
100
AcDbLine
 10
-1.0
 20
0.0
 30
0.0
 11
1.0
 21
0.0
 31
0.0
  0
ENDBLK
  5
993
330
990
100
AcDbEntity
  8
0
100
AcDbBlockEnd
  0
BLOCK
  5
10C37
330
10C2D
100
AcDbEntity
  8
0
100
AcDbBlockBegin
  2
*D2
 70
     1
 10
0.0
 20
0.0
 30
0.0
  3
*D2
  1

  0
LINE
  5
11967
330
10C2D
100
AcDbEntity
  8
AM_5
100
AcDbLine
 10
828.7972683324163
 20
18.77530527678447
 30
0.0
 11
806.7265170885878
 21
18.77530527678448
 31
0.0
  0
LINE
  5
11968
330
10C2D
100
AcDbEntity
  8
AM_5
100
AcDbLine
 10
893.0799806068122
 20
-241.2970607541922
 30
0.0
 11
806.7265170885878
 21
-241.2970607541922
 31
0.0
  0
LINE
  5
11969
330
10C2D
100
AcDbEntity
  8
AM_5
 62
     5
100
AcDbLine
 10
811.2265170885878
 20
9.775305276784484
 30
0.0
 11
811.2265170885878
 21
-232.2970607541922
 31
0.0
  0
SOLID
  5
1196A
330
10C2D
100
AcDbEntity
  8
AM_5
 62
     5
100
AcDbTrace
 10
809.7265170885878
 20
9.775305276784484
 30
0.0
 11
812.7265170885877
 21
9.775305276784482
 31
0.0
 12
811.2265170885878
 22
18.77530527678448
 32
0.0
 13
811.2265170885878
 23
18.77530527678448
 33
0.0
  0
SOLID
  5
1196B
330
10C2D
100
AcDbEntity
  8
AM_5
 62
     5
100
AcDbTrace
 10
809.7265170885878
 20
-232.2970607541922
 30
0.0
 11
812.7265170885877
 21
-232.2970607541922
 31
0.0
 12
811.2265170885878
 22
-241.2970607541922
 32
0.0
 13
811.2265170885878
 23
-241.2970607541922
 33
0.0
  0
MTEXT
  5
1196C
330
10C2D
100
AcDbEntity
  8
AM_5
 62
     5
100
AcDbMText
 10
804.3256312618161
 20
-111.2608777387037
 30
0.0
 40
9.0
 41
0.0
 71
     5
 72
     1
  1
260
 11
0.0000000000000001
 21
1.0
 31
0.0
1001
ACAD
1000
MTEXTBEGIN
1070
    73
1070
     1
1070
    44
1040
1.0
1070
    74
1070
     0
1000
MTEXTEND
  0
POINT
  5
1196D
330
10C2D
100
AcDbEntity
  8
DEFPOINTS
 62
     0
100
AcDbPoint
 10
834.7972683324162
 20
18.77530527678447
 30
0.0
  0
POINT
  5
1196E
330
10C2D
100
AcDbEntity
  8
DEFPOINTS
 62
     0
100
AcDbPoint
 10
899.0799806068123
 20
-241.2970607541922
 30
0.0
  0
POINT
  5
1196F
330
10C2D
100
AcDbEntity
  8
DEFPOINTS
 62
     0
100
AcDbPoint
 10
811.2265170885878
 20
-241.2970607541922
 30
0.0
  0
ENDBLK
  5
10C38
330
10C2D
100
AcDbEntity
  8
0
100
AcDbBlockEnd
  0
BLOCK
  5
10C43
330
10C39
100
AcDbEntity
  8
0
100
AcDbBlockBegin
  2
*D3
 70
     1
 10
0.0
 20
0.0
 30
0.0
  3
*D3
  1

  0
LINE
  5
11970
330
10C39
100
AcDbEntity
  8
AM_5
100
AcDbLine
 10
617.564415408784
 20
224.0623837492586
 30
0.0
 11
704.1593367822547
 21
224.0623837492586
 31
0.0
  0
LINE
  5
11971
330
10C39
100
AcDbEntity
  8
AM_5
100
AcDbLine
 10
617.564415408784
 20
114.3455749079786
 30
0.0
 11
704.1593367822547
 21
114.3455749079786
 31
0.0
  0
LINE
  5
11972
330
10C39
100
AcDbEntity
  8
AM_5
 62
     5
100
AcDbLine
 10
699.6593367822547
 20
215.0623837492586
 30
0.0
 11
699.6593367822547
 21
123.3455749079786
 31
0.0
  0
SOLID
  5
11973
330
10C39
100
AcDbEntity
  8
AM_5
 62
     5
100
AcDbTrace
 10
698.1593367822547
 20
215.0623837492586
 30
0.0
 11
701.1593367822547
 21
215.0623837492586
 31
0.0
 12
699.6593367822547
 22
224.0623837492586
 32
0.0
 13
699.6593367822547
 23
224.0623837492586
 33
0.0
  0
SOLID
  5
11974
330
10C39
100
AcDbEntity
  8
AM_5
 62
     5
100
AcDbTrace
 10
698.1593367822547
 20
123.3455749079786
 30
0.0
 11
701.1593367822547
 21
123.3455749079786
 31
0.0
 12
699.6593367822547
 22
114.3455749079786
 32
0.0
 13
699.6593367822547
 23
114.3455749079786
 33
0.0
  0
MTEXT
  5
11975
330
10C39
100
AcDbEntity
  8
AM_5
 62
     5
100
AcDbMText
 10
692.7593367822547
 20
169.2039793286187
 30
0.0
 40
9.0
 41
0.0
 71
     5
 72
     1
  1
%%c110
 11
0.0000000000000001
 21
1.0
 31
0.0
1001
ACAD
1000
MTEXTBEGIN
1070
    73
1070
     1
1070
    44
1040
1.0
1070
    74
1070
     0
1000
MTEXTEND
  0
POINT
  5
11976
330
10C39
100
AcDbEntity
  8
DEFPOINTS
 62
     0
100
AcDbPoint
 10
611.564415408784
 20
224.0623837492586
 30
0.0
  0
POINT
  5
11977
330
10C39
100
AcDbEntity
  8
DEFPOINTS
 62
     0
100
AcDbPoint
 10
611.564415408784
 20
114.3455749079786
 30
0.0
  0
POINT
  5
11978
330
10C39
100
AcDbEntity
  8
DEFPOINTS
 62
     0
100
AcDbPoint
 10
699.6593367822547
 20
114.3455749079786
 30
0.0
  0
ENDBLK
  5
10C44
330
10C39
100
AcDbEntity
  8
0
100
AcDbBlockEnd
  0
BLOCK
  5
10C4F
330
10C45
100
AcDbEntity
  8
0
100
AcDbBlockBegin
  2
*D4
 70
     1
 10
0.0
 20
0.0
 30
0.0
  3
*D4
  1

  0
LINE
  5
11979
330
10C45
100
AcDbEntity
  8
AM_5
100
AcDbLine
 10
867.0384068425471
 20
50.52530527678391
 30
0.0
 11
806.7265170885878
 21
50.52530527678393
 31
0.0
  0
LINE
  5
1197A
330
10C45
100
AcDbEntity
  8
AM_5
100
AcDbLine
 10
828.7972683324163
 20
18.77530527678447
 30
0.0
 11
806.7265170885878
 21
18.77530527678448
 31
0.0
  0
LINE
  5
1197B
330
10C45
100
AcDbEntity
  8
AM_5
 62
     5
100
AcDbLine
 10
811.2265170885878
 20
41.52530527678393
 30
0.0
 11
811.2265170885878
 21
27.77530527678448
 31
0.0
  0
SOLID
  5
1197C
330
10C45
100
AcDbEntity
  8
AM_5
 62
     5
100
AcDbTrace
 10
809.7265170885878
 20
41.52530527678393
 30
0.0
 11
812.7265170885877
 21
41.52530527678393
 31
0.0
 12
811.2265170885878
 22
50.52530527678393
 32
0.0
 13
811.2265170885878
 23
50.52530527678393
 33
0.0
  0
SOLID
  5
1197D
330
10C45
100
AcDbEntity
  8
AM_5
 62
     5
100
AcDbTrace
 10
809.7265170885878
 20
27.77530527678448
 30
0.0
 11
812.7265170885877
 21
27.77530527678448
 31
0.0
 12
811.2265170885878
 22
18.77530527678448
 32
0.0
 13
811.2265170885878
 23
18.77530527678448
 33
0.0
  0
MTEXT
  5
1197E
330
10C45
100
AcDbEntity
  8
AM_5
 62
     5
100
AcDbMText
 10
804.3256312618161
 20
34.65030527678433
 30
0.0
 40
9.0
 41
0.0
 71
     5
 72
     1
  1
32
 11
0.0000000000000001
 21
1.0
 31
0.0
1001
ACAD
1000
MTEXTBEGIN
1070
    73
1070
     1
1070
    44
1040
1.0
1070
    74
1070
     0
1000
MTEXTEND
  0
POINT
  5
1197F
330
10C45
100
AcDbEntity
  8
DEFPOINTS
 62
     0
100
AcDbPoint
 10
873.0384068425472
 20
50.52530527678391
 30
0.0
  0
POINT
  5
11980
330
10C45
100
AcDbEntity
  8
DEFPOINTS
 62
     0
100
AcDbPoint
 10
834.7972683324162
 20
18.77530527678447
 30
0.0
  0
POINT
  5
11981
330
10C45
100
AcDbEntity
  8
DEFPOINTS
 62
     0
100
AcDbPoint
 10
811.2265170885878
 20
18.77530527678448
 30
0.0
  0
ENDBLK
  5
10C50
330
10C45
100
AcDbEntity
  8
0
100
AcDbBlockEnd
  0
BLOCK
  5
10C5B
330
10C51
100
AcDbEntity
  8
0
100
AcDbBlockBegin
  2
*D5
 70
     1
 10
0.0
 20
0.0
 30
0.0
  3
*D5
  1

  0
LINE
  5
11931
330
10C51
100
AcDbEntity
  8
AM_5
100
AcDbLine
 10
534.919853705695
 20
18.77530527678493
 30
0.0
 11
516.4890148998843
 21
18.77530527678494
 31
0.0
  0
LINE
  5
11932
330
10C51
100
AcDbEntity
  8
AM_5
100
AcDbLine
 10
596.9284154087854
 20
-246.2221632898334
 30
0.0
 11
516.4890148998843
 21
-246.2221632898334
 31
0.0
  0
LINE
  5
11933
330
10C51
100
AcDbEntity
  8
AM_5
 62
     5
100
AcDbLine
 10
520.9890148998843
 20
9.775305276784939
 30
0.0
 11
520.9890148998843
 21
-237.2221632898334
 31
0.0
  0
SOLID
  5
11934
330
10C51
100
AcDbEntity
  8
AM_5
 62
     5
100
AcDbTrace
 10
519.4890148998843
 20
9.775305276784939
 30
0.0
 11
522.4890148998842
 21
9.775305276784939
 31
0.0
 12
520.9890148998843
 22
18.77530527678493
 32
0.0
 13
520.9890148998843
 23
18.77530527678493
 33
0.0
  0
SOLID
  5
11935
330
10C51
100
AcDbEntity
  8
AM_5
 62
     5
100
AcDbTrace
 10
519.4890148998843
 20
-237.2221632898334
 30
0.0
 11
522.4890148998842
 21
-237.2221632898334
 31
0.0
 12
520.9890148998843
 22
-246.2221632898334
 32
0.0
 13
520.9890148998843
 23
-246.2221632898334
 33
0.0
  0
MTEXT
  5
11936
330
10C51
100
AcDbEntity
  8
AM_5
 62
     5
100
AcDbMText
 10
514.0881290731126
 20
-113.7234290065241
 30
0.0
 40
9.0
 41
0.0
 71
     5
 72
     1
  1
265
 11
0.0000000000000001
 21
1.0
 31
0.0
1001
ACAD
1000
MTEXTBEGIN
1070
    73
1070
     1
1070
    44
1040
1.0
1070
    74
1070
     0
1000
MTEXTEND
  0
POINT
  5
11937
330
10C51
100
AcDbEntity
  8
DEFPOINTS
 62
     0
100
AcDbPoint
 10
540.9198537056949
 20
18.77530527678493
 30
0.0
  0
POINT
  5
11938
330
10C51
100
AcDbEntity
  8
DEFPOINTS
 62
     0
100
AcDbPoint
 10
602.9284154087854
 20
-246.2221632898334
 30
0.0
  0
POINT
  5
11939
330
10C51
100
AcDbEntity
  8
DEFPOINTS
 62
     0
100
AcDbPoint
 10
520.9890148998843
 20
-246.2221632898334
 30
0.0
  0
ENDBLK
  5
10C5C
330
10C51
100
AcDbEntity
  8
0
100
AcDbBlockEnd
  0
BLOCK
  5
10C67
330
10C5D
100
AcDbEntity
  8
0
100
AcDbBlockBegin
  2
*D6
 70
     1
 10
0.0
 20
0.0
 30
0.0
  3
*D6
  1

  0
LINE
  5
11955
330
10C5D
100
AcDbEntity
  8
AM_5
100
AcDbLine
 10
572.7678105586364
 20
50.52530527678438
 30
0.0
 11
516.4890148998843
 21
50.52530527678441
 31
0.0
  0
LINE
  5
11956
330
10C5D
100
AcDbEntity
  8
AM_5
100
AcDbLine
 10
534.919853705695
 20
18.77530527678493
 30
0.0
 11
516.4890148998843
 21
18.77530527678493
 31
0.0
  0
LINE
  5
11957
330
10C5D
100
AcDbEntity
  8
AM_5
 62
     5
100
AcDbLine
 10
520.9890148998843
 20
41.5253052767844
 30
0.0
 11
520.9890148998843
 21
27.77530527678493
 31
0.0
  0
SOLID
  5
11958
330
10C5D
100
AcDbEntity
  8
AM_5
 62
     5
100
AcDbTrace
 10
519.4890148998843
 20
41.5253052767844
 30
0.0
 11
522.4890148998842
 21
41.5253052767844
 31
0.0
 12
520.9890148998843
 22
50.5253052767844
 32
0.0
 13
520.9890148998843
 23
50.5253052767844
 33
0.0
  0
SOLID
  5
11959
330
10C5D
100
AcDbEntity
  8
AM_5
 62
     5
100
AcDbTrace
 10
519.4890148998843
 20
27.77530527678493
 30
0.0
 11
522.4890148998842
 21
27.77530527678493
 31
0.0
 12
520.9890148998843
 22
18.77530527678493
 32
0.0
 13
520.9890148998843
 23
18.77530527678493
 33
0.0
  0
MTEXT
  5
1195A
330
10C5D
100
AcDbEntity
  8
AM_5
 62
     5
100
AcDbMText
 10
514.0881290731126
 20
34.65030527678475
 30
0.0
 40
9.0
 41
0.0
 71
     5
 72
     1
  1
32
 11
0.0000000000000001
 21
1.0
 31
0.0
1001
ACAD
1000
MTEXTBEGIN
1070
    73
1070
     1
1070
    44
1040
1.0
1070
    74
1070
     0
1000
MTEXTEND
  0
POINT
  5
1195B
330
10C5D
100
AcDbEntity
  8
DEFPOINTS
 62
     0
100
AcDbPoint
 10
578.7678105586365
 20
50.52530527678438
 30
0.0
  0
POINT
  5
1195C
330
10C5D
100
AcDbEntity
  8
DEFPOINTS
 62
     0
100
AcDbPoint
 10
540.9198537056949
 20
18.77530527678492
 30
0.0
  0
POINT
  5
1195D
330
10C5D
100
AcDbEntity
  8
DEFPOINTS
 62
     0
100
AcDbPoint
 10
520.9890148998843
 20
18.77530527678493
 30
0.0
  0
ENDBLK
  5
10C68
330
10C5D
100
AcDbEntity
  8
0
100
AcDbBlockEnd
  0
BLOCK
  5
10F33
330
10F29
100
AcDbEntity
  8
0
100
AcDbBlockBegin
  2
*D7
 70
     1
 10
0.0
 20
0.0
 30
0.0
  3
*D7
  1

  0
LINE
  5
1193A
330
10F29
100
AcDbEntity
  8
AM_5
100
AcDbLine
 10
546.778415408784
 20
132.9810620783583
 30
0.0
 11
546.778415408784
 21
83.88061899315971
 31
0.0
  0
LINE
  5
1193B
330
10F29
100
AcDbEntity
  8
AM_5
100
AcDbLine
 10
666.4131249229231
 20
132.9810620783592
 30
0.0
 11
666.4131249229231
 21
83.88061899315971
 31
0.0
  0
LINE
  5
1193C
330
10F29
100
AcDbEntity
  8
AM_5
 62
     5
100
AcDbLine
 10
555.778415408784
 20
88.38061899315972
 30
0.0
 11
657.4131249229231
 21
88.38061899315972
 31
0.0
  0
SOLID
  5
1193D
330
10F29
100
AcDbEntity
  8
AM_5
 62
     5
100
AcDbTrace
 10
555.778415408784
 20
89.88061899315971
 30
0.0
 11
555.778415408784
 21
86.88061899315972
 31
0.0
 12
546.778415408784
 22
88.38061899315972
 32
0.0
 13
546.778415408784
 23
88.38061899315972
 33
0.0
  0
SOLID
  5
1193E
330
10F29
100
AcDbEntity
  8
AM_5
 62
     5
100
AcDbTrace
 10
657.4131249229231
 20
89.88061899315971
 30
0.0
 11
657.4131249229231
 21
86.88061899315972
 31
0.0
 12
666.4131249229231
 22
88.38061899315972
 32
0.0
 13
666.4131249229231
 23
88.38061899315972
 33
0.0
  0
MTEXT
  5
1193F
330
10F29
100
AcDbEntity
  8
AM_5
 62
     5
100
AcDbMText
 10
606.5957701658535
 20
95.28150481993137
 30
0.0
 40
9.0
 41
0.0
 71
     5
 72
     1
  1
120
1001
ACAD
1000
MTEXTBEGIN
1070
    73
1070
     1
1070
    44
1040
1.0
1070
    74
1070
     0
1000
MTEXTEND
  0
POINT
  5
11940
330
10F29
100
AcDbEntity
  8
DEFPOINTS
 62
     0
100
AcDbPoint
 10
546.778415408784
 20
138.9810620783583
 30
0.0
  0
POINT
  5
11941
330
10F29
100
AcDbEntity
  8
DEFPOINTS
 62
     0
100
AcDbPoint
 10
666.4131249229231
 20
138.9810620783592
 30
0.0
  0
POINT
  5
11942
330
10F29
100
AcDbEntity
  8
DEFPOINTS
 62
     0
100
AcDbPoint
 10
666.4131249229231
 20
88.38061899315972
 30
0.0
  0
ENDBLK
  5
10F34
330
10F29
100
AcDbEntity
  8
0
100
AcDbBlockEnd
  0
BLOCK
  5
10F80
330
10F76
100
AcDbEntity
  8
0
100
AcDbBlockBegin
  2
*D8
 70
     1
 10
0.0
 20
0.0
 30
0.0
  3
*D8
  1

  0
LINE
  5
1194C
330
10F76
100
AcDbEntity
  8
AM_5
100
AcDbLine
 10
540.7784154087839
 20
199.426896578877
 30
0.0
 11
523.2295253342503
 21
199.426896578877
 31
0.0
  0
LINE
  5
1194D
330
10F76
100
AcDbEntity
  8
AM_5
100
AcDbLine
 10
540.7784154087839
 20
138.9810620783583
 30
0.0
 11
523.2295253342503
 21
138.9810620783583
 31
0.0
  0
LINE
  5
1194E
330
10F76
100
AcDbEntity
  8
AM_5
 62
     5
100
AcDbLine
 10
527.7295253342503
 20
190.426896578877
 30
0.0
 11
527.7295253342503
 21
147.9810620783583
 31
0.0
  0
SOLID
  5
1194F
330
10F76
100
AcDbEntity
  8
AM_5
 62
     5
100
AcDbTrace
 10
526.2295253342503
 20
190.426896578877
 30
0.0
 11
529.2295253342502
 21
190.426896578877
 31
0.0
 12
527.7295253342503
 22
199.426896578877
 32
0.0
 13
527.7295253342503
 23
199.426896578877
 33
0.0
  0
SOLID
  5
11950
330
10F76
100
AcDbEntity
  8
AM_5
 62
     5
100
AcDbTrace
 10
526.2295253342503
 20
147.9810620783583
 30
0.0
 11
529.2295253342502
 21
147.9810620783583
 31
0.0
 12
527.7295253342503
 22
138.9810620783583
 32
0.0
 13
527.7295253342503
 23
138.9810620783583
 33
0.0
  0
MTEXT
  5
11951
330
10F76
100
AcDbEntity
  8
AM_5
 62
     5
100
AcDbMText
 10
520.8295253342503
 20
169.2039793286178
 30
0.0
 40
9.0
 41
0.0
 71
     5
 72
     1
  1
60
 11
0.0000000000000001
 21
1.0
 31
0.0
1001
ACAD
1000
MTEXTBEGIN
1070
    73
1070
     1
1070
    44
1040
1.0
1070
    74
1070
     0
1000
MTEXTEND
  0
POINT
  5
11952
330
10F76
100
AcDbEntity
  8
DEFPOINTS
 62
     0
100
AcDbPoint
 10
546.778415408784
 20
199.426896578877
 30
0.0
  0
POINT
  5
11953
330
10F76
100
AcDbEntity
  8
DEFPOINTS
 62
     0
100
AcDbPoint
 10
546.778415408784
 20
138.9810620783583
 30
0.0
  0
POINT
  5
11954
330
10F76
100
AcDbEntity
  8
DEFPOINTS
 62
     0
100
AcDbPoint
 10
527.7295253342503
 20
138.9810620783583
 30
0.0
  0
ENDBLK
  5
10F81
330
10F76
100
AcDbEntity
  8
0
100
AcDbBlockEnd
  0
BLOCK
  5
11106
330
110FC
100
AcDbEntity
  8
0
100
AcDbBlockBegin
  2
*D9
 70
     1
 10
0.0
 20
0.0
 30
0.0
  3
*D9
  1

  0
LINE
  5
11943
330
110FC
100
AcDbEntity
  8
AM_5
100
AcDbLine
 10
572.7678105586364
 20
50.52530527678439
 30
0.0
 11
492.8923946598315
 21
50.52530527678442
 31
0.0
  0
LINE
  5
11944
330
110FC
100
AcDbEntity
  8
AM_5
100
AcDbLine
 10
596.9284154087854
 20
-246.2221632898334
 30
0.0
 11
492.8923946598315
 21
-246.2221632898334
 31
0.0
  0
LINE
  5
11945
330
110FC
100
AcDbEntity
  8
AM_5
 62
     5
100
AcDbLine
 10
497.3923946598315
 20
41.52530527678441
 30
0.0
 11
497.3923946598315
 21
-237.2221632898334
 31
0.0
  0
SOLID
  5
11946
330
110FC
100
AcDbEntity
  8
AM_5
 62
     5
100
AcDbTrace
 10
495.8923946598315
 20
41.52530527678442
 30
0.0
 11
498.8923946598315
 21
41.52530527678441
 31
0.0
 12
497.3923946598315
 22
50.52530527678442
 32
0.0
 13
497.3923946598315
 23
50.52530527678442
 33
0.0
  0
SOLID
  5
11947
330
110FC
100
AcDbEntity
  8
AM_5
 62
     5
100
AcDbTrace
 10
495.8923946598314
 20
-237.2221632898334
 30
0.0
 11
498.8923946598315
 21
-237.2221632898334
 31
0.0
 12
497.3923946598315
 22
-246.2221632898334
 32
0.0
 13
497.3923946598315
 23
-246.2221632898334
 33
0.0
  0
MTEXT
  5
11948
330
110FC
100
AcDbEntity
  8
AM_5
 62
     5
100
AcDbMText
 10
490.4915088330599
 20
-97.84842900652442
 30
0.0
 40
9.0
 41
0.0
 71
     5
 72
     1
  1
297
 11
0.0000000000000001
 21
1.0
 31
0.0
1001
ACAD
1000
MTEXTBEGIN
1070
    73
1070
     1
1070
    44
1040
1.0
1070
    74
1070
     0
1000
MTEXTEND
  0
POINT
  5
11949
330
110FC
100
AcDbEntity
  8
DEFPOINTS
 62
     0
100
AcDbPoint
 10
578.7678105586365
 20
50.52530527678439
 30
0.0
  0
POINT
  5
1194A
330
110FC
100
AcDbEntity
  8
DEFPOINTS
 62
     0
100
AcDbPoint
 10
602.9284154087854
 20
-246.2221632898334
 30
0.0
  0
POINT
  5
1194B
330
110FC
100
AcDbEntity
  8
DEFPOINTS
 62
     0
100
AcDbPoint
 10
497.3923946598315
 20
-246.2221632898334
 30
0.0
  0
ENDBLK
  5
11107
330
110FC
100
AcDbEntity
  8
0
100
AcDbBlockEnd
  0
BLOCK
  5
1125F
330
11255
100
AcDbEntity
  8
0
100
AcDbBlockBegin
  2
*D10
 70
     1
 10
0.0
 20
0.0
 30
0.0
  3
*D10
  1

  0
LINE
  5
1195E
330
11255
100
AcDbEntity
  8
AM_5
100
AcDbLine
 10
867.0384068425471
 20
50.52530527678439
 30
0.0
 11
784.3651938006132
 21
50.52530527678442
 31
0.0
  0
LINE
  5
1195F
330
11255
100
AcDbEntity
  8
AM_5
100
AcDbLine
 10
893.0799806068122
 20
-241.2970607541922
 30
0.0
 11
784.3651938006132
 21
-241.2970607541922
 31
0.0
  0
LINE
  5
11960
330
11255
100
AcDbEntity
  8
AM_5
 62
     5
100
AcDbLine
 10
788.8651938006132
 20
41.52530527678441
 30
0.0
 11
788.8651938006132
 21
-232.2970607541922
 31
0.0
  0
SOLID
  5
11961
330
11255
100
AcDbEntity
  8
AM_5
 62
     5
100
AcDbTrace
 10
787.3651938006132
 20
41.52530527678441
 30
0.0
 11
790.3651938006133
 21
41.52530527678441
 31
0.0
 12
788.8651938006132
 22
50.52530527678442
 32
0.0
 13
788.8651938006132
 23
50.52530527678442
 33
0.0
  0
SOLID
  5
11962
330
11255
100
AcDbEntity
  8
AM_5
 62
     5
100
AcDbTrace
 10
787.3651938006132
 20
-232.2970607541922
 30
0.0
 11
790.3651938006133
 21
-232.2970607541922
 31
0.0
 12
788.8651938006132
 22
-241.2970607541922
 32
0.0
 13
788.8651938006132
 23
-241.2970607541922
 33
0.0
  0
MTEXT
  5
11963
330
11255
100
AcDbEntity
  8
AM_5
 62
     5
100
AcDbMText
 10
781.9621328582529
 20
-95.38587773870379
 30
0.0
 40
9.0
 41
0.0
 71
     5
 72
     1
  1
292
 11
0.0000000000000001
 21
1.0
 31
0.0
1001
ACAD
1000
MTEXTBEGIN
1070
    73
1070
     1
1070
    44
1040
1.0
1070
    74
1070
     0
1000
MTEXTEND
  0
POINT
  5
11964
330
11255
100
AcDbEntity
  8
DEFPOINTS
 62
     0
100
AcDbPoint
 10
873.0384068425472
 20
50.52530527678439
 30
0.0
  0
POINT
  5
11965
330
11255
100
AcDbEntity
  8
DEFPOINTS
 62
     0
100
AcDbPoint
 10
899.0799806068123
 20
-241.2970607541922
 30
0.0
  0
POINT
  5
11966
330
11255
100
AcDbEntity
  8
DEFPOINTS
 62
     0
100
AcDbPoint
 10
788.8651938006132
 20
-241.2970607541922
 30
0.0
  0
ENDBLK
  5
11260
330
11255
100
AcDbEntity
  8
0
100
AcDbBlockEnd
  0
BLOCK
  5
11A8C
330
11A87
100
AcDbEntity
  8
0
100
AcDbBlockBegin
  2
*S11
 70
     1
 10
0.0
 20
0.0
 30
0.0
  3
*S11
  1

  0
LINE
  5
11A88
330
11A87
100
AcDbEntity
  8
AM_5
100
AcDbLine
 10
964.2980118290452
 20
-267.5673306978162
 30
0.0
 11
924.0913262387792
 21
-267.5673306978162
 31
0.0
  0
LINE
  5
11A89
330
11A87
100
AcDbEntity
  8
AM_5
100
AcDbLine
 10
924.0913262387792
 20
-267.5673306978162
 30
0.0
 11
910.9710601908473
 21
-248.6877053314642
 31
0.0
  0
TRACE
  5
11A8A
330
11A87
100
AcDbEntity
  8
AM_5
100
AcDbTrace
 10
911.9440514688633
 20
-248.0115317219688
 30
0.0
 11
909.9980689128313
 21
-249.3638789409596
 31
0.0
 12
905.8350116926911
 22
-241.297102796854
 32
0.0
 13
905.8350116926911
 23
-241.297102796854
 33
0.0
  0
MTEXT
  5
11A8B
330
11A87
100
AcDbEntity
  8
AM_5
 62
     2
100
AcDbMText
 10
964.2980118290452
 20
-267.5673306978162
 30
0.0
 40
17.5
 41
0.0
 71
     7
 72
     1
  1

  7
ACISOTS
  0
ENDBLK
  5
11A8D
330
11A87
100
AcDbEntity
  8
0
100
AcDbBlockEnd
  0
BLOCK
  5
11A95
330
11A90
100
AcDbEntity
  8
0
100
AcDbBlockBegin
  2
*S12
 70
     1
 10
0.0
 20
0.0
 30
0.0
  3
*S12
  1

  0
LINE
  5
11A91
330
11A90
100
AcDbEntity
  8
AM_5
100
AcDbLine
 10
739.9769998451224
 20
-7.526672624178274
 30
0.0
 11
684.6847299548662
 21
-7.526672624178274
 31
0.0
  0
LINE
  5
11A92
330
11A90
100
AcDbEntity
  8
AM_5
100
AcDbLine
 10
684.6847299548662
 20
-7.526672624178274
 30
0.0
 11
671.5644639069344
 21
11.35295274217372
 31
0.0
  0
TRACE
  5
11A93
330
11A90
100
AcDbEntity
  8
AM_5
100
AcDbTrace
 10
672.5374551849504
 20
12.02912635166909
 30
0.0
 11
670.5914726289185
 21
10.67677913267834
 31
0.0
 12
666.4284154087781
 22
18.74355527678392
 32
0.0
 13
666.4284154087781
 23
18.74355527678392
 33
0.0
  0
MTEXT
  5
11A94
330
11A90
100
AcDbEntity
  8
AM_5
 62
     2
100
AcDbMText
 10
739.9769998451224
 20
-12.25951301271699
 30
0.0
 40
17.5
 41
0.0
 71
     7
 72
     1
  1

  7
ACISOTS
  0
ENDBLK
  5
11A96
330
11A90
100
AcDbEntity
  8
0
100
AcDbBlockEnd
  0
BLOCK
  5
11A9D
330
11A98
100
AcDbEntity
  8
0
100
AcDbBlockBegin
  2
*S13
 70
     1
 10
0.0
 20
0.0
 30
0.0
  3
*S13
  1

  0
LINE
  5
11A99
330
11A98
100
AcDbEntity
  8
AM_5
100
AcDbLine
 10
1034.247596129033
 20
-7.494922624177263
 30
0.0
 11
978.9553262387769
 21
-7.494922624177263
 31
0.0
  0
LINE
  5
11A9A
330
11A98
100
AcDbEntity
  8
AM_5
100
AcDbLine
 10
978.9553262387769
 20
-7.494922624177263
 30
0.0
 11
965.835060190845
 21
11.38470274217473
 31
0.0
  0
TRACE
  5
11A9B
330
11A98
100
AcDbEntity
  8
AM_5
100
AcDbTrace
 10
966.8080514688611
 20
12.0608763516701
 30
0.0
 11
964.8620689128291
 21
10.70852913267936
 31
0.0
 12
960.6990116926889
 22
18.77530527678493
 32
0.0
 13
960.6990116926889
 23
18.77530527678493
 33
0.0
  0
MTEXT
  5
11A9C
330
11A98
100
AcDbEntity
  8
AM_5
 62
     2
100
AcDbMText
 10
1034.247596129033
 20
-12.22776301271597
 30
0.0
 40
17.5
 41
0.0
 71
     7
 72
     1
  1

  7
ACISOTS
  0
ENDBLK
  5
11A9E
330
11A98
100
AcDbEntity
  8
0
100
AcDbBlockEnd
  0
ENDSEC
  0
SECTION
  2
ENTITIES
  0
MTEXT
  5
20A1
330
1F
100
AcDbEntity
  8
AM_REFDIM
100
AcDbMText
 10
561.1885018225272
 20
211.9777653808241
 30
0.0
 40
5.0
 41
0.0
 71
     9
 72
     1
  1

  7
DAYUS
1001
ACAD
1000
MTEXTBEGIN
1070
    73
1070
     1
1070
    44
1040
1.0
1070
    74
1070
     0
1000
MTEXTEND
  0
MTEXT
  5
21E1
330
1F
100
AcDbEntity
  8
AM_REFDIM
100
AcDbMText
 10
755.6608394056113
 20
277.1617022919267
 30
0.0
 40
5.0
 41
0.0
 71
     9
 72
     1
  1

  7
DAYUS
1001
ACAD
1000
MTEXTBEGIN
1070
    73
1070
     1
1070
    44
1040
1.0
1070
    74
1070
     0
1000
MTEXTEND
  0
MTEXT
  5
21E8
330
1F
100
AcDbEntity
  8
AM_REFDIM
100
AcDbMText
 10
749.57448324194
 20
209.4269307825009
 30
0.0
 40
5.0
 41
0.0
 71
     9
 72
     1
  1

  7
DAYUS
1001
ACAD
1000
MTEXTBEGIN
1070
    73
1070
     1
1070
    44
1040
1.0
1070
    74
1070
     0
1000
MTEXTEND
  0
MTEXT
  5
950E
330
1F
100
AcDbEntity
  8
AM_REFDIM
100
AcDbMText
 10
883.1481342807478
 20
-16.56429920726827
 30
0.0
 40
5.0
 41
0.0
 71
     9
 72
     1
  1

  7
DAYUS
1001
ACAD
1000
MTEXTBEGIN
1070
    73
1070
     1
1070
    44
1040
1.0
1070
    74
1070
     0
1000
MTEXTEND
  0
MTEXT
  5
9515
330
1F
100
AcDbEntity
  8
AM_REFDIM
100
AcDbMText
 10
877.0617781170765
 20
-84.29907071669413
 30
0.0
 40
5.0
 41
0.0
 71
     9
 72
     1
  1

  7
DAYUS
1001
ACAD
1000
MTEXTBEGIN
1070
    73
1070
     1
1070
    44
1040
1.0
1070
    74
1070
     0
1000
MTEXTEND
  0
MTEXT
  5
9538
330
1F
100
AcDbEntity
  8
AM_REFDIM
100
AcDbMText
 10
688.6757966976639
 20
-81.74823611837087
 30
0.0
 40
5.0
 41
0.0
 71
     9
 72
     1
  1

  7
DAYUS
1001
ACAD
1000
MTEXTBEGIN
1070
    73
1070
     1
1070
    44
1040
1.0
1070
    74
1070
     0
1000
MTEXTEND
  0
MTEXT
  5
D169
330
1F
100
AcDbEntity
  8
圖層2
100
AcDbMText
 10
715.61673495723
 20
206.7204113137814
 30
0.0
 40
2.4
 41
0.0
 71
     1
 72
     1
  1

  7
DAYUS
1001
ACAD
1000
MTEXTBEGIN
1070
    73
1070
     1
1070
    44
1040
1.0
1070
    74
1070
     0
1000
MTEXTEND
  0
MTEXT
  5
D16D
330
1F
100
AcDbEntity
  8
圖層2
100
AcDbMText
 10
487.3356342227076
 20
201.008806919202
 30
0.0
 40
2.4
 41
0.0
 71
     9
 72
     1
  1

  7
DAYUS
1001
ACAD
1000
MTEXTBEGIN
1070
    73
1070
     1
1070
    44
1040
1.0
1070
    74
1070
     0
1000
MTEXTEND
  0
MTEXT
  5
D622
330
1F
100
AcDbEntity
  8
AM_5
 62
     2
100
AcDbMText
 10
364.1980009625231
 20
217.5933376591914
 30
0.0
 40
3.5
 41
0.0
 71
     7
 72
     1
  1

  7
ACISOTS
1001
ACAD
1000
MTEXTBEGIN
1070
    73
1070
     1
1070
    44
1040
1.0
1070
    74
1070
     0
1000
MTEXTEND
  0
MTEXT
  5
D62D
330
1F
100
AcDbEntity
  8
AM_5
 62
     2
100
AcDbMText
 10
375.2854589832454
 20
224.3263974052412
 30
0.0
 40
3.5
 41
0.0
 71
     9
 72
     1
  1

  7
ACISOTS
1001
ACAD
1000
MTEXTBEGIN
1070
    73
1070
     1
1070
    44
1040
1.0
1070
    74
1070
     0
1000
MTEXTEND
  0
MTEXT
  5
DBAB
330
1F
100
AcDbEntity
  8
圖層2
100
AcDbMText
 10
403.5453401996071
 20
241.6457643110565
 30
0.0
 40
6.0
 41
29.7
 71
     1
 72
     1
  1

  7
ROMAND
1001
ACAD
1000
MTEXTBEGIN
1070
    73
1070
     1
1070
    44
1040
1.0
1070
    74
1070
     0
1000
MTEXTEND
  0
MTEXT
  5
DBAC
330
1F
100
AcDbEntity
  8
圖層2
100
AcDbMText
 10
405.9710179574619
 20
231.7492930806483
 30
0.0
 40
4.3125
 41
25.28999999999999
 71
     1
 72
     1
  1
{\FARIAL.TTF;}
  7
ROMAND
1001
ACAD
1000
MTEXTBEGIN
1070
    73
1070
     1
1070
    44
1040
1.0
1070
    74
1070
     0
1000
MTEXTEND
  0
DIMENSION
  5
10ABE
102
{ACAD_XDICTIONARY
360
10ABF
102
}
102
{ACAD_REACTORS
330
10AC0
102
}
330
1F
100
AcDbEntity
  8
AM_5
100
AcDbDimension
  2
*D5
 10
520.9890148998843
 20
-246.2221632898334
 30
0.0
 11
514.0881290731126
 21
-113.7234290065241
 31
0.0
 70
    32
  1
<>
  3
AM_ISO
100
AcDbAlignedDimension
 13
540.9198537056949
 23
18.77530527678493
 33
0.0
 14
602.9284154087854
 24
-246.2221632898334
 34
0.0
 50
90.0
100
AcDbRotatedDimension
1001
ACAD
1000
DSTYLE
1002
{
1070
    40
1040
3.0
1070
   271
1070
     0
1070
   272
1070
     8
1002
}
  0
DIMENSION
  5
10AC1
102
{ACAD_XDICTIONARY
360
10AC2
102
}
102
{ACAD_REACTORS
330
10AC3
102
}
330
1F
100
AcDbEntity
  8
AM_5
100
AcDbDimension
  2
*D6
 10
520.9890148998843
 20
18.77530527678493
 30
0.0
 11
514.0881290731126
 21
34.65030527678475
 31
0.0
 70
    32
  3
AM_ISO
100
AcDbAlignedDimension
 13
578.7678105586365
 23
50.52530527678438
 33
0.0
 14
540.9198537056949
 24
18.77530527678492
 34
0.0
 50
90.0
100
AcDbRotatedDimension
1001
ACAD
1000
DSTYLE
1002
{
1070
    40
1040
3.0
1070
   271
1070
     0
1070
   272
1070
     8
1002
}
  0
LINE
  5
10AC4
330
1F
100
AcDbEntity
  8
CEN
 48
2.0
100
AcDbLine
 10
543.4795263342502
 20
169.2039793286168
 30
0.0
 11
672.1422874918649
 21
169.2039793286177
 31
0.0
  0
LINE
  5
10AC5
102
{ACAD_REACTORS
330
10AC3
330
10AC0
102
}
330
1F
100
AcDbEntity
  8
CEN
 48
2.0
100
AcDbLine
 10
540.9198537056949
 20
18.77530527678493
 30
0.0
 11
670.8232609148076
 21
18.77530527678493
 31
0.0
  0
DIMENSION
  5
10AC6
330
1F
100
AcDbEntity
  8
AM_5
100
AcDbDimension
  2
*D2
 10
811.2265170885878
 20
-241.2970607541922
 30
0.0
 11
804.3256312618161
 21
-111.2608777387037
 31
0.0
 70
    32
  3
AM_ISO
100
AcDbAlignedDimension
 13
834.7972683324162
 23
18.77530527678447
 33
0.0
 14
899.0799806068123
 24
-241.2970607541922
 34
0.0
 50
90.0
100
AcDbRotatedDimension
1001
ACAD
1000
DSTYLE
1002
{
1070
    40
1040
3.0
1070
   271
1070
     0
1070
   272
1070
     8
1002
}
  0
LINE
  5
10AC7
330
1F
100
AcDbEntity
  8
CEN
100
AcDbLine
 10
905.8350116926947
 20
-251.6731760284204
 30
0.0
 11
905.8350116926947
 21
-43.96269472321626
 31
0.0
  0
LINE
  5
10AC8
330
1F
100
AcDbEntity
  8
DRG
 48
0.1
100
AcDbLine
 10
858.6035241688721
 20
-129.9807869727152
 30
0.0
 11
858.6035241688721
 21
-196.8608705729949
 31
0.0
  0
LINE
  5
10AC9
330
1F
100
AcDbEntity
  8
DRG
100
AcDbLine
 10
948.0454146583531
 20
-202.6634189918362
 30
0.0
 11
950.2436696656211
 21
-116.893353679878
 31
0.0
  0
LINE
  5
10ACA
330
1F
100
AcDbEntity
  8
CEN
100
AcDbLine
 10
905.8350116926911
 20
-236.6348610832359
 30
0.0
 11
905.8350116926911
 21
-107.3673970092321
 31
0.0
  0
LINE
  5
10ACB
330
1F
100
AcDbEntity
  8
CEN
100
AcDbLine
 10
905.8350116926911
 20
-128.1257677161727
 30
0.0
 11
905.8350116926474
 21
-211.793067416205
 31
0.0
  0
LINE
  5
10ACC
330
1F
100
AcDbEntity
  8
CEN
100
AcDbLine
 10
905.8350116926984
 20
-117.6843580667667
 30
0.0
 11
905.8350116926984
 21
-152.806699712025
 31
0.0
  0
LINE
  5
10ACD
330
1F
100
AcDbEntity
  8
DRG
 48
0.1
100
AcDbLine
 10
846.9433552936814
 20
-192.9308280483848
 30
0.0
 11
847.5300040067729
 21
-134.5356770416176
 31
0.0
  0
LINE
  5
10ACE
330
1F
100
AcDbEntity
  8
DRG
100
AcDbLine
 10
863.5351506221329
 20
-56.66269472004285
 30
0.0
 11
868.5169022287633
 21
-203.3330910235528
 31
0.0
  0
LINE
  5
10ACF
330
1F
100
AcDbEntity
  8
DRG
100
AcDbLine
 10
858.6035241688723
 20
-201.1228951479608
 30
0.0
 11
858.6035241688721
 21
-129.9807869727152
 31
0.0
  0
LINE
  5
10AD0
330
1F
100
AcDbEntity
  8
DRG
100
AcDbLine
 10
854.8960040067601
 20
-197.676377017795
 30
0.0
 11
854.8960040067601
 21
-61.69953852207334
 31
0.0
  0
LINE
  5
10AD1
330
1F
100
AcDbEntity
  8
DRG
100
AcDbLine
 10
912.1850116911071
 20
-231.6754949180851
 30
0.0
 11
912.1850116911071
 21
-53.21669444650092
 31
0.0
  0
LINE
  5
10AD2
330
1F
100
AcDbEntity
  8
DRG
100
AcDbLine
 10
899.4850116942822
 20
-231.6754949180851
 30
0.0
 11
899.4850116942822
 21
-53.21669444650092
 31
0.0
  0
LINE
  5
10AD3
330
1F
100
AcDbEntity
  8
DRG
100
AcDbLine
 10
893.1350116958698
 20
-190.37669441221
 30
0.0
 11
893.1350116958698
 21
-53.95878068388561
 31
0.0
  0
LINE
  5
10AD4
330
1F
100
AcDbEntity
  8
DRG
100
AcDbLine
 10
918.5350116895122
 20
-190.37669441221
 30
0.0
 11
918.5350116895122
 21
-53.95878068388561
 31
0.0
  0
LINE
  5
10AD5
330
1F
100
AcDbEntity
  8
DRG
100
AcDbLine
 10
653.5632954357115
 20
-193.8195028674607
 30
0.0
 11
657.404069925933
 21
-43.96269472321626
 31
0.0
  0
LINE
  5
10AD6
330
1F
100
AcDbEntity
  8
DRG
100
AcDbLine
 10
605.2144154103716
 20
-222.6754951947376
 30
0.0
 11
605.2144154103716
 21
-44.21669472315341
 31
0.0
  0
LINE
  5
10AD7
330
1F
100
AcDbEntity
  8
DRG
100
AcDbLine
 10
617.9144154071964
 20
-222.6754951947376
 30
0.0
 11
617.9144154071964
 21
-44.21669472315341
 31
0.0
  0
LINE
  5
10AD8
330
1F
100
AcDbEntity
  8
DRG
100
AcDbLine
 10
598.8644154119592
 20
-181.3766946888625
 30
0.0
 11
598.8644154119592
 21
-44.95878096053809
 31
0.0
  0
LINE
  5
10AD9
330
1F
100
AcDbEntity
  8
DRG
100
AcDbLine
 10
624.2644154056015
 20
-181.3766946888625
 30
0.0
 11
624.2644154056015
 21
-44.95878096053809
 31
0.0
  0
LINE
  5
10ADA
330
1F
100
AcDbEntity
  8
DRG
100
AcDbLine
 10
553.2594077228623
 20
-66.42011660448486
 30
0.0
 11
553.2594077228623
 21
-184.5301166044845
 31
0.0
  0
LINE
  5
10ADB
330
1F
100
AcDbEntity
  8
DRG
100
AcDbLine
 10
560.6254077228495
 20
-66.42011660448486
 30
0.0
 11
560.6254077228641
 21
-184.5301166044845
 31
0.0
  0
LINE
  5
10ADC
330
1F
100
AcDbEntity
  8
DRG
100
AcDbLine
 10
564.3329278849614
 20
-59.04322479877999
 30
0.0
 11
564.3329278849614
 21
-192.7221837040596
 31
0.0
  0
LINE
  5
10ADD
330
1F
100
AcDbEntity
  8
DRG
100
AcDbLine
 10
560.6254077228495
 20
-189.2506946868951
 30
0.0
 11
560.6254077228495
 21
-61.69953852207334
 31
0.0
  0
LINE
  5
10ADE
330
1F
100
AcDbEntity
  8
DRG
100
AcDbLine
 10
569.2645543382223
 20
-56.66269472004285
 30
0.0
 11
574.2956016621738
 21
-194.3218252739651
 31
0.0
  0
LINE
  5
10ADF
330
1F
100
AcDbEntity
  8
DRG
100
AcDbLine
 10
851.7439552943603
 20
-194.1843061295895
 30
0.0
 11
854.8960040067601
 21
-194.1843061295895
 31
0.0
  0
LINE
  5
10AE0
330
1F
100
AcDbEntity
  8
DRG
100
AcDbLine
 10
855.5109202427617
 20
-207.646306129589
 30
0.0
 11
846.9179552943595
 21
-207.646306129589
 31
0.0
  0
LINE
  5
10AE1
330
1F
100
AcDbEntity
  8
DRG
100
AcDbLine
 10
862.2445212980263
 20
-208.6866542694193
 30
0.0
 11
851.7923956951733
 21
-207.7722117694201
 31
0.0
  0
ARC
  5
10AE2
330
1F
100
AcDbEntity
  8
DRG
100
AcDbCircle
 10
853.4889270262734
 20
-202.9074136991385
 30
0.0
 40
5.416974283728682
100
AcDbArc
 50
19.23423526836707
 51
110.5034707356579
  0
LINE
  5
10AE3
330
1F
100
AcDbEntity
  8
DRG
 48
0.1
100
AcDbLine
 10
854.3093552936833
 20
-192.9308280483848
 30
0.0
 11
858.6035241688721
 21
-192.9238705729786
 31
0.0
  0
LINE
  5
10AE4
330
1F
100
AcDbEntity
  8
DRG
100
AcDbLine
 10
618.8890961003035
 20
-237.4845632898376
 30
0.0
 11
618.8890961002889
 21
-227.7316946780055
 31
0.0
  0
LINE
  5
10AE5
330
1F
100
AcDbEntity
  8
DRG
100
AcDbLine
 10
619.362215408777
 20
-237.4845632898376
 30
0.0
 11
619.362215408777
 21
-227.7316946780055
 31
0.0
  0
LINE
  5
10AE6
330
1F
100
AcDbEntity
  8
DRG
100
AcDbLine
 10
604.2397347172573
 20
-237.484563289834
 30
0.0
 11
604.2397347172573
 21
-227.7316946780055
 31
0.0
  0
LINE
  5
10AE7
330
1F
100
AcDbEntity
  8
DRG
100
AcDbLine
 10
603.7666154087837
 20
-237.484563289834
 30
0.0
 11
603.7666154087837
 21
-227.7316946780055
 31
0.0
  0
LINE
  5
10AE8
330
1F
100
AcDbEntity
  8
DRG
100
AcDbLine
 10
599.6645154087728
 20
-242.9582632898335
 30
0.0
 11
623.4643154087734
 21
-242.9582632898462
 31
0.0
  0
LINE
  5
10AE9
330
1F
100
AcDbEntity
  8
DRG
100
AcDbLine
 10
623.4643154087734
 20
-237.4845632898376
 30
0.0
 11
599.6645154087728
 21
-237.4845632898331
 31
0.0
  0
LINE
  5
10AEA
102
{ACAD_REACTORS
330
10AC0
102
}
330
1F
100
AcDbEntity
  8
DRG
100
AcDbLine
 10
620.2004154087753
 20
-246.2221632898334
 30
0.0
 11
602.9284154087854
 21
-246.2221632898334
 31
0.0
  0
LINE
  5
10AEB
330
1F
100
AcDbEntity
  8
DRG
100
AcDbLine
 10
603.6015154087708
 20
-242.9582632898371
 30
0.0
 11
603.6015154087708
 21
-237.4845632898376
 31
0.0
  0
LINE
  5
10AEC
330
1F
100
AcDbEntity
  8
DRG
100
AcDbLine
 10
604.3889154087719
 20
-242.958263289839
 30
0.0
 11
604.3889154087719
 21
-237.4845632898385
 31
0.0
  0
LINE
  5
10AED
330
1F
100
AcDbEntity
  8
DRG
100
AcDbLine
 10
602.0267154087759
 20
-242.9582632898362
 30
0.0
 11
602.0267154087759
 21
-237.4845632898348
 31
0.0
  0
LINE
  5
10AF0
330
1F
100
AcDbEntity
  8
DRG
100
AcDbLine
 10
599.6645154087728
 20
-242.9582632898335
 30
0.0
 11
599.6645154087728
 21
-237.4845632898331
 31
0.0
  0
LINE
  5
10AF1
330
1F
100
AcDbEntity
  8
DRG
100
AcDbLine
 10
600.4519154087738
 20
-242.9582632898335
 30
0.0
 11
600.4519154087738
 21
-237.484563289834
 31
0.0
  0
LINE
  5
10AF2
330
1F
100
AcDbEntity
  8
DRG
100
AcDbLine
 10
602.9284154087854
 20
-246.2221632898334
 30
0.0
 11
599.6645154087728
 21
-242.9582632898335
 31
0.0
  0
LINE
  5
10AF3
330
1F
100
AcDbEntity
  8
DRG
100
AcDbLine
 10
620.2004154087753
 20
-246.2221632898334
 30
0.0
 11
623.4643154087734
 21
-242.9582632898462
 31
0.0
  0
LINE
  5
10AF4
330
1F
100
AcDbEntity
  8
DRG
100
AcDbLine
 10
620.3147154087765
 20
-242.9582632898362
 30
0.0
 11
620.3147154087765
 21
-237.4845632898367
 31
0.0
  0
LINE
  5
10AF7
330
1F
100
AcDbEntity
  8
DRG
100
AcDbLine
 10
618.7399154087889
 20
-242.958263289839
 30
0.0
 11
618.7399154087889
 21
-237.4845632898385
 31
0.0
  0
LINE
  5
10AFA
330
1F
100
AcDbEntity
  8
DRG
100
AcDbLine
 10
612.4407154087948
 20
-242.9582632898444
 30
0.0
 11
612.4407154087948
 21
-237.4845632898439
 31
0.0
  0
LINE
  5
10AFC
330
1F
100
AcDbEntity
  8
DRG
100
AcDbLine
 10
614.0155154087897
 20
-242.9582632898426
 30
0.0
 11
614.0155154087897
 21
-237.4845632898431
 31
0.0
  0
LINE
  5
10AFD
330
1F
100
AcDbEntity
  8
DRG
100
AcDbLine
 10
609.1133154087637
 20
-242.9582632898426
 30
0.0
 11
609.1133154087637
 21
-237.4845632898431
 31
0.0
  0
LINE
  5
10AFE
330
1F
100
AcDbEntity
  8
DRG
100
AcDbLine
 10
610.6881154087659
 20
-242.9582632898444
 30
0.0
 11
610.6881154087659
 21
-237.4845632898439
 31
0.0
  0
LINE
  5
10B00
330
1F
100
AcDbEntity
  8
DRG
100
AcDbLine
 10
617.1651154087867
 20
-242.9582632898399
 30
0.0
 11
617.1651154087867
 21
-237.4845632898403
 31
0.0
  0
LINE
  5
10B01
330
1F
100
AcDbEntity
  8
DRG
100
AcDbLine
 10
615.5903154087845
 20
-242.9582632898426
 30
0.0
 11
615.5903154087845
 21
-237.4845632898403
 31
0.0
  0
LINE
  5
10B04
330
1F
100
AcDbEntity
  8
DRG
100
AcDbLine
 10
607.5385154087689
 20
-242.9582632898426
 30
0.0
 11
607.5385154087689
 21
-237.4845632898403
 31
0.0
  0
LINE
  5
10B06
330
1F
100
AcDbEntity
  8
DRG
100
AcDbLine
 10
605.9637154087668
 20
-242.9582632898399
 30
0.0
 11
605.9637154087668
 21
-237.4845632898403
 31
0.0
  0
LINE
  5
10B09
330
1F
100
AcDbEntity
  8
DRG
100
AcDbLine
 10
623.4643154087734
 20
-242.9582632898462
 30
0.0
 11
623.4643154087734
 21
-237.4845632898331
 31
0.0
  0
LINE
  5
10B0A
330
1F
100
AcDbEntity
  8
DRG
100
AcDbLine
 10
622.6769154087796
 20
-242.9582632898453
 30
0.0
 11
622.6769154087796
 21
-237.484563289834
 31
0.0
  0
LINE
  5
10B0B
330
1F
100
AcDbEntity
  8
DRG
100
AcDbLine
 10
621.8895154087713
 20
-242.9582632898353
 30
0.0
 11
621.8895154087713
 21
-237.4845632898348
 31
0.0
  0
LINE
  5
10B0C
330
1F
100
AcDbEntity
  8
DRG
100
AcDbLine
 10
623.464315408788
 20
-224.8106946780052
 30
0.0
 11
599.6645154087728
 21
-224.8106946780052
 31
0.0
  0
LINE
  5
10B0D
330
1F
100
AcDbEntity
  8
DRG
100
AcDbLine
 10
623.464315408788
 20
-227.7316946780055
 30
0.0
 11
599.6645154087728
 21
-227.7316946780055
 31
0.0
  0
LINE
  5
10B0E
330
1F
100
AcDbEntity
  8
DRG
100
AcDbLine
 10
624.2644154056015
 20
-222.6754951947376
 30
0.0
 11
598.8644154119592
 21
-222.6754951947376
 31
0.0
  0
LINE
  5
10B0F
330
1F
100
AcDbEntity
  8
DRG
100
AcDbLine
 10
622.9944154059248
 20
-224.8106946780052
 30
0.0
 11
600.1344154116359
 21
-224.8106946780052
 31
0.0
  0
ARC
  5
10B10
330
1F
100
AcDbEntity
  8
DRG
100
AcDbCircle
 10
695.0391128305255
 20
-187.7266946872758
 30
0.0
 40
96.38410098938685
100
AcDbArc
 50
176.2224899232402
 51
201.2599095085815
  0
LINE
  5
10B11
330
1F
100
AcDbEntity
  8
CEN
100
AcDbLine
 10
577.3632804493399
 20
-194.0766946856882
 30
0.0
 11
550.7230431695334
 21
-194.0766946856882
 31
0.0
  0
ARC
  5
10B12
330
1F
100
AcDbEntity
  8
DRG
100
AcDbCircle
 10
599.1722129844693
 20
-193.0606946859423
 30
0.0
 40
29.61639999259589
100
AcDbArc
 50
197.5803846496976
 51
269.4045252177815
  0
ARC
  5
10B13
330
1F
100
AcDbEntity
  8
DRG
100
AcDbCircle
 10
566.6653185258019
 20
-192.654110864856
 30
0.0
 40
7.810409214091027
100
AcDbArc
 50
288.7264187130131
 51
347.6710174905297
  0
LINE
  5
10B14
330
1F
100
AcDbEntity
  8
DRG
100
AcDbLine
 10
558.0600077235413
 20
-185.7835946856893
 30
0.0
 11
553.2340077235403
 21
-185.7835946856893
 31
0.0
  0
LINE
  5
10B15
330
1F
100
AcDbEntity
  8
DRG
100
AcDbLine
 10
557.9076077235422
 20
-193.0626084485528
 30
0.0
 11
555.6216077235421
 21
-193.0626084485528
 31
0.0
  0
LINE
  5
10B16
330
1F
100
AcDbEntity
  8
DRG
100
AcDbLine
 10
553.2594077228623
 20
-184.5301166044845
 30
0.0
 11
560.6254077228641
 21
-184.5301166044845
 31
0.0
  0
LINE
  5
10B17
330
1F
100
AcDbEntity
  8
DRG
100
AcDbLine
 10
561.8269726719427
 20
-199.2455946856888
 30
0.0
 11
553.2340077235403
 21
-199.2455946856888
 31
0.0
  0
LINE
  5
10B18
330
1F
100
AcDbEntity
  8
DRG
100
AcDbLine
 10
554.9340077235374
 20
-194.5766946856882
 30
0.0
 11
554.9340077235374
 21
-193.5766946856882
 31
0.0
  0
LINE
  5
10B19
330
1F
100
AcDbEntity
  8
DRG
100
AcDbLine
 10
553.2340077235403
 20
-185.7835946856893
 30
0.0
 11
553.2340077235403
 21
-199.2455946856888
 31
0.0
  0
LINE
  5
10B1A
330
1F
100
AcDbEntity
  8
DRG
100
AcDbLine
 10
555.6216077235421
 20
-185.7835946856893
 30
0.0
 11
555.6216077235421
 21
-199.2455946856888
 31
0.0
  0
LINE
  5
10B1B
330
1F
100
AcDbEntity
  8
DRG
100
AcDbLine
 10
553.4340077235447
 20
-196.5766946856882
 30
0.0
 11
553.4340077235447
 21
-194.5766946856882
 31
0.0
  0
LINE
  5
10B1C
330
1F
100
AcDbEntity
  8
DRG
100
AcDbLine
 10
555.6216077235421
 20
-196.5766946856882
 30
0.0
 11
553.4340077235447
 21
-196.5766946856882
 31
0.0
  0
LINE
  5
10B1D
330
1F
100
AcDbEntity
  8
DRG
100
AcDbLine
 10
554.9340077235374
 20
-194.5766946856882
 30
0.0
 11
553.4340077235447
 21
-194.5766946856882
 31
0.0
  0
LINE
  5
10B1E
330
1F
100
AcDbEntity
  8
DRG
100
AcDbLine
 10
554.5114847854256
 20
-196.5766946856882
 30
0.0
 11
554.5114847854256
 21
-199.2455946856888
 31
0.0
  0
LINE
  5
10B1F
330
1F
100
AcDbEntity
  8
DRG
100
AcDbLine
 10
554.5114847854256
 20
-185.7835946856893
 30
0.0
 11
554.5114847854256
 21
-191.5766946856882
 31
0.0
  0
LINE
  5
10B20
330
1F
100
AcDbEntity
  8
DRG
100
AcDbLine
 10
555.6216077235421
 20
-191.5766946856882
 30
0.0
 11
553.4340077235447
 21
-191.5766946856882
 31
0.0
  0
LINE
  5
10B21
330
1F
100
AcDbEntity
  8
DRG
100
AcDbLine
 10
554.9340077235374
 20
-193.5766946856882
 30
0.0
 11
553.4340077235447
 21
-193.5766946856882
 31
0.0
  0
LINE
  5
10B22
330
1F
100
AcDbEntity
  8
DRG
100
AcDbLine
 10
553.4340077235447
 20
-193.5766946856882
 30
0.0
 11
553.4340077235447
 21
-191.5766946856882
 31
0.0
  0
LINE
  5
10B23
330
1F
100
AcDbEntity
  8
DRG
100
AcDbLine
 10
557.9076077235422
 20
-185.7835946856893
 30
0.0
 11
557.9076077235422
 21
-199.2455946856888
 31
0.0
  0
LINE
  5
10B24
330
1F
100
AcDbEntity
  8
DRG
100
AcDbLine
 10
557.9076077235422
 20
-198.9026946844813
 30
0.0
 11
557.9076077235422
 21
-189.2506946868951
 31
0.0
  0
LINE
  5
10B25
330
1F
100
AcDbEntity
  8
DRG
100
AcDbLine
 10
568.1890833736452
 20
-199.8022072481843
 30
0.0
 11
561.8269726719427
 21
-199.2455946856888
 31
0.0
  0
ARC
  5
10B26
330
1F
100
AcDbEntity
  8
DRG
100
AcDbCircle
 10
567.9123638904911
 20
-202.9651254138342
 30
0.0
 40
3.174999999206249
100
AcDbArc
 50
17.58038464969762
 51
85.00000000002634
  0
ARC
  5
10B27
330
1F
100
AcDbEntity
  8
DRG
100
AcDbCircle
 10
559.2183307423674
 20
-194.5067022552383
 30
0.0
 40
5.416974283728682
100
AcDbArc
 50
19.23423526836707
 51
104.00259804102
  0
LINE
  5
10B28
330
1F
100
AcDbEntity
  8
DRG
100
AcDbLine
 10
558.0600077235413
 20
-185.7835946856893
 30
0.0
 11
560.6254077228495
 21
-185.7835946856893
 31
0.0
  0
LINE
  5
10B29
330
1F
100
AcDbEntity
  8
DRG
100
AcDbLine
 10
558.8848088793874
 20
-184.5301166044845
 30
0.0
 11
558.8848088793874
 21
-185.7835946856893
 31
0.0
  0
LINE
  5
10B2A
330
1F
100
AcDbEntity
  8
DRG
100
AcDbLine
 10
598.8644154119592
 20
-223.5406946783231
 30
0.0
 11
598.8644154119592
 21
-222.6754951947376
 31
0.0
  0
ARC
  5
10B2B
330
1F
100
AcDbEntity
  8
DRG
100
AcDbCircle
 10
600.1344154116359
 20
-223.5406946783231
 30
0.0
 40
1.2699999996825
100
AcDbArc
 50
180.0
 51
270.0
  0
LINE
  5
10B2C
330
1F
100
AcDbEntity
  8
DRG
100
AcDbLine
 10
600.4519154087738
 20
-224.8106946780052
 30
0.0
 11
600.4519154087738
 21
-227.7316946780055
 31
0.0
  0
LINE
  5
10B2D
330
1F
100
AcDbEntity
  8
DRG
100
AcDbLine
 10
599.6645154087728
 20
-224.8106946780052
 30
0.0
 11
599.6645154087728
 21
-227.7316946780055
 31
0.0
  0
LINE
  5
10B2F
330
1F
100
AcDbEntity
  8
DRG
100
AcDbLine
 10
604.3889154087719
 20
-224.8106946780052
 30
0.0
 11
604.3889154087719
 21
-227.7316946780055
 31
0.0
  0
LINE
  5
10B30
330
1F
100
AcDbEntity
  8
DRG
100
AcDbLine
 10
602.0267154087759
 20
-224.8106946780052
 30
0.0
 11
602.0267154087759
 21
-227.7316946780055
 31
0.0
  0
LINE
  5
10B31
330
1F
100
AcDbEntity
  8
DRG
100
AcDbLine
 10
602.8141154087697
 20
-224.8106946780052
 30
0.0
 11
602.8141154087697
 21
-227.7316946780055
 31
0.0
  0
ARC
  5
10B33
330
1F
100
AcDbEntity
  8
DRG
100
AcDbCircle
 10
528.0897179870353
 20
-187.7266946872758
 30
0.0
 40
96.38410098938685
100
AcDbArc
 50
338.7400904914169
 51
3.777510076759725
  0
ARC
  5
10B34
330
1F
100
AcDbEntity
  8
DRG
100
AcDbCircle
 10
623.9566178330988
 20
-193.0606946859423
 30
0.0
 40
29.61639999259589
100
AcDbArc
 50
270.5954747822184
 51
358.531851800157
  0
LINE
  5
10B36
330
1F
100
AcDbEntity
  8
DRG
100
AcDbLine
 10
607.5385154087689
 20
-224.8106946780052
 30
0.0
 11
607.5385154087689
 21
-227.7316946780055
 31
0.0
  0
LINE
  5
10B38
330
1F
100
AcDbEntity
  8
DRG
100
AcDbLine
 10
605.9637154087668
 20
-224.8106946780052
 30
0.0
 11
605.9637154087668
 21
-227.7316946780055
 31
0.0
  0
LINE
  5
10B3B
330
1F
100
AcDbEntity
  8
DRG
100
AcDbLine
 10
609.1133154087637
 20
-224.8106946780052
 30
0.0
 11
609.1133154087637
 21
-227.7316946780055
 31
0.0
  0
LINE
  5
10B3D
330
1F
100
AcDbEntity
  8
DRG
100
AcDbLine
 10
612.2629154087608
 20
-224.8106946780052
 30
0.0
 11
612.2629154087608
 21
-227.7316946780055
 31
0.0
  0
LINE
  5
10B3E
330
1F
100
AcDbEntity
  8
DRG
100
AcDbLine
 10
610.6881154087659
 20
-224.8106946780052
 30
0.0
 11
610.6881154087659
 21
-227.7316946780055
 31
0.0
  0
LINE
  5
10B40
330
1F
100
AcDbEntity
  8
DRG
100
AcDbLine
 10
616.9873154087526
 20
-224.8106946780052
 30
0.0
 11
616.9873154087526
 21
-227.7316946780055
 31
0.0
  0
LINE
  5
10B42
330
1F
100
AcDbEntity
  8
DRG
100
AcDbLine
 10
615.4125154087505
 20
-224.8106946780052
 30
0.0
 11
615.4125154087505
 21
-227.7316946780055
 31
0.0
  0
LINE
  5
10B43
330
1F
100
AcDbEntity
  8
DRG
100
AcDbLine
 10
613.8377154087484
 20
-224.8106946780052
 30
0.0
 11
613.8377154087484
 21
-227.7316946780055
 31
0.0
  0
LINE
  5
10B46
330
1F
100
AcDbEntity
  8
DRG
100
AcDbLine
 10
618.5621154087475
 20
-224.8106946780052
 30
0.0
 11
618.5621154087475
 21
-227.7316946780055
 31
0.0
  0
LINE
  5
10B48
330
1F
100
AcDbEntity
  8
DRG
100
AcDbLine
 10
620.1369154087424
 20
-224.8106946780052
 30
0.0
 11
620.1369154087424
 21
-227.7316946780055
 31
0.0
  0
LINE
  5
10B4A
330
1F
100
AcDbEntity
  8
DRG
100
AcDbLine
 10
624.2644154056015
 20
-223.5406946783231
 30
0.0
 11
624.2644154056015
 21
-222.6754951947376
 31
0.0
  0
LINE
  5
10B4B
330
1F
100
AcDbEntity
  8
DRG
100
AcDbLine
 10
623.464315408788
 20
-224.8106946780052
 30
0.0
 11
623.464315408788
 21
-227.7316946780055
 31
0.0
  0
LINE
  5
10B4C
330
1F
100
AcDbEntity
  8
DRG
100
AcDbLine
 10
621.7117154087445
 20
-224.8106946780052
 30
0.0
 11
621.7117154087445
 21
-227.7316946780055
 31
0.0
  0
ARC
  5
10B4D
330
1F
100
AcDbEntity
  8
DRG
100
AcDbCircle
 10
622.9944154059248
 20
-223.5406946783231
 30
0.0
 40
1.2699999996825
100
AcDbArc
 50
270.0
 51
0.0
  0
LINE
  5
10B4F
330
1F
100
AcDbEntity
  8
0
100
AcDbLine
 10
846.9179552943595
 20
-194.1843061295895
 30
0.0
 11
846.9179552943595
 21
-207.6463061295888
 31
0.0
  0
LINE
  5
10B50
330
1F
100
AcDbEntity
  8
DRG
100
AcDbLine
 10
846.9179552943595
 20
-194.1843061295895
 30
0.0
 11
846.9179552943595
 21
-207.646306129589
 31
0.0
  0
LINE
  5
10B51
330
1F
100
AcDbEntity
  8
DRG
100
AcDbLine
 10
848.1954323562447
 20
-204.9774061295885
 30
0.0
 11
848.1954323562447
 21
-207.646306129589
 31
0.0
  0
LINE
  5
10B52
330
1F
100
AcDbEntity
  8
DRG
100
AcDbLine
 10
851.5915552943614
 20
-207.3034061283816
 30
0.0
 11
851.5915552943614
 21
-197.6514061307954
 31
0.0
  0
LINE
  5
10B53
330
1F
100
AcDbEntity
  8
DRG
100
AcDbLine
 10
851.5915552943614
 20
-194.1843061295895
 30
0.0
 11
851.5915552943614
 21
-207.646306129589
 31
0.0
  0
LINE
  5
10B54
330
1F
100
AcDbEntity
  8
DRG
100
AcDbLine
 10
849.3055552943612
 20
-194.1843061295895
 30
0.0
 11
849.3055552943612
 21
-207.646306129589
 31
0.0
  0
LINE
  5
10B55
330
1F
100
AcDbEntity
  8
DRG
100
AcDbLine
 10
851.7923956951733
 20
-207.7722117694201
 30
0.0
 11
851.7923956951733
 21
-207.6463061295888
 31
0.0
  0
LINE
  5
10B56
330
1F
100
AcDbEntity
  8
DRG
100
AcDbLine
 10
852.5687564502065
 20
-192.9308280483848
 30
0.0
 11
852.5687564502065
 21
-194.1843061295895
 31
0.0
  0
LINE
  5
10B57
330
1F
100
AcDbEntity
  8
DRG
100
AcDbLine
 10
848.1954323562447
 20
-194.1843061295895
 30
0.0
 11
848.1954323562447
 21
-199.9774061295885
 31
0.0
  0
LINE
  5
10B58
330
1F
100
AcDbEntity
  8
DRG
100
AcDbLine
 10
851.5915552943614
 20
-201.463319892453
 30
0.0
 11
849.3055552943612
 21
-201.463319892453
 31
0.0
  0
LINE
  5
10B59
330
1F
100
AcDbEntity
  8
DRG
100
AcDbLine
 10
848.6179552943564
 20
-202.9774061295885
 30
0.0
 11
848.6179552943564
 21
-201.9774061295885
 31
0.0
  0
LINE
  5
10B5A
330
1F
100
AcDbEntity
  8
DRG
100
AcDbLine
 10
847.1179552943638
 20
-204.9774061295885
 30
0.0
 11
847.1179552943638
 21
-202.9774061295885
 31
0.0
  0
LINE
  5
10B5B
330
1F
100
AcDbEntity
  8
DRG
100
AcDbLine
 10
847.1179552943638
 20
-201.9774061295885
 30
0.0
 11
847.1179552943638
 21
-199.9774061295885
 31
0.0
  0
LINE
  5
10B5C
330
1F
100
AcDbEntity
  8
DRG
100
AcDbLine
 10
848.6179552943564
 20
-201.9774061295885
 30
0.0
 11
847.1179552943638
 21
-201.9774061295885
 31
0.0
  0
LINE
  5
10B5D
330
1F
100
AcDbEntity
  8
DRG
100
AcDbLine
 10
849.3055552943612
 20
-199.9774061295885
 30
0.0
 11
847.1179552943638
 21
-199.9774061295885
 31
0.0
  0
LINE
  5
10B5E
330
1F
100
AcDbEntity
  8
DRG
100
AcDbLine
 10
848.6179552943564
 20
-202.9774061295885
 30
0.0
 11
847.1179552943638
 21
-202.9774061295885
 31
0.0
  0
LINE
  5
10B5F
330
1F
100
AcDbEntity
  8
DRG
100
AcDbLine
 10
849.3055552943612
 20
-204.9774061295885
 30
0.0
 11
847.1179552943638
 21
-204.9774061295885
 31
0.0
  0
LINE
  5
10B60
330
1F
100
AcDbEntity
  8
DRG
100
AcDbLine
 10
851.7439552943603
 20
-194.1843061295895
 30
0.0
 11
846.9179552943595
 21
-194.1843061295895
 31
0.0
  0
LINE
  5
10B61
330
1F
100
AcDbEntity
  8
0
100
AcDbLine
 10
849.3309552943635
 20
-194.1843061295895
 30
0.0
 11
846.9179552943595
 21
-194.1843061295895
 31
0.0
  0
LINE
  5
10B62
330
1F
100
AcDbEntity
  8
DRG
100
AcDbLine
 10
846.9433552936814
 20
-192.9308280483848
 30
0.0
 11
854.3093552936833
 21
-192.9308280483848
 31
0.0
  0
LINE
  5
10B63
330
1F
100
AcDbEntity
  8
DRG
 48
0.1
100
AcDbLine
 10
847.5300040067711
 20
-192.9238705729786
 30
0.0
 11
849.3309552943635
 21
-192.9238705729786
 31
0.0
  0
ARC
  5
10B64
330
1F
100
AcDbEntity
  8
DRG
100
AcDbCircle
 10
918.2896261402081
 20
-201.9007891527779
 30
0.0
 40
29.7655598739322
100
AcDbArc
 50
270.5954747821663
 51
358.5318518001619
  0
ARC
  5
10B65
330
1F
100
AcDbEntity
  8
DRG
100
AcDbCircle
 10
893.3803972452031
 20
-201.9007891527779
 30
0.0
 40
29.7655598739322
100
AcDbArc
 50
197.5993514856013
 51
269.4045252178336
  0
ARC
  5
10B66
330
1F
100
AcDbEntity
  8
DRG
100
AcDbCircle
 10
822.360314270946
 20
-196.7266944106233
 30
0.0
 40
96.38410098938685
100
AcDbArc
 50
338.7400904914169
 51
3.777510076759725
  0
ARC
  5
10B67
330
1F
100
AcDbEntity
  8
DRG
100
AcDbCircle
 10
989.3097091144362
 20
-196.7266944106233
 30
0.0
 40
96.38410098938685
100
AcDbArc
 50
176.2224899232402
 51
201.2599095085815
  0
LINE
  5
10B68
330
1F
100
AcDbEntity
  8
DRG
100
AcDbLine
 10
897.9252156870522
 20
-237.7787714894769
 30
0.0
 11
913.7448076983298
 21
-237.781121975351
 31
0.0
  0
ARC
  5
10B69
330
1F
100
AcDbEntity
  8
DRG
100
AcDbCircle
 10
905.8350116926911
 20
-210.6303693399043
 30
0.0
 40
27.14899096104355
100
AcDbArc
 50
258.6181179512858
 51
281.3818820487142
  0
LINE
  5
10B6A
330
1F
100
AcDbEntity
  8
DRG
100
AcDbLine
 10
898.229811662032
 20
-240.163487462801
 30
0.0
 11
913.4402187785697
 21
-240.163582130908
 31
0.0
  0
LINE
  5
10B6B
330
1F
100
AcDbEntity
  8
DRG
100
AcDbLine
 10
899.0799806068123
 20
-241.2970607541922
 30
0.0
 11
912.5900427785698
 21
-241.2971448395158
 31
0.0
  0
LINE
  5
10B6C
330
1F
100
AcDbEntity
  8
DRG
100
AcDbLine
 10
917.3094616898477
 20
-233.8106946780052
 30
0.0
 11
894.4494616955587
 21
-233.8106946780052
 31
0.0
  0
ARC
  5
10B6D
330
1F
100
AcDbEntity
  8
DRG
100
AcDbCircle
 10
905.8350116926911
 20
-260.9596856390488
 30
0.0
 40
27.14899096104355
100
AcDbArc
 50
78.61811795128581
 51
101.3818820487141
  0
LINE
  5
10B6E
330
1F
100
AcDbEntity
  8
DRG
100
AcDbLine
 10
898.2298046068123
 20
-233.8106946780052
 30
0.0
 11
915.7111815027917
 21
-233.8106946780056
 31
0.0
  0
LINE
  5
10B6F
330
1F
100
AcDbEntity
  8
DRG
100
AcDbLine
 10
917.3225776817877
 20
-233.8106946780052
 30
0.0
 11
894.3474457036197
 21
-233.8106946780052
 31
0.0
  0
LINE
  5
10B70
330
1F
100
AcDbEntity
  8
DRG
100
AcDbLine
 10
918.5350116895122
 20
-231.6754949180851
 30
0.0
 11
893.1350116958698
 21
-231.6754949180851
 31
0.0
  0
LINE
  5
10B71
330
1F
100
AcDbEntity
  8
DRG
100
AcDbLine
 10
899.0799806068123
 20
-240.1634927541702
 30
0.0
 11
899.0799806068123
 21
-241.2970607541922
 31
0.0
  0
ARC
  5
10B72
330
1F
100
AcDbEntity
  8
DRG
100
AcDbCircle
 10
897.9252156870522
 20
-231.406375193412
 30
0.0
 40
6.372396296065014
100
AcDbArc
 50
246.3918376378618
 51
293.6081623622519
  0
ARC
  5
10B73
330
1F
100
AcDbEntity
  8
DRG
100
AcDbCircle
 10
897.9252156870522
 20
-240.1836797855424
 30
0.0
 40
6.372396296065014
100
AcDbArc
 50
66.3918376378618
 51
113.6081623621381
  0
LINE
  5
10B74
330
1F
100
AcDbEntity
  8
DRG
100
AcDbLine
 10
895.3732011354976
 20
-234.3446168228104
 30
0.0
 11
895.3732011354976
 21
-237.245438156144
 31
0.0
  0
LINE
  5
10B75
330
1F
100
AcDbEntity
  8
DRG
100
AcDbLine
 10
893.0710494826005
 20
-232.5342984569993
 30
0.0
 11
893.0710494826005
 21
-231.6647414872817
 31
0.0
  0
ARC
  5
10B76
330
1F
100
AcDbEntity
  8
DRG
100
AcDbCircle
 10
894.3474457036197
 20
-232.5342984569993
 30
0.0
 40
1.276396221009099
100
AcDbArc
 50
180.0
 51
270.0
  0
LINE
  5
10B77
330
1F
100
AcDbEntity
  8
DRG
100
AcDbLine
 10
900.4772302386143
 20
-237.245438156144
 30
0.0
 11
900.4772302386143
 21
-234.3446168228095
 31
0.0
  0
LINE
  5
10B78
330
1F
100
AcDbEntity
  8
DRG
100
AcDbLine
 10
898.2298046068123
 20
-237.7781826780054
 30
0.0
 11
898.2298046068123
 21
-240.1634874627564
 31
0.0
  0
LINE
  5
10B79
330
1F
100
AcDbEntity
  8
DRG
100
AcDbLine
 10
899.0799806068123
 20
-237.7781826780054
 30
0.0
 11
899.0799806068123
 21
-240.1634927541702
 31
0.0
  0
LINE
  5
10B7A
330
1F
100
AcDbEntity
  8
DRG
100
AcDbLine
 10
912.5900427785698
 20
-240.1634927541702
 30
0.0
 11
912.5900427785698
 21
-241.2971448395158
 31
0.0
  0
LINE
  5
10B7B
330
1F
100
AcDbEntity
  8
DRG
100
AcDbLine
 10
905.8350116926911
 20
-233.8106946780051
 30
0.0
 11
915.7855086810039
 21
-233.8106946780051
 31
0.0
  0
LINE
  5
10B7C
330
1F
100
AcDbEntity
  8
DRG
100
AcDbLine
 10
905.8350116926911
 20
-233.8106946780051
 30
0.0
 11
915.7855086810039
 21
-233.8106946780051
 31
0.0
  0
ARC
  5
10B7D
330
1F
100
AcDbEntity
  8
DRG
100
AcDbCircle
 10
913.7448076983298
 20
-231.434341298291
 30
0.0
 40
6.346780677060126
100
AcDbArc
 50
246.2907305227201
 51
293.7092694772798
  0
ARC
  5
10B7E
330
1F
100
AcDbEntity
  8
DRG
100
AcDbCircle
 10
913.7448076983298
 20
-240.1557136806625
 30
0.0
 40
6.346780677060126
100
AcDbArc
 50
66.29073052272016
 51
113.7092694772798
  0
LINE
  5
10B7F
330
1F
100
AcDbEntity
  8
DRG
100
AcDbLine
 10
911.192793146775
 20
-237.2454381561431
 30
0.0
 11
911.192793146775
 21
-234.3446168228104
 31
0.0
  0
LINE
  5
10B80
330
1F
100
AcDbEntity
  8
DRG
100
AcDbLine
 10
916.2968222498845
 20
-234.344616822809
 30
0.0
 11
916.2968222498845
 21
-237.245438156144
 31
0.0
  0
LINE
  5
10B81
330
1F
100
AcDbEntity
  8
DRG
100
AcDbLine
 10
912.5900427785698
 20
-237.7781826780049
 30
0.0
 11
912.5900427785698
 21
-240.1634927541702
 31
0.0
  0
LINE
  5
10B82
330
1F
100
AcDbEntity
  8
DRG
100
AcDbLine
 10
913.4402187785697
 20
-237.7781826780049
 30
0.0
 11
913.4402187785697
 21
-240.1635821309076
 31
0.0
  0
LINE
  5
10B83
330
1F
100
AcDbEntity
  8
DRG
100
AcDbLine
 10
918.5989739027816
 20
-232.5342984569993
 30
0.0
 11
918.5989739027816
 21
-231.6647414872817
 31
0.0
  0
ARC
  5
10B84
330
1F
100
AcDbEntity
  8
DRG
100
AcDbCircle
 10
917.3225776817877
 20
-232.5342984569993
 30
0.0
 40
1.276396221009099
100
AcDbArc
 50
270.0
 51
0.0
  0
ARC
  5
10B85
330
1F
100
AcDbEntity
  8
DRG
100
AcDbCircle
 10
860.8866190923912
 20
-201.6653766144433
 30
0.0
 40
7.810409214091027
100
AcDbArc
 50
288.7264187130131
 51
347.6710174905297
  0
ARC
  5
10B86
330
1F
100
AcDbEntity
  8
DRG
100
AcDbCircle
 10
861.9664081463259
 20
-211.8655021395053
 30
0.0
 40
3.190990552522748
100
AcDbArc
 50
17.5993514856013
 51
84.99999999997401
  0
DIMENSION
  5
10B87
330
1F
100
AcDbEntity
  8
AM_5
100
AcDbDimension
  2
*D3
 10
699.6593367822547
 20
114.3455749079786
 30
0.0
 11
692.7593367822547
 21
169.2039793286187
 31
0.0
 70
    32
  1
%%c<>
  3
AM_ISO
100
AcDbAlignedDimension
 13
611.564415408784
 23
224.0623837492586
 33
0.0
 14
611.564415408784
 24
114.3455749079786
 34
0.0
 50
90.0
100
AcDbRotatedDimension
1001
ACAD
1000
DSTYLE
1002
{
1070
    40
1040
3.0
1070
   271
1070
     0
1070
   272
1070
     8
1002
}
  0
LINE
  5
10B88
330
1F
100
AcDbEntity
  8
CEN
 48
2.0
100
AcDbLine
 10
611.564415408784
 20
110.2069487253072
 30
0.0
 11
611.564415408784
 21
228.2473390419409
 31
0.0
  0
ARC
  5
10B89
330
1F
100
AcDbEntity
  8
DRG
 48
10.0
100
AcDbCircle
 10
611.564415408784
 20
169.2039793286186
 30
0.0
 40
54.85840442064
100
AcDbArc
 50
33.43055857010622
 51
146.5694414298937
  0
DIMENSION
  5
10B8A
330
1F
100
AcDbEntity
  8
AM_5
100
AcDbDimension
  2
*D4
 10
811.2265170885878
 20
18.77530527678448
 30
0.0
 11
804.3256312618161
 21
34.65030527678433
 31
0.0
 70
    32
  3
AM_ISO
100
AcDbAlignedDimension
 13
873.0384068425472
 23
50.52530527678391
 33
0.0
 14
834.7972683324162
 24
18.77530527678447
 34
0.0
 50
90.0
100
AcDbRotatedDimension
1001
ACAD
1000
DSTYLE
1002
{
1070
    40
1040
3.0
1070
   271
1070
     0
1070
   272
1070
     8
1002
}
  0
LINE
  5
10B8B
330
1F
100
AcDbEntity
  8
DRG
100
AcDbLine
 10
876.1636052868768
 20
49.00130527678732
 30
0.0
 11
842.6365116926888
 21
49.00130527678277
 31
0.0
  0
LINE
  5
10B8C
330
1F
100
AcDbEntity
  8
DRG
100
AcDbLine
 10
842.6365116926888
 20
43.44671965158989
 30
0.0
 11
874.4338012035139
 21
43.44671965158807
 31
0.0
  0
LINE
  5
10B8D
330
1F
100
AcDbEntity
  8
DRG
100
AcDbLine
 10
842.6365116926888
 20
-5.896109098020019
 30
0.0
 11
860.459042877598
 21
-5.896109098020019
 31
0.0
  0
ARC
  5
10B8E
330
1F
100
AcDbEntity
  8
DRG
100
AcDbCircle
 10
842.5759369323921
 20
13.770054256982
 30
0.0
 40
26.58126143269125
100
AcDbArc
 50
288.4107342135011
 51
317.7650873017757
  0
LINE
  5
10B8F
330
1F
100
AcDbEntity
  8
DRG
100
AcDbLine
 10
856.0975689558533
 20
-51.49379472004227
 30
0.0
 11
847.5046040074509
 21
-51.49379472004227
 31
0.0
  0
LINE
  5
10B90
330
1F
100
AcDbEntity
  8
DRG
100
AcDbLine
 10
854.8960040067601
 20
-64.9557947200418
 30
0.0
 11
847.5046040074509
 21
-64.9557947200418
 31
0.0
  0
LINE
  5
10B91
330
1F
100
AcDbEntity
  8
DRG
100
AcDbLine
 10
854.8960040067601
 20
-66.42011660448486
 30
0.0
 11
847.5300040067729
 21
-66.42011660448486
 31
0.0
  0
ARC
  5
10B92
330
1F
100
AcDbEntity
  8
DRG
100
AcDbCircle
 10
853.9077265226504
 20
-56.3691080233956
 30
0.0
 40
5.403833459935146
100
AcDbArc
 50
251.3337646162228
 51
330.3397768905031
  0
LINE
  5
10B93
330
1F
100
AcDbEntity
  8
CEN
100
AcDbLine
 10
866.6624858737396
 20
-56.66269472004285
 30
0.0
 11
845.8344583432081
 21
-56.66269472004285
 31
0.0
  0
LINE
  5
10B94
330
1F
100
AcDbEntity
  8
CEN
100
AcDbLine
 10
834.7972683324162
 20
18.77530527678493
 30
0.0
 11
967.1544903278059
 21
18.77530527678493
 31
0.0
  0
LINE
  5
10B95
330
1F
100
AcDbEntity
  8
DRG
100
AcDbLine
 10
852.5585116926947
 20
-43.96269472321626
 30
0.0
 11
959.1115116926946
 21
-43.96269472321807
 31
0.0
  0
ARC
  5
10B99
330
1F
100
AcDbEntity
  8
DRG
100
AcDbCircle
 10
644.3610202589316
 20
41.00030527678439
 30
0.0
 40
9.524999999999998
100
AcDbArc
 50
57.14011962115939
 51
90.0
  0
ARC
  5
10B9A
330
1F
100
AcDbEntity
  8
DRG
100
AcDbCircle
 10
639.649576888345
 20
48.93780527678348
 30
0.0
 40
1.587499999999999
100
AcDbArc
 50
2.039866906896496
 51
90.0
  0
ARC
  5
10B9B
330
1F
100
AcDbEntity
  8
DRG
100
AcDbCircle
 10
583.4792539292084
 20
48.93780527678166
 30
0.0
 40
1.587499999999999
100
AcDbArc
 50
90.0
 51
177.9601330931067
  0
ARC
  5
10B9C
102
{ACAD_REACTORS
330
10AC3
102
}
330
1F
100
AcDbEntity
  8
DRG
100
AcDbCircle
 10
578.7678105586365
 20
41.00030527678439
 30
0.0
 40
9.524999999999998
100
AcDbArc
 50
90.0
 51
122.8598803788397
  0
LINE
  5
10B9D
330
1F
100
AcDbEntity
  8
CEN
 48
2.0
100
AcDbLine
 10
611.564415408784
 20
53.7829960109541
 30
0.0
 11
611.564415408784
 21
-250.9160185168636
 31
0.0
  0
ARC
  5
10B9E
330
1F
100
AcDbEntity
  8
DRG
100
AcDbCircle
 10
664.840915408784
 20
-42.37519472321662
 30
0.0
 40
1.587499999999999
100
AcDbArc
 50
270.0
 51
0.0
  0
ARC
  5
10B9F
330
1F
100
AcDbEntity
  8
DRG
100
AcDbCircle
 10
558.2879154087841
 20
-42.37519472321662
 30
0.0
 40
1.587499999999999
100
AcDbArc
 50
180.0
 51
270.0
  0
LINE
  5
10BA0
330
1F
100
AcDbEntity
  8
DRG
100
AcDbLine
 10
611.564415408784
 20
-43.96269472321626
 30
0.0
 11
599.3521116483589
 21
-44.45118687363435
 31
0.0
  0
LINE
  5
10BA1
330
1F
100
AcDbEntity
  8
DRG
100
AcDbLine
 10
558.2879154087841
 20
-43.96269472321626
 30
0.0
 11
664.840915408784
 21
-43.96269472321807
 31
0.0
  0
LINE
  5
10BA2
330
1F
100
AcDbEntity
  8
DRG
100
AcDbLine
 10
658.0464153971534
 20
-43.96269472321626
 30
0.0
 11
565.0824154204074
 21
-43.96269472321626
 31
0.0
  0
LINE
  5
10BA3
330
1F
100
AcDbEntity
  8
CEN
100
AcDbLine
 10
572.0994506769702
 20
-56.66269472004285
 30
0.0
 11
549.4853916608171
 21
-56.66269472004285
 31
0.0
  0
LINE
  5
10BA4
330
1F
100
AcDbEntity
  8
DRG
100
AcDbLine
 10
558.8848088793874
 20
-66.42011660448486
 30
0.0
 11
558.8848088793874
 21
-64.9557947200418
 31
0.0
  0
LINE
  5
10BA5
330
1F
100
AcDbEntity
  8
DRG
100
AcDbLine
 10
560.6254077228495
 20
-66.42011660448486
 30
0.0
 11
553.2594077228623
 21
-66.42011660448486
 31
0.0
  0
LINE
  5
10BA6
330
1F
100
AcDbEntity
  8
DRG
100
AcDbLine
 10
557.9076077235422
 20
-57.67678095717826
 30
0.0
 11
555.6216077235421
 21
-57.67678095717826
 31
0.0
  0
LINE
  5
10BA7
330
1F
100
AcDbEntity
  8
DRG
100
AcDbLine
 10
560.6254077228495
 20
-64.9557947200418
 30
0.0
 11
553.2340077235403
 21
-64.9557947200418
 31
0.0
  0
LINE
  5
10BA8
330
1F
100
AcDbEntity
  8
DRG
100
AcDbLine
 10
561.8269726719427
 20
-51.49379472004227
 30
0.0
 11
553.2340077235403
 21
-51.49379472004227
 31
0.0
  0
LINE
  5
10BA9
330
1F
100
AcDbEntity
  8
DRG
100
AcDbLine
 10
553.4340077235447
 20
-56.16269472004103
 30
0.0
 11
553.4340077235447
 21
-54.16269472004285
 31
0.0
  0
LINE
  5
10BAA
330
1F
100
AcDbEntity
  8
DRG
100
AcDbLine
 10
553.2340077235403
 20
-64.9557947200418
 30
0.0
 11
553.2340077235403
 21
-51.49379472004227
 31
0.0
  0
LINE
  5
10BAB
330
1F
100
AcDbEntity
  8
DRG
100
AcDbLine
 10
555.6216077235421
 20
-64.9557947200418
 30
0.0
 11
555.6216077235421
 21
-51.49379472004227
 31
0.0
  0
LINE
  5
10BAC
330
1F
100
AcDbEntity
  8
DRG
100
AcDbLine
 10
554.5114847854256
 20
-64.9557947200418
 30
0.0
 11
554.5114847854256
 21
-59.16269472004285
 31
0.0
  0
LINE
  5
10BAD
330
1F
100
AcDbEntity
  8
DRG
100
AcDbLine
 10
554.9340077235374
 20
-57.16269472004194
 30
0.0
 11
553.4340077235447
 21
-57.16269472004194
 31
0.0
  0
LINE
  5
10BAE
330
1F
100
AcDbEntity
  8
DRG
100
AcDbLine
 10
554.9340077235374
 20
-56.16269472004103
 30
0.0
 11
553.4340077235447
 21
-56.16269472004103
 31
0.0
  0
LINE
  5
10BAF
330
1F
100
AcDbEntity
  8
DRG
100
AcDbLine
 10
554.9340077235374
 20
-57.16269472004194
 30
0.0
 11
554.9340077235374
 21
-56.16269472004103
 31
0.0
  0
LINE
  5
10BB0
330
1F
100
AcDbEntity
  8
DRG
100
AcDbLine
 10
555.6216077235421
 20
-59.16269472004285
 30
0.0
 11
553.4340077235447
 21
-59.16269472004285
 31
0.0
  0
LINE
  5
10BB1
330
1F
100
AcDbEntity
  8
DRG
100
AcDbLine
 10
553.4340077235447
 20
-59.16269472004285
 30
0.0
 11
553.4340077235447
 21
-57.16269472004194
 31
0.0
  0
LINE
  5
10BB2
330
1F
100
AcDbEntity
  8
DRG
100
AcDbLine
 10
555.6216077235421
 20
-54.16269472004285
 30
0.0
 11
553.4340077235447
 21
-54.16269472004285
 31
0.0
  0
LINE
  5
10BB3
330
1F
100
AcDbEntity
  8
DRG
100
AcDbLine
 10
554.5114847854256
 20
-54.16269472004285
 30
0.0
 11
554.5114847854256
 21
-51.49379472004227
 31
0.0
  0
ARC
  5
10BB4
330
1F
100
AcDbEntity
  8
DRG
100
AcDbCircle
 10
561.6342712018504
 20
-58.33040912915009
 30
0.0
 40
7.810409214091027
100
AcDbArc
 50
12.32898250947024
 51
70.34994416777663
  0
LINE
  5
10BB5
330
1F
100
AcDbEntity
  8
DRG
100
AcDbLine
 10
557.9076077235422
 20
-64.9557947200418
 30
0.0
 11
557.9076077235422
 21
-51.49379472004227
 31
0.0
  0
LINE
  5
10BB6
330
1F
100
AcDbEntity
  8
DRG
100
AcDbLine
 10
557.9076077235422
 20
-61.48869471883597
 30
0.0
 11
557.9076077235422
 21
-51.8366947212479
 31
0.0
  0
ARC
  5
10BB7
330
1F
100
AcDbEntity
  8
DRG
100
AcDbCircle
 10
559.6371302387397
 20
-56.3691080233956
 30
0.0
 40
5.403833459935146
100
AcDbArc
 50
251.3337646162228
 51
330.3397768905031
  0
ARC
  5
10BB8
330
1F
100
AcDbEntity
  8
DRG
100
AcDbCircle
 10
562.6581888260825
 20
-48.23394474621261
 30
0.0
 40
3.174999999206249
100
AcDbArc
 50
274.9999999999736
 51
1.468148199842941
  0
LINE
  5
10BB9
330
1F
100
AcDbEntity
  8
DRG
100
AcDbLine
 10
562.9349083092365
 20
-51.39686291186251
 30
0.0
 11
561.8269726719427
 21
-51.49379472004227
 31
0.0
  0
LINE
  5
10BBA
330
1F
100
AcDbEntity
  8
DRG
100
AcDbLine
 10
565.8321465450553
 20
-48.15259738541397
 30
0.0
 11
565.724760891635
 21
-43.96269472321626
 31
0.0
  0
ARC
  5
10BBB
330
1F
100
AcDbEntity
  8
DRG
100
AcDbCircle
 10
599.3724154118372
 20
-44.95878096053809
 30
0.0
 40
0.5079999998729999
100
AcDbArc
 50
92.2906100426395
 51
180.0
  0
LINE
  5
10BBC
330
1F
100
AcDbEntity
  8
DRG
100
AcDbLine
 10
623.7767191692092
 20
-44.45118687363435
 30
0.0
 11
611.564415408784
 21
-43.96269472321626
 31
0.0
  0
ARC
  5
10BBD
330
1F
100
AcDbEntity
  8
DRG
100
AcDbCircle
 10
623.7564154057309
 20
-44.95878096053809
 30
0.0
 40
0.5079999998729999
100
AcDbArc
 50
0.0
 51
87.70938995736051
  0
LINE
  5
10BBE
330
1F
100
AcDbEntity
  8
DRG
100
AcDbLine
 10
569.1613550377496
 20
-3.576694723202194
 30
0.0
 11
653.9674757798329
 21
-3.576694723223113
 31
0.0
  0
LINE
  5
10BBF
330
1F
100
AcDbEntity
  8
DRG
100
AcDbLine
 10
581.8927599252401
 20
48.99431213785749
 30
0.0
 11
580.2384352897479
 21
2.547277832483018
 31
0.0
  0
LINE
  5
10BC0
330
1F
100
AcDbEntity
  8
DRG
100
AcDbLine
 10
546.778415408784
 20
47.41380527678313
 30
0.0
 11
546.778415408784
 21
-9.863194723212359
 31
0.0
  0
LINE
  5
10BC1
330
1F
100
AcDbEntity
  8
DRG
100
AcDbLine
 10
556.7004154087826
 20
-11.45069472321381
 30
0.0
 11
556.7004154087826
 21
-42.37519472321662
 31
0.0
  0
LINE
  5
10BC2
330
1F
100
AcDbEntity
  8
DRG
100
AcDbLine
 10
556.7004154087826
 20
-11.4506947232129
 30
0.0
 11
548.3659154087781
 21
-11.4506947232129
 31
0.0
  0
LINE
  5
10BC3
330
1F
100
AcDbEntity
  8
DRG
100
AcDbLine
 10
548.3659154087781
 20
-5.896109098020019
 30
0.0
 11
566.1884465936873
 21
-5.896109098020019
 31
0.0
  0
ARC
  5
10BC4
330
1F
100
AcDbEntity
  8
DRG
100
AcDbCircle
 10
548.3659154087781
 20
-9.863194723212359
 30
0.0
 40
1.587499999999999
100
AcDbArc
 50
180.0
 51
270.0
  0
ARC
  5
10BC5
330
1F
100
AcDbEntity
  8
DRG
100
AcDbCircle
 10
548.3659154087781
 20
-4.308609098021292
 30
0.0
 40
1.587499999999999
100
AcDbArc
 50
180.0
 51
270.0
  0
ARC
  5
10BC6
330
1F
100
AcDbEntity
  8
DRG
100
AcDbCircle
 10
548.3053406484814
 20
13.770054256982
 30
0.0
 40
26.58126143269125
100
AcDbArc
 50
288.4107342135011
 51
317.7650873017757
  0
ARC
  5
10BC7
330
1F
100
AcDbEntity
  8
DRG
100
AcDbCircle
 10
569.1613550377496
 20
-5.164194723200921
 30
0.0
 40
1.587499999999999
100
AcDbArc
 50
90.0
 51
137.7650873017769
  0
ARC
  5
10BC8
330
1F
100
AcDbEntity
  8
DRG
100
AcDbCircle
 10
573.8924592738385
 20
2.773305276782707
 30
0.0
 40
6.349999999999999
100
AcDbArc
 50
270.0
 51
357.9601330931067
  0
LINE
  5
10BC9
330
1F
100
AcDbEntity
  8
DRG
100
AcDbLine
 10
548.3659154087781
 20
43.44671965158989
 30
0.0
 11
580.1632049196032
 21
43.44671965158807
 31
0.0
  0
LINE
  5
10BCA
330
1F
100
AcDbEntity
  8
DRG
100
AcDbLine
 10
581.8930090029661
 20
49.00130527678732
 30
0.0
 11
548.3659154087781
 21
49.00130527678277
 31
0.0
  0
ARC
  5
10BCB
330
1F
100
AcDbEntity
  8
DRG
100
AcDbCircle
 10
548.3659154087781
 20
47.41380527678313
 30
0.0
 40
1.587499999999999
100
AcDbArc
 50
90.0
 51
180.0
  0
ARC
  5
10BCC
330
1F
100
AcDbEntity
  8
DRG
100
AcDbCircle
 10
548.3659154087781
 20
41.85921965158934
 30
0.0
 40
1.587499999999999
100
AcDbArc
 50
90.0
 51
180.0
  0
ARC
  5
10BCD
330
1F
100
AcDbEntity
  8
DRG
100
AcDbCircle
 10
580.1632049196032
 20
45.03421965158861
 30
0.0
 40
1.587499999999999
100
AcDbArc
 50
270.0
 51
357.9601330931034
  0
LINE
  5
10BCE
330
1F
100
AcDbEntity
  8
DRG
100
AcDbLine
 10
666.4284154087781
 20
47.41380527678404
 30
0.0
 11
666.4284154087781
 21
-9.926694723216201
 31
0.0
  0
LINE
  5
10BCF
330
1F
100
AcDbEntity
  8
DRG
100
AcDbLine
 10
641.2360708923279
 20
48.9943121378584
 30
0.0
 11
642.8903955278201
 21
2.54727783247938
 31
0.0
  0
LINE
  5
10BD0
330
1F
100
AcDbEntity
  8
DRG
100
AcDbLine
 10
666.4284154087781
 20
43.01253877924603
 30
0.0
 11
666.4284154087781
 21
-5.461928225677979
 31
0.0
  0
LINE
  5
10BD1
330
1F
100
AcDbEntity
  8
DRG
100
AcDbLine
 10
666.4284154087781
 20
-9.926694723216201
 30
0.0
 11
666.4284154087781
 21
-42.37519472321662
 31
0.0
  0
ARC
  5
10BD2
330
1F
100
AcDbEntity
  8
DRG
100
AcDbCircle
 10
653.9674757798329
 20
-5.16419472322093
 30
0.0
 40
1.587499999999999
100
AcDbArc
 50
42.23491269831751
 51
90.0
  0
ARC
  5
10BD3
330
1F
100
AcDbEntity
  8
DRG
100
AcDbCircle
 10
649.2363715437295
 20
2.773305276779069
 30
0.0
 40
6.349999999999999
100
AcDbArc
 50
182.0398669068948
 51
270.0
  0
ARC
  5
10BD4
330
1F
100
AcDbEntity
  8
DRG
100
AcDbCircle
 10
674.8234901690794
 20
13.770054256982
 30
0.0
 40
26.58126143269125
100
AcDbArc
 50
222.2349126982789
 51
251.5892657864988
  0
LINE
  5
10BD5
330
1F
100
AcDbEntity
  8
DRG
100
AcDbLine
 10
664.840915408784
 20
-5.896109098020019
 30
0.0
 11
656.9403842238807
 21
-5.896109098020019
 31
0.0
  0
ARC
  5
10BD6
330
1F
100
AcDbEntity
  8
DRG
100
AcDbCircle
 10
664.840915408784
 20
-4.308609098021292
 30
0.0
 40
1.587499999999999
100
AcDbArc
 50
270.0
 51
0.0
  0
LINE
  5
10BD7
330
1F
100
AcDbEntity
  8
DRG
100
AcDbLine
 10
664.840915408784
 20
43.44671965158989
 30
0.0
 11
642.9656258979503
 21
43.44671965158807
 31
0.0
  0
LINE
  5
10BD8
330
1F
100
AcDbEntity
  8
DRG
100
AcDbLine
 10
664.840915408784
 20
49.00130527678368
 30
0.0
 11
641.2358218145945
 21
49.0013052767855
 31
0.0
  0
ARC
  5
10BD9
330
1F
100
AcDbEntity
  8
DRG
100
AcDbCircle
 10
642.9656258979503
 20
45.03421965158861
 30
0.0
 40
1.587499999999999
100
AcDbArc
 50
182.0398669068948
 51
270.0
  0
ARC
  5
10BDA
330
1F
100
AcDbEntity
  8
DRG
100
AcDbCircle
 10
664.840915408784
 20
41.85921965158934
 30
0.0
 40
1.587499999999999
100
AcDbArc
 50
0.0
 51
90.0
  0
ARC
  5
10BDB
330
1F
100
AcDbEntity
  8
DRG
100
AcDbCircle
 10
664.840915408784
 20
47.41380527678404
 30
0.0
 40
1.587499999999999
100
AcDbArc
 50
0.0
 51
90.0
  0
ARC
  5
10BDC
330
1F
100
AcDbEntity
  8
DRG
100
AcDbCircle
 10
852.5585116926947
 20
-42.37519472321662
 30
0.0
 40
1.587499999999999
100
AcDbArc
 50
180.0
 51
270.0
  0
LINE
  5
10BDD
330
1F
100
AcDbEntity
  8
DRG
100
AcDbLine
 10
847.5300040067729
 20
-66.42011660448486
 30
0.0
 11
847.5300040067729
 21
-134.5356770416176
 31
0.0
  0
LINE
  5
10BDE
330
1F
100
AcDbEntity
  8
DRG
100
AcDbLine
 10
853.1554051632982
 20
-66.42011660448486
 30
0.0
 11
853.1554051632982
 21
-64.9557947200418
 31
0.0
  0
LINE
  5
10BDF
330
1F
100
AcDbEntity
  8
DRG
100
AcDbLine
 10
847.5046040074509
 20
-64.9557947200418
 30
0.0
 11
847.5046040074509
 21
-51.49379472004227
 31
0.0
  0
LINE
  5
10BE0
330
1F
100
AcDbEntity
  8
DRG
100
AcDbLine
 10
849.8922040074528
 20
-64.9557947200418
 30
0.0
 11
849.8922040074528
 21
-51.49379472004227
 31
0.0
  0
LINE
  5
10BE1
330
1F
100
AcDbEntity
  8
DRG
100
AcDbLine
 10
852.1782040074528
 20
-64.9557947200418
 30
0.0
 11
852.1782040074528
 21
-51.49379472004227
 31
0.0
  0
LINE
  5
10BE2
330
1F
100
AcDbEntity
  8
DRG
100
AcDbLine
 10
852.1782040074528
 20
-61.48869471883597
 30
0.0
 11
852.1782040074528
 21
-51.8366947212479
 31
0.0
  0
LINE
  5
10BE3
330
1F
100
AcDbEntity
  8
DRG
100
AcDbLine
 10
847.7046040074553
 20
-56.16269472004103
 30
0.0
 11
847.7046040074553
 21
-54.16269472004285
 31
0.0
  0
LINE
  5
10BE4
330
1F
100
AcDbEntity
  8
DRG
100
AcDbLine
 10
848.7820810693362
 20
-64.9557947200418
 30
0.0
 11
848.7820810693362
 21
-59.16269472004285
 31
0.0
  0
LINE
  5
10BE5
330
1F
100
AcDbEntity
  8
DRG
100
AcDbLine
 10
852.1782040074528
 20
-57.67678095717826
 30
0.0
 11
849.8922040074528
 21
-57.67678095717826
 31
0.0
  0
LINE
  5
10BE6
330
1F
100
AcDbEntity
  8
DRG
100
AcDbLine
 10
849.204604007448
 20
-57.16269472004194
 30
0.0
 11
849.204604007448
 21
-56.16269472004103
 31
0.0
  0
LINE
  5
10BE7
330
1F
100
AcDbEntity
  8
DRG
100
AcDbLine
 10
847.7046040074553
 20
-59.16269472004285
 30
0.0
 11
847.7046040074553
 21
-57.16269472004194
 31
0.0
  0
LINE
  5
10BE8
330
1F
100
AcDbEntity
  8
DRG
100
AcDbLine
 10
849.8922040074528
 20
-59.16269472004285
 30
0.0
 11
847.7046040074553
 21
-59.16269472004285
 31
0.0
  0
LINE
  5
10BE9
330
1F
100
AcDbEntity
  8
DRG
100
AcDbLine
 10
849.204604007448
 20
-57.16269472004194
 30
0.0
 11
847.7046040074553
 21
-57.16269472004194
 31
0.0
  0
LINE
  5
10BEA
330
1F
100
AcDbEntity
  8
DRG
100
AcDbLine
 10
849.204604007448
 20
-56.16269472004103
 30
0.0
 11
847.7046040074553
 21
-56.16269472004103
 31
0.0
  0
LINE
  5
10BEB
330
1F
100
AcDbEntity
  8
DRG
100
AcDbLine
 10
848.7820810693362
 20
-54.16269472004285
 30
0.0
 11
848.7820810693362
 21
-51.49379472004227
 31
0.0
  0
LINE
  5
10BEC
330
1F
100
AcDbEntity
  8
DRG
100
AcDbLine
 10
849.8922040074528
 20
-54.16269472004285
 30
0.0
 11
847.7046040074553
 21
-54.16269472004285
 31
0.0
  0
LINE
  5
10BED
330
1F
100
AcDbEntity
  8
DRG
100
AcDbLine
 10
841.0490116926947
 20
47.41380527678313
 30
0.0
 11
841.0490116926947
 21
-9.863194723212359
 31
0.0
  0
LINE
  5
10BEE
330
1F
100
AcDbEntity
  8
DRG
100
AcDbLine
 10
850.9710116926934
 20
-11.45069472321381
 30
0.0
 11
850.9710116926934
 21
-42.37519472321662
 31
0.0
  0
LINE
  5
10BEF
330
1F
100
AcDbEntity
  8
DRG
100
AcDbLine
 10
850.9710116926934
 20
-11.4506947232129
 30
0.0
 11
842.6365116926888
 21
-11.4506947232129
 31
0.0
  0
ARC
  5
10BF0
330
1F
100
AcDbEntity
  8
DRG
100
AcDbCircle
 10
842.6365116926888
 20
-9.863194723212359
 30
0.0
 40
1.587499999999999
100
AcDbArc
 50
180.0
 51
270.0
  0
ARC
  5
10BF1
330
1F
100
AcDbEntity
  8
DRG
100
AcDbCircle
 10
842.6365116926888
 20
-4.308609098021292
 30
0.0
 40
1.587499999999999
100
AcDbArc
 50
180.0
 51
270.0
  0
ARC
  5
10BF2
330
1F
100
AcDbEntity
  8
DRG
100
AcDbCircle
 10
842.6365116926888
 20
41.85921965158934
 30
0.0
 40
1.587499999999999
100
AcDbArc
 50
90.0
 51
180.0
  0
ARC
  5
10BF3
330
1F
100
AcDbEntity
  8
DRG
100
AcDbCircle
 10
842.6365116926888
 20
47.41380527678313
 30
0.0
 40
1.587499999999999
100
AcDbArc
 50
90.0
 51
180.0
  0
CIRCLE
  5
10BF4
330
1F
100
AcDbEntity
  8
DRG
 48
10.0
100
AcDbCircle
 10
611.564415408784
 20
169.2039793286186
 30
0.0
 40
42.2756878628
  0
ARC
  5
10BF5
330
1F
100
AcDbEntity
  8
DRG
 48
10.0
100
AcDbCircle
 10
611.564415408784
 20
169.2039793286186
 30
0.0
 40
43.68354426088
100
AcDbArc
 50
223.7775618312013
 51
316.2224381687986
  0
ARC
  5
10BF6
330
1F
100
AcDbEntity
  8
DRG
 48
10.0
100
AcDbCircle
 10
611.564415408784
 20
169.2039793286186
 30
0.0
 40
54.85840442064
100
AcDbArc
 50
213.4305585701062
 51
326.5694414298938
  0
LINE
  5
10BF7
330
1F
100
AcDbEntity
  8
DRG
100
AcDbLine
 10
578.7678105586365
 20
50.52530527677948
 30
0.0
 11
644.3610202589316
 21
50.52530527678493
 31
0.0
  0
ARC
  5
10BF8
330
1F
100
AcDbEntity
  8
DRG
 48
10.0
100
AcDbCircle
 10
611.564415408784
 20
169.2039793286186
 30
0.0
 40
43.68354426088
100
AcDbArc
 50
43.77756183120136
 51
136.2224381687986
  0
LINE
  5
10BF9
330
1F
100
AcDbEntity
  8
DRG
100
AcDbLine
 10
546.778415408784
 20
138.9810620783583
 30
0.0
 11
546.778415408784
 21
199.426896578877
 31
0.0
  0
LINE
  5
10BFA
330
1F
100
AcDbEntity
  8
DRG
100
AcDbLine
 10
546.778415408784
 20
185.87289188025
 30
0.0
 11
546.778415408784
 21
152.5350667769836
 31
0.0
  0
LINE
  5
10BFB
330
1F
100
AcDbEntity
  8
DRG
 48
10.0
100
AcDbLine
 10
582.0041539560024
 20
138.9810620783592
 30
0.0
 11
546.778415408784
 21
138.9810620783583
 31
0.0
  0
SOLID
  5
10BFC
330
1F
100
AcDbEntity
  8
DIM
 62
     4
100
AcDbTrace
 10
558.4629601007454
 20
173.2039793286168
 30
0.0
 11
565.2063972569285
 21
169.2039793286177
 31
0.0
 12
558.4629601007454
 22
165.2039793286186
 32
0.0
 13
558.4629601007454
 23
165.2039793286186
 33
0.0
1001
ACAD
1000
DSTYLE
1002
{
1070
   147
1040
0.09
1070
    77
1070
     0
1002
}
  0
POLYLINE
  5
10BFD
330
1F
100
AcDbEntity
  8
DIM
 62
     4
 48
2.0
100
AcDb2dPolyline
 66
     1
 10
0.0
 20
0.0
 30
0.0
 40
4.0
 41
4.0
  0
VERTEX
  5
11A7F
330
10BFD
100
AcDbEntity
  8
DIM
 62
     4
 48
2.0
100
AcDbVertex
100
AcDb2dVertex
 10
558.4629601007454
 20
169.2039793286177
 30
0.0
  0
VERTEX
  5
11A80
330
10BFD
100
AcDbEntity
  8
DIM
 62
     4
 48
2.0
100
AcDbVertex
100
AcDb2dVertex
 10
556.0317168568417
 20
169.2039793286177
 30
0.0
 40
4.8
 41
4.8
  0
SEQEND
  5
11A81
330
10BFD
100
AcDbEntity
  8
DIM
 62
     4
 48
2.0
  0
LINE
  5
10BFE
330
1F
100
AcDbEntity
  8
DRG
 48
10.0
100
AcDbLine
 10
546.778415408784
 20
199.426896578877
 30
0.0
 11
582.0041539560024
 21
199.4268965788779
 31
0.0
  0
LINE
  5
10BFF
330
1F
100
AcDbEntity
  8
DRG
100
AcDbLine
 10
666.4131249229231
 20
138.9810620783592
 30
0.0
 11
666.4131249229231
 21
199.4268965788779
 31
0.0
  0
LINE
  5
10C00
330
1F
100
AcDbEntity
  8
DRG
100
AcDbLine
 10
666.4131249229231
 20
185.8728918802509
 30
0.0
 11
666.4131249229231
 21
152.5350667769863
 31
0.0
  0
LINE
  5
10C01
330
1F
100
AcDbEntity
  8
DRG
 48
10.0
100
AcDbLine
 10
666.4228198294276
 20
138.9810620783592
 30
0.0
 11
641.1246768615655
 21
138.9810620783592
 31
0.0
  0
LINE
  5
10C02
330
1F
100
AcDbEntity
  8
DRG
 48
10.0
100
AcDbLine
 10
641.1246768615655
 20
199.4268965788779
 30
0.0
 11
666.4228198294276
 21
199.4268965788779
 31
0.0
  0
LINE
  5
10C03
330
1F
100
AcDbEntity
  8
CEN
100
AcDbLine
 10
905.8350116926947
 20
58.31816322119414
 30
0.0
 11
905.8350116926947
 21
-55.68835044599371
 31
0.0
  0
ARC
  5
10C04
330
1F
100
AcDbEntity
  8
DRG
100
AcDbCircle
 10
938.6316165428423
 20
41.00030527678439
 30
0.0
 40
9.524999999999998
100
AcDbArc
 50
57.14011962115939
 51
90.0
  0
ARC
  5
10C05
330
1F
100
AcDbEntity
  8
DRG
100
AcDbCircle
 10
933.9201731722557
 20
48.93780527678348
 30
0.0
 40
1.587499999999999
100
AcDbArc
 50
2.039866906896496
 51
90.0
  0
ARC
  5
10C06
330
1F
100
AcDbEntity
  8
DRG
100
AcDbCircle
 10
873.0384068425472
 20
41.00030527678439
 30
0.0
 40
9.524999999999998
100
AcDbArc
 50
90.0
 51
122.8598803788397
  0
ARC
  5
10C07
330
1F
100
AcDbEntity
  8
DRG
100
AcDbCircle
 10
877.7498502131191
 20
48.93780527678166
 30
0.0
 40
1.587499999999999
100
AcDbArc
 50
90.0
 51
177.9601330931067
  0
ARC
  5
10C08
330
1F
100
AcDbEntity
  8
DRG
100
AcDbCircle
 10
959.1115116926946
 20
-42.37519472321662
 30
0.0
 40
1.587499999999999
100
AcDbArc
 50
270.0
 51
0.0
  0
LINE
  5
10C09
330
1F
100
AcDbEntity
  8
DRG
100
AcDbLine
 10
952.3170116810641
 20
-43.96269472321626
 30
0.0
 11
859.3530117043181
 21
-43.96269472321626
 31
0.0
  0
LINE
  5
10C0A
330
1F
100
AcDbEntity
  8
DRG
100
AcDbLine
 10
912.1850116911071
 20
-117.5150751517284
 30
0.0
 11
912.1850116911071
 21
-44.21669472315341
 31
0.0
  0
LINE
  5
10C0B
330
1F
100
AcDbEntity
  8
DRG
100
AcDbLine
 10
899.4850116942822
 20
-120.1205558642695
 30
0.0
 11
899.4850116942822
 21
-44.21669472315341
 31
0.0
  0
LINE
  5
10C0C
330
1F
100
AcDbEntity
  8
DRG
100
AcDbLine
 10
893.1350116958698
 20
-122.8534462538023
 30
0.0
 11
893.1350116958698
 21
-44.95878096053809
 31
0.0
  0
LINE
  5
10C0D
330
1F
100
AcDbEntity
  8
DRG
100
AcDbLine
 10
918.5350116895122
 20
-121.2330103428044
 30
0.0
 11
918.5350116895122
 21
-44.95878096053809
 31
0.0
  0
LINE
  5
10C0E
330
1F
100
AcDbEntity
  8
DRG
100
AcDbLine
 10
854.8960040067601
 20
-66.42011660448486
 30
0.0
 11
854.8960040067674
 21
-130.6501518947209
 31
0.0
  0
LINE
  5
10C0F
330
1F
100
AcDbEntity
  8
DRG
100
AcDbLine
 10
858.6035241688721
 20
-59.04322479877999
 30
0.0
 11
858.6035241688721
 21
-130.3238138816233
 31
0.0
  0
ARC
  5
10C10
330
1F
100
AcDbEntity
  8
DRG
100
AcDbCircle
 10
855.904867485761
 20
-58.33040912915009
 30
0.0
 40
7.810409214091027
100
AcDbArc
 50
12.32898250947024
 51
70.34994416777663
  0
ARC
  5
10C11
330
1F
100
AcDbEntity
  8
DRG
100
AcDbCircle
 10
856.9287851099932
 20
-48.23394474621261
 30
0.0
 40
3.174999999206249
100
AcDbArc
 50
274.9999999999736
 51
1.468148199842941
  0
LINE
  5
10C12
330
1F
100
AcDbEntity
  8
DRG
100
AcDbLine
 10
857.2055045931472
 20
-51.39686291186251
 30
0.0
 11
856.0975689558533
 21
-51.49379472004227
 31
0.0
  0
LINE
  5
10C13
330
1F
100
AcDbEntity
  8
DRG
100
AcDbLine
 10
860.1027428289659
 20
-48.15259738541397
 30
0.0
 11
859.9953571755456
 21
-43.96269472321626
 31
0.0
  0
LINE
  5
10C14
330
1F
100
AcDbEntity
  8
DRG
100
AcDbLine
 10
905.8350116926947
 20
-43.96269472321626
 30
0.0
 11
893.6227079322696
 21
-44.45118687363435
 31
0.0
  0
ARC
  5
10C15
330
1F
100
AcDbEntity
  8
DRG
100
AcDbCircle
 10
893.6430116957479
 20
-44.95878096053809
 30
0.0
 40
0.5079999998729999
100
AcDbArc
 50
92.2906100426395
 51
180.0
  0
LINE
  5
10C16
330
1F
100
AcDbEntity
  8
DRG
100
AcDbLine
 10
918.0473154531197
 20
-44.45118687363435
 30
0.0
 11
905.8350116926947
 21
-43.96269472321626
 31
0.0
  0
ARC
  5
10C17
330
1F
100
AcDbEntity
  8
DRG
100
AcDbCircle
 10
918.0270116896416
 20
-44.95878096053809
 30
0.0
 40
0.5079999998729999
100
AcDbArc
 50
0.0
 51
87.70938995736051
  0
LINE
  5
10C18
330
1F
100
AcDbEntity
  8
DRG
100
AcDbLine
 10
950.2436696656321
 20
-116.8933536798812
 30
0.0
 11
951.6746662098437
 21
-43.96269472321626
 31
0.0
  0
LINE
  5
10C19
330
1F
100
AcDbEntity
  8
DRG
100
AcDbLine
 10
863.4319513216603
 20
-3.576694723202194
 30
0.0
 11
948.2380720637436
 21
-3.576694723223113
 31
0.0
  0
LINE
  5
10C1A
330
1F
100
AcDbEntity
  8
DRG
100
AcDbLine
 10
876.1633562091509
 20
48.99431213785749
 30
0.0
 11
874.5090315736586
 21
2.547277832483018
 31
0.0
  0
ARC
  5
10C1B
330
1F
100
AcDbEntity
  8
DRG
100
AcDbCircle
 10
868.1630555577491
 20
2.773305276782707
 30
0.0
 40
6.349999999999999
100
AcDbArc
 50
270.0
 51
357.9601330931067
  0
ARC
  5
10C1C
330
1F
100
AcDbEntity
  8
DRG
100
AcDbCircle
 10
863.4319513216603
 20
-5.164194723200921
 30
0.0
 40
1.587499999999999
100
AcDbArc
 50
90.0
 51
137.7650873017769
  0
ARC
  5
10C1D
330
1F
100
AcDbEntity
  8
DRG
100
AcDbCircle
 10
874.4338012035139
 20
45.03421965158861
 30
0.0
 40
1.587499999999999
100
AcDbArc
 50
270.0
 51
357.9601330931034
  0
LINE
  5
10C1E
330
1F
100
AcDbEntity
  8
DRG
100
AcDbLine
 10
960.6990116926889
 20
43.01253877924603
 30
0.0
 11
960.6990116926889
 21
-5.461928225677979
 31
0.0
  0
LINE
  5
10C1F
330
1F
100
AcDbEntity
  8
DRG
100
AcDbLine
 10
960.6990116926889
 20
47.41380527678404
 30
0.0
 11
960.6990116926889
 21
-9.926694723216201
 31
0.0
  0
LINE
  5
10C20
330
1F
100
AcDbEntity
  8
DRG
100
AcDbLine
 10
935.5066671762385
 20
48.9943121378584
 30
0.0
 11
937.1609918117307
 21
2.54727783247938
 31
0.0
  0
LINE
  5
10C21
330
1F
100
AcDbEntity
  8
DRG
100
AcDbLine
 10
959.1115116926946
 20
-5.896109098020019
 30
0.0
 11
951.2109805077914
 21
-5.896109098020019
 31
0.0
  0
ARC
  5
10C22
330
1F
100
AcDbEntity
  8
DRG
100
AcDbCircle
 10
969.0940864529901
 20
13.770054256982
 30
0.0
 40
26.58126143269125
100
AcDbArc
 50
222.2349126982789
 51
251.5892657864988
  0
ARC
  5
10C23
330
1F
100
AcDbEntity
  8
DRG
100
AcDbCircle
 10
943.5069678276402
 20
2.773305276779069
 30
0.0
 40
6.349999999999999
100
AcDbArc
 50
182.0398669068948
 51
270.0
  0
ARC
  5
10C24
330
1F
100
AcDbEntity
  8
DRG
100
AcDbCircle
 10
948.2380720637436
 20
-5.16419472322093
 30
0.0
 40
1.587499999999999
100
AcDbArc
 50
42.23491269831751
 51
90.0
  0
LINE
  5
10C25
330
1F
100
AcDbEntity
  8
DRG
100
AcDbLine
 10
960.6990116926889
 20
-9.926694723216201
 30
0.0
 11
960.6990116926889
 21
-42.37519472321662
 31
0.0
  0
ARC
  5
10C26
330
1F
100
AcDbEntity
  8
DRG
100
AcDbCircle
 10
959.1115116926946
 20
-4.308609098021292
 30
0.0
 40
1.587499999999999
100
AcDbArc
 50
270.0
 51
0.0
  0
LINE
  5
10C27
330
1F
100
AcDbEntity
  8
DRG
100
AcDbLine
 10
959.1115116926946
 20
43.44671965158989
 30
0.0
 11
937.236222181861
 21
43.44671965158807
 31
0.0
  0
LINE
  5
10C28
330
1F
100
AcDbEntity
  8
DRG
100
AcDbLine
 10
959.1115116926946
 20
49.00130527678368
 30
0.0
 11
935.5064180985053
 21
49.0013052767855
 31
0.0
  0
ARC
  5
10C29
330
1F
100
AcDbEntity
  8
DRG
100
AcDbCircle
 10
937.236222181861
 20
45.03421965158861
 30
0.0
 40
1.587499999999999
100
AcDbArc
 50
182.0398669068948
 51
270.0
  0
ARC
  5
10C2A
330
1F
100
AcDbEntity
  8
DRG
100
AcDbCircle
 10
959.1115116926946
 20
41.85921965158934
 30
0.0
 40
1.587499999999999
100
AcDbArc
 50
0.0
 51
90.0
  0
ARC
  5
10C2B
330
1F
100
AcDbEntity
  8
DRG
100
AcDbCircle
 10
959.1115116926946
 20
47.41380527678404
 30
0.0
 40
1.587499999999999
100
AcDbArc
 50
0.0
 51
90.0
  0
LINE
  5
10C2C
330
1F
100
AcDbEntity
  8
DRG
100
AcDbLine
 10
873.0384068425472
 20
50.52530527677948
 30
0.0
 11
938.6316165428423
 21
50.52530527678493
 31
0.0
  0
DIMENSION
  5
10F28
330
1F
100
AcDbEntity
  8
AM_5
100
AcDbDimension
  2
*D7
 10
666.4131249229231
 20
88.38061899315972
 30
0.0
 11
606.5957701658535
 21
95.28150481993137
 31
0.0
 70
    32
  3
AM_ISO
100
AcDbAlignedDimension
 13
546.778415408784
 23
138.9810620783583
 33
0.0
 14
666.4131249229231
 24
138.9810620783592
 34
0.0
100
AcDbRotatedDimension
1001
ACAD
1000
DSTYLE
1002
{
1070
    40
1040
3.0
1070
   271
1070
     0
1070
   272
1070
     8
1002
}
  0
DIMENSION
  5
10F75
330
1F
100
AcDbEntity
  8
AM_5
100
AcDbDimension
  2
*D8
 10
527.7295253342503
 20
138.9810620783583
 30
0.0
 11
520.8295253342503
 21
169.2039793286178
 31
0.0
 70
    32
  3
AM_ISO
100
AcDbAlignedDimension
 13
546.778415408784
 23
199.426896578877
 33
0.0
 14
546.778415408784
 24
138.9810620783583
 34
0.0
 50
90.0
100
AcDbRotatedDimension
1001
ACAD
1000
DSTYLE
1002
{
1070
    40
1040
3.0
1070
   271
1070
     0
1070
   272
1070
     8
1002
}
  0
TEXT
  5
10FED
330
1F
100
AcDbEntity
  8
M_1
 62
     4
100
AcDbText
 10
771.4195153944984
 20
72.60452863211901
 30
0.0
 40
12.5
  1
Auto drain type
 41
0.75
  7
DAYUS
100
AcDbText
  0
POLYLINE
  5
10FFC
330
1F
100
AcDbEntity
  8
0
  6
AM_ISO08W050X2
 62
     2
100
AcDb2dPolyline
 66
     1
 10
0.0
 20
0.0
 30
0.0
 70
     1
1001
GENIUS_GENREC_14
1002
{
1000
PYDIR
1011
762.5218352739007
1021
-277.5982152372642
1031
0.0
1002
}
1002
{
1000
PXDIR
1011
1044.754523234546
1021
102.3148552318777
1031
0.0
1002
}
1002
{
1000
PORI
1011
762.5218352739007
1021
102.3148552318777
1031
0.0
1002
}
1002
{
1000
PINS
1011
762.5218352739007
1021
102.3148552318777
1031
0.0
1002
}
1002
{
1000
PINS2
1011
1044.754523234546
1021
-277.5982152372642
1031
0.0
1002
}
1002
{
1000
C
1070
     1
1002
}
1001
GENIUS_GENOBJ-N-REC_13
1002
{
1000
OWNER
1000
GEN
1002
}
1001
GENIUS_GENODEF_13
1002
{
1000
HIER
1070
     0
1002
}
1002
{
1000
MANEDIT
1070
     0
1002
}
1002
{
1000
NOSEL
1070
     0
1002
}
1002
{
1000
BEHIND
1070
     0
1002
}
1002
{
1000
OTHER
1070
     0
1002
}
1002
{
1000
REACTOR
1002
}
  0
VERTEX
  5
11A82
330
10FFC
100
AcDbEntity
  8
0
  6
AM_ISO08W050X2
 62
     2
100
AcDbVertex
100
AcDb2dVertex
 10
762.5218352739007
 20
102.3148552318777
 30
0.0
  0
VERTEX
  5
11A83
330
10FFC
100
AcDbEntity
  8
0
  6
AM_ISO08W050X2
 62
     2
100
AcDbVertex
100
AcDb2dVertex
 10
1044.754523234546
 20
102.3148552318777
 30
0.0
  0
VERTEX
  5
11A84
330
10FFC
100
AcDbEntity
  8
0
  6
AM_ISO08W050X2
 62
     2
100
AcDbVertex
100
AcDb2dVertex
 10
1044.754523234546
 20
-277.5982152372642
 30
0.0
  0
VERTEX
  5
11A85
330
10FFC
100
AcDbEntity
  8
0
  6
AM_ISO08W050X2
 62
     2
100
AcDbVertex
100
AcDb2dVertex
 10
762.5218352739007
 20
-277.5982152372642
 30
0.0
  0
SEQEND
  5
11A86
330
10FFC
100
AcDbEntity
  8
0
  6
AM_ISO08W050X2
 62
     2
  0
INSERT
  5
110BD
330
1F
100
AcDbEntity
  8
AM_5
100
AcDbBlockReference
  2
*S11
 10
0.0
 20
0.0
 30
0.0
  0
TEXT
  5
110BE
330
1F
100
AcDbEntity
  8
AM_5
100
AcDbText
 10
928.8988638143463
 20
-263.5454753930181
 30
0.0
 40
8.316
  1
PT 1/8  
 41
0.75
  7
DAYUS
 11
928.8988638143463
 21
-263.5454753930181
 31
0.0
100
AcDbText
 73
     1
  0
DIMENSION
  5
110FB
330
1F
100
AcDbEntity
  8
AM_5
100
AcDbDimension
  2
*D9
 10
497.3923946598315
 20
-246.2221632898334
 30
0.0
 11
490.4915088330599
 21
-97.84842900652442
 31
0.0
 70
    32
  3
AM_ISO
100
AcDbAlignedDimension
 13
578.7678105586365
 23
50.52530527678439
 33
0.0
 14
602.9284154087854
 24
-246.2221632898334
 34
0.0
 50
90.00000000000477
100
AcDbRotatedDimension
1001
ACAD
1000
DSTYLE
1002
{
1070
    40
1040
3.0
1070
   271
1070
     0
1070
   272
1070
     8
1002
}
  0
DIMENSION
  5
11254
330
1F
100
AcDbEntity
  8
AM_5
100
AcDbDimension
  2
*D10
 10
788.8651938006132
 20
-241.2970607541922
 30
0.0
 11
781.9621328582529
 21
-95.38587773870379
 31
0.0
 70
    32
  3
AM_ISO
100
AcDbAlignedDimension
 13
873.0384068425472
 23
50.52530527678439
 33
0.0
 14
899.0799806068123
 24
-241.2970607541922
 34
0.0
 50
90.00000000000488
100
AcDbRotatedDimension
1001
ACAD
1000
DSTYLE
1002
{
1070
    40
1040
3.0
1070
   271
1070
     0
1070
   272
1070
     8
1002
}
  0
INSERT
  5
116F0
330
1F
100
AcDbEntity
  8
AM_5
100
AcDbBlockReference
  2
*S12
 10
0.0
 20
0.0
 30
0.0
  0
TEXT
  5
116F1
330
1F
100
AcDbEntity
  8
AM_5
100
AcDbText
 10
689.4922675304333
 20
-4.118760110048413
 30
0.0
 40
8.316
  1
2-PT 1  
 41
0.75
  7
DAYUS
 11
689.4922675304333
 21
-4.118760110048413
 31
0.0
100
AcDbText
 73
     1
  0
TEXT
  5
116F3
330
1F
100
AcDbEntity
  8
AM_5
100
AcDbText
 10
732.0745492988879
 20
-5.173910281116604
 30
0.0
 40
5.8212
  1
2
100
AcDbText
  0
TEXT
  5
116F4
330
1F
100
AcDbEntity
  8
AM_5
100
AcDbText
 10
723.9141760433868
 20
-3.12373355881516
 30
0.0
 40
5.8212
  1
-
100
AcDbText
  0
TEXT
  5
116F5
330
1F
100
AcDbEntity
  8
AM_5
100
AcDbText
 10
729.6743628593494
 20
-1.768738185155257
 30
0.0
 40
5.8212
  1
/
100
AcDbText
  0
TEXT
  5
116F6
330
1F
100
AcDbEntity
  8
AM_5
100
AcDbText
 10
727.0836655542772
 20
-0.3589418920745402
 30
0.0
 40
5.8212
  1
1
100
AcDbText
  0
INSERT
  5
117AD
330
1F
100
AcDbEntity
  8
AM_5
100
AcDbBlockReference
  2
*S13
 10
0.0
 20
0.0
 30
0.0
  0
TEXT
  5
117AE
330
1F
100
AcDbEntity
  8
AM_5
100
AcDbText
 10
983.762863814344
 20
-4.087010110047401
 30
0.0
 40
8.316
  1
2-PT 1  
 41
0.75
  7
DAYUS
 11
983.762863814344
 21
-4.087010110047401
 31
0.0
100
AcDbText
 73
     1
  0
TEXT
  5
117AF
330
1F
100
AcDbEntity
  8
AM_5
100
AcDbText
 10
1026.345145582798
 20
-5.142160281115593
 30
0.0
 40
5.8212
  1
2
100
AcDbText
  0
TEXT
  5
117B0
330
1F
100
AcDbEntity
  8
AM_5
100
AcDbText
 10
1018.184772327297
 20
-3.091983558814149
 30
0.0
 40
5.8212
  1
-
100
AcDbText
  0
TEXT
  5
117B1
330
1F
100
AcDbEntity
  8
AM_5
100
AcDbText
 10
1023.94495914326
 20
-1.736988185154245
 30
0.0
 40
5.8212
  1
/
100
AcDbText
  0
TEXT
  5
117B2
330
1F
100
AcDbEntity
  8
AM_5
100
AcDbText
 10
1021.354261838187
 20
-0.3271918920735288
 30
0.0
 40
5.8212
  1
1
100
AcDbText
  0
POLYLINE
  5
1184A
330
1F
100
AcDbEntity
  8
0
 62
     4
100
AcDb2dPolyline
 66
     1
 10
0.0
 20
0.0
 30
0.0
 70
     1
  0
VERTEX
  5
1184B
330
1184A
100
AcDbEntity
  8
0
 62
     4
100
AcDbVertex
100
AcDb2dVertex
 10
1096.581083153037
 20
-314.042760802756
 30
0.0
  0
VERTEX
  5
1184C
330
1184A
100
AcDbEntity
  8
0
 62
     4
100
AcDbVertex
100
AcDb2dVertex
 10
438.1155707483644
 20
-314.042760802756
 30
0.0
  0
VERTEX
  5
1184D
330
1184A
100
AcDbEntity
  8
0
 62
     4
100
AcDbVertex
100
AcDb2dVertex
 10
438.1155707483644
 20
257.5947496122753
 30
0.0
  0
VERTEX
  5
1184E
330
1184A
100
AcDbEntity
  8
0
 62
     4
100
AcDbVertex
100
AcDb2dVertex
 10
1096.581083153037
 20
257.5947496122753
 30
0.0
  0
SEQEND
  5
1184F
330
1184A
100
AcDbEntity
  8
0
 62
     4
  0
TEXT
  5
11850
330
1F
100
AcDbEntity
  8
LOGO
 62
     7
100
AcDbText
 10
701.1922430242227
 20
-342.9089327871237
 30
0.0
 40
23.05814218395495
  1
訂購代號:
  7
CHINESET
100
AcDbText
  0
TEXT
  5
11851
330
1F
100
AcDbEntity
  8
LOGO
 62
     7
100
AcDbText
 10
698.4343620969698
 20
-364.5496594176238
 30
0.0
 40
15.3720947893033
  1
Order example:
 41
0.8
  7
CHINESET
100
AcDbText
  0
LINE
  5
11852
330
1F
100
AcDbEntity
  8
LOGO
 62
     1
100
AcDbLine
 10
1096.581083153037
 20
-314.042760802756
 30
0.0
 11
438.1155707483644
 21
-314.042760802756
 31
0.0
  0
LINE
  5
11853
330
1F
100
AcDbEntity
  8
LOGO
 62
     1
100
AcDbLine
 10
1096.581083153037
 20
-429.3334717225308
 30
0.0
 11
438.1155707483644
 21
-429.3334717225308
 31
0.0
  0
LINE
  5
11854
330
1F
100
AcDbEntity
  8
LOGO
 62
     1
100
AcDbLine
 10
691.755134771869
 20
-337.1009029867109
 30
0.0
 11
522.6620920895324
 21
-337.1009029867109
 31
0.0
  0
LINE
  5
11855
330
1F
100
AcDbEntity
  8
LOGO
 62
     1
100
AcDbLine
 10
691.755134771869
 20
-360.1590451706659
 30
0.0
 11
522.6620920895324
 21
-360.1590451706659
 31
0.0
  0
LINE
  5
11856
330
1F
100
AcDbEntity
  8
LOGO
 62
     1
100
AcDbLine
 10
691.755134771869
 20
-383.2171873546207
 30
0.0
 11
438.1155707483644
 21
-383.2171873546207
 31
0.0
  0
TEXT
  5
11857
330
1F
100
AcDbEntity
  8
LOGO
  6
CONTINUOUS
 62
     5
100
AcDbText
 10
441.8892303748289
 20
-406.6847855511942
 30
0.0
 40
17.29360663796621
  1
金器工業股份有限公司
 41
0.8
  7
LOGO
100
AcDbText
  0
TEXT
  5
11858
330
1F
100
AcDbEntity
  8
LOGO
  6
CONTINUOUS
 62
     5
100
AcDbText
 10
446.8410762650424
 20
-423.9817803801903
 30
0.0
 40
11.52907109197747
  1
MINDMAN INDUSTRIAL CO.,LTD
 41
0.85
  7
CHINESET
100
AcDbText
  0
TEXT
  5
11859
330
1F
100
AcDbEntity
  8
LOGO
 62
     6
100
AcDbText
 10
532.1684288336768
 20
-331.3306936852635
 30
0.0
 40
11.52907109197747
  1
比例 Scale:
 41
0.9
  7
CHINESET
 72
     4
 11
568.7783764574428
 21
-325.5718318947334
 31
0.0
100
AcDbText
  0
TEXT
  5
1185A
330
1F
100
AcDbEntity
  8
LOGO
 62
     6
100
AcDbText
 10
536.1984568091314
 20
-354.2323347811508
 30
0.0
 40
11.52907109197747
  1
投影 View:
 41
0.9
  7
CHINESET
 72
     4
 11
568.7783764574428
 21
-348.6299740786885
 31
0.0
100
AcDbText
  0
TEXT
  5
1185B
330
1F
100
AcDbEntity
  8
LOGO
 62
     6
100
AcDbText
 10
537.3256293846418
 20
-377.4526518086321
 30
0.0
 40
11.52907109197747
  1
單位 Unit:
 41
0.9
  7
CHINESET
 72
     4
 11
568.7783764574428
 21
-371.6881162626433
 31
0.0
100
AcDbText
  0
POLYLINE
  5
1185C
330
1F
100
AcDbEntity
  8
LOGO
 62
     5
100
AcDb2dPolyline
 66
     1
 10
0.0
 20
0.0
 30
0.0
 40
1.72167461640197
 41
1.72167461640197
  0
VERTEX
  5
1185D
330
1185C
100
AcDbEntity
  8
LOGO
 62
     5
100
AcDbVertex
100
AcDb2dVertex
 10
512.8218767539654
 20
-376.0841872573645
 30
0.0
 42
1.0
  0
VERTEX
  5
1185E
330
1185C
100
AcDbEntity
  8
LOGO
 62
     5
100
AcDbVertex
100
AcDb2dVertex
 10
507.6568529047595
 20
-376.0841872573645
 30
0.0
 42
1.0
  0
SEQEND
  5
1185F
330
1185C
100
AcDbEntity
  8
LOGO
 62
     5
  0
SOLID
  5
11860
330
1F
100
AcDbEntity
  8
LOGO
 62
     5
100
AcDbTrace
 10
506.8015249553293
 20
-381.2409470684103
 30
0.0
 11
508.5204448923466
 21
-381.2409470684103
 31
0.0
 12
506.8015249553293
 22
-372.6463473833329
 32
0.0
 13
508.5204448923466
 23
-372.6463473833329
 33
0.0
  0
POLYLINE
  5
11861
330
1F
100
AcDbEntity
  8
LOGO
 62
     5
100
AcDb2dPolyline
 66
     1
 10
0.0
 20
0.0
 30
0.0
 40
1.72167461640197
 41
1.72167461640197
  0
VERTEX
  5
11862
330
11861
100
AcDbEntity
  8
LOGO
 62
     5
100
AcDbVertex
100
AcDb2dVertex
 10
493.3406695397902
 20
-376.0841872573645
 30
0.0
 42
1.0
  0
VERTEX
  5
11863
330
11861
100
AcDbEntity
  8
LOGO
 62
     5
100
AcDbVertex
100
AcDb2dVertex
 10
488.1756456905841
 20
-376.0841872573645
 30
0.0
 42
1.0
  0
SEQEND
  5
11864
330
11861
100
AcDbEntity
  8
LOGO
 62
     5
  0
POLYLINE
  5
11865
330
1F
100
AcDbEntity
  8
LOGO
 62
     5
100
AcDb2dPolyline
 66
     1
 10
0.0
 20
0.0
 30
0.0
 70
     1
 40
1.72167461640197
 41
1.72167461640197
  0
VERTEX
  5
11866
330
11865
100
AcDbEntity
  8
LOGO
 62
     5
100
AcDbVertex
100
AcDb2dVertex
 10
497.0555838814632
 20
-376.9436472258724
 30
0.0
 42
1.0
  0
VERTEX
  5
11867
330
11865
100
AcDbEntity
  8
LOGO
 62
     5
100
AcDbVertex
100
AcDb2dVertex
 10
503.9422823470708
 20
-376.9436472258724
 30
0.0
 42
1.0
  0
SEQEND
  5
11868
330
11865
100
AcDbEntity
  8
LOGO
 62
     5
  0
SOLID
  5
11869
330
1F
100
AcDbEntity
  8
LOGO
 62
     5
100
AcDbTrace
 10
503.0771411278008
 20
-372.6463473833329
 30
0.0
 11
504.7960610648149
 21
-372.6463473833329
 31
0.0
 12
503.0771411278008
 22
-381.2409470684103
 32
0.0
 13
504.7960610648149
 23
-381.2409470684103
 33
0.0
  0
POLYLINE
  5
1186A
330
1F
100
AcDbEntity
  8
LOGO
 62
     5
100
AcDb2dPolyline
 66
     1
 10
0.0
 20
0.0
 30
0.0
 70
     1
  0
VERTEX
  5
1186B
330
1186A
100
AcDbEntity
  8
LOGO
 62
     5
100
AcDbVertex
100
AcDb2dVertex
 10
497.9205532087441
 20
-376.9436472258716
 30
0.0
 42
1.000000057330635
  0
VERTEX
  5
1186C
330
1186A
100
AcDbEntity
  8
LOGO
 62
     5
100
AcDbVertex
100
AcDb2dVertex
 10
503.0773130197919
 20
-376.9436472258716
 30
0.0
 42
1.000000057330635
  0
SEQEND
  5
1186D
330
1186A
100
AcDbEntity
  8
LOGO
 62
     5
  0
CIRCLE
  5
1186E
330
1F
100
AcDbEntity
  8
LOGO
 62
     5
100
AcDbCircle
 10
500.4989331142683
 20
-376.9436472258716
 30
0.0
 40
2.578379905523591
  0
SOLID
  5
1186F
330
1F
100
AcDbEntity
  8
LOGO
 62
     5
100
AcDbTrace
 10
478.4391741025784
 20
-370.0679674778085
 30
0.0
 11
480.158094039592
 21
-370.0679674778085
 31
0.0
 12
478.4391741025784
 22
-381.2409470684103
 32
0.0
 13
480.158094039592
 23
-381.2409470684103
 33
0.0
  0
SOLID
  5
11870
330
1F
100
AcDbEntity
  8
LOGO
 62
     5
100
AcDbTrace
 10
482.1635579301112
 20
-372.6463473833329
 30
0.0
 11
483.8824778671257
 21
-372.6463473833329
 31
0.0
 12
482.1635579301112
 22
-381.2409470684103
 32
0.0
 13
483.8824778671257
 23
-381.2409470684103
 33
0.0
  0
POLYLINE
  5
11871
330
1F
100
AcDbEntity
  8
LOGO
 62
     5
100
AcDb2dPolyline
 66
     1
 10
0.0
 20
0.0
 30
0.0
 70
     1
 40
1.72167461640197
 41
1.72167461640197
  0
VERTEX
  5
11872
330
11871
100
AcDbEntity
  8
LOGO
 62
     5
100
AcDbVertex
100
AcDb2dVertex
 10
472.4176168562419
 20
-376.9436472258724
 30
0.0
 42
1.0
  0
VERTEX
  5
11873
330
11871
100
AcDbEntity
  8
LOGO
 62
     5
100
AcDbVertex
100
AcDb2dVertex
 10
479.30431532185
 20
-376.9436472258724
 30
0.0
 42
1.0
  0
SEQEND
  5
11874
330
11871
100
AcDbEntity
  8
LOGO
 62
     5
  0
POLYLINE
  5
11875
330
1F
100
AcDbEntity
  8
LOGO
 62
     5
100
AcDb2dPolyline
 66
     1
 10
0.0
 20
0.0
 30
0.0
 40
1.72167461640197
 41
1.72167461640197
  0
VERTEX
  5
11876
330
11875
100
AcDbEntity
  8
LOGO
 62
     5
100
AcDbVertex
100
AcDb2dVertex
 10
488.1839097287445
 20
-376.0841872573645
 30
0.0
 42
1.0
  0
VERTEX
  5
11877
330
11875
100
AcDbEntity
  8
LOGO
 62
     5
100
AcDbVertex
100
AcDb2dVertex
 10
483.0188858795386
 20
-376.0841872573645
 30
0.0
 42
1.0
  0
SEQEND
  5
11878
330
11875
100
AcDbEntity
  8
LOGO
 62
     5
  0
LINE
  5
11879
330
1F
100
AcDbEntity
  8
LOGO
 62
     1
100
AcDbLine
 10
522.6620920895324
 20
-383.2171873546209
 30
0.0
 11
522.6620920895324
 21
-314.042760802756
 31
0.0
  0
SOLID
  5
1187A
330
1F
100
AcDbEntity
  8
LOGO
 62
     5
100
AcDbTrace
 10
455.2042660226548
 20
-372.6463473833329
 30
0.0
 11
456.9231859596689
 21
-372.6463473833329
 31
0.0
 12
455.2042660226548
 22
-381.2409470684103
 32
0.0
 13
456.9231859596689
 23
-381.2409470684103
 33
0.0
  0
SOLID
  5
1187B
330
1F
100
AcDbEntity
  8
LOGO
 62
     5
100
AcDbTrace
 10
442.0852014832758
 20
-381.2409470684103
 30
0.0
 11
443.8041214202932
 21
-381.2409470684103
 31
0.0
 12
448.6447337529646
 22
-372.6463473833329
 32
0.0
 13
450.3636536899791
 23
-372.6463473833329
 33
0.0
  0
SOLID
  5
1187C
330
1F
100
AcDbEntity
  8
LOGO
 62
     5
100
AcDbTrace
 10
448.6447337529646
 20
-372.6463473833329
 30
0.0
 11
450.3636536899791
 21
-372.6463473833329
 31
0.0
 12
448.6447337529646
 22
-381.2409470684103
 32
0.0
 13
450.3636536899791
 23
-381.2409470684103
 33
0.0
  0
SOLID
  5
1187D
330
1F
100
AcDbEntity
  8
LOGO
 62
     5
100
AcDbTrace
 10
448.6447337529646
 20
-381.2409470684103
 30
0.0
 11
450.3636536899791
 21
-381.2409470684103
 31
0.0
 12
455.2042660226548
 22
-372.6463473833329
 32
0.0
 13
456.9231859596689
 23
-372.6463473833329
 33
0.0
  0
SOLID
  5
1187E
330
1F
100
AcDbEntity
  8
LOGO
 62
     5
100
AcDbTrace
 10
458.9579668884026
 20
-372.6463473833329
 30
0.0
 11
460.6768868254216
 21
-372.6463473833329
 31
0.0
 12
458.9579668884026
 22
-381.2409470684135
 32
0.0
 13
460.6768868254216
 23
-381.2409470684103
 33
0.0
  0
SOLID
  5
1187F
330
1F
100
AcDbEntity
  8
LOGO
 62
     5
100
AcDbTrace
 10
462.6823507159358
 20
-372.6463473833329
 30
0.0
 11
464.4012706529499
 21
-372.6463473833329
 31
0.0
 12
462.6823507159358
 22
-381.2409470684103
 32
0.0
 13
464.4012706529499
 23
-381.2409470684103
 33
0.0
  0
POLYLINE
  5
11880
330
1F
100
AcDbEntity
  8
LOGO
 62
     5
100
AcDb2dPolyline
 66
     1
 10
0.0
 20
0.0
 30
0.0
 40
1.72167461640197
 41
1.72167461640197
  0
VERTEX
  5
11881
330
11880
100
AcDbEntity
  8
LOGO
 62
     5
100
AcDbVertex
100
AcDb2dVertex
 10
468.7027025145687
 20
-376.0841872573645
 30
0.0
 42
1.0
  0
VERTEX
  5
11882
330
11880
100
AcDbEntity
  8
LOGO
 62
     5
100
AcDbVertex
100
AcDb2dVertex
 10
463.5376786653628
 20
-376.0841872573645
 30
0.0
 42
1.0
  0
SEQEND
  5
11883
330
11880
100
AcDbEntity
  8
LOGO
 62
     5
  0
LINE
  5
11884
330
1F
100
AcDbEntity
  8
LOGO
 62
     1
100
AcDbLine
 10
438.1155707483644
 20
-429.3334717225308
 30
0.0
 11
438.1155707483644
 21
-314.042760802756
 31
0.0
  0
SOLID
  5
11885
330
1F
100
AcDbEntity
  8
LOGO
 62
     5
100
AcDbTrace
 10
467.8391105269816
 20
-376.0841872573645
 30
0.0
 11
469.5580304639983
 21
-376.0841872573645
 31
0.0
 12
467.8391105269816
 22
-381.2409470684103
 32
0.0
 13
469.5580304639983
 23
-381.2409470684103
 33
0.0
  0
SOLID
  5
11886
330
1F
100
AcDbEntity
  8
LOGO
 62
     5
100
AcDbTrace
 10
487.3203177411574
 20
-376.0841872573645
 30
0.0
 11
489.0392376781715
 21
-376.0841872573645
 31
0.0
 12
487.3203177411574
 22
-381.2409470684103
 32
0.0
 13
489.0392376781715
 23
-381.2409470684103
 33
0.0
  0
SOLID
  5
11887
330
1F
100
AcDbEntity
  8
LOGO
 62
     5
100
AcDbTrace
 10
492.4770775522033
 20
-376.0841872573645
 30
0.0
 11
494.195997489217
 21
-376.0841872573645
 31
0.0
 12
492.4770775522033
 22
-381.2409470684135
 32
0.0
 13
494.195997489217
 23
-381.2409470684135
 33
0.0
  0
LINE
  5
11888
330
1F
100
AcDbEntity
  8
LOGO
 62
     5
100
AcDbLine
 10
513.6772047033928
 20
-381.2409470684103
 30
0.0
 11
513.6772047033928
 21
-376.0841872573645
 31
0.0
  0
SOLID
  5
11889
330
1F
100
AcDbEntity
  8
LOGO
 62
     5
100
AcDbTrace
 10
511.9582847663783
 20
-376.0841872573645
 30
0.0
 11
513.6772047033928
 21
-376.0841872573648
 31
0.0
 12
511.9582847663783
 22
-381.2409470684103
 32
0.0
 13
513.6772047033928
 23
-381.2409470684103
 33
0.0
  0
SOLID
  5
1188A
330
1F
100
AcDbEntity
  8
LOGO
 62
     5
100
AcDbTrace
 10
475.860966089047
 20
-364.051747698254
 30
0.0
 11
480.845833906392
 21
-364.051747698254
 31
0.0
 12
475.860966089047
 22
-338.8409219553585
 32
0.0
 13
480.845833906392
 23
-320.5630732917569
 33
0.0
  0
SOLID
  5
1188B
330
1F
100
AcDbEntity
  8
LOGO
 62
     5
100
AcDbTrace
 10
450.0771670338097
 20
-364.051747698254
 30
0.0
 11
455.0620348511552
 21
-364.0517476982557
 31
0.0
 12
475.860966089047
 22
-316.7814494303206
 32
0.0
 13
480.845833906392
 23
-316.7814494303239
 33
0.0
  0
SOLID
  5
1188C
330
1F
100
AcDbEntity
  8
LOGO
 62
     5
100
AcDbTrace
 10
457.124738775577
 20
-364.051747698254
 30
0.0
 11
462.109606592922
 21
-364.051747698254
 31
0.0
 12
480.845833906392
 22
-320.5630732917569
 32
0.0
 13
475.860966089047
 23
-338.8409219553585
 33
0.0
  0
SOLID
  5
1188D
330
1F
100
AcDbEntity
  8
LOGO
 62
     2
100
AcDbTrace
 10
455.0620348511552
 20
-364.0517476982557
 30
0.0
 11
457.124738775577
 21
-364.051747698254
 31
0.0
 12
480.845833906392
 22
-316.7814494303239
 32
0.0
 13
482.9085378308122
 23
-316.7814494303239
 33
0.0
  0
SOLID
  5
1188E
330
1F
100
AcDbEntity
  8
LOGO
 62
     5
100
AcDbTrace
 10
458.9579668884026
 20
-371.4431034274227
 30
0.0
 11
460.6768868254216
 21
-371.4431034274227
 31
0.0
 12
458.9579668884026
 22
-370.0679674778085
 32
0.0
 13
460.6768868254216
 23
-370.0679674778085
 33
0.0
  0
SOLID
  5
1188F
330
1F
100
AcDbEntity
  8
LOGO
 62
     5
100
AcDbTrace
 10
508.6923368860477
 20
-364.0517476982557
 30
0.0
 11
513.6772047033928
 21
-364.0517476982557
 31
0.0
 12
508.6923368860477
 22
-316.7814494303239
 32
0.0
 13
513.6772047033928
 23
-316.7814494303206
 33
0.0
  0
SOLID
  5
11890
330
1F
100
AcDbEntity
  8
LOGO
 62
     2
100
AcDbTrace
 10
506.629632961627
 20
-316.7814494303206
 30
0.0
 11
508.6923368860477
 21
-316.7814494303239
 31
0.0
 12
506.629632961627
 22
-364.0517476982557
 32
0.0
 13
508.6923368860477
 23
-364.0517476982557
 33
0.0
  0
SOLID
  5
11891
330
1F
100
AcDbEntity
  8
LOGO
 62
     5
100
AcDbTrace
 10
482.9085378308122
 20
-316.7814494303239
 30
0.0
 11
487.8934056481567
 21
-316.7814494303206
 31
0.0
 12
482.9085378308122
 22
-360.2701238368208
 32
0.0
 13
487.8934056481567
 23
-341.9922751732194
 33
0.0
  0
SOLID
  5
11892
330
1F
100
AcDbEntity
  8
LOGO
 62
     2
100
AcDbTrace
 10
480.845833906392
 20
-316.7814494303239
 30
0.0
 11
482.9085378308122
 21
-316.7814494303239
 31
0.0
 12
480.845833906392
 22
-364.051747698254
 32
0.0
 13
482.9085378308122
 23
-364.051747698254
 33
0.0
  0
SOLID
  5
11893
330
1F
100
AcDbEntity
  8
LOGO
 62
     5
100
AcDbTrace
 10
482.9085378308122
 20
-360.2701238368208
 30
0.0
 11
487.8934056481567
 21
-341.9922751732194
 31
0.0
 12
506.629632961627
 22
-316.7814494303206
 32
0.0
 13
501.6447651442815
 23
-316.7814494303206
 33
0.0
  0
SOLID
  5
11894
330
1F
100
AcDbEntity
  8
LOGO
 62
     5
100
AcDbTrace
 10
506.629632961627
 20
-320.5630732917569
 30
0.0
 11
501.6447651442815
 21
-338.8409219553585
 31
0.0
 12
506.629632961627
 22
-364.0517476982557
 32
0.0
 13
501.6447651442815
 23
-364.0517476982557
 33
0.0
  0
SOLID
  5
11895
330
1F
100
AcDbEntity
  8
LOGO
 62
     5
100
AcDbTrace
 10
482.9085378308122
 20
-364.051747698254
 30
0.0
 11
487.8934056481567
 21
-364.051747698254
 31
0.0
 12
506.629632961627
 22
-320.5630732917569
 32
0.0
 13
501.6447651442815
 23
-338.8409219553585
 33
0.0
  0
SOLID
  5
11896
330
1F
100
AcDbEntity
  8
LOGO
 62
     2
100
AcDbTrace
 10
480.845833906392
 20
-364.051747698254
 30
0.0
 11
482.9085378308122
 21
-364.051747698254
 31
0.0
 12
506.629632961627
 22
-316.7814494303206
 32
0.0
 13
508.6923368860477
 23
-316.7814494303239
 33
0.0
  0
LINE
  5
11897
330
1F
100
AcDbEntity
  8
LOGO
 62
     1
100
AcDbLine
 10
614.894660825352
 20
-383.2171873546209
 30
0.0
 11
614.894660825352
 21
-314.042760802756
 31
0.0
  0
TEXT
  5
11898
330
1F
100
AcDbEntity
  8
LOGO
 62
     6
100
AcDbText
 10
632.1901684542106
 20
-377.4526518086321
 30
0.0
 40
11.52907109197747
  1
m/m
  7
CHINESET
 72
     1
 11
652.5032937115042
 21
-371.6881162626433
 31
0.0
100
AcDbText
 73
     2
  0
LINE
  5
11899
330
1F
100
AcDbEntity
  8
LOGO
 62
     1
100
AcDbLine
 10
691.755134771869
 20
-429.3334717225308
 30
0.0
 11
691.755134771869
 21
-314.042760802756
 31
0.0
  0
TEXT
  5
1189A
330
1F
100
AcDbEntity
  8
LOGO
 62
     6
100
AcDbText
 10
632.1901684542106
 20
-331.3363674407221
 30
0.0
 40
11.52907109197747
  1
1 : 1
  7
CHINESET
 72
     1
 11
652.5032937115042
 21
-325.5718318947334
 31
0.0
100
AcDbText
 73
     2
  0
CIRCLE
  5
1189B
330
1F
100
AcDbEntity
  8
LOGO
  6
CONTINUOUS
 62
     6
100
AcDbCircle
 10
636.2421779855654
 20
-348.6053133112551
 30
0.0
 40
6.694050039745763
  0
CIRCLE
  5
1189C
330
1F
100
AcDbEntity
  8
LOGO
  6
CONTINUOUS
 62
     6
100
AcDbCircle
 10
636.2421779855654
 20
-348.6053133112551
 30
0.0
 40
3.922120732568981
  0
LINE
  5
1189D
330
1F
100
AcDbEntity
  8
LOGO
  6
CONTINUOUS
 62
     6
100
AcDbLine
 10
657.3229025622517
 20
-344.6831925786862
 30
0.0
 11
678.3083651800484
 21
-341.9112632715093
 31
0.0
  0
LINE
  5
1189E
330
1F
100
AcDbEntity
  8
LOGO
  6
CONTINUOUS
 62
     6
100
AcDbLine
 10
657.3229025622517
 20
-352.527434043824
 30
0.0
 11
678.3083651800484
 21
-355.2993633510008
 31
0.0
  0
LINE
  5
1189F
330
1F
100
AcDbEntity
  8
LOGO
 62
     6
100
AcDbLine
 10
657.3229025622517
 20
-352.527434043824
 30
0.0
 11
657.3229025622517
 21
-344.683192578686
 31
0.0
  0
LINE
  5
118A0
330
1F
100
AcDbEntity
  8
LOGO
 62
     6
100
AcDbLine
 10
678.3083651800484
 20
-355.2993633510008
 30
0.0
 11
678.3083651800484
 21
-341.9112632715093
 31
0.0
  0
TEXT
  5
118A1
330
1F
100
AcDbEntity
  8
LOGO
 62
     6
100
AcDbText
 10
1022.400885226421
 20
-398.5892821439243
 30
0.0
 40
15.3720947893033
  1
配管口徑
 41
0.9
  7
CHINESET
 72
     4
 11
1050.214769235817
 21
-390.9032347492726
 31
0.0
100
AcDbText
  0
LINE
  5
118A2
330
1F
100
AcDbEntity
  8
LOGO
 62
     6
100
AcDbLine
 10
1089.910164504332
 20
-419.7259124792161
 30
0.0
 11
1010.519373967303
 21
-419.7259124792164
 31
0.0
  0
LINE
  5
118A3
330
1F
100
AcDbEntity
  8
LOGO
 62
     6
100
AcDbLine
 10
1089.910164504332
 20
-377.4526518086322
 30
0.0
 11
1010.519373967303
 21
-377.4526518086322
 31
0.0
  0
TEXT
  5
118A4
330
1F
100
AcDbEntity
  8
LOGO
  6
CONTINUOUS
 62
     6
100
AcDbText
 10
1023.862606739869
 20
-414.922132857559
 30
0.0
 40
9.607559243314566
  1
Bore size
 41
0.8
  7
CHINESET
 72
     4
 11
1050.214769235817
 21
-410.1183532359017
 31
0.0
100
AcDbText
  0
LINE
  5
118A5
330
1F
100
AcDbEntity
  8
LOGO
 62
     6
100
AcDbLine
 10
1082.224117109681
 20
-325.5718318947334
 30
0.0
 11
1018.205421361954
 21
-325.5718318947334
 31
0.0
  0
LINE
  5
118A6
330
1F
100
AcDbEntity
  8
LOGO
 62
     6
100
AcDbLine
 10
1082.22411710968
 20
-360.1590451706659
 30
0.0
 11
1018.205421361954
 21
-360.1590451706659
 31
0.0
  0
TEXT
  5
118A7
330
1F
100
AcDbEntity
  8
LOGO
  6
CONTINUOUS
 62
     7
100
AcDbText
 10
865.2469464850234
 20
-352.4729977760142
 30
0.0
 40
19.21511848662913
  1
MAF900
  7
CHINESET
 72
     1
 11
919.232279376029
 21
-342.8654385326997
 31
0.0
100
AcDbText
 73
     2
  0
LINE
  5
118A8
330
1F
100
AcDbEntity
  8
LOGO
 62
     6
100
AcDbLine
 10
990.4105283943076
 20
-325.5718318947334
 30
0.0
 11
850.3323907805111
 21
-325.5718318947334
 31
0.0
  0
LINE
  5
118A9
330
1F
100
AcDbEntity
  8
LOGO
 62
     6
100
AcDbLine
 10
990.4105283943076
 20
-360.1590451706659
 30
0.0
 11
850.3323907805111
 21
-360.1590451706659
 31
0.0
  0
LINE
  5
118AA
330
1F
100
AcDbEntity
  8
LOGO
 62
     6
100
AcDbLine
 10
850.3323907805111
 20
-325.5718318947334
 30
0.0
 11
850.3323907805111
 21
-360.1590451706659
 31
0.0
  0
LINE
  5
118AB
330
1F
100
AcDbEntity
  8
LOGO
 62
     6
100
AcDbLine
 10
920.3714595874098
 20
-360.1590451706659
 30
0.0
 11
920.3714595874098
 21
-377.4526518086322
 31
0.0
  0
LINE
  5
118AC
330
1F
100
AcDbEntity
  8
LOGO
 62
     6
100
AcDbLine
 10
958.801696560668
 20
-377.4526518086322
 30
0.0
 11
881.9412226141512
 21
-377.4526518086322
 31
0.0
  0
LINE
  5
118AD
330
1F
100
AcDbEntity
  8
LOGO
 62
     6
100
AcDbLine
 10
958.801696560668
 20
-419.7259124792163
 30
0.0
 11
881.9412226141512
 21
-419.7259124792164
 31
0.0
  0
LINE
  5
118AE
330
1F
100
AcDbEntity
  8
LOGO
 62
     6
100
AcDbLine
 10
881.9412226141512
 20
-377.4526518086322
 30
0.0
 11
881.9412226141512
 21
-419.7259124792164
 31
0.0
  0
TEXT
  5
118AF
330
1F
100
AcDbEntity
  8
LOGO
  6
CONTINUOUS
 62
     6
100
AcDbText
 10
902.0713467430011
 20
-414.922132857559
 30
0.0
 40
9.607559243314566
  1
Model
  7
CHINESET
 72
     4
 11
920.3714595874098
 21
-410.1183532359017
 31
0.0
100
AcDbText
  0
TEXT
  5
118B0
330
1F
100
AcDbEntity
  8
LOGO
 62
     6
100
AcDbText
 10
904.9993647981064
 20
-398.1959017654578
 30
0.0
 40
15.3720947893033
  1
型式
  7
CHINESET
 72
     4
 11
920.3714595874098
 21
-390.9032347492725
 31
0.0
100
AcDbText
  0
LINE
  5
118B1
330
1F
100
AcDbEntity
  8
LOGO
 62
     6
100
AcDbLine
 10
958.801696560668
 20
-377.4526518086322
 30
0.0
 11
958.801696560668
 21
-419.7259124792161
 31
0.0
  0
LINE
  5
118B2
330
1F
100
AcDbEntity
  8
LOGO
 62
     6
100
AcDbLine
 10
1010.519373967303
 20
-377.4526518086322
 30
0.0
 11
1010.519373967303
 21
-419.7259124792164
 31
0.0
  0
LINE
  5
118B3
330
1F
100
AcDbEntity
  8
LOGO
 62
     6
100
AcDbLine
 10
990.4105283943081
 20
-325.5718318947334
 30
0.0
 11
990.4105283943081
 21
-360.1590451706659
 31
0.0
  0
LINE
  5
118B4
330
1F
100
AcDbEntity
  8
LOGO
 62
     6
100
AcDbLine
 10
1018.205421361954
 20
-325.5718318947334
 30
0.0
 11
1018.205421361954
 21
-360.1590451706659
 31
0.0
  0
LINE
  5
118B5
330
1F
100
AcDbEntity
  8
LOGO
  6
CONTINUOUS
 62
     7
100
AcDbLine
 10
996.9516456563688
 20
-342.9879519081944
 30
0.0
 11
1012.224097007687
 21
-342.9879519081944
 31
0.0
  0
LINE
  5
118B6
330
1F
100
AcDbEntity
  8
LOGO
 62
     1
100
AcDbLine
 10
1096.581083153037
 20
-429.3334717225308
 30
0.0
 11
1096.581083153037
 21
-314.042760802756
 31
0.0
  0
LINE
  5
118B7
330
1F
100
AcDbEntity
  8
LOGO
 62
     6
100
AcDbLine
 10
1051.028686760814
 20
-360.1590451706659
 30
0.0
 11
1051.028686760814
 21
-377.4526518086322
 31
0.0
  0
LINE
  5
118B8
330
1F
100
AcDbEntity
  8
LOGO
 62
     6
100
AcDbLine
 10
1089.910164504332
 20
-377.4526518086322
 30
0.0
 11
1089.910164504332
 21
-419.8853107024149
 31
0.0
  0
LINE
  5
118B9
330
1F
100
AcDbEntity
  8
LOGO
 62
     6
100
AcDbLine
 10
1082.224117109681
 20
-325.5718318947334
 30
0.0
 11
1082.22411710968
 21
-360.1590451706659
 31
0.0
  0
TEXT
  5
118BA
330
1F
100
AcDbEntity
  8
LOGO
  6
CONTINUOUS
 62
     7
100
AcDbText
 10
1036.453084871768
 20
-352.6908984304506
 30
0.0
 40
19.21511848662913
  1
?A
  7
CHINESET
 72
     1
 11
1052.008180789515
 21
-343.083339187136
 31
0.0
100
AcDbText
 73
     2
  0
ENDSEC
  0
SECTION
  2
OBJECTS
  0
DICTIONARY
  5
C
330
0
100
AcDbDictionary
  3
ACAD_GROUP
350
D
  3
ACAD_IMAGE_DICT
350
F32A
  3
ACAD_IMAGE_VARS
350
F32B
  3
ACAD_LAYOUT
350
1A
  3
ACAD_MLINESTYLE
350
17
  3
ACAD_PLOTSETTINGS
350
19
  3
ACMDICTIONARY
350
43
  3
AMG
350
2B
  3
AMGSNAPSETTINGS
350
240
  3
DWGPROPS
350
119CB
1001
ACAD
1000
TREAT_AS_HARD
1070
     0
  0
DICTIONARY
  5
3A4
330
1F
100
AcDbDictionary
  3
ACAD_INDEX
350
119AB
  3
ACAD_LAYOUTSELFREF
350
11A7C
1001
ACAD
1000
TREAT_AS_HARD
1070
     1
  0
DICTIONARY
  5
11A7A
330
1B
100
AcDbDictionary
  3
ACAD_LAYOUTSELFREF
350
11A7B
  0
DICTIONARY
  5
10ABF
330
10ABE
100
AcDbDictionary
  3
ACAD_DIMASSOC
350
10AC0
1001
ACAD
1000
TREAT_AS_HARD
1070
     1
  0
DICTIONARY
  5
10AC2
330
10AC1
100
AcDbDictionary
  3
ACAD_DIMASSOC
350
10AC3
1001
ACAD
1000
TREAT_AS_HARD
1070
     1
  0
DICTIONARY
  5
D
102
{ACAD_REACTORS
330
C
102
}
330
C
100
AcDbDictionary
1001
ACAD
1000
TREAT_AS_HARD
1070
     0
  0
DICTIONARY
  5
F32A
102
{ACAD_REACTORS
330
C
102
}
330
C
100
AcDbDictionary
1001
ACAD
1000
TREAT_AS_HARD
1070
     0
  0
RASTERVARIABLES
  5
F32B
102
{ACAD_REACTORS
330
C
102
}
330
C
100
AcDbRasterVariables
 90
        0
 70
     0
 71
     1
 72
     1
  0
DICTIONARY
  5
1A
102
{ACAD_REACTORS
330
C
102
}
330
C
100
AcDbDictionary
1001
ACAD
1000
TREAT_AS_HARD
1070
     0
  0
DICTIONARY
  5
17
102
{ACAD_REACTORS
330
C
102
}
330
C
100
AcDbDictionary
  3
STANDARD
350
18
1001
ACAD
1000
TREAT_AS_HARD
1070
     0
  0
DICTIONARY
  5
19
102
{ACAD_REACTORS
330
C
102
}
330
C
100
AcDbDictionary
1001
ACAD
1000
TREAT_AS_HARD
1070
     0
  0
DICTIONARY
  5
43
102
{ACAD_REACTORS
330
C
102
}
330
C
100
AcDbDictionary
  3
ACMSTDDICTIONARY
350
1440
1001
ACAD
1000
TREAT_AS_HARD
1070
     0
  0
DICTIONARY
  5
2B
102
{ACAD_REACTORS
330
C
102
}
330
C
100
AcDbDictionary
  3
ACMGSETTINGS
350
2C
1001
ACAD
1000
TREAT_AS_HARD
1070
     0
  0
DICTIONARY
  5
240
102
{ACAD_REACTORS
330
C
102
}
330
C
100
AcDbDictionary
1001
ACAD
1000
TREAT_AS_HARD
1070
     0
  0
XRECORD
  5
119CB
102
{ACAD_REACTORS
330
C
102
}
330
C
100
AcDbXrecord
  1
DWGPROPS COOKIE
  2

  3

  4

  6

  7

  8

  9

300
AmdtFileType=84
301
=
302
=
303
=
304
=
305
=
306
=
307
=
308
=
309
=
 40
3.483069537037037
 41
2452292.457678333
 42
2453343.338331504
  1

 90
        1
  0
DICTIONARY
  5
119AB
102
{ACAD_REACTORS
330
3A4
102
}
330
3A4
100
AcDbDictionary
  3
*A1
350
119AC
1001
ACAD
1000
TREAT_AS_HARD
1070
     0
  0
XRECORD
  5
11A7C
102
{ACAD_REACTORS
330
3A4
102
}
330
3A4
100
AcDbXrecord
340
1F
  0
XRECORD
  5
11A7B
102
{ACAD_REACTORS
330
11A7A
102
}
330
11A7A
100
AcDbXrecord
340
1B
  0
DIMASSOC
  5
10AC0
102
{ACAD_REACTORS
330
10ABF
102
}
330
10ABF
100
AcDbDimAssoc
330
10ABE
 90
        3
 70
     0
 71
     0
  1
AcDbOsnapPointRef
 72
    13
331
10AC5
 73
     0
 91
        0
 40
0.0
 10
540.9198537056949
 20
18.77530527678493
 30
0.0
 75
     0
  1
AcDbOsnapPointRef
 72
     1
331
10AEA
 73
     0
 91
        0
 40
0.0
 10
602.9284154087854
 20
-246.2221632898334
 30
0.0
 75
     0
  0
DIMASSOC
  5
10AC3
102
{ACAD_REACTORS
330
10AC2
102
}
330
10AC2
100
AcDbDimAssoc
330
10AC1
 90
        3
 70
     0
 71
     0
  1
AcDbOsnapPointRef
 72
    13
331
10B9C
 73
     0
 91
        0
 40
0.0
 10
578.7678105586365
 20
50.52530527678438
 30
0.0
 75
     0
  1
AcDbOsnapPointRef
 72
    13
331
10AC5
 73
     0
 91
        0
 40
0.0
 10
540.9198537056949
 20
18.77530527678493
 30
0.0
 75
     0
  0
MLINESTYLE
  5
18
102
{ACAD_REACTORS
330
17
102
}
330
17
100
AcDbMlineStyle
  2
STANDARD
 70
     0
  3

 62
   256
 51
90.0
 52
90.0
 71
     2
 49
0.5
 62
   256
  6
BYLAYER
 49
-0.5
 62
   256
  6
BYLAYER
  0
DICTIONARY
  5
1440
102
{ACAD_REACTORS
330
43
102
}
330
43
100
AcDbDictionary
1001
ACAD
1000
TREAT_AS_HARD
1070
     0
  0
DICTIONARY
  5
2C
102
{ACAD_REACTORS
330
2B
102
}
330
2B
100
AcDbDictionary
  3
DWGSETTINGS
350
2D
1001
ACAD
1000
TREAT_AS_HARD
1070
     0
  0
LAYER_INDEX
  5
119AC
102
{ACAD_REACTORS
330
119AB
102
}
330
119AB
100
AcDbIndex
 40
2453346.613626331
100
AcDbLayerIndex
  8
0
360
119AD
 90
        4
  8
圖層2
360
119AE
 90
        4
  8
Defpoints
360
119AF
 90
        0
  8
AM_5
360
119B0
 90
       25
  8
AM_REFDIM
360
119B1
 90
        6
  8
cen
360
119B2
 90
       13
  8
DIM
360
119B3
 90
        2
  8
drg
360
119B4
 90
      311
  8
M_1
360
119B5
 90
        1
  8
LOGO
360
119B6
 90
       86
  0
XRECORD
  5
2D
102
{ACAD_REACTORS
330
2C
102
}
330
2C
100
AcDbXrecord
  1
VERSION
140
15.0
  1
PRODUCT
  2
AutoCAD Mechanical 2000
  0
IDBUFFER
  5
119AD
330
0
100
AcDbIdBuffer
330
10B4F
330
10B61
330
10FFC
330
1184A
  0
IDBUFFER
  5
119AE
330
0
100
AcDbIdBuffer
330
D169
330
D16D
330
DBAB
330
DBAC
  0
IDBUFFER
  5
119AF
330
0
100
AcDbIdBuffer
  0
IDBUFFER
  5
119B0
330
0
100
AcDbIdBuffer
330
D622
330
D62D
330
10ABE
330
10AC1
330
10AC6
330
10B87
330
10B8A
330
10F28
330
10F75
330
110BD
330
110BE
330
110FB
330
11254
330
116F0
330
116F1
330
116F3
330
116F4
330
116F5
330
116F6
330
117AD
330
117AE
330
117AF
330
117B0
330
117B1
330
117B2
  0
IDBUFFER
  5
119B1
330
0
100
AcDbIdBuffer
330
20A1
330
21E1
330
21E8
330
950E
330
9515
330
9538
  0
IDBUFFER
  5
119B2
330
0
100
AcDbIdBuffer
330
10AC4
330
10AC5
330
10AC7
330
10ACA
330
10ACB
330
10ACC
330
10B11
330
10B88
330
10B93
330
10B94
330
10B9D
330
10BA3
330
10C03
  0
IDBUFFER
  5
119B3
330
0
100
AcDbIdBuffer
330
10BFC
330
10BFD
  0
IDBUFFER
  5
119B4
330
0
100
AcDbIdBuffer
330
10AC8
330
10AC9
330
10ACD
330
10ACE
330
10ACF
330
10AD0
330
10AD1
330
10AD2
330
10AD3
330
10AD4
330
10AD5
330
10AD6
330
10AD7
330
10AD8
330
10AD9
330
10ADA
330
10ADB
330
10ADC
330
10ADD
330
10ADE
330
10ADF
330
10AE0
330
10AE1
330
10AE2
330
10AE3
330
10AE4
330
10AE5
330
10AE6
330
10AE7
330
10AE8
330
10AE9
330
10AEA
330
10AEB
330
10AEC
330
10AED
330
10AF0
330
10AF1
330
10AF2
330
10AF3
330
10AF4
330
10AF7
330
10AFA
330
10AFC
330
10AFD
330
10AFE
330
10B00
330
10B01
330
10B04
330
10B06
330
10B09
330
10B0A
330
10B0B
330
10B0C
330
10B0D
330
10B0E
330
10B0F
330
10B10
330
10B12
330
10B13
330
10B14
330
10B15
330
10B16
330
10B17
330
10B18
330
10B19
330
10B1A
330
10B1B
330
10B1C
330
10B1D
330
10B1E
330
10B1F
330
10B20
330
10B21
330
10B22
330
10B23
330
10B24
330
10B25
330
10B26
330
10B27
330
10B28
330
10B29
330
10B2A
330
10B2B
330
10B2C
330
10B2D
330
10B2F
330
10B30
330
10B31
330
10B33
330
10B34
330
10B36
330
10B38
330
10B3B
330
10B3D
330
10B3E
330
10B40
330
10B42
330
10B43
330
10B46
330
10B48
330
10B4A
330
10B4B
330
10B4C
330
10B4D
330
10B50
330
10B51
330
10B52
330
10B53
330
10B54
330
10B55
330
10B56
330
10B57
330
10B58
330
10B59
330
10B5A
330
10B5B
330
10B5C
330
10B5D
330
10B5E
330
10B5F
330
10B60
330
10B62
330
10B63
330
10B64
330
10B65
330
10B66
330
10B67
330
10B68
330
10B69
330
10B6A
330
10B6B
330
10B6C
330
10B6D
330
10B6E
330
10B6F
330
10B70
330
10B71
330
10B72
330
10B73
330
10B74
330
10B75
330
10B76
330
10B77
330
10B78
330
10B79
330
10B7A
330
10B7B
330
10B7C
330
10B7D
330
10B7E
330
10B7F
330
10B80
330
10B81
330
10B82
330
10B83
330
10B84
330
10B85
330
10B86
330
10B89
330
10B8B
330
10B8C
330
10B8D
330
10B8E
330
10B8F
330
10B90
330
10B91
330
10B92
330
10B95
330
10B99
330
10B9A
330
10B9B
330
10B9C
330
10B9E
330
10B9F
330
10BA0
330
10BA1
330
10BA2
330
10BA4
330
10BA5
330
10BA6
330
10BA7
330
10BA8
330
10BA9
330
10BAA
330
10BAB
330
10BAC
330
10BAD
330
10BAE
330
10BAF
330
10BB0
330
10BB1
330
10BB2
330
10BB3
330
10BB4
330
10BB5
330
10BB6
330
10BB7
330
10BB8
330
10BB9
330
10BBA
330
10BBB
330
10BBC
330
10BBD
330
10BBE
330
10BBF
330
10BC0
330
10BC1
330
10BC2
330
10BC3
330
10BC4
330
10BC5
330
10BC6
330
10BC7
330
10BC8
330
10BC9
330
10BCA
330
10BCB
330
10BCC
330
10BCD
330
10BCE
330
10BCF
330
10BD0
330
10BD1
330
10BD2
330
10BD3
330
10BD4
330
10BD5
330
10BD6
330
10BD7
330
10BD8
330
10BD9
330
10BDA
330
10BDB
330
10BDC
330
10BDD
330
10BDE
330
10BDF
330
10BE0
330
10BE1
330
10BE2
330
10BE3
330
10BE4
330
10BE5
330
10BE6
330
10BE7
330
10BE8
330
10BE9
330
10BEA
330
10BEB
330
10BEC
330
10BED
330
10BEE
330
10BEF
330
10BF0
330
10BF1
330
10BF2
330
10BF3
330
10BF4
330
10BF5
330
10BF6
330
10BF7
330
10BF8
330
10BF9
330
10BFA
330
10BFB
330
10BFE
330
10BFF
330
10C00
330
10C01
330
10C02
330
10C04
330
10C05
330
10C06
330
10C07
330
10C08
330
10C09
330
10C0A
330
10C0B
330
10C0C
330
10C0D
330
10C0E
330
10C0F
330
10C10
330
10C11
330
10C12
330
10C13
330
10C14
330
10C15
330
10C16
330
10C17
330
10C18
330
10C19
330
10C1A
330
10C1B
330
10C1C
330
10C1D
330
10C1E
330
10C1F
330
10C20
330
10C21
330
10C22
330
10C23
330
10C24
330
10C25
330
10C26
330
10C27
330
10C28
330
10C29
330
10C2A
330
10C2B
330
10C2C
  0
IDBUFFER
  5
119B5
330
0
100
AcDbIdBuffer
330
10FED
  0
IDBUFFER
  5
119B6
330
0
100
AcDbIdBuffer
330
11850
330
11851
330
11852
330
11853
330
11854
330
11855
330
11856
330
11857
330
11858
330
11859
330
1185A
330
1185B
330
1185C
330
11860
330
11861
330
11865
330
11869
330
1186A
330
1186E
330
1186F
330
11870
330
11871
330
11875
330
11879
330
1187A
330
1187B
330
1187C
330
1187D
330
1187E
330
1187F
330
11880
330
11884
330
11885
330
11886
330
11887
330
11888
330
11889
330
1188A
330
1188B
330
1188C
330
1188D
330
1188E
330
1188F
330
11890
330
11891
330
11892
330
11893
330
11894
330
11895
330
11896
330
11897
330
11898
330
11899
330
1189A
330
1189B
330
1189C
330
1189D
330
1189E
330
1189F
330
118A0
330
118A1
330
118A2
330
118A3
330
118A4
330
118A5
330
118A6
330
118A7
330
118A8
330
118A9
330
118AA
330
118AB
330
118AC
330
118AD
330
118AE
330
118AF
330
118B0
330
118B1
330
118B2
330
118B3
330
118B4
330
118B5
330
118B6
330
118B7
330
118B8
330
118B9
330
118BA
  0
ENDSEC
  0
EOF
