  0
SECTION
  2
HEADER
  9
$ACADVER
  1
AC1009
  9
$INSBASE
 10
196.8846923010438
 20
-148.80236534061001
 30
0.0
  9
$EXTMIN
 10
-18.228909501521109
 20
-45.27230477697367
 30
-0.0000000349181948
  9
$EXTMAX
 10
288.87929143795679
 20
468.93958591135038
 30
0.0000000814935746
  9
$LIMMIN
 10
0.0
 20
0.0
  9
$LIMMAX
 10
12.0
 20
9.0
  9
$ORTHOMODE
 70
     1
  9
$REGENMODE
 70
     0
  9
$FILLMODE
 70
     1
  9
$QTEXTMODE
 70
     0
  9
$MIRRTEXT
 70
     1
  9
$DRAGMODE
 70
     2
  9
$LTSCALE
 40
6.0
  9
$OSMODE
 70
    39
  9
$ATTMODE
 70
     1
  9
$TEXTSIZE
 40
4.0
  9
$TRACEWID
 40
0.05
  9
$TEXTSTYLE
  7
DAYUS
  9
$CLAYER
  8
0
  9
$CELTYPE
  6
BYLAYER
  9
$CECOLOR
 62
   256
  9
$DIMSCALE
 40
2.0
  9
$DIMASZ
 40
3.0
  9
$DIMEXO
 40
2.0
  9
$DIMDLI
 40
8.0
  9
$DIMRND
 40
0.0
  9
$DIMDLE
 40
0.0
  9
$DIMEXE
 40
2.0
  9
$DIMTP
 40
0.0
  9
$DIMTM
 40
0.0
  9
$DIMTXT
 40
3.0
  9
$DIMCEN
 40
0.0
  9
$DIMTSZ
 40
0.0
  9
$DIMTOL
 70
     0
  9
$DIMLIM
 70
     0
  9
$DIMTIH
 70
     0
  9
$DIMTOH
 70
     0
  9
$DIMSE1
 70
     0
  9
$DIMSE2
 70
     0
  9
$DIMTAD
 70
     1
  9
$DIMZIN
 70
     8
  9
$DIMBLK
  1

  9
$DIMASO
 70
     1
  9
$DIMSHO
 70
     0
  9
$DIMPOST
  1

  9
$DIMAPOST
  1

  9
$DIMALT
 70
     0
  9
$DIMALTD
 70
     2
  9
$DIMALTF
 40
25.399999999999999
  9
$DIMLFAC
 40
1.0
  9
$DIMTOFL
 70
     0
  9
$DIMTVP
 40
0.0
  9
$DIMTIX
 70
     0
  9
$DIMSOXD
 70
     0
  9
$DIMSAH
 70
     0
  9
$DIMBLK1
  1

  9
$DIMBLK2
  1

  9
$DIMSTYLE
  2
STANDARD
  9
$DIMCLRD
 70
   256
  9
$DIMCLRE
 70
   256
  9
$DIMCLRT
 70
   256
  9
$DIMTFAC
 40
0.6
  9
$DIMGAP
 40
1.0
  9
$LUNITS
 70
     2
  9
$LUPREC
 70
     4
  9
$SKETCHINC
 40
0.1
  9
$FILLETRAD
 40
1.0
  9
$AUNITS
 70
     0
  9
$AUPREC
 70
     0
  9
$MENU
  1
ACAD
  9
$ELEVATION
 40
0.0
  9
$PELEVATION
 40
0.0
  9
$THICKNESS
 40
0.0
  9
$LIMCHECK
 70
     0
  9
$BLIPMODE
 70
     0
  9
$CHAMFERA
 40
1.5
  9
$CHAMFERB
 40
1.5
  9
$SKPOLY
 70
     0
  9
$TDCREATE
 40
2450294.5617249999
  9
$TDUPDATE
 40
2451948.7100346992
  9
$TDINDWG
 40
0.8872024884
  9
$TDUSRTIMER
 40
0.8872024884
  9
$USRTIMER
 70
     1
  9
$ANGBASE
 50
0.0
  9
$ANGDIR
 70
     0
  9
$PDMODE
 70
    65
  9
$PDSIZE
 40
6.2999999999999989
  9
$PLINEWID
 40
0.0
  9
$COORDS
 70
     2
  9
$SPLFRAME
 70
     0
  9
$SPLINETYPE
 70
     6
  9
$SPLINESEGS
 70
     8
  9
$ATTDIA
 70
     0
  9
$ATTREQ
 70
     1
  9
$HANDLING
 70
 12289
  9
$HANDSEED
  5
603F
  9
$SURFTAB1
 70
     6
  9
$SURFTAB2
 70
     6
  9
$SURFTYPE
 70
     6
  9
$SURFU
 70
     6
  9
$SURFV
 70
     6
  9
$UCSNAME
  2

  9
$UCSORG
 10
0.0
 20
0.0
 30
0.0
  9
$UCSXDIR
 10
1.0
 20
0.0
 30
0.0
  9
$UCSYDIR
 10
0.0
 20
1.0
 30
0.0
  9
$PUCSNAME
  2

  9
$PUCSORG
 10
0.0
 20
0.0
 30
0.0
  9
$PUCSXDIR
 10
1.0
 20
0.0
 30
0.0
  9
$PUCSYDIR
 10
0.0
 20
1.0
 30
0.0
  9
$USERI1
 70
     0
  9
$USERI2
 70
     0
  9
$USERI3
 70
     0
  9
$USERI4
 70
     0
  9
$USERI5
 70
     0
  9
$USERR1
 40
0.0
  9
$USERR2
 40
0.0
  9
$USERR3
 40
0.0
  9
$USERR4
 40
0.0
  9
$USERR5
 40
0.0
  9
$WORLDVIEW
 70
     1
  9
$SHADEDGE
 70
     3
  9
$SHADEDIF
 70
    70
  9
$TILEMODE
 70
     1
  9
$MAXACTVP
 70
    16
  9
$PLIMCHECK
 70
     0
  9
$PEXTMIN
 10
1.0000000000000000E+020
 20
1.0000000000000000E+020
 30
1.0000000000000000E+020
  9
$PEXTMAX
 10
-1.0000000000000000E+020
 20
-1.0000000000000000E+020
 30
-1.0000000000000000E+020
  9
$PLIMMIN
 10
0.0
 20
0.0
  9
$PLIMMAX
 10
12.0
 20
9.0
  9
$UNITMODE
 70
     0
  9
$VISRETAIN
 70
     0
  9
$PLINEGEN
 70
     0
  9
$PSLTSCALE
 70
     0
  0
ENDSEC
  0
SECTION
  2
TABLES
  0
TABLE
  2
VPORT
 70
     2
  0
VPORT
  2
*ACTIVE
 70
     0
 10
0.0
 20
0.0
 11
1.0
 21
1.0
 12
135.32519096821781
 22
211.8336405671883
 13
0.0
 23
0.0
 14
1.0
 24
1.0
 15
0.0
 25
0.0
 16
0.0
 26
0.0
 36
1.0
 17
0.0
 27
0.0
 37
0.0
 40
519.88334536503351
 41
1.7274401473296499
 42
50.0
 43
0.0
 44
0.0
 50
0.0
 51
0.0
 71
     0
 72
   100
 73
     1
 74
     1
 75
     1
 76
     0
 77
     0
 78
     0
  0
ENDTAB
  0
TABLE
  2
LTYPE
 70
     4
  0
LTYPE
  2
CONTINUOUS
 70
     0
  3
Solid line
 72
    65
 73
     0
 40
0.0
  0
LTYPE
  2
CENTER
 70
     0
  3
____ _ ____ _ ____ _ ____ _ ____ _ ____ _ ____
 72
    65
 73
     4
 40
2.0
 49
1.25
 49
-0.25
 49
0.25
 49
-0.25
  0
LTYPE
  2
HIDDEN
 70
     0
  3
Hidden __ __ __ __ __ __ __ __ __ __ __ __ __ _
 72
    65
 73
     2
 40
0.375
 49
0.25
 49
-0.125
  0
LTYPE
  2
PHANTOM
 70
     0
  3
_____ _ _ _____ _ _ _____ _ _ _____ _ _ ____
 72
    65
 73
     6
 40
2.5
 49
1.25
 49
-0.25
 49
0.25
 49
-0.25
 49
0.25
 49
-0.25
  0
ENDTAB
  0
TABLE
  2
LAYER
 70
     7
  0
LAYER
  2
0
 70
     0
 62
     7
  6
CONTINUOUS
  0
LAYER
  2
DEFPOINTS
 70
     0
 62
     7
  6
CONTINUOUS
  0
LAYER
  2
CENTER
 70
     0
 62
     1
  6
CENTER
  0
LAYER
  2
DIM
 70
     0
 62
     5
  6
CONTINUOUS
  0
LAYER
  2
LOGO
 70
     0
 62
     7
  6
CONTINUOUS
  0
LAYER
  2
HIDDEN
 70
     0
 62
     5
  6
HIDDEN
  0
ENDTAB
  0
TABLE
  2
STYLE
 70
     5
  0
STYLE
  2
STANDARD
 70
     0
 40
0.0
 41
1.0
 50
0.0
 71
     0
 42
5.0
  3
txt
  4

  0
STYLE
  2
DAYUS
 70
     0
 40
0.0
 41
1.0
 50
0.0
 71
     0
 42
4.0
  3
simplex
  4
dayus
  0
STYLE
  2
CHINESET
 70
     0
 40
0.0
 41
1.0
 50
0.0
 71
     0
 42
4.0
  3
C:\r13\com\fonts\simplex.shx
  4
C:\r13\com\fonts\chineset.shx
  0
STYLE
  2
LOGO
 70
     0
 40
0.0
 41
1.0
 50
0.0
 71
     0
 42
5.0
  3
txt
  4

  0
ENDTAB
  0
TABLE
  2
VIEW
 70
     0
  0
ENDTAB
  0
TABLE
  2
UCS
 70
     0
  0
ENDTAB
  0
TABLE
  2
APPID
 70
     6
  0
APPID
  2
ACAD
 70
     0
  0
APPID
  2
MCAD_NO_VIS
 70
     0
  0
APPID
  2
AD_DRAW
 70
     0
  0
APPID
  2
DESIGNERASSEMBLIES
 70
     0
  0
APPID
  2
ASURF_PCURVE_APPNAME
 70
     0
  0
APPID
  2
BLKBOM
 70
     0
  0
ENDTAB
  0
TABLE
  2
DIMSTYLE
 70
     1
  0
DIMSTYLE
  2
STANDARD
 70
     0
  3

  4

  5

  6

  7

 40
2.0
 41
3.0
 42
2.0
 43
8.0
 44
2.0
 45
0.0
 46
0.0
 47
0.0
 48
0.0
140
3.0
141
0.0
142
0.0
143
25.399999999999999
144
1.0
145
0.0
146
0.6
147
1.0
 71
     0
 72
     0
 73
     0
 74
     0
 75
     0
 76
     0
 77
     1
 78
     8
170
     0
171
     2
172
     0
173
     0
174
     0
175
     0
176
   256
177
   256
178
   256
  0
ENDTAB
  0
ENDSEC
  0
SECTION
  2
BLOCKS
  0
BLOCK
  8
0
  2
$MODEL_SPACE
 70
     0
 10
0.0
 20
0.0
 30
0.0
  3
$MODEL_SPACE
  1

  0
ENDBLK
  5
6
  8
0
  0
BLOCK
 67
     1
  8
0
  2
$PAPER_SPACE
 70
     0
 10
0.0
 20
0.0
 30
0.0
  3
$PAPER_SPACE
  1

  0
ENDBLK
  5
9
 67
     1
  8
0
  0
BLOCK
  8
0
  2
*D8
 70
     1
 10
0.0
 20
0.0
 30
0.0
  3
*D8
  1

  0
LINE
  5
5FD8
  8
DIM
 10
187.3461270555681
 20
339.73518802093918
 30
0.0
 11
148.0737861229853
 21
339.73518802093918
 31
0.0
  0
LINE
  5
5FD9
  8
DIM
 10
183.17946038890139
 20
429.2351880209394
 30
0.0
 11
148.0737861229853
 21
429.2351880209394
 31
0.0
  0
LINE
  5
5FDA
  8
DIM
 10
152.0737861229853
 20
345.73518802093912
 30
0.0
 11
152.0737861229853
 21
423.23518802093929
 31
0.0
  0
SOLID
  5
5FDB
  8
DIM
 10
151.07378612298521
 20
345.73518802093912
 30
0.0
 11
153.0737861229853
 21
345.73518802093912
 31
0.0
 12
152.0737861229853
 22
339.73518802093918
 32
0.0
 13
152.0737861229853
 23
339.73518802093918
 33
0.0
  0
SOLID
  5
5FDC
  8
DIM
 10
151.07378612298521
 20
423.23518802093929
 30
0.0
 11
153.0737861229853
 21
423.23518802093929
 31
0.0
 12
152.0737861229853
 22
429.2351880209394
 32
0.0
 13
152.0737861229853
 23
429.2351880209394
 33
0.0
  0
TEXT
  5
5FDD
  8
0
 10
150.07378612298521
 20
375.34233087808212
 30
0.0
 40
6.0
  1
89.5
 50
90.0
  7
CHINESET
  0
POINT
  5
5FDE
  8
DEFPOINTS
 62
     0
 10
191.3461270555681
 20
339.73518802093918
 30
0.0
  0
POINT
  5
5FDF
  8
DEFPOINTS
 62
     0
 10
187.17946038890139
 20
429.2351880209394
 30
0.0
  0
POINT
  5
5FE0
  8
DEFPOINTS
 62
     0
 10
152.0737861229853
 20
429.2351880209394
 30
0.0
  0
ENDBLK
  5
5EDC
  8
0
  0
BLOCK
  8
0
  2
*D9
 70
     1
 10
0.0
 20
0.0
 30
0.0
  3
*D9
  1

  0
LINE
  5
5FE1
  8
DIM
 10
173.5961270555681
 20
419.94484738247178
 30
0.0
 11
173.5961270555681
 21
447.16122597361039
 31
0.0
  0
LINE
  5
5FE2
  8
DIM
 10
263.0961270555681
 20
419.94484738247172
 30
0.0
 11
263.0961270555681
 21
447.16122597361039
 31
0.0
  0
LINE
  5
5FE3
  8
DIM
 10
179.5961270555681
 20
443.16122597361039
 30
0.0
 11
257.0961270555681
 21
443.16122597361039
 31
0.0
  0
SOLID
  5
5FE4
  8
DIM
 10
179.5961270555681
 20
444.16122597361033
 30
0.0
 11
179.5961270555681
 21
442.16122597361039
 31
0.0
 12
173.5961270555681
 22
443.16122597361039
 32
0.0
 13
173.5961270555681
 23
443.16122597361039
 33
0.0
  0
SOLID
  5
5FE5
  8
DIM
 10
257.0961270555681
 20
444.16122597361033
 30
0.0
 11
257.0961270555681
 21
442.16122597361039
 31
0.0
 12
263.0961270555681
 22
443.16122597361039
 32
0.0
 13
263.0961270555681
 23
443.16122597361039
 33
0.0
  0
TEXT
  5
5FE6
  8
0
 10
209.20326991271099
 20
445.16122597361033
 30
0.0
 40
6.0
  1
89.5
  7
CHINESET
  0
POINT
  5
5FE7
  8
DEFPOINTS
 62
     0
 10
173.5961270555681
 20
415.94484738247178
 30
0.0
  0
POINT
  5
5FE8
  8
DEFPOINTS
 62
     0
 10
263.0961270555681
 20
415.94484738247172
 30
0.0
  0
POINT
  5
5FE9
  8
DEFPOINTS
 62
     0
 10
263.0961270555681
 20
443.16122597361039
 30
0.0
  0
ENDBLK
  5
5EE9
  8
0
  0
BLOCK
  8
0
  2
*D10
 70
     1
 10
0.0
 20
0.0
 30
0.0
  3
*D10
  1

  0
LINE
  5
5FEA
  8
DIM
 10
196.2427042468091
 20
283.38845027725449
 30
0.0
 11
153.8624228465919
 21
283.38845027725449
 31
0.0
  0
LINE
  5
5FEB
  8
DIM
 10
192.65685887184901
 20
259.38845027725449
 30
0.0
 11
153.8624228465919
 21
259.38845027725449
 31
0.0
  0
LINE
  5
5FEC
  8
DIM
 10
157.8624228465919
 20
277.38845027725449
 30
0.0
 11
157.8624228465919
 21
265.38845027725449
 31
0.0
  0
SOLID
  5
5FED
  8
DIM
 10
156.8624228465919
 20
277.38845027725449
 30
0.0
 11
158.8624228465919
 21
277.38845027725449
 31
0.0
 12
157.8624228465919
 22
283.38845027725449
 32
0.0
 13
157.8624228465919
 23
283.38845027725449
 33
0.0
  0
SOLID
  5
5FEE
  8
DIM
 10
156.8624228465919
 20
265.38845027725449
 30
0.0
 11
158.8624228465919
 21
265.38845027725449
 31
0.0
 12
157.8624228465919
 22
259.38845027725449
 32
0.0
 13
157.8624228465919
 23
259.38845027725449
 33
0.0
  0
TEXT
  5
5FEF
  8
0
 10
155.8624228465919
 20
266.38845027725461
 30
0.0
 40
6.0
  1
24
 50
90.0
  7
CHINESET
  0
POINT
  5
5FF0
  8
DEFPOINTS
 62
     0
 10
200.2427042468091
 20
283.38845027725449
 30
0.0
  0
POINT
  5
5FF1
  8
DEFPOINTS
 62
     0
 10
196.65685887184901
 20
259.38845027725449
 30
0.0
  0
POINT
  5
5FF2
  8
DEFPOINTS
 62
     0
 10
157.8624228465919
 20
259.38845027725449
 30
0.0
  0
ENDBLK
  5
5EF6
  8
0
  0
BLOCK
  8
0
  2
*D11
 70
     1
 10
0.0
 20
0.0
 30
0.0
  3
*D11
  1

  0
LINE
  5
5FF3
  8
DIM
 10
192.65685887184901
 20
259.38845027725449
 30
0.0
 11
153.8624228465919
 21
259.38845027725449
 31
0.0
  0
LINE
  5
5FF4
  8
DIM
 10
211.84612705556819
 20
37.38845027725533
 30
0.0
 11
153.86242284659181
 21
37.388450277255352
 31
0.0
  0
LINE
  5
5FF5
  8
DIM
 10
157.8624228465919
 20
253.38845027725449
 30
0.0
 11
157.86242284659181
 21
43.388450277255338
 31
0.0
  0
SOLID
  5
5FF6
  8
DIM
 10
156.8624228465919
 20
253.38845027725449
 30
0.0
 11
158.8624228465919
 21
253.38845027725449
 31
0.0
 12
157.8624228465919
 22
259.38845027725449
 32
0.0
 13
157.8624228465919
 23
259.38845027725449
 33
0.0
  0
SOLID
  5
5FF7
  8
DIM
 10
156.86242284659181
 20
43.388450277255338
 30
0.0
 11
158.86242284659181
 21
43.388450277255338
 31
0.0
 12
157.86242284659181
 22
37.388450277255338
 32
0.0
 13
157.86242284659181
 23
37.388450277255338
 33
0.0
  0
TEXT
  5
5FF8
  8
0
 10
155.86242284659181
 20
140.6741645629692
 30
0.0
 40
6.0
  1
222
 50
90.0
  7
CHINESET
  0
POINT
  5
5FF9
  8
DEFPOINTS
 62
     0
 10
196.65685887184901
 20
259.38845027725449
 30
0.0
  0
POINT
  5
5FFA
  8
DEFPOINTS
 62
     0
 10
215.84612705556819
 20
37.38845027725533
 30
0.0
  0
POINT
  5
5FFB
  8
DEFPOINTS
 62
     0
 10
157.86242284659181
 20
37.388450277255338
 30
0.0
  0
ENDBLK
  5
5F03
  8
0
  0
BLOCK
  8
0
  2
*D12
 70
     1
 10
0.0
 20
0.0
 30
0.0
  3
*D12
  1

  0
LINE
  5
5FFC
  8
DIM
 10
196.2427042468091
 20
283.38845027725449
 30
0.0
 11
141.85629019734139
 21
283.38845027725449
 31
0.0
  0
LINE
  5
5FFD
  8
DIM
 10
211.84612705556819
 20
37.38845027725533
 30
0.0
 11
141.85629019734139
 21
37.388450277255359
 31
0.0
  0
LINE
  5
5FFE
  8
DIM
 10
145.85629019734139
 20
277.38845027725449
 30
0.0
 11
145.85629019734139
 21
43.388450277255352
 31
0.0
  0
SOLID
  5
5FFF
  8
DIM
 10
144.85629019734139
 20
277.38845027725449
 30
0.0
 11
146.85629019734139
 21
277.38845027725449
 31
0.0
 12
145.85629019734139
 22
283.38845027725449
 32
0.0
 13
145.85629019734139
 23
283.38845027725449
 33
0.0
  0
SOLID
  5
6000
  8
DIM
 10
144.85629019734139
 20
43.388450277255352
 30
0.0
 11
146.85629019734139
 21
43.388450277255352
 31
0.0
 12
145.85629019734139
 22
37.388450277255352
 32
0.0
 13
145.85629019734139
 23
37.388450277255352
 33
0.0
  0
TEXT
  5
6001
  8
0
 10
143.85629019734139
 20
152.81702170582639
 30
0.0
 40
6.0
  1
246
 50
90.0
  7
CHINESET
  0
POINT
  5
6002
  8
DEFPOINTS
 62
     0
 10
200.2427042468091
 20
283.38845027725449
 30
0.0
  0
POINT
  5
6003
  8
DEFPOINTS
 62
     0
 10
215.84612705556819
 20
37.38845027725533
 30
0.0
  0
POINT
  5
6004
  8
DEFPOINTS
 62
     0
 10
145.85629019734139
 20
37.388450277255352
 30
0.0
  0
ENDBLK
  5
5F10
  8
0
  0
BLOCK
  8
0
  2
*D13
 70
     1
 10
0.0
 20
0.0
 30
0.0
  3
*D13
  1

  0
LINE
  5
6005
  8
DIM
 10
43.160256907558619
 20
37.888450277255323
 30
0.0
 11
43.160256907558619
 21
19.525377567569532
 31
0.0
  0
LINE
  5
6006
  8
DIM
 10
49.160256907558342
 20
37.888450277255323
 30
0.0
 11
49.160256907558342
 21
19.525377567569532
 31
0.0
  0
LINE
  5
6007
  8
DIM
 10
37.160256907558612
 20
23.525377567569532
 30
0.0
 11
31.160256907558612
 21
23.525377567569532
 31
0.0
  0
LINE
  5
6008
  8
DIM
 10
55.160256907558328
 20
23.525377567569532
 30
0.0
 11
61.160256907558328
 21
23.525377567569532
 31
0.0
  0
INSERT
  5
6009
  8
0
  2
*U16
 10
0.0
 20
0.0
 30
0.0
  0
SOLID
  5
600A
  8
DIM
 10
37.160256907558612
 20
24.525377567569532
 30
0.0
 11
37.160256907558612
 21
22.525377567569532
 31
0.0
 12
43.160256907558619
 22
23.525377567569532
 32
0.0
 13
43.160256907558619
 23
23.525377567569532
 33
0.0
  0
SOLID
  5
600B
  8
DIM
 10
55.160256907558328
 20
24.525377567569532
 30
0.0
 11
55.160256907558328
 21
22.525377567569532
 31
0.0
 12
49.160256907558342
 22
23.525377567569532
 32
0.0
 13
49.160256907558342
 23
23.525377567569532
 33
0.0
  0
POINT
  5
600C
  8
DEFPOINTS
 62
     0
 10
43.160256907558619
 20
41.888450277255323
 30
0.0
  0
POINT
  5
600D
  8
DEFPOINTS
 62
     0
 10
49.160256907558342
 20
41.888450277255323
 30
0.0
  0
POINT
  5
600E
  8
DEFPOINTS
 62
     0
 10
49.160256907558342
 20
23.525377567569532
 30
0.0
  0
ENDBLK
  5
5F1E
  8
0
  0
BLOCK
  8
0
  2
*U14
 70
     1
 10
0.0
 20
0.0
 30
0.0
  3
*U14
  1

  0
TEXT
  5
6013
  8
0
 10
155.72199763104339
 20
214.98532258934691
 30
0.0
 40
3.0
  1
\U+2205
  7
DAYUS
  0
TEXT
  5
6014
  8
0
 10
158.43628334532909
 20
214.98532258934691
 30
0.0
 40
3.0
  1
50
  7
DAYUS
  0
ENDBLK
  5
6016
  8
0
  0
BLOCK
  8
0
  2
*U15
 70
     1
 10
0.0
 20
0.0
 30
0.0
  3
*U15
  1

  0
TEXT
  5
6018
  8
0
 10
64.558619491197675
 20
21.93947923852965
 30
0.0
 40
3.0
  1
\U+2205
  7
DAYUS
  0
TEXT
  5
6019
  8
0
 10
67.272905205483383
 20
21.93947923852965
 30
0.0
 40
3.0
  1
5
  7
DAYUS
  0
ENDBLK
  5
601B
  8
0
  0
BLOCK
  8
0
  2
*U16
 70
     1
 10
0.0
 20
0.0
 30
0.0
  3
*U16
  1

  0
TEXT
  5
6037
  8
0
 10
50.898408993172588
 20
26.00279915116527
 30
0.0
 40
6.0
  1
\U+2205
  7
CHINESET
  0
TEXT
  5
6038
  8
0
 10
56.326980421744018
 20
26.00279915116527
 30
0.0
 40
6.0
  1
4
  7
CHINESET
  0
ENDBLK
  5
603A
  8
0
  0
ENDSEC
  0
SECTION
  2
ENTITIES
  0
TEXT
  5
1F73
  8
0
 10
1390.4569001914119
 20
-140.00075349713379
 30
0.0
 40
3.0
  1
 
  7
DAYUS
  0
TEXT
  5
1FBB
  8
0
 10
1342.7288216149991
 20
-143.71846552225301
 30
0.0
 40
3.0
  1
 
  7
DAYUS
  0
TEXT
  5
2095
  8
0
 10
1790.901573512263
 20
-310.57674813391912
 30
0.0
 40
3.0
  1
 
  7
DAYUS
  0
TEXT
  5
4482
  8
0
 10
1320.5576172816141
 20
256.29735274452128
 30
0.0
 40
3.0
  1
 
  7
DAYUS
  0
TEXT
  5
5652
  8
0
 10
549.21050138353803
 20
90.986526961475079
 30
0.0
 40
3.6000000000000001
  1
 
  7
DAYUS
  0
TEXT
  5
5655
  8
0
 10
664.20013901098105
 20
90.986526961475079
 30
0.0
 40
3.6000000000000001
  1
 
  7
DAYUS
  0
TEXT
  5
5656
  8
0
 10
695.157424693998
 20
90.512327200485075
 30
0.0
 40
3.6000000000000001
  1
 
  7
DAYUS
  0
POLYLINE
  5
5A85
  8
0
 62
     4
 66
     1
 10
0.0
 20
0.0
 30
0.0
 70
     1
  0
VERTEX
  5
601C
  8
0
 62
     4
 10
-18.218662141885709
 20
468.9387417752356
 30
0.0
  0
VERTEX
  5
601D
  8
0
 62
     4
 10
288.86133365100102
 20
468.9387417752356
 30
0.0
  0
VERTEX
  5
601E
  8
0
 62
     4
 10
288.86133365100102
 20
8.5073918236562331
 30
0.0
  0
VERTEX
  5
601F
  8
0
 62
     4
 10
-18.218662141885709
 20
8.5073918236562331
 30
0.0
  0
SEQEND
  5
6020
  8
0
 62
     4
  0
TEXT
  5
5A8C
  8
LOGO
 62
     6
 10
254.2668796696037
 20
-30.921469564900988
 30
0.0
 40
7.1688838888285771
  1
配管口徑
 41
0.9
  7
CHINESET
 72
     4
 11
267.23807895595291
 21
-27.337027620486701
 31
0.0
  0
LINE
  5
5A8D
  8
LOGO
 62
     6
 10
285.75030409518081
 20
-40.778684912040227
 30
0.0
 11
248.72585381672499
 21
-40.778684912040283
 31
0.0
  0
LINE
  5
5A8E
  8
LOGO
 62
     6
 10
285.75030409518081
 20
-21.06425421776164
 30
0.0
 11
248.72585381672499
 21
-21.06425421776164
 31
0.0
  0
TEXT
  5
5A8F
  8
LOGO
  6
CONTINUOUS
 62
     6
 10
254.94856371796109
 20
-38.538408696781353
 30
0.0
 40
4.4805524305178599
  1
Bore size
 41
0.8
  7
CHINESET
 72
     4
 11
267.23807895595291
 21
-36.298132481522423
 31
0.0
  0
TEXT
  5
5A90
  8
LOGO
  6
CONTINUOUS
 62
     7
 10
260.8202212291564
 20
-9.5164373922034695
 30
0.0
 40
8.9611048610357216
  1
?A
  7
CHINESET
 72
     1
 11
268.07444897380429
 21
-5.0358849616856078
 31
0.0
 73
     2
  0
LINE
  5
5A91
  8
LOGO
 62
     6
 10
282.16586215076649
 20
3.1307289070348019
 30
0.0
 11
252.31029576113929
 21
3.1307289070348019
 31
0.0
  0
LINE
  5
5A92
  8
LOGO
 62
     6
 10
282.16586215076649
 20
-12.99925984282951
 30
0.0
 11
252.31029576113929
 21
-12.99925984282949
 31
0.0
  0
LINE
  5
5A93
  8
LOGO
 62
     1
 10
288.86133365100102
 20
8.5073918236562331
 30
0.0
 11
-18.218662141885709
 21
8.5073918236562331
 31
0.0
  0
LINE
  5
5A94
  8
LOGO
 62
     1
 10
288.86133365100102
 20
-45.259237342558087
 30
0.0
 11
-18.218662141885709
 21
-45.259237342558087
 31
0.0
  0
LINE
  5
5A95
  8
LOGO
  6
CONTINUOUS
 62
     6
 10
84.010209777847024
 20
-5.7819877772336632
 30
0.0
 11
93.796927002946447
 21
-4.4892791631143281
 31
0.0
  0
LINE
  5
5A96
  8
LOGO
  6
CONTINUOUS
 62
     6
 10
84.010209777847024
 20
-9.4402046325343036
 30
0.0
 11
93.796927002946447
 21
-10.73291324665365
 31
0.0
  0
LINE
  5
5A97
  8
LOGO
 62
     1
 10
100.0679220237857
 20
-2.2459340095866298
 30
0.0
 11
21.210199246671451
 21
-2.2459340095866298
 31
0.0
  0
LINE
  5
5A98
  8
LOGO
 62
     1
 10
100.0679220237857
 20
-12.99925984282949
 30
0.0
 11
21.210199246671451
 21
-12.99925984282949
 31
0.0
  0
TEXT
  5
5A99
  8
LOGO
 62
     6
 10
72.28938349496967
 20
0.4423974487240861
 30
0.0
 40
5.3766629166214317
  1
1 : 1
  7
CHINESET
 72
     1
 11
81.762551490921723
 21
3.1307289070348019
 31
0.0
 73
     2
  0
TEXT
  5
5A9A
  8
LOGO
 62
     6
 10
72.28938349496967
 20
-21.06425421776164
 30
0.0
 40
5.3766629166214317
  1
m/m
  7
CHINESET
 72
     1
 11
81.762551490921723
 21
-18.37592275945093
 31
0.0
 73
     2
  0
LINE
  5
5A9B
  8
LOGO
 62
     1
 10
100.0679220237857
 20
-23.7525856760723
 30
0.0
 11
-18.218662141885758
 21
-23.7525856760723
 31
0.0
  0
TEXT
  5
5A9C
  8
LOGO
  6
CONTINUOUS
 62
     5
 10
-16.458789589127932
 20
-34.696864183773528
 30
0.0
 40
8.0649943749321498
  1
金器工業股份有限公司
 41
0.8
  7
LOGO
  0
TEXT
  5
5A9D
  8
LOGO
  6
CONTINUOUS
 62
     5
 10
-14.149461634227951
 20
-42.763438665283182
 30
0.0
 40
5.3766629166214317
  1
MINDMAN INDUSTRIAL CO.,LTD
 41
0.85
  7
CHINESET
  0
SOLID
  5
5A9E
  8
LOGO
 62
     5
 10
-12.64028807701389
 20
-14.814648884890779
 30
0.0
 11
-10.315560115501819
 21
-14.81464888489155
 31
0.0
 12
-0.6158331036744436
 22
7.230185232897532
 32
0.0
 13
1.708894857837425
 23
7.2301852328960017
 33
0.0
  0
SOLID
  5
5A9F
  8
LOGO
 62
     5
 10
-9.3536037176333036
 20
-14.814648884890779
 30
0.0
 11
-7.0288757561214332
 21
-14.814648884890779
 31
0.0
 12
1.708894857837425
 22
5.4665985034736666
 32
0.0
 13
-0.6158331036744436
 23
-3.057404022071418
 33
0.0
  0
SOLID
  5
5AA0
  8
LOGO
 62
     2
 10
-10.315560115501819
 20
-14.81464888489155
 30
0.0
 11
-9.3536037176333036
 21
-14.814648884890779
 31
0.0
 12
1.708894857837425
 22
7.2301852328960017
 32
0.0
 13
2.6708512557052329
 23
7.2301852328960017
 33
0.0
  0
SOLID
  5
5AA1
  8
LOGO
 62
     5
 10
-10.24922961417256
 20
-18.822800542670539
 30
0.0
 11
-9.4475992826174302
 21
-18.822800542670539
 31
0.0
 12
-10.24922961417256
 22
-22.830952200449548
 32
0.0
 13
-9.4475992826174302
 23
-22.830952200449548
 33
0.0
  0
SOLID
  5
5AA2
  8
LOGO
 62
     5
 10
-16.3673970924463
 20
-22.830952200449548
 30
0.0
 11
-15.56576676088954
 21
-22.830952200449548
 31
0.0
 12
-13.30831335330994
 22
-18.822800542670539
 32
0.0
 13
-12.506683021754601
 23
-18.822800542670539
 33
0.0
  0
SOLID
  5
5AA3
  8
LOGO
 62
     5
 10
-13.30831335330994
 20
-18.822800542670539
 30
0.0
 11
-12.506683021754601
 21
-18.822800542670539
 31
0.0
 12
-13.30831335330994
 22
-22.830952200449548
 32
0.0
 13
-12.506683021754601
 23
-22.830952200449548
 33
0.0
  0
SOLID
  5
5AA4
  8
LOGO
 62
     5
 10
-13.30831335330994
 20
-22.830952200449548
 30
0.0
 11
-12.506683021754601
 21
-22.830952200449548
 31
0.0
 12
-10.24922961417256
 22
-18.822800542670539
 32
0.0
 13
-9.4475992826174302
 23
-18.822800542670539
 33
0.0
  0
LINE
  5
5AA5
  8
LOGO
 62
     1
 10
-18.218662141885709
 20
-45.259237342558087
 30
0.0
 11
-18.218662141885709
 21
8.5073918236562331
 31
0.0
  0
TEXT
  5
5AA6
  8
LOGO
 62
     6
 10
25.643545856939209
 20
0.4450434442539191
 30
0.0
 40
5.3766629166214317
  1
比例 Scale:
 41
0.9
  7
CHINESET
 72
     4
 11
42.716850913157181
 21
3.1307289070348019
 31
0.0
  0
TEXT
  5
5AA7
  8
LOGO
 62
     6
 10
27.522977581811791
 20
-10.23529701229104
 30
0.0
 40
5.3766629166214317
  1
投影 View:
 41
0.9
  7
CHINESET
 72
     4
 11
42.716850913157181
 21
-7.6225969262080637
 31
0.0
  0
TEXT
  5
5AA8
  8
LOGO
 62
     6
 10
28.048642393749329
 20
-21.06425421776164
 30
0.0
 40
5.3766629166214317
  1
單位 Unit:
 41
0.9
  7
CHINESET
 72
     4
 11
42.716850913157181
 21
-18.37592275945093
 31
0.0
  0
POLYLINE
  5
5AA9
  8
LOGO
 62
     5
 66
     1
 10
0.0
 20
0.0
 30
0.0
 70
     1
 40
0.8029149955488005
 41
0.8029149955488005
  0
VERTEX
  5
6021
  8
LOGO
 62
     5
 10
9.2684250995511341
 20
-20.826876371560441
 30
0.0
 42
1.0
  0
VERTEX
  5
6022
  8
LOGO
 62
     5
 10
12.48008508174628
 20
-20.826876371560441
 30
0.0
 42
1.0
  0
SEQEND
  5
6023
  8
LOGO
 62
     5
  0
LINE
  5
5AAA
  8
LOGO
 62
     5
 10
17.020034190555641
 20
-22.830952200449548
 30
0.0
 11
17.020034190555641
 21
-20.42606120578246
 31
0.0
  0
SOLID
  5
5AAB
  8
LOGO
 62
     5
 10
12.076620424951249
 20
-18.822800542670539
 30
0.0
 11
12.878250756506491
 21
-18.822800542670539
 31
0.0
 12
12.076620424951249
 22
-22.830952200449548
 32
0.0
 13
12.878250756506491
 23
-22.830952200449548
 33
0.0
  0
SOLID
  5
5AAC
  8
LOGO
 62
     5
 10
13.813512864331839
 20
-22.830952200449548
 30
0.0
 11
14.615143195888489
 21
-22.830952200449548
 31
0.0
 12
13.813512864331839
 22
-18.822800542670539
 32
0.0
 13
14.615143195888489
 23
-18.822800542670539
 33
0.0
  0
SOLID
  5
5AAD
  8
LOGO
 62
     5
 10
16.2184038590005
 20
-20.42606120578246
 30
0.0
 11
17.020034190555641
 21
-20.42606120578257
 31
0.0
 12
16.2184038590005
 22
-22.830952200449548
 32
0.0
 13
17.020034190555641
 23
-22.830952200449548
 33
0.0
  0
SOLID
  5
5AAE
  8
LOGO
 62
     5
 10
0.5865322306268226
 20
-17.62035504533624
 30
0.0
 11
1.3881625621819571
 21
-17.62035504533624
 31
0.0
 12
0.5865322306268226
 22
-22.830952200449548
 32
0.0
 13
1.3881625621819571
 23
-22.830952200449548
 33
0.0
  0
SOLID
  5
5AAF
  8
LOGO
 62
     5
 10
2.323424670009643
 20
-18.822800542670539
 30
0.0
 11
3.1250550015648808
 21
-18.822800542670539
 31
0.0
 12
2.323424670009643
 22
-22.830952200449548
 32
0.0
 13
3.1250550015648808
 23
-22.830952200449548
 33
0.0
  0
SOLID
  5
5AB0
  8
LOGO
 62
     5
 10
4.7283156646767814
 20
-20.42606120578246
 30
0.0
 11
5.5299459962320219
 21
-20.42606120578246
 31
0.0
 12
4.7283156646767814
 22
-22.830952200449548
 32
0.0
 13
5.5299459962320219
 23
-22.830952200449548
 33
0.0
  0
SOLID
  5
5AB1
  8
LOGO
 62
     5
 10
7.1332066593440224
 20
-20.42606120578246
 30
0.0
 11
7.9348369908991572
 21
-20.42606120578246
 31
0.0
 12
7.1332066593440224
 22
-22.83095220045108
 32
0.0
 13
7.9348369908991572
 23
-22.83095220045108
 33
0.0
  0
LINE
  5
5AB2
  8
LOGO
 62
     1
 10
21.210199246671451
 20
-23.752585676072361
 30
0.0
 11
21.210199246671451
 21
8.5073918236562331
 31
0.0
  0
SOLID
  5
5AB3
  8
LOGO
 62
     5
 10
-6.7617725296468354
 20
-18.822800542670539
 30
0.0
 11
-5.9601421980917024
 21
-18.822800542670539
 31
0.0
 12
-6.7617725296468354
 22
-22.830952200449548
 32
0.0
 13
-5.9601421980917024
 23
-22.830952200449548
 33
0.0
  0
SOLID
  5
5AB4
  8
LOGO
 62
     5
 10
-4.3568815349799053
 20
-20.42606120578246
 30
0.0
 11
-3.5552512034232389
 21
-20.42606120578246
 31
0.0
 12
-4.3568815349799053
 22
-22.830952200449548
 32
0.0
 13
-3.5552512034232389
 23
-22.830952200449548
 33
0.0
  0
SOLID
  5
5AB5
  8
LOGO
 62
     5
 10
-8.4986649690298641
 20
-18.822800542670539
 30
0.0
 11
-7.6970346374723837
 21
-18.822800542670539
 31
0.0
 12
-8.4986649690298641
 22
-22.83095220045108
 32
0.0
 13
-7.6970346374723837
 23
-22.830952200449548
 33
0.0
  0
POLYLINE
  5
5AB6
  8
LOGO
 62
     5
 66
     1
 10
0.0
 20
0.0
 30
0.0
 70
     1
 40
0.8029149955488005
 41
0.8029149955488005
  0
VERTEX
  5
6024
  8
LOGO
 62
     5
 10
-2.2216630947725822
 20
-20.826876371560441
 30
0.0
 42
1.0
  0
VERTEX
  5
6025
  8
LOGO
 62
     5
 10
0.9899968874226754
 20
-20.826876371560441
 30
0.0
 42
1.0
  0
SEQEND
  5
6026
  8
LOGO
 62
     5
  0
POLYLINE
  5
5AB7
  8
LOGO
 62
     5
 66
     1
 10
0.0
 20
0.0
 30
0.0
 40
0.8029149955488005
 41
0.8029149955488005
  0
VERTEX
  5
6027
  8
LOGO
 62
     5
 10
16.621146020767799
 20
-20.42606120578246
 30
0.0
 42
1.0
  0
VERTEX
  5
6028
  8
LOGO
 62
     5
 10
14.212401034121299
 20
-20.42606120578246
 30
0.0
 42
1.0
  0
SEQEND
  5
6029
  8
LOGO
 62
     5
  0
SOLID
  5
5AB8
  8
LOGO
 62
     5
 10
14.69530622904376
 20
-14.81464888489155
 30
0.0
 11
17.020034190555641
 21
-14.81464888489155
 31
0.0
 12
14.69530622904376
 22
7.2301852328960017
 32
0.0
 13
17.020034190555641
 23
7.230185232897532
 33
0.0
  0
SOLID
  5
5AB9
  8
LOGO
 62
     5
 10
2.6708512557052329
 20
7.2301852328960017
 30
0.0
 11
4.9955792172169993
 21
7.230185232897532
 31
0.0
 12
2.6708512557052329
 22
-13.05106215546844
 32
0.0
 13
4.9955792172169993
 23
-4.5270596299233521
 33
0.0
  0
SOLID
  5
5ABA
  8
LOGO
 62
     5
 10
2.6708512557052329
 20
-13.05106215546844
 30
0.0
 11
4.9955792172169993
 21
-4.5270596299233521
 31
0.0
 12
13.73334983117595
 22
7.230185232897532
 32
0.0
 13
11.408621869663889
 23
7.230185232897532
 33
0.0
  0
SOLID
  5
5ABB
  8
LOGO
 62
     5
 10
13.73334983117595
 20
5.4665985034736666
 30
0.0
 11
11.408621869663889
 21
-3.057404022071418
 31
0.0
 12
13.73334983117595
 22
-14.81464888489155
 32
0.0
 13
11.408621869663889
 23
-14.81464888489155
 33
0.0
  0
SOLID
  5
5ABC
  8
LOGO
 62
     2
 10
13.73334983117595
 20
7.230185232897532
 30
0.0
 11
14.69530622904376
 21
7.2301852328960017
 31
0.0
 12
13.73334983117595
 22
-14.81464888489155
 32
0.0
 13
14.69530622904376
 23
-14.81464888489155
 33
0.0
  0
SOLID
  5
5ABD
  8
LOGO
 62
     5
 10
-0.6158331036744436
 20
-14.814648884890779
 30
0.0
 11
1.708894857837425
 21
-14.814648884890779
 31
0.0
 12
-0.6158331036744436
 22
-3.057404022071418
 32
0.0
 13
1.708894857837425
 23
5.4665985034736666
 33
0.0
  0
SOLID
  5
5ABE
  8
LOGO
 62
     2
 10
1.708894857837425
 20
7.2301852328960017
 30
0.0
 11
2.6708512557052329
 21
7.2301852328960017
 31
0.0
 12
1.708894857837425
 22
-14.814648884890779
 32
0.0
 13
2.6708512557052329
 23
-14.814648884890779
 33
0.0
  0
SOLID
  5
5ABF
  8
LOGO
 62
     5
 10
2.6708512557052329
 20
-14.814648884890779
 30
0.0
 11
4.9955792172169993
 21
-14.814648884890779
 31
0.0
 12
13.73334983117595
 22
5.4665985034736666
 32
0.0
 13
11.408621869663889
 23
-3.057404022071418
 33
0.0
  0
SOLID
  5
5AC0
  8
LOGO
 62
     2
 10
1.708894857837425
 20
-14.814648884890779
 30
0.0
 11
2.6708512557052329
 21
-14.814648884890779
 31
0.0
 12
13.73334983117595
 22
7.230185232897532
 32
0.0
 13
14.69530622904376
 23
7.2301852328960017
 33
0.0
  0
POLYLINE
  5
5AC1
  8
LOGO
 62
     5
 66
     1
 10
0.0
 20
0.0
 30
0.0
 40
0.8029149955488005
 41
0.8029149955488005
  0
VERTEX
  5
602A
  8
LOGO
 62
     5
 10
5.1310578264440831
 20
-20.42606120578246
 30
0.0
 42
1.0
  0
VERTEX
  5
602B
  8
LOGO
 62
     5
 10
2.7223128397975871
 20
-20.42606120578246
 30
0.0
 42
1.0
  0
SEQEND
  5
602C
  8
LOGO
 62
     5
  0
POLYLINE
  5
5AC2
  8
LOGO
 62
     5
 66
     1
 10
0.0
 20
0.0
 30
0.0
 40
0.8029149955488005
 41
0.8029149955488005
  0
VERTEX
  5
602D
  8
LOGO
 62
     5
 10
-3.9541393732124019
 20
-20.42606120578246
 30
0.0
 42
1.0
  0
VERTEX
  5
602E
  8
LOGO
 62
     5
 10
-6.362884359858894
 20
-20.42606120578246
 30
0.0
 42
1.0
  0
SEQEND
  5
602F
  8
LOGO
 62
     5
  0
SOLID
  5
5AC3
  8
LOGO
 62
     5
 10
-8.4986649690298641
 20
-18.261659310581749
 30
0.0
 11
-7.6970346374723837
 21
-18.261659310581749
 31
0.0
 12
-8.4986649690298641
 22
-17.62035504533624
 32
0.0
 13
-7.6970346374723837
 23
-17.62035504533624
 33
0.0
  0
POLYLINE
  5
5AC4
  8
LOGO
 62
     5
 66
     1
 10
0.0
 20
0.0
 30
0.0
 70
     1
  0
VERTEX
  5
6030
  8
LOGO
 62
     5
 10
9.6718095933151425
 20
-20.826876371560051
 30
0.0
 42
1.0000000573306349
  0
VERTEX
  5
6031
  8
LOGO
 62
     5
 10
12.0767005879833
 20
-20.826876371560051
 30
0.0
 42
1.0000000573306349
  0
SEQEND
  5
6032
  8
LOGO
 62
     5
  0
CIRCLE
  5
5AC5
  8
LOGO
 62
     5
 10
10.87425509064917
 20
-20.826876371560051
 30
0.0
 40
1.2024454973338841
  0
POLYLINE
  5
5AC6
  8
LOGO
 62
     5
 66
     1
 10
0.0
 20
0.0
 30
0.0
 40
0.8029149955488005
 41
0.8029149955488005
  0
VERTEX
  5
6033
  8
LOGO
 62
     5
 10
7.5359488211112096
 20
-20.42606120578246
 30
0.0
 42
1.0
  0
VERTEX
  5
6034
  8
LOGO
 62
     5
 10
5.1272038344647246
 20
-20.42606120578246
 30
0.0
 42
1.0
  0
SEQEND
  5
6035
  8
LOGO
 62
     5
  0
LINE
  5
5AC7
  8
LOGO
 62
     1
 10
64.223502579642926
 20
-23.752585676072361
 30
0.0
 11
64.223502579642926
 21
8.5073918236562331
 31
0.0
  0
CIRCLE
  5
5AC8
  8
LOGO
  6
CONTINUOUS
 62
     6
 10
74.179066472134465
 20
-7.611096204883995
 30
0.0
 40
3.1218170417696629
  0
CIRCLE
  5
5AC9
  8
LOGO
  6
CONTINUOUS
 62
     6
 10
74.179066472134465
 20
-7.611096204883995
 30
0.0
 40
1.8291084276503231
  0
LINE
  5
5ACA
  8
LOGO
 62
     6
 10
84.010209777847123
 20
-9.4402046325343179
 30
0.0
 11
84.010209777847024
 21
-5.7819877772336481
 31
0.0
  0
TEXT
  5
5ACB
  8
LOGO
  6
CONTINUOUS
 62
     6
 10
198.1503580368958
 20
-38.538408696781303
 30
0.0
 40
4.4805524305178599
  1
Model
  7
CHINESET
 72
     4
 11
206.6847436188346
 21
-36.298132481522373
 31
0.0
  0
TEXT
  5
5ACC
  8
LOGO
  6
CONTINUOUS
 62
     7
 10
180.97704149523051
 20
-9.4148178984152064
 30
0.0
 40
8.9611048610357216
  1
MAF500
  7
CHINESET
 72
     1
 11
206.1534789619499
 21
-4.9342654678973448
 31
0.0
 73
     2
  0
LINE
  5
5ACD
  8
LOGO
 62
     6
 10
239.34795307989759
 20
3.1307289070348019
 30
0.0
 11
174.02153415777161
 21
3.1307289070348019
 31
0.0
  0
LINE
  5
5ACE
  8
LOGO
 62
     6
 10
239.34795307989759
 20
-12.99925984282949
 30
0.0
 11
174.02153415777161
 21
-12.99925984282949
 31
0.0
  0
LINE
  5
5ACF
  8
LOGO
 62
     6
 10
224.6069533409061
 20
-21.06425421776164
 30
0.0
 11
188.76253389676319
 21
-21.06425421776164
 31
0.0
  0
LINE
  5
5AD0
  8
LOGO
 62
     6
 10
224.6069533409061
 20
-40.778684912040241
 30
0.0
 11
188.76253389676319
 21
-40.778684912040283
 31
0.0
  0
TEXT
  5
5AD1
  8
LOGO
 62
     7
 10
104.46898344285179
 20
-4.9545493175658724
 30
0.0
 40
10.75332583324286
  1
訂購代號:
  7
CHINESET
  0
TEXT
  5
5AD2
  8
LOGO
 62
     7
 10
103.1828263889382
 20
-15.04685349668727
 30
0.0
 40
7.1688838888285771
  1
Order example:
 41
0.8
  7
CHINESET
  0
LINE
  5
5AD3
  8
LOGO
 62
     1
 10
100.0679220237857
 20
-45.259237342558087
 30
0.0
 11
100.0679220237857
 21
8.5073918236562331
 31
0.0
  0
LINE
  5
5AD4
  8
LOGO
 62
     6
 10
93.796927002946447
 20
-10.73291324665365
 30
0.0
 11
93.796927002946447
 21
-4.4892791631143281
 31
0.0
  0
LINE
  5
5AD5
  8
LOGO
 62
     6
 10
188.76253389676319
 20
-21.06425421776164
 30
0.0
 11
188.76253389676319
 21
-40.778684912040283
 31
0.0
  0
LINE
  5
5AD6
  8
LOGO
 62
     6
 10
174.02153415777161
 20
3.1307289070348019
 30
0.0
 11
174.02153415777161
 21
-12.99925984282949
 31
0.0
  0
LINE
  5
5AD7
  8
LOGO
 62
     6
 10
224.6069533409061
 20
-21.06425421776164
 30
0.0
 11
224.6069533409061
 21
-40.778684912040227
 31
0.0
  0
TEXT
  5
5AD8
  8
LOGO
 62
     6
 10
199.51585973000601
 20
-30.73801387483249
 30
0.0
 40
7.1688838888285771
  1
型式
  7
CHINESET
 72
     4
 11
206.6847436188346
 21
-27.337027620486651
 31
0.0
  0
LINE
  5
5AD9
  8
LOGO
 62
     6
 10
206.6847436188346
 20
-12.99925984282949
 30
0.0
 11
206.6847436188346
 21
-21.06425421776164
 31
0.0
  0
LINE
  5
5ADA
  8
LOGO
 62
     6
 10
239.34795307989759
 20
3.1307289070348019
 30
0.0
 11
239.34795307989759
 21
-12.99925984282949
 31
0.0
  0
LINE
  5
5ADB
  8
LOGO
 62
     6
 10
248.72585381672499
 20
-21.06425421776164
 30
0.0
 11
248.72585381672499
 21
-40.778684912040283
 31
0.0
  0
LINE
  5
5ADC
  8
LOGO
  6
CONTINUOUS
 62
     7
 10
242.39844885146681
 20
-4.9914004371899363
 30
0.0
 11
249.5208633262699
 21
-4.9914004371899363
 31
0.0
  0
LINE
  5
5ADD
  8
LOGO
 62
     6
 10
252.3102957611394
 20
3.1307289070348019
 30
0.0
 11
252.31029576113929
 21
-12.99925984282949
 31
0.0
  0
LINE
  5
5ADE
  8
LOGO
 62
     6
 10
267.61765508476049
 20
-12.99925984282949
 30
0.0
 11
267.61765508476049
 21
-21.06425421776164
 31
0.0
  0
LINE
  5
5ADF
  8
LOGO
 62
     6
 10
285.75030409518081
 20
-21.06425421776164
 30
0.0
 11
285.75030409518081
 21
-40.853021387963608
 31
0.0
  0
LINE
  5
5AE0
  8
LOGO
 62
     6
 10
282.16586215076649
 20
3.1307289070348019
 30
0.0
 11
282.16586215076649
 21
-12.99925984282951
 31
0.0
  0
LINE
  5
5AE1
  8
LOGO
 62
     1
 10
288.86133365100102
 20
-45.259237342558087
 30
0.0
 11
288.86133365100102
 21
8.5073918236562331
 31
0.0
  0
LINE
  5
5D25
  8
0
 10
212.34612705556819
 20
344.23518802093918
 30
0.0
 11
224.3461270555683
 21
344.23518802093918
 31
0.0
  0
LINE
  5
5D26
  8
0
 10
212.34612705556819
 20
352.23518802093901
 30
0.0
 11
224.3461270555683
 21
352.23518802093901
 31
0.0
  0
LINE
  5
5D27
  8
CENTER
 10
168.5961270555683
 20
384.48518802093929
 30
0.0
 11
268.09612705556822
 21
384.48518802093912
 31
0.0
  0
LINE
  5
5D28
  8
0
 10
191.3461270555681
 20
429.23518802093889
 30
0.0
 11
245.3461270555681
 21
429.23518802093889
 31
0.0
  0
LINE
  5
5D2A
  8
0
 10
191.3461270555681
 20
339.73518802093918
 30
0.0
 11
245.3461270555681
 21
339.73518802093901
 31
0.0
  0
LINE
  5
5D2B
  8
0
 10
191.3461270555681
 20
429.23518802093889
 30
0.0
 11
245.3461270555681
 21
429.23518802093889
 31
0.0
  0
LINE
  5
5D2C
  8
0
 10
222.84612705556779
 20
48.388450277255288
 30
0.0
 11
224.68587301772359
 21
48.388450277255231
 31
0.0
  0
LINE
  5
5D2D
  8
0
 10
200.2427042468091
 20
283.38845027725449
 30
0.0
 11
236.4495498643266
 21
283.38845027725449
 31
0.0
  0
ARC
  5
5D2E
  8
0
 10
222.0961270555681
 20
71.975950277256061
 30
0.0
 40
23.587500000000741
 50
260.85215748019863
 51
279.14784251980132
  0
ARC
  5
5D2F
  8
0
 10
222.0961270555681
 20
26.800950277254572
 30
0.0
 40
23.587500000000741
 50
80.852157480198613
 51
99.147842519801372
  0
LINE
  5
5D30
  8
0
 10
212.00638109341219
 20
48.388450277255338
 30
0.0
 11
224.68587301772391
 21
48.388450277255231
 31
0.0
  0
CIRCLE
  5
5D31
  8
0
 10
218.3461270555681
 20
259.38845027725449
 30
0.0
 40
15.144999999999939
  0
ARC
  5
5D32
  8
HIDDEN
 10
218.3461270555681
 20
259.38845027725449
 30
0.0
 40
16.62499999999994
 50
0.0
 51
270.0
  0
CIRCLE
  5
5D33
  8
0
 10
218.3461270555681
 20
259.38845027725449
 30
0.0
 40
10.999999999999959
  0
LINE
  5
5D34
  8
CENTER
 10
196.65685887184901
 20
259.38845027725449
 30
0.0
 11
240.0353952392868
 21
259.38845027725449
 31
0.0
  0
LINE
  5
5D35
  8
0
 10
191.3461270555681
 20
231.38845027725469
 30
0.0
 11
245.34612705556771
 21
231.38845027725469
 31
0.0
  0
LINE
  5
5D36
  8
0
 10
191.3461270555681
 20
235.38845027725469
 30
0.0
 11
245.34612705556771
 21
235.3884502772548
 31
0.0
  0
LINE
  5
5D37
  8
0
 10
207.84612705556819
 20
50.388450277255281
 30
0.0
 11
228.84612705556799
 21
50.388450277255281
 31
0.0
  0
LINE
  5
5D38
  8
0
 10
201.9254505620587
 20
54.888450277255281
 30
0.0
 11
234.76680354907739
 21
54.888450277255281
 31
0.0
  0
LINE
  5
5D39
  8
0
 10
183.9595724337193
 20
149.88845027725489
 30
0.0
 11
252.73268167741659
 21
149.88845027725489
 31
0.0
  0
LINE
  5
5D3A
  8
0
 10
180.84612705556819
 20
152.88845027725489
 30
0.0
 11
255.84612705556791
 21
152.88845027725489
 31
0.0
  0
LINE
  5
5D3B
  8
0
 10
173.5961270555683
 20
226.88845027725469
 30
0.0
 11
263.09612705556782
 21
226.88845027725469
 31
0.0
  0
LINE
  5
5D3C
  8
0
 10
174.59612705556819
 20
212.38845027725469
 30
0.0
 11
262.09612705556788
 21
212.38845027725469
 31
0.0
  0
LINE
  5
5D3D
  8
0
 10
56.660256907558441
 20
54.888450277255281
 30
0.0
 11
62.580933401067909
 21
54.888450277255281
 31
0.0
  0
LINE
  5
5D3E
  8
0
 10
47.160256907558271
 20
283.38845027725449
 30
0.0
 11
73.160256907558505
 21
283.38845027725512
 31
0.0
  0
LINE
  5
5D40
  8
0
 10
85.600428071028546
 20
280.09433263019582
 30
0.0
 11
6.7200857440882373
 21
280.09433263019588
 31
0.0
  0
ARC
  5
5D41
  8
0
 10
53.910256907558562
 20
119.88845027725471
 30
0.0
 40
2.9999999999999889
 50
270.0
 51
0.0
  0
LINE
  5
5D42
  8
0
 10
29.739580414049321
 20
54.888450277255281
 30
0.0
 11
62.580933401067909
 21
54.888450277255281
 31
0.0
  0
LINE
  5
5D43
  8
0
 10
11.773702285709589
 20
149.88845027725489
 30
0.0
 11
80.546811529407023
 21
149.88845027725489
 31
0.0
  0
LINE
  5
5D44
  8
0
 10
8.6602569075586757
 20
152.88845027725489
 30
0.0
 11
83.660256907558377
 21
152.88845027725489
 31
0.0
  0
LINE
  5
5D45
  8
0
 10
19.160256907558729
 20
276.38845027725398
 30
0.0
 11
73.160256907558505
 21
276.38845027725489
 31
0.0
  0
LINE
  5
5D46
  8
0
 10
4.910256907558618
 20
242.38845027725461
 30
0.0
 11
87.410256907558278
 21
242.38845027725461
 31
0.0
  0
LINE
  5
5D47
  8
0
 10
1.410256907558846
 20
226.88845027725469
 30
0.0
 11
90.910256907558605
 21
226.88845027725469
 31
0.0
  0
LINE
  5
5D48
  8
0
 10
2.4102569075586748
 20
212.38845027725469
 30
0.0
 11
89.910256907558377
 21
212.38845027725469
 31
0.0
  0
LINE
  5
5D49
  8
0
 10
15.41025690755867
 20
149.88845027725461
 30
0.0
 11
15.41025690755867
 21
65.402889330426703
 31
0.0
  0
LINE
  5
5D4A
  8
0
 10
20.174082698952699
 20
75.802663839628053
 30
0.0
 11
20.17408269895304
 21
140.88845027725469
 31
0.0
  0
LINE
  5
5D4B
  8
0
 10
29.077296782508309
 20
75.845787313786332
 30
0.0
 11
29.077296782508309
 21
140.88845027725469
 31
0.0
  0
LINE
  5
5D4C
  8
CENTER
 10
46.160256907558562
 20
288.38845027725449
 30
0.0
 11
46.160256907558562
 21
32.388450277255401
 31
0.0
  0
ARC
  5
5D4D
  8
0
 10
22.410256907558612
 20
65.402889330426703
 30
0.0
 40
6.999999999999976
 50
180.0
 51
245.6375469846879
  0
LINE
  5
5D4E
  8
0
 10
49.160256907558342
 20
47.888450277255338
 30
0.0
 11
49.160256907558342
 21
41.888450277255338
 31
0.0
  0
LINE
  5
5D4F
  8
0
 10
43.160256907558619
 20
47.888450277255338
 30
0.0
 11
43.160256907558619
 21
41.888450277255338
 31
0.0
  0
LINE
  5
5D51
  8
0
 10
43.660256907558448
 20
37.388450277255338
 30
0.0
 11
48.660256907558448
 21
37.388450277255338
 31
0.0
  0
LINE
  5
5D54
  8
0
 10
43.160256907558619
 20
41.888450277255338
 30
0.0
 11
49.160256907558342
 21
41.888450277255338
 31
0.0
  0
LINE
  5
5D55
  8
0
 10
43.160256907558619
 20
40.388450277255338
 30
0.0
 11
49.160256907558342
 21
40.388450277255338
 31
0.0
  0
LINE
  5
5D56
  8
0
 10
43.160256907558619
 20
38.888450277255401
 30
0.0
 11
49.160256907558342
 21
38.888450277255401
 31
0.0
  0
LINE
  5
5D59
  8
0
 10
43.660256907558448
 20
40.388450277255338
 30
0.0
 11
43.160256907558619
 21
40.388450277255338
 31
0.0
  0
LINE
  5
5D5A
  8
0
 10
43.660256907558448
 20
38.888450277255401
 30
0.0
 11
43.160256907558619
 21
38.888450277255401
 31
0.0
  0
LINE
  5
5D5B
  8
0
 10
43.660256907558448
 20
37.388450277255338
 30
0.0
 11
43.160256907558619
 21
38.888450277255401
 31
0.0
  0
LINE
  5
5D5C
  8
0
 10
43.660256907558448
 20
38.888450277255401
 30
0.0
 11
43.160256907558619
 21
40.388450277255338
 31
0.0
  0
LINE
  5
5D5D
  8
0
 10
43.160256907558619
 20
41.888450277255338
 30
0.0
 11
43.660256907558448
 21
40.388450277255338
 31
0.0
  0
LINE
  5
5D60
  8
0
 10
48.660256907558448
 20
38.888450277255401
 30
0.0
 11
49.160256907558342
 21
38.888450277255401
 31
0.0
  0
LINE
  5
5D61
  8
0
 10
48.660256907558448
 20
40.388450277255338
 30
0.0
 11
49.160256907558342
 21
40.388450277255338
 31
0.0
  0
LINE
  5
5D62
  8
0
 10
48.660256907558448
 20
37.388450277255338
 30
0.0
 11
49.160256907558342
 21
38.888450277255401
 31
0.0
  0
LINE
  5
5D63
  8
0
 10
48.660256907558448
 20
38.888450277255401
 30
0.0
 11
49.160256907558342
 21
40.388450277255338
 31
0.0
  0
LINE
  5
5D64
  8
0
 10
48.660256907558448
 20
40.388450277255338
 30
0.0
 11
49.160256907558342
 21
41.888450277255338
 31
0.0
  0
LINE
  5
5D65
  8
0
 10
35.660256907558157
 20
50.388450277255281
 30
0.0
 11
38.660256907558448
 21
50.388450277255281
 31
0.0
  0
LINE
  5
5D66
  8
0
 10
35.660256907558669
 20
50.388450277255281
 30
0.0
 11
56.660256907558441
 21
50.388450277255281
 31
0.0
  0
LINE
  5
5D67
  8
0
 10
19.522704034402349
 20
59.02621006887307
 30
0.0
 11
27.677042647509211
 21
55.333679376145653
 31
0.0
  0
LINE
  5
5D68
  8
0
 10
29.739580414049321
 20
54.888450277255281
 30
0.0
 11
35.660256907558157
 21
54.888450277255281
 31
0.0
  0
ARC
  5
5D69
  8
0
 10
29.739580414049321
 20
59.888450277255281
 30
0.0
 40
4.9999999999999822
 50
245.6375469846877
 51
270.0
  0
LINE
  5
5D6A
  8
0
 10
35.660256907558157
 20
54.888450277255281
 30
0.0
 11
35.660256907558157
 21
50.388450277255281
 31
0.0
  0
LINE
  5
5D6B
  8
0
 10
25.059501817496479
 20
73.095327750287595
 30
0.0
 11
27.69004023967539
 21
73.941963410244171
 31
0.0
  0
ARC
  5
5D6C
  8
0
 10
22.174082698952809
 20
75.802663839628053
 30
0.0
 40
1.9999999999999929
 50
180.0
 51
250.52877936551039
  0
ARC
  5
5D6D
  8
0
 10
24.446758360329511
 20
74.999151653829756
 30
0.0
 40
1.9999999999999929
 50
250.52877936551221
 51
287.84070942796859
  0
LINE
  5
5D6E
  8
0
 10
21.50741603228624
 20
73.917045756464063
 30
0.0
 11
23.780091693662651
 21
73.113533570665709
 31
0.0
  0
ARC
  5
5D6F
  8
0
 10
27.07729678250837
 20
75.845787313786332
 30
0.0
 40
1.9999999999999929
 50
287.8407094279703
 51
0.0
  0
LINE
  5
5D70
  8
0
 10
41.660256907558392
 20
47.888450277255338
 30
0.0
 11
50.660256907558562
 21
47.888450277255338
 31
0.0
  0
ARC
  5
5D71
  8
0
 10
46.160256907558562
 20
18.98845027725633
 30
0.0
 40
31.399999999999071
 50
82.073530065099973
 51
97.926469934900027
  0
ARC
  5
5D72
  8
0
 10
46.160256907558562
 20
79.788450277254412
 30
0.0
 40
31.399999999999071
 50
262.07353006509987
 51
277.92646993490001
  0
LINE
  5
5D73
  8
0
 10
38.660256907558448
 20
48.388450277255338
 30
0.0
 11
53.660256907558512
 21
48.388450277255231
 31
0.0
  0
LINE
  5
5D74
  8
0
 10
38.660256907558448
 20
48.388450277255338
 30
0.0
 11
41.660256907558392
 21
48.388450277255288
 31
0.0
  0
ARC
  5
5D75
  8
0
 10
39.665066379174839
 20
42.425950277255019
 30
0.0
 40
7.9625000000003894
 50
74.222193899505399
 51
105.7778061004946
  0
ARC
  5
5D76
  8
0
 10
39.665066379174839
 20
56.350950277255777
 30
0.0
 40
7.9625000000003894
 50
254.22219389950541
 51
285.77780610049462
  0
LINE
  5
5D77
  8
0
 10
37.500002869704808
 20
48.688450277257857
 30
0.0
 11
38.660256907558448
 21
48.388450277255338
 31
0.0
  0
LINE
  5
5D78
  8
0
 10
37.500002869702762
 20
50.088450277252321
 30
0.0
 11
37.500002869704808
 21
48.688450277257857
 31
0.0
  0
LINE
  5
5D79
  8
0
 10
38.660256907558448
 20
50.388450277255281
 30
0.0
 11
37.500002869702762
 21
50.088450277252321
 31
0.0
  0
LINE
  5
5D7A
  8
0
 10
38.660256907558448
 20
48.388450277255338
 30
0.0
 11
37.500002869714308
 21
48.688450277255349
 31
0.0
  0
LINE
  5
5D7B
  8
0
 10
38.660256907558448
 20
50.388450277255281
 30
0.0
 11
37.500002869714308
 21
50.088450277255269
 31
0.0
  0
LINE
  5
5D7C
  8
0
 10
37.500002869714308
 20
48.688450277255349
 30
0.0
 11
37.500002869714308
 21
50.088450277255269
 31
0.0
  0
LINE
  5
5D7D
  8
0
 10
41.660256907558392
 20
47.888450277255338
 30
0.0
 11
43.160256907558619
 21
47.888450277255338
 31
0.0
  0
LINE
  5
5D7E
  8
0
 10
41.660256907558392
 20
48.388450277255288
 30
0.0
 11
41.660256907558392
 21
47.888450277255338
 31
0.0
  0
LINE
  5
5D7F
  8
0
 10
41.660256907558392
 20
48.388450277255338
 30
0.0
 11
41.660256907558392
 21
47.888450277255338
 31
0.0
  0
LINE
  5
5D80
  8
0
 10
41.830129888636293
 20
48.688450277255349
 30
0.0
 11
41.830129888636293
 21
50.088450277255269
 31
0.0
  0
LINE
  5
5D81
  8
0
 10
50.660256907558221
 20
48.388450277255288
 30
0.0
 11
53.660256907558157
 21
48.388450277255231
 31
0.0
  0
ARC
  5
5D82
  8
0
 10
52.65544743594166
 20
42.425950277255083
 30
0.0
 40
7.9625000000003894
 50
74.222193899505399
 51
105.7778061004946
  0
ARC
  5
5D83
  8
0
 10
52.65544743594166
 20
56.350950277255777
 30
0.0
 40
7.9625000000003894
 50
254.22219389950541
 51
285.77780610049462
  0
LINE
  5
5D84
  8
0
 10
50.660256907558562
 20
47.888450277255338
 30
0.0
 11
50.660256907558221
 21
48.388450277255288
 31
0.0
  0
LINE
  5
5D85
  8
0
 10
49.160256907558342
 20
47.888450277255338
 30
0.0
 11
50.660256907558562
 21
47.888450277255338
 31
0.0
  0
LINE
  5
5D86
  8
0
 10
50.660256907558221
 20
48.388450277255338
 30
0.0
 11
50.660256907558562
 21
47.888450277255338
 31
0.0
  0
LINE
  5
5D87
  8
0
 10
50.490383926480831
 20
48.688450277255349
 30
0.0
 11
50.490383926480831
 21
50.088450277255269
 31
0.0
  0
LINE
  5
5D88
  8
0
 10
53.660256907558512
 20
50.388450277255281
 30
0.0
 11
56.660256907558441
 21
50.388450277255281
 31
0.0
  0
LINE
  5
5D89
  8
0
 10
54.820510945402589
 20
50.088450277255561
 30
0.0
 11
53.660256907558512
 21
50.388450277255281
 31
0.0
  0
LINE
  5
5D8A
  8
0
 10
53.660256907558157
 20
48.388450277255231
 30
0.0
 11
54.820510945399292
 21
48.68845027725439
 31
0.0
  0
LINE
  5
5D8B
  8
0
 10
54.8205109454031
 20
48.688450277255349
 30
0.0
 11
54.820510945402589
 21
50.088450277255269
 31
0.0
  0
LINE
  5
5D8C
  8
0
 10
56.660256907558441
 20
54.888450277255281
 30
0.0
 11
56.660256907558441
 21
50.388450277255281
 31
0.0
  0
LINE
  5
5D8D
  8
0
 10
53.660256907558512
 20
48.388450277255338
 30
0.0
 11
54.8205109454031
 21
48.688450277255349
 31
0.0
  0
LINE
  5
5D8E
  8
0
 10
53.660256907558512
 20
50.388450277255281
 30
0.0
 11
54.820510945402589
 21
50.088450277255269
 31
0.0
  0
LINE
  5
5D8F
  8
0
 10
1.410256907558846
 20
231.38845027725469
 30
0.0
 11
1.410256907558846
 21
213.38845027725461
 31
0.0
  0
LINE
  5
5D90
  8
0
 10
11.16025690755861
 20
242.38845027725461
 30
0.0
 11
11.16025690755861
 21
212.38845027725469
 31
0.0
  0
LINE
  5
5D91
  8
0
 10
4.910256907558618
 20
275.38845027725449
 30
0.0
 11
4.910256907558618
 21
212.38845027725469
 31
0.0
  0
LINE
  5
5D92
  8
0
 10
6.4102569075588463
 20
212.38845027725469
 30
0.0
 11
8.6603379331941142
 21
152.8863075993398
 31
0.0
  0
LINE
  5
5D93
  8
0
 10
11.773702285709589
 20
149.88845027725489
 30
0.0
 11
8.6603379331941142
 21
152.8863075993398
 31
0.0
  0
ARC
  5
5D94
  8
0
 10
2.4102569075586748
 20
213.38845027725461
 30
0.0
 40
0.9999999999999966
 50
180.0
 51
270.0
  0
ARC
  5
5D95
  8
0
 10
38.410256907558669
 20
119.88845027725471
 30
0.0
 40
2.9999999999999889
 50
180.0
 51
270.0
  0
LINE
  5
5D96
  8
0
 10
35.710256907558119
 20
130.83263632376651
 30
0.0
 11
46.160256907558562
 21
128.888450277255
 31
0.0
  0
LINE
  5
5D97
  8
0
 10
35.710256907558119
 20
125.83263632376649
 30
0.0
 11
46.160256907558562
 21
123.8884502772551
 31
0.0
  0
LINE
  5
5D98
  8
0
 10
35.710256907558119
 20
149.88845027725461
 30
0.0
 11
35.710256907558119
 21
125.83263632376649
 31
0.0
  0
LINE
  5
5D99
  8
0
 10
35.410256907558562
 20
149.88845027725461
 30
0.0
 11
35.410256907558562
 21
119.88845027725471
 31
0.0
  0
LINE
  5
5D9A
  8
0
 10
22.174082698952809
 20
142.8884502772548
 30
0.0
 11
27.07729678250837
 21
142.8884502772548
 31
0.0
  0
ARC
  5
5D9B
  8
0
 10
22.17408269895293
 20
140.88845027725469
 30
0.0
 40
1.9999999999999929
 50
90.0
 51
180.0
  0
ARC
  5
5D9C
  8
0
 10
27.07729678250837
 20
140.88845027725469
 30
0.0
 40
1.9999999999999929
 50
0.0
 51
90.0
  0
LINE
  5
5D9D
  8
0
 10
56.610256907558323
 20
149.88845027725461
 30
0.0
 11
56.610256907558323
 21
125.83263632376649
 31
0.0
  0
LINE
  5
5D9E
  8
0
 10
46.160256907558562
 20
128.888450277255
 30
0.0
 11
56.610256907558323
 21
130.83263632376651
 31
0.0
  0
LINE
  5
5D9F
  8
0
 10
38.410256907558669
 20
116.8884502772548
 30
0.0
 11
53.910256907558562
 21
116.8884502772548
 31
0.0
  0
CIRCLE
  5
5DA0
  8
0
 10
46.160256907558562
 20
125.888450277255
 30
0.0
 40
0.9999999999999966
  0
ARC
  5
5DA1
  8
0
 10
46.160256907558562
 20
122.138450277255
 30
0.0
 40
1.2500000000000231
 50
180.0
 51
0.0
  0
LINE
  5
5DA2
  8
0
 10
46.160256907558562
 20
123.8884502772551
 30
0.0
 11
56.610256907558323
 21
125.83263632376649
 31
0.0
  0
ARC
  5
5DA3
  8
0
 10
38.410256907558669
 20
117.8884502772548
 30
0.0
 40
0.9999999999999966
 50
270.0
 51
0.0
  0
LINE
  5
5DA4
  8
0
 10
39.410256907558562
 20
125.1442642307431
 30
0.0
 11
39.410256907558562
 21
117.8884502772548
 31
0.0
  0
LINE
  5
5DA5
  8
0
 10
38.410256907558669
 20
116.8884502772548
 30
0.0
 11
38.410256907558669
 21
116.8884502772548
 31
0.0
  0
LINE
  5
5DA6
  8
0
 10
44.910256907558392
 20
124.12100841678991
 30
0.0
 11
44.910256907558392
 21
122.138450277255
 31
0.0
  0
LINE
  5
5DA7
  8
0
 10
47.410256907558498
 20
124.12100841678991
 30
0.0
 11
47.410256907558498
 21
122.138450277255
 31
0.0
  0
ARC
  5
5DA8
  8
0
 10
53.910256907558562
 20
117.8884502772551
 30
0.0
 40
0.9999999999999966
 50
180.0
 51
270.0
  0
LINE
  5
5DA9
  8
0
 10
53.910256907558562
 20
116.888450277255
 30
0.0
 11
53.910256907558562
 21
116.8884502772548
 31
0.0
  0
LINE
  5
5DAA
  8
0
 10
52.910256907558392
 20
125.1442642307434
 30
0.0
 11
52.910256907558392
 21
117.8884502772551
 31
0.0
  0
LINE
  5
5DAB
  8
0
 10
46.160256907558562
 20
132.888450277255
 30
0.0
 11
49.160256907558342
 21
138.888450277255
 31
0.0
  0
LINE
  5
5DAC
  8
0
 10
45.410256907558441
 20
147.38845027725489
 30
0.0
 11
46.910256907558498
 21
147.38845027725489
 31
0.0
  0
LINE
  5
5DAD
  8
0
 10
41.910256907558619
 20
145.88845027725489
 30
0.0
 11
37.910256907558498
 21
144.38845027725489
 31
0.0
  0
LINE
  5
5DAE
  8
0
 10
44.910256907558392
 20
144.88845027725489
 30
0.0
 11
44.910256907558392
 21
143.888450277255
 31
0.0
  0
LINE
  5
5DAF
  8
0
 10
45.410256907558441
 20
147.38845027725489
 30
0.0
 11
45.410256907558441
 21
138.888450277255
 31
0.0
  0
LINE
  5
5DB0
  8
0
 10
37.910256907558498
 20
144.38845027725489
 30
0.0
 11
41.910256907558157
 21
142.888450277255
 31
0.0
  0
LINE
  5
5DB1
  8
0
 10
41.910256907558157
 20
143.888450277255
 30
0.0
 11
41.910256907558157
 21
142.888450277255
 31
0.0
  0
LINE
  5
5DB2
  8
0
 10
41.910256907558157
 20
143.888450277255
 30
0.0
 11
44.910256907558392
 21
143.888450277255
 31
0.0
  0
LINE
  5
5DB3
  8
0
 10
43.160256907558619
 20
138.888450277255
 30
0.0
 11
46.160256907558562
 21
132.888450277255
 31
0.0
  0
LINE
  5
5DB4
  8
0
 10
43.160256907558619
 20
138.888450277255
 30
0.0
 11
45.410256907558441
 21
138.888450277255
 31
0.0
  0
LINE
  5
5DB5
  8
0
 10
41.910256907558619
 20
145.88845027725469
 30
0.0
 11
41.910256907558619
 21
144.88845027725489
 31
0.0
  0
LINE
  5
5DB6
  8
0
 10
41.910256907558619
 20
144.88845027725489
 30
0.0
 11
44.910256907558392
 21
144.88845027725489
 31
0.0
  0
LINE
  5
5DB7
  8
0
 10
54.410256907558619
 20
144.38845027725489
 30
0.0
 11
50.410256907558441
 21
145.88845027725469
 31
0.0
  0
LINE
  5
5DB8
  8
0
 10
47.410256907558498
 20
144.88845027725489
 30
0.0
 11
47.410256907558498
 21
143.888450277255
 31
0.0
  0
LINE
  5
5DB9
  8
0
 10
46.910256907558498
 20
147.38845027725489
 30
0.0
 11
46.910256907558498
 21
138.888450277255
 31
0.0
  0
LINE
  5
5DBA
  8
0
 10
50.410256907558441
 20
142.888450277255
 30
0.0
 11
54.410256907558619
 21
144.38845027725489
 31
0.0
  0
LINE
  5
5DBB
  8
0
 10
50.410256907558441
 20
143.888450277255
 30
0.0
 11
50.410256907558441
 21
142.888450277255
 31
0.0
  0
LINE
  5
5DBC
  8
0
 10
47.410256907558498
 20
143.888450277255
 30
0.0
 11
50.410256907558441
 21
143.888450277255
 31
0.0
  0
LINE
  5
5DBD
  8
0
 10
46.910256907558498
 20
138.888450277255
 30
0.0
 11
49.160256907558342
 21
138.888450277255
 31
0.0
  0
LINE
  5
5DBE
  8
0
 10
50.410256907558441
 20
145.88845027725469
 30
0.0
 11
50.410256907558441
 21
144.88845027725489
 31
0.0
  0
LINE
  5
5DBF
  8
0
 10
47.410256907558498
 20
144.88845027725489
 30
0.0
 11
50.410256907558441
 21
144.88845027725489
 31
0.0
  0
LINE
  5
5DC0
  8
0
 10
2.4102569075586748
 20
283.38845027725449
 30
0.0
 11
47.160256907558271
 21
283.38845027725449
 31
0.0
  0
LINE
  5
5DC1
  8
0
 10
1.410256907558846
 20
282.38845027725438
 30
0.0
 11
1.410256907558846
 21
235.38845027725469
 31
0.0
  0
LINE
  5
5DC2
  8
0
 10
5.7419268931704428
 20
279.30219138601598
 30
0.0
 11
4.910256907558618
 21
275.38845027725449
 31
0.0
  0
LINE
  5
5DC3
  8
0
 10
3.9102569075587321
 20
235.38845027725469
 30
0.0
 11
3.9102569075587321
 21
231.38845027725469
 31
0.0
  0
LINE
  5
5DC4
  8
0
 10
1.410256907558846
 20
231.38845027725469
 30
0.0
 11
3.9102569075587321
 21
231.38845027725469
 31
0.0
  0
LINE
  5
5DC5
  8
0
 10
1.410256907558846
 20
235.38845027725469
 30
0.0
 11
3.9102569075587321
 21
235.38845027725469
 31
0.0
  0
LINE
  5
5DC6
  8
0
 10
4.910256907558618
 20
275.38845027725449
 30
0.0
 11
1.410256907558846
 21
275.38845027725449
 31
0.0
  0
ARC
  5
5DC7
  8
0
 10
2.4102569075586748
 20
282.38845027725438
 30
0.0
 40
0.9999999999999966
 50
90.0
 51
180.0
  0
ARC
  5
5DC8
  8
0
 10
6.7200857440882373
 20
279.09433263019588
 30
0.0
 40
0.9999999999999966
 50
90.0
 51
168.0031006920762
  0
ARC
  5
5DC9
  8
0
 10
25.160256907558729
 20
275.38845027725449
 30
0.0
 40
0.9999999999999966
 50
90.0
 51
180.0
  0
LINE
  5
5DCA
  8
0
 10
19.160256907558729
 20
276.38845027725461
 30
0.0
 11
19.160256907558729
 21
242.38845027725461
 31
0.0
  0
LINE
  5
5DCB
  8
0
 10
24.160256907558729
 20
275.38845027725449
 30
0.0
 11
24.160256907558729
 21
242.38845027725461
 31
0.0
  0
LINE
  5
5DCC
  8
0
 10
187.5961270555681
 20
149.88845027725461
 30
0.0
 11
187.5961270555681
 21
65.402889330426703
 31
0.0
  0
LINE
  5
5DCD
  8
0
 10
76.910256907558392
 20
149.88845027725461
 30
0.0
 11
76.910256907558392
 21
65.402889330426873
 31
0.0
  0
LINE
  5
5DD0
  8
0
 10
201.26316693051771
 20
75.845787313786332
 30
0.0
 11
201.26316693051771
 21
140.88845027725469
 31
0.0
  0
LINE
  5
5DD1
  8
0
 10
192.3599528469623
 20
75.802663839628053
 30
0.0
 11
192.35995284696261
 21
140.88845027725469
 31
0.0
  0
LINE
  5
5DD2
  8
CENTER
 10
218.3461270555681
 20
288.38845027725449
 30
0.0
 11
218.3461270555681
 21
32.388450277255401
 31
0.0
  0
LINE
  5
5DD3
  8
0
 10
72.14643111616391
 20
75.802663839628252
 30
0.0
 11
72.14643111616391
 21
140.88845027725469
 31
0.0
  0
LINE
  5
5DD4
  8
0
 10
63.661149741925207
 20
75.802663839628252
 30
0.0
 11
63.661149741925207
 21
140.88845027725469
 31
0.0
  0
ARC
  5
5DD6
  8
0
 10
69.910256907558335
 20
65.402889330426873
 30
0.0
 40
6.999999999999976
 50
294.36245301531233
 51
0.0
  0
LINE
  5
5DD7
  8
0
 10
64.643471167607856
 20
55.33367937614571
 30
0.0
 11
72.797809780714715
 21
59.026210068873411
 31
0.0
  0
ARC
  5
5DD8
  8
0
 10
62.580933401067909
 20
59.888450277255281
 30
0.0
 40
4.9999999999999822
 50
270.0
 51
294.36245301531221
  0
ARC
  5
5DD9
  8
0
 10
67.903790429044463
 20
75.009770620814777
 30
0.0
 40
1.9999999999999929
 50
250.52877936551039
 51
289.47122063449132
  0
ARC
  5
5DDA
  8
0
 10
65.661149741925328
 20
75.802663839628252
 30
0.0
 40
1.9999999999999929
 50
180.0
 51
250.52877936551039
  0
LINE
  5
5DDB
  8
0
 10
64.994483075258756
 20
73.917045756464063
 30
0.0
 11
67.237123762377792
 21
73.124152537650531
 31
0.0
  0
ARC
  5
5DDC
  8
0
 10
70.146431116163853
 20
75.802663839628252
 30
0.0
 40
1.9999999999999929
 50
289.4712206344895
 51
0.0
  0
LINE
  5
5DDD
  8
0
 10
68.570457095711333
 20
73.12415253765073
 30
0.0
 11
70.813097782830368
 21
73.917045756464063
 31
0.0
  0
LINE
  5
5DE1
  8
0
 10
221.34612705556799
 20
41.888450277255338
 30
0.0
 11
221.34612705556799
 21
47.888450277255338
 31
0.0
  0
LINE
  5
5DE2
  8
0
 10
215.3461270555681
 20
47.888450277255338
 30
0.0
 11
215.3461270555681
 21
41.888450277255338
 31
0.0
  0
LINE
  5
5DE3
  8
0
 10
221.34612705556799
 20
47.888450277255338
 30
0.0
 11
221.34612705556799
 21
41.888450277255338
 31
0.0
  0
LINE
  5
5DE4
  8
0
 10
215.3461270555681
 20
47.888450277255338
 30
0.0
 11
215.3461270555681
 21
41.888450277255338
 31
0.0
  0
LINE
  5
5DE5
  8
0
 10
215.84612705556819
 20
37.388450277255338
 30
0.0
 11
220.84612705556799
 21
37.388450277255338
 31
0.0
  0
LINE
  5
5DE6
  8
0
 10
215.84612705556759
 20
37.388450277255338
 30
0.0
 11
220.84612705556799
 21
37.388450277255338
 31
0.0
  0
LINE
  5
5DE7
  8
0
 10
215.3461270555681
 20
38.888450277255401
 30
0.0
 11
221.34612705556799
 21
38.888450277255401
 31
0.0
  0
LINE
  5
5DE8
  8
0
 10
215.3461270555681
 20
40.388450277255338
 30
0.0
 11
221.34612705556799
 21
40.388450277255338
 31
0.0
  0
LINE
  5
5DE9
  8
0
 10
215.3461270555681
 20
41.888450277255338
 30
0.0
 11
221.34612705556799
 21
41.888450277255338
 31
0.0
  0
LINE
  5
5DEA
  8
0
 10
215.3461270555681
 20
38.888450277255401
 30
0.0
 11
215.84612705556819
 21
37.388450277255338
 31
0.0
  0
LINE
  5
5DEB
  8
0
 10
215.84612705556819
 20
38.888450277255401
 30
0.0
 11
215.3461270555681
 21
38.888450277255401
 31
0.0
  0
LINE
  5
5DEC
  8
0
 10
215.3461270555681
 20
40.388450277255338
 30
0.0
 11
215.84612705556819
 21
38.888450277255401
 31
0.0
  0
LINE
  5
5DED
  8
0
 10
215.84612705556819
 20
40.388450277255338
 30
0.0
 11
215.3461270555681
 21
40.388450277255338
 31
0.0
  0
LINE
  5
5DEE
  8
0
 10
215.3461270555681
 20
41.888450277255338
 30
0.0
 11
215.84612705556819
 21
40.388450277255338
 31
0.0
  0
LINE
  5
5DEF
  8
0
 10
215.3461270555681
 20
41.888450277255338
 30
0.0
 11
215.84612705556819
 21
40.388450277255338
 31
0.0
  0
LINE
  5
5DF0
  8
0
 10
215.84612705556819
 20
37.388450277255338
 30
0.0
 11
215.3461270555681
 21
38.888450277255401
 31
0.0
  0
LINE
  5
5DF1
  8
0
 10
215.84612705556819
 20
38.888450277255401
 30
0.0
 11
215.3461270555681
 21
40.388450277255338
 31
0.0
  0
LINE
  5
5DF2
  8
0
 10
220.84612705556799
 20
40.388450277255338
 30
0.0
 11
221.34612705556799
 21
41.888450277255338
 31
0.0
  0
LINE
  5
5DF3
  8
0
 10
221.34612705556799
 20
40.388450277255338
 30
0.0
 11
220.84612705556799
 21
40.388450277255338
 31
0.0
  0
LINE
  5
5DF4
  8
0
 10
220.84612705556799
 20
38.888450277255401
 30
0.0
 11
221.34612705556799
 21
40.388450277255338
 31
0.0
  0
LINE
  5
5DF5
  8
0
 10
221.34612705556799
 20
38.888450277255401
 30
0.0
 11
220.84612705556799
 21
38.888450277255401
 31
0.0
  0
LINE
  5
5DF6
  8
0
 10
220.84612705556799
 20
37.388450277255338
 30
0.0
 11
221.34612705556799
 21
38.888450277255401
 31
0.0
  0
LINE
  5
5DF7
  8
0
 10
220.84612705556799
 20
40.388450277255338
 30
0.0
 11
221.34612705556799
 21
41.888450277255338
 31
0.0
  0
LINE
  5
5DF8
  8
0
 10
220.84612705556799
 20
37.388450277255338
 30
0.0
 11
221.34612705556799
 21
38.888450277255401
 31
0.0
  0
LINE
  5
5DF9
  8
0
 10
220.84612705556799
 20
38.888450277255401
 30
0.0
 11
221.34612705556799
 21
40.388450277255338
 31
0.0
  0
LINE
  5
5DFA
  8
0
 10
201.9254505620587
 20
54.888450277255281
 30
0.0
 11
207.84612705556791
 21
54.888450277255281
 31
0.0
  0
LINE
  5
5DFB
  8
0
 10
191.70857418241189
 20
59.02621006887307
 30
0.0
 11
199.86291279551861
 21
55.333679376145653
 31
0.0
  0
ARC
  5
5DFC
  8
0
 10
194.5961270555681
 20
65.402889330426703
 30
0.0
 40
6.999999999999976
 50
180.0
 51
245.6375469846879
  0
ARC
  5
5DFD
  8
0
 10
201.9254505620587
 20
59.888450277255281
 30
0.0
 40
4.9999999999999822
 50
245.6375469846877
 51
270.0
  0
ARC
  5
5DFE
  8
0
 10
194.3599528469623
 20
75.802663839628053
 30
0.0
 40
1.9999999999999929
 50
180.0
 51
250.52877936551039
  0
LINE
  5
5DFF
  8
0
 10
197.24537196550591
 20
73.095327750287595
 30
0.0
 11
199.87591038768511
 21
73.941963410244171
 31
0.0
  0
ARC
  5
5E00
  8
0
 10
196.63262850833891
 20
74.999151653829756
 30
0.0
 40
1.9999999999999929
 50
250.52877936551221
 51
287.84070942796859
  0
LINE
  5
5E01
  8
0
 10
193.69328618029601
 20
73.917045756464063
 30
0.0
 11
195.965961841672
 21
73.113533570665709
 31
0.0
  0
ARC
  5
5E02
  8
0
 10
199.26316693051811
 20
75.845787313786332
 30
0.0
 40
1.9999999999999929
 50
287.8407094279703
 51
0.0
  0
LINE
  5
5E03
  8
0
 10
212.00638109341219
 20
48.388450277255338
 30
0.0
 11
213.8461270555681
 21
48.388450277255338
 31
0.0
  0
ARC
  5
5E04
  8
0
 10
214.59612705556799
 20
71.975950277256061
 30
0.0
 40
23.587500000000741
 50
260.85215748019863
 51
279.14784251980132
  0
ARC
  5
5E05
  8
0
 10
214.59612705556799
 20
26.800950277254572
 30
0.0
 40
23.587500000000741
 50
80.852157480198613
 51
99.147842519801372
  0
LINE
  5
5E06
  8
0
 10
210.8461270555681
 20
48.688450277255349
 30
0.0
 11
212.00638109341219
 21
48.388450277255338
 31
0.0
  0
LINE
  5
5E07
  8
0
 10
210.84612705556859
 20
50.088450277255447
 30
0.0
 11
210.8461270555681
 21
48.688450277255349
 31
0.0
  0
LINE
  5
5E08
  8
0
 10
212.0063810934127
 20
50.388450277255281
 30
0.0
 11
210.84612705556859
 21
50.088450277255447
 31
0.0
  0
LINE
  5
5E09
  8
0
 10
207.84612705556791
 20
50.388450277255281
 30
0.0
 11
212.0063810934127
 21
50.388450277255281
 31
0.0
  0
LINE
  5
5E0A
  8
0
 10
207.84612705556791
 20
54.888450277255281
 30
0.0
 11
207.84612705556791
 21
50.388450277255281
 31
0.0
  0
LINE
  5
5E0B
  8
0
 10
210.8461270555681
 20
48.688450277255242
 30
0.0
 11
210.8461270555681
 21
50.088450277255269
 31
0.0
  0
LINE
  5
5E0C
  8
0
 10
212.00638109341219
 20
48.388450277255338
 30
0.0
 11
210.8461270555681
 21
48.688450277255349
 31
0.0
  0
LINE
  5
5E0D
  8
0
 10
212.0063810934127
 20
50.388450277255281
 30
0.0
 11
210.8461270555681
 21
50.088450277255269
 31
0.0
  0
LINE
  5
5E0E
  8
0
 10
207.84612705556791
 20
54.888450277255281
 30
0.0
 11
207.84612705556791
 21
50.388450277255281
 31
0.0
  0
LINE
  5
5E0F
  8
0
 10
213.8461270555681
 20
47.888450277255338
 30
0.0
 11
222.8461270555681
 21
47.888450277255338
 31
0.0
  0
LINE
  5
5E10
  8
0
 10
213.8461270555681
 20
47.888450277255338
 30
0.0
 11
215.3461270555681
 21
47.888450277255338
 31
0.0
  0
LINE
  5
5E11
  8
0
 10
213.8461270555681
 20
48.388450277255338
 30
0.0
 11
213.8461270555681
 21
47.888450277255338
 31
0.0
  0
LINE
  5
5E12
  8
0
 10
213.8461270555681
 20
48.388450277255338
 30
0.0
 11
213.8461270555681
 21
47.888450277255338
 31
0.0
  0
LINE
  5
5E13
  8
0
 10
222.8461270555681
 20
47.888450277255338
 30
0.0
 11
222.84612705556779
 21
48.388450277255288
 31
0.0
  0
LINE
  5
5E14
  8
0
 10
221.34612705556799
 20
47.888450277255338
 30
0.0
 11
222.8461270555681
 21
47.888450277255338
 31
0.0
  0
LINE
  5
5E15
  8
0
 10
222.84612705556779
 20
48.388450277255338
 30
0.0
 11
222.8461270555681
 21
47.888450277255338
 31
0.0
  0
LINE
  5
5E16
  8
DIM
 10
171.7642794349473
 20
306.7555237620993
 30
0.0
 11
133.30121260471179
 21
306.7555237620993
 31
0.0
  0
TEXT
  5
5E1B
  8
DIM
 10
136.4547556254237
 20
310.92219042876599
 30
0.0
 40
4.9999999999999822
  1
2-PT 1
  7
CHINESET
  0
LINE
  5
5E1C
  8
0
 10
90.910256907558605
 20
231.38845027725469
 30
0.0
 11
90.910256907558605
 21
213.38845027725461
 31
0.0
  0
LINE
  5
5E1D
  8
0
 10
81.160256907558335
 20
242.38845027725461
 30
0.0
 11
81.160256907558335
 21
212.38845027725469
 31
0.0
  0
LINE
  5
5E1E
  8
0
 10
87.410256907558278
 20
275.38845027725449
 30
0.0
 11
87.410256907558278
 21
212.38845027725469
 31
0.0
  0
LINE
  5
5E1F
  8
0
 10
85.910256907558562
 20
212.38845027725469
 30
0.0
 11
83.660175881922825
 21
152.8863075993398
 31
0.0
  0
LINE
  5
5E20
  8
0
 10
56.910256907558498
 20
149.88845027725461
 30
0.0
 11
56.910256907558498
 21
119.88845027725471
 31
0.0
  0
LINE
  5
5E21
  8
0
 10
65.661149741925328
 20
142.8884502772548
 30
0.0
 11
70.146431116163853
 21
142.8884502772548
 31
0.0
  0
ARC
  5
5E22
  8
0
 10
65.661149741925328
 20
140.88845027725469
 30
0.0
 40
1.9999999999999929
 50
90.0
 51
180.0
  0
ARC
  5
5E23
  8
0
 10
70.146431116163853
 20
140.88845027725469
 30
0.0
 40
1.9999999999999929
 50
0.0
 51
90.0
  0
LINE
  5
5E24
  8
0
 10
80.546811529407023
 20
149.88845027725489
 30
0.0
 11
83.660175881922825
 21
152.8863075993398
 31
0.0
  0
ARC
  5
5E25
  8
0
 10
89.910256907558377
 20
213.38845027725461
 30
0.0
 40
0.9999999999999966
 50
270.0
 51
0.0
  0
LINE
  5
5E27
  8
0
 10
90.910256907558605
 20
282.38845027725472
 30
0.0
 11
90.910256907558605
 21
235.38845027725469
 31
0.0
  0
ARC
  5
5E28
  8
0
 10
67.160256907558619
 20
275.38845027725478
 30
0.0
 40
0.9999999999999966
 50
359.99999999999972
 51
90.0
  0
LINE
  5
5E29
  8
0
 10
86.578586921946567
 20
279.30219138601581
 30
0.0
 11
87.410256907558278
 21
275.38845027725449
 31
0.0
  0
LINE
  5
5E2A
  8
0
 10
73.160256907558505
 20
276.38845027725489
 30
0.0
 11
73.160256907558505
 21
242.38845027725461
 31
0.0
  0
LINE
  5
5E2B
  8
0
 10
68.160256907558505
 20
275.38845027725478
 30
0.0
 11
68.160256907558505
 21
242.38845027725461
 31
0.0
  0
LINE
  5
5E2C
  8
0
 10
88.410256907558505
 20
235.38845027725469
 30
0.0
 11
88.410256907558505
 21
231.38845027725469
 31
0.0
  0
LINE
  5
5E2D
  8
0
 10
88.410256907558505
 20
231.38845027725469
 30
0.0
 11
90.910256907558605
 21
231.38845027725469
 31
0.0
  0
LINE
  5
5E2E
  8
0
 10
88.410256907558505
 20
235.38845027725469
 30
0.0
 11
90.910256907558605
 21
235.38845027725469
 31
0.0
  0
LINE
  5
5E2F
  8
0
 10
90.910256907558605
 20
275.38845027725449
 30
0.0
 11
87.410256907558278
 21
275.38845027725449
 31
0.0
  0
LINE
  5
5E30
  8
0
 10
73.160256907558505
 20
283.38845027725472
 30
0.0
 11
89.910256907558377
 21
283.38845027725472
 31
0.0
  0
ARC
  5
5E31
  8
0
 10
85.600428071028546
 20
279.09433263019559
 30
0.0
 40
0.9999999999999966
 50
11.996899307924171
 51
90.0
  0
ARC
  5
5E32
  8
0
 10
89.910256907558377
 20
282.38845027725472
 30
0.0
 40
0.9999999999999966
 50
0.0
 51
90.0
  0
LINE
  5
5E36
  8
0
 10
173.5961270555683
 20
241.38845027725469
 30
0.0
 11
173.5961270555683
 21
213.38845027725461
 31
0.0
  0
LINE
  5
5E37
  8
0
 10
191.3461270555681
 20
274.95637762667468
 30
0.0
 11
191.3461270555681
 21
213.38845027725461
 31
0.0
  0
LINE
  5
5E38
  8
0
 10
180.0961270555681
 20
130.83263632376651
 30
0.0
 11
184.09612705556819
 21
130.83263632376651
 31
0.0
  0
LINE
  5
5E39
  8
0
 10
180.0961270555681
 20
125.83263632376649
 30
0.0
 11
187.5961270555681
 21
125.83263632376649
 31
0.0
  0
LINE
  5
5E3A
  8
0
 10
180.0961270555681
 20
123.8884502772551
 30
0.0
 11
187.5961270555681
 21
123.8884502772551
 31
0.0
  0
LINE
  5
5E3B
  8
0
 10
183.9595724337193
 20
149.88845027725489
 30
0.0
 11
180.8462080812036
 21
152.8863075993398
 31
0.0
  0
LINE
  5
5E3C
  8
0
 10
178.59612705556839
 20
212.38845027725469
 30
0.0
 11
180.8462080812036
 21
152.8863075993398
 31
0.0
  0
LINE
  5
5E3D
  8
0
 10
180.0961270555681
 20
130.83263632376651
 30
0.0
 11
180.0961270555681
 21
123.8884502772551
 31
0.0
  0
LINE
  5
5E3E
  8
0
 10
174.59612705556819
 20
212.38845027725469
 30
0.0
 11
178.59612705556839
 21
212.38845027725469
 31
0.0
  0
LINE
  5
5E3F
  8
0
 10
173.5961270555683
 20
213.38845027725461
 30
0.0
 11
174.59612705556819
 21
212.38845027725469
 31
0.0
  0
ARC
  5
5E40
  8
0
 10
174.59612705556819
 20
213.38845027725461
 30
0.0
 40
0.9999999999999966
 50
180.0
 51
270.0
  0
ARC
  5
5E41
  8
0
 10
187.5961270555681
 20
117.8884502772548
 30
0.0
 40
0.9999999999999966
 50
180.0
 51
270.0
  0
LINE
  5
5E42
  8
0
 10
186.5961270555683
 20
123.8884502772551
 30
0.0
 11
186.5961270555683
 21
117.8884502772548
 31
0.0
  0
LINE
  5
5E43
  8
0
 10
187.5961270555681
 20
116.8884502772548
 30
0.0
 11
187.5961270555681
 21
116.8884502772548
 31
0.0
  0
ARC
  5
5E44
  8
0
 10
194.3599528469623
 20
140.88845027725469
 30
0.0
 40
1.9999999999999929
 50
90.0
 51
180.0
  0
LINE
  5
5E45
  8
0
 10
184.09612705556819
 20
149.88845027725461
 30
0.0
 11
184.09612705556819
 21
130.83263632376651
 31
0.0
  0
LINE
  5
5E46
  8
0
 10
194.3599528469623
 20
142.8884502772548
 30
0.0
 11
199.26316693051811
 21
142.8884502772548
 31
0.0
  0
ARC
  5
5E47
  8
0
 10
199.26316693051811
 20
140.88845027725469
 30
0.0
 40
1.9999999999999929
 50
0.0
 51
90.0
  0
ARC
  5
5E48
  8
0
 10
192.3461270555683
 20
213.38845027725461
 30
0.0
 40
0.9999999999999966
 50
180.0
 51
270.0
  0
POLYLINE
  8
0
  5
603B
  66
     1
 10
0.000000
 20
0.000000
 30
0.000000
  70
     8
  0
VERTEX
  8
0
  5
603C
 10
206.251
 20
270.794
 30
0.000000
  70
    32
  0
VERTEX
  8
0
  5
603D
 10
171.764
 20
306.756
 30
0.000000
  70
    32
  0
SEQEND
  8
0
  5
603E
  0
ARC
  5
5E4A
  8
0
 10
182.34612705556791
 20
275.388450277255
 30
0.0
 40
0.9999999999999966
 50
90.0
 51
180.0
  0
LINE
  5
5E4B
  8
0
 10
174.59612705556819
 20
242.38845027725461
 30
0.0
 11
191.3461270555681
 21
242.38845027725461
 31
0.0
  0
LINE
  5
5E4F
  8
0
 10
181.3461270555681
 20
275.388450277255
 30
0.0
 11
181.3461270555681
 21
242.38845027725461
 31
0.0
  0
LINE
  5
5E50
  8
0
 10
181.3461270555681
 20
242.38845027725461
 30
0.0
 11
174.59612705556819
 21
242.38845027725461
 31
0.0
  0
LINE
  5
5E51
  8
0
 10
174.59612705556819
 20
242.38845027725461
 30
0.0
 11
173.5961270555683
 21
241.38845027725469
 31
0.0
  0
ARC
  5
5E52
  8
0
 10
174.59612705556819
 20
241.38845027725469
 30
0.0
 40
0.9999999999999966
 50
90.0
 51
180.0
  0
LINE
  5
5E54
  8
0
 10
199.55733954780399
 20
283.1166502699474
 30
0.0
 11
191.6607623565632
 21
275.68457761936742
 31
0.0
  0
ARC
  5
5E55
  8
0
 10
192.3461270555683
 20
274.95637762667468
 30
0.0
 40
0.9999999999999966
 50
133.26429541107171
 51
180.0
  0
LINE
  5
5E56
  8
0
 10
182.34612705556791
 20
276.38845027725489
 30
0.0
 11
192.4086270555685
 21
276.38845027725489
 31
0.0
  0
ARC
  5
5E57
  8
0
 10
200.2427042468091
 20
282.38845027725438
 30
0.0
 40
0.9999999999999966
 50
90.0
 51
133.26429541107191
  0
LINE
  5
5E58
  8
DIM
 10
4.2259484434787851
 20
379.93204570500222
 30
0.0
 11
19.82910091489088
 21
379.93204570500222
 31
0.0
  0
LINE
  5
5E59
  8
DIM
  6
PHANTOM
 10
11.25350122125672
 20
398.82093459389102
 30
0.0
 11
47.15210391595803
 21
398.82093459389102
 31
0.0
  0
LINE
  5
5E5A
  8
DIM
  6
PHANTOM
 10
11.25350122125672
 20
361.04315681611331
 30
0.0
 11
47.15210391595803
 21
361.04315681611331
 31
0.0
  0
LINE
  5
5E5B
  8
DIM
  6
PHANTOM
 10
11.25350122125672
 20
361.04315681611331
 30
0.0
 11
11.25350122125672
 21
398.82093459389102
 31
0.0
  0
LINE
  5
5E5C
  8
DIM
  6
PHANTOM
 10
47.15210391595803
 20
361.04315681611331
 30
0.0
 11
47.15210391595803
 21
398.82093459389102
 31
0.0
  0
LINE
  5
5E5D
  8
DIM
 10
28.31595369266887
 20
388.41889848277998
 30
0.0
 11
36.802806470446448
 21
379.93204570500222
 31
0.0
  0
LINE
  5
5E5E
  8
DIM
 10
28.31595369266887
 20
371.4451929272243
 30
0.0
 11
36.802806470446448
 21
379.93204570500222
 31
0.0
  0
LINE
  5
5E5F
  8
DIM
 10
28.31595369266887
 20
388.41889848277998
 30
0.0
 11
19.82910091489088
 21
379.93204570500222
 31
0.0
  0
LINE
  5
5E60
  8
DIM
 10
28.31595369266887
 20
371.4451929272243
 30
0.0
 11
19.82910091489088
 21
379.93204570500222
 31
0.0
  0
LINE
  5
5E61
  8
DIM
 10
25.42634813711333
 20
374.33479848278
 30
0.0
 11
31.2055592482244
 21
374.33479848278
 31
0.0
  0
LINE
  5
5E62
  8
DIM
 10
28.31595369266887
 20
371.4451929272243
 30
0.0
 11
28.31595369266887
 21
367.92320681611341
 31
0.0
  0
LINE
  5
5E63
  8
DIM
  6
HIDDEN
 10
28.31595369266887
 20
388.41889848277998
 30
0.0
 11
28.31595369266887
 21
377.98127626055771
 31
0.0
  0
LINE
  5
5E64
  8
DIM
 10
36.802806470446448
 20
379.93204570500222
 30
0.0
 11
55.561366046082121
 21
379.93204570500222
 31
0.0
  0
LINE
  5
5E66
  8
CENTER
 10
174.8461270555683
 20
414.48518802093912
 30
0.0
 11
186.84612705556839
 21
414.48518802093912
 31
0.0
  0
CIRCLE
  5
5E67
  8
0
 10
180.8461270555685
 20
414.48518802093901
 30
0.0
 40
2.7499999999999898
  0
ARC
  5
5E68
  8
0
 10
184.3461270555685
 20
404.32291036077072
 30
0.0
 40
2.9999999999999889
 50
108.43494882292249
 51
180.0
  0
LINE
  5
5E69
  8
0
 10
176.93550145844881
 20
420.66102407829129
 30
0.0
 11
191.3461270555681
 21
425.73518802093912
 31
0.0
  0
LINE
  5
5E6A
  8
CENTER
 10
174.8461270555683
 20
354.4851880209394
 30
0.0
 11
186.84612705556839
 21
354.4851880209394
 31
0.0
  0
CIRCLE
  5
5E6B
  8
0
 10
180.8461270555685
 20
354.48518802093912
 30
0.0
 40
2.7499999999999898
  0
ARC
  5
5E6C
  8
0
 10
184.3461270555685
 20
364.64746568110752
 30
0.0
 40
2.9999999999999889
 50
180.0
 51
251.56505117707891
  0
LINE
  5
5E6D
  8
0
 10
176.93550145844881
 20
348.30935196358712
 30
0.0
 11
191.3461270555681
 21
343.2351880209394
 31
0.0
  0
LINE
  5
5E70
  8
0
 10
181.3461270555681
 20
404.32291036077072
 30
0.0
 11
181.3461270555681
 21
364.64746568110752
 31
0.0
  0
LINE
  5
5E71
  8
0
 10
173.59612705556799
 20
415.94484738247201
 30
0.0
 11
173.5961270555683
 21
353.0255286594064
 31
0.0
  0
LINE
  5
5E75
  8
CENTER
 10
180.84612705556819
 20
360.48518802093912
 30
0.0
 11
180.84612705556819
 21
348.48518802093918
 31
0.0
  0
ARC
  5
5E76
  8
0
 10
178.59612705556839
 20
353.02552865940629
 30
0.0
 40
4.9999999999999822
 50
180.0
 51
250.6021875514412
  0
ARC
  5
5E78
  8
0
 10
178.59612705556839
 20
415.94484738247178
 30
0.0
 40
4.9999999999999822
 50
109.3978124485571
 51
180.0
  0
LINE
  5
5E79
  8
CENTER
 10
180.84612705556819
 20
420.48518802093889
 30
0.0
 11
180.84612705556819
 21
408.48518802093901
 31
0.0
  0
LINE
  5
5E7B
  8
CENTER
 10
218.3461270555681
 20
434.23518802093889
 30
0.0
 11
218.3461270555681
 21
334.73518802093912
 31
0.0
  0
LINE
  5
5E7C
  8
0
 10
196.3461270555681
 20
424.73518802093901
 30
0.0
 11
196.3461270555681
 21
357.48518802093929
 31
0.0
  0
LINE
  5
5E7D
  8
0
 10
199.84612705556819
 20
429.23518802093889
 30
0.0
 11
199.84612705556819
 21
339.73518802093918
 31
0.0
  0
LINE
  5
5E7E
  8
0
 10
183.397443757518
 20
361.80141578695628
 30
0.0
 11
196.3461270555681
 21
357.48518802093929
 31
0.0
  0
LINE
  5
5E7F
  8
0
 10
191.3461270555681
 20
343.2351880209394
 30
0.0
 11
196.3461270555681
 21
344.23518802093918
 31
0.0
  0
LINE
  5
5E80
  8
0
 10
191.3461270555681
 20
343.2351880209394
 30
0.0
 11
191.3461270555681
 21
339.73518802093918
 31
0.0
  0
LINE
  5
5E81
  8
0
 10
196.3461270555681
 20
357.48518802093929
 30
0.0
 11
196.3461270555681
 21
344.23518802093918
 31
0.0
  0
LINE
  5
5E82
  8
0
 10
212.34612705556819
 20
352.23518802093901
 30
0.0
 11
212.34612705556819
 21
344.23518802093918
 31
0.0
  0
LINE
  5
5E83
  8
0
 10
196.3461270555681
 20
411.48518802093901
 30
0.0
 11
183.39744375751761
 21
407.1689602549223
 31
0.0
  0
LINE
  5
5E84
  8
0
 10
191.3461270555681
 20
425.73518802093912
 30
0.0
 11
196.3461270555681
 21
424.73518802093901
 31
0.0
  0
LINE
  5
5E85
  8
0
 10
191.3461270555681
 20
429.23518802093889
 30
0.0
 11
191.3461270555681
 21
425.73518802093912
 31
0.0
  0
LINE
  5
5E86
  8
0
 10
222.19652685553609
 20
423.45468764587912
 30
0.0
 11
218.43436234968561
 21
416.40062919740973
 31
0.0
  0
LINE
  5
5E87
  8
0
 10
218.25789176145051
 20
416.40062919740973
 30
0.0
 11
214.4957272556004
 21
423.45468764587889
 31
0.0
  0
ARC
  5
5E88
  8
0
 10
218.3461270555681
 20
416.44768802093898
 30
0.0
 40
0.0999999999999997
 50
208.0724869358535
 51
331.92751306414732
  0
ARC
  5
5E89
  8
0
 10
218.3461270555681
 20
431.23518802093878
 30
0.0
 40
8.5000000000000124
 50
244.05800587410491
 51
295.9419941258983
  0
ARC
  5
5E8A
  8
0
 10
214.583962549718
 20
423.5017464694082
 30
0.0
 40
0.0999999999999997
 50
64.058005874088494
 51
208.07248693582719
  0
ARC
  5
5E8B
  8
0
 10
222.1082915614185
 20
423.5017464694082
 30
0.0
 40
0.0999999999999997
 50
331.92751306411122
 51
115.9419941259149
  0
LINE
  5
5E8C
  8
0
 10
249.0961270555681
 20
149.88845027725461
 30
0.0
 11
249.0961270555681
 21
65.402889330426873
 31
0.0
  0
LINE
  5
5E8D
  8
0
 10
244.33230126417359
 20
75.802663839628252
 30
0.0
 11
244.33230126417359
 21
140.88845027725469
 31
0.0
  0
LINE
  5
5E8E
  8
0
 10
235.84701988993481
 20
75.802663839628252
 30
0.0
 11
235.84701988993481
 21
140.88845027725469
 31
0.0
  0
LINE
  5
5E8F
  8
0
 10
236.82934131561751
 20
55.33367937614571
 30
0.0
 11
244.98367992872431
 21
59.026210068873411
 31
0.0
  0
ARC
  5
5E90
  8
0
 10
242.33230126417351
 20
75.802663839628252
 30
0.0
 40
1.9999999999999929
 50
289.4712206344895
 51
0.0
  0
LINE
  5
5E91
  8
0
 10
228.84612705556799
 20
54.888450277255281
 30
0.0
 11
234.76680354907739
 21
54.888450277255281
 31
0.0
  0
LINE
  5
5E92
  8
0
 10
224.6858730177234
 20
50.388450277255281
 30
0.0
 11
228.84612705556799
 21
50.388450277255281
 31
0.0
  0
LINE
  5
5E93
  8
0
 10
225.8461270555681
 20
50.088450277255269
 30
0.0
 11
224.6858730177234
 21
50.388450277255281
 31
0.0
  0
LINE
  5
5E94
  8
0
 10
225.84612705556791
 20
48.688450277255299
 30
0.0
 11
225.8461270555681
 21
50.088450277255269
 31
0.0
  0
LINE
  5
5E95
  8
0
 10
224.68587301772359
 20
48.388450277255231
 30
0.0
 11
225.84612705556791
 21
48.688450277255299
 31
0.0
  0
LINE
  5
5E96
  8
0
 10
225.8461270555681
 20
48.688450277255349
 30
0.0
 11
225.8461270555681
 21
50.088450277255269
 31
0.0
  0
LINE
  5
5E97
  8
0
 10
224.68587301772391
 20
48.388450277255338
 30
0.0
 11
225.8461270555681
 21
48.688450277255349
 31
0.0
  0
LINE
  5
5E98
  8
0
 10
224.6858730177234
 20
50.388450277255281
 30
0.0
 11
225.8461270555681
 21
50.088450277255269
 31
0.0
  0
LINE
  5
5E99
  8
0
 10
228.84612705556799
 20
50.388450277255281
 30
0.0
 11
228.84612705556799
 21
54.888450277255281
 31
0.0
  0
LINE
  5
5E9A
  8
0
 10
228.84612705556799
 20
54.888450277255281
 30
0.0
 11
228.84612705556799
 21
50.388450277255281
 31
0.0
  0
ARC
  5
5E9B
  8
0
 10
234.76680354907739
 20
59.888450277255281
 30
0.0
 40
4.9999999999999822
 50
270.0
 51
294.36245301531221
  0
LINE
  5
5E9C
  8
0
 10
237.18035322326841
 20
73.917045756464063
 30
0.0
 11
239.42299391038731
 21
73.124152537650531
 31
0.0
  0
ARC
  5
5E9D
  8
0
 10
237.84701988993481
 20
75.802663839628252
 30
0.0
 40
1.9999999999999929
 50
180.0
 51
250.52877936551039
  0
LINE
  5
5E9E
  8
0
 10
240.75632724372099
 20
73.12415253765073
 30
0.0
 11
242.99896793083991
 21
73.917045756464063
 31
0.0
  0
ARC
  5
5E9F
  8
0
 10
240.08966057705419
 20
75.009770620814777
 30
0.0
 40
1.9999999999999929
 50
250.52877936551039
 51
289.47122063449132
  0
ARC
  5
5EA0
  8
0
 10
242.09612705556799
 20
65.402889330426873
 30
0.0
 40
6.999999999999976
 50
294.36245301531233
 51
0.0
  0
LINE
  5
5EA1
  8
0
 10
263.09612705556782
 20
241.38845027725469
 30
0.0
 11
263.09612705556782
 21
213.38845027725461
 31
0.0
  0
LINE
  5
5EA2
  8
0
 10
245.34612705556771
 20
274.95637762667468
 30
0.0
 11
245.34612705556771
 21
213.38845027725461
 31
0.0
  0
LINE
  5
5EA3
  8
0
 10
258.09612705556788
 20
212.38845027725469
 30
0.0
 11
255.8460460299325
 21
152.8863075993398
 31
0.0
  0
ARC
  5
5EA4
  8
0
 10
242.33230126417351
 20
140.88845027725469
 30
0.0
 40
1.9999999999999929
 50
0.0
 51
90.0
  0
LINE
  5
5EA5
  8
0
 10
237.84701988993481
 20
142.8884502772548
 30
0.0
 11
242.33230126417351
 21
142.8884502772548
 31
0.0
  0
ARC
  5
5EA6
  8
0
 10
237.84701988993481
 20
140.88845027725469
 30
0.0
 40
1.9999999999999929
 50
90.0
 51
180.0
  0
LINE
  5
5EA7
  8
0
 10
252.73268167741659
 20
149.88845027725489
 30
0.0
 11
255.8460460299325
 21
152.8863075993398
 31
0.0
  0
ARC
  5
5EA8
  8
0
 10
244.34612705556791
 20
213.38845027725461
 30
0.0
 40
0.9999999999999966
 50
270.0
 51
0.0
  0
LINE
  5
5EA9
  8
0
 10
262.09612705556788
 20
212.38845027725469
 30
0.0
 11
258.09612705556788
 21
212.38845027725469
 31
0.0
  0
LINE
  5
5EAA
  8
0
 10
263.09612705556782
 20
213.38845027725461
 30
0.0
 11
262.09612705556788
 21
212.38845027725469
 31
0.0
  0
ARC
  5
5EAB
  8
0
 10
262.09612705556788
 20
213.38845027725461
 30
0.0
 40
0.9999999999999966
 50
270.0
 51
0.0
  0
LINE
  5
5EAC
  8
0
 10
237.13491456333139
 20
283.1166502699474
 30
0.0
 11
245.0314917545729
 21
275.68457761936747
 31
0.0
  0
ARC
  5
5EAD
  8
0
 10
254.34612705556859
 20
275.388450277255
 30
0.0
 40
0.9999999999999966
 50
0.0000000000006107
 51
90.0
  0
LINE
  5
5EAE
  8
0
 10
255.34612705556839
 20
275.388450277255
 30
0.0
 11
255.3461270555687
 21
242.38845027725461
 31
0.0
  0
LINE
  5
5EAF
  8
0
 10
245.34612705556771
 20
242.38845027725461
 30
0.0
 11
262.09612705556788
 21
242.38845027725461
 31
0.0
  0
LINE
  5
5EB0
  8
0
 10
255.3461270555687
 20
242.38845027725461
 30
0.0
 11
262.09612705556788
 21
242.38845027725461
 31
0.0
  0
LINE
  5
5EB1
  8
0
 10
262.09612705556788
 20
242.38845027725461
 30
0.0
 11
263.09612705556782
 21
241.38845027725469
 31
0.0
  0
ARC
  5
5EB2
  8
0
 10
262.09612705556788
 20
241.38845027725469
 30
0.0
 40
0.9999999999999966
 50
0.0
 51
90.0
  0
ARC
  5
5EB3
  8
0
 10
244.34612705556791
 20
274.95637762667468
 30
0.0
 40
0.9999999999999966
 50
0.0
 51
46.735704588928101
  0
ARC
  5
5EB4
  8
0
 10
236.4495498643266
 20
282.38845027725438
 30
0.0
 40
0.9999999999999966
 50
46.73570458892867
 51
90.0
  0
LINE
  5
5EB5
  8
0
 10
244.28362705556759
 20
276.38845027725489
 30
0.0
 11
254.34612705556859
 21
276.38845027725489
 31
0.0
  0
LINE
  5
5EB7
  8
0
 10
255.3461270555681
 20
404.32291036077089
 30
0.0
 11
255.3461270555681
 21
364.64746568110752
 31
0.0
  0
LINE
  5
5EB8
  8
0
 10
263.0961270555681
 20
415.94484738247201
 30
0.0
 11
263.0961270555681
 21
353.02552865940669
 31
0.0
  0
LINE
  5
5EB9
  8
0
 10
240.3461270555681
 20
424.73518802093901
 30
0.0
 11
240.3461270555681
 21
344.23518802093918
 31
0.0
  0
LINE
  5
5EBA
  8
0
 10
236.8461270555683
 20
429.23518802093889
 30
0.0
 11
236.8461270555683
 21
339.73518802093901
 31
0.0
  0
LINE
  5
5EBB
  8
0
 10
245.3461270555681
 20
343.23518802093929
 30
0.0
 11
240.3461270555681
 21
344.23518802093918
 31
0.0
  0
LINE
  5
5EBC
  8
0
 10
253.2948103536186
 20
361.80141578695623
 30
0.0
 11
240.3461270555681
 21
357.48518802093918
 31
0.0
  0
LINE
  5
5EBD
  8
0
 10
224.3461270555683
 20
352.23518802093901
 30
0.0
 11
224.3461270555683
 21
344.23518802093918
 31
0.0
  0
ARC
  5
5EBE
  8
0
 10
252.34612705556819
 20
364.64746568110741
 30
0.0
 40
2.9999999999999889
 50
288.43494882292248
 51
0.0
  0
CIRCLE
  5
5EBF
  8
0
 10
255.84612705556791
 20
354.48518802093912
 30
0.0
 40
2.7499999999999898
  0
LINE
  5
5EC0
  8
CENTER
 10
249.8461270555681
 20
354.48518802093929
 30
0.0
 11
261.84612705556822
 21
354.48518802093929
 31
0.0
  0
LINE
  5
5EC1
  8
0
 10
259.75675265268768
 20
348.30935196358701
 30
0.0
 11
245.3461270555681
 21
343.23518802093929
 31
0.0
  0
LINE
  5
5EC2
  8
0
 10
245.3461270555681
 20
343.23518802093929
 30
0.0
 11
245.3461270555681
 21
339.73518802093901
 31
0.0
  0
LINE
  5
5EC3
  8
CENTER
 10
255.84612705556791
 20
360.48518802093901
 30
0.0
 11
255.84612705556791
 21
348.48518802093912
 31
0.0
  0
ARC
  5
5EC4
  8
0
 10
258.0961270555681
 20
353.02552865940658
 30
0.0
 40
4.9999999999999822
 50
289.3978124485588
 51
0.0
  0
LINE
  5
5EC5
  8
0
 10
245.3461270555681
 20
425.73518802093912
 30
0.0
 11
240.3461270555681
 21
424.73518802093901
 31
0.0
  0
LINE
  5
5EC6
  8
0
 10
253.2948103536186
 20
407.1689602549223
 30
0.0
 11
240.3461270555681
 21
411.48518802093901
 31
0.0
  0
LINE
  5
5EC7
  8
0
 10
259.75675265268768
 20
420.66102407829118
 30
0.0
 11
245.3461270555681
 21
425.73518802093912
 31
0.0
  0
CIRCLE
  5
5EC8
  8
0
 10
255.84612705556791
 20
414.48518802093889
 30
0.0
 40
2.7499999999999898
  0
LINE
  5
5EC9
  8
CENTER
 10
249.8461270555681
 20
414.48518802093912
 30
0.0
 11
261.84612705556822
 21
414.48518802093912
 31
0.0
  0
ARC
  5
5ECA
  8
0
 10
252.34612705556819
 20
404.32291036077061
 30
0.0
 40
2.9999999999999889
 50
0.0
 51
71.565051177077223
  0
LINE
  5
5ECB
  8
CENTER
 10
255.84612705556791
 20
420.48518802093889
 30
0.0
 11
255.84612705556791
 21
408.48518802093901
 31
0.0
  0
ARC
  5
5ECC
  8
0
 10
258.0961270555681
 20
415.94484738247172
 30
0.0
 40
4.9999999999999822
 50
0.0
 51
70.602187551441205
  0
LINE
  5
5ECD
  8
0
 10
245.3461270555681
 20
429.23518802093889
 30
0.0
 11
245.3461270555681
 21
425.73518802093912
 31
0.0
  0
DIMENSION
  5
5ED0
  8
DIM
  2
*D8
 10
152.0737861229853
 20
429.2351880209394
 30
0.0
 11
147.07378612298521
 21
384.48518802093929
 31
0.0
 70
     0
 13
191.3461270555681
 23
339.73518802093918
 33
0.0
 14
187.17946038890139
 24
429.2351880209394
 34
0.0
 50
90.0
  0
DIMENSION
  5
5EDD
  8
DIM
  2
*D9
 10
263.0961270555681
 20
443.16122597361039
 30
0.0
 11
218.3461270555681
 21
448.16122597361033
 31
0.0
 70
     0
 13
173.5961270555681
 23
415.94484738247178
 33
0.0
 14
263.0961270555681
 24
415.94484738247172
 34
0.0
  0
DIMENSION
  5
5EEA
  8
DIM
  2
*D10
 10
157.8624228465919
 20
259.38845027725449
 30
0.0
 11
152.8624228465919
 21
271.38845027725461
 31
0.0
 70
     0
 13
200.2427042468091
 23
283.38845027725449
 33
0.0
 14
196.65685887184901
 24
259.38845027725449
 34
0.0
 50
90.0
  0
DIMENSION
  5
5EF7
  8
DIM
  2
*D11
 10
157.86242284659181
 20
37.388450277255338
 30
0.0
 11
152.86242284659181
 21
148.388450277255
 31
0.0
 70
     0
 13
196.65685887184901
 23
259.38845027725449
 33
0.0
 14
215.84612705556819
 24
37.38845027725533
 34
0.0
 50
90.0
  0
DIMENSION
  5
5F04
  8
DIM
  2
*D12
 10
145.85629019734139
 20
37.388450277255352
 30
0.0
 11
140.85629019734139
 21
160.388450277255
 31
0.0
 70
     0
 13
200.2427042468091
 23
283.38845027725449
 33
0.0
 14
215.84612705556819
 24
37.38845027725533
 34
0.0
 50
90.0
  0
DIMENSION
  5
5F11
  8
DIM
  2
*D13
 10
49.160256907558342
 20
23.525377567569532
 30
0.0
 11
55.755551850315442
 21
29.00279915116527
 31
0.0
 70
   128
  1
%%c4
 13
43.160256907558619
 23
41.888450277255323
 33
0.0
 14
49.160256907558342
 24
41.888450277255323
 34
0.0
  0
ENDSEC
  0
EOF
