  0
SECTION
  2
HEADER
  9
$ACADVER
  1
AC1015
  9
$ACADMAINTVER
 70
    20
  9
$DWGCODEPAGE
  3
ANSI_950
  9
$INSBASE
 10
0.0
 20
0.0
 30
0.0
  9
$EXTMIN
 10
1668.100913163202
 20
-328.1269714192822
 30
-0.0055806007637784
  9
$EXTMAX
 10
2010.260512796544
 20
171.8658607978841
 30
270.4791881123843
  9
$LIMMIN
 10
0.0
 20
0.0
  9
$LIMMAX
 10
420.0
 20
297.0
  9
$ORTHOMODE
 70
     0
  9
$REGENMODE
 70
     1
  9
$FILLMODE
 70
     1
  9
$QTEXTMODE
 70
     0
  9
$MIRRTEXT
 70
     1
  9
$LTSCALE
 40
1.0
  9
$ATTMODE
 70
     1
  9
$TEXTSIZE
 40
3.5
  9
$TRACEWID
 40
1.0
  9
$TEXTSTYLE
  7
STANDARD
  9
$CLAYER
  8
0
  9
$CELTYPE
  6
ByLayer
  9
$CECOLOR
 62
   256
  9
$CELTSCALE
 40
1.0
  9
$DISPSILH
 70
     0
  9
$DIMSCALE
 40
1.0
  9
$DIMASZ
 40
4.0
  9
$DIMEXO
 40
1.0
  9
$DIMDLI
 40
12.0
  9
$DIMRND
 40
0.0
  9
$DIMDLE
 40
0.0
  9
$DIMEXE
 40
1.5
  9
$DIMTP
 40
0.1
  9
$DIMTM
 40
0.1
  9
$DIMTXT
 40
3.5
  9
$DIMCEN
 40
0.0
  9
$DIMTSZ
 40
0.0
  9
$DIMTOL
 70
     0
  9
$DIMLIM
 70
     0
  9
$DIMTIH
 70
     0
  9
$DIMTOH
 70
     0
  9
$DIMSE1
 70
     0
  9
$DIMSE2
 70
     0
  9
$DIMTAD
 70
     1
  9
$DIMZIN
 70
     8
  9
$DIMBLK
  1

  9
$DIMASO
 70
     1
  9
$DIMSHO
 70
     1
  9
$DIMPOST
  1

  9
$DIMAPOST
  1
"
  9
$DIMALT
 70
     0
  9
$DIMALTD
 70
     2
  9
$DIMALTF
 40
0.0393701
  9
$DIMLFAC
 40
1.0
  9
$DIMTOFL
 70
     1
  9
$DIMTVP
 40
0.0
  9
$DIMTIX
 70
     0
  9
$DIMSOXD
 70
     0
  9
$DIMSAH
 70
     0
  9
$DIMBLK1
  1

  9
$DIMBLK2
  1

  9
$DIMSTYLE
  2
AM_ISO
  9
$DIMCLRD
 70
   256
  9
$DIMCLRE
 70
   256
  9
$DIMCLRT
 70
   256
  9
$DIMTFAC
 40
0.71
  9
$DIMGAP
 40
1.0
  9
$DIMJUST
 70
     0
  9
$DIMSD1
 70
     0
  9
$DIMSD2
 70
     0
  9
$DIMTOLJ
 70
     0
  9
$DIMTZIN
 70
     8
  9
$DIMALTZ
 70
     0
  9
$DIMALTTZ
 70
     0
  9
$DIMUPT
 70
     0
  9
$DIMDEC
 70
     2
  9
$DIMTDEC
 70
     2
  9
$DIMALTU
 70
     2
  9
$DIMALTTD
 70
     2
  9
$DIMTXSTY
  7
STANDARD
  9
$DIMAUNIT
 70
     0
  9
$DIMADEC
 70
     0
  9
$DIMALTRND
 40
0.0
  9
$DIMAZIN
 70
     2
  9
$DIMDSEP
 70
    46
  9
$DIMATFIT
 70
     3
  9
$DIMFRAC
 70
     0
  9
$DIMLDRBLK
  1

  9
$DIMLUNIT
 70
     2
  9
$DIMLWD
 70
    -1
  9
$DIMLWE
 70
    -1
  9
$DIMTMOVE
 70
     0
  9
$LUNITS
 70
     2
  9
$LUPREC
 70
     2
  9
$SKETCHINC
 40
1.0
  9
$FILLETRAD
 40
2.5
  9
$AUNITS
 70
     0
  9
$AUPREC
 70
     0
  9
$MENU
  1
.
  9
$ELEVATION
 40
0.0
  9
$PELEVATION
 40
0.0
  9
$THICKNESS
 40
0.0
  9
$LIMCHECK
 70
     0
  9
$CHAMFERA
 40
2.5
  9
$CHAMFERB
 40
2.5
  9
$CHAMFERC
 40
20.0
  9
$CHAMFERD
 40
0.0
  9
$SKPOLY
 70
     0
  9
$TDCREATE
 40
2453021.369367211
  9
$TDUCREATE
 40
2453021.036033877
  9
$TDUPDATE
 40
2455625.647087905
  9
$TDUUPDATE
 40
2455625.313754572
  9
$TDINDWG
 40
0.4075977778
  9
$TDUSRTIMER
 40
0.4075974306
  9
$USRTIMER
 70
     1
  9
$ANGBASE
 50
0.0
  9
$ANGDIR
 70
     0
  9
$PDMODE
 70
     0
  9
$PDSIZE
 40
0.0
  9
$PLINEWID
 40
0.0
  9
$SPLFRAME
 70
     0
  9
$SPLINETYPE
 70
     6
  9
$SPLINESEGS
 70
     8
  9
$HANDSEED
  5
3B1A
  9
$SURFTAB1
 70
     6
  9
$SURFTAB2
 70
     6
  9
$SURFTYPE
 70
     6
  9
$SURFU
 70
     6
  9
$SURFV
 70
     6
  9
$UCSBASE
  2

  9
$UCSNAME
  2

  9
$UCSORG
 10
0.0
 20
0.0
 30
0.0
  9
$UCSXDIR
 10
1.0
 20
0.0
 30
0.0
  9
$UCSYDIR
 10
0.0
 20
1.0
 30
0.0
  9
$UCSORTHOREF
  2

  9
$UCSORTHOVIEW
 70
     0
  9
$UCSORGTOP
 10
0.0
 20
0.0
 30
0.0
  9
$UCSORGBOTTOM
 10
0.0
 20
0.0
 30
0.0
  9
$UCSORGLEFT
 10
0.0
 20
0.0
 30
0.0
  9
$UCSORGRIGHT
 10
0.0
 20
0.0
 30
0.0
  9
$UCSORGFRONT
 10
0.0
 20
0.0
 30
0.0
  9
$UCSORGBACK
 10
0.0
 20
0.0
 30
0.0
  9
$PUCSBASE
  2

  9
$PUCSNAME
  2

  9
$PUCSORG
 10
0.0
 20
0.0
 30
0.0
  9
$PUCSXDIR
 10
1.0
 20
0.0
 30
0.0
  9
$PUCSYDIR
 10
0.0
 20
1.0
 30
0.0
  9
$PUCSORTHOREF
  2

  9
$PUCSORTHOVIEW
 70
     0
  9
$PUCSORGTOP
 10
0.0
 20
0.0
 30
0.0
  9
$PUCSORGBOTTOM
 10
0.0
 20
0.0
 30
0.0
  9
$PUCSORGLEFT
 10
0.0
 20
0.0
 30
0.0
  9
$PUCSORGRIGHT
 10
0.0
 20
0.0
 30
0.0
  9
$PUCSORGFRONT
 10
0.0
 20
0.0
 30
0.0
  9
$PUCSORGBACK
 10
0.0
 20
0.0
 30
0.0
  9
$USERI1
 70
     0
  9
$USERI2
 70
     0
  9
$USERI3
 70
     0
  9
$USERI4
 70
     0
  9
$USERI5
 70
     0
  9
$USERR1
 40
0.0
  9
$USERR2
 40
0.0
  9
$USERR3
 40
0.0
  9
$USERR4
 40
0.0
  9
$USERR5
 40
0.0
  9
$WORLDVIEW
 70
     1
  9
$SHADEDGE
 70
     3
  9
$SHADEDIF
 70
    70
  9
$TILEMODE
 70
     1
  9
$MAXACTVP
 70
    64
  9
$PINSBASE
 10
0.0
 20
0.0
 30
0.0
  9
$PLIMCHECK
 70
     0
  9
$PEXTMIN
 10
1.000000000000000E+20
 20
1.000000000000000E+20
 30
1.000000000000000E+20
  9
$PEXTMAX
 10
-1.000000000000000E+20
 20
-1.000000000000000E+20
 30
-1.000000000000000E+20
  9
$PLIMMIN
 10
0.0
 20
0.0
  9
$PLIMMAX
 10
420.0
 20
297.0
  9
$UNITMODE
 70
     0
  9
$VISRETAIN
 70
     1
  9
$PLINEGEN
 70
     0
  9
$PSLTSCALE
 70
     1
  9
$TREEDEPTH
 70
  3020
  9
$CMLSTYLE
  2
Standard
  9
$CMLJUST
 70
     0
  9
$CMLSCALE
 40
20.0
  9
$PROXYGRAPHICS
 70
     1
  9
$MEASUREMENT
 70
     1
  9
$CELWEIGHT
370
    -1
  9
$ENDCAPS
280
     0
  9
$JOINSTYLE
280
     0
  9
$LWDISPLAY
290
     0
  9
$INSUNITS
 70
     4
  9
$HYPERLINKBASE
  1

  9
$STYLESHEET
  1
單色出圖.ctb
  9
$XEDIT
290
     1
  9
$CEPSNTYPE
380
     0
  9
$PSTYLEMODE
290
     1
  9
$FINGERPRINTGUID
  2
{6C02722A-18D3-491A-897A-B8025DE410A9}
  9
$VERSIONGUID
  2
{4F95C004-ABD3-4536-A1EA-5BD671CA582E}
  9
$EXTNAMES
290
     1
  9
$PSVPSCALE
 40
0.0
  9
$OLESTARTUP
290
     0
  0
ENDSEC
  0
SECTION
  2
CLASSES
  0
CLASS
  1
ACDBDICTIONARYWDFLT
  2
AcDbDictionaryWithDefault
  3
ObjectDBX Classes
 90
        0
280
     0
281
     0
  0
CLASS
  1
ACDBPLACEHOLDER
  2
AcDbPlaceHolder
  3
ObjectDBX Classes
 90
        0
280
     0
281
     0
  0
CLASS
  1
LAYOUT
  2
AcDbLayout
  3
ObjectDBX Classes
 90
        0
280
     0
281
     0
  0
CLASS
  1
AMGSETTINGSOBJ
  2
AmgSettingsObj
  3
"AcadM|Product Description: AutoCAD Mechanical 2000|Company: Autodesk"
 90
        0
280
     0
281
     0
  0
CLASS
  1
ACME_DOCUMENT
  2
AcMeDbDoc
  3
AcMeServices
 90
        0
280
     0
281
     0
  0
CLASS
  1
ACMESCOPE
  2
AcMeScope
  3
AcMeServices
 90
        0
280
     0
281
     0
  0
CLASS
  1
ACMECOMMANDHISTORY
  2
AcMeCommandHistory
  3
AcMeServices
 90
        0
280
     0
281
     0
  0
CLASS
  1
ACIMSYSVARMAN
  2
AcImSysVarManager
  3
AcMeServices
 90
        0
280
     0
281
     0
  0
CLASS
  1
ACIMREALSYSVAR
  2
AcImRealSysVar
  3
AcMeServices
 90
        0
280
     0
281
     0
  0
CLASS
  1
ACIMINTSYSVAR
  2
AcImIntSysVar
  3
AcMeServices
 90
        0
280
     0
281
     0
  0
CLASS
  1
ACMEDRAWINGMAN
  2
AcMeDrawingMan
  3
AcMeServices
 90
        0
280
     0
281
     0
  0
CLASS
  1
ACMEVIEW
  2
AcMeView
  3
AcMeServices
 90
        0
280
     0
281
     0
  0
CLASS
  1
ACDBENTITYCACHE
  2
AcMeEntityCache
  3
AcMeServices
 90
        0
280
     0
281
     0
  0
CLASS
  1
GSMANAGER
  2
AcMeGSManager
  3
AcMeServices
 90
        0
280
     0
281
     0
  0
CLASS
  1
AMDTINTERNALREACTOR
  2
AmdtInternalReactor
  3
AcMeServices
 90
        0
280
     0
281
     0
  0
CLASS
  1
ACMESTATEMGR
  2
AcMeStateMgr
  3
AcMeServices
 90
        0
280
     0
281
     0
  0
CLASS
  1
ACGREFMASTER
  2
AcGrefMaster
  3
AcAttribServices
 90
        0
280
     0
281
     0
  0
CLASS
  1
ACME_DATABASE
  2
AcMeDbDatabase
  3
AcMeServices
 90
        0
280
     0
281
     0
  0
CLASS
  1
ACRFINSADJUSTERMGR
  2
AcRfInsAdjusterMgr
  3
AcMeServices
 90
        0
280
     0
281
     0
  0
CLASS
  1
ACGREFACADMASTER
  2
AcGrefacadMaster
  3
AcGrefServices
 90
        0
280
     0
281
     0
  0
CLASS
  1
AMIMASTER
  2
AmiMaster
  3
AmiServices
 90
        0
280
     0
281
     0
  0
CLASS
  1
ACMDATADICTIONARY
  2
AcmDataDictionary
  3
"AcmSymBB|Product Description: AutoCAD Mechanical 2004 DX|Company: Autodesk"
 90
        0
280
     0
281
     0
  0
CLASS
  1
ACMDATAENTRYBLOCK
  2
AcmDataEntryBlock
  3
"AcmSymBB|Product Description: AutoCAD Mechanical 2004 DX|Company: Autodesk"
 90
        0
280
     0
281
     0
  0
CLASS
  1
ACIMSTRSYSVAR
  2
AcImStrSysVar
  3
AcMeServices
 90
        0
280
     0
281
     0
  0
CLASS
  1
ACMSTANDARDISO
  2
AcmStandardISO
  3
"Amdt_StdImp|Product Description: AutoCAD Mechanical 2004 DX|Company: Autodesk"
 90
        0
280
     0
281
     0
  0
CLASS
  1
AMGOBJPROPCFG
  2
AmgObjPropCfg
  3
"AmgLay|Product Description: AutoCAD Mechanical 2000|Company: Autodesk"
 90
        1
280
     0
281
     0
  0
CLASS
  1
AMDTEDGESTANDARDISO
  2
AmdtEdgeStdISO
  3
"Amdt_StdImp|Product Description: AutoCAD Mechanical 2004 DX|Company: Autodesk"
 90
    32768
280
     0
281
     0
  0
CLASS
  1
ACMSURFSTANDARDISO
  2
AcmSurfTextStdISO
  3
"Amdt_StdImp|Product Description: AutoCAD Mechanical 2004 DX|Company: Autodesk"
 90
        0
280
     0
281
     0
  0
CLASS
  1
ACMFCFSTANDARDISO
  2
AcmFCFStdISO
  3
"Amdt_StdImp|Product Description: AutoCAD Mechanical 2004 DX|Company: Autodesk"
 90
        0
280
     0
281
     0
  0
CLASS
  1
ACMWELDSTANDARDISO
  2
AcmWeldingStdISO
  3
"Amdt_StdImp|Product Description: AutoCAD Mechanical 2004 DX|Company: Autodesk"
 90
        0
280
     0
281
     0
  0
CLASS
  1
ACMIDSTANDARDISO
  2
AcmIdStdISO
  3
"Amdt_StdImp|Product Description: AutoCAD Mechanical 2004 DX|Company: Autodesk"
 90
        0
280
     0
281
     0
  0
CLASS
  1
ACMDATUMSTANDARDISO
  2
AcmDatumStdISO
  3
"Amdt_StdImp|Product Description: AutoCAD Mechanical 2004 DX|Company: Autodesk"
 90
        0
280
     0
281
     0
  0
CLASS
  1
ACMBOMSTANDARDISO
  2
AcmBOMStdISO
  3
"Amdt_StdImp|Product Description: AutoCAD Mechanical 2004 DX|Company: Autodesk"
 90
        0
280
     0
281
     0
  0
CLASS
  1
ACMDETAILSTANDARDISO
  2
AmdtDetailSymStdISO
  3
"Amdt_StdImp|Product Description: AutoCAD Mechanical 2004 DX|Company: Autodesk"
 90
        0
280
     0
281
     0
  0
CLASS
  1
ACMSECTIONSTANDARDISO
  2
AmdtSectionSymStdISO
  3
"Amdt_StdImp|Product Description: AutoCAD Mechanical 2004 DX|Company: Autodesk"
 90
        0
280
     0
281
     0
  0
CLASS
  1
ACMCENTERLINESTANDARDISO
  2
AmdtCenterLineStdISO
  3
"Amdt_StdImp|Product Description: AutoCAD Mechanical 2004 DX|Company: Autodesk"
 90
        0
280
     0
281
     0
  0
CLASS
  1
ACMNOTESTANDARDISO
  2
AmdtNoteStdISO
  3
"Amdt_StdImp|Product Description: AutoCAD Mechanical 2004 DX|Company: Autodesk"
 90
        0
280
     0
281
     0
  0
CLASS
  1
ACAMGLAYSTD
  2
AcAmgLayStd
  3
"AcAmgLayStd|Product Description: AutoCAD Mechanical 2000|Company: Autodesk"
 90
        0
280
     0
281
     0
  0
CLASS
  1
ACAMGDIMSTD
  2
AcAmgDimStd
  3
"AcAmgDimStd|Product Description: AutoCAD Mechanical 2000|Company: Autodesk"
 90
        0
280
     0
281
     0
  0
CLASS
  1
ACAMGHOLECHARTSTDISO
  2
AcAmgHoleChartStdISO
  3
ACMSYMBB_MODULE_NAME
 90
        0
280
     0
281
     0
  0
CLASS
  1
ACAMGTITLESTD
  2
AcAmgTitleStd
  3
"TITLEAPP"
 90
        0
280
     0
281
     0
  0
CLASS
  1
LAYER_INDEX
  2
AcDbLayerIndex
  3
ObjectDBX Classes
 90
    32768
280
     0
281
     0
  0
CLASS
  1
IDBUFFER
  2
AcDbIdBuffer
  3
ObjectDBX Classes
 90
    32768
280
     0
281
     0
  0
CLASS
  1
DICTIONARYVAR
  2
AcDbDictionaryVar
  3
ObjectDBX Classes
 90
        0
280
     0
281
     0
  0
CLASS
  1
ACAMGFILTERDAT
  2
AcAmgFilterDat
  3
"AcadM|Product Description: AutoCAD Mechanical 2000|Company: Autodesk"
 90
    32768
280
     0
281
     0
  0
CLASS
  1
AMDTFORMULAUPDATEDISPATCHER
  2
AmdtFormulaUpdateDispatcher
  3
AcMeServices
 90
    32768
280
     0
281
     0
  0
CLASS
  1
AMDTNOTE
  2
AmdtNote
  3
"AcmSymBB|Product Description: AutoCAD Mechanical 2004 DX|Company: Autodesk"
 90
    33791
280
     0
281
     1
  0
CLASS
  1
TABLESTYLE
  2
AcDbTableStyle
  3
ObjectDBX Classes
 90
     2047
280
     0
281
     0
  0
CLASS
  1
AM_DRAWING_MGR
  2
AcDmDwgMgr
  3
AcMechDwgViewMgmt
 90
        0
280
     0
281
     0
  0
CLASS
  1
AM_DWG_DOCUMENT
  2
AcDmDwgDocument
  3
AcMechDwgViewMgmt
 90
        0
280
     0
281
     0
  0
CLASS
  1
AM_DWG_SHEET
  2
AcDmSheet
  3
AcMechDwgViewMgmt
 90
        0
280
     0
281
     0
  0
CLASS
  1
AM_VIEWDIMPARMAP
  2
AcDmViewDimParMap
  3
AcMechDwgViewMgmt
 90
        0
280
     0
281
     0
  0
CLASS
  1
AM_DWGMGR_NAME
  2
AcDmDwgMgrName
  3
AcMechDwgViewMgmt
 90
        0
280
     0
281
     0
  0
CLASS
  1
AMDTMENUSTATEMGR
  2
AmdtMenuStateMgr
  3
McadcomServices
 90
        0
280
     0
281
     0
  0
CLASS
  1
AMDTMCOMMENUSTATE
  2
AmdtMcomMenuState
  3
McadcomServices
 90
        0
280
     0
281
     0
  0
CLASS
  1
MAPIAMMOUDLE
  2
MApiAmModule
  3
MApiAmServices
 90
        0
280
     0
281
     0
  0
CLASS
  1
AMDTADMENUSTATE
  2
AmdtAdMenuState
  3
DesignerServices
 90
        0
280
     0
281
     0
  0
CLASS
  1
ADAPPL
  2
AcAdAppl
  3
DesignerServices
 90
        0
280
     0
281
     0
  0
CLASS
  1
DEPMGR
  2
AcAdDepMgr
  3
DesignerServices
 90
        0
280
     0
281
     0
  0
CLASS
  1
PARAMMGR
  2
AcAdParamMgr
  3
DesignerServices
 90
        0
280
     0
281
     0
  0
CLASS
  1
PARAMSCOPE
  2
AcAdParamScope
  3
DesignerServices
 90
        0
280
     0
281
     0
  0
CLASS
  1
NAMEDAPPL
  2
AcAdNamedAppl
  3
DesignerServices
 90
        0
280
     0
281
     0
  0
CLASS
  1
AMDTDMMENUSTATE
  2
AmdtDmMenuState
  3
AcMechDwgViewMgmt
 90
        0
280
     0
281
     0
  0
CLASS
  1
AMDTAMMENUSTATE
  2
AmdtAmMenuState
  3
DesignerAssemblies
 90
        0
280
     0
281
     0
  0
CLASS
  1
ACAMPROJECT
  2
AcAmProject
  3
DesignerAssemblies
 90
        0
280
     0
281
     0
  0
CLASS
  1
ACAMGRCOMPDEF
  2
AcAmGrCompDef
  3
DesignerAssemblies
 90
        0
280
     0
281
     0
  0
CLASS
  1
ACCMCONTEXT
  2
AcCmContext
  3
DesignerAssemblies
 90
        0
280
     0
281
     0
  0
CLASS
  1
ACAMCOMPDEF
  2
AcAmCompDef
  3
DesignerAssemblies
 90
        0
280
     0
281
     0
  0
CLASS
  1
ACAMCOMPDEFMGR
  2
AcAmCompDefMgr
  3
DesignerAssemblies
 90
        0
280
     0
281
     0
  0
CLASS
  1
AMCONTEXTMGR
  2
AcAmContextMgr
  3
DesignerAssemblies
 90
        0
280
     0
281
     0
  0
CLASS
  1
ACAMCONTEXTMODELER
  2
AcAmContextModeler
  3
DesignerAssemblies
 90
        0
280
     0
281
     0
  0
CLASS
  1
ACMTHREADLINESTANDARDISO
  2
AmdtThreadLineStdISO
  3
"Amdt_StdImp|Product Description: AutoCAD Mechanical 2004 DX|Company: Autodesk"
 90
        0
280
     0
281
     0
  0
CLASS
  1
CATALOGSTATE
  2
AcAmCatalogState
  3
DesignerAssemblies
 90
        0
280
     0
281
     0
  0
CLASS
  1
ACAMGRCOMPDEFSET
  2
AcAmGrCompDefSet
  3
DesignerAssemblies
 90
        0
280
     0
281
     0
  0
CLASS
  1
AMDTBROWSERDBTAB
  2
AmdtBrowserDbTab
  3
McadcomServices
 90
        0
280
     0
281
     0
  0
CLASS
  1
CBROWSERAPPOBJECT
  2
CBrowserAppObject
  3
McadcomServices
 90
        0
280
     0
281
     0
  0
CLASS
  1
DM_PLACEHOLDER
  2
AcDmSelsetPlaceholder
  3
AcMechDwgViewMgmt
 90
        0
280
     0
281
     0
  0
CLASS
  1
VAACXREFPANELOBJECT
  2
VaAcXREFPanelObject
  3
VAAC_ADDIN
 90
    32768
280
     0
281
     0
  0
CLASS
  1
VAACIMAGEINVENTORY
  2
VaAcImageInventory
  3
VAAC_ADDIN
 90
    32768
280
     0
281
     0
  0
CLASS
  1
AMDTEDGESTANDARDISO13715
  2
AmdtEdgeStdISO13715
  3
"Amdt_StdImp|Product Description: AutoCAD Mechanical 2004 DX|Company: Autodesk"
 90
        0
280
     0
281
     0
  0
CLASS
  1
AMDTNOTETEMPLATEDB
  2
AmdtNoteTemplateDB
  3
AMDT_STDIMP_MODULE_NAME
 90
        0
280
     0
281
     0
  0
CLASS
  1
ACRFATTGENMGR
  2
AcRfAttGeneralMgr
  3
AcAttribServices
 90
        0
280
     0
281
     0
  0
CLASS
  1
DIMASSOC
  2
AcDbDimAssoc
  3
"AcDbDimAssoc|Product Desc:     AcDim ARX App For Dimension|Company:          Autodesk, Inc.|WEB Address:      www.autodesk.com"
 90
        0
280
     0
281
     0
  0
CLASS
  1
SORTENTSTABLE
  2
AcDbSortentsTable
  3
ObjectDBX Classes
 90
    32768
280
     0
281
     0
  0
CLASS
  1
ACMDIMBREAKPERSREACTOR
  2
AcmDimBreakPersReactor
  3
amgDimApp().moduleName()
 90
     1023
280
     0
281
     0
  0
ENDSEC
  0
SECTION
  2
TABLES
  0
TABLE
  2
VPORT
  5
8
330
0
100
AcDbSymbolTable
 70
     4
  0
VPORT
  5
3B11
330
8
100
AcDbSymbolTableRecord
100
AcDbViewportTableRecord
  2
*Active
 70
     0
 10
0.0
 20
0.0
 11
1.0
 21
1.0
 12
1839.180712979873
 22
-78.13055531069903
 13
0.0
 23
0.0
 14
2.5
 24
2.5
 15
10.0
 25
10.0
 16
0.0
 26
0.0
 36
1.0
 17
0.0
 27
0.0
 37
0.0
 40
503.9349570441085
 41
1.236842105263157
 42
50.0
 43
0.0
 44
0.0
 50
0.0
 51
0.0
 71
     0
 72
   100
 73
     1
 74
     3
 75
     0
 76
     0
 77
     0
 78
     0
281
     0
 65
     1
110
0.0
120
0.0
130
0.0
111
1.0
121
0.0
131
0.0
112
0.0
122
1.0
132
0.0
 79
     0
146
0.0
  0
ENDTAB
  0
TABLE
  2
LTYPE
  5
5
330
0
100
AcDbSymbolTable
 70
    14
  0
LTYPE
  5
14
330
5
100
AcDbSymbolTableRecord
100
AcDbLinetypeTableRecord
  2
ByBlock
 70
     0
  3

 72
    65
 73
     0
 40
0.0
  0
LTYPE
  5
15
330
5
100
AcDbSymbolTableRecord
100
AcDbLinetypeTableRecord
  2
ByLayer
 70
     0
  3

 72
    65
 73
     0
 40
0.0
  0
LTYPE
  5
16
330
5
100
AcDbSymbolTableRecord
100
AcDbLinetypeTableRecord
  2
Continuous
 70
     0
  3
Solid line
 72
    65
 73
     0
 40
0.0
  0
LTYPE
  5
4D
330
5
100
AcDbSymbolTableRecord
100
AcDbLinetypeTableRecord
  2
AM_ISO02W050
 70
     0
  3
__ __ __ __ __ __ __ __ __ __ __ __ __ __ __
 72
    65
 73
     2
 40
7.5
 49
6.0
 74
     0
 49
-1.5
 74
     0
  0
LTYPE
  5
4E
330
5
100
AcDbSymbolTableRecord
100
AcDbLinetypeTableRecord
  2
AM_ISO08W050
 70
     0
  3
____ . ____ . ____ . ____ . ____ . ____ . ____
 72
    65
 73
     4
 40
18.0
 49
12.0
 74
     0
 49
-1.5
 74
     0
 49
3.0
 74
     0
 49
-1.5
 74
     0
  0
LTYPE
  5
4F
330
5
100
AcDbSymbolTableRecord
100
AcDbLinetypeTableRecord
  2
AM_ISO09W050
 70
     0
  3
_____ . . _____ . . _____ . . ____ .. ____
 72
    65
 73
     6
 40
22.5
 49
12.0
 74
     0
 49
-1.5
 74
     0
 49
3.0
 74
     0
 49
-1.5
 74
     0
 49
3.0
 74
     0
 49
-1.5
 74
     0
  0
LTYPE
  5
50
330
5
100
AcDbSymbolTableRecord
100
AcDbLinetypeTableRecord
  2
Amconstr
 70
     0
  3
_______________________
 72
    65
 73
     2
 40
9999.0
 49
9999.0
 74
     0
 49
0.0
 74
     0
  0
LTYPE
  5
51
330
5
100
AcDbSymbolTableRecord
100
AcDbLinetypeTableRecord
  2
AM_ISO08W050x2
 70
     0
  3
__ . __ . __ . __ . __ . __
 72
    65
 73
     4
 40
9.0
 49
6.0
 74
     0
 49
-0.75
 74
     0
 49
1.5
 74
     0
 49
-0.75
 74
     0
  0
LTYPE
  5
52
330
5
100
AcDbSymbolTableRecord
100
AcDbLinetypeTableRecord
  2
AM_ISO02W050x2
 70
     0
  3
 _ _ _ _ _ _ _ _ _ _ _ _
 72
    65
 73
     2
 40
3.75
 49
3.0
 74
     0
 49
-0.75
 74
     0
  0
LTYPE
  5
55
330
5
100
AcDbSymbolTableRecord
100
AcDbLinetypeTableRecord
  2
Amzigzag
 70
     0
  3
/\/-/\/-/\/-/\/-/\/-/\/
 72
    65
 73
     2
 40
11.0001
 49
0.0001
 74
     4
 75
   135
340
54
 46
0.04
 50
0.0
 44
0.0
 45
0.0
 49
-11.0
 74
     0
  0
LTYPE
  5
63
330
5
100
AcDbSymbolTableRecord
100
AcDbLinetypeTableRecord
  2
ACISOWELD
 70
     0
  3
_ _ _ _ _
 72
    65
 73
     2
 40
2.0
 49
2.0
 74
     0
 49
-1.0
 74
     0
  0
LTYPE
  5
64
330
5
100
AcDbSymbolTableRecord
100
AcDbLinetypeTableRecord
  2
ACISOTGB
 70
     0
  3
__ . . __ . .
 72
    65
 73
     6
 40
9.0
 49
4.0
 74
     0
 49
-1.0
 74
     0
 49
1.0
 74
     0
 49
-1.0
 74
     0
 49
1.0
 74
     0
 49
-1.0
 74
     0
  0
LTYPE
  5
65
330
5
100
AcDbSymbolTableRecord
100
AcDbLinetypeTableRecord
  2
ACISOTGL
 70
     0
  3
_ _ _ _ _
 72
    65
 73
     2
 40
3.0
 49
2.0
 74
     0
 49
-1.0
 74
     0
  0
LTYPE
  5
68
330
5
100
AcDbSymbolTableRecord
100
AcDbLinetypeTableRecord
  2
CENTER
 70
     0
  3
__ . __
 72
    65
 73
     4
 40
7.0
 49
4.0
 74
     0
 49
-1.0
 74
     0
 49
1.0
 74
     0
 49
-1.0
 74
     0
  0
LTYPE
  5
5F3
330
5
100
AcDbSymbolTableRecord
100
AcDbLinetypeTableRecord
  2
HIDDEN
 70
     0
  3
Hidden __ __ __ __ __ __ __ __ __ __ __ __ __ _
 72
    65
 73
     2
 40
9.524999999999998
 49
6.349999999999999
 74
     0
 49
-3.174999999999999
 74
     0
  0
LTYPE
  5
5F4
330
5
100
AcDbSymbolTableRecord
100
AcDbLinetypeTableRecord
  2
PHANTOM2
 70
     0
  3
Phantom (.5x) ___ _ _ ___ _ _ ___ _ _ ___ _ _
 72
    65
 73
     6
 40
31.75
 49
15.875
 74
     0
 49
-3.174999999999999
 74
     0
 49
3.174999999999999
 74
     0
 49
-3.174999999999999
 74
     0
 49
3.174999999999999
 74
     0
 49
-3.174999999999999
 74
     0
  0
ENDTAB
  0
TABLE
  2
LAYER
  5
2
102
{ACAD_XDICTIONARY
360
A69
102
}
330
0
100
AcDbSymbolTable
 70
     8
  0
LAYER
  5
10
330
2
100
AcDbSymbolTableRecord
100
AcDbLayerTableRecord
  2
0
 70
     0
 62
     7
  6
Continuous
370
    -3
390
F
  0
LAYER
  5
A63
330
2
100
AcDbSymbolTableRecord
100
AcDbLayerTableRecord
  2
AM_VIS
 70
     0
 62
     7
  6
Continuous
370
    50
390
F
  0
LAYER
  5
A64
330
2
100
AcDbSymbolTableRecord
100
AcDbLayerTableRecord
  2
AM_7
 70
     0
 62
     1
  6
CENTER
370
    25
390
F
  0
LAYER
  5
14C2
330
2
100
AcDbSymbolTableRecord
100
AcDbLayerTableRecord
  2
Defpoints
 70
     0
 62
     7
  6
Continuous
290
     0
370
    -3
390
F
  0
LAYER
  5
2159
330
2
100
AcDbSymbolTableRecord
100
AcDbLayerTableRecord
  2
LOGO
 70
     0
 62
     7
  6
Continuous
370
    -3
390
F
  0
LAYER
  5
2503
330
2
100
AcDbSymbolTableRecord
100
AcDbLayerTableRecord
  2
假想
 70
     0
 62
     2
  6
AM_ISO08W050x2
370
    25
390
F
1001
AcAecLayerStandard
1000

1000

  0
LAYER
  5
3290
330
2
100
AcDbSymbolTableRecord
100
AcDbLayerTableRecord
  2
AM_REFDIM
 70
     0
 62
     4
  6
Continuous
370
    25
390
F
  0
ENDTAB
  0
TABLE
  2
STYLE
  5
3
330
0
100
AcDbSymbolTable
 70
     5
  0
STYLE
  5
11
330
3
100
AcDbSymbolTableRecord
100
AcDbTextStyleTableRecord
  2
STANDARD
 70
     0
 40
0.0
 41
1.0
 50
0.0
 71
     0
 42
3.5
  3
ISOCP.SHX
  4
CHINESET.SHX
  0
STYLE
  5
54
330
3
100
AcDbSymbolTableRecord
100
AcDbTextStyleTableRecord
  2

 70
     1
 40
0.0
 41
1.0
 50
0.0
 71
     0
 42
2.5
  3
ltypeshp.shx
  4

  0
STYLE
  5
56
330
3
100
AcDbSymbolTableRecord
100
AcDbTextStyleTableRecord
  2
ACISOTS
 70
     0
 40
1.0
 41
1.0
 50
0.0
 71
     0
 42
2.5
  3
isocp.shx
  4
chineset.shx
  0
STYLE
  5
62
330
3
100
AcDbSymbolTableRecord
100
AcDbTextStyleTableRecord
  2
ACISOGDT
 70
     0
 40
0.0
 41
1.0
 50
0.0
 71
     0
 42
3.5
  3
amgdt.shx
  4

  0
STYLE
  5
1E4B
330
3
100
AcDbSymbolTableRecord
100
AcDbTextStyleTableRecord
  2
CHINESET
 70
     0
 40
0.0
 41
1.0
 50
0.0
 71
     0
 42
4.0
  3
simplex.shx
  4
chineset.shx
  0
ENDTAB
  0
TABLE
  2
VIEW
  5
6
330
0
100
AcDbSymbolTable
 70
     0
  0
ENDTAB
  0
TABLE
  2
UCS
  5
7
330
0
100
AcDbSymbolTable
 70
     0
  0
ENDTAB
  0
TABLE
  2
APPID
  5
9
330
0
100
AcDbSymbolTable
 70
    21
  0
APPID
  5
12
330
9
100
AcDbSymbolTableRecord
100
AcDbRegAppTableRecord
  2
ACAD
 70
     0
  0
APPID
  5
30
330
9
100
AcDbSymbolTableRecord
100
AcDbRegAppTableRecord
  2
MCAD_NO_VIS
 70
     0
  0
APPID
  5
31
330
9
100
AcDbSymbolTableRecord
100
AcDbRegAppTableRecord
  2
ACAD_TEMP_GRAPHIC
 70
     0
  0
APPID
  5
42
330
9
100
AcDbSymbolTableRecord
100
AcDbRegAppTableRecord
  2
ACATTRIBSERVICES
 70
     0
  0
APPID
  5
20A
330
9
100
AcDbSymbolTableRecord
100
AcDbRegAppTableRecord
  2
GENIUS_GENODEF_13
 70
     0
  0
APPID
  5
20B
330
9
100
AcDbSymbolTableRecord
100
AcDbRegAppTableRecord
  2
GENIUS_GENOBJ-N-HTC_13
 70
     0
  0
APPID
  5
20C
330
9
100
AcDbSymbolTableRecord
100
AcDbRegAppTableRecord
  2
GENIUS_GENHATCH_13
 70
     0
  0
APPID
  5
5F6
330
9
100
AcDbSymbolTableRecord
100
AcDbRegAppTableRecord
  2
AD_DRAW
 70
     0
  0
APPID
  5
614
330
9
100
AcDbSymbolTableRecord
100
AcDbRegAppTableRecord
  2
DESIGNERASSEMBLIES
 70
     0
  0
APPID
  5
619
330
9
100
AcDbSymbolTableRecord
100
AcDbRegAppTableRecord
  2
ACADM_DIM_EDIT
 70
     0
  0
APPID
  5
61A
330
9
100
AcDbSymbolTableRecord
100
AcDbRegAppTableRecord
  2
AMDT_DM_ADJ
 70
     0
  0
APPID
  5
9B3
330
9
100
AcDbSymbolTableRecord
100
AcDbRegAppTableRecord
  2
ACAD_DSTYLE_DIMTEXT_FILL
 70
     0
  0
APPID
  5
9EF
330
9
100
AcDbSymbolTableRecord
100
AcDbRegAppTableRecord
  2
ACAD_PSEXT
 70
     0
  0
APPID
  5
14C6
330
9
100
AcDbSymbolTableRecord
100
AcDbRegAppTableRecord
  2
AcAecLayerStandard
 70
     0
  0
APPID
  5
1859
330
9
100
AcDbSymbolTableRecord
100
AcDbRegAppTableRecord
  2
GENIUS_GENDIMSH_14
 70
     0
  0
APPID
  5
215A
330
9
100
AcDbSymbolTableRecord
100
AcDbRegAppTableRecord
  2
GENIUS_GENOENT_13
 70
     0
  0
APPID
  5
215B
330
9
100
AcDbSymbolTableRecord
100
AcDbRegAppTableRecord
  2
GENIUS_GENOBJ-N-CRS_13
 70
     0
  0
APPID
  5
215C
330
9
100
AcDbSymbolTableRecord
100
AcDbRegAppTableRecord
  2
GENIUS_GENOLIS_13
 70
     0
  0
APPID
  5
215D
330
9
100
AcDbSymbolTableRecord
100
AcDbRegAppTableRecord
  2
GENIUS_GENOREF_13
 70
     0
  0
APPID
  5
215E
330
9
100
AcDbSymbolTableRecord
100
AcDbRegAppTableRecord
  2
GENIUS_GENREC_14
 70
     0
  0
APPID
  5
215F
330
9
100
AcDbSymbolTableRecord
100
AcDbRegAppTableRecord
  2
GENIUS_GENOBJ-N-REC_13
 70
     0
  0
ENDTAB
  0
TABLE
  2
DIMSTYLE
  5
A
330
0
100
AcDbSymbolTable
 70
     8
100
AcDbDimStyleTable
 71
     2
340
6B
340
75
  0
DIMSTYLE
105
6B
102
{ACAD_REACTORS
330
392C
102
}
330
A
100
AcDbSymbolTableRecord
100
AcDbDimStyleTableRecord
  2
AM_ISO
 70
     0
  4
"
 41
4.0
 42
1.0
 43
12.0
 44
1.5
 47
0.1
 48
0.1
 73
     0
 74
     0
 77
     1
 78
     8
 79
     2
140
3.5
141
0.0
143
0.0393701
146
0.71
147
1.0
172
     1
176
   256
177
   256
178
   256
271
     2
272
     2
283
     0
284
     8
340
11
371
    -1
372
    -1
  0
DIMSTYLE
105
6C
330
A
100
AcDbSymbolTableRecord
100
AcDbDimStyleTableRecord
  2
AM_ISO$3
 70
     0
  4
"
 41
4.0
 42
1.0
 43
12.0
 44
1.5
 47
0.1
 48
0.1
 73
     0
 77
     1
 78
     8
 79
     2
140
3.5
141
0.0
143
0.0393701
146
0.71
147
1.0
176
   256
177
   256
178
   256
271
     2
272
     2
283
     0
284
     8
288
     1
289
     0
340
11
371
    -1
372
    -1
  0
DIMSTYLE
105
6D
102
{ACAD_REACTORS
330
39AE
102
}
330
A
100
AcDbSymbolTableRecord
100
AcDbDimStyleTableRecord
  2
AM_ISO$4
 70
     0
  4
"
 41
4.0
 42
1.0
 43
12.0
 44
1.5
 47
0.1
 48
0.1
 73
     0
 77
     1
 78
     8
 79
     2
140
3.5
141
0.0
143
0.0393701
146
0.71
147
1.0
176
   256
177
   256
178
   256
271
     2
272
     2
283
     0
284
     8
288
     1
289
     0
340
11
371
    -1
372
    -1
  0
DIMSTYLE
105
6E
330
A
100
AcDbSymbolTableRecord
100
AcDbDimStyleTableRecord
  2
AM_ISO$6
 70
     0
  4
"
 41
4.0
 42
1.0
 43
12.0
 44
1.5
 47
0.1
 48
0.1
 73
     0
 74
     0
 78
     8
 79
     2
140
3.5
141
0.0
143
0.0393701
146
0.71
147
1.0
172
     1
176
   256
177
   256
178
   256
271
     2
272
     2
283
     0
284
     8
340
11
371
    -1
372
    -1
  0
DIMSTYLE
105
6F
330
A
100
AcDbSymbolTableRecord
100
AcDbDimStyleTableRecord
  2
AM_ISO$7
 70
     0
  4
"
 41
4.0
 42
1.0
 43
12.0
 44
1.5
 47
0.1
 48
0.1
 73
     0
 74
     0
 77
     1
 78
     8
 79
     2
140
5.0
141
0.0
143
0.0393701
146
0.71
147
1.0
172
     1
176
   256
177
   256
178
   256
271
     2
272
     2
283
     0
284
     8
340
11
371
    -1
372
    -1
  0
DIMSTYLE
105
70
330
A
100
AcDbSymbolTableRecord
100
AcDbDimStyleTableRecord
  2
AM_ISO$SF
 70
     0
  4
"
 41
2.5
 42
1.0
 43
10.0
 44
1.0
 47
0.1
 48
0.1
 73
     0
 74
     0
 75
     1
 76
     1
 77
     1
 78
     8
 79
     2
140
3.5
141
0.0
143
0.0393701
146
0.71
147
1.5
172
     1
176
   256
177
   256
178
     2
271
     2
272
     3
274
     4
283
     0
284
     8
340
11
371
    -1
372
    -1
  0
DIMSTYLE
105
75
330
A
100
AcDbSymbolTableRecord
100
AcDbDimStyleTableRecord
  2
AM_ISO$SH
 70
     0
  4
"
 41
2.5
 42
1.0
 43
10.0
 44
1.0
 47
0.1
 48
0.1
 73
     0
 74
     0
 75
     1
 76
     1
 77
     1
 78
     8
 79
     2
140
3.5
141
0.0
143
0.0393701
144
2.0
146
0.71
147
1.5
172
     1
173
     1
176
   256
177
   256
178
     2
271
     2
272
     3
274
     4
283
     0
284
     8
340
11
343
71
371
    -1
372
    -1
  0
DIMSTYLE
105
14C5
102
{ACAD_REACTORS
330
392F
330
3932
330
39A0
330
39A1
330
39A2
330
39A3
330
39A4
330
39B0
330
39B1
330
39B2
330
39E3
330
39E4
330
39E7
330
39EA
102
}
330
A
100
AcDbSymbolTableRecord
100
AcDbDimStyleTableRecord
  2
AM_ISO$0
 70
     0
  4
"
 40
2.0
 41
4.0
 42
1.0
 43
12.0
 44
1.0
 47
0.1
 48
0.1
 73
     0
 74
     0
 77
     1
 78
     8
 79
     2
140
3.5
141
0.0
143
0.0393701
146
0.71
147
1.0
172
     1
176
   256
177
   256
178
   256
271
     2
272
     2
283
     0
284
     8
285
     8
340
11
371
    -1
372
    -1
  0
ENDTAB
  0
TABLE
  2
BLOCK_RECORD
  5
1
330
0
100
AcDbSymbolTable
 70
    53
  0
BLOCK_RECORD
  5
1F
102
{ACAD_XDICTIONARY
360
7D
102
}
330
1
100
AcDbSymbolTableRecord
100
AcDbBlockTableRecord
  2
*Model_Space
340
22
  0
BLOCK_RECORD
  5
1B
330
1
100
AcDbSymbolTableRecord
100
AcDbBlockTableRecord
  2
*Paper_Space
340
1E
  0
BLOCK_RECORD
  5
23
330
1
100
AcDbSymbolTableRecord
100
AcDbBlockTableRecord
  2
*Paper_Space0
340
26
  0
BLOCK_RECORD
  5
71
330
1
100
AcDbSymbolTableRecord
100
AcDbBlockTableRecord
  2
GENAXEH
340
0
  0
BLOCK_RECORD
  5
39ED
330
1
100
AcDbSymbolTableRecord
100
AcDbBlockTableRecord
  2
*D37
340
0
  0
BLOCK_RECORD
  5
39F9
330
1
100
AcDbSymbolTableRecord
100
AcDbBlockTableRecord
  2
*D38
340
0
  0
BLOCK_RECORD
  5
3A05
330
1
100
AcDbSymbolTableRecord
100
AcDbBlockTableRecord
  2
*D39
340
0
  0
BLOCK_RECORD
  5
3A11
330
1
100
AcDbSymbolTableRecord
100
AcDbBlockTableRecord
  2
*D40
340
0
  0
BLOCK_RECORD
  5
3A1D
330
1
100
AcDbSymbolTableRecord
100
AcDbBlockTableRecord
  2
*D41
340
0
  0
BLOCK_RECORD
  5
3A29
330
1
100
AcDbSymbolTableRecord
100
AcDbBlockTableRecord
  2
*D42
340
0
  0
BLOCK_RECORD
  5
3A32
330
1
100
AcDbSymbolTableRecord
100
AcDbBlockTableRecord
  2
*D43
340
0
  0
BLOCK_RECORD
  5
3A3E
330
1
100
AcDbSymbolTableRecord
100
AcDbBlockTableRecord
  2
*D44
340
0
  0
BLOCK_RECORD
  5
3A4A
330
1
100
AcDbSymbolTableRecord
100
AcDbBlockTableRecord
  2
*D45
340
0
  0
BLOCK_RECORD
  5
3A56
330
1
100
AcDbSymbolTableRecord
100
AcDbBlockTableRecord
  2
*D46
340
0
  0
BLOCK_RECORD
  5
3A62
330
1
100
AcDbSymbolTableRecord
100
AcDbBlockTableRecord
  2
*D47
340
0
  0
BLOCK_RECORD
  5
3A6E
330
1
100
AcDbSymbolTableRecord
100
AcDbBlockTableRecord
  2
*D48
340
0
  0
BLOCK_RECORD
  5
3AA7
330
1
100
AcDbSymbolTableRecord
100
AcDbBlockTableRecord
  2
*D49
340
0
  0
BLOCK_RECORD
  5
3ADF
330
1
100
AcDbSymbolTableRecord
100
AcDbBlockTableRecord
  2
*D50
340
0
  0
BLOCK_RECORD
  5
3AEB
330
1
100
AcDbSymbolTableRecord
100
AcDbBlockTableRecord
  2
*D51
340
0
  0
BLOCK_RECORD
  5
3AF7
330
1
100
AcDbSymbolTableRecord
100
AcDbBlockTableRecord
  2
*D52
340
0
  0
ENDTAB
  0
ENDSEC
  0
SECTION
  2
BLOCKS
  0
BLOCK
  5
20
330
1F
100
AcDbEntity
  8
0
100
AcDbBlockBegin
  2
*Model_Space
 70
     0
 10
0.0
 20
0.0
 30
0.0
  3
*Model_Space
  1

  0
ENDBLK
  5
21
330
1F
100
AcDbEntity
  8
0
100
AcDbBlockEnd
  0
BLOCK
  5
1C
330
1B
100
AcDbEntity
 67
     1
  8
0
100
AcDbBlockBegin
  2
*Paper_Space
 70
     0
 10
0.0
 20
0.0
 30
0.0
  3
*Paper_Space
  1

  0
ENDBLK
  5
1D
330
1B
100
AcDbEntity
 67
     1
  8
0
100
AcDbBlockEnd
  0
BLOCK
  5
24
330
23
100
AcDbEntity
  8
0
100
AcDbBlockBegin
  2
*Paper_Space0
 70
     0
 10
0.0
 20
0.0
 30
0.0
  3
*Paper_Space0
  1

  0
ENDBLK
  5
25
330
23
100
AcDbEntity
  8
0
100
AcDbBlockEnd
  0
BLOCK
  5
73
330
71
100
AcDbEntity
  8
0
100
AcDbBlockBegin
  2
GENAXEH
 70
     0
 10
0.0
 20
0.0
 30
0.0
  3
GENAXEH
  1

  0
LINE
  5
72
330
71
100
AcDbEntity
  8
0
100
AcDbLine
 10
-1.0
 20
0.0
 30
0.0
 11
1.0
 21
0.0
 31
0.0
  0
ENDBLK
  5
74
330
71
100
AcDbEntity
  8
0
100
AcDbBlockEnd
  0
BLOCK
  5
39F7
330
39ED
100
AcDbEntity
  8
0
100
AcDbBlockBegin
  2
*D37
 70
     1
 10
0.0
 20
0.0
 30
0.0
  3
*D37
  1

  0
LINE
  5
3A7A
330
39ED
100
AcDbEntity
  8
AM_REFDIM
100
AcDbLine
 10
1753.423393482117
 20
-58.69332570216778
 30
0.0
 11
1753.423393482117
 21
3.850674297832085
 31
0.0
  0
LINE
  5
3A7B
330
39ED
100
AcDbEntity
  8
AM_REFDIM
100
AcDbLine
 10
1823.423393482118
 20
-58.69332570216778
 30
0.0
 11
1823.423393482118
 21
3.850674297832085
 31
0.0
  0
LINE
  5
3A7C
330
39ED
100
AcDbEntity
  8
AM_REFDIM
100
AcDbLine
 10
1759.423393482117
 20
1.600674297832085
 30
0.0
 11
1817.423393482117
 21
1.600674297832085
 31
0.0
  0
SOLID
  5
3A7D
330
39ED
100
AcDbEntity
  8
AM_REFDIM
100
AcDbTrace
 10
1759.423393482117
 20
2.600674297832085
 30
0.0
 11
1759.423393482117
 21
0.6006742978320859
 31
0.0
 12
1753.423393482117
 22
1.600674297832085
 32
0.0
 13
1753.423393482117
 23
1.600674297832085
 33
0.0
  0
SOLID
  5
3A7E
330
39ED
100
AcDbEntity
  8
AM_REFDIM
100
AcDbTrace
 10
1817.423393482117
 20
2.600674297832085
 30
0.0
 11
1817.423393482117
 21
0.6006742978320859
 31
0.0
 12
1823.423393482118
 22
1.600674297832085
 32
0.0
 13
1823.423393482118
 23
1.600674297832085
 33
0.0
  0
MTEXT
  5
3A7F
330
39ED
100
AcDbEntity
  8
AM_REFDIM
100
AcDbMText
 10
1788.423393482118
 20
5.725674297832085
 30
0.0
 40
5.25
 41
0.0
 71
     5
 72
     1
  1
70
 73
     1
 44
1.0
1001
ACAD
1000
MTEXTBEGIN
1070
    73
1070
     1
1070
    44
1040
1.0
1070
    74
1070
     0
1000
MTEXTEND
  0
POINT
  5
3A80
330
39ED
100
AcDbEntity
  8
Defpoints
 62
     0
100
AcDbPoint
 10
1753.423393482117
 20
-60.19332570216779
 30
0.0
  0
POINT
  5
3A81
330
39ED
100
AcDbEntity
  8
Defpoints
 62
     0
100
AcDbPoint
 10
1823.423393482118
 20
-60.19332570216779
 30
0.0
  0
POINT
  5
3A82
330
39ED
100
AcDbEntity
  8
Defpoints
 62
     0
100
AcDbPoint
 10
1823.423393482118
 20
1.600674297832085
 30
0.0
  0
ENDBLK
  5
39F8
330
39ED
100
AcDbEntity
  8
0
100
AcDbBlockEnd
  0
BLOCK
  5
3A03
330
39F9
100
AcDbEntity
  8
0
100
AcDbBlockBegin
  2
*D38
 70
     1
 10
0.0
 20
0.0
 30
0.0
  3
*D38
  1

  0
LINE
  5
3A83
330
39F9
100
AcDbEntity
  8
AM_REFDIM
100
AcDbLine
 10
1768.723393482117
 20
-38.89932570216791
 30
0.0
 11
1768.723393482117
 21
-16.14932570216791
 31
0.0
  0
LINE
  5
3A84
330
39F9
100
AcDbEntity
  8
AM_REFDIM
100
AcDbLine
 10
1807.723393482118
 20
-38.89932570216791
 30
0.0
 11
1807.723393482118
 21
-16.14932570216791
 31
0.0
  0
LINE
  5
3A85
330
39F9
100
AcDbEntity
  8
AM_REFDIM
100
AcDbLine
 10
1774.723393482117
 20
-18.39932570216791
 30
0.0
 11
1801.723393482117
 21
-18.39932570216791
 31
0.0
  0
SOLID
  5
3A86
330
39F9
100
AcDbEntity
  8
AM_REFDIM
100
AcDbTrace
 10
1774.723393482117
 20
-17.39932570216791
 30
0.0
 11
1774.723393482117
 21
-19.39932570216791
 31
0.0
 12
1768.723393482117
 22
-18.39932570216791
 32
0.0
 13
1768.723393482117
 23
-18.39932570216791
 33
0.0
  0
SOLID
  5
3A87
330
39F9
100
AcDbEntity
  8
AM_REFDIM
100
AcDbTrace
 10
1801.723393482117
 20
-17.39932570216791
 30
0.0
 11
1801.723393482117
 21
-19.39932570216791
 31
0.0
 12
1807.723393482118
 22
-18.39932570216791
 32
0.0
 13
1807.723393482118
 23
-18.39932570216791
 33
0.0
  0
MTEXT
  5
3A88
330
39F9
100
AcDbEntity
  8
AM_REFDIM
100
AcDbMText
 10
1788.223393482117
 20
-14.27432570216791
 30
0.0
 40
5.25
 41
0.0
 71
     5
 72
     1
  1
39
 73
     1
 44
1.0
1001
ACAD
1000
MTEXTBEGIN
1070
    73
1070
     1
1070
    44
1040
1.0
1070
    74
1070
     0
1000
MTEXTEND
  0
POINT
  5
3A89
330
39F9
100
AcDbEntity
  8
Defpoints
 62
     0
100
AcDbPoint
 10
1768.723393482117
 20
-40.39932570216791
 30
0.0
  0
POINT
  5
3A8A
330
39F9
100
AcDbEntity
  8
Defpoints
 62
     0
100
AcDbPoint
 10
1807.723393482118
 20
-40.39932570216791
 30
0.0
  0
POINT
  5
3A8B
330
39F9
100
AcDbEntity
  8
Defpoints
 62
     0
100
AcDbPoint
 10
1807.723393482118
 20
-18.39932570216791
 30
0.0
  0
ENDBLK
  5
3A04
330
39F9
100
AcDbEntity
  8
0
100
AcDbBlockEnd
  0
BLOCK
  5
3A0F
330
3A05
100
AcDbEntity
  8
0
100
AcDbBlockBegin
  2
*D39
 70
     1
 10
0.0
 20
0.0
 30
0.0
  3
*D39
  1

  0
LINE
  5
3A8C
330
3A05
100
AcDbEntity
  8
AM_REFDIM
100
AcDbLine
 10
1755.723393482117
 20
-41.69332570216778
 30
0.0
 11
1755.723393482117
 21
-6.149325702167914
 31
0.0
  0
LINE
  5
3A8D
330
3A05
100
AcDbEntity
  8
AM_REFDIM
100
AcDbLine
 10
1820.723393482117
 20
-41.69332570216778
 30
0.0
 11
1820.723393482117
 21
-6.149325702167914
 31
0.0
  0
LINE
  5
3A8E
330
3A05
100
AcDbEntity
  8
AM_REFDIM
100
AcDbLine
 10
1761.723393482117
 20
-8.399325702167914
 30
0.0
 11
1814.723393482117
 21
-8.399325702167914
 31
0.0
  0
SOLID
  5
3A8F
330
3A05
100
AcDbEntity
  8
AM_REFDIM
100
AcDbTrace
 10
1761.723393482117
 20
-7.399325702167914
 30
0.0
 11
1761.723393482117
 21
-9.399325702167914
 31
0.0
 12
1755.723393482117
 22
-8.399325702167914
 32
0.0
 13
1755.723393482117
 23
-8.399325702167914
 33
0.0
  0
SOLID
  5
3A90
330
3A05
100
AcDbEntity
  8
AM_REFDIM
100
AcDbTrace
 10
1814.723393482117
 20
-7.399325702167914
 30
0.0
 11
1814.723393482117
 21
-9.399325702167914
 31
0.0
 12
1820.723393482117
 22
-8.399325702167914
 32
0.0
 13
1820.723393482117
 23
-8.399325702167914
 33
0.0
  0
MTEXT
  5
3A91
330
3A05
100
AcDbEntity
  8
AM_REFDIM
100
AcDbMText
 10
1788.223393482117
 20
-4.274325702167914
 30
0.0
 40
5.25
 41
0.0
 71
     5
 72
     1
  1
65
 73
     1
 44
1.0
1001
ACAD
1000
MTEXTBEGIN
1070
    73
1070
     1
1070
    44
1040
1.0
1070
    74
1070
     0
1000
MTEXTEND
  0
POINT
  5
3A92
330
3A05
100
AcDbEntity
  8
Defpoints
 62
     0
100
AcDbPoint
 10
1755.723393482117
 20
-43.19332570216778
 30
0.0
  0
POINT
  5
3A93
330
3A05
100
AcDbEntity
  8
Defpoints
 62
     0
100
AcDbPoint
 10
1820.723393482117
 20
-43.19332570216778
 30
0.0
  0
POINT
  5
3A94
330
3A05
100
AcDbEntity
  8
Defpoints
 62
     0
100
AcDbPoint
 10
1820.723393482117
 20
-8.399325702167914
 30
0.0
  0
ENDBLK
  5
3A10
330
3A05
100
AcDbEntity
  8
0
100
AcDbBlockEnd
  0
BLOCK
  5
3A1B
330
3A11
100
AcDbEntity
  8
0
100
AcDbBlockBegin
  2
*D40
 70
     1
 10
0.0
 20
0.0
 30
0.0
  3
*D40
  1

  0
LINE
  5
3A95
330
3A11
100
AcDbEntity
  8
AM_REFDIM
100
AcDbLine
 10
1833.666753177969
 20
-75.19332570216779
 30
0.0
 11
1843.819449497622
 21
-75.19332570216779
 31
0.0
  0
LINE
  5
3A96
330
3A11
100
AcDbEntity
  8
AM_REFDIM
100
AcDbLine
 10
1819.153437432748
 20
-46.19332570216778
 30
0.0
 11
1843.819449497622
 21
-46.19332570216779
 31
0.0
  0
LINE
  5
3A97
330
3A11
100
AcDbEntity
  8
AM_REFDIM
100
AcDbLine
 10
1841.569449497622
 20
-69.19332570216778
 30
0.0
 11
1841.569449497622
 21
-52.19332570216779
 31
0.0
  0
SOLID
  5
3A98
330
3A11
100
AcDbEntity
  8
AM_REFDIM
100
AcDbTrace
 10
1840.569449497622
 20
-69.19332570216778
 30
0.0
 11
1842.569449497622
 21
-69.19332570216778
 31
0.0
 12
1841.569449497622
 22
-75.19332570216779
 32
0.0
 13
1841.569449497622
 23
-75.19332570216779
 33
0.0
  0
SOLID
  5
3A99
330
3A11
100
AcDbEntity
  8
AM_REFDIM
100
AcDbTrace
 10
1840.569449497622
 20
-52.19332570216779
 30
0.0
 11
1842.569449497622
 21
-52.19332570216779
 31
0.0
 12
1841.569449497622
 22
-46.19332570216779
 32
0.0
 13
1841.569449497622
 23
-46.19332570216779
 33
0.0
  0
MTEXT
  5
3A9A
330
3A11
100
AcDbEntity
  8
AM_REFDIM
100
AcDbMText
 10
1837.443932765339
 20
-60.69332570216778
 30
0.0
 40
5.25
 41
0.0
 71
     5
 72
     1
  1
29
 11
0.0000000000000001
 21
1.0
 31
0.0
 73
     1
 44
1.0
1001
ACAD
1000
MTEXTBEGIN
1070
    73
1070
     1
1070
    44
1040
1.0
1070
    74
1070
     0
1000
MTEXTEND
  0
POINT
  5
3A9B
330
3A11
100
AcDbEntity
  8
Defpoints
 62
     0
100
AcDbPoint
 10
1832.166753177969
 20
-75.19332570216779
 30
0.0
  0
POINT
  5
3A9C
330
3A11
100
AcDbEntity
  8
Defpoints
 62
     0
100
AcDbPoint
 10
1817.653437432748
 20
-46.19332570216778
 30
0.0
  0
POINT
  5
3A9D
330
3A11
100
AcDbEntity
  8
Defpoints
 62
     0
100
AcDbPoint
 10
1841.569449497622
 20
-46.19332570216779
 30
0.0
  0
ENDBLK
  5
3A1C
330
3A11
100
AcDbEntity
  8
0
100
AcDbBlockEnd
  0
BLOCK
  5
3A27
330
3A1D
100
AcDbEntity
  8
0
100
AcDbBlockBegin
  2
*D41
 70
     1
 10
0.0
 20
0.0
 30
0.0
  3
*D41
  1

  0
LINE
  5
3A9E
330
3A1D
100
AcDbEntity
  8
AM_REFDIM
100
AcDbLine
 10
1760.723393482117
 20
-44.69332570216778
 30
0.0
 11
1760.723393482117
 21
-26.14932570216792
 31
0.0
  0
LINE
  5
3A9F
330
3A1D
100
AcDbEntity
  8
AM_REFDIM
100
AcDbLine
 10
1776.723393482117
 20
-44.69332570216778
 30
0.0
 11
1776.723393482117
 21
-26.14932570216792
 31
0.0
  0
LINE
  5
3AA0
330
3A1D
100
AcDbEntity
  8
AM_REFDIM
100
AcDbLine
 10
1766.723393482117
 20
-28.39932570216792
 30
0.0
 11
1770.723393482117
 21
-28.39932570216792
 31
0.0
  0
SOLID
  5
3AA1
330
3A1D
100
AcDbEntity
  8
AM_REFDIM
100
AcDbTrace
 10
1766.723393482117
 20
-27.39932570216792
 30
0.0
 11
1766.723393482117
 21
-29.39932570216792
 31
0.0
 12
1760.723393482117
 22
-28.39932570216792
 32
0.0
 13
1760.723393482117
 23
-28.39932570216792
 33
0.0
  0
SOLID
  5
3AA2
330
3A1D
100
AcDbEntity
  8
AM_REFDIM
100
AcDbTrace
 10
1770.723393482117
 20
-27.39932570216792
 30
0.0
 11
1770.723393482117
 21
-29.39932570216792
 31
0.0
 12
1776.723393482117
 22
-28.39932570216792
 32
0.0
 13
1776.723393482117
 23
-28.39932570216792
 33
0.0
  0
MTEXT
  5
3AA3
330
3A1D
100
AcDbEntity
  8
AM_REFDIM
100
AcDbMText
 10
1768.723393482117
 20
-24.27432570216792
 30
0.0
 40
5.25
 41
0.0
 71
     5
 72
     1
  1
16
 73
     1
 44
1.0
1001
ACAD
1000
MTEXTBEGIN
1070
    73
1070
     1
1070
    44
1040
1.0
1070
    74
1070
     0
1000
MTEXTEND
  0
POINT
  5
3AA4
330
3A1D
100
AcDbEntity
  8
Defpoints
 62
     0
100
AcDbPoint
 10
1760.723393482117
 20
-46.19332570216778
 30
0.0
  0
POINT
  5
3AA5
330
3A1D
100
AcDbEntity
  8
Defpoints
 62
     0
100
AcDbPoint
 10
1776.723393482117
 20
-46.19332570216778
 30
0.0
  0
POINT
  5
3AA6
330
3A1D
100
AcDbEntity
  8
Defpoints
 62
     0
100
AcDbPoint
 10
1776.723393482117
 20
-28.39932570216792
 30
0.0
  0
ENDBLK
  5
3A28
330
3A1D
100
AcDbEntity
  8
0
100
AcDbBlockEnd
  0
BLOCK
  5
3A30
330
3A29
100
AcDbEntity
  8
0
100
AcDbBlockBegin
  2
*D42
 70
     1
 10
0.0
 20
0.0
 30
0.0
  3
*D42
  1

  0
LINE
  5
3AB5
330
3A29
100
AcDbEntity
  8
AM_REFDIM
100
AcDbLine
 10
1898.648610221127
 20
-87.08606807512968
 30
0.0
 11
1859.04597837919
 21
-129.618109933263
 31
0.0
  0
LINE
  5
3AB6
330
3A29
100
AcDbEntity
  8
AM_REFDIM
100
AcDbLine
 10
1859.04597837919
 20
-129.618109933263
 30
0.0
 11
1832.737661450056
 21
-129.618109933263
 31
0.0
  0
SOLID
  5
3AB7
330
3A29
100
AcDbEntity
  8
AM_REFDIM
100
AcDbTrace
 10
1897.916749152022
 20
-86.40461420616418
 30
0.0
 11
1899.380471290233
 21
-87.76752194409505
 31
0.0
 12
1902.73733343492
 22
-82.69490166049763
 32
0.0
 13
1902.73733343492
 23
-82.69490166049763
 33
0.0
  0
MTEXT
  5
3AB8
330
3A29
100
AcDbEntity
  8
AM_REFDIM
100
AcDbMText
 10
1845.141819914623
 20
-125.4925932009796
 30
0.0
 40
5.25
 41
0.0
 71
     5
 72
     1
  1
2-PT1/4
 73
     1
 44
1.0
1001
ACAD
1000
MTEXTBEGIN
1070
    73
1070
     1
1070
    44
1040
1.0
1070
    74
1070
     0
1000
MTEXTEND
  0
POINT
  5
3AB9
330
3A29
100
AcDbEntity
  8
Defpoints
 62
     0
100
AcDbPoint
 10
1902.73733343492
 20
-82.69490166049763
 30
0.0
  0
POINT
  5
3ABA
330
3A29
100
AcDbEntity
  8
Defpoints
 62
     0
100
AcDbPoint
 10
1909.722235591815
 20
-75.19332570216841
 30
0.0
  0
ENDBLK
  5
3A31
330
3A29
100
AcDbEntity
  8
0
100
AcDbBlockEnd
  0
BLOCK
  5
3A3C
330
3A32
100
AcDbEntity
  8
0
100
AcDbBlockBegin
  2
*D43
 70
     1
 10
0.0
 20
0.0
 30
0.0
  3
*D43
  1

  0
LINE
  5
3ABB
330
3A32
100
AcDbEntity
  8
AM_REFDIM
100
AcDbLine
 10
1875.722235591816
 20
-85.69332570216777
 30
0.0
 11
1875.722235591816
 21
-16.14932570216791
 31
0.0
  0
LINE
  5
3ABC
330
3A32
100
AcDbEntity
  8
AM_REFDIM
100
AcDbLine
 10
1943.722235591816
 20
-85.69332570216777
 30
0.0
 11
1943.722235591816
 21
-16.14932570216791
 31
0.0
  0
LINE
  5
3ABD
330
3A32
100
AcDbEntity
  8
AM_REFDIM
100
AcDbLine
 10
1881.722235591816
 20
-18.39932570216791
 30
0.0
 11
1937.722235591816
 21
-18.39932570216791
 31
0.0
  0
SOLID
  5
3ABE
330
3A32
100
AcDbEntity
  8
AM_REFDIM
100
AcDbTrace
 10
1881.722235591816
 20
-17.39932570216791
 30
0.0
 11
1881.722235591816
 21
-19.39932570216791
 31
0.0
 12
1875.722235591816
 22
-18.39932570216791
 32
0.0
 13
1875.722235591816
 23
-18.39932570216791
 33
0.0
  0
SOLID
  5
3ABF
330
3A32
100
AcDbEntity
  8
AM_REFDIM
100
AcDbTrace
 10
1937.722235591816
 20
-17.39932570216791
 30
0.0
 11
1937.722235591816
 21
-19.39932570216791
 31
0.0
 12
1943.722235591816
 22
-18.39932570216791
 32
0.0
 13
1943.722235591816
 23
-18.39932570216791
 33
0.0
  0
MTEXT
  5
3AC0
330
3A32
100
AcDbEntity
  8
AM_REFDIM
100
AcDbMText
 10
1902.887054041911
 20
-14.27432570216791
 30
0.0
 40
5.25
 41
0.0
 71
     5
 72
     1
  1
68
 73
     1
 44
1.0
1001
ACAD
1000
MTEXTBEGIN
1070
    73
1070
     1
1070
    44
1040
1.0
1070
    74
1070
     0
1000
MTEXTEND
  0
POINT
  5
3AC1
330
3A32
100
AcDbEntity
  8
Defpoints
 62
     0
100
AcDbPoint
 10
1875.722235591816
 20
-87.19332570216778
 30
0.0
  0
POINT
  5
3AC2
330
3A32
100
AcDbEntity
  8
Defpoints
 62
     0
100
AcDbPoint
 10
1943.722235591816
 20
-87.19332570216778
 30
0.0
  0
POINT
  5
3AC3
330
3A32
100
AcDbEntity
  8
Defpoints
 62
     0
100
AcDbPoint
 10
1943.722235591816
 20
-18.39932570216791
 30
0.0
  0
ENDBLK
  5
3A3D
330
3A32
100
AcDbEntity
  8
0
100
AcDbBlockEnd
  0
BLOCK
  5
3A48
330
3A3E
100
AcDbEntity
  8
0
100
AcDbBlockBegin
  2
*D44
 70
     1
 10
0.0
 20
0.0
 30
0.0
  3
*D44
  1

  0
LINE
  5
3AC4
330
3A3E
100
AcDbEntity
  8
AM_REFDIM
100
AcDbLine
 10
1884.722235591816
 20
-58.69332570216778
 30
0.0
 11
1884.722235591816
 21
-26.14932570216792
 31
0.0
  0
LINE
  5
3AC5
330
3A3E
100
AcDbEntity
  8
AM_REFDIM
100
AcDbLine
 10
1934.722235591816
 20
-58.69332570216778
 30
0.0
 11
1934.722235591816
 21
-26.14932570216792
 31
0.0
  0
LINE
  5
3AC6
330
3A3E
100
AcDbEntity
  8
AM_REFDIM
100
AcDbLine
 10
1890.722235591816
 20
-28.39932570216792
 30
0.0
 11
1928.722235591816
 21
-28.39932570216792
 31
0.0
  0
SOLID
  5
3AC7
330
3A3E
100
AcDbEntity
  8
AM_REFDIM
100
AcDbTrace
 10
1890.722235591816
 20
-27.39932570216792
 30
0.0
 11
1890.722235591816
 21
-29.39932570216792
 31
0.0
 12
1884.722235591816
 22
-28.39932570216792
 32
0.0
 13
1884.722235591816
 23
-28.39932570216792
 33
0.0
  0
SOLID
  5
3AC8
330
3A3E
100
AcDbEntity
  8
AM_REFDIM
100
AcDbTrace
 10
1928.722235591816
 20
-27.39932570216792
 30
0.0
 11
1928.722235591816
 21
-29.39932570216792
 31
0.0
 12
1934.722235591816
 22
-28.39932570216792
 32
0.0
 13
1934.722235591816
 23
-28.39932570216792
 33
0.0
  0
MTEXT
  5
3AC9
330
3A3E
100
AcDbEntity
  8
AM_REFDIM
100
AcDbMText
 10
1903.586247981763
 20
-24.27432570216792
 30
0.0
 40
5.25
 41
0.0
 71
     5
 72
     1
  1
50
 73
     1
 44
1.0
1001
ACAD
1000
MTEXTBEGIN
1070
    73
1070
     1
1070
    44
1040
1.0
1070
    74
1070
     0
1000
MTEXTEND
  0
POINT
  5
3ACA
330
3A3E
100
AcDbEntity
  8
Defpoints
 62
     0
100
AcDbPoint
 10
1884.722235591816
 20
-60.19332570216779
 30
0.0
  0
POINT
  5
3ACB
330
3A3E
100
AcDbEntity
  8
Defpoints
 62
     0
100
AcDbPoint
 10
1934.722235591816
 20
-60.19332570216779
 30
0.0
  0
POINT
  5
3ACC
330
3A3E
100
AcDbEntity
  8
Defpoints
 62
     0
100
AcDbPoint
 10
1934.722235591816
 20
-28.39932570216792
 30
0.0
  0
ENDBLK
  5
3A49
330
3A3E
100
AcDbEntity
  8
0
100
AcDbBlockEnd
  0
BLOCK
  5
3A54
330
3A4A
100
AcDbEntity
  8
0
100
AcDbBlockBegin
  2
*D45
 70
     1
 10
0.0
 20
0.0
 30
0.0
  3
*D45
  1

  0
LINE
  5
3ACD
330
3A4A
100
AcDbEntity
  8
AM_REFDIM
100
AcDbLine
 10
1909.722235591815
 20
-56.89932570216791
 30
0.0
 11
1909.722235591815
 21
-6.149325702167914
 31
0.0
  0
LINE
  5
3ACE
330
3A4A
100
AcDbEntity
  8
AM_REFDIM
100
AcDbLine
 10
1949.722235591815
 20
-36.69332570216778
 30
0.0
 11
1949.722235591815
 21
-6.149325702167914
 31
0.0
  0
LINE
  5
3ACF
330
3A4A
100
AcDbEntity
  8
AM_REFDIM
100
AcDbLine
 10
1915.722235591816
 20
-8.399325702167914
 30
0.0
 11
1943.722235591815
 21
-8.399325702167914
 31
0.0
  0
SOLID
  5
3AD0
330
3A4A
100
AcDbEntity
  8
AM_REFDIM
100
AcDbTrace
 10
1915.722235591816
 20
-7.399325702167914
 30
0.0
 11
1915.722235591816
 21
-9.399325702167914
 31
0.0
 12
1909.722235591815
 22
-8.399325702167914
 32
0.0
 13
1909.722235591815
 23
-8.399325702167914
 33
0.0
  0
SOLID
  5
3AD1
330
3A4A
100
AcDbEntity
  8
AM_REFDIM
100
AcDbTrace
 10
1943.722235591815
 20
-7.399325702167914
 30
0.0
 11
1943.722235591815
 21
-9.399325702167914
 31
0.0
 12
1949.722235591815
 22
-8.399325702167914
 32
0.0
 13
1949.722235591815
 23
-8.399325702167914
 33
0.0
  0
MTEXT
  5
3AD2
330
3A4A
100
AcDbEntity
  8
AM_REFDIM
100
AcDbMText
 10
1929.722235591816
 20
-4.274325702167914
 30
0.0
 40
5.25
 41
0.0
 71
     5
 72
     1
  1
40
 73
     1
 44
1.0
1001
ACAD
1000
MTEXTBEGIN
1070
    73
1070
     1
1070
    44
1040
1.0
1070
    74
1070
     0
1000
MTEXTEND
  0
POINT
  5
3AD3
330
3A4A
100
AcDbEntity
  8
Defpoints
 62
     0
100
AcDbPoint
 10
1909.722235591815
 20
-58.39932570216792
 30
0.0
  0
POINT
  5
3AD4
330
3A4A
100
AcDbEntity
  8
Defpoints
 62
     0
100
AcDbPoint
 10
1949.722235591815
 20
-38.19332570216778
 30
0.0
  0
POINT
  5
3AD5
330
3A4A
100
AcDbEntity
  8
Defpoints
 62
     0
100
AcDbPoint
 10
1949.722235591815
 20
-8.399325702167914
 30
0.0
  0
ENDBLK
  5
3A55
330
3A4A
100
AcDbEntity
  8
0
100
AcDbBlockEnd
  0
BLOCK
  5
3A60
330
3A56
100
AcDbEntity
  8
0
100
AcDbBlockBegin
  2
*D46
 70
     1
 10
0.0
 20
0.0
 30
0.0
  3
*D46
  1

  0
LINE
  5
3AD6
330
3A56
100
AcDbEntity
  8
AM_REFDIM
100
AcDbLine
 10
1951.222235591816
 20
-38.19332570216778
 30
0.0
 11
1963.972235591815
 21
-38.19332570216778
 31
0.0
  0
LINE
  5
3AD7
330
3A56
100
AcDbEntity
  8
AM_REFDIM
100
AcDbLine
 10
1920.579446768278
 20
-75.19332570216779
 30
0.0
 11
1963.972235591815
 21
-75.19332570216779
 31
0.0
  0
LINE
  5
3AD8
330
3A56
100
AcDbEntity
  8
AM_REFDIM
100
AcDbLine
 10
1961.722235591815
 20
-44.19332570216778
 30
0.0
 11
1961.722235591815
 21
-69.1933257021678
 31
0.0
  0
SOLID
  5
3AD9
330
3A56
100
AcDbEntity
  8
AM_REFDIM
100
AcDbTrace
 10
1960.722235591816
 20
-44.19332570216778
 30
0.0
 11
1962.722235591815
 21
-44.19332570216778
 31
0.0
 12
1961.722235591815
 22
-38.19332570216778
 32
0.0
 13
1961.722235591815
 23
-38.19332570216778
 33
0.0
  0
SOLID
  5
3ADA
330
3A56
100
AcDbEntity
  8
AM_REFDIM
100
AcDbTrace
 10
1960.722235591816
 20
-69.1933257021678
 30
0.0
 11
1962.722235591815
 21
-69.1933257021678
 31
0.0
 12
1961.722235591815
 22
-75.19332570216779
 32
0.0
 13
1961.722235591815
 23
-75.19332570216779
 33
0.0
  0
MTEXT
  5
3ADB
330
3A56
100
AcDbEntity
  8
AM_REFDIM
100
AcDbMText
 10
1957.597235591816
 20
-56.69332570216748
 30
0.0
 40
5.25
 41
0.0
 71
     5
 72
     1
  1
37
 11
0.0000000000000001
 21
1.0
 31
0.0
 73
     1
 44
1.0
1001
ACAD
1000
MTEXTBEGIN
1070
    73
1070
     1
1070
    44
1040
1.0
1070
    74
1070
     0
1000
MTEXTEND
  0
POINT
  5
3ADC
330
3A56
100
AcDbEntity
  8
Defpoints
 62
     0
100
AcDbPoint
 10
1949.722235591815
 20
-38.19332570216778
 30
0.0
  0
POINT
  5
3ADD
330
3A56
100
AcDbEntity
  8
Defpoints
 62
     0
100
AcDbPoint
 10
1919.079446768278
 20
-75.19332570216779
 30
0.0
  0
POINT
  5
3ADE
330
3A56
100
AcDbEntity
  8
Defpoints
 62
     0
100
AcDbPoint
 10
1961.722235591815
 20
-75.19332570216779
 30
0.0
  0
ENDBLK
  5
3A61
330
3A56
100
AcDbEntity
  8
0
100
AcDbBlockEnd
  0
BLOCK
  5
3A6C
330
3A62
100
AcDbEntity
  8
0
100
AcDbBlockBegin
  2
*D47
 70
     1
 10
0.0
 20
0.0
 30
0.0
  3
*D47
  1

  0
LINE
  5
3A63
330
3A62
100
AcDbEntity
  8
AM_REFDIM
100
AcDbLine
 10
1750.723393482117
 20
114.3620560511459
 30
0.0
 11
1750.723393482117
 21
138.9476166797582
 31
0.0
  0
LINE
  5
3A64
330
3A62
100
AcDbEntity
  8
AM_REFDIM
100
AcDbLine
 10
1825.723393482117
 20
114.3620560511459
 30
0.0
 11
1825.723393482117
 21
138.9476166797582
 31
0.0
  0
LINE
  5
3A65
330
3A62
100
AcDbEntity
  8
AM_REFDIM
100
AcDbLine
 10
1756.723393482117
 20
136.6976166797582
 30
0.0
 11
1819.723393482117
 21
136.6976166797582
 31
0.0
  0
SOLID
  5
3A66
330
3A62
100
AcDbEntity
  8
AM_REFDIM
100
AcDbTrace
 10
1756.723393482117
 20
137.6976166797582
 30
0.0
 11
1756.723393482117
 21
135.6976166797582
 31
0.0
 12
1750.723393482117
 22
136.6976166797582
 32
0.0
 13
1750.723393482117
 23
136.6976166797582
 33
0.0
  0
SOLID
  5
3A67
330
3A62
100
AcDbEntity
  8
AM_REFDIM
100
AcDbTrace
 10
1819.723393482117
 20
137.6976166797582
 30
0.0
 11
1819.723393482117
 21
135.6976166797582
 31
0.0
 12
1825.723393482117
 22
136.6976166797582
 32
0.0
 13
1825.723393482117
 23
136.6976166797582
 33
0.0
  0
MTEXT
  5
3A68
330
3A62
100
AcDbEntity
  8
AM_REFDIM
100
AcDbMText
 10
1788.223393482117
 20
140.8226166797582
 30
0.0
 40
5.25
 41
0.0
 71
     5
 72
     1
  1
75
 73
     1
 44
1.0
1001
ACAD
1000
MTEXTBEGIN
1070
    73
1070
     1
1070
    44
1040
1.0
1070
    74
1070
     0
1000
MTEXTEND
  0
POINT
  5
3A69
330
3A62
100
AcDbEntity
  8
Defpoints
 62
     0
100
AcDbPoint
 10
1750.723393482117
 20
112.8620560511459
 30
0.0
  0
POINT
  5
3A6A
330
3A62
100
AcDbEntity
  8
Defpoints
 62
     0
100
AcDbPoint
 10
1825.723393482117
 20
112.8620560511459
 30
0.0
  0
POINT
  5
3A6B
330
3A62
100
AcDbEntity
  8
Defpoints
 62
     0
100
AcDbPoint
 10
1825.723393482117
 20
136.6976166797582
 30
0.0
  0
ENDBLK
  5
3A6D
330
3A62
100
AcDbEntity
  8
0
100
AcDbBlockEnd
  0
BLOCK
  5
3A78
330
3A6E
100
AcDbEntity
  8
0
100
AcDbBlockBegin
  2
*D48
 70
     1
 10
0.0
 20
0.0
 30
0.0
  3
*D48
  1

  0
LINE
  5
3A6F
330
3A6E
100
AcDbEntity
  8
AM_REFDIM
100
AcDbLine
 10
1824.223393482117
 20
115.8620560511459
 30
0.0
 11
1847.997920442005
 21
115.8620560511459
 31
0.0
  0
LINE
  5
3A70
330
3A6E
100
AcDbEntity
  8
AM_REFDIM
100
AcDbLine
 10
1794.423393482118
 20
41.36205605114605
 30
0.0
 11
1847.997920442005
 21
41.36205605114604
 31
0.0
  0
LINE
  5
3A71
330
3A6E
100
AcDbEntity
  8
AM_REFDIM
100
AcDbLine
 10
1845.747920442005
 20
109.8620560511459
 30
0.0
 11
1845.747920442005
 21
47.36205605114604
 31
0.0
  0
SOLID
  5
3A72
330
3A6E
100
AcDbEntity
  8
AM_REFDIM
100
AcDbTrace
 10
1844.747920442005
 20
109.8620560511459
 30
0.0
 11
1846.747920442005
 21
109.8620560511459
 31
0.0
 12
1845.747920442005
 22
115.8620560511459
 32
0.0
 13
1845.747920442005
 23
115.8620560511459
 33
0.0
  0
SOLID
  5
3A73
330
3A6E
100
AcDbEntity
  8
AM_REFDIM
100
AcDbTrace
 10
1844.747920442005
 20
47.36205605114604
 30
0.0
 11
1846.747920442005
 21
47.36205605114604
 31
0.0
 12
1845.747920442005
 22
41.36205605114604
 32
0.0
 13
1845.747920442005
 23
41.36205605114604
 33
0.0
  0
MTEXT
  5
3A74
330
3A6E
100
AcDbEntity
  8
AM_REFDIM
100
AcDbMText
 10
1841.622920442005
 20
76.07466885125643
 30
0.0
 40
5.25
 41
0.0
 71
     5
 72
     1
  1
74.5
 11
0.0000000000000001
 21
1.0
 31
0.0
 73
     1
 44
1.0
1001
ACAD
1000
MTEXTBEGIN
1070
    73
1070
     1
1070
    44
1040
1.0
1070
    74
1070
     0
1000
MTEXTEND
  0
POINT
  5
3A75
330
3A6E
100
AcDbEntity
  8
Defpoints
 62
     0
100
AcDbPoint
 10
1822.723393482117
 20
115.8620560511459
 30
0.0
  0
POINT
  5
3A76
330
3A6E
100
AcDbEntity
  8
Defpoints
 62
     0
100
AcDbPoint
 10
1792.923393482118
 20
41.36205605114605
 30
0.0
  0
POINT
  5
3A77
330
3A6E
100
AcDbEntity
  8
Defpoints
 62
     0
100
AcDbPoint
 10
1845.747920442005
 20
41.36205605114604
 30
0.0
  0
ENDBLK
  5
3A79
330
3A6E
100
AcDbEntity
  8
0
100
AcDbBlockEnd
  0
BLOCK
  5
3AB3
330
3AA7
100
AcDbEntity
  8
0
100
AcDbBlockBegin
  2
*D49
 70
     1
 10
0.0
 20
0.0
 30
0.0
  3
*D49
  1

  0
LINE
  5
3AA8
330
3AA7
100
AcDbEntity
  8
AM_REFDIM
100
AcDbLine
 10
1762.223393482117
 20
-43.19332570216778
 30
0.0
 11
1741.473392472117
 21
-43.19332570216777
 31
0.0
  0
LINE
  5
3AA9
330
3AA7
100
AcDbEntity
  8
AM_REFDIM
100
AcDbLine
 10
1762.223393482117
 20
-49.19332570216778
 30
0.0
 11
1741.473392472117
 21
-49.19332570216777
 31
0.0
  0
LINE
  5
3AAA
330
3AA7
100
AcDbEntity
  8
AM_REFDIM
100
AcDbLine
 10
1743.723392472118
 20
-37.19332570216778
 30
0.0
 11
1743.723392472118
 21
-31.19332570216778
 31
0.0
  0
LINE
  5
3AAB
330
3AA7
100
AcDbEntity
  8
AM_REFDIM
100
AcDbLine
 10
1743.723392472118
 20
-55.19332570216778
 30
0.0
 11
1743.723392472118
 21
-61.19332570216777
 31
0.0
  0
LINE
  5
3AAC
330
3AA7
100
AcDbEntity
  8
AM_REFDIM
100
AcDbLine
 10
1743.723392472118
 20
-43.19332570216777
 30
0.0
 11
1743.723392472118
 21
-49.19332570216777
 31
0.0
  0
SOLID
  5
3AAD
330
3AA7
100
AcDbEntity
  8
AM_REFDIM
100
AcDbTrace
 10
1742.723392472117
 20
-37.19332570216778
 30
0.0
 11
1744.723392472118
 21
-37.19332570216778
 31
0.0
 12
1743.723392472118
 22
-43.19332570216777
 32
0.0
 13
1743.723392472118
 23
-43.19332570216777
 33
0.0
  0
SOLID
  5
3AAE
330
3AA7
100
AcDbEntity
  8
AM_REFDIM
100
AcDbTrace
 10
1742.723392472117
 20
-55.19332570216778
 30
0.0
 11
1744.723392472118
 21
-55.19332570216779
 31
0.0
 12
1743.723392472118
 22
-49.19332570216777
 32
0.0
 13
1743.723392472118
 23
-49.19332570216777
 33
0.0
  0
MTEXT
  5
3AAF
330
3AA7
100
AcDbEntity
  8
AM_REFDIM
100
AcDbMText
 10
1739.598392472117
 20
-46.1933257021675
 30
0.0
 40
5.25
 41
0.0
 71
     5
 72
     1
  1
6
 11
0.0000000000000001
 21
1.0
 31
0.0
 73
     1
 44
1.0
1001
ACAD
1000
MTEXTBEGIN
1070
    73
1070
     1
1070
    44
1040
1.0
1070
    74
1070
     0
1000
MTEXTEND
  0
POINT
  5
3AB0
330
3AA7
100
AcDbEntity
  8
Defpoints
 62
     0
100
AcDbPoint
 10
1763.723393482117
 20
-43.19332570216778
 30
0.0
  0
POINT
  5
3AB1
330
3AA7
100
AcDbEntity
  8
Defpoints
 62
     0
100
AcDbPoint
 10
1763.723393482117
 20
-49.19332570216778
 30
0.0
  0
POINT
  5
3AB2
330
3AA7
100
AcDbEntity
  8
Defpoints
 62
     0
100
AcDbPoint
 10
1743.723392472118
 20
-49.19332570216777
 30
0.0
  0
ENDBLK
  5
3AB4
330
3AA7
100
AcDbEntity
  8
0
100
AcDbBlockEnd
  0
BLOCK
  5
3AE9
330
3ADF
100
AcDbEntity
  8
0
100
AcDbBlockBegin
  2
*D50
 70
     1
 10
0.0
 20
0.0
 30
0.0
  3
*D50
  1

  0
LINE
  5
3AE0
330
3ADF
100
AcDbEntity
  8
AM_REFDIM
100
AcDbLine
 10
1762.923393482117
 20
-59.19332570216778
 30
0.0
 11
1715.64437388234
 21
-59.19332570216777
 31
0.0
  0
LINE
  5
3AE1
330
3ADF
100
AcDbEntity
  8
AM_REFDIM
100
AcDbLine
 10
1784.173393482118
 20
-231.7933257021678
 30
0.0
 11
1715.64437388234
 21
-231.7933257021678
 31
0.0
  0
LINE
  5
3AE2
330
3ADF
100
AcDbEntity
  8
AM_REFDIM
100
AcDbLine
 10
1717.89437388234
 20
-65.19332570216777
 30
0.0
 11
1717.89437388234
 21
-225.7933257021678
 31
0.0
  0
SOLID
  5
3AE3
330
3ADF
100
AcDbEntity
  8
AM_REFDIM
100
AcDbTrace
 10
1716.89437388234
 20
-65.19332570216777
 30
0.0
 11
1718.89437388234
 21
-65.19332570216777
 31
0.0
 12
1717.89437388234
 22
-59.19332570216777
 32
0.0
 13
1717.89437388234
 23
-59.19332570216777
 33
0.0
  0
SOLID
  5
3AE4
330
3ADF
100
AcDbEntity
  8
AM_REFDIM
100
AcDbTrace
 10
1716.89437388234
 20
-225.7933257021678
 30
0.0
 11
1718.89437388234
 21
-225.7933257021678
 31
0.0
 12
1717.89437388234
 22
-231.7933257021678
 32
0.0
 13
1717.89437388234
 23
-231.7933257021678
 33
0.0
  0
MTEXT
  5
3AE5
330
3ADF
100
AcDbEntity
  8
AM_REFDIM
100
AcDbMText
 10
1713.50687388234
 20
-145.4933257021675
 30
0.0
 40
5.25
 41
0.0
 71
     5
 72
     1
  1
(172.6)
 11
0.0000000000000001
 21
1.0
 31
0.0
 73
     1
 44
1.0
1001
ACAD
1000
MTEXTBEGIN
1070
    73
1070
     1
1070
    44
1040
1.0
1070
    74
1070
     0
1000
MTEXTEND
  0
POINT
  5
3AE6
330
3ADF
100
AcDbEntity
  8
Defpoints
 62
     0
100
AcDbPoint
 10
1764.423393482118
 20
-59.19332570216778
 30
0.0
  0
POINT
  5
3AE7
330
3ADF
100
AcDbEntity
  8
Defpoints
 62
     0
100
AcDbPoint
 10
1785.673393482118
 20
-231.7933257021678
 30
0.0
  0
POINT
  5
3AE8
330
3ADF
100
AcDbEntity
  8
Defpoints
 62
     0
100
AcDbPoint
 10
1717.89437388234
 20
-231.7933257021678
 30
0.0
  0
ENDBLK
  5
3AEA
330
3ADF
100
AcDbEntity
  8
0
100
AcDbBlockEnd
  0
BLOCK
  5
3AF5
330
3AEB
100
AcDbEntity
  8
0
100
AcDbBlockBegin
  2
*D51
 70
     1
 10
0.0
 20
0.0
 30
0.0
  3
*D51
  1

  0
LINE
  5
3AEC
330
3AEB
100
AcDbEntity
  8
AM_REFDIM
100
AcDbLine
 10
1745.95152805727
 20
-75.19332570216779
 30
0.0
 11
1733.201528057271
 21
-75.19332570216779
 31
0.0
  0
LINE
  5
3AED
330
3AEB
100
AcDbEntity
  8
AM_REFDIM
100
AcDbLine
 10
1784.173393482118
 20
-231.7933257021678
 30
0.0
 11
1733.201528057271
 21
-231.7933257021678
 31
0.0
  0
LINE
  5
3AEE
330
3AEB
100
AcDbEntity
  8
AM_REFDIM
100
AcDbLine
 10
1735.451528057271
 20
-81.19332570216778
 30
0.0
 11
1735.451528057271
 21
-225.7933257021678
 31
0.0
  0
SOLID
  5
3AEF
330
3AEB
100
AcDbEntity
  8
AM_REFDIM
100
AcDbTrace
 10
1734.451528057271
 20
-81.19332570216778
 30
0.0
 11
1736.451528057271
 21
-81.19332570216778
 31
0.0
 12
1735.451528057271
 22
-75.19332570216779
 32
0.0
 13
1735.451528057271
 23
-75.19332570216779
 33
0.0
  0
SOLID
  5
3AF0
330
3AEB
100
AcDbEntity
  8
AM_REFDIM
100
AcDbTrace
 10
1734.451528057271
 20
-225.7933257021678
 30
0.0
 11
1736.451528057271
 21
-225.7933257021678
 31
0.0
 12
1735.451528057271
 22
-231.7933257021678
 32
0.0
 13
1735.451528057271
 23
-231.7933257021678
 33
0.0
  0
MTEXT
  5
3AF1
330
3AEB
100
AcDbEntity
  8
AM_REFDIM
100
AcDbMText
 10
1731.326528057271
 20
-153.4933257021675
 30
0.0
 40
5.25
 41
0.0
 71
     5
 72
     1
  1
156.6
 11
0.0000000000000001
 21
1.0
 31
0.0
 73
     1
 44
1.0
1001
ACAD
1000
MTEXTBEGIN
1070
    73
1070
     1
1070
    44
1040
1.0
1070
    74
1070
     0
1000
MTEXTEND
  0
POINT
  5
3AF2
330
3AEB
100
AcDbEntity
  8
Defpoints
 62
     0
100
AcDbPoint
 10
1747.45152805727
 20
-75.19332570216779
 30
0.0
  0
POINT
  5
3AF3
330
3AEB
100
AcDbEntity
  8
Defpoints
 62
     0
100
AcDbPoint
 10
1785.673393482118
 20
-231.7933257021678
 30
0.0
  0
POINT
  5
3AF4
330
3AEB
100
AcDbEntity
  8
Defpoints
 62
     0
100
AcDbPoint
 10
1735.451528057271
 20
-231.7933257021678
 30
0.0
  0
ENDBLK
  5
3AF6
330
3AEB
100
AcDbEntity
  8
0
100
AcDbBlockEnd
  0
BLOCK
  5
3B03
330
3AF7
100
AcDbEntity
  8
0
100
AcDbBlockBegin
  2
*D52
 70
     1
 10
0.0
 20
0.0
 30
0.0
  3
*D52
  1

  0
LINE
  5
3AF8
330
3AF7
100
AcDbEntity
  8
AM_REFDIM
100
AcDbLine
 10
1785.423393482117
 20
-230.2933257021678
 30
0.0
 11
1785.423393482117
 21
-243.0433257021678
 31
0.0
  0
LINE
  5
3AF9
330
3AF7
100
AcDbEntity
  8
AM_REFDIM
100
AcDbLine
 10
1791.423393482117
 20
-230.2933257021678
 30
0.0
 11
1791.423393482117
 21
-243.0433257021678
 31
0.0
  0
LINE
  5
3AFA
330
3AF7
100
AcDbEntity
  8
AM_REFDIM
100
AcDbLine
 10
1779.423393482118
 20
-240.7933257021678
 30
0.0
 11
1773.423393482118
 21
-240.7933257021678
 31
0.0
  0
LINE
  5
3AFB
330
3AF7
100
AcDbEntity
  8
AM_REFDIM
100
AcDbLine
 10
1797.423393482118
 20
-240.7933257021678
 30
0.0
 11
1851.573393482118
 21
-240.7933257021678
 31
0.0
  0
LINE
  5
3AFC
330
3AF7
100
AcDbEntity
  8
AM_REFDIM
100
AcDbLine
 10
1785.423393482117
 20
-240.7933257021678
 30
0.0
 11
1791.423393482117
 21
-240.7933257021678
 31
0.0
  0
SOLID
  5
3AFD
330
3AF7
100
AcDbEntity
  8
AM_REFDIM
100
AcDbTrace
 10
1779.423393482118
 20
-239.7933257021678
 30
0.0
 11
1779.423393482118
 21
-241.7933257021678
 31
0.0
 12
1785.423393482117
 22
-240.7933257021678
 32
0.0
 13
1785.423393482117
 23
-240.7933257021678
 33
0.0
  0
SOLID
  5
3AFE
330
3AF7
100
AcDbEntity
  8
AM_REFDIM
100
AcDbTrace
 10
1797.423393482118
 20
-239.7933257021678
 30
0.0
 11
1797.423393482118
 21
-241.7933257021678
 31
0.0
 12
1791.423393482117
 22
-240.7933257021678
 32
0.0
 13
1791.423393482117
 23
-240.7933257021678
 33
0.0
  0
MTEXT
  5
3AFF
330
3AF7
100
AcDbEntity
  8
AM_REFDIM
100
AcDbMText
 10
1827.498393482118
 20
-236.6318152868297
 30
0.0
 40
5.25
 41
0.0
 71
     5
 72
     1
  1
%%c6Drain Outlet
 73
     1
 44
1.0
1001
ACAD
1000
MTEXTBEGIN
1070
    73
1070
     1
1070
    44
1040
1.0
1070
    74
1070
     0
1000
MTEXTEND
  0
POINT
  5
3B00
330
3AF7
100
AcDbEntity
  8
Defpoints
 62
     0
100
AcDbPoint
 10
1785.423393482117
 20
-228.7933257021678
 30
0.0
  0
POINT
  5
3B01
330
3AF7
100
AcDbEntity
  8
Defpoints
 62
     0
100
AcDbPoint
 10
1791.423393482117
 20
-228.7933257021678
 30
0.0
  0
POINT
  5
3B02
330
3AF7
100
AcDbEntity
  8
Defpoints
 62
     0
100
AcDbPoint
 10
1791.423393482117
 20
-240.7933257021678
 30
0.0
  0
ENDBLK
  5
3B04
330
3AF7
100
AcDbEntity
  8
0
100
AcDbBlockEnd
  0
ENDSEC
  0
SECTION
  2
ENTITIES
  0
LWPOLYLINE
  5
21DB
330
1F
100
AcDbEntity
  8
LOGO
 62
     4
100
AcDbPolyline
 90
        4
 70
     1
 43
0.0
 10
1668.168825970062
 20
-286.8524887481749
 10
2010.11295274188
 20
-286.8524887481749
 10
2010.11295274188
 20
171.8296393297743
 10
1668.168825970062
 20
171.8296393297743
1001
GENIUS_GENREC_14
1002
{
1000
PYDIR
1011
1668.168825970062
1021
171.8296393297743
1031
0.0
1002
}
1002
{
1000
PXDIR
1011
2010.11295274188
1021
-286.8524887481749
1031
0.0
1002
}
1002
{
1000
PORI
1011
1668.168825970062
1021
-286.8524887481749
1031
0.0
1002
}
1002
{
1000
PINS
1011
1668.168825970062
1021
-286.8524887481749
1031
0.0
1002
}
1002
{
1000
PINS2
1011
2010.11295274188
1021
171.8296393297743
1031
0.0
1002
}
1002
{
1000
C
1070
     1
1002
}
1001
GENIUS_GENODEF_13
1002
{
1000
HIER
1070
     0
1002
}
1002
{
1000
MANEDIT
1070
     0
1002
}
1002
{
1000
NOSEL
1070
     0
1002
}
1002
{
1000
BEHIND
1070
     0
1002
}
1002
{
1000
OTHER
1070
     0
1002
}
1002
{
1000
REACTOR
1002
}
1001
GENIUS_GENOBJ-N-REC_13
1002
{
1000
OWNER
1000
GEN
1002
}
  0
LWPOLYLINE
  5
21DC
330
1F
100
AcDbEntity
  8
LOGO
 62
     4
100
AcDbPolyline
 90
        4
 70
     1
 43
0.0
 10
1668.168825970062
 20
-286.8524887481749
 10
2010.11295274188
 20
-286.8524887481749
 10
2010.11295274188
 20
-328.1217075645065
 10
1668.168825970062
 20
-328.1217075645065
1001
GENIUS_GENREC_14
1002
{
1000
PYDIR
1011
1668.168825970062
1021
-328.1217075645065
1031
0.0
1002
}
1002
{
1000
PXDIR
1011
2010.11295274188
1021
-286.8524887481749
1031
0.0
1002
}
1002
{
1000
PORI
1011
1668.168825970062
1021
-286.8524887481749
1031
0.0
1002
}
1002
{
1000
PINS
1011
1668.168825970062
1021
-286.8524887481749
1031
0.0
1002
}
1002
{
1000
PINS2
1011
2010.11295274188
1021
-328.1217075645065
1031
0.0
1002
}
1002
{
1000
C
1070
     1
1002
}
1001
GENIUS_GENOBJ-N-REC_13
1002
{
1000
OWNER
1000
GEN
1002
}
1001
GENIUS_GENODEF_13
1002
{
1000
HIER
1070
     0
1002
}
1002
{
1000
MANEDIT
1070
     0
1002
}
1002
{
1000
NOSEL
1070
     0
1002
}
1002
{
1000
BEHIND
1070
     0
1002
}
1002
{
1000
OTHER
1070
     0
1002
}
1002
{
1000
REACTOR
1002
}
  0
TEXT
  5
21DD
330
1F
100
AcDbEntity
  8
LOGO
 62
     7
100
AcDbText
 10
1761.351989439702
 20
-304.9318312558437
 30
0.0
 40
5.502562508844108
  1
Order example:
 41
0.8
  7
CHINESET
100
AcDbText
  0
TEXT
  5
21DE
330
1F
100
AcDbEntity
  8
LOGO
 62
     7
100
AcDbText
 10
1762.339194658129
 20
-297.1853625634961
 30
0.0
 40
8.253843763266161
  1
訂購代號：
  7
CHINESET
100
AcDbText
  0
LINE
  5
21DF
330
1F
100
AcDbEntity
  8
LOGO
 62
     4
100
AcDbLine
 10
1758.96110736599
 20
-328.1217075645059
 30
0.0
 11
1758.96110736599
 21
-286.8524887481749
 31
0.0
  0
TEXT
  5
21E0
330
1F
100
AcDbEntity
  8
LOGO
  6
Continuous
100
AcDbText
 10
1682.992914877616
 20
-320.0144318087192
 30
0.0
 40
6.190382822449624
  1
金器工業股份有限公司
  7
CHINESET
100
AcDbText
  0
TEXT
  5
21E1
330
1F
100
AcDbEntity
  8
LOGO
  6
Continuous
100
AcDbText
 10
1671.622406339621
 20
-326.2060274608572
 30
0.0
 40
4.12692188163308
  1
MINDMAN INDUSTRIAL CO., LTD.
 41
0.85
  7
CHINESET
100
AcDbText
  0
LINE
  5
21E2
330
1F
100
AcDbEntity
  8
LOGO
 62
     4
100
AcDbLine
 10
1758.96110736599
 20
-295.1063325114413
 30
0.0
 11
1698.432919768704
 21
-295.1063325114413
 31
0.0
  0
LINE
  5
21E3
330
1F
100
AcDbEntity
  8
LOGO
 62
     4
100
AcDbLine
 10
1758.96110736599
 20
-303.3601762747074
 30
0.0
 11
1698.432919768704
 21
-303.3601762747074
 31
0.0
  0
LINE
  5
21E4
330
1F
100
AcDbEntity
  8
LOGO
 62
     4
100
AcDbLine
 10
1758.96110736599
 20
-311.6140200379731
 30
0.0
 11
1668.168825970062
 21
-311.6140200379731
 31
0.0
  0
LINE
  5
21E5
330
1F
100
AcDbEntity
  8
LOGO
 62
     4
100
AcDbLine
 10
1698.432919768704
 20
-311.6140200379731
 30
0.0
 11
1698.432919768704
 21
-286.8524887481749
 31
0.0
  0
TEXT
  5
21E6
330
1F
100
AcDbEntity
  8
LOGO
100
AcDbText
 10
1739.80107910451
 20
-309.5505590971573
 30
0.0
 40
4.12692188163308
  1
mm
  7
CHINESET
 72
     1
 11
1744.910601434151
 21
-307.4870981563407
 31
0.0
100
AcDbText
 73
     2
  0
TEXT
  5
21E7
330
1F
100
AcDbEntity
  8
LOGO
100
AcDbText
 10
1737.639358118893
 20
-293.0428715706247
 30
0.0
 40
4.12692188163308
  1
1 : 1
  7
CHINESET
 72
     1
 11
1744.910601434151
 21
-290.9794106298082
 31
0.0
100
AcDbText
 73
     2
  0
LINE
  5
21E8
330
1F
100
AcDbEntity
  8
LOGO
 62
     4
100
AcDbLine
 10
1731.448294821769
 20
-311.6140200379731
 30
0.0
 11
1731.448294821769
 21
-286.8524887481749
 31
0.0
  0
CIRCLE
  5
21E9
330
1F
100
AcDbEntity
  8
LOGO
  6
Continuous
100
AcDbCircle
 10
1739.089806872842
 20
-299.2244268769692
 30
0.0
 40
2.396187981267376
  0
CIRCLE
  5
21EA
330
1F
100
AcDbEntity
  8
LOGO
  6
Continuous
100
AcDbCircle
 10
1739.089806872842
 20
-299.2244268769692
 30
0.0
 40
1.403954034502306
  0
LINE
  5
21EB
330
1F
100
AcDbEntity
  8
LOGO
100
AcDbLine
 10
1754.147730189021
 20
-301.6206148582371
 30
0.0
 11
1754.147730189021
 21
-296.8282388957013
 31
0.0
  0
LINE
  5
21EC
330
1F
100
AcDbEntity
  8
LOGO
100
AcDbLine
 10
1746.635818415501
 20
-300.6283809114713
 30
0.0
 11
1746.635818415501
 21
-297.8204728424668
 31
0.0
  0
LINE
  5
21ED
330
1F
100
AcDbEntity
  8
LOGO
  6
Continuous
100
AcDbLine
 10
1746.635818415501
 20
-297.8204728424668
 30
0.0
 11
1754.147730189021
 21
-296.8282388957013
 31
0.0
  0
LINE
  5
21EE
330
1F
100
AcDbEntity
  8
LOGO
  6
Continuous
100
AcDbLine
 10
1746.635818415501
 20
-300.6283809114713
 30
0.0
 11
1754.147730189021
 21
-301.6206148582371
 31
0.0
  0
TEXT
  5
21EF
330
1F
100
AcDbEntity
  8
LOGO
100
AcDbText
 10
1701.835787945212
 20
-293.0408406051318
 30
270.4716614155986
 40
4.12692188163308
  1
比例 Scale:
 41
0.9
  7
CHINESET
 72
     4
 11
1714.940607295237
 21
-290.9794106298082
 31
270.4716614155986
100
AcDbText
  0
TEXT
  5
21F0
330
1F
100
AcDbEntity
  8
LOGO
100
AcDbText
 10
1701.59812146185
 20
-301.2386635702181
 30
270.4716614155986
 40
4.12692188163308
  1
投影  View:
 41
0.9
  7
CHINESET
 72
     4
 11
1714.940607295237
 21
-299.2332543930745
 31
270.4716614155986
100
AcDbText
  0
TEXT
  5
21F1
330
1F
100
AcDbEntity
  8
LOGO
100
AcDbText
 10
1702.001601770813
 20
-309.5505590971573
 30
270.4716614155986
 40
4.12692188163308
  1
單位  Unit:
 41
0.9
  7
CHINESET
 72
     4
 11
1714.940607295237
 21
-307.4870981563407
 31
270.4716614155986
100
AcDbText
  0
SOLID
  5
21F2
330
1F
100
AcDbEntity
  8
LOGO
 62
     5
100
AcDbTrace
 10
1672.450573654315
 20
-304.7535998308314
 30
0.0
 11
1674.234946385503
 21
-304.753599830832
 31
0.0
 12
1681.680087781149
 22
-287.832823931635
 32
0.0
 13
1683.464460512337
 23
-287.8328239316358
 33
0.0
  0
SOLID
  5
21F3
330
1F
100
AcDbEntity
  8
LOGO
 62
     5
100
AcDbTrace
 10
1674.973307515651
 20
-304.7535998308314
 30
0.0
 11
1676.757680246839
 21
-304.7535998308314
 31
0.0
 12
1683.464460512337
 22
-289.1864860035712
 32
0.0
 13
1681.680087781149
 23
-295.7291860179271
 33
0.0
  0
SOLID
  5
21F4
330
1F
100
AcDbEntity
  8
LOGO
 62
     2
100
AcDbTrace
 10
1674.234946385503
 20
-304.753599830832
 30
0.0
 11
1674.973307515651
 21
-304.7535998308314
 31
0.0
 12
1683.464460512337
 22
-287.8328239316358
 32
0.0
 13
1684.202821642485
 23
-287.8328239316358
 33
0.0
  0
SOLID
  5
21F5
330
1F
100
AcDbEntity
  8
LOGO
 62
     5
100
AcDbTrace
 10
1669.589786584426
 20
-310.9066092487207
 30
0.0
 11
1670.205087526215
 21
-310.9066092487207
 31
0.0
 12
1671.937822869491
 22
-307.8301045397763
 32
0.0
 13
1672.553123811279
 23
-307.8301045397763
 33
0.0
  0
SOLID
  5
21F6
330
1F
100
AcDbEntity
  8
LOGO
 62
     5
100
AcDbTrace
 10
1671.937822869491
 20
-307.8301045397763
 30
0.0
 11
1672.553123811279
 21
-307.8301045397763
 31
0.0
 12
1671.937822869491
 22
-310.9066092487207
 32
0.0
 13
1672.553123811279
 23
-310.9066092487207
 33
0.0
  0
SOLID
  5
21F7
330
1F
100
AcDbEntity
  8
LOGO
 62
     5
100
AcDbTrace
 10
1671.937822869491
 20
-310.9066092487207
 30
0.0
 11
1672.553123811279
 21
-310.9066092487207
 31
0.0
 12
1674.285859154557
 22
-307.8301045397763
 32
0.0
 13
1674.901160096346
 23
-307.8301045397763
 33
0.0
  0
SOLID
  5
21F8
330
1F
100
AcDbEntity
  8
LOGO
 62
     5
100
AcDbTrace
 10
1674.285859154557
 20
-307.8301045397763
 30
0.0
 11
1674.901160096346
 21
-307.8301045397763
 31
0.0
 12
1674.285859154557
 22
-310.9066092487207
 32
0.0
 13
1674.901160096346
 23
-310.9066092487207
 33
0.0
  0
POLYLINE
  5
21F9
330
1F
100
AcDbEntity
  8
LOGO
 62
     5
100
AcDb2dPolyline
 66
     1
 10
0.0
 20
0.0
 30
0.0
 40
0.6162870009905401
 41
0.6162870009905401
  0
VERTEX
  5
21FA
330
21F9
100
AcDbEntity
  8
LOGO
 62
     5
100
AcDbVertex
100
AcDb2dVertex
 10
1694.910537118415
 20
-309.0607064233541
 30
0.0
 42
1.0
  0
VERTEX
  5
21FB
330
21F9
100
AcDbEntity
  8
LOGO
 62
     5
100
AcDbVertex
100
AcDb2dVertex
 10
1693.061676115443
 20
-309.0607064233541
 30
0.0
 42
1.0
  0
SEQEND
  5
21FC
330
21F9
100
AcDbEntity
  8
LOGO
 62
     5
  0
POLYLINE
  5
21FD
330
1F
100
AcDbEntity
  8
LOGO
 62
     5
100
AcDb2dPolyline
 66
     1
 10
0.0
 20
0.0
 30
0.0
 70
     1
  0
VERTEX
  5
21FE
330
21FD
100
AcDbEntity
  8
LOGO
 62
     5
100
AcDbVertex
100
AcDb2dVertex
 10
1689.576490887503
 20
-309.368356894249
 30
0.0
 42
1.000000057330635
  0
VERTEX
  5
21FF
330
21FD
100
AcDbEntity
  8
LOGO
 62
     5
100
AcDbVertex
100
AcDb2dVertex
 10
1691.42239371287
 20
-309.368356894249
 30
0.0
 42
1.000000057330635
  0
SEQEND
  5
2200
330
21FD
100
AcDbEntity
  8
LOGO
 62
     5
  0
CIRCLE
  5
2201
330
1F
100
AcDbEntity
  8
LOGO
 62
     5
100
AcDbCircle
 10
1690.499442300188
 20
-309.368356894249
 30
0.0
 40
0.9229514126834329
  0
POLYLINE
  5
2202
330
1F
100
AcDbEntity
  8
LOGO
 62
     5
100
AcDb2dPolyline
 66
     1
 10
0.0
 20
0.0
 30
0.0
 70
     1
 40
0.6162870009905401
 41
0.6162870009905401
  0
VERTEX
  5
2203
330
2202
100
AcDbEntity
  8
LOGO
 62
     5
100
AcDbVertex
100
AcDb2dVertex
 10
1689.266868298206
 20
-309.368356894249
 30
0.0
 42
1.0
  0
VERTEX
  5
2204
330
2202
100
AcDbEntity
  8
LOGO
 62
     5
100
AcDbVertex
100
AcDb2dVertex
 10
1691.732016302168
 20
-309.368356894249
 30
0.0
 42
1.0
  0
SEQEND
  5
2205
330
2202
100
AcDbEntity
  8
LOGO
 62
     5
  0
LINE
  5
2206
330
1F
100
AcDbEntity
  8
LOGO
100
AcDbLine
 10
1695.216708500506
 20
-310.9066092487207
 30
0.0
 11
1695.216708500506
 21
-309.0607064233541
 31
0.0
  0
SOLID
  5
2207
330
1F
100
AcDbEntity
  8
LOGO
 62
     5
100
AcDbTrace
 10
1691.422332182779
 20
-307.8301045397763
 30
0.0
 11
1692.037633124567
 21
-307.8301045397763
 31
0.0
 12
1691.422332182779
 22
-310.9066092487207
 32
0.0
 13
1692.037633124567
 23
-310.9066092487207
 33
0.0
  0
SOLID
  5
2208
330
1F
100
AcDbEntity
  8
LOGO
 62
     5
100
AcDbTrace
 10
1692.75550473335
 20
-310.9066092487207
 30
0.0
 11
1693.37080567514
 21
-310.9066092487207
 31
0.0
 12
1692.75550473335
 22
-307.8301045397763
 32
0.0
 13
1693.37080567514
 23
-307.8301045397763
 33
0.0
  0
SOLID
  5
2209
330
1F
100
AcDbEntity
  8
LOGO
 62
     5
100
AcDbTrace
 10
1694.601407558718
 20
-309.0607064233541
 30
0.0
 11
1695.216708500506
 21
-309.0607064233541
 31
0.0
 12
1694.601407558718
 22
-310.9066092487207
 32
0.0
 13
1695.216708500506
 23
-310.9066092487207
 33
0.0
  0
SOLID
  5
220A
330
1F
100
AcDbEntity
  8
LOGO
 62
     5
100
AcDbTrace
 10
1692.693974639172
 20
-289.1864860035712
 30
0.0
 11
1690.909601907985
 21
-295.7291860179271
 31
0.0
 12
1692.693974639172
 22
-304.753599830832
 32
0.0
 13
1690.909601907985
 23
-304.753599830832
 33
0.0
  0
SOLID
  5
220B
330
1F
100
AcDbEntity
  8
LOGO
 62
     5
100
AcDbTrace
 10
1693.432335769319
 20
-304.753599830832
 30
0.0
 11
1695.216708500506
 21
-304.753599830832
 31
0.0
 12
1693.432335769319
 22
-287.8328239316358
 32
0.0
 13
1695.216708500506
 23
-287.832823931635
 33
0.0
  0
SOLID
  5
220C
330
1F
100
AcDbEntity
  8
LOGO
 62
     2
100
AcDbTrace
 10
1692.693974639172
 20
-287.832823931635
 30
0.0
 11
1693.432335769319
 21
-287.8328239316358
 31
0.0
 12
1692.693974639172
 22
-304.753599830832
 32
0.0
 13
1693.432335769319
 23
-304.753599830832
 33
0.0
  0
POLYLINE
  5
220D
330
1F
100
AcDbEntity
  8
LOGO
 62
     5
100
AcDb2dPolyline
 66
     1
 10
0.0
 20
0.0
 30
0.0
 40
0.6162870009905401
 41
0.6162870009905401
  0
VERTEX
  5
220E
330
220D
100
AcDbEntity
  8
LOGO
 62
     5
100
AcDbVertex
100
AcDb2dVertex
 10
1686.091182599377
 20
-309.0607064233541
 30
0.0
 42
1.0
  0
VERTEX
  5
220F
330
220D
100
AcDbEntity
  8
LOGO
 62
     5
100
AcDbVertex
100
AcDb2dVertex
 10
1684.242321596405
 20
-309.0607064233541
 30
0.0
 42
1.0
  0
SEQEND
  5
2210
330
220D
100
AcDbEntity
  8
LOGO
 62
     5
  0
POLYLINE
  5
2211
330
1F
100
AcDbEntity
  8
LOGO
 62
     5
100
AcDb2dPolyline
 66
     1
 10
0.0
 20
0.0
 30
0.0
 40
0.6162870009905401
 41
0.6162870009905401
  0
VERTEX
  5
2212
330
2211
100
AcDbEntity
  8
LOGO
 62
     5
100
AcDbVertex
100
AcDb2dVertex
 10
1687.937085424742
 20
-309.0607064233541
 30
0.0
 42
1.0
  0
VERTEX
  5
2213
330
2211
100
AcDbEntity
  8
LOGO
 62
     5
100
AcDbVertex
100
AcDb2dVertex
 10
1686.088224421771
 20
-309.0607064233541
 30
0.0
 42
1.0
  0
SEQEND
  5
2214
330
2211
100
AcDbEntity
  8
LOGO
 62
     5
  0
POLYLINE
  5
2215
330
1F
100
AcDbEntity
  8
LOGO
 62
     5
100
AcDb2dPolyline
 66
     1
 10
0.0
 20
0.0
 30
0.0
 40
0.6162870009905401
 41
0.6162870009905401
  0
VERTEX
  5
2216
330
2215
100
AcDbEntity
  8
LOGO
 62
     5
100
AcDbVertex
100
AcDb2dVertex
 10
1679.117730905705
 20
-309.0607064233541
 30
0.0
 42
1.0
  0
VERTEX
  5
2217
330
2215
100
AcDbEntity
  8
LOGO
 62
     5
100
AcDbVertex
100
AcDb2dVertex
 10
1677.268869902734
 20
-309.0607064233541
 30
0.0
 42
1.0
  0
SEQEND
  5
2218
330
2215
100
AcDbEntity
  8
LOGO
 62
     5
  0
SOLID
  5
2219
330
1F
100
AcDbEntity
  8
LOGO
 62
     5
100
AcDbTrace
 10
1676.962698520642
 20
-307.8301045397763
 30
0.0
 11
1677.57799946243
 21
-307.8301045397763
 31
0.0
 12
1676.962698520642
 22
-310.9066092487207
 32
0.0
 13
1677.57799946243
 23
-310.9066092487207
 33
0.0
  0
SOLID
  5
221A
330
1F
100
AcDbEntity
  8
LOGO
 62
     5
100
AcDbTrace
 10
1678.808601346009
 20
-309.0607064233541
 30
0.0
 11
1679.423902287799
 21
-309.0607064233541
 31
0.0
 12
1678.808601346009
 22
-310.9066092487207
 32
0.0
 13
1679.423902287799
 23
-310.9066092487207
 33
0.0
  0
POLYLINE
  5
221B
330
1F
100
AcDbEntity
  8
LOGO
 62
     5
100
AcDb2dPolyline
 66
     1
 10
0.0
 20
0.0
 30
0.0
 70
     1
 40
0.6162870009905401
 41
0.6162870009905401
  0
VERTEX
  5
221C
330
221B
100
AcDbEntity
  8
LOGO
 62
     5
100
AcDbVertex
100
AcDb2dVertex
 10
1680.447513779167
 20
-309.368356894249
 30
0.0
 42
1.0
  0
VERTEX
  5
221D
330
221B
100
AcDbEntity
  8
LOGO
 62
     5
100
AcDbVertex
100
AcDb2dVertex
 10
1682.912661783131
 20
-309.368356894249
 30
0.0
 42
1.0
  0
SEQEND
  5
221E
330
221B
100
AcDbEntity
  8
LOGO
 62
     5
  0
SOLID
  5
221F
330
1F
100
AcDbEntity
  8
LOGO
 62
     5
100
AcDbTrace
 10
1682.602977663739
 20
-306.9071531270925
 30
0.0
 11
1683.218278605528
 21
-306.9071531270925
 31
0.0
 12
1682.602977663739
 22
-310.9066092487207
 32
0.0
 13
1683.218278605528
 23
-310.9066092487207
 33
0.0
  0
SOLID
  5
2220
330
1F
100
AcDbEntity
  8
LOGO
 62
     5
100
AcDbTrace
 10
1683.936150214315
 20
-307.8301045397763
 30
0.0
 11
1684.551451156102
 21
-307.8301045397763
 31
0.0
 12
1683.936150214315
 22
-310.9066092487207
 32
0.0
 13
1684.551451156102
 23
-310.9066092487207
 33
0.0
  0
SOLID
  5
2221
330
1F
100
AcDbEntity
  8
LOGO
 62
     5
100
AcDbTrace
 10
1685.78205303968
 20
-309.0607064233541
 30
0.0
 11
1686.39735398147
 21
-309.0607064233541
 31
0.0
 12
1685.78205303968
 22
-310.9066092487207
 32
0.0
 13
1686.39735398147
 23
-310.9066092487207
 33
0.0
  0
SOLID
  5
2222
330
1F
100
AcDbEntity
  8
LOGO
 62
     5
100
AcDbTrace
 10
1687.627955865047
 20
-309.0607064233541
 30
0.0
 11
1688.243256806836
 21
-309.0607064233541
 31
0.0
 12
1687.627955865047
 22
-310.9066092487215
 32
0.0
 13
1688.243256806836
 23
-310.9066092487215
 33
0.0
  0
SOLID
  5
2223
330
1F
100
AcDbEntity
  8
LOGO
 62
     5
100
AcDbTrace
 10
1675.629525970067
 20
-307.3993938805239
 30
0.0
 11
1676.244826911858
 21
-307.3993938805239
 31
0.0
 12
1675.629525970067
 22
-306.9071531270925
 32
0.0
 13
1676.244826911858
 23
-306.9071531270925
 33
0.0
  0
SOLID
  5
2224
330
1F
100
AcDbEntity
  8
LOGO
 62
     5
100
AcDbTrace
 10
1675.629525970067
 20
-307.8301045397763
 30
0.0
 11
1676.244826911858
 21
-307.8301045397763
 31
0.0
 12
1675.629525970067
 22
-310.9066092487215
 32
0.0
 13
1676.244826911858
 23
-310.9066092487207
 33
0.0
  0
SOLID
  5
2225
330
1F
100
AcDbEntity
  8
LOGO
 62
     5
100
AcDbTrace
 10
1681.680087781149
 20
-304.7535998308314
 30
0.0
 11
1683.464460512337
 21
-304.7535998308314
 31
0.0
 12
1681.680087781149
 22
-295.7291860179271
 32
0.0
 13
1683.464460512337
 23
-289.1864860035712
 33
0.0
  0
SOLID
  5
2226
330
1F
100
AcDbEntity
  8
LOGO
 62
     5
100
AcDbTrace
 10
1684.202821642485
 20
-287.8328239316358
 30
0.0
 11
1685.987194373672
 21
-287.832823931635
 31
0.0
 12
1684.202821642485
 22
-303.3999377588961
 32
0.0
 13
1685.987194373672
 23
-296.8572377445399
 33
0.0
  0
SOLID
  5
2227
330
1F
100
AcDbEntity
  8
LOGO
 62
     2
100
AcDbTrace
 10
1683.464460512337
 20
-287.8328239316358
 30
0.0
 11
1684.202821642485
 21
-287.8328239316358
 31
0.0
 12
1683.464460512337
 22
-304.7535998308314
 32
0.0
 13
1684.202821642485
 23
-304.7535998308314
 33
0.0
  0
SOLID
  5
2228
330
1F
100
AcDbEntity
  8
LOGO
 62
     5
100
AcDbTrace
 10
1684.202821642485
 20
-303.3999377588961
 30
0.0
 11
1685.987194373672
 21
-296.8572377445399
 31
0.0
 12
1692.693974639172
 22
-287.832823931635
 32
0.0
 13
1690.909601907985
 23
-287.832823931635
 33
0.0
  0
SOLID
  5
2229
330
1F
100
AcDbEntity
  8
LOGO
 62
     5
100
AcDbTrace
 10
1684.202821642485
 20
-304.7535998308314
 30
0.0
 11
1685.987194373672
 21
-304.7535998308314
 31
0.0
 12
1692.693974639172
 22
-289.1864860035712
 32
0.0
 13
1690.909601907985
 23
-295.7291860179271
 33
0.0
  0
SOLID
  5
222A
330
1F
100
AcDbEntity
  8
LOGO
 62
     2
100
AcDbTrace
 10
1683.464460512337
 20
-304.7535998308314
 30
0.0
 11
1684.202821642485
 21
-304.7535998308314
 31
0.0
 12
1692.693974639172
 22
-287.832823931635
 32
0.0
 13
1693.432335769319
 23
-287.8328239316358
 33
0.0
  0
LINE
  5
222B
330
1F
100
AcDbEntity
  8
LOGO
 62
     4
100
AcDbLine
 10
1843.23789877116
 20
-309.5505590971564
 30
0.0
 11
1843.23789877116
 21
-324.6826059964785
 31
0.0
  0
LINE
  5
222C
330
1F
100
AcDbEntity
  8
LOGO
 62
     4
100
AcDbLine
 10
1815.725086226939
 20
-309.5505590971564
 30
0.0
 11
1815.725086226939
 21
-324.6826059964785
 31
0.0
  0
LINE
  5
222D
330
1F
100
AcDbEntity
  8
LOGO
 62
     4
100
AcDbLine
 10
1843.23789877116
 20
-324.6826059964785
 30
0.0
 11
1815.725086226939
 21
-324.6826059964785
 31
0.0
  0
LINE
  5
222E
330
1F
100
AcDbEntity
  8
LOGO
 62
     4
100
AcDbLine
 10
1870.044800936554
 20
-290.9794106298082
 30
0.0
 11
1815.725086226939
 21
-290.9794106298082
 31
0.0
  0
LINE
  5
222F
330
1F
100
AcDbEntity
  8
LOGO
 62
     4
100
AcDbLine
 10
1870.044800936554
 20
-303.3601762747074
 30
0.0
 11
1815.725086226939
 21
-303.3601762747074
 31
0.0
  0
LINE
  5
2230
330
1F
100
AcDbEntity
  8
LOGO
 62
     4
100
AcDbLine
 10
1815.725086226939
 20
-290.9794106298082
 30
0.0
 11
1815.725086226939
 21
-303.3601762747074
 31
0.0
  0
LINE
  5
2231
330
1F
100
AcDbEntity
  8
LOGO
 62
     4
100
AcDbLine
 10
1870.044800936554
 20
-290.9794106298082
 30
0.0
 11
1870.044800936554
 21
-303.3601762747074
 31
0.0
  0
LINE
  5
2232
330
1F
100
AcDbEntity
  8
LOGO
 62
     4
100
AcDbLine
 10
1830.91697027735
 20
-303.3601762747074
 30
0.0
 11
1830.91697027735
 21
-309.5505590971564
 31
0.0
  0
TEXT
  5
2233
330
1F
100
AcDbEntity
  8
LOGO
  6
Continuous
 62
     7
100
AcDbText
 10
1818.565419446762
 20
-300.7757095470121
 30
0.0
 40
7.223159180159997
  1
MAF403
  7
CHINESET
100
AcDbText
  0
LINE
  5
2234
330
1F
100
AcDbEntity
  8
LOGO
 62
     4
100
AcDbLine
 10
1843.23789877116
 20
-309.5505590971564
 30
0.0
 11
1815.725086226939
 21
-309.5505590971564
 31
0.0
  0
TEXT
  5
2235
330
1F
100
AcDbEntity
  8
LOGO
  6
Continuous
100
AcDbText
 10
1824.553860668141
 20
-322.5467496648901
 30
270.4716614155986
 40
3.095639648639999
  1
Model
 41
0.8
  7
CHINESET
100
AcDbText
  0
TEXT
  5
2236
330
1F
100
AcDbEntity
  8
LOGO
100
AcDbText
 10
1823.729902026729
 20
-316.8081009142722
 30
270.4716614155986
 40
5.159399414399998
  1
型號
  7
CHINESET
100
AcDbText
  0
LINE
  5
2237
330
1F
100
AcDbEntity
  8
LOGO
  6
Continuous
 62
     7
100
AcDbLine
 10
1872.754749542125
 20
-297.2136480807953
 30
0.0
 11
1878.221643896847
 21
-297.2136480807953
 31
0.0
  0
LINE
  5
2238
330
1F
100
AcDbEntity
  8
LOGO
 62
     4
100
AcDbLine
 10
1889.426786659057
 20
-309.5505590971564
 30
0.0
 11
1889.426786659057
 21
-324.6826059964785
 31
0.0
  0
LINE
  5
2239
330
1F
100
AcDbEntity
  8
LOGO
 62
     4
100
AcDbLine
 10
1849.102579530502
 20
-309.5505590971564
 30
0.0
 11
1849.102579530502
 21
-324.6826059964785
 31
0.0
  0
LINE
  5
223A
330
1F
100
AcDbEntity
  8
LOGO
 62
     4
100
AcDbLine
 10
1889.426786659057
 20
-324.6826059964785
 30
0.0
 11
1849.102579530502
 21
-324.6826059964785
 31
0.0
  0
LINE
  5
223B
330
1F
100
AcDbEntity
  8
LOGO
 62
     4
100
AcDbLine
 10
1907.170489665955
 20
-290.9794106298082
 30
0.0
 11
1881.135529506562
 21
-290.9794106298082
 31
0.0
  0
LINE
  5
223C
330
1F
100
AcDbEntity
  8
LOGO
 62
     4
100
AcDbLine
 10
1907.170489665955
 20
-303.3601762747074
 30
0.0
 11
1881.135529506562
 21
-303.3601762747074
 31
0.0
  0
LINE
  5
223D
330
1F
100
AcDbEntity
  8
LOGO
 62
     4
100
AcDbLine
 10
1881.135529506562
 20
-290.9794106298082
 30
0.0
 11
1881.135529506562
 21
-303.3601762747074
 31
0.0
  0
LINE
  5
223E
330
1F
100
AcDbEntity
  8
LOGO
 62
     4
100
AcDbLine
 10
1907.170489665955
 20
-290.9794106298082
 30
0.0
 11
1907.170489665955
 21
-303.3601762747074
 31
0.0
  0
LINE
  5
223F
330
1F
100
AcDbEntity
  8
LOGO
 62
     4
100
AcDbLine
 10
1889.616276174128
 20
-303.3601762747074
 30
0.0
 11
1889.616276174128
 21
-306.4553676859317
 31
0.0
  0
TEXT
  5
2240
330
1F
100
AcDbEntity
  8
LOGO
  6
Continuous
 62
     7
100
AcDbText
 10
1889.652246998359
 20
-300.7757095470121
 30
0.0
 40
7.223159180159997
  1
*A
  7
CHINESET
100
AcDbText
  0
LINE
  5
2241
330
1F
100
AcDbEntity
  8
LOGO
 62
     4
100
AcDbLine
 10
1889.426786659057
 20
-309.5505590971564
 30
0.0
 11
1849.102579530502
 21
-309.5505590971564
 31
0.0
  0
TEXT
  5
2242
330
1F
100
AcDbEntity
  8
LOGO
  6
Continuous
100
AcDbText
 10
1858.173597322199
 20
-322.5467496648901
 30
270.4716614155986
 40
3.095639648639999
  1
Bore size
 41
0.8
  7
CHINESET
100
AcDbText
  0
TEXT
  5
2243
330
1F
100
AcDbEntity
  8
LOGO
100
AcDbText
 10
1853.026417397116
 20
-316.8081009142722
 30
270.4716614155986
 40
5.159399414399998
  1
配管口徑代號
  7
CHINESET
100
AcDbText
  0
TEXT
  5
2244
330
1F
100
AcDbEntity
  8
LOGO
100
AcDbText
 10
1760.873254240731
 20
-325.9262014121762
 30
0.0
 40
4.127519531519997
  1
01103040
 41
0.7
  7
CHINESET
 72
     1
 11
1770.916885100763
 21
-325.9262014121762
 31
0.0
100
AcDbText
  0
LINE
  5
2245
330
1F
100
AcDbEntity
  8
LOGO
 62
     4
100
AcDbLine
 10
1783.726224555107
 20
-319.8678638012389
 30
0.0
 11
1783.72622455511
 21
-328.1217075645055
 31
0.0
  0
LINE
  5
2246
330
1F
100
AcDbEntity
  8
LOGO
 62
     4
100
AcDbLine
 10
1783.726224555107
 20
-319.8678638012389
 30
0.0
 11
1758.96110736599
 21
-319.8678638012389
 31
0.0
  0
LINE
  5
2247
330
1F
100
AcDbEntity
  8
LOGO
  6
AM_ISO08W050x2
 48
0.3
100
AcDbLine
 10
1735.786625860575
 20
-299.2244268769692
 30
0.0
 11
1742.392987885108
 21
-299.2244268769692
 31
0.0
1001
GENIUS_GENOREF_13
1005
224E
  0
LINE
  5
2248
330
1F
100
AcDbEntity
  8
LOGO
  6
AM_ISO08W050x2
 48
0.3
100
AcDbLine
 10
1739.089806872842
 20
-302.527607889236
 30
0.0
 11
1739.089806872842
 21
-295.9212458647026
 31
0.0
1001
GENIUS_GENOREF_13
1005
224D
  0
LINE
  5
2249
330
1F
100
AcDbEntity
  8
LOGO
  6
CENTER
 48
0.5
100
AcDbLine
 10
1746.035074266231
 20
-299.2244268769692
 30
0.0
 11
1754.904155387302
 21
-299.2244268769692
 31
0.0
1001
GENIUS_GENOREF_13
1005
224C
  0
LINE
  5
224A
330
1F
100
AcDbEntity
  8
LOGO
 62
     4
100
AcDbLine
 10
1869.264683094779
 20
-306.4553676859317
 30
0.0
 11
1869.264683094779
 21
-309.5505590971564
 31
0.0
  0
LINE
  5
224B
330
1F
100
AcDbEntity
  8
LOGO
 62
     4
100
AcDbLine
 10
1889.616276174128
 20
-306.4553676859317
 30
0.0
 11
1869.264683094779
 21
-306.4553676859317
 31
0.0
  0
POINT
  5
224C
330
1F
100
AcDbEntity
  8
0
 60
     1
100
AcDbPoint
 10
1027.919066745055
 20
-711.3459363636811
 30
0.0
1001
GENIUS_GENOBJ-N-CRS_13
1002
{
1000
OWNER
1000
GEN
1002
}
1001
GENIUS_GENOLIS_13
1002
{
1000
ENT
1005
0
1005
0
1005
0
1005
2249
1002
}
1001
GENIUS_GENOENT_13
1002
{
1000
MYREF
1005
224C
1002
}
1002
{
1000
GRP
1005
0
1002
}
1001
GENIUS_GENODEF_13
1002
{
1000
HIER
1070
    10
1002
}
1002
{
1000
MANEDIT
1070
     1
1002
}
1002
{
1000
NOSEL
1070
     0
1002
}
1002
{
1000
BEHIND
1070
     0
1002
}
1002
{
1000
OTHER
1070
     0
1002
}
1002
{
1000
REACTOR
1002
}
  0
POINT
  5
224D
330
1F
100
AcDbEntity
  8
0
 60
     1
100
AcDbPoint
 10
1016.5944815222
 20
-702.4703498850449
 30
0.0
1001
GENIUS_GENOBJ-N-CRS_13
1002
{
1000
OWNER
1000
GEN
1002
}
1001
GENIUS_GENOLIS_13
1002
{
1000
ENT
1005
0
1005
0
1005
0
1005
2248
1002
}
1001
GENIUS_GENOENT_13
1002
{
1000
MYREF
1005
224D
1002
}
1002
{
1000
GRP
1005
0
1002
}
1001
GENIUS_GENODEF_13
1002
{
1000
HIER
1070
    10
1002
}
1002
{
1000
MANEDIT
1070
     1
1002
}
1002
{
1000
NOSEL
1070
     0
1002
}
1002
{
1000
BEHIND
1070
     0
1002
}
1002
{
1000
OTHER
1070
     0
1002
}
1002
{
1000
REACTOR
1002
}
  0
POINT
  5
224E
330
1F
100
AcDbEntity
  8
0
 60
     1
100
AcDbPoint
 10
1022.953155220037
 20
-711.3459363636811
 30
0.0
1001
GENIUS_GENOBJ-N-CRS_13
1002
{
1000
OWNER
1000
GEN
1002
}
1001
GENIUS_GENOLIS_13
1002
{
1000
ENT
1005
0
1005
0
1005
0
1005
2247
1002
}
1001
GENIUS_GENOENT_13
1002
{
1000
MYREF
1005
224E
1002
}
1002
{
1000
GRP
1005
0
1002
}
1001
GENIUS_GENODEF_13
1002
{
1000
HIER
1070
    10
1002
}
1002
{
1000
MANEDIT
1070
     1
1002
}
1002
{
1000
NOSEL
1070
     0
1002
}
1002
{
1000
BEHIND
1070
     0
1002
}
1002
{
1000
OTHER
1070
     0
1002
}
1002
{
1000
REACTOR
1002
}
  0
LINE
  5
3642
330
1F
100
AcDbEntity
  8
AM_7
100
AcDbLine
 10
1788.423393482118
 20
75.86205605114606
 30
0.0
 11
1788.423393482118
 21
75.86205605114606
 31
0.0
  0
LINE
  5
3643
330
1F
100
AcDbEntity
  8
AM_7
100
AcDbLine
 10
1788.423393482118
 20
75.86205605114606
 30
0.0
 11
1788.423393482118
 21
75.86205605114606
 31
0.0
  0
LINE
  5
3644
330
1F
100
AcDbEntity
  8
AM_7
100
AcDbLine
 10
1749.923393482118
 20
75.86205605114606
 30
0.0
 11
1788.423393482118
 21
75.86205605114606
 31
0.0
  0
LINE
  5
3645
330
1F
100
AcDbEntity
  8
AM_7
100
AcDbLine
 10
1788.423393482118
 20
75.86205605114606
 30
0.0
 11
1826.923393482118
 21
75.86205605114606
 31
0.0
  0
LINE
  5
3646
330
1F
100
AcDbEntity
  8
AM_7
100
AcDbLine
 10
1788.423393482118
 20
37.36205605114605
 30
0.0
 11
1788.423393482118
 21
75.86205605114606
 31
0.0
  0
LINE
  5
3647
330
1F
100
AcDbEntity
  8
AM_7
100
AcDbLine
 10
1788.423393482118
 20
75.86205605114606
 30
0.0
 11
1788.423393482118
 21
114.362056051146
 31
0.0
  0
LINE
  5
3648
330
1F
100
AcDbEntity
  8
AM_7
100
AcDbLine
 10
1773.423393482118
 20
75.86205605114594
 30
0.0
 11
1773.423393482118
 21
75.86205605114594
 31
0.0
  0
LINE
  5
3649
330
1F
100
AcDbEntity
  8
AM_7
100
AcDbLine
 10
1773.423393482118
 20
75.86205605114594
 30
0.0
 11
1773.423393482118
 21
75.86205605114594
 31
0.0
  0
LINE
  5
364A
330
1F
100
AcDbEntity
  8
AM_7
100
AcDbLine
 10
1765.923393482118
 20
75.86205605114594
 30
0.0
 11
1773.423393482118
 21
75.86205605114594
 31
0.0
  0
LINE
  5
364B
330
1F
100
AcDbEntity
  8
AM_7
100
AcDbLine
 10
1773.423393482118
 20
75.86205605114594
 30
0.0
 11
1780.923393482117
 21
75.86205605114594
 31
0.0
  0
LINE
  5
364C
330
1F
100
AcDbEntity
  8
AM_7
100
AcDbLine
 10
1773.423393482118
 20
68.36205605114594
 30
0.0
 11
1773.423393482118
 21
75.86205605114594
 31
0.0
  0
LINE
  5
364D
330
1F
100
AcDbEntity
  8
AM_7
100
AcDbLine
 10
1773.423393482118
 20
75.86205605114594
 30
0.0
 11
1773.423393482118
 21
83.36205605114594
 31
0.0
  0
LINE
  5
364E
330
1F
100
AcDbEntity
  8
AM_7
100
AcDbLine
 10
1788.423393482118
 20
-214.7933257021678
 30
0.0
 11
1788.423393482118
 21
-56.19332570216778
 31
0.0
  0
LINE
  5
364F
330
1F
100
AcDbEntity
  8
AM_7
100
AcDbLine
 10
1772.423393482118
 20
-218.7933257021677
 30
0.0
 11
1784.923393482118
 21
-218.7933257021677
 31
0.0
  0
LINE
  5
3650
330
1F
100
AcDbEntity
  8
AM_7
100
AcDbLine
 10
1789.523393482118
 20
-218.7933257021677
 30
0.0
 11
1801.923393482118
 21
-218.7933257021677
 31
0.0
  0
LINE
  5
3651
330
1F
100
AcDbEntity
  8
AM_7
100
AcDbLine
 10
1788.423393482118
 20
-234.7933257021678
 30
0.0
 11
1788.423393482118
 21
-222.7933257021678
 31
0.0
  0
LINE
  5
3652
330
1F
100
AcDbEntity
  8
AM_7
100
AcDbLine
 10
1909.722235591816
 20
-214.7933257021678
 30
0.0
 11
1909.722235591816
 21
-56.19332570216778
 31
0.0
  0
LINE
  5
3653
330
1F
100
AcDbEntity
  8
AM_7
100
AcDbLine
 10
1898.427593255629
 20
-75.19332570216779
 30
0.0
 11
1921.079446768278
 21
-75.19332570216779
 31
0.0
  0
LINE
  5
3654
330
1F
100
AcDbEntity
  8
AM_7
100
AcDbLine
 10
1909.722235591816
 20
-234.7933257021678
 30
0.0
 11
1909.722235591816
 21
-222.7933257021678
 31
0.0
  0
LINE
  5
3655
330
1F
100
AcDbEntity
  8
AM_7
100
AcDbLine
 10
1909.722235591816
 20
-218.7933257021678
 30
0.0
 11
1909.722235591816
 21
-218.7933257021678
 31
0.0
  0
LINE
  5
3656
330
1F
100
AcDbEntity
  8
AM_7
100
AcDbLine
 10
1909.722235591816
 20
-218.7933257021678
 30
0.0
 11
1909.722235591816
 21
-218.7933257021678
 31
0.0
  0
LINE
  5
3657
330
1F
100
AcDbEntity
  8
AM_7
100
AcDbLine
 10
1901.222235591816
 20
-218.7933257021678
 30
0.0
 11
1909.722235591816
 21
-218.7933257021678
 31
0.0
  0
LINE
  5
3658
330
1F
100
AcDbEntity
  8
AM_7
100
AcDbLine
 10
1909.722235591816
 20
-218.7933257021678
 30
0.0
 11
1918.222235591816
 21
-218.7933257021678
 31
0.0
  0
LINE
  5
3659
330
1F
100
AcDbEntity
  8
AM_7
100
AcDbLine
 10
1909.722235591816
 20
-227.2933257021678
 30
0.0
 11
1909.722235591816
 21
-218.7933257021678
 31
0.0
  0
LINE
  5
365A
330
1F
100
AcDbEntity
  8
AM_7
100
AcDbLine
 10
1909.722235591816
 20
-218.7933257021678
 30
0.0
 11
1909.722235591816
 21
-210.2933257021678
 31
0.0
  0
LINE
  5
365B
330
1F
100
AcDbEntity
  8
AM_VIS
100
AcDbLine
 10
1753.423393482117
 20
58.86205605114594
 30
0.0
 11
1770.093090702294
 21
58.86205605114594
 31
0.0
  0
LINE
  5
365C
330
1F
100
AcDbEntity
  8
AM_VIS
100
AcDbLine
 10
1806.753696261941
 20
58.86205605114594
 30
0.0
 11
1823.423393482118
 21
58.86205605114594
 31
0.0
  0
LINE
  5
365D
330
1F
100
AcDbEntity
  8
AM_VIS
100
AcDbLine
 10
1823.423393482118
 20
92.86205605114593
 30
0.0
 11
1806.753696261941
 21
92.86205605114593
 31
0.0
  0
LINE
  5
365E
330
1F
100
AcDbEntity
  8
AM_VIS
100
AcDbLine
 10
1770.093090702294
 20
92.86205605114593
 30
0.0
 11
1753.423393482117
 21
92.86205605114593
 31
0.0
  0
LINE
  5
365F
330
1F
100
AcDbEntity
  8
AM_VIS
100
AcDbLine
 10
1807.532727685773
 20
45.94411250061085
 30
0.0
 11
1807.532727685773
 21
46.53914101370458
 31
0.0
  0
LINE
  5
3660
330
1F
100
AcDbEntity
  8
AM_VIS
100
AcDbLine
 10
1808.012492698828
 20
46.25602301938227
 30
0.0
 11
1808.012492698828
 21
46.85744966047275
 31
0.0
  0
LINE
  5
3661
330
1F
100
AcDbEntity
  8
AM_VIS
100
AcDbLine
 10
1809.127375205355
 20
47.02466468500745
 30
0.0
 11
1809.127375205355
 21
47.64246815897718
 31
0.0
  0
LINE
  5
3662
330
1F
100
AcDbEntity
  8
AM_VIS
100
AcDbLine
 10
1806.312753795434
 20
45.19903618061863
 30
0.0
 11
1806.312753795434
 21
45.77932366892452
 31
0.0
  0
LINE
  5
3663
330
1F
100
AcDbEntity
  8
AM_VIS
100
AcDbLine
 10
1800.208315153136
 20
42.3752583361067
 30
0.0
 11
1800.208315153136
 21
42.90578773678794
 31
0.0
  0
LINE
  5
3664
330
1F
100
AcDbEntity
  8
AM_VIS
100
AcDbLine
 10
1800.656095831987
 20
42.53622533052487
 30
0.0
 11
1800.656095831987
 21
43.06935879673438
 31
0.0
  0
LINE
  5
3665
330
1F
100
AcDbEntity
  8
AM_VIS
100
AcDbLine
 10
1805.924372594389
 20
44.97572039746524
 30
0.0
 11
1805.924372594389
 21
45.55173223050968
 31
0.0
  0
LINE
  5
3666
330
1F
100
AcDbEntity
  8
AM_VIS
100
AcDbLine
 10
1805.960926119193
 20
44.99646114349025
 30
0.0
 11
1805.960926119193
 21
45.57286740233098
 31
0.0
  0
LINE
  5
3667
330
1F
100
AcDbEntity
  8
AM_VIS
100
AcDbLine
 10
1805.805573638775
 20
44.90870707237661
 30
0.0
 11
1805.805573638775
 21
45.48344823246077
 31
0.0
  0
LINE
  5
3668
330
1F
100
AcDbEntity
  8
AM_VIS
100
AcDbLine
 10
1769.314059278462
 20
105.7799996016812
 30
0.0
 11
1769.314059278462
 21
105.1849710885874
 31
0.0
  0
LINE
  5
3669
330
1F
100
AcDbEntity
  8
AM_VIS
100
AcDbLine
 10
1768.834294265407
 20
105.4680890829097
 30
0.0
 11
1768.834294265407
 21
104.8666624418193
 31
0.0
  0
LINE
  5
366A
330
1F
100
AcDbEntity
  8
AM_VIS
100
AcDbLine
 10
1767.71941175888
 20
104.6994474172846
 30
0.0
 11
1767.71941175888
 21
104.0816439433148
 31
0.0
  0
LINE
  5
366B
330
1F
100
AcDbEntity
  8
AM_VIS
100
AcDbLine
 10
1770.534033168801
 20
106.5250759216734
 30
0.0
 11
1770.534033168801
 21
105.9447884333675
 31
0.0
  0
LINE
  5
366C
330
1F
100
AcDbEntity
  8
AM_VIS
100
AcDbLine
 10
1776.638471811099
 20
109.3488537661853
 30
0.0
 11
1776.638471811099
 21
108.8183243655041
 31
0.0
  0
LINE
  5
366D
330
1F
100
AcDbEntity
  8
AM_VIS
100
AcDbLine
 10
1776.190691132248
 20
109.1878867717672
 30
0.0
 11
1776.190691132248
 21
108.6547533055577
 31
0.0
  0
LINE
  5
366E
330
1F
100
AcDbEntity
  8
AM_VIS
100
AcDbLine
 10
1770.922414369846
 20
106.7483917048269
 30
0.0
 11
1770.922414369846
 21
106.1723798717823
 31
0.0
  0
LINE
  5
366F
330
1F
100
AcDbEntity
  8
AM_VIS
100
AcDbLine
 10
1770.885860845042
 20
106.7276509588017
 30
0.0
 11
1770.885860845042
 21
106.151244699961
 31
0.0
  0
LINE
  5
3670
330
1F
100
AcDbEntity
  8
AM_VIS
100
AcDbLine
 10
1771.04121332546
 20
106.8154050299154
 30
0.0
 11
1771.04121332546
 21
106.2406638698313
 31
0.0
  0
LINE
  5
3671
330
1F
100
AcDbEntity
  8
AM_VIS
100
AcDbLine
 10
1753.423393482117
 20
59.86205605114594
 30
0.0
 11
1753.423393482117
 21
91.86205605114594
 31
0.0
  0
LINE
  5
3672
330
1F
100
AcDbEntity
  8
AM_VIS
100
AcDbLine
 10
1823.423393482118
 20
91.86205605114594
 30
0.0
 11
1823.423393482118
 21
59.86205605114594
 31
0.0
  0
LINE
  5
3673
330
1F
100
AcDbEntity
  8
AM_VIS
100
AcDbLine
 10
1796.730017345035
 20
109.862056051146
 30
0.0
 11
1780.116769619199
 21
109.862056051146
 31
0.0
  0
LINE
  5
3674
330
1F
100
AcDbEntity
  8
AM_VIS
100
AcDbLine
 10
1796.608893354801
 20
108.8620382122589
 30
0.0
 11
1796.730163181325
 21
109.8620383656072
 31
0.0
  0
LINE
  5
3675
330
1F
100
AcDbEntity
  8
AM_VIS
100
AcDbLine
 10
1780.238040710245
 20
108.862056051146
 30
0.0
 11
1796.60874625399
 21
108.862056051146
 31
0.0
  0
LINE
  5
3676
330
1F
100
AcDbEntity
  8
AM_VIS
100
AcDbLine
 10
1780.11662378291
 20
109.8620383656072
 30
0.0
 11
1780.237893609434
 21
108.8620382122589
 31
0.0
  0
LINE
  5
3677
330
1F
100
AcDbEntity
  8
AM_VIS
100
AcDbLine
 10
1780.116769619199
 20
41.86205605114605
 30
0.0
 11
1796.730017345035
 21
41.86205605114605
 31
0.0
  0
LINE
  5
3678
330
1F
100
AcDbEntity
  8
AM_VIS
100
AcDbLine
 10
1780.11662378291
 20
41.86207373668486
 30
0.0
 11
1780.237893609434
 21
42.86207389003322
 31
0.0
  0
LINE
  5
3679
330
1F
100
AcDbEntity
  8
AM_VIS
100
AcDbLine
 10
1796.608893354801
 20
42.86207389003317
 30
0.0
 11
1796.730163181325
 21
41.86207373668486
 31
0.0
  0
LINE
  5
367A
330
1F
100
AcDbEntity
  8
AM_VIS
100
AcDbLine
 10
1783.923393482117
 20
109.862056051146
 30
0.0
 11
1783.923393482117
 21
110.362056051146
 31
0.0
  0
LINE
  5
367B
330
1F
100
AcDbEntity
  8
AM_VIS
100
AcDbLine
 10
1788.923393482118
 20
110.362056051146
 30
0.0
 11
1783.923393482117
 21
110.362056051146
 31
0.0
  0
LINE
  5
367C
330
1F
100
AcDbEntity
  8
AM_VIS
100
AcDbLine
 10
1788.923393482118
 20
109.862056051146
 30
0.0
 11
1788.923393482118
 21
110.362056051146
 31
0.0
  0
LINE
  5
367D
330
1F
100
AcDbEntity
  8
AM_VIS
100
AcDbLine
 10
1792.923393482118
 20
110.362056051146
 30
0.0
 11
1788.923393482118
 21
110.362056051146
 31
0.0
  0
LINE
  5
367E
330
1F
100
AcDbEntity
  8
AM_VIS
100
AcDbLine
 10
1792.923393482118
 20
109.862056051146
 30
0.0
 11
1792.923393482118
 21
110.362056051146
 31
0.0
  0
LINE
  5
367F
330
1F
100
AcDbEntity
  8
AM_VIS
100
AcDbLine
 10
1792.923393482118
 20
41.86205605114605
 30
0.0
 11
1792.923393482118
 21
41.36205605114605
 31
0.0
  0
LINE
  5
3680
330
1F
100
AcDbEntity
  8
AM_VIS
100
AcDbLine
 10
1788.923393482118
 20
41.36205605114605
 30
0.0
 11
1792.923393482118
 21
41.36205605114605
 31
0.0
  0
LINE
  5
3681
330
1F
100
AcDbEntity
  8
AM_VIS
100
AcDbLine
 10
1788.923393482118
 20
41.86205605114605
 30
0.0
 11
1788.923393482118
 21
41.36205605114605
 31
0.0
  0
LINE
  5
3682
330
1F
100
AcDbEntity
  8
AM_VIS
100
AcDbLine
 10
1783.923393482117
 20
41.36205605114605
 30
0.0
 11
1788.923393482118
 21
41.36205605114605
 31
0.0
  0
LINE
  5
3683
330
1F
100
AcDbEntity
  8
AM_VIS
100
AcDbLine
 10
1783.923393482117
 20
41.86205605114605
 30
0.0
 11
1783.923393482117
 21
41.36205605114605
 31
0.0
  0
LINE
  5
3684
330
1F
100
AcDbEntity
  8
AM_VIS
100
AcDbLine
 10
1767.509228991256
 20
104.547378493977
 30
0.0
 11
1767.509228991256
 21
103.9262275808595
 31
0.0
  0
LINE
  5
3685
330
1F
100
AcDbEntity
  8
AM_VIS
100
AcDbLine
 10
1773.769020113971
 20
108.1962382920342
 30
0.0
 11
1773.769020113971
 21
107.6464758380001
 31
0.0
  0
LINE
  5
3686
330
1F
100
AcDbEntity
  8
AM_VIS
100
AcDbLine
 10
1774.212231602222
 20
108.3934697619488
 30
0.0
 11
1774.212231602222
 21
107.8470975240502
 31
0.0
  0
LINE
  5
3687
330
1F
100
AcDbEntity
  8
AM_VIS
100
AcDbLine
 10
1779.423393482118
 20
109.862056051146
 30
0.0
 11
1778.213104553787
 21
109.862056051146
 31
0.0
  0
LINE
  5
3688
330
1F
100
AcDbEntity
  8
AM_VIS
100
AcDbLine
 10
1779.423393482118
 20
109.862056051146
 30
0.0
 11
1779.423393482118
 21
109.6851251017215
 31
0.0
  0
LINE
  5
3689
330
1F
100
AcDbEntity
  8
AM_VIS
100
AcDbLine
 10
1778.207988782378
 20
109.8605193520153
 30
0.0
 11
1778.207988782378
 21
109.3380998260689
 31
0.0
  0
LINE
  5
368A
330
1F
100
AcDbEntity
  8
AM_VIS
100
AcDbLine
 10
1776.846369983423
 20
109.4212951204496
 30
0.0
 11
1776.846369983423
 21
108.8919293011401
 31
0.0
  0
LINE
  5
368B
330
1F
100
AcDbEntity
  8
AM_VIS
100
AcDbLine
 10
1777.412949617888
 20
109.6114282810505
 30
0.0
 11
1777.412949617888
 21
109.0850921242181
 31
0.0
  0
LINE
  5
368C
330
1F
100
AcDbEntity
  8
AM_VIS
100
AcDbLine
 10
1776.942322986034
 20
109.4542429442907
 30
0.0
 11
1776.942322986034
 21
108.9254046453819
 31
0.0
  0
LINE
  5
368D
330
1F
100
AcDbEntity
  8
AM_VIS
100
AcDbLine
 10
1773.028811236686
 20
107.8504420293204
 30
0.0
 11
1773.028811236686
 21
107.2946321067077
 31
0.0
  0
LINE
  5
368E
330
1F
100
AcDbEntity
  8
AM_VIS
100
AcDbLine
 10
1773.49486867794
 20
108.0705820523628
 30
0.0
 11
1773.49486867794
 21
107.5186374706716
 31
0.0
  0
LINE
  5
368F
330
1F
100
AcDbEntity
  8
AM_VIS
100
AcDbLine
 10
1770.821892176635
 20
106.6912167888807
 30
0.0
 11
1770.821892176635
 21
106.1141163412003
 31
0.0
  0
LINE
  5
3690
330
1F
100
AcDbEntity
  8
AM_VIS
100
AcDbLine
 10
1770.876722463841
 20
106.7224568291069
 30
0.0
 11
1770.876722463841
 21
106.1459517083491
 31
0.0
  0
LINE
  5
3691
330
1F
100
AcDbEntity
  8
AM_VIS
100
AcDbLine
 10
1768.834022038673
 20
105.4685075139178
 30
0.0
 11
1769.313686732889
 21
105.7805722295678
 31
0.0
  0
LINE
  5
3692
330
1F
100
AcDbEntity
  8
AM_VIS
100
AcDbLine
 10
1767.5091670455
 20
104.5474640970573
 30
0.0
 11
1767.719336707174
 21
104.6995511315274
 31
0.0
  0
ARC
  5
3693
330
1F
100
AcDbEntity
  8
AM_VIS
100
AcDbCircle
 10
1788.423393482118
 20
75.86205605114606
 30
0.0
 40
35.5
100
AcDbArc
 50
119.3168488158847
 51
119.536988049587
  0
ARC
  5
3694
330
1F
100
AcDbEntity
  8
AM_VIS
100
AcDbCircle
 10
1788.423393482117
 20
75.86205605114617
 30
0.0
 40
35.5
100
AcDbArc
 50
119.536988049587
 51
119.6048195306094
  0
LINE
  5
3695
330
1F
100
AcDbEntity
  8
AM_VIS
100
AcDbLine
 10
1770.876722334595
 20
106.7224570564972
 30
0.0
 11
1770.885860713775
 21
106.7276511897484
 31
0.0
  0
ARC
  5
3696
330
1F
100
AcDbEntity
  8
AM_VIS
100
AcDbCircle
 10
1788.423393482118
 20
75.86205605114606
 30
0.0
 40
35.5
100
AcDbArc
 50
119.6217845277614
 51
119.7236346022941
  0
LINE
  5
3697
330
1F
100
AcDbEntity
  8
AM_VIS
100
AcDbLine
 10
1773.028683717802
 20
107.8507117782445
 30
0.0
 11
1773.494671576286
 21
108.0709990407425
 31
0.0
  0
LINE
  5
3698
330
1F
100
AcDbEntity
  8
AM_VIS
100
AcDbLine
 10
1771.990698156589
 20
107.3320397523446
 30
0.0
 11
1773.027450828562
 21
107.8531485786768
 31
0.0
  0
LINE
  5
3699
330
1F
100
AcDbEntity
  8
AM_VIS
100
AcDbLine
 10
1771.47954851118
 20
107.0582497316834
 30
0.0
 11
1771.991295089108
 21
107.3308174376108
 31
0.0
  0
LINE
  5
369A
330
1F
100
AcDbEntity
  8
AM_VIS
100
AcDbLine
 10
1771.201071780295
 20
106.9047840838078
 30
0.0
 11
1771.479805357207
 21
107.0577647136524
 31
0.0
  0
LINE
  5
369B
330
1F
100
AcDbEntity
  8
AM_VIS
100
AcDbLine
 10
1771.041182445262
 20
106.8154603516437
 30
0.0
 11
1771.201102723328
 21
106.904726719934
 31
0.0
  0
LINE
  5
369C
330
1F
100
AcDbEntity
  8
AM_VIS
100
AcDbLine
 10
1778.203419522703
 20
109.8591463577085
 30
0.0
 11
1778.213104484711
 21
109.8620562810451
 31
0.0
  0
LINE
  5
369D
330
1F
100
AcDbEntity
  8
AM_VIS
100
AcDbLine
 10
1777.412562869156
 20
109.6126638024312
 30
0.0
 11
1778.203113012196
 21
109.8601255379471
 31
0.0
  0
LINE
  5
369E
330
1F
100
AcDbEntity
  8
AM_VIS
100
AcDbLine
 10
1776.942184134398
 20
109.454658436919
 30
0.0
 11
1777.412783324269
 21
109.6119258896831
 31
0.0
  0
LINE
  5
369F
330
1F
100
AcDbEntity
  8
AM_VIS
100
AcDbLine
 10
1776.190567358628
 20
109.1882310588263
 30
0.0
 11
1776.638343834045
 21
109.3492098519438
 31
0.0
  0
LINE
  5
36A0
330
1F
100
AcDbEntity
  8
AM_VIS
100
AcDbLine
 10
1775.203126347949
 20
108.8104551033468
 30
0.0
 11
1776.189794598804
 21
109.1902160818737
 31
0.0
  0
LINE
  5
36A1
330
1F
100
AcDbEntity
  8
AM_VIS
100
AcDbLine
 10
1774.211440737278
 20
108.3953554022483
 30
0.0
 11
1775.202783884261
 21
108.8111391244628
 31
0.0
  0
LINE
  5
36A2
330
1F
100
AcDbEntity
  8
AM_VIS
100
AcDbLine
 10
1773.76885543437
 20
108.196608342984
 30
0.0
 11
1774.212064716028
 21
108.3938447713263
 31
0.0
  0
LINE
  5
36A3
330
1F
100
AcDbEntity
  8
AM_VIS
100
AcDbLine
 10
1809.337557972979
 20
47.17673360831503
 30
0.0
 11
1809.337557972979
 21
47.79788452143248
 31
0.0
  0
LINE
  5
36A4
330
1F
100
AcDbEntity
  8
AM_VIS
100
AcDbLine
 10
1803.077766850264
 20
43.52787381025791
 30
0.0
 11
1803.077766850264
 21
44.07763626429186
 31
0.0
  0
LINE
  5
36A5
330
1F
100
AcDbEntity
  8
AM_VIS
100
AcDbLine
 10
1802.634555362013
 20
43.33064234034327
 30
0.0
 11
1802.634555362013
 21
43.87701457824181
 31
0.0
  0
LINE
  5
36A6
330
1F
100
AcDbEntity
  8
AM_VIS
100
AcDbLine
 10
1797.423393482118
 20
41.86205605114605
 30
0.0
 11
1798.633682410448
 21
41.86205605114605
 31
0.0
  0
LINE
  5
36A7
330
1F
100
AcDbEntity
  8
AM_VIS
100
AcDbLine
 10
1797.423393482118
 20
41.86205605114605
 30
0.0
 11
1797.423393482118
 21
42.0389870005705
 31
0.0
  0
LINE
  5
36A8
330
1F
100
AcDbEntity
  8
AM_VIS
100
AcDbLine
 10
1798.638798181857
 20
41.86359275027678
 30
0.0
 11
1798.638798181857
 21
42.38601227622313
 31
0.0
  0
LINE
  5
36A9
330
1F
100
AcDbEntity
  8
AM_VIS
100
AcDbLine
 10
1800.000416980812
 20
42.30281698184239
 30
0.0
 11
1800.000416980812
 21
42.83218280115193
 31
0.0
  0
LINE
  5
36AA
330
1F
100
AcDbEntity
  8
AM_VIS
100
AcDbLine
 10
1799.433837346347
 20
42.1126838212416
 30
0.0
 11
1799.433837346347
 21
42.63901997807397
 31
0.0
  0
LINE
  5
36AB
330
1F
100
AcDbEntity
  8
AM_VIS
100
AcDbLine
 10
1799.904463978201
 20
42.26986915800137
 30
0.0
 11
1799.904463978201
 21
42.79870745691016
 31
0.0
  0
LINE
  5
36AC
330
1F
100
AcDbEntity
  8
AM_VIS
100
AcDbLine
 10
1803.817975727548
 20
43.8736700729716
 30
0.0
 11
1803.817975727548
 21
44.42947999558441
 31
0.0
  0
LINE
  5
36AD
330
1F
100
AcDbEntity
  8
AM_VIS
100
AcDbLine
 10
1803.351918286295
 20
43.65353004992925
 30
0.0
 11
1803.351918286295
 21
44.2054746316204
 31
0.0
  0
LINE
  5
36AE
330
1F
100
AcDbEntity
  8
AM_VIS
100
AcDbLine
 10
1806.024894787601
 20
45.03289531341136
 30
0.0
 11
1806.024894787601
 21
45.60999576109174
 31
0.0
  0
LINE
  5
36AF
330
1F
100
AcDbEntity
  8
AM_VIS
100
AcDbLine
 10
1805.970064500394
 20
45.00165527318517
 30
0.0
 11
1805.970064500394
 21
45.57816039394288
 31
0.0
  0
LINE
  5
36B0
330
1F
100
AcDbEntity
  8
AM_VIS
100
AcDbLine
 10
1807.533100231346
 20
45.94353987272421
 30
0.0
 11
1808.012764925563
 21
46.25560458837412
 31
0.0
  0
LINE
  5
36B1
330
1F
100
AcDbEntity
  8
AM_VIS
100
AcDbLine
 10
1809.127450257061
 20
47.02456097076458
 30
0.0
 11
1809.337619918736
 21
47.17664800523471
 31
0.0
  0
ARC
  5
36B2
330
1F
100
AcDbEntity
  8
AM_VIS
100
AcDbCircle
 10
1788.423393482118
 20
75.86205605114606
 30
0.0
 40
35.5
100
AcDbArc
 50
299.3168488158847
 51
299.5369880495862
  0
ARC
  5
36B3
330
1F
100
AcDbEntity
  8
AM_VIS
100
AcDbCircle
 10
1788.423393482117
 20
75.86205605114617
 30
0.0
 40
35.50000000000048
100
AcDbArc
 50
299.5369880495862
 51
299.6048195306079
  0
LINE
  5
36B4
330
1F
100
AcDbEntity
  8
AM_VIS
100
AcDbLine
 10
1805.96092625046
 20
44.99646091254374
 30
0.0
 11
1805.97006462964
 21
45.00165504579479
 31
0.0
  0
ARC
  5
36B5
330
1F
100
AcDbEntity
  8
AM_VIS
100
AcDbCircle
 10
1788.423393482118
 20
75.86205605114606
 30
0.0
 40
35.50000000000002
100
AcDbArc
 50
299.6217845277614
 51
299.7236346022942
  0
LINE
  5
36B6
330
1F
100
AcDbEntity
  8
AM_VIS
100
AcDbLine
 10
1803.352115387949
 20
43.65311306154956
 30
0.0
 11
1803.818103246433
 21
43.87340032404757
 31
0.0
  0
LINE
  5
36B7
330
1F
100
AcDbEntity
  8
AM_VIS
100
AcDbLine
 10
1803.819336135673
 20
43.87096352361527
 30
0.0
 11
1804.856088807646
 21
44.39207234994739
 31
0.0
  0
LINE
  5
36B8
330
1F
100
AcDbEntity
  8
AM_VIS
100
AcDbLine
 10
1804.855491875127
 20
44.39329466468126
 30
0.0
 11
1805.367238453055
 21
44.66586237060858
 31
0.0
  0
LINE
  5
36B9
330
1F
100
AcDbEntity
  8
AM_VIS
100
AcDbLine
 10
1805.366981607028
 20
44.66634738863968
 30
0.0
 11
1805.645715183939
 21
44.81932801848427
 31
0.0
  0
LINE
  5
36BA
330
1F
100
AcDbEntity
  8
AM_VIS
100
AcDbLine
 10
1805.645684240907
 20
44.81938538235806
 30
0.0
 11
1805.805604518973
 21
44.90865175064828
 31
0.0
  0
LINE
  5
36BB
330
1F
100
AcDbEntity
  8
AM_VIS
100
AcDbLine
 10
1798.633682479524
 20
41.86205582124694
 30
0.0
 11
1798.643367441532
 21
41.86496574458351
 31
0.0
  0
LINE
  5
36BC
330
1F
100
AcDbEntity
  8
AM_VIS
100
AcDbLine
 10
1798.643673952039
 20
41.86398656434493
 30
0.0
 11
1799.434224095079
 21
42.11144829986085
 31
0.0
  0
LINE
  5
36BD
330
1F
100
AcDbEntity
  8
AM_VIS
100
AcDbLine
 10
1799.434003639966
 20
42.11218621260889
 30
0.0
 11
1799.904602829837
 21
42.26945366537302
 31
0.0
  0
LINE
  5
36BE
330
1F
100
AcDbEntity
  8
AM_VIS
100
AcDbLine
 10
1800.20844313019
 20
42.37490225034821
 30
0.0
 11
1800.656219605607
 21
42.53588104346573
 31
0.0
  0
LINE
  5
36BF
330
1F
100
AcDbEntity
  8
AM_VIS
100
AcDbLine
 10
1800.656992365431
 20
42.53389602041835
 30
0.0
 11
1801.643660616286
 21
42.91365699894521
 31
0.0
  0
LINE
  5
36C0
330
1F
100
AcDbEntity
  8
AM_VIS
100
AcDbLine
 10
1801.644003079974
 20
42.91297297782932
 30
0.0
 11
1802.635346226957
 21
43.32875670004369
 31
0.0
  0
LINE
  5
36C1
330
1F
100
AcDbEntity
  8
AM_VIS
100
AcDbLine
 10
1802.634722248207
 20
43.33026733096573
 30
0.0
 11
1803.077931529865
 21
43.52750375930798
 31
0.0
  0
LINE
  5
36C2
330
1F
100
AcDbEntity
  8
AM_VIS
100
AcDbLine
 10
1777.923393480701
 20
75.86205605360897
 30
0.0
 11
1771.159394882117
 21
71.97305742114593
 31
0.0
  0
LINE
  5
36C3
330
1F
100
AcDbEntity
  8
AM_VIS
100
AcDbLine
 10
1771.159394882117
 20
71.97305742114593
 30
0.0
 11
1771.159394882117
 21
79.75105468114595
 31
0.0
  0
LINE
  5
36C4
330
1F
100
AcDbEntity
  8
AM_VIS
100
AcDbLine
 10
1771.159394882117
 20
79.75105468114595
 30
0.0
 11
1777.92339348138
 21
75.8620560498635
 31
0.0
  0
LINE
  5
36C5
330
1F
100
AcDbEntity
  8
AM_VIS
100
AcDbLine
 10
1796.60874625399
 20
42.86205605114605
 30
0.0
 11
1780.238040710245
 21
42.86205605114605
 31
0.0
  0
ARC
  5
36C6
330
1F
100
AcDbEntity
  8
AM_VIS
100
AcDbCircle
 10
1788.423393482118
 20
75.86205605114594
 30
0.0
 40
25.0
100
AcDbArc
 50
320.2081805004447
 51
39.7918194995553
  0
ARC
  5
36C7
330
1F
100
AcDbEntity
  8
AM_VIS
100
AcDbCircle
 10
1788.423393482118
 20
75.86205605114594
 30
0.0
 40
25.0
100
AcDbArc
 50
219.7918194995553
 51
320.2081805004447
  0
ARC
  5
36C8
330
1F
100
AcDbEntity
  8
AM_VIS
100
AcDbCircle
 10
1788.423393482118
 20
75.86205605114594
 30
0.0
 40
25.0
100
AcDbArc
 50
39.7918194995553
 51
140.2081805004447
  0
CIRCLE
  5
36C9
330
1F
100
AcDbEntity
  8
AM_VIS
100
AcDbCircle
 10
1788.423393482118
 20
75.86205605114594
 30
0.0
 40
24.0
  0
ARC
  5
36CA
330
1F
100
AcDbEntity
  8
AM_VIS
100
AcDbCircle
 10
1788.423393482118
 20
75.86205605114594
 30
0.0
 40
25.0
100
AcDbArc
 50
140.2081805004447
 51
219.7918194995553
  0
LINE
  5
36CB
330
1F
100
AcDbEntity
  8
AM_VIS
100
AcDbLine
 10
1753.423393482117
 20
91.86205605114594
 30
0.0
 11
1753.423393482117
 21
92.86205605114593
 31
0.0
  0
LINE
  5
36CC
330
1F
100
AcDbEntity
  8
AM_VIS
100
AcDbLine
 10
1753.423393482117
 20
58.86205605114594
 30
0.0
 11
1753.423393482117
 21
59.86205605114594
 31
0.0
  0
LINE
  5
36CD
330
1F
100
AcDbEntity
  8
AM_VIS
100
AcDbLine
 10
1823.423393482118
 20
59.86205605114594
 30
0.0
 11
1823.423393482118
 21
58.86205605114594
 31
0.0
  0
LINE
  5
36CE
330
1F
100
AcDbEntity
  8
AM_VIS
100
AcDbLine
 10
1823.423393482118
 20
92.86205605114593
 30
0.0
 11
1823.423393482118
 21
91.86205605114594
 31
0.0
  0
ARC
  5
36CF
330
1F
100
AcDbEntity
  8
AM_VIS
100
AcDbCircle
 10
1788.423393482118
 20
75.86205605114606
 30
0.0
 40
35.0
100
AcDbArc
 50
29.05928106804186
 51
76.27086732459668
  0
ARC
  5
36D0
330
1F
100
AcDbEntity
  8
AM_VIS
100
AcDbCircle
 10
1788.423393482118
 20
75.86205605114606
 30
0.0
 40
34.0
100
AcDbArc
 50
29.99999999999729
 51
76.06944543763678
  0
ARC
  5
36D1
330
1F
100
AcDbEntity
  8
AM_VIS
100
AcDbCircle
 10
1788.423393482118
 20
75.86205605114606
 30
0.0
 40
34.0
100
AcDbArc
 50
103.9305545623632
 51
150.0000000000027
  0
ARC
  5
36D2
330
1F
100
AcDbEntity
  8
AM_VIS
100
AcDbCircle
 10
1788.423393482118
 20
75.86205605114606
 30
0.0
 40
35.0
100
AcDbArc
 50
103.7291326754033
 51
150.9407189319581
  0
ARC
  5
36D3
330
1F
100
AcDbEntity
  8
AM_VIS
100
AcDbCircle
 10
1788.423393482118
 20
75.86205605114606
 30
0.0
 40
35.0
100
AcDbArc
 50
209.0592810680419
 51
256.2708673245967
  0
ARC
  5
36D4
330
1F
100
AcDbEntity
  8
AM_VIS
100
AcDbCircle
 10
1788.423393482118
 20
75.86205605114606
 30
0.0
 40
35.0
100
AcDbArc
 50
283.7291326754033
 51
330.9407189319581
  0
ARC
  5
36D5
330
1F
100
AcDbEntity
  8
AM_VIS
100
AcDbCircle
 10
1788.423393482118
 20
75.86205605114606
 30
0.0
 40
35.5
100
AcDbArc
 50
120.2600600666759
 51
122.5673825157699
  0
ARC
  5
36D6
330
1F
100
AcDbEntity
  8
AM_VIS
100
AcDbCircle
 10
1788.423393482118
 20
75.86205605114606
 30
0.0
 40
35.5
100
AcDbArc
 50
123.4909738734715
 51
125.6766882162281
  0
ARC
  5
36D7
330
1F
100
AcDbEntity
  8
AM_VIS
100
AcDbCircle
 10
1788.423393482118
 20
75.86205605114606
 30
0.0
 40
35.5
100
AcDbArc
 50
108.8692995479267
 51
109.0330398783936
  0
ARC
  5
36D8
330
1F
100
AcDbEntity
  8
AM_VIS
100
AcDbCircle
 10
1788.423393482118
 20
75.86205605114606
 30
0.0
 40
35.5
100
AcDbArc
 50
106.7151498750758
 51
106.7237710142996
  0
ARC
  5
36D9
330
1F
100
AcDbEntity
  8
AM_VIS
100
AcDbCircle
 10
1788.423393482118
 20
75.86205605114606
 30
0.0
 40
35.5
100
AcDbArc
 50
300.2600600666759
 51
302.5673825157699
  0
ARC
  5
36DA
330
1F
100
AcDbEntity
  8
AM_VIS
100
AcDbCircle
 10
1788.423393482118
 20
75.86205605114606
 30
0.0
 40
35.5
100
AcDbArc
 50
303.4909738734715
 51
305.6766882162282
  0
ARC
  5
36DB
330
1F
100
AcDbEntity
  8
AM_VIS
100
AcDbCircle
 10
1788.423393482118
 20
75.86205605114606
 30
0.0
 40
35.5
100
AcDbArc
 50
288.8692995479267
 51
289.0330398783936
  0
ARC
  5
36DC
330
1F
100
AcDbEntity
  8
AM_VIS
100
AcDbCircle
 10
1788.423393482118
 20
75.86205605114606
 30
0.0
 40
35.5
100
AcDbArc
 50
286.7151498750634
 51
286.7237710142997
  0
ARC
  5
36DD
330
1F
100
AcDbEntity
  8
AM_VIS
100
AcDbCircle
 10
1773.423393482118
 20
75.86205605114594
 30
0.0
 40
4.5
100
AcDbArc
 50
120.2060231657515
 51
239.7939768342484
  0
ARC
  5
36DE
330
1F
100
AcDbEntity
  8
AM_VIS
100
AcDbCircle
 10
1773.423393482118
 20
75.86205605114594
 30
0.0
 40
4.5
100
AcDbArc
 50
0.0
 51
120.2060231657515
  0
ARC
  5
36DF
330
1F
100
AcDbEntity
  8
AM_VIS
100
AcDbCircle
 10
1773.423393482118
 20
75.86205605114594
 30
0.0
 40
4.5
100
AcDbArc
 50
239.7939768342484
 51
0.0
  0
ARC
  5
36E0
330
1F
100
AcDbEntity
  8
AM_VIS
100
AcDbCircle
 10
1788.423393482118
 20
75.86205605114606
 30
0.0
 40
34.00000000000001
100
AcDbArc
 50
283.9305545623632
 51
330.0000000000027
  0
ARC
  5
36E1
330
1F
100
AcDbEntity
  8
AM_VIS
100
AcDbCircle
 10
1788.423393482118
 20
75.86205605114606
 30
0.0
 40
34.0
100
AcDbArc
 50
209.9999999999973
 51
256.0694454376368
  0
LINE
  5
36E2
330
1F
100
AcDbEntity
  8
AM_VIS
100
AcDbLine
 10
1770.093090702294
 20
-85.19332570216779
 30
0.0
 11
1770.093090702294
 21
-61.19332570216778
 31
0.0
  0
LINE
  5
36E3
330
1F
100
AcDbEntity
  8
AM_VIS
100
AcDbLine
 10
1755.423393482117
 20
-65.19332570216779
 30
0.0
 11
1768.423393482117
 21
-65.19332570216779
 31
0.0
  0
LINE
  5
36E4
330
1F
100
AcDbEntity
  8
AM_VIS
100
AcDbLine
 10
1754.423393482118
 20
-110.1933257021678
 30
0.0
 11
1754.423393482118
 21
-111.6933257021677
 31
0.0
  0
LINE
  5
36E5
330
1F
100
AcDbEntity
  8
AM_VIS
100
AcDbLine
 10
1822.423393482118
 20
-110.1933257021677
 30
0.0
 11
1822.423393482118
 21
-111.6933257021678
 31
0.0
  0
ARC
  5
36E6
330
1F
100
AcDbEntity
  8
AM_VIS
100
AcDbCircle
 10
1769.135184893882
 20
-61.14900992339511
 30
0.0
 40
0.9589303551549226
100
AcDbArc
 50
357.3512030923604
 51
85.28425945079318
  0
LINE
  5
36E7
330
1F
100
AcDbEntity
  8
AM_VIS
100
AcDbLine
 10
1753.423393482117
 20
-90.19332570216779
 30
0.0
 11
1757.294628649571
 21
-90.19332570216779
 31
0.0
  0
LINE
  5
36E8
330
1F
100
AcDbEntity
  8
AM_VIS
100
AcDbLine
 10
1819.552158314664
 20
-90.19332570216779
 30
0.0
 11
1823.423393482118
 21
-90.19332570216779
 31
0.0
  0
LINE
  5
36E9
330
1F
100
AcDbEntity
  8
AM_VIS
100
AcDbLine
 10
1808.423393482118
 20
-65.19332570216779
 30
0.0
 11
1821.423393482118
 21
-65.19332570216779
 31
0.0
  0
LINE
  5
36EA
330
1F
100
AcDbEntity
  8
AM_VIS
100
AcDbLine
 10
1808.423393482118
 20
-85.19332570216779
 30
0.0
 11
1808.423393482118
 21
-65.19332570216779
 31
0.0
  0
LINE
  5
36EB
330
1F
100
AcDbEntity
  8
AM_VIS
100
AcDbLine
 10
1806.753696261941
 20
-61.19332570216778
 30
0.0
 11
1806.753696261941
 21
-85.19332570216779
 31
0.0
  0
LINE
  5
36EC
330
1F
100
AcDbEntity
  8
AM_VIS
100
AcDbLine
 10
1823.423393482118
 20
-60.19332570216779
 30
0.0
 11
1807.632766194416
 21
-60.19332570216779
 31
0.0
  0
ARC
  5
36ED
330
1F
100
AcDbEntity
  8
AM_VIS
100
AcDbCircle
 10
1807.711602070353
 20
-61.14900992339506
 30
0.0
 40
0.9589303551548976
100
AcDbArc
 50
94.71574054920683
 51
182.6487969076396
  0
LINE
  5
36EE
330
1F
100
AcDbEntity
  8
AM_VIS
100
AcDbLine
 10
1769.214020769819
 20
-60.19332570216779
 30
0.0
 11
1753.423393482117
 21
-60.19332570216779
 31
0.0
  0
SPLINE
  5
36EF
330
1F
100
AcDbEntity
  8
AM_VIS
100
AcDbSpline
210
0.0
220
0.0
230
1.0
 70
     8
 71
     3
 72
     8
 73
     4
 74
     0
 42
0.0000000001
 43
0.0000000001
 40
0.8023169249077238
 40
0.8023169249077238
 40
0.8023169249077238
 40
0.8023169249077238
 40
80.0
 40
80.0
 40
80.0
 40
80.0
 10
1798.633682410448
 20
-104.8623926479297
 30
0.0
 10
1798.465898773588
 20
-104.8628462946036
 30
0.0
 10
1798.351851224724
 20
-104.8856899497587
 30
0.0
 10
1798.291539696217
 20
-104.9309236133949
 30
0.0
  0
SPLINE
  5
36F0
330
1F
100
AcDbEntity
  8
AM_VIS
100
AcDbSpline
210
0.0
220
0.0
230
1.0
 70
     8
 71
     3
 72
     8
 73
     4
 74
     0
 42
0.0000000001
 43
0.0000000001
 40
0.0
 40
0.0
 40
0.0
 40
0.0
 40
80.0
 40
80.0
 40
80.0
 40
80.0
 10
1798.291539696217
 20
-104.9309236133949
 30
0.0
 10
1798.2062481151
 20
-104.9979384321094
 30
0.0
 10
1798.163602359402
 20
-105.1334911098316
 30
0.0
 10
1798.163602359402
 20
-105.3375815768414
 30
0.0
  0
LINE
  5
36F1
330
1F
100
AcDbEntity
  8
AM_VIS
100
AcDbLine
 10
1798.163602359402
 20
-105.3375815768414
 30
0.0
 11
1798.163602359402
 21
-107.7364066421156
 31
0.0
  0
SPLINE
  5
36F2
330
1F
100
AcDbEntity
  8
AM_VIS
100
AcDbSpline
210
0.0
220
0.0
230
1.0
 70
     8
 71
     3
 72
     8
 73
     4
 74
     0
 42
0.0000000001
 43
0.0000000001
 40
0.0
 40
0.0
 40
0.0
 40
0.0
 40
80.0
 40
80.0
 40
80.0
 40
80.0
 10
1798.163602359402
 20
-107.7364066421155
 30
0.0
 10
1798.163602359402
 20
-107.8460672165281
 30
0.0
 10
1798.191017503005
 20
-107.9146050755359
 30
0.0
 10
1798.245847790212
 20
-107.9420202191391
 30
0.0
  0
SPLINE
  5
36F3
330
1F
100
AcDbEntity
  8
AM_VIS
100
AcDbSpline
210
0.0
220
0.0
230
1.0
 70
     8
 71
     3
 72
     8
 73
     4
 74
     0
 42
0.0000000001
 43
0.0000000001
 40
0.0
 40
0.0
 40
0.0
 40
0.0
 40
78.74608197375635
 40
78.74608197375635
 40
78.74608197375635
 40
78.74608197375635
 10
1798.245847790212
 20
-107.9420202191391
 30
0.0
 10
1798.302817005244
 20
-107.9660072534354
 30
0.0
 10
1798.432095211989
 20
-107.9781887904513
 30
0.0
 10
1798.633682410448
 20
-107.9785647636939
 30
0.0
  0
LINE
  5
36F4
330
1F
100
AcDbEntity
  8
AM_VIS
100
AcDbLine
 10
1798.633682410448
 20
-108.133926224361
 30
0.0
 11
1797.423393482118
 21
-108.133926224361
 31
0.0
  0
LINE
  5
36F5
330
1F
100
AcDbEntity
  8
AM_VIS
100
AcDbLine
 10
1797.423393482118
 20
-108.133926224361
 30
0.0
 11
1797.423393482118
 21
-108.0425424123505
 31
0.0
  0
SPLINE
  5
36F6
330
1F
100
AcDbEntity
  8
AM_VIS
100
AcDbSpline
210
0.0
220
0.0
230
1.0
 70
     8
 71
     3
 72
     8
 73
     4
 74
     0
 42
0.0000000001
 43
0.0000000001
 40
0.0
 40
0.0
 40
0.0
 40
0.0
 40
80.0
 40
80.0
 40
80.0
 40
80.0
 10
1797.423393482118
 20
-108.0425424123505
 30
0.0
 10
1797.581792043122
 20
-108.0273117305352
 30
0.0
 10
1797.692975727548
 20
-107.9907582057311
 30
0.0
 10
1797.756944395956
 20
-107.932881837938
 30
0.0
  0
SPLINE
  5
36F7
330
1F
100
AcDbEntity
  8
AM_VIS
100
AcDbSpline
210
0.0
220
0.0
230
1.0
 70
     8
 71
     3
 72
     8
 73
     4
 74
     0
 42
0.0000000001
 43
0.0000000001
 40
0.0
 40
0.0
 40
0.0
 40
0.0
 40
80.0
 40
80.0
 40
80.0
 40
80.0
 10
1797.756944395956
 20
-107.932881837938
 30
0.0
 10
1797.836143676458
 20
-107.8567286380225
 30
0.0
 10
1797.875743351569
 20
-107.7242221803277
 30
0.0
 10
1797.875743351569
 20
-107.5353622556926
 30
0.0
  0
LINE
  5
36F8
330
1F
100
AcDbEntity
  8
AM_VIS
100
AcDbLine
 10
1797.875743351569
 20
-107.5353622556926
 30
0.0
 11
1797.875743351569
 21
-105.3375815768414
 31
0.0
  0
SPLINE
  5
36F9
330
1F
100
AcDbEntity
  8
AM_VIS
100
AcDbSpline
210
0.0
220
0.0
230
1.0
 70
     8
 71
     3
 72
     8
 73
     4
 74
     0
 42
0.0000000001
 43
0.0000000001
 40
0.0
 40
0.0
 40
0.0
 40
0.0
 40
80.0
 40
80.0
 40
80.0
 40
80.0
 10
1797.875743351569
 20
-105.3375815768414
 30
0.0
 10
1797.875743351569
 20
-105.1426294910326
 30
0.0
 10
1797.834620636164
 20
-105.0116460039109
 30
0.0
 10
1797.752375205355
 20
-104.9446311851965
 30
0.0
  0
SPLINE
  5
36FA
330
1F
100
AcDbEntity
  8
AM_VIS
100
AcDbSpline
210
0.0
220
0.0
230
1.0
 70
     8
 71
     3
 72
     8
 73
     4
 74
     0
 42
0.0000000001
 43
0.0000000001
 40
0.0
 40
0.0
 40
0.0
 40
0.0
 40
80.0
 40
80.0
 40
80.0
 40
80.0
 10
1797.752375205355
 20
-104.9446311851965
 30
0.0
 10
1797.697544918149
 20
-104.9019854294984
 30
0.0
 10
1797.587884274016
 20
-104.8745702858953
 30
0.0
 10
1797.423393482118
 20
-104.8623857543871
 30
0.0
  0
LINE
  5
36FB
330
1F
100
AcDbEntity
  8
AM_VIS
100
AcDbLine
 10
1797.423393482118
 20
-104.8623857543871
 30
0.0
 11
1797.423393482118
 21
-104.7710019423766
 31
0.0
  0
LINE
  5
36FC
330
1F
100
AcDbEntity
  8
AM_VIS
100
AcDbLine
 10
1753.423393482117
 20
-61.19332570216778
 30
0.0
 11
1753.423393482117
 21
-89.19332570216779
 31
0.0
  0
LINE
  5
36FD
330
1F
100
AcDbEntity
  8
AM_VIS
100
AcDbLine
 10
1823.423393482118
 20
-61.19332570216778
 30
0.0
 11
1823.423393482118
 21
-89.19332570216779
 31
0.0
  0
LINE
  5
36FE
330
1F
100
AcDbEntity
  8
AM_VIS
100
AcDbLine
 10
1754.423393482118
 20
-110.1933257021677
 30
0.0
 11
1754.423393482118
 21
-90.19332570216779
 31
0.0
  0
SPLINE
  5
36FF
330
1F
100
AcDbEntity
  8
AM_VIS
100
AcDbSpline
210
0.0
220
0.0
230
1.0
 70
     8
 71
     3
 72
    14
 73
    10
 74
     0
 42
0.0000000001
 43
0.0000000001
 40
3.2042679097339
 40
3.2042679097339
 40
3.2042679097339
 40
3.2042679097339
 40
3.579269345908525
 40
3.579269345908525
 40
3.954270782083151
 40
3.954270782083151
 40
4.383462473197177
 40
4.383462473197177
 40
4.812654164311203
 40
4.812654164311203
 40
4.812654164311203
 40
4.812654164311203
 10
1757.829276400561
 20
-89.19332570216779
 30
0.0
 10
1757.829276400561
 20
-89.31832618089268
 30
0.0
 10
1757.815382253253
 20
-89.45025015481803
 30
0.0
 10
1757.761477498193
 20
-89.69006593524445
 30
0.0
 10
1757.721594548351
 20
-89.79803671145555
 30
0.0
 10
1757.627460213112
 20
-89.97983102667836
 30
0.0
 10
1757.564831301393
 20
-90.06095711621867
 30
0.0
 10
1757.431095628808
 20
-90.16769385309999
 30
0.0
 10
1757.360029288217
 20
-90.19332570216779
 30
0.0
 10
1757.294628649571
 20
-90.19332570216779
 30
0.0
  0
LINE
  5
3700
330
1F
100
AcDbEntity
  8
AM_VIS
100
AcDbLine
 10
1757.829276400561
 20
-86.19332570216778
 30
0.0
 11
1757.829276400561
 21
-89.19332570216779
 31
0.0
  0
SPLINE
  5
3701
330
1F
100
AcDbEntity
  8
AM_VIS
100
AcDbSpline
210
0.0
220
0.0
230
1.0
 70
    12
 71
     2
 72
     6
 73
     3
 74
     0
 42
0.0000000001
 43
0.0000000001
 40
0.0
 40
0.0
 40
0.0
 40
16.88194301613415
 40
16.88194301613415
 40
16.88194301613415
 10
1780.116769619199
 20
-110.1933257021677
 30
0.0
 41
1.0
 10
1788.423393482118
 20
-113.1504685593106
 30
0.0000000000000001
 41
1.029411764705878
 10
1796.730017345035
 20
-110.1933257021677
 30
0.0
 41
1.0
  0
LINE
  5
3702
330
1F
100
AcDbEntity
  8
AM_VIS
100
AcDbLine
 10
1780.116769619199
 20
-110.1933257021677
 30
0.0
 11
1780.116769619199
 21
-86.19332570216778
 31
0.0
  0
LINE
  5
3703
330
1F
100
AcDbEntity
  8
AM_VIS
100
AcDbLine
 10
1819.017510563674
 20
-89.19332570216779
 30
0.0
 11
1819.017510563674
 21
-86.19332570216778
 31
0.0
  0
SPLINE
  5
3704
330
1F
100
AcDbEntity
  8
AM_VIS
100
AcDbSpline
210
0.0
220
0.0
230
1.0
 70
     8
 71
     3
 72
    14
 73
    10
 74
     0
 42
0.0000000001
 43
0.0000000001
 40
1.595881655156595
 40
1.595881655156595
 40
1.595881655156595
 40
1.595881655156595
 40
2.025073346270621
 40
2.025073346270621
 40
2.454265037384648
 40
2.454265037384648
 40
2.829266473559274
 40
2.829266473559274
 40
3.2042679097339
 40
3.2042679097339
 40
3.2042679097339
 40
3.2042679097339
 10
1819.552158314664
 20
-90.19332570216779
 30
0.0
 10
1819.486757676018
 20
-90.19332570216779
 30
0.0
 10
1819.415691335427
 20
-90.16769385309997
 30
0.0
 10
1819.281955662842
 20
-90.06095711621865
 30
0.0
 10
1819.219326751123
 20
-89.97983102667834
 30
0.0
 10
1819.125192415883
 20
-89.79803671145552
 30
0.0
 10
1819.085309466042
 20
-89.69006593524444
 30
0.0
 10
1819.031404710982
 20
-89.45025015481803
 30
0.0
 10
1819.017510563674
 20
-89.31832618089265
 30
0.0
 10
1819.017510563674
 20
-89.19332570216779
 30
0.0
  0
LINE
  5
3705
330
1F
100
AcDbEntity
  8
AM_VIS
100
AcDbLine
 10
1822.423393482118
 20
-110.1933257021677
 30
0.0
 11
1822.423393482118
 21
-90.19332570216779
 31
0.0
  0
LINE
  5
3706
330
1F
100
AcDbEntity
  8
AM_VIS
100
AcDbLine
 10
1796.730017345035
 20
-110.1933257021677
 30
0.0
 11
1796.730017345035
 21
-86.19332570216778
 31
0.0
  0
LINE
  5
3707
330
1F
100
AcDbEntity
  8
AM_VIS
100
AcDbLine
 10
1757.828902236928
 20
-86.1928957098441
 30
0.0
 11
1758.978136603387
 21
-85.1928738904661
 31
0.0
  0
LINE
  5
3708
330
1F
100
AcDbEntity
  8
AM_VIS
100
AcDbLine
 10
1780.116769619199
 20
-86.19332570216778
 30
0.0
 11
1796.730017345035
 21
-86.19332570216778
 31
0.0
  0
LINE
  5
3709
330
1F
100
AcDbEntity
  8
AM_VIS
100
AcDbLine
 10
1780.11662378291
 20
-86.19330801662897
 30
0.0
 11
1780.237893609434
 21
-85.19330786328064
 31
0.0
  0
LINE
  5
370A
330
1F
100
AcDbEntity
  8
AM_VIS
100
AcDbLine
 10
1796.608893354801
 20
-85.19330786328064
 30
0.0
 11
1796.730163181325
 21
-86.19330801662897
 31
0.0
  0
LINE
  5
370B
330
1F
100
AcDbEntity
  8
AM_VIS
100
AcDbLine
 10
1817.868650360848
 20
-85.19287389046608
 30
0.0
 11
1819.017884727307
 21
-86.19289570984406
 31
0.0
  0
LINE
  5
370C
330
1F
100
AcDbEntity
  8
AM_VIS
100
AcDbLine
 10
1788.923393482118
 20
-105.1933257021678
 30
0.0
 11
1783.923393482117
 21
-105.1933257021678
 31
0.0
  0
LINE
  5
370D
330
1F
100
AcDbEntity
  8
AM_VIS
100
AcDbLine
 10
1788.923393482118
 20
-106.1933257021678
 30
0.0
 11
1788.923393482118
 21
-105.1933257021678
 31
0.0
  0
LINE
  5
370E
330
1F
100
AcDbEntity
  8
AM_VIS
100
AcDbLine
 10
1792.923393482118
 20
-104.1933257021678
 30
0.0
 11
1788.923393482118
 21
-106.1933257021678
 31
0.0
  0
LINE
  5
370F
330
1F
100
AcDbEntity
  8
AM_VIS
100
AcDbLine
 10
1788.923393482118
 20
-102.1933257021678
 30
0.0
 11
1792.923393482118
 21
-104.1933257021678
 31
0.0
  0
LINE
  5
3710
330
1F
100
AcDbEntity
  8
AM_VIS
100
AcDbLine
 10
1788.923393482118
 20
-103.1933257021678
 30
0.0
 11
1788.923393482118
 21
-102.1933257021678
 31
0.0
  0
LINE
  5
3711
330
1F
100
AcDbEntity
  8
AM_VIS
100
AcDbLine
 10
1783.923393482117
 20
-103.1933257021678
 30
0.0
 11
1788.923393482118
 21
-103.1933257021678
 31
0.0
  0
LINE
  5
3712
330
1F
100
AcDbEntity
  8
AM_VIS
100
AcDbLine
 10
1783.923393482117
 20
-105.1933257021678
 30
0.0
 11
1783.923393482117
 21
-103.1933257021678
 31
0.0
  0
LINE
  5
3713
330
1F
100
AcDbEntity
  8
AM_VIS
100
AcDbLine
 10
1797.423393482118
 20
-104.7710019423766
 30
0.0
 11
1798.633682410448
 21
-104.7710019423766
 31
0.0
  0
LINE
  5
3714
330
1F
100
AcDbEntity
  8
AM_VIS
100
AcDbLine
 10
1809.337557972979
 20
-108.0425424123505
 30
0.0
 11
1809.337557972979
 21
-108.133926224361
 31
0.0
  0
LINE
  5
3715
330
1F
100
AcDbEntity
  8
AM_VIS
100
AcDbLine
 10
1808.039907842431
 20
-108.133926224361
 30
0.0
 11
1808.039907842431
 21
-108.0425424123505
 31
0.0
  0
ARC
  5
3716
330
1F
100
AcDbEntity
  8
AM_VIS
100
AcDbCircle
 10
1807.978302306139
 20
-106.9640116020999
 30
0.0
 40
1.080288827472349
100
AcDbArc
 50
273.269174962819
 51
287.8528464195897
  0
SPLINE
  5
3717
330
1F
100
AcDbEntity
  8
AM_VIS
100
AcDbSpline
210
0.0
220
0.0
230
1.0
 70
     8
 71
     3
 72
    14
 73
    10
 74
     0
 42
0.0000000001
 43
0.0000000001
 40
-0.1531726380934479
 40
-0.1531726380934479
 40
-0.1531726380934479
 40
-0.1531726380934479
 40
-0.1208721410524218
 40
-0.1208721410524218
 40
-0.0915873767461445
 40
-0.0915873767461445
 40
-0.0514964941566211
 40
-0.0514964941566211
 40
0.0
 40
0.0
 40
0.0
 40
0.0
 10
1808.309490087862
 20
-107.9922813157448
 30
0.0
 10
1808.31795879992
 20
-107.9888938309215
 30
0.0
 10
1808.326222125398
 20
-107.9845943782301
 30
0.0
 10
1808.340869801489
 20
-107.9741650707731
 30
0.0
 10
1808.347296743335
 20
-107.9682871745069
 30
0.0
 10
1808.360725911492
 20
-107.9517961164631
 30
0.0
 10
1808.366617768674
 20
-107.9407860084065
 30
0.0
 10
1808.376018577389
 20
-107.9124347611206
 30
0.0
 10
1808.37802794687
 20
-107.8952170487839
 30
0.0
 10
1808.37802794687
 20
-107.8780515507317
 30
0.0
  0
ARC
  5
3718
330
1F
100
AcDbEntity
  8
AM_VIS
100
AcDbCircle
 10
1804.960195053718
 20
-109.6065721850019
 30
0.0
 40
3.830060739544886
100
AcDbArc
 50
26.82735965871035
 51
42.49953204828725
  0
LINE
  5
3719
330
1F
100
AcDbEntity
  8
AM_VIS
100
AcDbLine
 10
1807.308837346347
 20
-106.4387565115672
 30
0.0
 11
1807.784033168801
 21
-107.0190437178335
 31
0.0
  0
LINE
  5
371A
330
1F
100
AcDbEntity
  8
AM_VIS
100
AcDbLine
 10
1807.062101053919
 20
-106.6854928039954
 30
0.0
 11
1807.308837346347
 21
-106.4387565115672
 31
0.0
  0
LINE
  5
371B
330
1F
100
AcDbEntity
  8
AM_VIS
100
AcDbLine
 10
1807.062101053919
 20
-106.6854928039954
 30
0.0
 11
1807.062101053919
 21
-107.5719157804967
 31
0.0
  0
ARC
  5
371C
330
1F
100
AcDbEntity
  8
AM_VIS
100
AcDbCircle
 10
1807.600372768516
 20
-107.622067170241
 30
0.0
 40
0.5406029972436617
100
AcDbArc
 50
174.6770539476563
 51
215.0954797503788
  0
ARC
  5
371D
330
1F
100
AcDbEntity
  8
AM_VIS
100
AcDbCircle
 10
1807.531739022987
 20
-107.3513209836915
 30
0.0
 40
0.6912694708633027
100
AcDbArc
 50
237.2770155238603
 51
269.3244960081582
  0
LINE
  5
371E
330
1F
100
AcDbEntity
  8
AM_VIS
100
AcDbLine
 10
1807.523589304572
 20
-108.0425424123505
 30
0.0
 11
1807.523589304572
 21
-108.133926224361
 31
0.0
  0
LINE
  5
371F
330
1F
100
AcDbEntity
  8
AM_VIS
100
AcDbLine
 10
1806.312753795434
 20
-108.133926224361
 30
0.0
 11
1806.312753795434
 21
-108.0425424123505
 31
0.0
  0
SPLINE
  5
3720
330
1F
100
AcDbEntity
  8
AM_VIS
100
AcDbSpline
210
0.0
220
0.0
230
1.0
 70
     8
 71
     3
 72
    10
 73
     6
 74
     0
 42
0.0000000001
 43
0.0000000001
 40
-0.3963858617535184
 40
-0.3963858617535184
 40
-0.3963858617535184
 40
-0.3963858617535184
 40
-0.099492697576372
 40
-0.099492697576372
 40
0.0
 40
0.0
 40
0.0
 40
0.0
 10
1806.312753795434
 20
-108.0425424123505
 30
0.0
 10
1806.424221016751
 20
-108.0332534488931
 30
0.0
 10
1806.530740579638
 20
-108.0135238392433
 30
0.0
 10
1806.635058334981
 20
-107.9619841934689
 30
0.0
 10
1806.661268898785
 20
-107.9453327920278
 30
0.0
 10
1806.682858234076
 20
-107.923743456737
 30
0.0
  0
SPLINE
  5
3721
330
1F
100
AcDbEntity
  8
AM_VIS
100
AcDbSpline
210
0.0
220
0.0
230
1.0
 70
     8
 71
     3
 72
    12
 73
     8
 74
     0
 42
0.0000000001
 43
0.0000000001
 40
-0.4233469574411357
 40
-0.4233469574411357
 40
-0.4233469574411357
 40
-0.4233469574411357
 40
-0.3460605099151221
 40
-0.3460605099151221
 40
-0.2515676211573956
 40
-0.2515676211573956
 40
0.0
 40
0.0
 40
0.0
 40
0.0
 10
1806.682858234076
 20
-107.923743456737
 30
0.0
 10
1806.698640579675
 20
-107.9054691408197
 30
0.0
 10
1806.711020853871
 20
-107.8833147803432
 30
0.0
 10
1806.732841918329
 20
-107.8316344775526
 30
0.0
 10
1806.741547254134
 20
-107.8002918170234
 30
0.0
 10
1806.765069321726
 20
-107.6876302194203
 30
0.0
 10
1806.769672855486
 20
-107.5918029858086
 30
0.0
 10
1806.769672855486
 20
-107.5079471120894
 30
0.0
  0
LINE
  5
3722
330
1F
100
AcDbEntity
  8
AM_VIS
100
AcDbLine
 10
1806.769672855486
 20
-107.5079471120894
 30
0.0
 11
1806.769672855486
 21
-105.3101664332383
 31
0.0
  0
SPLINE
  5
3723
330
1F
100
AcDbEntity
  8
AM_VIS
100
AcDbSpline
210
0.0
220
0.0
230
1.0
 70
     8
 71
     3
 72
    12
 73
     8
 74
     0
 42
0.0000000001
 43
0.0000000001
 40
-0.4087596760898496
 40
-0.4087596760898496
 40
-0.4087596760898496
 40
-0.4087596760898496
 40
-0.1942424470515587
 40
-0.1942424470515587
 40
-0.0844960232748121
 40
-0.0844960232748121
 40
0.0
 40
0.0
 40
0.0
 40
0.0
 10
1806.769672855486
 20
-105.3101664332383
 30
0.0
 10
1806.769672855486
 20
-105.2389340892483
 30
0.0
 10
1806.764429604794
 20
-105.1608664249385
 30
0.0
 10
1806.737648221747
 20
-105.0574684610629
 30
0.0
 10
1806.724858743719
 20
-105.0231712219727
 30
0.0
 10
1806.692582844914
 20
-104.9704989117716
 30
0.0
 10
1806.675686238584
 20
-104.9508776121276
 30
0.0
 10
1806.655443090473
 20
-104.9354928039954
 30
0.0
  0
ARC
  5
3724
330
1F
100
AcDbEntity
  8
AM_VIS
100
AcDbCircle
 10
1806.297376205026
 20
-105.7741997694713
 30
0.0
 40
0.9119436761065891
100
AcDbArc
 50
66.88104182897929
 51
89.03380788526076
  0
LINE
  5
3725
330
1F
100
AcDbEntity
  8
AM_VIS
100
AcDbLine
 10
1806.312753795434
 20
-104.8623857543871
 30
0.0
 11
1806.312753795434
 21
-104.7710019423766
 31
0.0
  0
LINE
  5
3726
330
1F
100
AcDbEntity
  8
AM_VIS
100
AcDbLine
 10
1807.532727685773
 20
-104.7710019423766
 30
0.0
 11
1807.532727685773
 21
-104.8623857543871
 31
0.0
  0
SPLINE
  5
3727
330
1F
100
AcDbEntity
  8
AM_VIS
100
AcDbSpline
210
0.0
220
0.0
230
1.0
 70
     8
 71
     3
 72
    10
 73
     6
 74
     0
 42
0.0000000001
 43
0.0000000001
 40
-0.3041110502955982
 40
-0.3041110502955982
 40
-0.3041110502955982
 40
-0.3041110502955982
 40
-0.0622187259405116
 40
-0.0622187259405116
 40
0.0
 40
0.0
 40
0.0
 40
0.0
 10
1807.532727685773
 20
-104.8623857543871
 30
0.0
 10
1807.406333531877
 20
-104.8722603266178
 30
0.0
 10
1807.289442087729
 20
-104.8888183610946
 30
0.0
 10
1807.196343609721
 20
-104.9242768791148
 30
0.0
 10
1807.177395651342
 20
-104.9333346489891
 30
0.0
 10
1807.162623247131
 20
-104.9446311851965
 30
0.0
  0
SPLINE
  5
3728
330
1F
100
AcDbEntity
  8
AM_VIS
100
AcDbSpline
210
0.0
220
0.0
230
1.0
 70
     8
 71
     3
 72
    12
 73
     8
 74
     0
 42
0.0000000001
 43
0.0000000001
 40
-0.4286539677882334
 40
-0.4286539677882334
 40
-0.4286539677882334
 40
-0.4286539677882334
 40
-0.3419771503677853
 40
-0.3419771503677853
 40
-0.2431876069022937
 40
-0.2431876069022937
 40
0.0
 40
0.0
 40
0.0
 40
0.0
 10
1807.162623247131
 20
-104.9446311851965
 30
0.0
 10
1807.145087854732
 20
-104.9597753885517
 30
0.0
 10
1807.130609529894
 20
-104.9786417523975
 30
0.0
 10
1807.105011524203
 20
-105.0244065116463
 30
0.0
 10
1807.094861811682
 20
-105.0516750440657
 30
0.0
 10
1807.068444227965
 20
-105.1477425924915
 30
0.0
 10
1807.062101053919
 20
-105.2291038976042
 30
0.0
 10
1807.062101053919
 20
-105.3101664332383
 30
0.0
  0
LINE
  5
3729
330
1F
100
AcDbEntity
  8
AM_VIS
100
AcDbLine
 10
1807.062101053919
 20
-105.3101664332383
 30
0.0
 11
1807.062101053919
 21
-106.4981559893741
 31
0.0
  0
LINE
  5
372A
330
1F
100
AcDbEntity
  8
AM_VIS
100
AcDbLine
 10
1807.065132438515
 20
-106.5009807636493
 30
0.0
 11
1808.087911668513
 21
-105.4033931689192
 31
0.0
  0
SPLINE
  5
372B
330
1F
100
AcDbEntity
  8
AM_VIS
100
AcDbSpline
210
0.0
220
0.0
230
1.0
 70
     8
 71
     3
 72
    12
 73
     8
 74
     0
 42
0.0000000001
 43
0.0000000001
 40
-0.4361758250486286
 40
-0.4361758250486286
 40
-0.4361758250486286
 40
-0.4361758250486286
 40
-0.1842325349812209
 40
-0.1842325349812209
 40
-0.0613914320633087
 40
-0.0613914320633087
 40
0.0
 40
0.0
 40
0.0
 40
0.0
 10
1808.081030557836
 20
-105.3969810546482
 30
0.0
 10
1808.135670865448
 20
-105.3298189865333
 30
0.0
 10
1808.197364813915
 20
-105.2475718689306
 30
0.0
 10
1808.262230872396
 20
-105.130468599372
 30
0.0
 10
1808.280932042162
 20
-105.089886038177
 30
0.0
 10
1808.296681052658
 20
-105.0315593319578
 30
0.0
 10
1808.300351691048
 20
-105.0107869018895
 30
0.0
 10
1808.300351706661
 20
-104.9903230912017
 30
0.0
  0
ARC
  5
372C
330
1F
100
AcDbEntity
  8
AM_VIS
100
AcDbCircle
 10
1808.208733791824
 20
-104.9806768892836
 30
0.0
 40
0.0921243264860158
100
AcDbArc
 50
353.9896265619436
 51
69.5293336076932
  0
ARC
  5
372D
330
1F
100
AcDbEntity
  8
AM_VIS
100
AcDbCircle
 10
1807.994187051467
 20
-105.8250594384412
 30
0.0
 40
0.9628477131383036
100
AcDbArc
 50
75.15015140967685
 51
88.91062780167048
  0
LINE
  5
372E
330
1F
100
AcDbEntity
  8
AM_VIS
100
AcDbLine
 10
1808.012492698828
 20
-104.8623857543871
 30
0.0
 11
1808.012492698828
 21
-104.7710019423766
 31
0.0
  0
LINE
  5
372F
330
1F
100
AcDbEntity
  8
AM_VIS
100
AcDbLine
 10
1809.127375205355
 20
-104.7710019423766
 30
0.0
 11
1809.127375205355
 21
-104.8623857543871
 31
0.0
  0
LINE
  5
3730
330
1F
100
AcDbEntity
  8
AM_VIS
100
AcDbLine
 10
1808.912586083446
 20
-104.8755119721997
 30
0.0
 11
1809.127336725049
 21
-104.8617838044093
 31
0.0
  0
ARC
  5
3731
330
1F
100
AcDbEntity
  8
AM_VIS
100
AcDbCircle
 10
1808.958017015307
 20
-105.322105505144
 30
0.0
 40
0.4483162477156039
100
AcDbArc
 50
95.81138013674742
 51
122.6499646145777
  0
ARC
  5
3732
330
1F
100
AcDbEntity
  8
AM_VIS
100
AcDbCircle
 10
1809.602639741199
 20
-106.1726947347778
 30
0.0
 40
1.514598163888793
100
AcDbArc
 50
125.8240644390485
 51
140.2929627791217
  0
LINE
  5
3733
330
1F
100
AcDbEntity
  8
AM_VIS
100
AcDbLine
 10
1807.519020113971
 20
-106.2102969815411
 30
0.0
 11
1808.437427424676
 21
-105.2050750494263
 31
0.0
  0
LINE
  5
3734
330
1F
100
AcDbEntity
  8
AM_VIS
100
AcDbLine
 10
1808.620195048697
 20
-107.5673465898962
 30
0.0
 11
1807.519020113971
 21
-106.2102969815411
 31
0.0
  0
ARC
  5
3735
330
1F
100
AcDbEntity
  8
AM_VIS
100
AcDbCircle
 10
1810.365413808701
 20
-106.1968014591353
 30
0.0
 40
2.219049903837471
100
AcDbArc
 50
218.1430516289607
 51
231.8569483710427
  0
ARC
  5
3736
330
1F
100
AcDbEntity
  8
AM_VIS
100
AcDbCircle
 10
1809.337017345385
 20
-107.4099948841789
 30
0.0
 40
0.6325477592041528
100
AcDbArc
 50
237.2546871908055
 51
270.0489697145006
  0
LINE
  5
3737
330
1F
100
AcDbEntity
  8
AM_VIS
100
AcDbLine
 10
1805.924372594389
 20
-104.6933257021678
 30
0.0
 11
1805.805573638775
 21
-104.7024640833688
 31
0.0
  0
LINE
  5
3738
330
1F
100
AcDbEntity
  8
AM_VIS
100
AcDbLine
 10
1805.960926119193
 20
-105.7945006368939
 30
0.0
 11
1805.924372594389
 21
-104.6933257021671
 31
0.0
  0
LINE
  5
3739
330
1F
100
AcDbEntity
  8
AM_VIS
100
AcDbLine
 10
1805.864973116582
 20
-105.8036390180946
 30
0.0
 11
1805.960926119193
 21
-105.7945006368936
 31
0.0
  0
SPLINE
  5
373A
330
1F
100
AcDbEntity
  8
AM_VIS
100
AcDbSpline
210
0.0
220
0.0
230
1.0
 70
     8
 71
     3
 72
    14
 73
    10
 74
     0
 42
0.0000000001
 43
0.0000000001
 40
-1.60811243201422
 40
-1.60811243201422
 40
-1.60811243201422
 40
-1.60811243201422
 40
-1.193157471304725
 40
-1.193157471304725
 40
-0.8349003316813741
 40
-0.8349003316813741
 40
-0.4536288099812607
 40
-0.4536288099812607
 40
0.0
 40
0.0
 40
0.0
 40
0.0
 10
1805.864973116582
 20
-105.8036390180946
 30
0.0
 10
1805.834536729154
 20
-105.669845741369
 30
0.0
 10
1805.79338572645
 20
-105.5367898692914
 30
0.0
 10
1805.688795469211
 20
-105.3085653454507
 30
0.0
 10
1805.629005003566
 20
-105.2103277722331
 30
0.0
 10
1805.475959905034
 20
-105.0363976072679
 30
0.0
 10
1805.384919498736
 20
-104.9672398697457
 30
0.0
 10
1805.158030077445
 20
-104.8623656144096
 30
0.0
 10
1805.025690467815
 20
-104.8395398013845
 30
0.0
 10
1804.891735518671
 20
-104.8395398013845
 30
0.0
  0
ARC
  5
373B
330
1F
100
AcDbEntity
  8
AM_VIS
100
AcDbCircle
 10
1804.901879897476
 20
-106.1741832539915
 30
0.0
 40
1.334682004826646
100
AcDbArc
 50
90.4354862698109
 51
109.6485610012368
  0
ARC
  5
373C
330
1F
100
AcDbEntity
  8
AM_VIS
100
AcDbCircle
 10
1804.808040662591
 20
-105.9049681429521
 30
0.0
 40
1.049591301419521
100
AcDbArc
 50
109.7658345532158
 51
135.089275438321
  0
ARC
  5
373D
330
1F
100
AcDbEntity
  8
AM_VIS
100
AcDbCircle
 10
1805.618737153616
 20
-106.3282728032497
 30
0.0
 40
1.941812625112817
100
AcDbArc
 50
143.1583902231424
 51
183.666932662998
  0
ARC
  5
373E
330
1F
100
AcDbEntity
  8
AM_VIS
100
AcDbCircle
 10
1805.311711051416
 20
-106.5568102232972
 30
0.0
 40
1.634145884321552
100
AcDbArc
 50
176.3389660036473
 51
221.9681506321473
  0
ARC
  5
373F
330
1F
100
AcDbEntity
  8
AM_VIS
100
AcDbCircle
 10
1804.940374439635
 20
-106.8590503475633
 30
0.0
 40
1.156178554052619
100
AcDbArc
 50
223.1376923555118
 51
270.7597058115389
  0
ARC
  5
3740
330
1F
100
AcDbEntity
  8
AM_VIS
100
AcDbCircle
 10
1804.909438068548
 20
-106.6909325493326
 30
0.0
 40
1.325002720242452
100
AcDbArc
 50
272.0010466822244
 51
323.1751160492695
  0
LINE
  5
3741
330
1F
100
AcDbEntity
  8
AM_VIS
100
AcDbLine
 10
1806.024894787601
 20
-107.5673465898962
 30
0.0
 11
1805.970064500394
 21
-107.4851011590868
 31
0.0
  0
ARC
  5
3742
330
1F
100
AcDbEntity
  8
AM_VIS
100
AcDbCircle
 10
1804.982213491992
 20
-106.8996452245006
 30
0.0
 40
1.238147566958089
100
AcDbArc
 50
304.9411630108449
 51
327.3657378913638
  0
ARC
  5
3743
330
1F
100
AcDbEntity
  8
AM_VIS
100
AcDbCircle
 10
1804.841758290674
 20
-106.7594793809313
 30
0.0
 40
1.433914583693229
100
AcDbArc
 50
269.4409268060988
 51
306.3341803379831
  0
ARC
  5
3744
330
1F
100
AcDbEntity
  8
AM_VIS
100
AcDbCircle
 10
1804.790610405292
 20
-106.8286450130315
 30
0.0
 40
1.365186428552684
100
AcDbArc
 50
224.8375622376556
 51
271.5596187896398
  0
ARC
  5
3745
330
1F
100
AcDbEntity
  8
AM_VIS
100
AcDbCircle
 10
1805.188384939581
 20
-106.5582345572772
 30
0.0
 40
1.840058100607771
100
AcDbArc
 50
176.419635220888
 51
222.0739207900286
  0
ARC
  5
3746
330
1F
100
AcDbEntity
  8
AM_VIS
100
AcDbCircle
 10
1805.173924186309
 20
-106.3609026110581
 30
0.0
 40
1.823869256726539
100
AcDbArc
 50
138.025802476359
 51
182.5901550461733
  0
ARC
  5
3747
330
1F
100
AcDbEntity
  8
AM_VIS
100
AcDbCircle
 10
1804.833624626222
 20
-106.0685363351839
 30
0.0
 40
1.375379585881782
100
AcDbArc
 50
89.10192300796264
 51
137.5995365368812
  0
ARC
  5
3748
330
1F
100
AcDbEntity
  8
AM_VIS
100
AcDbCircle
 10
1804.834846297508
 20
-106.4530907197187
 30
0.0
 40
1.759882512425857
100
AcDbArc
 50
72.40172276882876
 51
89.3379242666135
  0
LINE
  5
3749
330
1F
100
AcDbEntity
  8
AM_VIS
100
AcDbLine
 10
1805.3669164934
 20
-104.7756209970584
 30
0.0
 11
1805.645432663579
 21
-104.8585530672818
 31
0.0
  0
SPLINE
  5
374A
330
1F
100
AcDbEntity
  8
AM_VIS
100
AcDbSpline
210
0.0
220
0.0
230
1.0
 70
     8
 71
     3
 72
    14
 73
    10
 74
     0
 42
0.0000000001
 43
0.0000000001
 40
-0.260432902294307
 40
-0.260432902294307
 40
-0.260432902294307
 40
-0.260432902294307
 40
-0.211908303507392
 40
-0.211908303507392
 40
-0.1665934578834322
 40
-0.1665934578834322
 40
-0.0993147059776873
 40
-0.0993147059776873
 40
0.0
 40
0.0
 40
0.0
 40
0.0
 10
1805.645651967757
 20
-104.8578165637865
 30
0.0
 10
1805.65981135057
 20
-104.8578165637865
 30
0.0
 10
1805.67392938959
 20
-104.8561613937547
 30
0.0
 10
1805.700503536895
 20
-104.8486918026772
 30
0.0
 10
1805.712710285122
 20
-104.8432436133131
 30
0.0
 10
1805.741201089226
 20
-104.8246061432934
 30
0.0
 10
1805.755484747317
 20
-104.8096701766125
 30
0.0
 10
1805.785138395146
 20
-104.7656726002894
 30
0.0
 10
1805.797188474535
 20
-104.7341413776087
 30
0.0
 10
1805.805573638775
 20
-104.7024640833688
 30
0.0
  0
LINE
  5
374B
330
1F
100
AcDbEntity
  8
AM_VIS
100
AcDbLine
 10
1798.633682410448
 20
-108.133926224361
 30
0.0
 11
1798.633682410448
 21
-107.9785647636939
 31
0.0
  0
LINE
  5
374C
330
1F
100
AcDbEntity
  8
AM_VIS
100
AcDbLine
 10
1798.63368240905
 20
-107.9785662739803
 30
0.0
 11
1798.643367371067
 21
-107.9785752440498
 31
0.0
  0
ARC
  5
374D
330
1F
100
AcDbEntity
  8
AM_VIS
100
AcDbCircle
 10
1798.764757868296
 20
-105.5641269898726
 30
0.0
 40
2.417496386909882
100
AcDbArc
 50
267.1217788751828
 51
286.0672511892649
  0
SPLINE
  5
374E
330
1F
100
AcDbEntity
  8
AM_VIS
100
AcDbSpline
210
0.0
220
0.0
230
1.0
 70
     8
 71
     3
 72
    12
 73
     8
 74
     0
 42
0.0000000001
 43
0.0000000001
 40
-0.7910501646133699
 40
-0.7910501646133699
 40
-0.7910501646133699
 40
-0.7910501646133699
 40
-0.6197694514927478
 40
-0.6197694514927478
 40
-0.4323084087520768
 40
-0.4323084087520768
 40
0.0
 40
0.0
 40
0.0
 40
0.0
 10
1799.433837346347
 20
-107.8871899319328
 30
0.0
 10
1799.484194139064
 20
-107.8656084414991
 30
0.0
 10
1799.530662813645
 20
-107.8365844508083
 30
0.0
 10
1799.620590666479
 20
-107.7632446242658
 30
0.0
 10
1799.662557583726
 20
-107.7183885806375
 30
0.0
 10
1799.786612479492
 20
-107.5580605535828
 30
0.0
 10
1799.853119091593
 20
-107.4221226625689
 30
0.0
 10
1799.904463978201
 20
-107.2886259632644
 30
0.0
  0
LINE
  5
374F
330
1F
100
AcDbEntity
  8
AM_VIS
100
AcDbLine
 10
1799.799372594389
 20
-108.1339262243609
 30
0.0
 11
1800.000416980812
 21
-107.2886259632644
 31
0.0
  0
LINE
  5
3750
330
1F
100
AcDbEntity
  8
AM_VIS
100
AcDbLine
 10
1798.633682410448
 20
-104.8623926479297
 30
0.0
 11
1798.633682410448
 21
-104.7710019423766
 31
0.0
  0
LINE
  5
3751
330
1F
100
AcDbEntity
  8
AM_VIS
100
AcDbLine
 10
1798.638798181857
 20
-104.7710019423766
 30
0.0
 11
1798.638798181857
 21
-104.8623857543871
 31
0.0
  0
LINE
  5
3752
330
1F
100
AcDbEntity
  8
AM_VIS
100
AcDbLine
 10
1798.633682408893
 20
-104.8623914930758
 30
0.0
 11
1798.638798180307
 21
-104.8623846039724
 31
0.0
  0
ARC
  5
3753
330
1F
100
AcDbEntity
  8
AM_VIS
100
AcDbCircle
 10
1802.472227134673
 20
-106.3334553831123
 30
0.0
 40
1.938047107655826
100
AcDbArc
 50
143.3895563851604
 51
183.2499119387837
  0
ARC
  5
3754
330
1F
100
AcDbEntity
  8
AM_VIS
100
AcDbCircle
 10
1802.460033889165
 20
-106.5529799212591
 30
0.0
 40
1.925861279564098
100
AcDbArc
 50
176.7359416499884
 51
216.0431390180787
  0
ARC
  5
3755
330
1F
100
AcDbEntity
  8
AM_VIS
100
AcDbCircle
 10
1801.647144897228
 20
-107.1341927243299
 30
0.0
 40
0.9266355381602183
100
AcDbArc
 50
216.5591648966824
 51
269.7462468766168
  0
ARC
  5
3756
330
1F
100
AcDbEntity
  8
AM_VIS
100
AcDbCircle
 10
1801.634941018278
 20
-107.1079351348023
 30
0.0
 40
0.9529184662516613
100
AcDbArc
 50
270.4870306007517
 51
322.6430717534042
  0
ARC
  5
3757
330
1F
100
AcDbEntity
  8
AM_VIS
100
AcDbCircle
 10
1800.834907091472
 20
-106.5528977436227
 30
0.0
 40
1.92613555373966
100
AcDbArc
 50
323.9597747389469
 51
3.261144592983051
  0
ARC
  5
3758
330
1F
100
AcDbEntity
  8
AM_VIS
100
AcDbCircle
 10
1800.824560479856
 20
-106.3329857799205
 30
0.0
 40
1.936509100911115
100
AcDbArc
 50
356.7335874219697
 51
36.62694425408604
  0
ARC
  5
3759
330
1F
100
AcDbEntity
  8
AM_VIS
100
AcDbCircle
 10
1801.630252540414
 20
-105.7608664948654
 30
0.0
 40
0.9488280234983324
100
AcDbArc
 50
37.92721607826919
 51
89.22773460903956
  0
ARC
  5
375A
330
1F
100
AcDbEntity
  8
AM_VIS
100
AcDbCircle
 10
1801.656753668991
 20
-105.7441068803683
 30
0.0
 40
0.9320830974019271
100
AcDbArc
 50
90.84295735912411
 51
142.575062879171
  0
ARC
  5
375B
330
1F
100
AcDbEntity
  8
AM_VIS
100
AcDbCircle
 10
1802.109517469034
 20
-106.5319608681227
 30
0.0
 40
1.903059992272686
100
AcDbArc
 50
177.4681862507724
 51
218.9099051485315
  0
ARC
  5
375C
330
1F
100
AcDbEntity
  8
AM_VIS
100
AcDbCircle
 10
1802.089466879254
 20
-106.3538606681539
 30
0.0
 40
1.883500531477977
100
AcDbArc
 50
139.5537078991036
 51
182.8616954539199
  0
ARC
  5
375D
330
1F
100
AcDbEntity
  8
AM_VIS
100
AcDbCircle
 10
1801.624001507725
 20
-105.9801213054766
 30
0.0
 40
1.286936450266979
100
AcDbArc
 50
89.15231055344525
 51
138.7726673957034
  0
ARC
  5
375E
330
1F
100
AcDbEntity
  8
AM_VIS
100
AcDbCircle
 10
1801.664346677053
 20
-105.9851049399759
 30
0.0
 40
1.291954926084652
100
AcDbArc
 50
41.32624671908691
 51
90.94490960155232
  0
ARC
  5
375F
330
1F
100
AcDbEntity
  8
AM_VIS
100
AcDbCircle
 10
1801.193334960128
 20
-106.3499805301924
 30
0.0
 40
1.886973971987488
100
AcDbArc
 50
357.0256079724812
 51
40.20201450203325
  0
ARC
  5
3760
330
1F
100
AcDbEntity
  8
AM_VIS
100
AcDbCircle
 10
1801.164160050156
 20
-106.5332262728118
 30
0.0
 40
1.915508399834459
100
AcDbArc
 50
321.4384400310218
 51
2.553236757153471
  0
ARC
  5
3761
330
1F
100
AcDbEntity
  8
AM_VIS
100
AcDbCircle
 10
1801.670360678998
 20
-106.9061954947855
 30
0.0
 40
1.287420108404212
100
AcDbArc
 50
268.7840645809933
 51
320.3745636504
  0
ARC
  5
3762
330
1F
100
AcDbEntity
  8
AM_VIS
100
AcDbCircle
 10
1801.617984749406
 20
-106.9109684838067
 30
0.0
 40
1.282601984741065
100
AcDbArc
 50
219.5269015912247
 51
271.1193720681014
  0
LINE
  5
3763
330
1F
100
AcDbEntity
  8
AM_VIS
100
AcDbLine
 10
1821.423393482118
 20
-85.19332570216779
 30
0.0
 11
1817.868257210788
 21
-85.19332570216779
 31
0.0
  0
LINE
  5
3764
330
1F
100
AcDbEntity
  8
AM_VIS
100
AcDbLine
 10
1796.60874625399
 20
-85.19332570216779
 30
0.0
 11
1780.238040710245
 21
-85.19332570216779
 31
0.0
  0
LINE
  5
3765
330
1F
100
AcDbEntity
  8
AM_VIS
100
AcDbLine
 10
1758.978529753447
 20
-85.19332570216779
 30
0.0
 11
1755.423393482117
 21
-85.19332570216779
 31
0.0
  0
ELLIPSE
  5
3766
330
1F
100
AcDbEntity
  8
AM_VIS
100
AcDbEllipse
 10
1810.173393482117
 20
-84.69332570216778
 30
0.0
 11
-0.0000000000000002
 21
0.5
 31
0.0
210
0.0
220
0.0
230
1.0
 40
0.4999999999999999
 41
3.141592653589792
 42
4.712388980384689
  0
LINE
  5
3767
330
1F
100
AcDbEntity
  8
AM_VIS
100
AcDbLine
 10
1810.423393482118
 20
-84.69332570216778
 30
0.0
 11
1810.423393482118
 21
-65.69332570216778
 31
0.0
  0
LINE
  5
3768
330
1F
100
AcDbEntity
  8
AM_VIS
100
AcDbLine
 10
1821.423393482118
 20
-65.19332570216779
 30
0.0
 11
1821.423393482118
 21
-85.19332570216779
 31
0.0
  0
ELLIPSE
  5
3769
330
1F
100
AcDbEntity
  8
AM_VIS
100
AcDbEllipse
 10
1820.548393482118
 20
-84.69332570216778
 30
0.0
 11
0.0000000000000002
 21
-0.5
 31
0.0
210
0.0
220
0.0
230
1.0
 40
0.2499999999999999
 41
4.712388980384689
 42
6.283185307179588
  0
LINE
  5
376A
330
1F
100
AcDbEntity
  8
AM_VIS
100
AcDbLine
 10
1820.423393482118
 20
-84.69332570216778
 30
0.0
 11
1820.423393482118
 21
-65.69332570216778
 31
0.0
  0
ELLIPSE
  5
376B
330
1F
100
AcDbEntity
  8
AM_VIS
100
AcDbEllipse
 10
1810.173393482117
 20
-65.69332570216778
 30
0.0
 11
-0.0000000000000002
 21
0.5
 31
0.0
210
0.0
220
0.0
230
1.0
 40
0.4999999999999999
 41
4.712388980384689
 42
6.283185307179586
  0
ELLIPSE
  5
376C
330
1F
100
AcDbEntity
  8
AM_VIS
100
AcDbEllipse
 10
1820.548393482118
 20
-65.69332570216778
 30
0.0
 11
0.0000000000000002
 21
-0.5
 31
0.0
210
0.0
220
0.0
230
1.0
 40
0.2499999999999999
 41
3.141592653589789
 42
4.712388980384689
  0
LINE
  5
376D
330
1F
100
AcDbEntity
  8
AM_VIS
100
AcDbLine
 10
1755.423393482117
 20
-85.19332570216779
 30
0.0
 11
1755.423393482117
 21
-65.19332570216779
 31
0.0
  0
ELLIPSE
  5
376E
330
1F
100
AcDbEntity
  8
AM_VIS
100
AcDbEllipse
 10
1756.298393482117
 20
-84.69332570216778
 30
0.0
 11
-0.0000000000000002
 21
0.5
 31
0.0
210
0.0
220
0.0
230
1.0
 40
0.25
 41
3.141592653589795
 42
4.712388980384689
  0
LINE
  5
376F
330
1F
100
AcDbEntity
  8
AM_VIS
100
AcDbLine
 10
1756.423393482118
 20
-84.69332570216778
 30
0.0
 11
1756.423393482118
 21
-65.69332570216778
 31
0.0
  0
LINE
  5
3770
330
1F
100
AcDbEntity
  8
AM_VIS
100
AcDbLine
 10
1768.423393482117
 20
-65.19332570216779
 30
0.0
 11
1768.423393482117
 21
-85.19332570216779
 31
0.0
  0
ELLIPSE
  5
3771
330
1F
100
AcDbEntity
  8
AM_VIS
100
AcDbEllipse
 10
1766.673393482118
 20
-84.69332570216778
 30
0.0
 11
0.0000000000000002
 21
-0.5
 31
0.0
210
0.0
220
0.0
230
1.0
 40
0.4999999999999983
 41
4.712388980384689
 42
6.283185307179586
  0
LINE
  5
3772
330
1F
100
AcDbEntity
  8
AM_VIS
100
AcDbLine
 10
1766.423393482117
 20
-84.69332570216778
 30
0.0
 11
1766.423393482117
 21
-65.69332570216778
 31
0.0
  0
ELLIPSE
  5
3773
330
1F
100
AcDbEntity
  8
AM_VIS
100
AcDbEllipse
 10
1756.298393482117
 20
-65.69332570216778
 30
0.0
 11
-0.0000000000000002
 21
0.5
 31
0.0
210
0.0
220
0.0
230
1.0
 40
0.25
 41
4.712388980384689
 42
6.283185307179586
  0
ELLIPSE
  5
3774
330
1F
100
AcDbEntity
  8
AM_VIS
100
AcDbEllipse
 10
1766.673393482118
 20
-65.69332570216778
 30
0.0
 11
0.0000000000000002
 21
-0.5
 31
0.0
210
0.0
220
0.0
230
1.0
 40
0.4999999999999983
 41
3.141592653589789
 42
4.712388980384689
  0
LINE
  5
3775
330
1F
100
AcDbEntity
  8
AM_VIS
100
AcDbLine
 10
1764.423393482118
 20
-59.19332570216778
 30
0.0
 11
1763.423393482118
 21
-60.19332570216779
 31
0.0
  0
LINE
  5
3776
330
1F
100
AcDbEntity
  8
AM_VIS
100
AcDbLine
 10
1812.423393482118
 20
-59.19332570216778
 30
0.0
 11
1813.423393482118
 21
-60.19332570216779
 31
0.0
  0
LINE
  5
3777
330
1F
100
AcDbEntity
  8
AM_VIS
100
AcDbLine
 10
1821.423393482118
 20
-113.1933257021678
 30
0.0
 11
1822.423393482118
 21
-111.6933257021678
 31
0.0
  0
LINE
  5
3778
330
1F
100
AcDbEntity
  8
AM_VIS
100
AcDbLine
 10
1755.423393482117
 20
-113.1933257021678
 30
0.0
 11
1754.423393482118
 21
-111.6933257021677
 31
0.0
  0
LINE
  5
3779
330
1F
100
AcDbEntity
  8
AM_VIS
100
AcDbLine
 10
1769.214020769819
 20
-60.19332570216779
 30
0.0
 11
1807.632766194416
 21
-60.19332570216779
 31
0.0
  0
LINE
  5
377A
102
{ACAD_REACTORS
330
39E6
102
}
330
1F
100
AcDbEntity
  8
AM_VIS
100
AcDbLine
 10
1764.423393482118
 20
-59.19332570216778
 30
0.0
 11
1812.423393482118
 21
-59.19332570216778
 31
0.0
  0
LINE
  5
377B
330
1F
100
AcDbEntity
  8
AM_VIS
100
AcDbLine
 10
1755.423393482117
 20
-113.1933257021678
 30
0.0
 11
1821.423393482118
 21
-113.1933257021677
 31
0.0
  0
LINE
  5
377C
330
1F
100
AcDbEntity
  8
AM_VIS
100
AcDbLine
 10
1753.423393482117
 20
-61.19332570216778
 30
0.0
 11
1753.423393482117
 21
-60.19332570216779
 31
0.0
  0
LINE
  5
377D
330
1F
100
AcDbEntity
  8
AM_VIS
100
AcDbLine
 10
1753.423393482117
 20
-90.19332570216779
 30
0.0
 11
1753.423393482117
 21
-89.19332570216779
 31
0.0
  0
LINE
  5
377E
330
1F
100
AcDbEntity
  8
AM_VIS
100
AcDbLine
 10
1823.423393482118
 20
-89.19332570216779
 30
0.0
 11
1823.423393482118
 21
-90.19332570216779
 31
0.0
  0
LINE
  5
377F
330
1F
100
AcDbEntity
  8
AM_VIS
100
AcDbLine
 10
1823.423393482118
 20
-60.19332570216779
 30
0.0
 11
1823.423393482118
 21
-61.19332570216778
 31
0.0
  0
LINE
  5
3780
330
1F
100
AcDbEntity
  8
AM_VIS
100
AcDbLine
 10
1780.116769619199
 20
-110.1933257021677
 30
0.0
 11
1754.423393482118
 21
-110.1933257021678
 31
0.0
  0
LINE
  5
3781
330
1F
100
AcDbEntity
  8
AM_VIS
100
AcDbLine
 10
1822.423393482118
 20
-110.1933257021677
 30
0.0
 11
1796.730017345035
 21
-110.1933257021677
 31
0.0
  0
LINE
  5
3782
330
1F
100
AcDbEntity
  8
AM_VIS
100
AcDbLine
 10
1780.116769619199
 20
-86.19332570216778
 30
0.0
 11
1757.829276400561
 21
-86.19332570216778
 31
0.0
  0
LINE
  5
3783
330
1F
100
AcDbEntity
  8
AM_VIS
100
AcDbLine
 10
1819.017510563674
 20
-86.19332570216778
 30
0.0
 11
1796.730017345035
 21
-86.19332570216778
 31
0.0
  0
LINE
  5
3784
330
1F
100
AcDbEntity
  8
AM_VIS
100
AcDbLine
 10
1808.039907842431
 20
-108.1339262243609
 30
0.0
 11
1809.337557972979
 21
-108.133926224361
 31
0.0
  0
LINE
  5
3785
330
1F
100
AcDbEntity
  8
AM_VIS
100
AcDbLine
 10
1806.312753795434
 20
-108.1339262243609
 30
0.0
 11
1807.523589304572
 21
-108.1339262243609
 31
0.0
  0
LINE
  5
3786
330
1F
100
AcDbEntity
  8
AM_VIS
100
AcDbLine
 10
1807.532727685773
 20
-104.7710019423766
 30
0.0
 11
1806.312753795434
 21
-104.7710019423766
 31
0.0
  0
LINE
  5
3787
330
1F
100
AcDbEntity
  8
AM_VIS
100
AcDbLine
 10
1809.127375205355
 20
-104.7710019423766
 30
0.0
 11
1808.012492698828
 21
-104.7710019423766
 31
0.0
  0
LINE
  5
3788
330
1F
100
AcDbEntity
  8
AM_VIS
100
AcDbLine
 10
1800.000416980812
 20
-107.2886259632644
 30
0.0
 11
1799.904463978201
 21
-107.2886259632644
 31
0.0
  0
LINE
  5
3789
330
1F
100
AcDbEntity
  8
AM_VIS
100
AcDbLine
 10
1798.633682410448
 20
-108.133926224361
 30
0.0
 11
1799.799372594389
 21
-108.133926224361
 31
0.0
  0
LINE
  5
378A
330
1F
100
AcDbEntity
  8
AM_VIS
100
AcDbLine
 10
1798.638798181857
 20
-104.7710019423766
 30
0.0
 11
1798.633682410448
 21
-104.7710019423766
 31
0.0
  0
LINE
  5
378B
330
1F
100
AcDbEntity
  8
AM_VIS
100
AcDbLine
 10
1796.60874625399
 20
-85.19332570216779
 30
0.0
 11
1817.868257210788
 21
-85.19332570216779
 31
0.0
  0
LINE
  5
378C
330
1F
100
AcDbEntity
  8
AM_VIS
100
AcDbLine
 10
1758.978529753447
 20
-85.19332570216779
 30
0.0
 11
1780.238040710245
 21
-85.19332570216779
 31
0.0
  0
LINE
  5
378D
330
1F
100
AcDbEntity
  8
AM_VIS
100
AcDbLine
 10
1798.423393482117
 20
-211.6933257021678
 30
0.0
 11
1798.555045979705
 21
-210.6933257021677
 31
0.0
  0
LINE
  5
378E
330
1F
100
AcDbEntity
  8
AM_VIS
100
AcDbLine
 10
1778.423393482118
 20
-211.6933257021678
 30
0.0
 11
1778.29174098453
 21
-210.6933257021677
 31
0.0
  0
LINE
  5
378F
330
1F
100
AcDbEntity
  8
AM_VIS
100
AcDbLine
 10
1804.277161244657
 20
-179.6933257021678
 30
0.0
 11
1811.571275604475
 21
-179.6933257021678
 31
0.0
  0
LINE
  5
3790
330
1F
100
AcDbEntity
  8
AM_VIS
100
AcDbLine
 10
1765.275511359742
 20
-179.6933257021678
 30
0.0
 11
1772.569625719595
 21
-179.6933257021678
 31
0.0
  0
LINE
  5
3791
330
1F
100
AcDbEntity
  8
AM_VIS
100
AcDbLine
 10
1778.423393482118
 20
-211.6933257021678
 30
0.0
 11
1798.423393482117
 21
-211.6933257021678
 31
0.0
  0
LINE
  5
3792
330
1F
100
AcDbEntity
  8
AM_VIS
100
AcDbLine
 10
1764.860479810799
 20
-121.6933257033177
 30
0.0
 11
1765.010748061326
 21
-142.6933257033335
 31
0.0
  0
LINE
  5
3793
330
1F
100
AcDbEntity
  8
AM_VIS
100
AcDbLine
 10
1765.08230488137
 20
-152.6933257045896
 30
0.0
 11
1765.296978570631
 21
-182.6933257046194
 31
0.0
  0
LINE
  5
3794
330
1F
100
AcDbEntity
  8
AM_VIS
100
AcDbLine
 10
1811.836038902887
 20
-142.6933257033291
 30
0.0
 11
1811.986307153433
 21
-121.6933257033177
 31
0.0
  0
LINE
  5
3795
330
1F
100
AcDbEntity
  8
AM_VIS
100
AcDbLine
 10
1811.549808393581
 20
-182.6933257046244
 30
0.0
 11
1811.764482082862
 21
-152.6933257045895
 31
0.0
  0
LINE
  5
3796
330
1F
100
AcDbEntity
  8
AM_VIS
100
AcDbLine
 10
1772.279055032283
 20
-121.6933257026256
 30
0.0
 11
1772.384260642315
 21
-142.6933257026298
 31
0.0
  0
LINE
  5
3797
330
1F
100
AcDbEntity
  8
AM_VIS
100
AcDbLine
 10
1763.220688803209
 20
-121.6933257031014
 30
0.0
 11
1763.370937985447
 21
-142.6933257031101
 31
0.0
  0
LINE
  5
3798
330
1F
100
AcDbEntity
  8
AM_VIS
100
AcDbLine
 10
1772.434358841966
 20
-152.6933257031298
 30
0.0
 11
1772.584655273126
 21
-182.6933257031428
 31
0.0
  0
LINE
  5
3799
330
1F
100
AcDbEntity
  8
AM_VIS
100
AcDbLine
 10
1763.442485629452
 20
-152.69332570413
 30
0.0
 11
1763.657131178004
 21
-182.6933257041563
 31
0.0
  0
LINE
  5
379A
330
1F
100
AcDbEntity
  8
AM_VIS
100
AcDbLine
 10
1804.46252632194
 20
-142.6933257026298
 30
0.0
 11
1804.567731931932
 21
-121.6933257026288
 31
0.0
  0
LINE
  5
379B
330
1F
100
AcDbEntity
  8
AM_VIS
100
AcDbLine
 10
1813.475848978789
 20
-142.6933257031101
 30
0.0
 11
1813.626098161026
 21
-121.6933257031015
 31
0.0
  0
LINE
  5
379C
330
1F
100
AcDbEntity
  8
AM_VIS
100
AcDbLine
 10
1804.26213169113
 20
-182.6933257031427
 30
0.0
 11
1804.412428122248
 21
-152.693325703131
 31
0.0
  0
LINE
  5
379D
330
1F
100
AcDbEntity
  8
AM_VIS
100
AcDbLine
 10
1813.189655786231
 20
-182.6933257041563
 30
0.0
 11
1813.404301334784
 21
-152.69332570413
 31
0.0
  0
LINE
  5
379E
330
1F
100
AcDbEntity
  8
AM_VIS
100
AcDbLine
 10
1805.423393482118
 20
-210.6933257021678
 30
0.0
 11
1813.932837795088
 21
-208.4132269704698
 31
0.0
  0
LINE
  5
379F
330
1F
100
AcDbEntity
  8
AM_VIS
100
AcDbLine
 10
1771.423393482117
 20
-210.6933257021678
 30
0.0
 11
1762.913949169147
 21
-208.4132269704698
 31
0.0
  0
LINE
  5
37A0
330
1F
100
AcDbEntity
  8
AM_VIS
100
AcDbLine
 10
1817.373393482118
 20
-113.6933257021678
 30
0.0
 11
1817.373393482118
 21
-113.1933257021678
 31
0.0
  0
LINE
  5
37A1
330
1F
100
AcDbEntity
  8
AM_VIS
100
AcDbLine
 10
1759.473393482118
 20
-113.6933257021678
 30
0.0
 11
1759.473393482118
 21
-113.1933257021678
 31
0.0
  0
LINE
  5
37A2
330
1F
100
AcDbEntity
  8
AM_VIS
100
AcDbLine
 10
1817.638552184896
 20
-203.6272305165162
 30
0.0
 11
1818.423393482117
 21
-113.6933257021678
 31
0.0
  0
LINE
  5
37A3
330
1F
100
AcDbEntity
  8
AM_VIS
100
AcDbLine
 10
1759.208234779339
 20
-203.6272305165162
 30
0.0
 11
1758.423393482118
 21
-113.6933257021678
 31
0.0
  0
LINE
  5
37A4
330
1F
100
AcDbEntity
  8
AM_VIS
100
AcDbLine
 10
1771.423393482117
 20
-210.6933257021677
 30
0.0
 11
1805.423393482118
 21
-210.6933257021677
 31
0.0
  0
LINE
  5
37A5
330
1F
100
AcDbEntity
  8
AM_VIS
100
AcDbLine
 10
1758.423393482118
 20
-113.6933257021678
 30
0.0
 11
1818.423393482117
 21
-113.6933257021678
 31
0.0
  0
LINE
  5
37A6
330
1F
100
AcDbEntity
  8
AM_VIS
100
AcDbLine
 10
1772.279055123665
 20
-121.6933257021677
 30
0.0
 11
1763.220688933708
 21
-121.6933257021677
 31
0.0
  0
LINE
  5
37A7
330
1F
100
AcDbEntity
  8
AM_VIS
100
AcDbLine
 10
1763.370938117156
 20
-142.6933257021678
 30
0.0
 11
1772.384260734526
 21
-142.6933257021678
 31
0.0
  0
LINE
  5
37A8
330
1F
100
AcDbEntity
  8
AM_VIS
100
AcDbLine
 10
1772.434359034004
 20
-152.6933257021678
 30
0.0
 11
1763.442485903699
 21
-152.6933257021678
 31
0.0
  0
LINE
  5
37A9
330
1F
100
AcDbEntity
  8
AM_VIS
100
AcDbLine
 10
1763.65713145593
 20
-182.6933257021678
 30
0.0
 11
1772.584655467721
 21
-182.6933257021678
 31
0.0
  0
LINE
  5
37AA
330
1F
100
AcDbEntity
  8
AM_VIS
100
AcDbLine
 10
1804.46252622971
 20
-142.6933257021678
 30
0.0
 11
1813.475848847079
 21
-142.6933257021678
 31
0.0
  0
LINE
  5
37AB
330
1F
100
AcDbEntity
  8
AM_VIS
100
AcDbLine
 10
1813.626098030527
 20
-121.6933257021677
 30
0.0
 11
1804.567731840569
 21
-121.6933257021677
 31
0.0
  0
LINE
  5
37AC
330
1F
100
AcDbEntity
  8
AM_VIS
100
AcDbLine
 10
1804.262131496516
 20
-182.6933257021678
 30
0.0
 11
1813.189655508305
 21
-182.6933257021678
 31
0.0
  0
LINE
  5
37AD
330
1F
100
AcDbEntity
  8
AM_VIS
100
AcDbLine
 10
1813.404301060536
 20
-152.6933257021678
 30
0.0
 11
1804.412427930229
 21
-152.6933257021678
 31
0.0
  0
ARC
  5
37AE
330
1F
100
AcDbEntity
  8
AM_VIS
100
AcDbCircle
 10
1812.638742569575
 20
-203.5835978390243
 30
0.0
 40
5.0
100
AcDbArc
 50
284.9999999999949
 51
359.4999999999986
  0
ARC
  5
37AF
330
1F
100
AcDbEntity
  8
AM_VIS
100
AcDbCircle
 10
1764.20804439466
 20
-203.5835978390243
 30
0.0
 40
5.0
100
AcDbArc
 50
180.5000000000013
 51
255.0000000000051
  0
LINE
  5
37B0
330
1F
100
AcDbEntity
  8
AM_VIS
100
AcDbLine
 10
1775.423393482117
 20
-220.9933257021678
 30
0.0
 11
1778.423393482118
 21
-220.9933257021678
 31
0.0
  0
LINE
  5
37B1
330
1F
100
AcDbEntity
  8
AM_VIS
100
AcDbLine
 10
1775.423393482117
 20
-216.5933257021678
 30
0.0
 11
1778.423393482118
 21
-216.5933257021678
 31
0.0
  0
LINE
  5
37B2
330
1F
100
AcDbEntity
  8
AM_VIS
100
AcDbLine
 10
1774.923393482118
 20
-220.4933257021677
 30
0.0
 11
1775.423393482117
 21
-220.9933257021678
 31
0.0
  0
LINE
  5
37B3
330
1F
100
AcDbEntity
  8
AM_VIS
100
AcDbLine
 10
1774.923393482118
 20
-217.0933257021677
 30
0.0
 11
1775.423393482117
 21
-216.5933257021678
 31
0.0
  0
LINE
  5
37B4
330
1F
100
AcDbEntity
  8
AM_VIS
100
AcDbLine
 10
1798.423393482117
 20
-221.9933257021678
 30
0.0
 11
1798.923393482118
 21
-221.9933257021678
 31
0.0
  0
LINE
  5
37B5
330
1F
100
AcDbEntity
  8
AM_VIS
100
AcDbLine
 10
1798.423393482117
 20
-215.5933257021678
 30
0.0
 11
1798.923393482118
 21
-215.5933257021678
 31
0.0
  0
LINE
  5
37B6
330
1F
100
AcDbEntity
  8
AM_VIS
100
AcDbLine
 10
1799.423393482118
 20
-216.0933257021678
 30
0.0
 11
1798.923393482118
 21
-215.5933257021678
 31
0.0
  0
LINE
  5
37B7
330
1F
100
AcDbEntity
  8
AM_VIS
100
AcDbLine
 10
1799.423393482118
 20
-221.4933257021678
 30
0.0
 11
1798.923393482118
 21
-221.9933257021678
 31
0.0
  0
LINE
  5
37B8
330
1F
100
AcDbEntity
  8
AM_VIS
100
AcDbLine
 10
1775.423393482117
 20
-216.5933257021678
 30
0.0
 11
1775.423393482117
 21
-220.9933257021678
 31
0.0
  0
LINE
  5
37B9
330
1F
100
AcDbEntity
  8
AM_VIS
100
AcDbLine
 10
1774.923393482118
 20
-220.4933257021677
 30
0.0
 11
1774.923393482118
 21
-217.0933257021677
 31
0.0
  0
LINE
  5
37BA
330
1F
100
AcDbEntity
  8
AM_VIS
100
AcDbLine
 10
1799.423393482118
 20
-216.0933257021678
 30
0.0
 11
1799.423393482118
 21
-221.4933257021677
 31
0.0
  0
LINE
  5
37BB
330
1F
100
AcDbEntity
  8
AM_VIS
100
AcDbLine
 10
1798.923393482118
 20
-221.9933257021677
 30
0.0
 11
1798.923393482118
 21
-215.5933257021678
 31
0.0
  0
LINE
  5
37BC
330
1F
100
AcDbEntity
  8
AM_VIS
100
AcDbLine
 10
1798.423393482117
 20
-225.7933257021678
 30
0.0
 11
1778.423393482118
 21
-225.7933257021678
 31
0.0
  0
LINE
  5
37BD
330
1F
100
AcDbEntity
  8
AM_VIS
100
AcDbLine
 10
1778.423393482118
 20
-211.7933257021678
 30
0.0
 11
1778.423393482118
 21
-225.7933257021678
 31
0.0
  0
LINE
  5
37BE
330
1F
100
AcDbEntity
  8
AM_VIS
100
AcDbLine
 10
1798.423393482117
 20
-211.7933257021678
 30
0.0
 11
1778.423393482118
 21
-211.7933257021678
 31
0.0
  0
LINE
  5
37BF
330
1F
100
AcDbEntity
  8
AM_VIS
100
AcDbLine
 10
1798.423393482117
 20
-211.7933257021678
 30
0.0
 11
1798.423393482117
 21
-225.7933257021678
 31
0.0
  0
LINE
  5
37C0
330
1F
100
AcDbEntity
  8
AM_VIS
100
AcDbLine
 10
1791.173393482118
 20
-231.7933257021678
 30
0.0
 11
1791.173393482118
 21
-231.0923638078445
 31
0.0
  0
LINE
  5
37C1
330
1F
100
AcDbEntity
  8
AM_VIS
100
AcDbLine
 10
1785.673393482118
 20
-231.7933257021678
 30
0.0
 11
1785.673393482118
 21
-231.0923638078445
 31
0.0
  0
LINE
  5
37C2
330
1F
100
AcDbEntity
  8
AM_VIS
100
AcDbLine
 10
1791.423393482117
 20
-228.7933257021678
 30
0.0
 11
1791.423393482117
 21
-225.7933257021678
 31
0.0
  0
LINE
  5
37C3
330
1F
100
AcDbEntity
  8
AM_VIS
100
AcDbLine
 10
1785.423393482117
 20
-228.7933257021678
 30
0.0
 11
1785.423393482117
 21
-225.7933257021678
 31
0.0
  0
LINE
  5
37C4
330
1F
100
AcDbEntity
  8
AM_VIS
100
AcDbLine
 10
1791.173393482118
 20
-231.0923638078445
 30
0.0
 11
1791.923393482118
 21
-229.7933257021678
 31
0.0
  0
LINE
  5
37C5
330
1F
100
AcDbEntity
  8
AM_VIS
100
AcDbLine
 10
1785.673393482118
 20
-231.0923638078445
 30
0.0
 11
1784.923393482118
 21
-229.7933257021678
 31
0.0
  0
LINE
  5
37C6
330
1F
100
AcDbEntity
  8
AM_VIS
100
AcDbLine
 10
1795.423393482118
 20
-211.7933257021678
 30
0.0
 11
1795.423393482118
 21
-211.6933257021678
 31
0.0
  0
LINE
  5
37C7
330
1F
100
AcDbEntity
  8
AM_VIS
100
AcDbLine
 10
1781.423393482118
 20
-211.7933257021678
 30
0.0
 11
1781.423393482118
 21
-211.6933257021678
 31
0.0
  0
LINE
  5
37C8
102
{ACAD_REACTORS
330
39E6
330
39E9
102
}
330
1F
100
AcDbEntity
  8
AM_VIS
100
AcDbLine
 10
1791.173393482118
 20
-231.7933257021678
 30
0.0
 11
1785.673393482118
 21
-231.7933257021678
 31
0.0
  0
LINE
  5
37C9
102
{ACAD_REACTORS
330
39EC
102
}
330
1F
100
AcDbEntity
  8
AM_VIS
100
AcDbLine
 10
1791.423393482117
 20
-228.7933257021678
 30
0.0
 11
1785.423393482117
 21
-228.7933257021678
 31
0.0
  0
LINE
  5
37CA
330
1F
100
AcDbEntity
  8
AM_VIS
100
AcDbLine
 10
1791.173393482118
 20
-231.0923638078445
 30
0.0
 11
1785.673393482118
 21
-231.0923638078445
 31
0.0
  0
LINE
  5
37CB
330
1F
100
AcDbEntity
  8
AM_VIS
100
AcDbLine
 10
1791.923393482118
 20
-229.7933257021678
 30
0.0
 11
1784.923393482118
 21
-229.7933257021678
 31
0.0
  0
ARC
  5
37CC
330
1F
100
AcDbEntity
  8
AM_VIS
100
AcDbCircle
 10
1785.915013330827
 20
-229.6641356265226
 30
0.0
 40
1.0
100
AcDbArc
 50
119.4471052414359
 51
187.4227924044008
  0
ARC
  5
37CD
330
1F
100
AcDbEntity
  8
AM_VIS
100
AcDbCircle
 10
1790.931773633408
 20
-229.6641356265226
 30
0.0
 40
1.0
100
AcDbArc
 50
352.5772075955992
 51
60.55289475856406
  0
SPLINE
  5
37CE
330
1F
100
AcDbEntity
  8
AM_VIS
100
AcDbSpline
210
0.0
220
0.0
230
1.0
 70
    12
 71
     2
 72
     6
 73
     3
 74
     0
 42
0.0000000001
 43
0.0000000001
 40
0.0
 40
0.0
 40
0.0
 40
16.88194301613415
 40
16.88194301613415
 40
16.88194301613415
 10
1901.415611728898
 20
-110.1933257021677
 30
0.0
 41
1.0
 10
1909.722235591816
 20
-113.1504685593106
 30
0.0
 41
1.029411764705878
 10
1918.028859454734
 20
-110.1933257021677
 30
0.0
 41
1.0
  0
LINE
  5
37CF
330
1F
100
AcDbEntity
  8
AM_VIS
100
AcDbLine
 10
1879.804292041281
 20
-104.7710019423766
 30
0.0
 11
1880.116202560052
 21
-104.7710019423766
 31
0.0
  0
LINE
  5
37D0
330
1F
100
AcDbEntity
  8
AM_VIS
100
AcDbLine
 10
1879.804292041281
 20
-104.8623857543871
 30
0.0
 11
1880.116202560052
 21
-104.8623857543871
 31
0.0
  0
LINE
  5
37D1
330
1F
100
AcDbEntity
  8
AM_VIS
100
AcDbLine
 10
1879.57109518529
 20
-104.9446311851965
 30
0.0
 11
1880.16142931367
 21
-104.9446311851965
 31
0.0
  0
LINE
  5
37D2
330
1F
100
AcDbEntity
  8
AM_VIS
100
AcDbLine
 10
1880.884844225677
 20
-104.7710019423766
 30
0.0
 11
1881.502647699647
 21
-104.7710019423766
 31
0.0
  0
LINE
  5
37D3
330
1F
100
AcDbEntity
  8
AM_VIS
100
AcDbLine
 10
1880.884844225677
 20
-104.8623857543871
 30
0.0
 11
1881.502647699647
 21
-104.8623857543871
 31
0.0
  0
LINE
  5
37D4
330
1F
100
AcDbEntity
  8
AM_VIS
100
AcDbLine
 10
1880.73186712854
 20
-104.8760933261886
 30
0.0
 11
1881.346339770952
 21
-104.8760933261886
 31
0.0
  0
LINE
  5
37D5
330
1F
100
AcDbEntity
  8
AM_VIS
100
AcDbLine
 10
1880.593999943315
 20
-104.9446311851965
 30
0.0
 11
1881.205501697581
 21
-104.9446311851965
 31
0.0
  0
LINE
  5
37D6
330
1F
100
AcDbEntity
  8
AM_VIS
100
AcDbLine
 10
1880.401791438528
 20
-105.2050750494263
 30
0.0
 11
1881.009199434939
 21
-105.2050750494263
 31
0.0
  0
LINE
  5
37D7
330
1F
100
AcDbEntity
  8
AM_VIS
100
AcDbLine
 10
1879.795541094481
 20
-106.2102969815411
 30
0.0
 11
1880.390392084514
 21
-106.2102969815411
 31
0.0
  0
LINE
  5
37D8
330
1F
100
AcDbEntity
  8
AM_VIS
100
AcDbLine
 10
1880.527386620119
 20
-107.5673465898962
 30
0.0
 11
1881.137463308654
 21
-107.5673465898962
 31
0.0
  0
LINE
  5
37D9
330
1F
100
AcDbEntity
  8
AM_VIS
100
AcDbLine
 10
1880.790170192545
 20
-107.9420202191391
 30
0.0
 11
1881.405908000342
 21
-107.9420202191391
 31
0.0
  0
ARC
  5
37DA
330
1F
100
AcDbEntity
  8
AM_VIS
100
AcDbCircle
 10
1881.331310303318
 20
-106.3027051515834
 30
0.0
 40
4.448066227205611
100
AcDbArc
 50
165.3490927068491
 51
181.8116427058306
  0
ARC
  5
37DB
330
1F
100
AcDbEntity
  8
AM_VIS
100
AcDbCircle
 10
1881.334572626177
 20
-106.5812518637356
 30
0.0
 40
4.451242617623622
100
AcDbArc
 50
178.2243492985712
 51
194.3722888271191
  0
LINE
  5
37DC
330
1F
100
AcDbEntity
  8
AM_VIS
100
AcDbLine
 10
1876.48801209896
 20
-107.6861455455098
 30
0.0
 11
1877.022639093187
 21
-107.6861455455098
 31
0.0
  0
LINE
  5
37DD
330
1F
100
AcDbEntity
  8
AM_VIS
100
AcDbLine
 10
1877.022246933374
 20
-107.686279432736
 30
0.0
 11
1877.051796551684
 21
-107.7728311756844
 31
0.0
  0
LINE
  5
37DE
330
1F
100
AcDbEntity
  8
AM_VIS
100
AcDbLine
 10
1877.027617602655
 20
-105.1775705941035
 30
0.0
 11
1877.052195258737
 21
-105.1070875257816
 31
0.0
  0
LINE
  5
37DF
330
1F
100
AcDbEntity
  8
AM_VIS
100
AcDbLine
 10
1876.493162513062
 20
-105.1776599058231
 30
0.0
 11
1877.027873728138
 21
-105.1776599058231
 31
0.0
  0
LINE
  5
37E0
330
1F
100
AcDbEntity
  8
AM_VIS
100
AcDbLine
 10
1875.722235591816
 20
-104.8623926479297
 30
0.0
 11
1875.722235591816
 21
-104.9309236133949
 31
0.0
  0
LINE
  5
37E1
330
1F
100
AcDbEntity
  8
AM_VIS
100
AcDbLine
 10
1875.722235591816
 20
-104.9309236133949
 30
0.0
 11
1875.722235591816
 21
-105.3375815768414
 31
0.0
  0
LINE
  5
37E2
330
1F
100
AcDbEntity
  8
AM_VIS
100
AcDbLine
 10
1875.722235591816
 20
-104.9309236133949
 30
0.0
 11
1876.142186599934
 21
-104.9309236133949
 31
0.0
  0
LINE
  5
37E3
330
1F
100
AcDbEntity
  8
AM_VIS
100
AcDbLine
 10
1875.722235591816
 20
-105.3375815768414
 30
0.0
 11
1875.722235591816
 21
-107.7364066421156
 31
0.0
  0
LINE
  5
37E4
330
1F
100
AcDbEntity
  8
AM_VIS
100
AcDbLine
 10
1875.722235591816
 20
-107.7364066421155
 30
0.0
 11
1875.722235591816
 21
-107.9420202191391
 31
0.0
  0
LINE
  5
37E5
330
1F
100
AcDbEntity
  8
AM_VIS
100
AcDbLine
 10
1875.722235591816
 20
-107.9420202191391
 30
0.0
 11
1875.722235591816
 21
-107.9785647636939
 31
0.0
  0
LINE
  5
37E6
330
1F
100
AcDbEntity
  8
AM_VIS
100
AcDbLine
 10
1875.722235591816
 20
-107.9420202191391
 30
0.0
 11
1875.908868249731
 21
-107.9420202191391
 31
0.0
  0
LINE
  5
37E7
330
1F
100
AcDbEntity
  8
AM_VIS
100
AcDbLine
 10
1878.835899938135
 20
-104.6933257021678
 30
0.0
 11
1879.41191177118
 21
-104.6933257021678
 31
0.0
  0
LINE
  5
37E8
330
1F
100
AcDbEntity
  8
AM_VIS
100
AcDbLine
 10
1878.85664068416
 20
-105.7945006368936
 30
0.0
 11
1879.330394035991
 21
-105.7945006368936
 31
0.0
  0
LINE
  5
37E9
330
1F
100
AcDbEntity
  8
AM_VIS
100
AcDbLine
 10
1878.802318065169
 20
-105.8036390180946
 30
0.0
 11
1879.330394035991
 21
-105.8036390180946
 31
0.0
  0
LINE
  5
37EA
330
1F
100
AcDbEntity
  8
AM_VIS
100
AcDbLine
 10
1878.047344490494
 20
-104.9172160415934
 30
0.0
 11
1878.477755737189
 21
-104.9172160415934
 31
0.0
  0
LINE
  5
37EB
330
1F
100
AcDbEntity
  8
AM_VIS
100
AcDbLine
 10
1877.853769133619
 20
-105.1639523340215
 30
0.0
 11
1878.411707739395
 21
-105.1639523340215
 31
0.0
  0
LINE
  5
37EC
330
1F
100
AcDbEntity
  8
AM_VIS
100
AcDbLine
 10
1877.668242165631
 20
-106.4524640833688
 30
0.0
 11
1878.22289441512
 21
-106.4524640833688
 31
0.0
  0
LINE
  5
37ED
330
1F
100
AcDbEntity
  8
AM_VIS
100
AcDbLine
 10
1877.86948724759
 20
-107.6495920207056
 30
0.0
 11
1878.427706084559
 21
-107.6495920207056
 31
0.0
  0
LINE
  5
37EE
330
1F
100
AcDbEntity
  8
AM_VIS
100
AcDbLine
 10
1943.722235591816
 20
-107.932881837938
 30
0.0
 11
1943.722235591816
 21
-108.0425424123506
 31
0.0
  0
LINE
  5
37EF
330
1F
100
AcDbEntity
  8
AM_VIS
100
AcDbLine
 10
1943.722235591816
 20
-107.5353622556926
 30
0.0
 11
1943.722235591816
 21
-107.932881837938
 31
0.0
  0
LINE
  5
37F0
330
1F
100
AcDbEntity
  8
AM_VIS
100
AcDbLine
 10
1893.722235591816
 20
-90.19332570216779
 30
0.0
 11
1925.722235591816
 21
-90.19332570216779
 31
0.0
  0
LINE
  5
37F1
330
1F
100
AcDbEntity
  8
AM_VIS
100
AcDbLine
 10
1892.722235591816
 20
-61.19332570216778
 30
0.0
 11
1892.722235591816
 21
-89.19332570216779
 31
0.0
  0
LINE
  5
37F2
330
1F
100
AcDbEntity
  8
AM_VIS
100
AcDbLine
 10
1925.722235591816
 20
-60.19332570216779
 30
0.0
 11
1893.722235591816
 21
-60.19332570216779
 31
0.0
  0
LINE
  5
37F3
330
1F
100
AcDbEntity
  8
AM_VIS
100
AcDbLine
 10
1926.722235591816
 20
-89.19332570216779
 30
0.0
 11
1926.722235591816
 21
-61.19332570216778
 31
0.0
  0
LINE
  5
37F4
330
1F
100
AcDbEntity
  8
AM_VIS
100
AcDbLine
 10
1918.028859454734
 20
-110.1933257021677
 30
0.0
 11
1918.028859454734
 21
-90.19332570216779
 31
0.0
  0
LINE
  5
37F5
330
1F
100
AcDbEntity
  8
AM_VIS
100
AcDbLine
 10
1943.722235591816
 20
-110.1933257021677
 30
0.0
 11
1943.722235591816
 21
-111.6933257021678
 31
0.0
  0
LINE
  5
37F6
330
1F
100
AcDbEntity
  8
AM_VIS
100
AcDbLine
 10
1943.722235591816
 20
-110.1933257021677
 30
0.0
 11
1943.722235591816
 21
-86.19332570216778
 31
0.0
  0
LINE
  5
37F7
330
1F
100
AcDbEntity
  8
AM_VIS
100
AcDbLine
 10
1942.722235591816
 20
-85.19332570216779
 30
0.0
 11
1943.722235591816
 21
-86.19332570216778
 31
0.0
  0
LINE
  5
37F8
330
1F
100
AcDbEntity
  8
AM_VIS
100
AcDbLine
 10
1875.722235591816
 20
-110.1933257021677
 30
0.0
 11
1875.722235591816
 21
-111.6933257021678
 31
0.0
  0
SPLINE
  5
37F9
330
1F
100
AcDbEntity
  8
AM_VIS
100
AcDbSpline
210
0.0
220
0.0
230
1.0
 70
     8
 71
     3
 72
     8
 73
     4
 74
     0
 42
0.0000000001
 43
0.0000000001
 40
0.0
 40
0.0
 40
0.0
 40
0.0
 40
0.4349572115032178
 40
0.4349572115032178
 40
0.4349572115032178
 40
0.4349572115032178
 10
1878.427706084559
 20
-107.6495920207056
 30
0.0
 10
1878.475557176039
 20
-107.7475850581224
 30
0.0
 10
1878.528832791105
 20
-107.8278060388541
 30
0.0
 10
1878.588378828766
 20
-107.8878651048145
 30
0.0
  0
ARC
  5
37FA
330
1F
100
AcDbEntity
  8
AM_VIS
100
AcDbCircle
 10
1881.023224352475
 20
-106.5894513715125
 30
0.0
 40
2.803678525643933
100
AcDbArc
 50
177.1994222487772
 51
202.2175826313882
  0
ARC
  5
37FB
330
1F
100
AcDbEntity
  8
AM_VIS
100
AcDbCircle
 10
1881.689664109375
 20
-106.3023807104813
 30
0.0
 40
3.470016877742898
100
AcDbArc
 50
160.8479773362813
 51
182.478900668345
  0
ARC
  5
37FC
330
1F
100
AcDbEntity
  8
AM_VIS
100
AcDbCircle
 10
1879.015948482214
 20
-105.442116111566
 30
0.0
 40
0.6651931767688169
100
AcDbArc
 50
135.9057262503565
 51
155.2808992997265
  0
ELLIPSE
  5
37FD
330
1F
100
AcDbEntity
  8
AM_VIS
100
AcDbEllipse
 10
1909.722235591816
 20
422.5236700550111
 30
0.0
 11
-0.0000000000002582
 21
-1054.375
 31
0.0
210
0.0
220
0.0
230
1.0
 40
0.033195020746888
 41
5.236020058611841
 42
5.236105129551746
  0
LINE
  5
37FE
330
1F
100
AcDbEntity
  8
AM_VIS
100
AcDbLine
 10
1876.104854209161
 20
-105.3375815768414
 30
0.0
 11
1876.104854209161
 21
-107.4579809024939
 31
0.0
  0
ARC
  5
37FF
330
1F
100
AcDbEntity
  8
AM_VIS
100
AcDbCircle
 10
1877.622131733723
 20
-105.2718294995122
 30
0.0
 40
1.518701557981359
100
AcDbArc
 50
167.0281716688754
 51
182.4813923715984
  0
ARC
  5
3800
330
1F
100
AcDbEntity
  8
AM_VIS
100
AcDbCircle
 10
1876.238835411078
 20
-104.964404655391
 30
0.0
 40
0.10228378595148
100
AcDbArc
 50
85.87563928201072
 51
160.8929120714119
  0
ARC
  5
3801
330
1F
100
AcDbEntity
  8
AM_VIS
100
AcDbCircle
 10
1881.662465852009
 20
-107.6649776955415
 30
0.0
 40
0.3775903747892005
100
AcDbArc
 50
227.1984789264011
 51
269.3320547515174
  0
ARC
  5
3802
330
1F
100
AcDbEntity
  8
AM_VIS
100
AcDbCircle
 10
1882.825780532817
 20
-106.6412116042549
 30
0.0
 40
1.925653411451316
100
AcDbArc
 50
208.7471941471448
 51
222.4941900155827
  0
ELLIPSE
  5
3803
330
1F
100
AcDbEntity
  8
AM_VIS
100
AcDbEllipse
 10
1909.722235591816
 20
-82.67751229415296
 30
0.0
 11
-0.0000000000000106
 21
-43.13278008298754
 31
0.0
210
0.0
220
0.0
230
1.0
 40
0.8114478114478117
 41
5.289481150630751
 42
5.327502787686351
  0
ELLIPSE
  5
3804
330
1F
100
AcDbEntity
  8
AM_VIS
100
AcDbEllipse
 10
1909.722235591816
 20
-127.1109828472517
 30
0.0
 11
0.0000000000000094
 21
38.3084577114428
 31
0.0
210
0.0
220
0.0
230
1.0
 40
0.9136363636363633
 41
0.9620620655572357
 42
0.9937041565488339
  0
ARC
  5
3805
330
1F
100
AcDbEntity
  8
AM_VIS
100
AcDbCircle
 10
1882.129336474341
 20
-105.8451463501268
 30
0.0
 40
1.290115598316907
100
AcDbArc
 50
135.7323389799741
 51
150.2553889123533
  0
ARC
  5
3806
330
1F
100
AcDbEntity
  8
AM_VIS
100
AcDbCircle
 10
1881.387176996283
 20
-105.1389821428572
 30
0.0
 40
0.2660417427813174
100
AcDbArc
 50
98.82977182181404
 51
133.0693187116244
  0
LINE
  5
3807
330
1F
100
AcDbEntity
  8
AM_VIS
100
AcDbLine
 10
1881.346287319097
 20
-104.8754958420645
 30
0.0
 11
1881.502593996158
 21
-104.8617740127793
 31
0.0
  0
LINE
  5
3808
330
1F
100
AcDbEntity
  8
AM_VIS
100
AcDbLine
 10
1881.502647699647
 20
-104.7710019423766
 30
0.0
 11
1881.502647699647
 21
-104.8623857543871
 31
0.0
  0
LINE
  5
3809
330
1F
100
AcDbEntity
  8
AM_VIS
100
AcDbLine
 10
1880.097945219676
 20
-105.3101664332382
 30
0.0
 11
1880.097945219676
 21
-105.5111359107786
 31
0.0
  0
ARC
  5
380A
330
1F
100
AcDbEntity
  8
AM_VIS
100
AcDbCircle
 10
1880.843309663459
 20
-105.2513367100266
 30
0.0
 40
0.7476824796587536
100
AcDbArc
 50
155.782082312455
 51
184.5128549210784
  0
ARC
  5
380B
330
1F
100
AcDbEntity
  8
AM_VIS
100
AcDbCircle
 10
1880.30683172699
 20
-105.0891342833589
 30
0.0
 40
0.2049951394000879
100
AcDbArc
 50
103.3803998216419
 51
135.1777365231896
  0
LINE
  5
380C
330
1F
100
AcDbEntity
  8
AM_VIS
100
AcDbLine
 10
1901.415611728898
 20
-110.1933257021677
 30
0.0
 11
1901.415611728898
 21
-90.19332570216779
 31
0.0
  0
LINE
  5
380D
330
1F
100
AcDbEntity
  8
AM_VIS
100
AcDbLine
 10
1875.722235591816
 20
-110.1933257021677
 30
0.0
 11
1875.722235591816
 21
-108.133926224361
 31
0.0
  0
LINE
  5
380E
330
1F
100
AcDbEntity
  8
AM_VIS
100
AcDbLine
 10
1875.722235591816
 20
-104.7710019423766
 30
0.0
 11
1875.722235591816
 21
-86.19332570216778
 31
0.0
  0
LINE
  5
380F
330
1F
100
AcDbEntity
  8
AM_VIS
100
AcDbLine
 10
1875.722235591816
 20
-86.19332570216778
 30
0.0
 11
1876.722235591816
 21
-85.19332570216779
 31
0.0
  0
LINE
  5
3810
330
1F
100
AcDbEntity
  8
AM_VIS
100
AcDbLine
 10
1943.722235591816
 20
-102.1933257021678
 30
0.0
 11
1944.222235591816
 21
-102.1933257021678
 31
0.0
  0
LINE
  5
3811
330
1F
100
AcDbEntity
  8
AM_VIS
100
AcDbLine
 10
1944.222235591816
 20
-104.1933257021678
 30
0.0
 11
1944.222235591816
 21
-102.1933257021678
 31
0.0
  0
LINE
  5
3812
330
1F
100
AcDbEntity
  8
AM_VIS
100
AcDbLine
 10
1943.722235591816
 20
-104.1933257021678
 30
0.0
 11
1944.222235591816
 21
-104.1933257021678
 31
0.0
  0
LINE
  5
3813
330
1F
100
AcDbEntity
  8
AM_VIS
100
AcDbLine
 10
1944.222235591816
 20
-106.1933257021678
 30
0.0
 11
1944.222235591816
 21
-104.1933257021678
 31
0.0
  0
LINE
  5
3814
330
1F
100
AcDbEntity
  8
AM_VIS
100
AcDbLine
 10
1943.722235591816
 20
-106.1933257021678
 30
0.0
 11
1944.222235591816
 21
-106.1933257021678
 31
0.0
  0
LINE
  5
3815
330
1F
100
AcDbEntity
  8
AM_VIS
100
AcDbLine
 10
1875.722235591816
 20
-106.1933257021678
 30
0.0
 11
1875.222235591816
 21
-106.1933257021678
 31
0.0
  0
LINE
  5
3816
330
1F
100
AcDbEntity
  8
AM_VIS
100
AcDbLine
 10
1875.222235591816
 20
-104.1933257021678
 30
0.0
 11
1875.222235591816
 21
-106.1933257021678
 31
0.0
  0
LINE
  5
3817
330
1F
100
AcDbEntity
  8
AM_VIS
100
AcDbLine
 10
1875.722235591816
 20
-104.1933257021678
 30
0.0
 11
1875.222235591816
 21
-104.1933257021678
 31
0.0
  0
LINE
  5
3818
330
1F
100
AcDbEntity
  8
AM_VIS
100
AcDbLine
 10
1875.222235591816
 20
-102.1933257021678
 30
0.0
 11
1875.222235591816
 21
-104.1933257021678
 31
0.0
  0
LINE
  5
3819
330
1F
100
AcDbEntity
  8
AM_VIS
100
AcDbLine
 10
1875.722235591816
 20
-102.1933257021678
 30
0.0
 11
1875.222235591816
 21
-102.1933257021678
 31
0.0
  0
LINE
  5
381A
330
1F
100
AcDbEntity
  8
AM_VIS
100
AcDbLine
 10
1879.798457094709
 20
-108.133926224361
 30
0.0
 11
1880.134360298858
 21
-108.133926224361
 31
0.0
  0
ARC
  5
381B
330
1F
100
AcDbEntity
  8
AM_VIS
100
AcDbCircle
 10
1880.345736571764
 20
-107.7908816882685
 30
0.0
 40
0.2349661831574259
100
AcDbArc
 50
217.1815738419032
 51
251.097632243773
  0
LINE
  5
381C
330
1F
100
AcDbEntity
  8
AM_VIS
100
AcDbLine
 10
1879.798457094709
 20
-108.0425424123505
 30
0.0
 11
1880.134360298858
 21
-108.0425424123505
 31
0.0
  0
ARC
  5
381D
330
1F
100
AcDbEntity
  8
AM_VIS
100
AcDbCircle
 10
1880.881444098149
 20
-107.6259735269431
 30
0.0
 40
0.7853615298189806
100
AcDbArc
 50
176.0531149690072
 51
203.0034170593344
  0
LINE
  5
381E
330
1F
100
AcDbEntity
  8
AM_VIS
100
AcDbLine
 10
1879.568255868377
 20
-107.932881837938
 30
0.0
 11
1880.158533300635
 21
-107.932881837938
 31
0.0
  0
LINE
  5
381F
330
1F
100
AcDbEntity
  8
AM_VIS
100
AcDbLine
 10
1880.097945219676
 20
-107.267904068558
 30
0.0
 11
1880.097945219676
 21
-107.5719157804967
 31
0.0
  0
LINE
  5
3820
330
1F
100
AcDbEntity
  8
AM_VIS
100
AcDbLine
 10
1879.508851470654
 20
-106.6854928039954
 30
0.0
 11
1879.790354419281
 21
-106.6854928039954
 31
0.0
  0
LINE
  5
3821
330
1F
100
AcDbEntity
  8
AM_VIS
100
AcDbLine
 10
1881.036913148985
 20
-108.0425424123505
 30
0.0
 11
1881.658064062102
 21
-108.0425424123505
 31
0.0
  0
LINE
  5
3822
330
1F
100
AcDbEntity
  8
AM_VIS
100
AcDbLine
 10
1881.658064062102
 20
-108.0425424123505
 30
0.0
 11
1881.658064062102
 21
-108.1339262243609
 31
0.0
  0
LINE
  5
3823
330
1F
100
AcDbEntity
  8
AM_VIS
100
AcDbLine
 10
1881.036913148985
 20
-108.133926224361
 30
0.0
 11
1881.658064062102
 21
-108.133926224361
 31
0.0
  0
SPLINE
  5
3824
330
1F
100
AcDbEntity
  8
AM_VIS
100
AcDbSpline
210
0.0
220
0.0
230
1.0
 70
     8
 71
     3
 72
    12
 73
     8
 74
     0
 42
0.0000000001
 43
0.0000000001
 40
0.0703738729805718
 40
0.0703738729805718
 40
0.0703738729805718
 40
0.0703738729805718
 40
0.5902259540596603
 40
0.5902259540596603
 40
0.9101025310865122
 40
0.9101025310865122
 40
1.246550998473939
 40
1.246550998473939
 40
1.246550998473939
 40
1.246550998473939
 10
1877.729398887471
 20
-107.7772241861972
 30
0.0
 10
1877.67935018697
 20
-107.8972306627652
 30
0.0
 10
1877.623212842181
 20
-107.9948482221371
 30
0.0
 10
1877.522340582716
 20
-108.1086586951996
 30
0.0
 10
1877.48277042623
 20
-108.1403360018398
 30
0.0
 10
1877.399873096803
 20
-108.1834216029684
 30
0.0
 10
1877.357170436398
 20
-108.1933257021677
 30
0.0
 10
1877.314814845049
 20
-108.1933257021677
 30
0.0
  0
LINE
  5
3825
330
1F
100
AcDbEntity
  8
AM_VIS
100
AcDbLine
 10
1876.775446378632
 20
-108.1933257021677
 30
0.0
 11
1877.314814845049
 21
-108.1933257021677
 31
0.0
  0
LINE
  5
3826
330
1F
100
AcDbEntity
  8
AM_VIS
100
AcDbLine
 10
1877.202811790864
 20
-107.7272682609145
 30
0.0
 11
1877.707165959093
 21
-107.7272682609145
 31
0.0
  0
LINE
  5
3827
330
1F
100
AcDbEntity
  8
AM_VIS
100
AcDbLine
 10
1877.737194167234
 20
-105.1319679801873
 30
0.0
 11
1877.73759656956
 21
-105.1329585309349
 31
0.0
  0
LINE
  5
3828
330
1F
100
AcDbEntity
  8
AM_VIS
100
AcDbLine
 10
1876.775446378632
 20
-104.6933257021678
 30
0.0
 11
1877.314814845049
 21
-104.6933257021678
 31
0.0
  0
SPLINE
  5
3829
330
1F
100
AcDbEntity
  8
AM_VIS
100
AcDbSpline
210
0.0
220
0.0
230
1.0
 70
     8
 71
     3
 72
    12
 73
     8
 74
     0
 42
0.0000000001
 43
0.0000000001
 40
0.0
 40
0.0
 40
0.0
 40
0.0
 40
0.6041805795996237
 40
0.6041805795996237
 40
0.8988971758734054
 40
0.8988971758734054
 40
1.203333666132496
 40
1.203333666132496
 40
1.203333666132496
 40
1.203333666132496
 10
1877.314814845049
 20
-104.6933257021678
 30
0.0
 10
1877.390882028863
 20
-104.6933257021678
 30
0.0
 10
1877.466794673492
 20
-104.7262516868612
 30
0.0
 10
1877.576013058658
 20
-104.838454358156
 30
0.0
 10
1877.610261508164
 20
-104.8843681628822
 30
0.0
 10
1877.676618894669
 20
-104.9955147354925
 30
0.0
 10
1877.708014261523
 20
-105.0603224829891
 30
0.0
 10
1877.737194118912
 20
-105.1319679998179
 30
0.0
  0
LINE
  5
382A
330
1F
100
AcDbEntity
  8
AM_VIS
100
AcDbLine
 10
1877.190821881013
 20
-105.1319679998179
 30
0.0
 11
1877.737194118912
 21
-105.1319679998179
 31
0.0
  0
LINE
  5
382B
330
1F
100
AcDbEntity
  8
AM_VIS
100
AcDbLine
 10
1876.246191816893
 20
-104.7710019423766
 30
0.0
 11
1876.246191816893
 21
-104.8623857543871
 31
0.0
  0
LINE
  5
382C
330
1F
100
AcDbEntity
  8
AM_VIS
100
AcDbLine
 10
1875.723772290947
 20
-104.8623857543871
 30
0.0
 11
1876.246191816893
 21
-104.8623857543871
 31
0.0
  0
LINE
  5
382D
330
1F
100
AcDbEntity
  8
AM_VIS
100
AcDbLine
 10
1875.723772290947
 20
-104.7710019423766
 30
0.0
 11
1876.246191816893
 21
-104.7710019423766
 31
0.0
  0
LINE
  5
382E
330
1F
100
AcDbEntity
  8
AM_VIS
100
AcDbLine
 10
1876.094314168731
 20
-108.133926224361
 30
0.0
 11
1876.613738243537
 21
-108.133926224361
 31
0.0
  0
LINE
  5
382F
330
1F
100
AcDbEntity
  8
AM_VIS
100
AcDbLine
 10
1876.162996522512
 20
-107.2886259632644
 30
0.0
 11
1876.289188576584
 21
-107.2886259632644
 31
0.0
  0
LINE
  5
3830
330
1F
100
AcDbEntity
  8
AM_VIS
100
AcDbLine
 10
1878.819221553191
 20
-104.6932813723339
 30
0.0
 11
1878.833939248186
 21
-104.6935479901844
 31
0.0
  0
LINE
  5
3831
330
1F
100
AcDbEntity
  8
AM_VIS
100
AcDbLine
 10
1878.254056008225
 20
-104.6933257021678
 30
0.0
 11
1878.819220750135
 21
-104.6933257021678
 31
0.0
  0
LINE
  5
3832
330
1F
100
AcDbEntity
  8
AM_VIS
100
AcDbLine
 10
1879.215857271581
 20
-107.9892893306117
 30
0.0
 11
1879.279079654823
 21
-107.9150547167667
 31
0.0
  0
ARC
  5
3833
330
1F
100
AcDbEntity
  8
AM_VIS
100
AcDbCircle
 10
1878.801322418738
 20
-107.7108760106739
 30
0.0
 40
0.4824612299977213
100
AcDbArc
 50
270.3962616435135
 51
302.3125066698852
  0
LINE
  5
3834
330
1F
100
AcDbEntity
  8
AM_VIS
100
AcDbLine
 10
1878.239755791164
 20
-108.1933257021677
 30
0.0
 11
1878.804659127959
 21
-108.1933257021677
 31
0.0
  0
LINE
  5
3835
330
1F
100
AcDbEntity
  8
AM_VIS
100
AcDbLine
 10
1879.278560759115
 20
-107.9146119124608
 30
0.0
 11
1879.287657782257
 21
-107.9025500869966
 31
0.0
  0
LINE
  5
3836
330
1F
100
AcDbEntity
  8
AM_VIS
100
AcDbLine
 10
1878.705016353597
 20
-107.9146050755359
 30
0.0
 11
1879.278551693974
 21
-107.9146050755359
 31
0.0
  0
LINE
  5
3837
330
1F
100
AcDbEntity
  8
AM_VIS
100
AcDbLine
 10
1878.893074854081
 20
-107.5673465898962
 30
0.0
 11
1879.329896513397
 21
-107.5673465898962
 31
0.0
  0
LINE
  5
3838
330
1F
100
AcDbEntity
  8
AM_VIS
100
AcDbLine
 10
1878.861834813855
 20
-107.4851011590868
 30
0.0
 11
1879.330394035991
 21
-107.4851011590868
 31
0.0
  0
LINE
  5
3839
330
1F
100
AcDbEntity
  8
AM_VIS
100
AcDbLine
 10
1881.036913148985
 20
-108.0425424123505
 30
0.0
 11
1881.036913148985
 21
-108.133926224361
 31
0.0
  0
LINE
  5
383A
330
1F
100
AcDbEntity
  8
AM_VIS
100
AcDbLine
 10
1880.134360298858
 20
-108.133926224361
 30
0.0
 11
1880.134360298858
 21
-108.0425424123505
 31
0.0
  0
ARC
  5
383B
330
1F
100
AcDbEntity
  8
AM_VIS
100
AcDbCircle
 10
1880.086205300791
 20
-107.5203220598337
 30
0.0
 40
0.5244358878086115
100
AcDbArc
 50
275.2684610899885
 51
295.8502135125417
  0
SPLINE
  5
383C
330
1F
100
AcDbEntity
  8
AM_VIS
100
AcDbSpline
210
0.0
220
0.0
230
1.0
 70
     8
 71
     3
 72
    14
 73
    10
 74
     0
 42
0.0000000001
 43
0.0000000001
 40
-0.1531726380934479
 40
-0.1531726380934479
 40
-0.1531726380934479
 40
-0.1531726380934479
 40
-0.1208721410524218
 40
-0.1208721410524218
 40
-0.0915873767461445
 40
-0.0915873767461445
 40
-0.0514964941566211
 40
-0.0514964941566211
 40
0.0
 40
0.0
 40
0.0
 40
0.0
 10
1880.314869817455
 20
-107.9922813157448
 30
0.0
 10
1880.320596601263
 20
-107.9888938309215
 30
0.0
 10
1880.326189971656
 20
-107.9845943782301
 30
0.0
 10
1880.336112883204
 20
-107.9741650707731
 30
0.0
 10
1880.340470400455
 20
-107.9682871745069
 30
0.0
 10
1880.349580561306
 20
-107.9517961164631
 30
0.0
 10
1880.353581727482
 20
-107.9407860084065
 30
0.0
 10
1880.35996741243
 20
-107.9124347611206
 30
0.0
 10
1880.361333640783
 20
-107.8952170487839
 30
0.0
 10
1880.361333640783
 20
-107.8780515507317
 30
0.0
  0
ARC
  5
383D
330
1F
100
AcDbEntity
  8
AM_VIS
100
AcDbCircle
 10
1876.007572560582
 20
-109.3598823720626
 30
0.0
 40
4.59902795452737
100
AcDbArc
 50
18.79633988526268
 51
30.59627961855511
  0
ELLIPSE
  5
383E
330
1F
100
AcDbEntity
  8
AM_VIS
100
AcDbEllipse
 10
1909.722235591816
 20
-83.37672410044058
 30
0.0
 11
-0.0000000000000106
 21
-43.35096153846151
 31
0.0
210
0.0
220
0.0
230
1.0
 40
0.818897637795276
 41
5.273331284798823
 42
5.28921961377304
  0
ARC
  5
383F
330
1F
100
AcDbEntity
  8
AM_VIS
100
AcDbCircle
 10
1909.722235591816
 20
-125.324200375797
 30
0.0
 40
35.50000000000002
100
AcDbArc
 50
147.8603734067297
 51
148.3294667707832
  0
LINE
  5
3840
330
1F
100
AcDbEntity
  8
AM_VIS
100
AcDbLine
 10
1879.508851470654
 20
-106.6854928039954
 30
0.0
 11
1879.508851470654
 21
-107.5719157804967
 31
0.0
  0
ARC
  5
3841
330
1F
100
AcDbEntity
  8
AM_VIS
100
AcDbCircle
 10
1880.309692504892
 20
-107.625492034655
 30
0.0
 40
0.8026311588324791
100
AcDbArc
 50
176.1726162975647
 51
202.5182481913266
  0
SPLINE
  5
3842
330
1F
100
AcDbEntity
  8
AM_VIS
100
AcDbSpline
210
0.0
220
0.0
230
1.0
 70
     8
 71
     3
 72
    12
 73
     8
 74
     0
 42
0.0000000001
 43
0.0000000001
 40
-0.4369956089874589
 40
-0.4369956089874589
 40
-0.4369956089874589
 40
-0.4369956089874589
 40
-0.3579898768289282
 40
-0.3579898768289282
 40
-0.2590000808649364
 40
-0.2590000808649364
 40
0.0
 40
0.0
 40
0.0
 40
0.0
 10
1879.568255868377
 20
-107.932881837938
 30
0.0
 10
1879.579343700709
 20
-107.9490283758531
 30
0.0
 10
1879.592221402381
 20
-107.962004442393
 30
0.0
 10
1879.62122468235
 20
-107.9855633350393
 30
0.0
 10
1879.63873360527
 20
-107.9958320372632
 30
0.0
 10
1879.700500846196
 20
-108.0252068682296
 30
0.0
 10
1879.752124901895
 20
-108.0363909173941
 30
0.0
 10
1879.798457094709
 20
-108.0425424123505
 30
0.0
  0
LINE
  5
3843
330
1F
100
AcDbEntity
  8
AM_VIS
100
AcDbLine
 10
1879.798457094709
 20
-108.0425424123505
 30
0.0
 11
1879.798457094709
 21
-108.133926224361
 31
0.0
  0
LINE
  5
3844
330
1F
100
AcDbEntity
  8
AM_VIS
100
AcDbLine
 10
1879.059215721289
 20
-108.133926224361
 30
0.0
 11
1879.059215721289
 21
-108.0425424123505
 31
0.0
  0
SPLINE
  5
3845
330
1F
100
AcDbEntity
  8
AM_VIS
100
AcDbSpline
210
0.0
220
0.0
230
1.0
 70
     8
 71
     3
 72
    10
 73
     6
 74
     0
 42
0.0000000001
 43
0.0000000001
 40
-0.3963858617535184
 40
-0.3963858617535184
 40
-0.3963858617535184
 40
-0.3963858617535184
 40
-0.099492697576372
 40
-0.099492697576372
 40
0.0
 40
0.0
 40
0.0
 40
0.0
 10
1879.059215721289
 20
-108.0425424123505
 30
0.0
 10
1879.124247714018
 20
-108.0332534488931
 30
0.0
 10
1879.187300549585
 20
-108.0135238392433
 30
0.0
 10
1879.2495233267
 20
-107.9619841934689
 30
0.0
 10
1879.265207929008
 20
-107.9453327920278
 30
0.0
 10
1879.278156578451
 20
-107.923743456737
 30
0.0
  0
ARC
  5
3846
330
1F
100
AcDbEntity
  8
AM_VIS
100
AcDbCircle
 10
1878.168601554157
 20
-107.5731679612014
 30
0.0
 40
1.163621729776002
100
AcDbArc
 50
342.4655245985592
 51
3.213104988217255
  0
LINE
  5
3847
330
1F
100
AcDbEntity
  8
AM_VIS
100
AcDbLine
 10
1879.330394035991
 20
-107.5079471120894
 30
0.0
 11
1879.330394035991
 21
-105.3101664332383
 31
0.0
  0
ARC
  5
3848
330
1F
100
AcDbEntity
  8
AM_VIS
100
AcDbCircle
 10
1878.608604105903
 20
-105.248814658506
 30
0.0
 40
0.7243926721332473
100
AcDbArc
 50
355.1415661877637
 51
25.62825339210118
  0
ARC
  5
3849
330
1F
100
AcDbEntity
  8
AM_VIS
100
AcDbCircle
 10
1879.040474326156
 20
-105.2313496234214
 30
0.0
 40
0.3694395438286416
100
AcDbArc
 50
53.20905916337389
 51
87.09217932990481
  0
LINE
  5
384A
330
1F
100
AcDbEntity
  8
AM_VIS
100
AcDbLine
 10
1879.059215721289
 20
-104.8623857543871
 30
0.0
 11
1879.059215721289
 21
-104.7710019423766
 31
0.0
  0
LINE
  5
384B
330
1F
100
AcDbEntity
  8
AM_VIS
100
AcDbLine
 10
1879.804292041281
 20
-104.7710019423766
 30
0.0
 11
1879.804292041281
 21
-104.8623857543871
 31
0.0
  0
SPLINE
  5
384C
330
1F
100
AcDbEntity
  8
AM_VIS
100
AcDbSpline
210
0.0
220
0.0
230
1.0
 70
     8
 71
     3
 72
    10
 73
     6
 74
     0
 42
0.0000000001
 43
0.0000000001
 40
-0.3041110502955982
 40
-0.3041110502955982
 40
-0.3041110502955982
 40
-0.3041110502955982
 40
-0.0622187259405116
 40
-0.0622187259405116
 40
0.0
 40
0.0
 40
0.0
 40
0.0
 10
1879.804292041281
 20
-104.8623857543871
 30
0.0
 10
1879.723560953461
 20
-104.8722603266178
 30
0.0
 10
1879.650158371126
 20
-104.8888183610946
 30
0.0
 10
1879.59207051527
 20
-104.9242768791148
 30
0.0
 10
1879.580276379532
 20
-104.9333346489891
 30
0.0
 10
1879.57109518529
 20
-104.9446311851965
 30
0.0
  0
ARC
  5
384D
330
1F
100
AcDbEntity
  8
AM_VIS
100
AcDbCircle
 10
1880.256275141675
 20
-105.2493714121988
 30
0.0
 40
0.7498921112970269
100
AcDbArc
 50
156.0224437112535
 51
184.6501691781817
  0
LINE
  5
384E
330
1F
100
AcDbEntity
  8
AM_VIS
100
AcDbLine
 10
1879.508851470654
 20
-105.3101664332383
 30
0.0
 11
1879.508851470654
 21
-106.4981559893741
 31
0.0
  0
LINE
  5
384F
330
1F
100
AcDbEntity
  8
AM_VIS
100
AcDbLine
 10
1879.509194854641
 20
-106.4983609162832
 30
0.0
 11
1880.165218138266
 21
-105.3991012255158
 31
0.0
  0
ARC
  5
3850
330
1F
100
AcDbEntity
  8
AM_VIS
100
AcDbCircle
 10
1879.255072368627
 20
-104.8392955932173
 30
0.0
 40
1.064389104632498
100
AcDbArc
 50
328.4024918349853
 51
351.8427005961413
  0
SPLINE
  5
3851
330
1F
100
AcDbEntity
  8
AM_VIS
100
AcDbSpline
210
0.0
220
0.0
230
1.0
 70
     8
 71
     3
 72
    14
 73
    10
 74
     0
 42
0.0000000001
 43
0.0000000001
 40
-0.1301473336602494
 40
-0.1301473336602494
 40
-0.1301473336602494
 40
-0.1301473336602494
 40
-0.1031024286479452
 40
-0.1031024286479452
 40
-0.07849391065029
 40
-0.07849391065029
 40
-0.0447190693277779
 40
-0.0447190693277779
 40
0.0
 40
0.0
 40
0.0
 40
0.0
 10
1880.308692253079
 20
-104.9903230912017
 30
0.0
 10
1880.30869224436
 20
-104.981304388092
 30
0.0
 10
1880.308234039999
 20
-104.9722501342124
 30
0.0
 10
1880.30612882944
 20
-104.9554378480276
 30
0.0
 10
1880.304604580426
 20
-104.9477310733184
 30
0.0
 10
1880.299497835982
 20
-104.9305284645601
 30
0.0
 10
1880.295538248223
 20
-104.9220352391087
 30
0.0
 10
1880.284221262678
 20
-104.9054286633671
 30
0.0
 10
1880.276566271705
 20
-104.8989016995838
 30
0.0
 10
1880.268638777171
 20
-104.8943700885907
 30
0.0
  0
ARC
  5
3852
330
1F
100
AcDbEntity
  8
AM_VIS
100
AcDbCircle
 10
1880.10130568704
 20
-105.3126287339363
 30
0.0
 40
0.4504893533247171
100
AcDbArc
 50
68.19509130406027
 51
88.10498610429752
  0
LINE
  5
3853
330
1F
100
AcDbEntity
  8
AM_VIS
100
AcDbLine
 10
1880.116202560052
 20
-104.8623857543871
 30
0.0
 11
1880.116202560052
 21
-104.7710019423766
 31
0.0
  0
LINE
  5
3854
330
1F
100
AcDbEntity
  8
AM_VIS
100
AcDbLine
 10
1880.884844225677
 20
-104.7710019423766
 30
0.0
 11
1880.884844225677
 21
-104.8623857543871
 31
0.0
  0
LINE
  5
3855
330
1F
100
AcDbEntity
  8
AM_VIS
100
AcDbLine
 10
1880.731813562987
 20
-104.8754961487228
 30
0.0
 11
1880.884789401073
 21
-104.8617745403408
 31
0.0
  0
ARC
  5
3856
330
1F
100
AcDbEntity
  8
AM_VIS
100
AcDbCircle
 10
1880.772679230902
 20
-105.1311209761385
 30
0.0
 40
0.2582725884374021
100
AcDbArc
 50
99.09195891445222
 51
133.7747027846589
  0
ARC
  5
3857
330
1F
100
AcDbEntity
  8
AM_VIS
100
AcDbCircle
 10
1881.526770871819
 20
-105.8341666865456
 30
0.0
 40
1.288927854157361
100
AcDbArc
 50
136.3591253398698
 51
150.7859577117331
  0
ELLIPSE
  5
3858
330
1F
100
AcDbEntity
  8
AM_VIS
100
AcDbEllipse
 10
1909.722235591816
 20
-127.1109828472517
 30
0.0
 11
0.0000000000000095
 21
38.85572139303484
 31
0.0
210
0.0
220
0.0
230
1.0
 40
0.9136363636363633
 41
0.9718462733807328
 42
1.00284637839256
  0
ELLIPSE
  5
3859
330
1F
100
AcDbEntity
  8
AM_VIS
100
AcDbEllipse
 10
1909.722235591816
 20
-82.67751229415296
 30
0.0
 11
-0.0000000000000107
 21
-43.74896265560164
 31
0.0
210
0.0
220
0.0
230
1.0
 40
0.8114478114478117
 41
5.280338928787026
 42
5.317585846210444
  0
ARC
  5
385A
330
1F
100
AcDbEntity
  8
AM_VIS
100
AcDbCircle
 10
1882.225220525057
 20
-106.6560332091731
 30
0.0
 40
1.926948895700409
100
AcDbArc
 50
208.2247064636591
 51
221.864368303955
  0
ARC
  5
385B
330
1F
100
AcDbEntity
  8
AM_VIS
100
AcDbCircle
 10
1881.041847680537
 20
-107.6773398767595
 30
0.0
 40
0.3652358711897119
100
AcDbArc
 50
226.442509859592
 51
269.2258798873151
  0
ELLIPSE
  5
385C
330
1F
100
AcDbEntity
  8
AM_VIS
100
AcDbEllipse
 10
1909.722235591816
 20
-106.0395548646502
 30
0.0
 11
35.49999999999999
 21
-0.0000000000000087
 31
0.0
210
0.0
220
0.0
230
1.0
 40
0.0769230769230774
 41
2.626074961002271
 42
2.629917115443248
  0
ELLIPSE
  5
385D
330
1F
100
AcDbEntity
  8
AM_VIS
100
AcDbEllipse
 10
1909.722235591816
 20
422.5236700550112
 30
0.0
 11
-0.0000000000002619
 21
-1069.4375
 31
0.0
210
0.0
220
0.0
230
1.0
 40
0.033195020746888
 41
5.227906672972209
 42
5.229090555652557
  0
ELLIPSE
  5
385E
330
1F
100
AcDbEntity
  8
AM_VIS
100
AcDbEllipse
 10
1909.722235591816
 20
-107.4647418404246
 30
0.0
 11
-35.5
 21
0.0000000000000087
 31
0.0
210
0.0
220
0.0
230
1.0
 40
0.0952380952380957
 41
5.766483731911717
 42
5.769589732709974
  0
SPLINE
  5
385F
330
1F
100
AcDbEntity
  8
AM_VIS
100
AcDbSpline
210
0.0
220
0.0
230
1.0
 70
     8
 71
     3
 72
    14
 73
    10
 74
     0
 42
0.0000000001
 43
0.0000000001
 40
-1.60811243201422
 40
-1.60811243201422
 40
-1.60811243201422
 40
-1.60811243201422
 40
-1.193157471304725
 40
-1.193157471304725
 40
-0.8349003316813741
 40
-0.8349003316813741
 40
-0.4536288099812607
 40
-0.4536288099812607
 40
0.0
 40
0.0
 40
0.0
 40
0.0
 10
1878.802318065169
 20
-105.8036390180946
 30
0.0
 10
1878.785149239455
 20
-105.669845741369
 30
0.0
 10
1878.761978756828
 20
-105.5367898692914
 30
0.0
 10
1878.703548069785
 20
-105.3085653454507
 30
0.0
 10
1878.670277556629
 20
-105.2103277722331
 30
0.0
 10
1878.585952990182
 20
-105.0363976072679
 30
0.0
 10
1878.53617305403
 20
-104.9672398697457
 30
0.0
 10
1878.413745371272
 20
-104.8623656144096
 30
0.0
 10
1878.343315929997
 20
-104.8395398013845
 30
0.0
 10
1878.273170254876
 20
-104.8395398013845
 30
0.0
  0
ARC
  5
3860
330
1F
100
AcDbEntity
  8
AM_VIS
100
AcDbCircle
 10
1878.283930101979
 20
-105.2379278759025
 30
0.0
 40
0.3985333514623843
100
AcDbArc
 50
91.54709447984235
 51
126.4157901132467
  0
ARC
  5
3861
330
1F
100
AcDbEntity
  8
AM_VIS
100
AcDbCircle
 10
1878.441781392991
 20
-105.4259712446706
 30
0.0
 40
0.6437486518118537
100
AcDbArc
 50
127.786350717045
 51
155.9821945991067
  0
ARC
  5
3862
330
1F
100
AcDbEntity
  8
AM_VIS
100
AcDbCircle
 10
1881.190183205661
 20
-106.3019599459103
 30
0.0
 40
3.525155341943909
100
AcDbArc
 50
161.1661561281366
 51
182.4469485574732
  0
ARC
  5
3863
330
1F
100
AcDbEntity
  8
AM_VIS
100
AcDbCircle
 10
1880.510173682082
 20
-106.5901959786752
 30
0.0
 40
2.845267091009289
100
AcDbArc
 50
177.2253776954581
 51
201.8597714091427
  0
SPLINE
  5
3864
330
1F
100
AcDbEntity
  8
AM_VIS
100
AcDbSpline
210
0.0
220
0.0
230
1.0
 70
     8
 71
     3
 72
    10
 73
     6
 74
     0
 42
0.0000000001
 43
0.0000000001
 40
-1.067059437504357
 40
-1.067059437504357
 40
-1.067059437504357
 40
-1.067059437504357
 40
-0.5265320638903934
 40
-0.5265320638903934
 40
0.0
 40
0.0
 40
0.0
 40
0.0
 10
1877.86948724759
 20
-107.6495920207056
 30
0.0
 10
1877.928024553603
 20
-107.7716074033794
 30
0.0
 10
1877.994792017523
 20
-107.8660155015677
 30
0.0
 10
1878.145971621427
 20
-107.9889485486638
 30
0.0
 10
1878.225015379612
 20
-108.0151272687474
 30
0.0
 10
1878.306750512724
 20
-108.0151272687474
 30
0.0
  0
SPLINE
  5
3865
330
1F
100
AcDbEntity
  8
AM_VIS
100
AcDbSpline
210
0.0
220
0.0
230
1.0
 70
     8
 71
     3
 72
    12
 73
     8
 74
     0
 42
0.0000000001
 43
0.0000000001
 40
-1.312419775836749
 40
-1.312419775836749
 40
-1.312419775836749
 40
-1.312419775836749
 40
-0.9924167323257039
 40
-0.9924167323257039
 40
-0.6716083796266834
 40
-0.6716083796266834
 40
0.0
 40
0.0
 40
0.0
 40
0.0
 10
1878.306750512724
 20
-108.0151272687474
 30
0.0
 10
1878.356434200522
 20
-108.0151272687474
 30
0.0
 10
1878.405998838354
 20
-108.0039092299598
 30
0.0
 10
1878.504752043593
 20
-107.9574657368322
 30
0.0
 10
1878.552780564639
 20
-107.9227242528914
 30
0.0
 10
1878.696930373696
 20
-107.7824665129359
 30
0.0
 10
1878.784315235672
 20
-107.6448512378276
 30
0.0
 10
1878.861834813855
 20
-107.4851011590868
 30
0.0
  0
ELLIPSE
  5
3866
330
1F
100
AcDbEntity
  8
AM_VIS
100
AcDbEllipse
 10
1909.722235591816
 20
-81.16509463167176
 30
0.0
 11
-0.000000000000013
 21
-53.24999999999998
 31
0.0
210
0.0
220
0.0
230
1.0
 40
0.6666666666666669
 41
5.22938665071049
 42
5.231164269854501
  0
ARC
  5
3867
330
1F
100
AcDbEntity
  8
AM_VIS
100
AcDbCircle
 10
1877.720107920401
 20
-107.1566750560519
 30
0.0
 40
1.242780164074053
100
AcDbArc
 50
322.4201475509365
 51
340.7041616784971
  0
ARC
  5
3868
330
1F
100
AcDbEntity
  8
AM_VIS
100
AcDbCircle
 10
1878.199415321238
 20
-107.5983029330818
 30
0.0
 40
0.5963886729680552
100
AcDbArc
 50
273.8785190593163
 51
327.9700543484595
  0
SPLINE
  5
3869
330
1F
100
AcDbEntity
  8
AM_VIS
100
AcDbSpline
210
0.0
220
0.0
230
1.0
 70
     8
 71
     3
 72
    10
 73
     6
 74
     0
 42
0.0000000001
 43
0.0000000001
 40
-1.233437922323932
 40
-1.233437922323932
 40
-1.233437922323932
 40
-1.233437922323932
 40
-0.5875334881578543
 40
-0.5875334881578543
 40
0.0
 40
0.0
 40
0.0
 40
0.0
 10
1878.239755791164
 20
-108.1933257021677
 30
0.0
 10
1878.140292292928
 20
-108.1933257021677
 30
0.0
 10
1878.043562485057
 20
-108.1631223757386
 30
0.0
 10
1877.871230940672
 20
-108.0219175114483
 30
0.0
 10
1877.799162189537
 20
-107.9223319087768
 30
0.0
 10
1877.736048963051
 20
-107.7912369293218
 30
0.0
  0
ARC
  5
386A
330
1F
100
AcDbEntity
  8
AM_VIS
100
AcDbCircle
 10
1880.77647799586
 20
-106.5974217973327
 30
0.0
 40
3.266405252401639
100
AcDbArc
 50
177.296007857164
 51
201.4373017193963
  0
ARC
  5
386B
330
1F
100
AcDbEntity
  8
AM_VIS
100
AcDbCircle
 10
1880.731038562027
 20
-106.3174978032162
 30
0.0
 40
3.219788559912883
100
AcDbArc
 50
158.5700794976497
 51
182.239663795108
  0
SPLINE
  5
386C
330
1F
100
AcDbEntity
  8
AM_VIS
100
AcDbSpline
210
0.0
220
0.0
230
1.0
 70
     8
 71
     3
 72
    12
 73
     8
 74
     0
 42
0.0000000001
 43
0.0000000001
 40
-1.282652671236907
 40
-1.282652671236907
 40
-1.282652671236907
 40
-1.282652671236907
 40
-0.9522339024507424
 40
-0.9522339024507424
 40
-0.6297797705509299
 40
-0.6297797705509299
 40
0.0
 40
0.0
 40
0.0
 40
0.0
 10
1877.733849613641
 20
-105.1411063810189
 30
0.0
 10
1877.76849040578
 20
-105.0652564260348
 30
0.0
 10
1877.806143202483
 20
-104.9973445734199
 30
0.0
 10
1877.887271024422
 20
-104.8815226648105
 30
0.0
 10
1877.9298015878
 20
-104.8342888171762
 30
0.0
 10
1878.063073577121
 20
-104.7243450921189
 30
0.0
 10
1878.156887858003
 20
-104.6933257021678
 30
0.0
 10
1878.254056008225
 20
-104.6933257021678
 30
0.0
  0
ARC
  5
386D
330
1F
100
AcDbEntity
  8
AM_VIS
100
AcDbCircle
 10
1878.232522095419
 20
-105.2574500822395
 30
0.0
 40
0.564535229717373
100
AcDbArc
 50
58.60378978750137
 51
87.81395093003824
  0
LINE
  5
386E
330
1F
100
AcDbEntity
  8
AM_VIS
100
AcDbLine
 10
1878.526569247568
 20
-104.7756619406498
 30
0.0
 11
1878.679252355092
 21
-104.8584992459764
 31
0.0
  0
SPLINE
  5
386F
330
1F
100
AcDbEntity
  8
AM_VIS
100
AcDbSpline
210
0.0
220
0.0
230
1.0
 70
     8
 71
     3
 72
    14
 73
    10
 74
     0
 42
0.0000000001
 43
0.0000000001
 40
-0.260432902294307
 40
-0.260432902294307
 40
-0.260432902294307
 40
-0.260432902294307
 40
-0.211908303507392
 40
-0.211908303507392
 40
-0.1665934578834322
 40
-0.1665934578834322
 40
-0.0993147059776873
 40
-0.0993147059776873
 40
0.0
 40
0.0
 40
0.0
 40
0.0
 10
1878.679622740224
 20
-104.8578165637865
 30
0.0
 10
1878.68747828228
 20
-104.8578165637865
 30
0.0
 10
1878.695323753405
 20
-104.8561613937547
 30
0.0
 10
1878.710114028766
 20
-104.8486918026772
 30
0.0
 10
1878.71691835556
 20
-104.8432436133131
 30
0.0
 10
1878.73281933745
 20
-104.8246061432934
 30
0.0
 10
1878.740808885541
 20
-104.8096701766125
 30
0.0
 10
1878.757413227213
 20
-104.7656726002894
 30
0.0
 10
1878.764177835473
 20
-104.7341413776087
 30
0.0
 10
1878.768886613046
 20
-104.7024640833688
 30
0.0
  0
LINE
  5
3870
330
1F
100
AcDbEntity
  8
AM_VIS
100
AcDbLine
 10
1875.722235591816
 20
-108.133926224361
 30
0.0
 11
1875.722235591816
 21
-107.9785647636939
 31
0.0
  0
LINE
  5
3871
330
1F
100
AcDbEntity
  8
AM_VIS
100
AcDbLine
 10
1875.722235587156
 20
-107.9785662756579
 30
0.0
 11
1875.72514551053
 21
-107.9785752438911
 31
0.0
  0
SPLINE
  5
3872
330
1F
100
AcDbEntity
  8
AM_VIS
100
AcDbSpline
210
0.0
220
0.0
230
1.0
 70
     8
 71
     3
 72
    10
 73
     6
 74
     0
 42
0.0000000001
 43
0.0000000001
 40
-0.6848724765825873
 40
-0.6848724765825873
 40
-0.6848724765825873
 40
-0.6848724765825873
 40
-0.1792227408303228
 40
-0.1792227408303228
 40
0.0
 40
0.0
 40
0.0
 40
0.0
 10
1875.725145515152
 20
-107.9785737439432
 30
0.0
 10
1875.780813169362
 20
-107.9785737439432
 30
0.0
 10
1875.855340864921
 20
-107.9720760266777
 30
0.0
 10
1875.934409476218
 20
-107.9277963289234
 30
0.0
 10
1875.955917275668
 20
-107.9113496344037
 30
0.0
 10
1875.972863361911
 20
-107.8871899319328
 30
0.0
  0
ARC
  5
3873
330
1F
100
AcDbEntity
  8
AM_VIS
100
AcDbCircle
 10
1874.537023668526
 20
-107.1902118395057
 30
0.0
 40
1.596062055944396
100
AcDbArc
 50
334.1073692243137
 51
356.4648660536988
  0
ELLIPSE
  5
3874
330
1F
100
AcDbEntity
  8
AM_VIS
100
AcDbEllipse
 10
1909.722235591816
 20
-155.9647474918662
 30
0.0
 11
0.0000000000000366
 21
149.2613636363637
 31
0.0
210
0.0
220
0.0
230
1.0
 40
0.2378378378378378
 41
1.23860711425343
 42
1.244591703716962
  0
LINE
  5
3875
330
1F
100
AcDbEntity
  8
AM_VIS
100
AcDbLine
 10
1875.722235591816
 20
-104.8623926479297
 30
0.0
 11
1875.722235591816
 21
-104.7710019423766
 31
0.0
  0
LINE
  5
3876
330
1F
100
AcDbEntity
  8
AM_VIS
100
AcDbLine
 10
1875.723772290947
 20
-104.7710019423766
 30
0.0
 11
1875.723772290947
 21
-104.8623857543871
 31
0.0
  0
LINE
  5
3877
330
1F
100
AcDbEntity
  8
AM_VIS
100
AcDbLine
 10
1875.722235586636
 20
-104.8623914924311
 30
0.0
 11
1875.72377228579
 21
-104.8623846040323
 31
0.0
  0
ARC
  5
3878
330
1F
100
AcDbEntity
  8
AM_VIS
100
AcDbCircle
 10
1880.872355383182
 20
-106.3030789842566
 30
0.0
 40
4.52149292776255
100
AcDbArc
 50
165.5873156101341
 51
181.7774735507726
  0
ARC
  5
3879
330
1F
100
AcDbEntity
  8
AM_VIS
100
AcDbCircle
 10
1880.867469858998
 20
-106.5817837750688
 30
0.0
 40
4.516554570906383
100
AcDbArc
 50
178.2432834228505
 51
194.1531268448792
  0
SPLINE
  5
387A
330
1F
100
AcDbEntity
  8
AM_VIS
100
AcDbSpline
210
0.0
220
0.0
230
1.0
 70
     8
 71
     3
 72
    12
 73
     8
 74
     0
 42
0.0000000001
 43
0.0000000001
 40
-0.9135743263141682
 40
-0.9135743263141682
 40
-0.9135743263141682
 40
-0.9135743263141682
 40
-0.6515554079475759
 40
-0.6515554079475759
 40
-0.4062533274740876
 40
-0.4062533274740876
 40
0.0
 40
0.0
 40
0.0
 40
0.0
 10
1876.48801209896
 20
-107.6861455455098
 30
0.0
 10
1876.50819991465
 20
-107.7519444836188
 30
0.0
 10
1876.530613598288
 20
-107.8122338069092
 30
0.0
 10
1876.579026198988
 20
-107.9130506221706
 30
0.0
 10
1876.604285339645
 20
-107.9537186509562
 30
0.0
 10
1876.676885727768
 20
-108.0372629508652
 30
0.0
 10
1876.725018906398
 20
-108.0608191747526
 30
0.0
 10
1876.775446378632
 20
-108.0608191747526
 30
0.0
  0
SPLINE
  5
387B
330
1F
100
AcDbEntity
  8
AM_VIS
100
AcDbSpline
210
0.0
220
0.0
230
1.0
 70
     8
 71
     3
 72
    12
 73
     8
 74
     0
 42
0.0000000001
 43
0.0000000001
 40
-0.926613164426522
 40
-0.926613164426522
 40
-0.926613164426522
 40
-0.926613164426522
 40
-0.6935838796818144
 40
-0.6935838796818144
 40
-0.4652094337698357
 40
-0.4652094337698357
 40
0.0
 40
0.0
 40
0.0
 40
0.0
 10
1876.775446378632
 20
-108.0608191747526
 30
0.0
 10
1876.804374230643
 20
-108.0608191747526
 30
0.0
 10
1876.833288924449
 20
-108.0530673147301
 30
0.0
 10
1876.890144264656
 20
-108.0201487427886
 30
0.0
 10
1876.917452379589
 20
-107.9957031625642
 30
0.0
 10
1876.997712532256
 20
-107.8968391109261
 30
0.0
 10
1877.044903890401
 20
-107.8005335558518
 30
0.0
 10
1877.0861024739
 20
-107.6861455455098
 30
0.0
  0
ARC
  5
387C
330
1F
100
AcDbEntity
  8
AM_VIS
100
AcDbCircle
 10
1873.309376016489
 20
-106.5717346269479
 30
0.0
 40
3.937711826621697
100
AcDbArc
 50
343.5600803735967
 51
1.868748746673921
  0
ARC
  5
387D
330
1F
100
AcDbEntity
  8
AM_VIS
100
AcDbCircle
 10
1873.302554688486
 20
-106.3129665435154
 30
0.0
 40
3.944593501853062
100
AcDbArc
 50
358.1061699221296
 51
16.7270891801061
  0
SPLINE
  5
387E
330
1F
100
AcDbEntity
  8
AM_VIS
100
AcDbSpline
210
0.0
220
0.0
230
1.0
 70
     8
 71
     3
 72
    12
 73
     8
 74
     0
 42
0.0000000001
 43
0.0000000001
 40
-0.908833860941721
 40
-0.908833860941721
 40
-0.908833860941721
 40
-0.908833860941721
 40
-0.6501981440018253
 40
-0.6501981440018253
 40
-0.4089917467383236
 40
-0.4089917467383236
 40
0.0
 40
0.0
 40
0.0
 40
0.0
 10
1877.080238732086
 20
-105.1776599058231
 30
0.0
 10
1877.057054068556
 20
-105.11478467504
 30
0.0
 10
1877.031914899779
 20
-105.0569961239778
 30
0.0
 10
1876.979326699556
 20
-104.9600508117662
 30
0.0
 10
1876.952468552758
 20
-104.920491175371
 30
0.0
 10
1876.875942401279
 20
-104.8369611951629
 30
0.0
 10
1876.82621376577
 20
-104.8121246577814
 30
0.0
 10
1876.775446378632
 20
-104.8121246577814
 30
0.0
  0
SPLINE
  5
387F
330
1F
100
AcDbEntity
  8
AM_VIS
100
AcDbSpline
210
0.0
220
0.0
230
1.0
 70
     8
 71
     3
 72
    12
 73
     8
 74
     0
 42
0.0000000001
 43
0.0000000001
 40
-0.892592271972081
 40
-0.892592271972081
 40
-0.892592271972081
 40
-0.892592271972081
 40
-0.6689624917399426
 40
-0.6689624917399426
 40
-0.4488920263444627
 40
-0.4488920263444627
 40
0.0
 40
0.0
 40
0.0
 40
0.0
 10
1876.775446378632
 20
-104.8121246577814
 30
0.0
 10
1876.747679473909
 20
-104.8121246577814
 30
0.0
 10
1876.720394339344
 20
-104.8197186341757
 30
0.0
 10
1876.667462224389
 20
-104.8519640211178
 30
0.0
 10
1876.642430324569
 20
-104.875954902734
 30
0.0
 10
1876.569849653342
 20
-104.9727531191922
 30
0.0
 10
1876.528562734646
 20
-105.0668870209879
 30
0.0
 10
1876.493162513062
 20
-105.1776599058231
 30
0.0
  0
ARC
  5
3880
330
1F
100
AcDbEntity
  8
AM_VIS
100
AcDbCircle
 10
1880.681563827606
 20
-106.5720114762216
 30
0.0
 40
4.447858012226688
100
AcDbArc
 50
178.4009652258039
 51
195.0542369736609
  0
ARC
  5
3881
330
1F
100
AcDbEntity
  8
AM_VIS
100
AcDbCircle
 10
1880.572322330802
 20
-106.3105835225807
 30
0.0
 40
4.33905763731625
100
AcDbArc
 50
164.2387526958103
 51
181.8134526774028
  0
SPLINE
  5
3882
330
1F
100
AcDbEntity
  8
AM_VIS
100
AcDbSpline
210
0.0
220
0.0
230
1.0
 70
     8
 71
     3
 72
    12
 73
     8
 74
     0
 42
0.0000000001
 43
0.0000000001
 40
-1.184365514332249
 40
-1.184365514332249
 40
-1.184365514332249
 40
-1.184365514332249
 40
-0.8639764341030984
 40
-0.8639764341030984
 40
-0.5558573687827904
 40
-0.5558573687827904
 40
0.0
 40
0.0
 40
0.0
 40
0.0
 10
1876.396404871195
 20
-105.1319679998179
 30
0.0
 10
1876.422117084748
 20
-105.055551581502
 30
0.0
 10
1876.450382646627
 20
-104.9868037654861
 30
0.0
 10
1876.511625119142
 20
-104.8707545419209
 30
0.0
 10
1876.543750215907
 20
-104.8239292649809
 30
0.0
 10
1876.640219545498
 20
-104.7217644204057
 30
0.0
 10
1876.706448834158
 20
-104.6933257021678
 30
0.0
 10
1876.775446378632
 20
-104.6933257021678
 30
0.0
  0
SPLINE
  5
3883
330
1F
100
AcDbEntity
  8
AM_VIS
100
AcDbSpline
210
0.0
220
0.0
230
1.0
 70
     8
 71
     3
 72
    12
 73
     8
 74
     0
 42
0.0000000001
 43
0.0000000001
 40
-1.201305769599481
 40
-1.201305769599481
 40
-1.201305769599481
 40
-1.201305769599481
 40
-0.8844535771398579
 40
-0.8844535771398579
 40
-0.580403863024447
 40
-0.580403863024447
 40
0.0
 40
0.0
 40
0.0
 40
0.0
 10
1876.775446378632
 20
-104.6933257021678
 30
0.0
 10
1876.81477385219
 20
-104.6933257021678
 30
0.0
 10
1876.854374122443
 20
-104.7024224251248
 30
0.0
 10
1876.931709355472
 20
-104.7416695553708
 30
0.0
 10
1876.968868301984
 20
-104.7706576340397
 30
0.0
 10
1877.074227729194
 20
-104.885607752022
 30
0.0
 10
1877.136049236357
 20
-104.9951870596789
 30
0.0
 10
1877.190821881013
 20
-105.1319679998179
 30
0.0
  0
ARC
  5
3884
330
1F
100
AcDbEntity
  8
AM_VIS
100
AcDbCircle
 10
1873.736465233699
 20
-106.3224518843777
 30
0.0
 40
3.653742153770289
100
AcDbArc
 50
358.0324917856668
 51
19.01562036943032
  0
ARC
  5
3885
330
1F
100
AcDbEntity
  8
AM_VIS
100
AcDbCircle
 10
1873.644457757666
 20
-106.5589538228224
 30
0.0
 40
3.745242589182749
100
AcDbArc
 50
341.8234393165925
 51
1.699259990928275
  0
SPLINE
  5
3886
330
1F
100
AcDbEntity
  8
AM_VIS
100
AcDbSpline
210
0.0
220
0.0
230
1.0
 70
     8
 71
     3
 72
    12
 73
     8
 74
     0
 42
0.0000000001
 43
0.0000000001
 40
-1.242654558732889
 40
-1.242654558732889
 40
-1.242654558732889
 40
-1.242654558732889
 40
-0.9142698756126391
 40
-0.9142698756126391
 40
-0.5971960501627601
 40
-0.5971960501627601
 40
0.0
 40
0.0
 40
0.0
 40
0.0
 10
1877.202811790864
 20
-107.7272682609145
 30
0.0
 10
1877.172710698198
 20
-107.806953150589
 30
0.0
 10
1877.139933372142
 20
-107.8787247518426
 30
0.0
 10
1877.069948092713
 20
-108.0005824993515
 30
0.0
 10
1877.033667570146
 20
-108.0500528424002
 30
0.0
 10
1876.923832725272
 20
-108.1619717718481
 30
0.0
 10
1876.849575216972
 20
-108.1933257021677
 30
0.0
 10
1876.775446378632
 20
-108.1933257021677
 30
0.0
  0
SPLINE
  5
3887
330
1F
100
AcDbEntity
  8
AM_VIS
100
AcDbSpline
210
0.0
220
0.0
230
1.0
 70
     8
 71
     3
 72
    12
 73
     8
 74
     0
 42
0.0000000001
 43
0.0000000001
 40
-1.227612223876362
 40
-1.227612223876362
 40
-1.227612223876362
 40
-1.227612223876362
 40
-0.8929247034459253
 40
-0.8929247034459253
 40
-0.5733896277863361
 40
-0.5733896277863361
 40
0.0
 40
0.0
 40
0.0
 40
0.0
 10
1876.775446378632
 20
-108.1933257021677
 30
0.0
 10
1876.733900412625
 20
-108.1933257021677
 30
0.0
 10
1876.692999700912
 20
-108.183329241433
 30
0.0
 10
1876.615310218365
 20
-108.1393450552669
 30
0.0
 10
1876.579080252213
 20
-108.1068407255274
 30
0.0
 10
1876.482919730328
 20
-107.9821500227662
 30
0.0
 10
1876.430812973716
 20
-107.8680140721685
 30
0.0
 10
1876.386354559323
 20
-107.7272682609145
 30
0.0
  0
LINE
  5
3888
330
1F
100
AcDbEntity
  8
AM_VIS
100
AcDbLine
 10
1884.722235591816
 20
-85.19332570216779
 30
0.0
 11
1884.722235591816
 21
-60.19332570216779
 31
0.0
  0
LINE
  5
3889
330
1F
100
AcDbEntity
  8
AM_VIS
100
AcDbLine
 10
1934.722235591816
 20
-85.19332570216779
 30
0.0
 11
1934.722235591816
 21
-60.19332570216779
 31
0.0
  0
LINE
  5
388A
330
1F
100
AcDbEntity
  8
AM_VIS
100
AcDbLine
 10
1885.722235591816
 20
-59.19332570216778
 30
0.0
 11
1884.722235591816
 21
-60.19332570216779
 31
0.0
  0
LINE
  5
388B
330
1F
100
AcDbEntity
  8
AM_VIS
100
AcDbLine
 10
1933.722235591815
 20
-59.19332570216778
 30
0.0
 11
1934.722235591816
 21
-60.19332570216779
 31
0.0
  0
LINE
  5
388C
330
1F
100
AcDbEntity
  8
AM_VIS
100
AcDbLine
 10
1942.722235591816
 20
-113.1933257021678
 30
0.0
 11
1943.722235591816
 21
-111.6933257021678
 31
0.0
  0
LINE
  5
388D
330
1F
100
AcDbEntity
  8
AM_VIS
100
AcDbLine
 10
1876.722235591816
 20
-113.1933257021678
 30
0.0
 11
1875.722235591816
 21
-111.6933257021678
 31
0.0
  0
LINE
  5
388E
330
1F
100
AcDbEntity
  8
AM_VIS
100
AcDbLine
 10
1884.722235591816
 20
-60.19332570216779
 30
0.0
 11
1893.722235591816
 21
-60.19332570216779
 31
0.0
  0
LINE
  5
388F
330
1F
100
AcDbEntity
  8
AM_VIS
100
AcDbLine
 10
1925.722235591816
 20
-60.19332570216779
 30
0.0
 11
1934.722235591816
 21
-60.19332570216779
 31
0.0
  0
LINE
  5
3890
330
1F
100
AcDbEntity
  8
AM_VIS
100
AcDbLine
 10
1885.722235591816
 20
-59.19332570216778
 30
0.0
 11
1933.722235591815
 21
-59.19332570216778
 31
0.0
  0
LINE
  5
3891
330
1F
100
AcDbEntity
  8
AM_VIS
100
AcDbLine
 10
1876.722235591816
 20
-113.1933257021678
 30
0.0
 11
1942.722235591816
 21
-113.1933257021678
 31
0.0
  0
ARC
  5
3892
330
1F
100
AcDbEntity
  8
AM_VIS
100
AcDbCircle
 10
1893.722235591816
 20
-89.19332570216779
 30
0.0
 40
0.9999999999999998
100
AcDbArc
 50
180.0
 51
270.0
  0
ARC
  5
3893
330
1F
100
AcDbEntity
  8
AM_VIS
100
AcDbCircle
 10
1893.722235591816
 20
-61.19332570216778
 30
0.0
 40
0.9999999999999998
100
AcDbArc
 50
90.0
 51
180.0
  0
ARC
  5
3894
330
1F
100
AcDbEntity
  8
AM_VIS
100
AcDbCircle
 10
1925.722235591816
 20
-61.19332570216778
 30
0.0
 40
0.9999999999999998
100
AcDbArc
 50
0.0
 51
90.0
  0
ARC
  5
3895
330
1F
100
AcDbEntity
  8
AM_VIS
100
AcDbCircle
 10
1925.722235591816
 20
-89.19332570216779
 30
0.0
 40
1.0
100
AcDbArc
 50
270.0
 51
0.0
  0
LINE
  5
3896
330
1F
100
AcDbEntity
  8
AM_VIS
100
AcDbLine
 10
1943.722235591816
 20
-110.1933257021677
 30
0.0
 11
1918.028859454734
 21
-110.1933257021677
 31
0.0
  0
LINE
  5
3897
330
1F
100
AcDbEntity
  8
AM_VIS
100
AcDbLine
 10
1943.722235591816
 20
-86.19332570216778
 30
0.0
 11
1926.722235591816
 21
-86.19332570216778
 31
0.0
  0
LINE
  5
3898
330
1F
100
AcDbEntity
  8
AM_VIS
100
AcDbLine
 10
1926.722235591816
 20
-85.19332570216779
 30
0.0
 11
1942.722235591816
 21
-85.19332570216779
 31
0.0
  0
LINE
  5
3899
330
1F
100
AcDbEntity
  8
AM_VIS
100
AcDbLine
 10
1901.415611728898
 20
-110.1933257021677
 30
0.0
 11
1875.722235591816
 21
-110.1933257021677
 31
0.0
  0
LINE
  5
389A
330
1F
100
AcDbEntity
  8
AM_VIS
100
AcDbLine
 10
1892.722235591816
 20
-86.19332570216778
 30
0.0
 11
1875.722235591816
 21
-86.19332570216778
 31
0.0
  0
LINE
  5
389B
330
1F
100
AcDbEntity
  8
AM_VIS
100
AcDbLine
 10
1880.134360298858
 20
-108.1339262243609
 30
0.0
 11
1881.036913148985
 21
-108.133926224361
 31
0.0
  0
LINE
  5
389C
330
1F
100
AcDbEntity
  8
AM_VIS
100
AcDbLine
 10
1879.059215721289
 20
-108.1339262243609
 30
0.0
 11
1879.798457094709
 21
-108.1339262243609
 31
0.0
  0
LINE
  5
389D
330
1F
100
AcDbEntity
  8
AM_VIS
100
AcDbLine
 10
1879.804292041281
 20
-104.7710019423766
 30
0.0
 11
1879.059215721289
 21
-104.7710019423766
 31
0.0
  0
LINE
  5
389E
330
1F
100
AcDbEntity
  8
AM_VIS
100
AcDbLine
 10
1880.884844225677
 20
-104.7710019423766
 30
0.0
 11
1880.116202560052
 21
-104.7710019423766
 31
0.0
  0
LINE
  5
389F
330
1F
100
AcDbEntity
  8
AM_VIS
100
AcDbLine
 10
1876.162996522512
 20
-107.2886259632644
 30
0.0
 11
1876.130048698671
 21
-107.2886259632644
 31
0.0
  0
LINE
  5
38A0
330
1F
100
AcDbEntity
  8
AM_VIS
100
AcDbLine
 10
1875.722235591816
 20
-108.133926224361
 30
0.0
 11
1876.094314168731
 21
-108.133926224361
 31
0.0
  0
LINE
  5
38A1
330
1F
100
AcDbEntity
  8
AM_VIS
100
AcDbLine
 10
1875.723772290947
 20
-104.7710019423766
 30
0.0
 11
1875.722235591816
 21
-104.7710019423766
 31
0.0
  0
LINE
  5
38A2
330
1F
100
AcDbEntity
  8
AM_VIS
100
AcDbLine
 10
1876.722235591816
 20
-85.19332570216779
 30
0.0
 11
1892.722235591816
 21
-85.19332570216779
 31
0.0
  0
LINE
  5
38A3
330
1F
100
AcDbEntity
  8
AM_VIS
100
AcDbLine
 10
1919.722235591816
 20
-211.6933257021678
 30
0.0
 11
1919.853888089403
 21
-210.6933257021677
 31
0.0
  0
LINE
  5
38A4
330
1F
100
AcDbEntity
  8
AM_VIS
100
AcDbLine
 10
1899.722235591816
 20
-211.6933257021678
 30
0.0
 11
1899.590583094228
 21
-210.6933257021677
 31
0.0
  0
LINE
  5
38A5
330
1F
100
AcDbEntity
  8
AM_VIS
100
AcDbLine
 10
1886.57435346944
 20
-179.6933257021678
 30
0.0
 11
1893.868467829276
 21
-179.6933257021678
 31
0.0
  0
LINE
  5
38A6
330
1F
100
AcDbEntity
  8
AM_VIS
100
AcDbLine
 10
1925.576003354355
 20
-179.6933257021678
 30
0.0
 11
1932.870117714177
 21
-179.6933257021678
 31
0.0
  0
LINE
  5
38A7
330
1F
100
AcDbEntity
  8
AM_VIS
100
AcDbLine
 10
1899.722235591816
 20
-211.6933257021678
 30
0.0
 11
1919.722235591816
 21
-211.6933257021678
 31
0.0
  0
LINE
  5
38A8
330
1F
100
AcDbEntity
  8
AM_VIS
100
AcDbLine
 10
1933.134881012588
 20
-142.6933257033291
 30
0.0
 11
1933.285149263153
 21
-121.6933257033178
 31
0.0
  0
LINE
  5
38A9
330
1F
100
AcDbEntity
  8
AM_VIS
100
AcDbLine
 10
1932.848650503283
 20
-182.6933257046244
 30
0.0
 11
1933.063324192582
 21
-152.6933257045895
 31
0.0
  0
LINE
  5
38AA
330
1F
100
AcDbEntity
  8
AM_VIS
100
AcDbLine
 10
1886.381146991068
 20
-152.6933257045896
 30
0.0
 11
1886.59582068033
 21
-182.6933257046217
 31
0.0
  0
LINE
  5
38AB
330
1F
100
AcDbEntity
  8
AM_VIS
100
AcDbLine
 10
1886.159321920497
 20
-121.6933257033177
 30
0.0
 11
1886.309590171024
 21
-142.6933257033294
 31
0.0
  0
LINE
  5
38AC
330
1F
100
AcDbEntity
  8
AM_VIS
100
AcDbLine
 10
1925.761368431638
 20
-142.6933257026298
 30
0.0
 11
1925.866574041631
 21
-121.693325702624
 31
0.0
  0
LINE
  5
38AD
330
1F
100
AcDbEntity
  8
AM_VIS
100
AcDbLine
 10
1934.774691088487
 20
-142.6933257031101
 30
0.0
 11
1934.924940270725
 21
-121.6933257031015
 31
0.0
  0
LINE
  5
38AE
330
1F
100
AcDbEntity
  8
AM_VIS
100
AcDbLine
 10
1884.519530912931
 20
-121.6933257031047
 30
0.0
 11
1884.66978009514
 21
-142.6933257031102
 31
0.0
  0
LINE
  5
38AF
330
1F
100
AcDbEntity
  8
AM_VIS
100
AcDbLine
 10
1893.577897141984
 20
-121.6933257026255
 30
0.0
 11
1893.683102751997
 21
-142.6933257026298
 31
0.0
  0
LINE
  5
38B0
330
1F
100
AcDbEntity
  8
AM_VIS
100
AcDbLine
 10
1925.560973800828
 20
-182.6933257031427
 30
0.0
 11
1925.711270231946
 21
-152.6933257031336
 31
0.0
  0
LINE
  5
38B1
330
1F
100
AcDbEntity
  8
AM_VIS
100
AcDbLine
 10
1934.488497895929
 20
-182.6933257041563
 30
0.0
 11
1934.703143444482
 21
-152.69332570413
 31
0.0
  0
LINE
  5
38B2
330
1F
100
AcDbEntity
  8
AM_VIS
100
AcDbLine
 10
1884.741327739175
 20
-152.6933257041311
 30
0.0
 11
1884.955973287698
 21
-182.6933257041562
 31
0.0
  0
LINE
  5
38B3
330
1F
100
AcDbEntity
  8
AM_VIS
100
AcDbLine
 10
1893.733200951668
 20
-152.6933257031299
 30
0.0
 11
1893.883497382807
 21
-182.6933257031427
 31
0.0
  0
LINE
  5
38B4
330
1F
100
AcDbEntity
  8
AM_VIS
100
AcDbLine
 10
1926.722235591816
 20
-210.6933257021678
 30
0.0
 11
1935.231679904786
 21
-208.4132269704698
 31
0.0
  0
LINE
  5
38B5
330
1F
100
AcDbEntity
  8
AM_VIS
100
AcDbLine
 10
1892.722235591816
 20
-210.6933257021678
 30
0.0
 11
1884.212791278846
 21
-208.4132269704698
 31
0.0
  0
LINE
  5
38B6
330
1F
100
AcDbEntity
  8
AM_VIS
100
AcDbLine
 10
1938.672235591816
 20
-113.6933257021678
 30
0.0
 11
1938.672235591816
 21
-113.1933257021678
 31
0.0
  0
LINE
  5
38B7
330
1F
100
AcDbEntity
  8
AM_VIS
100
AcDbLine
 10
1880.772235591816
 20
-113.6933257021678
 30
0.0
 11
1880.772235591816
 21
-113.1933257021678
 31
0.0
  0
LINE
  5
38B8
330
1F
100
AcDbEntity
  8
AM_VIS
100
AcDbLine
 10
1938.937394294594
 20
-203.6272305165162
 30
0.0
 11
1939.722235591816
 21
-113.6933257021678
 31
0.0
  0
LINE
  5
38B9
330
1F
100
AcDbEntity
  8
AM_VIS
100
AcDbLine
 10
1880.507076889037
 20
-203.6272305165162
 30
0.0
 11
1879.722235591816
 21
-113.6933257021678
 31
0.0
  0
LINE
  5
38BA
330
1F
100
AcDbEntity
  8
AM_VIS
100
AcDbLine
 10
1892.722235591816
 20
-210.6933257021677
 30
0.0
 11
1926.722235591816
 21
-210.6933257021677
 31
0.0
  0
LINE
  5
38BB
330
1F
100
AcDbEntity
  8
AM_VIS
100
AcDbLine
 10
1879.722235591816
 20
-113.6933257021678
 30
0.0
 11
1939.722235591816
 21
-113.6933257021678
 31
0.0
  0
LINE
  5
38BC
330
1F
100
AcDbEntity
  8
AM_VIS
100
AcDbLine
 10
1925.761368339409
 20
-142.6933257021678
 30
0.0
 11
1934.774690956778
 21
-142.6933257021678
 31
0.0
  0
LINE
  5
38BD
330
1F
100
AcDbEntity
  8
AM_VIS
100
AcDbLine
 10
1934.924940140225
 20
-121.6933257021677
 30
0.0
 11
1925.866573950267
 21
-121.6933257021677
 31
0.0
  0
LINE
  5
38BE
330
1F
100
AcDbEntity
  8
AM_VIS
100
AcDbLine
 10
1884.669780226854
 20
-142.6933257021678
 30
0.0
 11
1893.683102844223
 21
-142.6933257021678
 31
0.0
  0
LINE
  5
38BF
330
1F
100
AcDbEntity
  8
AM_VIS
100
AcDbLine
 10
1925.560973606214
 20
-182.6933257021678
 30
0.0
 11
1934.488497618003
 21
-182.6933257021678
 31
0.0
  0
LINE
  5
38C0
330
1F
100
AcDbEntity
  8
AM_VIS
100
AcDbLine
 10
1934.703143170234
 20
-152.6933257021678
 30
0.0
 11
1925.711270039928
 21
-152.6933257021678
 31
0.0
  0
LINE
  5
38C1
330
1F
100
AcDbEntity
  8
AM_VIS
100
AcDbLine
 10
1893.577897233363
 20
-121.6933257021677
 30
0.0
 11
1884.519531043406
 21
-121.6933257021677
 31
0.0
  0
LINE
  5
38C2
330
1F
100
AcDbEntity
  8
AM_VIS
100
AcDbLine
 10
1884.955973565628
 20
-182.6933257021678
 30
0.0
 11
1893.883497577418
 21
-182.6933257021678
 31
0.0
  0
LINE
  5
38C3
330
1F
100
AcDbEntity
  8
AM_VIS
100
AcDbLine
 10
1893.733201143703
 20
-152.6933257021678
 30
0.0
 11
1884.741328013397
 21
-152.6933257021678
 31
0.0
  0
ARC
  5
38C4
330
1F
100
AcDbEntity
  8
AM_VIS
100
AcDbCircle
 10
1933.937584679274
 20
-203.5835978390243
 30
0.0
 40
5.0
100
AcDbArc
 50
284.9999999999949
 51
359.4999999999986
  0
ARC
  5
38C5
330
1F
100
AcDbEntity
  8
AM_VIS
100
AcDbCircle
 10
1885.506886504358
 20
-203.5835978390243
 30
0.0
 40
5.0
100
AcDbArc
 50
180.5000000000013
 51
255.0000000000051
  0
CIRCLE
  5
38C6
330
1F
100
AcDbEntity
  8
AM_VIS
100
AcDbCircle
 10
1909.722235591816
 20
-218.7933257021678
 30
0.0
 40
3.249999999999999
  0
CIRCLE
  5
38C7
330
1F
100
AcDbEntity
  8
AM_VIS
100
AcDbCircle
 10
1909.722235591816
 20
-218.7933257021677
 30
0.0
 40
2.699999999999989
  0
CIRCLE
  5
38C8
330
1F
100
AcDbEntity
  8
AM_VIS
100
AcDbCircle
 10
1909.722235591816
 20
-218.7933257021677
 30
0.0
 40
3.199999999999989
  0
LINE
  5
38C9
330
1F
100
AcDbEntity
  8
AM_VIS
100
AcDbLine
 10
1902.222235591816
 20
-225.7933257021678
 30
0.0
 11
1917.222235591816
 21
-225.7933257021679
 31
0.0
  0
LINE
  5
38CA
330
1F
100
AcDbEntity
  8
AM_VIS
100
AcDbLine
 10
1902.222235591816
 20
-211.7933257021678
 30
0.0
 11
1902.222235591816
 21
-225.7933257021678
 31
0.0
  0
LINE
  5
38CB
330
1F
100
AcDbEntity
  8
AM_VIS
100
AcDbLine
 10
1917.222235591816
 20
-211.7933257021678
 30
0.0
 11
1902.222235591816
 21
-211.7933257021678
 31
0.0
  0
LINE
  5
38CC
330
1F
100
AcDbEntity
  8
AM_VIS
100
AcDbLine
 10
1917.222235591816
 20
-225.7933257021679
 30
0.0
 11
1917.222235591816
 21
-211.7933257021678
 31
0.0
  0
LINE
  5
38CD
330
1F
100
AcDbEntity
  8
AM_VIS
100
AcDbLine
 10
1912.472235591816
 20
-231.7933257021678
 30
0.0
 11
1912.472235591816
 21
-231.0923638078445
 31
0.0
  0
LINE
  5
38CE
330
1F
100
AcDbEntity
  8
AM_VIS
100
AcDbLine
 10
1906.972235591816
 20
-231.7933257021678
 30
0.0
 11
1906.972235591816
 21
-231.0923638078445
 31
0.0
  0
LINE
  5
38CF
330
1F
100
AcDbEntity
  8
AM_VIS
100
AcDbLine
 10
1912.722235591816
 20
-228.7933257021678
 30
0.0
 11
1912.722235591816
 21
-225.7933257021678
 31
0.0
  0
LINE
  5
38D0
330
1F
100
AcDbEntity
  8
AM_VIS
100
AcDbLine
 10
1906.722235591816
 20
-228.7933257021678
 30
0.0
 11
1906.722235591816
 21
-225.7933257021678
 31
0.0
  0
LINE
  5
38D1
330
1F
100
AcDbEntity
  8
AM_VIS
100
AcDbLine
 10
1912.472235591816
 20
-231.0923638078445
 30
0.0
 11
1913.222235591816
 21
-229.7933257021678
 31
0.0
  0
LINE
  5
38D2
330
1F
100
AcDbEntity
  8
AM_VIS
100
AcDbLine
 10
1906.972235591816
 20
-231.0923638078445
 30
0.0
 11
1906.222235591816
 21
-229.7933257021678
 31
0.0
  0
LINE
  5
38D3
330
1F
100
AcDbEntity
  8
AM_VIS
100
AcDbLine
 10
1916.722235591816
 20
-211.7933257021678
 30
0.0
 11
1916.722235591816
 21
-211.6933257021678
 31
0.0
  0
LINE
  5
38D4
330
1F
100
AcDbEntity
  8
AM_VIS
100
AcDbLine
 10
1902.722235591816
 20
-211.7933257021678
 30
0.0
 11
1902.722235591816
 21
-211.6933257021678
 31
0.0
  0
LINE
  5
38D5
330
1F
100
AcDbEntity
  8
AM_VIS
100
AcDbLine
 10
1912.472235591816
 20
-231.7933257021678
 30
0.0
 11
1906.972235591816
 21
-231.7933257021678
 31
0.0
  0
LINE
  5
38D6
330
1F
100
AcDbEntity
  8
AM_VIS
100
AcDbLine
 10
1912.722235591816
 20
-228.7933257021678
 30
0.0
 11
1906.722235591816
 21
-228.7933257021678
 31
0.0
  0
LINE
  5
38D7
330
1F
100
AcDbEntity
  8
AM_VIS
100
AcDbLine
 10
1912.472235591816
 20
-231.0923638078445
 30
0.0
 11
1906.972235591816
 21
-231.0923638078445
 31
0.0
  0
LINE
  5
38D8
330
1F
100
AcDbEntity
  8
AM_VIS
100
AcDbLine
 10
1913.222235591816
 20
-229.7933257021678
 30
0.0
 11
1906.222235591816
 21
-229.7933257021678
 31
0.0
  0
CIRCLE
  5
38D9
330
1F
100
AcDbEntity
  8
AM_VIS
100
AcDbCircle
 10
1909.722235591816
 20
-218.7933257021678
 30
0.0
 40
5.999999999999999
  0
CIRCLE
  5
38DA
330
1F
100
AcDbEntity
  8
AM_VIS
100
AcDbCircle
 10
1909.722235591816
 20
-218.7933257021678
 30
0.0
 40
5.499999999999999
  0
ARC
  5
38DB
330
1F
100
AcDbEntity
  8
AM_VIS
100
AcDbCircle
 10
1907.213855440526
 20
-229.6641356265226
 30
0.0
 40
1.0
100
AcDbArc
 50
119.4471052414359
 51
187.4227924044008
  0
ARC
  5
38DC
330
1F
100
AcDbEntity
  8
AM_VIS
100
AcDbCircle
 10
1912.230615743106
 20
-229.6641356265226
 30
0.0
 40
1.0
100
AcDbArc
 50
352.5772075955992
 51
60.55289475856406
  0
CIRCLE
  5
38DD
330
1F
100
AcDbEntity
  8
AM_VIS
100
AcDbCircle
 10
1909.72223559181
 20
-218.7933257021716
 30
0.0
 40
3.549999999999999
  0
LINE
  5
38DE
330
1F
100
AcDbEntity
  8
假想
100
AcDbLine
 10
1821.884548894305
 20
48.24969259588863
 30
0.0
 11
1821.923393482117
 21
49.36205605114594
 31
0.0
  0
LINE
  5
38DF
330
1F
100
AcDbEntity
  8
假想
100
AcDbLine
 10
1813.96223806993
 20
48.24969259588863
 30
0.0
 11
1813.923393482118
 21
49.36205605114594
 31
0.0
  0
LINE
  5
38E0
330
1F
100
AcDbEntity
  8
假想
100
AcDbLine
 10
1815.923393482117
 20
58.86205605114594
 30
0.0
 11
1815.923393482117
 21
52.16205605114613
 31
0.0
  0
LINE
  5
38E1
330
1F
100
AcDbEntity
  8
假想
100
AcDbLine
 10
1819.923393482118
 20
58.86205605114594
 30
0.0
 11
1819.923393482118
 21
52.16205605114613
 31
0.0
  0
LINE
  5
38E2
330
1F
100
AcDbEntity
  8
假想
100
AcDbLine
 10
1820.073393482118
 20
46.62793019655203
 30
0.0
 11
1820.063998282844
 21
46.63869209927236
 31
0.0
  0
ARC
  5
38E3
330
1F
100
AcDbEntity
  8
假想
100
AcDbCircle
 10
1817.923393482118
 20
52.76205605114603
 30
0.0
 40
6.486738394601746
100
AcDbArc
 50
250.7314010688003
 51
261.9764194946157
  0
LINE
  5
38E4
330
1F
100
AcDbEntity
  8
假想
100
AcDbLine
 10
1815.782788681391
 20
46.63869209927236
 30
0.0
 11
1815.773393482118
 21
46.62793019655157
 31
0.0
  0
LINE
  5
38E5
330
1F
100
AcDbEntity
  8
假想
100
AcDbLine
 10
1817.508393482115
 20
46.63869209927236
 30
0.0
 11
1817.508393482115
 21
46.33881823832837
 31
0.0
  0
LINE
  5
38E6
330
1F
100
AcDbEntity
  8
假想
100
AcDbLine
 10
1818.338393482115
 20
46.33881823832837
 30
0.0
 11
1818.338393482115
 21
46.63869209927191
 31
0.0
  0
ELLIPSE
  5
38E7
330
1F
100
AcDbEntity
  8
假想
100
AcDbEllipse
 10
1817.923393482118
 20
51.17416066863563
 30
0.0
 11
-6.034919222530363
 21
-0.0000000000000136
 31
0.0
210
0.0
220
0.0
230
1.0
 40
0.7533208489537077
 41
1.501975558902702
 42
1.639617094686416
  0
ARC
  5
38E8
330
1F
100
AcDbEntity
  8
假想
100
AcDbCircle
 10
1817.923393482118
 20
52.76205605114603
 30
0.0
 40
6.486738394601746
100
AcDbArc
 50
278.0235805052787
 51
289.2685989311997
  0
LINE
  5
38E9
330
1F
100
AcDbEntity
  8
假想
100
AcDbLine
 10
1818.828816587632
 20
46.33881823832928
 30
0.0
 11
1818.338393482118
 21
46.33881823832928
 31
0.0
  0
LINE
  5
38EA
330
1F
100
AcDbEntity
  8
假想
100
AcDbLine
 10
1817.508393482113
 20
46.33881823832928
 30
0.0
 11
1817.0179703766
 21
46.33881823832928
 31
0.0
  0
ARC
  5
38EB
330
1F
100
AcDbEntity
  8
假想
100
AcDbCircle
 10
1820.585340819181
 20
48.2950619416016
 30
0.0
 40
1.3
100
AcDbArc
 50
300.7913345539553
 51
357.9999999999965
  0
ARC
  5
38EC
330
1F
100
AcDbEntity
  8
假想
100
AcDbCircle
 10
1815.261446145054
 20
48.2950619416016
 30
0.0
 40
1.299999999999999
100
AcDbArc
 50
182.0000000000035
 51
239.208665446031
  0
ARC
  5
38ED
330
1F
100
AcDbEntity
  8
假想
100
AcDbCircle
 10
1817.923393482118
 20
52.76205605114603
 30
0.0
 40
6.500000000000034
100
AcDbArc
 50
239.208665446031
 51
250.6845286915579
  0
ARC
  5
38EE
330
1F
100
AcDbEntity
  8
假想
100
AcDbCircle
 10
1817.923393482118
 20
52.76205605114603
 30
0.0
 40
6.500000000000034
100
AcDbArc
 50
289.3154713084548
 51
300.791334553969
  0
LINE
  5
38EF
330
1F
100
AcDbEntity
  8
假想
100
AcDbLine
 10
1761.884548894305
 20
48.24969259588863
 30
0.0
 11
1761.923393482117
 21
49.36205605114594
 31
0.0
  0
LINE
  5
38F0
330
1F
100
AcDbEntity
  8
假想
100
AcDbLine
 10
1753.96223806993
 20
48.24969259588863
 30
0.0
 11
1753.923393482117
 21
49.36205605114594
 31
0.0
  0
LINE
  5
38F1
330
1F
100
AcDbEntity
  8
假想
100
AcDbLine
 10
1755.923393482117
 20
58.86205605114639
 30
0.0
 11
1755.923393482117
 21
52.16205605114613
 31
0.0
  0
LINE
  5
38F2
330
1F
100
AcDbEntity
  8
假想
100
AcDbLine
 10
1759.923393482117
 20
58.86205605114594
 30
0.0
 11
1759.923393482118
 21
52.16205605114613
 31
0.0
  0
LINE
  5
38F3
330
1F
100
AcDbEntity
  8
假想
100
AcDbLine
 10
1760.073393482118
 20
46.62793019655203
 30
0.0
 11
1760.063998282844
 21
46.63869209927236
 31
0.0
  0
ARC
  5
38F4
330
1F
100
AcDbEntity
  8
假想
100
AcDbCircle
 10
1757.923393482118
 20
52.76205605114603
 30
0.0
 40
6.486738394601746
100
AcDbArc
 50
250.7314010688003
 51
261.9764194946157
  0
LINE
  5
38F5
330
1F
100
AcDbEntity
  8
假想
100
AcDbLine
 10
1755.782788681391
 20
46.63869209927191
 30
0.0
 11
1755.773393482117
 21
46.62793019655157
 31
0.0
  0
LINE
  5
38F6
330
1F
100
AcDbEntity
  8
假想
100
AcDbLine
 10
1757.508393482115
 20
46.63869209927236
 30
0.0
 11
1757.508393482115
 21
46.33881823832837
 31
0.0
  0
LINE
  5
38F7
330
1F
100
AcDbEntity
  8
假想
100
AcDbLine
 10
1758.338393482115
 20
46.33881823832837
 30
0.0
 11
1758.338393482115
 21
46.63869209927191
 31
0.0
  0
ELLIPSE
  5
38F8
330
1F
100
AcDbEntity
  8
假想
100
AcDbEllipse
 10
1757.923393482118
 20
51.17416066863563
 30
0.0
 11
-6.034919222530363
 21
-0.0000000000000136
 31
0.0
210
0.0
220
0.0
230
1.0
 40
0.7533208489537078
 41
1.501975558902702
 42
1.639617094686416
  0
ARC
  5
38F9
330
1F
100
AcDbEntity
  8
假想
100
AcDbCircle
 10
1757.923393482118
 20
52.76205605114603
 30
0.0
 40
6.486738394601746
100
AcDbArc
 50
278.0235805052787
 51
289.2685989311997
  0
LINE
  5
38FA
330
1F
100
AcDbEntity
  8
假想
100
AcDbLine
 10
1758.828816587632
 20
46.33881823832928
 30
0.0
 11
1758.338393482118
 21
46.33881823832928
 31
0.0
  0
LINE
  5
38FB
330
1F
100
AcDbEntity
  8
假想
100
AcDbLine
 10
1757.508393482113
 20
46.33881823832928
 30
0.0
 11
1757.0179703766
 21
46.33881823832928
 31
0.0
  0
ARC
  5
38FC
330
1F
100
AcDbEntity
  8
假想
100
AcDbCircle
 10
1760.58534081918
 20
48.2950619416016
 30
0.0
 40
1.3
100
AcDbArc
 50
300.7913345539553
 51
357.9999999999965
  0
ARC
  5
38FD
330
1F
100
AcDbEntity
  8
假想
100
AcDbCircle
 10
1755.261446145054
 20
48.2950619416016
 30
0.0
 40
1.299999999999999
100
AcDbArc
 50
182.0000000000035
 51
239.208665446031
  0
ARC
  5
38FE
330
1F
100
AcDbEntity
  8
假想
100
AcDbCircle
 10
1757.923393482118
 20
52.76205605114603
 30
0.0
 40
6.500000000000034
100
AcDbArc
 50
239.208665446031
 51
250.6845286915579
  0
ARC
  5
38FF
330
1F
100
AcDbEntity
  8
假想
100
AcDbCircle
 10
1757.923393482118
 20
52.76205605114603
 30
0.0
 40
6.500000000000034
100
AcDbArc
 50
289.3154713084548
 51
300.791334553969
  0
LINE
  5
3900
330
1F
100
AcDbEntity
  8
假想
100
AcDbLine
 10
1813.923393482118
 20
49.86205605114594
 30
0.0
 11
1761.923393482118
 21
49.86205605114594
 31
0.0
  0
LINE
  5
3901
330
1F
100
AcDbEntity
  8
假想
100
AcDbLine
 10
1823.923393482118
 20
49.36205605114594
 30
0.0
 11
1823.923393482118
 21
49.86205605114594
 31
0.0
  0
LINE
  5
3902
330
1F
100
AcDbEntity
  8
假想
100
AcDbLine
 10
1821.923393482117
 20
49.36205605114594
 30
0.0
 11
1753.923393482117
 21
49.36205605114594
 31
0.0
  0
LINE
  5
3903
330
1F
100
AcDbEntity
  8
假想
100
AcDbLine
 10
1751.923393482117
 20
49.86205605114594
 30
0.0
 11
1751.923393482117
 21
49.36205605114594
 31
0.0
  0
LINE
  5
3904
330
1F
100
AcDbEntity
  8
假想
100
AcDbLine
 10
1822.723393482117
 20
49.86205605114594
 30
0.0
 11
1823.923393482118
 21
49.86205605114594
 31
0.0
  0
LINE
  5
3905
330
1F
100
AcDbEntity
  8
假想
100
AcDbLine
 10
1823.923393482118
 20
49.36205605114594
 30
0.0
 11
1821.923393482117
 21
49.36205605114594
 31
0.0
  0
LINE
  5
3906
330
1F
100
AcDbEntity
  8
假想
100
AcDbLine
 10
1753.923393482117
 20
49.36205605114594
 30
0.0
 11
1751.923393482117
 21
49.36205605114594
 31
0.0
  0
LINE
  5
3907
330
1F
100
AcDbEntity
  8
假想
100
AcDbLine
 10
1751.923393482117
 20
49.86205605114594
 30
0.0
 11
1753.723393482117
 21
49.86205605114594
 31
0.0
  0
LINE
  5
3908
330
1F
100
AcDbEntity
  8
假想
100
AcDbLine
 10
1813.923393482118
 20
49.86205605114594
 30
0.0
 11
1813.923393482118
 21
52.16205605114613
 31
0.0
  0
LINE
  5
3909
330
1F
100
AcDbEntity
  8
假想
100
AcDbLine
 10
1822.723393482117
 20
49.86205605114594
 30
0.0
 11
1813.923393482118
 21
49.86205605114594
 31
0.0
  0
LINE
  5
390A
330
1F
100
AcDbEntity
  8
假想
100
AcDbLine
 10
1755.723393482117
 20
115.8620560511459
 30
0.0
 11
1755.723393482117
 21
113.5620560511462
 31
0.0
  0
LINE
  5
390B
330
1F
100
AcDbEntity
  8
假想
100
AcDbLine
 10
1820.723393482117
 20
113.5620560511462
 30
0.0
 11
1820.723393482117
 21
115.8620560511459
 31
0.0
  0
LINE
  5
390C
102
{ACAD_REACTORS
330
3931
102
}
330
1F
100
AcDbEntity
  8
假想
100
AcDbLine
 10
1820.723393482117
 20
115.8620560511459
 30
0.0
 11
1822.723393482117
 21
115.8620560511459
 31
0.0
  0
LINE
  5
390D
330
1F
100
AcDbEntity
  8
假想
100
AcDbLine
 10
1760.723393482117
 20
115.8620560511459
 30
0.0
 11
1815.723393482117
 21
115.8620560511459
 31
0.0
  0
LINE
  5
390E
102
{ACAD_REACTORS
330
392E
102
}
330
1F
100
AcDbEntity
  8
假想
100
AcDbLine
 10
1825.723393482117
 20
112.8620560511459
 30
0.0
 11
1825.723393482117
 21
52.86205605114594
 31
0.0
  0
LINE
  5
390F
330
1F
100
AcDbEntity
  8
假想
100
AcDbLine
 10
1753.723393482117
 20
115.8620560511459
 30
0.0
 11
1755.723393482117
 21
115.8620560511459
 31
0.0
  0
LINE
  5
3910
330
1F
100
AcDbEntity
  8
假想
100
AcDbLine
 10
1754.023393482118
 20
52.16205605114613
 30
0.0
 11
1761.923393482118
 21
52.16205605114613
 31
0.0
  0
LINE
  5
3911
330
1F
100
AcDbEntity
  8
假想
100
AcDbLine
 10
1761.923393482118
 20
52.16205605114613
 30
0.0
 11
1761.923393482118
 21
49.86205605114594
 31
0.0
  0
LINE
  5
3912
330
1F
100
AcDbEntity
  8
假想
100
AcDbLine
 10
1761.923393482118
 20
49.86205605114594
 30
0.0
 11
1753.723393482117
 21
49.86205605114594
 31
0.0
  0
LINE
  5
3913
102
{ACAD_REACTORS
330
392E
102
}
330
1F
100
AcDbEntity
  8
假想
100
AcDbLine
 10
1750.723393482117
 20
52.86205605114594
 30
0.0
 11
1750.723393482117
 21
112.8620560511459
 31
0.0
  0
LINE
  5
3914
330
1F
100
AcDbEntity
  8
假想
100
AcDbLine
 10
1755.723393482117
 20
113.5620560511462
 30
0.0
 11
1754.023393482118
 21
113.5620560511462
 31
0.0
  0
LINE
  5
3915
330
1F
100
AcDbEntity
  8
假想
100
AcDbLine
 10
1815.723393482117
 20
113.5620560511462
 30
0.0
 11
1760.723393482117
 21
113.5620560511462
 31
0.0
  0
LINE
  5
3916
330
1F
100
AcDbEntity
  8
假想
100
AcDbLine
 10
1822.423393482118
 20
113.5620560511462
 30
0.0
 11
1820.723393482117
 21
113.5620560511462
 31
0.0
  0
LINE
  5
3917
330
1F
100
AcDbEntity
  8
假想
100
AcDbLine
 10
1823.423393482118
 20
53.16205605114612
 30
0.0
 11
1823.423393482118
 21
112.5620560511462
 31
0.0
  0
LINE
  5
3918
330
1F
100
AcDbEntity
  8
假想
100
AcDbLine
 10
1813.923393482118
 20
52.16205605114613
 30
0.0
 11
1822.423393482118
 21
52.16205605114613
 31
0.0
  0
LINE
  5
3919
330
1F
100
AcDbEntity
  8
假想
100
AcDbLine
 10
1753.023393482117
 20
112.5620560511462
 30
0.0
 11
1753.023393482117
 21
53.16205605114612
 31
0.0
  0
LINE
  5
391A
330
1F
100
AcDbEntity
  8
假想
100
AcDbLine
 10
1754.023393482118
 20
95.16205605114611
 30
0.0
 11
1758.023393482117
 21
95.16205605114611
 31
0.0
  0
LINE
  5
391B
330
1F
100
AcDbEntity
  8
假想
100
AcDbLine
 10
1819.023393482117
 20
95.16205605114611
 30
0.0
 11
1822.423393482118
 21
95.16205605114611
 31
0.0
  0
LINE
  5
391C
330
1F
100
AcDbEntity
  8
假想
100
AcDbLine
 10
1815.723393482117
 20
115.8620560511459
 30
0.0
 11
1820.723393482117
 21
115.8620560511459
 31
0.0
  0
LINE
  5
391D
330
1F
100
AcDbEntity
  8
假想
100
AcDbLine
 10
1755.723393482117
 20
115.8620560511459
 30
0.0
 11
1760.723393482117
 21
115.8620560511459
 31
0.0
  0
ARC
  5
391E
330
1F
100
AcDbEntity
  8
假想
100
AcDbCircle
 10
1822.723393482117
 20
112.8620560511459
 30
0.0
 40
3.0
100
AcDbArc
 50
0.0
 51
90.0
  0
ARC
  5
391F
330
1F
100
AcDbEntity
  8
假想
100
AcDbCircle
 10
1822.723393482117
 20
52.86205605114594
 30
0.0
 40
3.0
100
AcDbArc
 50
270.0
 51
0.0
  0
ARC
  5
3920
330
1F
100
AcDbEntity
  8
假想
100
AcDbCircle
 10
1753.723393482117
 20
112.8620560511459
 30
0.0
 40
3.0
100
AcDbArc
 50
90.0
 51
180.0
  0
ARC
  5
3921
330
1F
100
AcDbEntity
  8
假想
100
AcDbCircle
 10
1753.723393482117
 20
52.86205605114594
 30
0.0
 40
3.0
100
AcDbArc
 50
180.0
 51
270.0
  0
ARC
  5
3922
330
1F
100
AcDbEntity
  8
假想
100
AcDbCircle
 10
1754.023393482118
 20
53.16205605114612
 30
0.0
 40
0.9999999999999998
100
AcDbArc
 50
180.0
 51
270.0
  0
LINE
  5
3923
330
1F
100
AcDbEntity
  8
假想
100
AcDbLine
 10
1760.723393482117
 20
113.5620560511462
 30
0.0
 11
1755.723393482117
 21
113.5620560511462
 31
0.0
  0
LINE
  5
3924
330
1F
100
AcDbEntity
  8
假想
100
AcDbLine
 10
1820.723393482117
 20
113.5620560511462
 30
0.0
 11
1815.723393482117
 21
113.5620560511462
 31
0.0
  0
ARC
  5
3925
330
1F
100
AcDbEntity
  8
假想
100
AcDbCircle
 10
1754.023393482118
 20
112.5620560511462
 30
0.0
 40
0.9999999999999998
100
AcDbArc
 50
90.0
 51
180.0
  0
ARC
  5
3926
330
1F
100
AcDbEntity
  8
假想
100
AcDbCircle
 10
1822.423393482118
 20
112.5620560511462
 30
0.0
 40
0.9999999999999998
100
AcDbArc
 50
0.0
 51
90.0
  0
ARC
  5
3927
330
1F
100
AcDbEntity
  8
假想
100
AcDbCircle
 10
1822.423393482118
 20
53.16205605114612
 30
0.0
 40
0.9999999999999998
100
AcDbArc
 50
270.0
 51
0.0
  0
ARC
  5
3928
330
1F
100
AcDbEntity
  8
假想
100
AcDbCircle
 10
1754.023393482118
 20
96.16205605114613
 30
0.0
 40
0.9999999999999998
100
AcDbArc
 50
180.0
 51
270.0
  0
ARC
  5
3929
330
1F
100
AcDbEntity
  8
假想
100
AcDbCircle
 10
1758.023393482117
 20
92.16205605114613
 30
0.0
 40
3.0
100
AcDbArc
 50
13.49339882155269
 51
90.0
  0
ARC
  5
392A
330
1F
100
AcDbEntity
  8
假想
100
AcDbCircle
 10
1819.023393482117
 20
92.16205605114613
 30
0.0
 40
3.0
100
AcDbArc
 50
90.0
 51
166.5066011784473
  0
ARC
  5
392B
330
1F
100
AcDbEntity
  8
假想
100
AcDbCircle
 10
1822.423393482118
 20
96.16205605114613
 30
0.0
 40
1.0
100
AcDbArc
 50
270.0
 51
0.0
  0
DIMENSION
  5
392C
102
{ACAD_XDICTIONARY
360
392D
102
}
102
{ACAD_REACTORS
330
392E
102
}
330
1F
100
AcDbEntity
  8
AM_REFDIM
100
AcDbDimension
  2
*D47
 10
1825.723393482117
 20
136.6976166797582
 30
0.0
 11
1788.223393482117
 21
140.8226166797582
 31
0.0
 70
    32
 71
     5
 42
75.0
  3
AM_ISO
100
AcDbAlignedDimension
 13
1750.723393482117
 23
112.8620560511459
 33
0.0
 14
1825.723393482117
 24
112.8620560511459
 34
0.0
100
AcDbRotatedDimension
1001
ACAD
1000
DSTYLE
1002
{
1070
    40
1040
1.5
1002
}
  0
DIMENSION
  5
392F
102
{ACAD_XDICTIONARY
360
3930
102
}
102
{ACAD_REACTORS
330
3931
102
}
330
1F
100
AcDbEntity
  8
AM_REFDIM
100
AcDbDimension
  2
*D48
 10
1845.747920442005
 20
41.36205605114604
 30
0.0
 11
1845.747920442005
 21
76.07466885125643
 31
0.0
 70
   160
 71
     5
 42
74.49999999999988
  3
AM_ISO$0
100
AcDbAlignedDimension
 13
1822.723393482117
 23
115.8620560511459
 33
0.0
 14
1792.923393482118
 24
41.36205605114605
 34
0.0
 50
90.0
100
AcDbRotatedDimension
1001
ACAD
1000
DSTYLE
1002
{
1070
    40
1040
1.5
1070
    41
1040
4.0
1070
    43
1040
10.0
1070
    44
1040
1.5
1070
   285
1070
     0
1002
}
  0
DIMENSION
  5
3932
330
1F
100
AcDbEntity
  8
AM_REFDIM
100
AcDbDimension
  2
*D37
 10
1823.423393482118
 20
1.600674297832085
 30
0.0
 11
1788.423393482118
 21
5.725674297832085
 31
0.0
 70
    32
 71
     5
 42
70.0
  3
AM_ISO$0
100
AcDbAlignedDimension
 13
1753.423393482117
 23
-60.19332570216779
 33
0.0
 14
1823.423393482118
 24
-60.19332570216779
 34
0.0
100
AcDbRotatedDimension
1001
ACAD
1000
DSTYLE
1002
{
1070
    40
1040
1.5
1070
    41
1040
4.0
1070
    43
1040
10.0
1070
    44
1040
1.5
1070
   285
1070
     0
1002
}
  0
LINE
  5
3933
330
1F
100
AcDbEntity
  8
假想
100
AcDbLine
 10
1817.923393482118
 20
-67.60832570216774
 30
0.0
 11
1817.923393482118
 21
-67.19332570216778
 31
0.0
  0
LINE
  5
3934
330
1F
100
AcDbEntity
  8
假想
100
AcDbLine
 10
1817.923393482118
 20
-67.19332570216778
 30
0.0
 11
1817.923393482118
 21
-66.77832570216782
 31
0.0
  0
LINE
  5
3935
330
1F
100
AcDbEntity
  8
假想
100
AcDbLine
 10
1817.923393482118
 20
-67.19332570216778
 30
0.0
 11
1817.508393482117
 21
-67.60832570216866
 31
0.0
  0
LINE
  5
3936
330
1F
100
AcDbEntity
  8
假想
100
AcDbLine
 10
1818.338393482117
 20
-67.60832570216729
 30
0.0
 11
1817.923393482118
 21
-67.19332570216778
 31
0.0
  0
LINE
  5
3937
330
1F
100
AcDbEntity
  8
假想
100
AcDbLine
 10
1817.508393482115
 20
-67.60832570216774
 30
0.0
 11
1818.338393482115
 21
-67.60832570216774
 31
0.0
  0
LINE
  5
3938
330
1F
100
AcDbEntity
  8
假想
100
AcDbLine
 10
1818.338393482115
 20
-66.77832570216782
 30
0.0
 11
1818.338393482115
 21
-67.60832570216774
 31
0.0
  0
LINE
  5
3939
330
1F
100
AcDbEntity
  8
假想
100
AcDbLine
 10
1817.508393482115
 20
-67.19332570216778
 30
0.0
 11
1817.923393482118
 21
-67.19332570216778
 31
0.0
  0
LINE
  5
393A
330
1F
100
AcDbEntity
  8
假想
100
AcDbLine
 10
1817.508393482117
 20
-66.77832570216736
 30
0.0
 11
1817.923393482118
 21
-67.19332570216778
 31
0.0
  0
LINE
  5
393B
330
1F
100
AcDbEntity
  8
假想
100
AcDbLine
 10
1818.338393482115
 20
-66.77832570216782
 30
0.0
 11
1817.508393482115
 21
-66.77832570216782
 31
0.0
  0
LINE
  5
393C
330
1F
100
AcDbEntity
  8
假想
100
AcDbLine
 10
1817.923393482118
 20
-67.19332570216778
 30
0.0
 11
1818.338393482115
 21
-67.19332570216778
 31
0.0
  0
LINE
  5
393D
330
1F
100
AcDbEntity
  8
假想
100
AcDbLine
 10
1817.923393482118
 20
-67.19332570216778
 30
0.0
 11
1818.338393482117
 21
-66.77832570216873
 31
0.0
  0
LINE
  5
393E
330
1F
100
AcDbEntity
  8
假想
100
AcDbLine
 10
1817.508393482115
 20
-67.60832570216774
 30
0.0
 11
1817.508393482115
 21
-66.77832570216782
 31
0.0
  0
LINE
  5
393F
330
1F
100
AcDbEntity
  8
假想
100
AcDbLine
 10
1817.017970376591
 20
-67.60832570216774
 30
0.0
 11
1817.508393482115
 21
-67.60832570216774
 31
0.0
  0
LINE
  5
3940
330
1F
100
AcDbEntity
  8
假想
100
AcDbLine
 10
1817.508393482115
 20
-67.60832570216774
 30
0.0
 11
1817.508393482115
 21
-68.09874880767523
 31
0.0
  0
LINE
  5
3941
330
1F
100
AcDbEntity
  8
假想
100
AcDbLine
 10
1818.338393482115
 20
-67.60832570216774
 30
0.0
 11
1818.828816587632
 21
-67.60832570216774
 31
0.0
  0
LINE
  5
3942
330
1F
100
AcDbEntity
  8
假想
100
AcDbLine
 10
1818.338393482115
 20
-67.60832570216774
 30
0.0
 11
1818.338393482115
 21
-68.0987488076775
 31
0.0
  0
LINE
  5
3943
330
1F
100
AcDbEntity
  8
假想
100
AcDbLine
 10
1818.338393482115
 20
-66.77832570216782
 30
0.0
 11
1818.828816587632
 21
-66.77832570216782
 31
0.0
  0
LINE
  5
3944
330
1F
100
AcDbEntity
  8
假想
100
AcDbLine
 10
1818.338393482115
 20
-66.28790259665851
 30
0.0
 11
1818.338393482115
 21
-66.77832570216782
 31
0.0
  0
LINE
  5
3945
330
1F
100
AcDbEntity
  8
假想
100
AcDbLine
 10
1817.017970376591
 20
-66.77832570216782
 30
0.0
 11
1817.508393482115
 21
-66.77832570216782
 31
0.0
  0
LINE
  5
3946
330
1F
100
AcDbEntity
  8
假想
100
AcDbLine
 10
1817.508393482115
 20
-66.28790259666033
 30
0.0
 11
1817.508393482115
 21
-66.77832570216782
 31
0.0
  0
CIRCLE
  5
3947
330
1F
100
AcDbEntity
  8
假想
100
AcDbCircle
 10
1817.923393482118
 20
-67.19332570216778
 30
0.0
 40
3.999999999999971
  0
LINE
  5
3948
330
1F
100
AcDbEntity
  8
假想
100
AcDbLine
 10
1818.828816587632
 20
-67.60832570216774
 30
0.0
 11
1820.063998282844
 21
-67.60832570216774
 31
0.0
  0
ELLIPSE
  5
3949
330
1F
100
AcDbEntity
  8
假想
100
AcDbEllipse
 10
1816.104509694809
 20
-67.19332570216778
 30
0.0
 11
-0.000000000000003
 21
6.034919222530423
 31
0.0
210
0.0
220
0.0
230
1.0
 40
0.657653174957492
 41
4.643568212492835
 42
4.781209748276545
  0
LINE
  5
394A
330
1F
100
AcDbEntity
  8
假想
100
AcDbLine
 10
1817.017970376591
 20
-66.77832570216782
 30
0.0
 11
1815.782788681391
 21
-66.77832570216782
 31
0.0
  0
ELLIPSE
  5
394B
330
1F
100
AcDbEntity
  8
假想
100
AcDbEllipse
 10
1819.742277269426
 20
-67.19332570216778
 30
0.0
 11
-0.0000000000000038
 21
6.034919222530409
 31
0.0
210
0.0
220
0.0
230
1.0
 40
0.6576531749574535
 41
1.501975558903041
 42
1.639617094686752
  0
LINE
  5
394C
330
1F
100
AcDbEntity
  8
假想
100
AcDbLine
 10
1817.508393482115
 20
-65.05272090144121
 30
0.0
 11
1817.508393482115
 21
-66.28790259666033
 31
0.0
  0
ELLIPSE
  5
394D
330
1F
100
AcDbEntity
  8
假想
100
AcDbEllipse
 10
1817.923393482118
 20
-65.37444191485878
 30
0.0
 11
-6.034919222530364
 21
0.0
 31
0.0
210
0.0
220
0.0
230
1.0
 40
0.6576531749574891
 41
1.501975558902706
 42
1.63961709468642
  0
LINE
  5
394E
330
1F
100
AcDbEntity
  8
假想
100
AcDbLine
 10
1818.338393482115
 20
-66.28790259665851
 30
0.0
 11
1818.338393482115
 21
-65.05272090144121
 31
0.0
  0
LINE
  5
394F
330
1F
100
AcDbEntity
  8
假想
100
AcDbLine
 10
1818.338393482115
 20
-69.33393050289481
 30
0.0
 11
1818.338393482115
 21
-68.0987488076775
 31
0.0
  0
ELLIPSE
  5
3950
330
1F
100
AcDbEntity
  8
假想
100
AcDbEllipse
 10
1817.923393482118
 20
-69.01220948947679
 30
0.0
 11
-6.034919222530363
 21
0.0
 31
0.0
210
0.0
220
0.0
230
1.0
 40
0.6576531749574888
 41
4.643568212493169
 42
4.781209748276884
  0
LINE
  5
3951
330
1F
100
AcDbEntity
  8
假想
100
AcDbLine
 10
1817.508393482115
 20
-68.09874880767523
 30
0.0
 11
1817.508393482115
 21
-69.33393050289436
 31
0.0
  0
LINE
  5
3952
330
1F
100
AcDbEntity
  8
假想
100
AcDbLine
 10
1820.063998282844
 20
-66.77832570216782
 30
0.0
 11
1818.828816587632
 21
-66.77832570216782
 31
0.0
  0
LINE
  5
3953
330
1F
100
AcDbEntity
  8
假想
100
AcDbLine
 10
1815.782788681391
 20
-67.60832570216774
 30
0.0
 11
1817.017970376591
 21
-67.60832570216774
 31
0.0
  0
ARC
  5
3954
330
1F
100
AcDbEntity
  8
假想
100
AcDbCircle
 10
1817.923393482118
 20
-67.19332570216778
 30
0.0
 40
0.9960000000002651
100
AcDbArc
 50
204.6243183518818
 51
245.3756816475588
  0
ARC
  5
3955
330
1F
100
AcDbEntity
  8
假想
100
AcDbCircle
 10
1817.923393482118
 20
-67.19332570216778
 30
0.0
 40
0.9960000000002651
100
AcDbArc
 50
294.6243183521833
 51
335.3756816478458
  0
ARC
  5
3956
330
1F
100
AcDbEntity
  8
假想
100
AcDbCircle
 10
1817.923393482118
 20
-67.19332570216778
 30
0.0
 40
0.9960000000002651
100
AcDbArc
 50
24.62431835215417
 51
65.37568164781672
  0
ARC
  5
3957
330
1F
100
AcDbEntity
  8
假想
100
AcDbCircle
 10
1817.923393482118
 20
-67.19332570216778
 30
0.0
 40
0.9960000000002651
100
AcDbArc
 50
114.6243183524412
 51
155.3756816481182
  0
LINE
  5
3958
330
1F
100
AcDbEntity
  8
假想
100
AcDbLine
 10
1757.923393482118
 20
-67.60832570216774
 30
0.0
 11
1757.923393482118
 21
-67.19332570216778
 31
0.0
  0
LINE
  5
3959
330
1F
100
AcDbEntity
  8
假想
100
AcDbLine
 10
1757.923393482118
 20
-67.19332570216778
 30
0.0
 11
1757.923393482118
 21
-66.77832570216782
 31
0.0
  0
LINE
  5
395A
330
1F
100
AcDbEntity
  8
假想
100
AcDbLine
 10
1757.923393482118
 20
-67.19332570216778
 30
0.0
 11
1757.508393482117
 21
-67.60832570216866
 31
0.0
  0
LINE
  5
395B
330
1F
100
AcDbEntity
  8
假想
100
AcDbLine
 10
1758.338393482117
 20
-67.60832570216729
 30
0.0
 11
1757.923393482118
 21
-67.19332570216778
 31
0.0
  0
LINE
  5
395C
330
1F
100
AcDbEntity
  8
假想
100
AcDbLine
 10
1757.508393482115
 20
-67.60832570216774
 30
0.0
 11
1758.338393482115
 21
-67.60832570216774
 31
0.0
  0
LINE
  5
395D
330
1F
100
AcDbEntity
  8
假想
100
AcDbLine
 10
1758.338393482115
 20
-66.77832570216782
 30
0.0
 11
1758.338393482115
 21
-67.60832570216774
 31
0.0
  0
LINE
  5
395E
330
1F
100
AcDbEntity
  8
假想
100
AcDbLine
 10
1757.508393482115
 20
-67.19332570216778
 30
0.0
 11
1757.923393482118
 21
-67.19332570216778
 31
0.0
  0
LINE
  5
395F
330
1F
100
AcDbEntity
  8
假想
100
AcDbLine
 10
1757.508393482117
 20
-66.77832570216736
 30
0.0
 11
1757.923393482118
 21
-67.19332570216778
 31
0.0
  0
LINE
  5
3960
330
1F
100
AcDbEntity
  8
假想
100
AcDbLine
 10
1758.338393482115
 20
-66.77832570216782
 30
0.0
 11
1757.508393482115
 21
-66.77832570216782
 31
0.0
  0
LINE
  5
3961
330
1F
100
AcDbEntity
  8
假想
100
AcDbLine
 10
1757.923393482118
 20
-67.19332570216778
 30
0.0
 11
1758.338393482115
 21
-67.19332570216778
 31
0.0
  0
LINE
  5
3962
330
1F
100
AcDbEntity
  8
假想
100
AcDbLine
 10
1757.923393482118
 20
-67.19332570216778
 30
0.0
 11
1758.338393482117
 21
-66.77832570216827
 31
0.0
  0
LINE
  5
3963
330
1F
100
AcDbEntity
  8
假想
100
AcDbLine
 10
1757.508393482115
 20
-67.60832570216774
 30
0.0
 11
1757.508393482115
 21
-66.77832570216782
 31
0.0
  0
LINE
  5
3964
330
1F
100
AcDbEntity
  8
假想
100
AcDbLine
 10
1757.017970376591
 20
-67.60832570216774
 30
0.0
 11
1757.508393482115
 21
-67.60832570216774
 31
0.0
  0
LINE
  5
3965
330
1F
100
AcDbEntity
  8
假想
100
AcDbLine
 10
1757.508393482115
 20
-67.60832570216774
 30
0.0
 11
1757.508393482115
 21
-68.09874880767523
 31
0.0
  0
LINE
  5
3966
330
1F
100
AcDbEntity
  8
假想
100
AcDbLine
 10
1758.338393482115
 20
-67.60832570216774
 30
0.0
 11
1758.828816587632
 21
-67.60832570216774
 31
0.0
  0
LINE
  5
3967
330
1F
100
AcDbEntity
  8
假想
100
AcDbLine
 10
1758.338393482115
 20
-67.60832570216774
 30
0.0
 11
1758.338393482115
 21
-68.09874880767705
 31
0.0
  0
LINE
  5
3968
330
1F
100
AcDbEntity
  8
假想
100
AcDbLine
 10
1758.338393482115
 20
-66.77832570216782
 30
0.0
 11
1758.828816587632
 21
-66.77832570216782
 31
0.0
  0
LINE
  5
3969
330
1F
100
AcDbEntity
  8
假想
100
AcDbLine
 10
1758.338393482115
 20
-66.28790259665851
 30
0.0
 11
1758.338393482115
 21
-66.77832570216782
 31
0.0
  0
LINE
  5
396A
330
1F
100
AcDbEntity
  8
假想
100
AcDbLine
 10
1757.017970376591
 20
-66.77832570216782
 30
0.0
 11
1757.508393482115
 21
-66.77832570216782
 31
0.0
  0
LINE
  5
396B
330
1F
100
AcDbEntity
  8
假想
100
AcDbLine
 10
1757.508393482115
 20
-66.28790259666033
 30
0.0
 11
1757.508393482115
 21
-66.77832570216782
 31
0.0
  0
CIRCLE
  5
396C
330
1F
100
AcDbEntity
  8
假想
100
AcDbCircle
 10
1757.923393482118
 20
-67.19332570216778
 30
0.0
 40
3.999999999999971
  0
LINE
  5
396D
330
1F
100
AcDbEntity
  8
假想
100
AcDbLine
 10
1758.828816587632
 20
-67.60832570216774
 30
0.0
 11
1760.063998282844
 21
-67.60832570216774
 31
0.0
  0
ELLIPSE
  5
396E
330
1F
100
AcDbEntity
  8
假想
100
AcDbEllipse
 10
1756.104509694809
 20
-67.19332570216778
 30
0.0
 11
-0.0000000000000038
 21
6.034919222530423
 31
0.0
210
0.0
220
0.0
230
1.0
 40
0.657653174957492
 41
4.643568212492835
 42
4.781209748276545
  0
LINE
  5
396F
330
1F
100
AcDbEntity
  8
假想
100
AcDbLine
 10
1757.017970376591
 20
-66.77832570216782
 30
0.0
 11
1755.782788681391
 21
-66.77832570216782
 31
0.0
  0
ELLIPSE
  5
3970
330
1F
100
AcDbEntity
  8
假想
100
AcDbEllipse
 10
1759.742277269427
 20
-67.19332570216778
 30
0.0
 11
-0.000000000000003
 21
6.034919222530409
 31
0.0
210
0.0
220
0.0
230
1.0
 40
0.6576531749574535
 41
1.501975558903041
 42
1.639617094686752
  0
LINE
  5
3971
330
1F
100
AcDbEntity
  8
假想
100
AcDbLine
 10
1757.508393482115
 20
-65.05272090144121
 30
0.0
 11
1757.508393482115
 21
-66.28790259666033
 31
0.0
  0
ELLIPSE
  5
3972
330
1F
100
AcDbEntity
  8
假想
100
AcDbEllipse
 10
1757.923393482118
 20
-65.37444191485878
 30
0.0
 11
-6.034919222530364
 21
0.0
 31
0.0
210
0.0
220
0.0
230
1.0
 40
0.6576531749574892
 41
1.501975558902706
 42
1.63961709468642
  0
LINE
  5
3973
330
1F
100
AcDbEntity
  8
假想
100
AcDbLine
 10
1758.338393482115
 20
-66.28790259665851
 30
0.0
 11
1758.338393482115
 21
-65.05272090144121
 31
0.0
  0
LINE
  5
3974
330
1F
100
AcDbEntity
  8
假想
100
AcDbLine
 10
1758.338393482115
 20
-69.33393050289481
 30
0.0
 11
1758.338393482115
 21
-68.0987488076775
 31
0.0
  0
ELLIPSE
  5
3975
330
1F
100
AcDbEntity
  8
假想
100
AcDbEllipse
 10
1757.923393482118
 20
-69.01220948947679
 30
0.0
 11
-6.034919222530363
 21
0.0
 31
0.0
210
0.0
220
0.0
230
1.0
 40
0.6576531749574885
 41
4.64356821249317
 42
4.781209748276884
  0
LINE
  5
3976
330
1F
100
AcDbEntity
  8
假想
100
AcDbLine
 10
1757.508393482115
 20
-68.09874880767523
 30
0.0
 11
1757.508393482115
 21
-69.33393050289436
 31
0.0
  0
LINE
  5
3977
330
1F
100
AcDbEntity
  8
假想
100
AcDbLine
 10
1760.063998282844
 20
-66.77832570216782
 30
0.0
 11
1758.828816587632
 21
-66.77832570216782
 31
0.0
  0
LINE
  5
3978
330
1F
100
AcDbEntity
  8
假想
100
AcDbLine
 10
1755.782788681391
 20
-67.60832570216774
 30
0.0
 11
1757.017970376591
 21
-67.60832570216774
 31
0.0
  0
ARC
  5
3979
330
1F
100
AcDbEntity
  8
假想
100
AcDbCircle
 10
1757.923393482118
 20
-67.19332570216778
 30
0.0
 40
0.9960000000002651
100
AcDbArc
 50
204.6243183518818
 51
245.3756816475588
  0
ARC
  5
397A
330
1F
100
AcDbEntity
  8
假想
100
AcDbCircle
 10
1757.923393482118
 20
-67.19332570216778
 30
0.0
 40
0.9960000000002651
100
AcDbArc
 50
294.6243183521833
 51
335.3756816478458
  0
ARC
  5
397B
330
1F
100
AcDbEntity
  8
假想
100
AcDbCircle
 10
1757.923393482118
 20
-67.19332570216778
 30
0.0
 40
0.9960000000002651
100
AcDbArc
 50
24.62431835215417
 51
65.37568164781672
  0
ARC
  5
397C
330
1F
100
AcDbEntity
  8
假想
100
AcDbCircle
 10
1757.923393482118
 20
-67.19332570216778
 30
0.0
 40
0.9960000000002651
100
AcDbArc
 50
114.6243183524412
 51
155.3756816481182
  0
LINE
  5
397D
330
1F
100
AcDbEntity
  8
假想
100
AcDbLine
 10
1821.923393482117
 20
-59.19332570216778
 30
0.0
 11
1753.923393482117
 21
-59.19332570216778
 31
0.0
  0
LINE
  5
397E
330
1F
100
AcDbEntity
  8
假想
100
AcDbLine
 10
1823.923393482118
 20
-73.19332570216778
 30
0.0
 11
1823.923393482118
 21
-61.19332570216778
 31
0.0
  0
LINE
  5
397F
330
1F
100
AcDbEntity
  8
假想
100
AcDbLine
 10
1753.923393482117
 20
-75.19332570216779
 30
0.0
 11
1821.923393482117
 21
-75.19332570216779
 31
0.0
  0
LINE
  5
3980
330
1F
100
AcDbEntity
  8
假想
100
AcDbLine
 10
1751.923393482117
 20
-61.19332570216778
 30
0.0
 11
1751.923393482117
 21
-73.19332570216778
 31
0.0
  0
ARC
  5
3981
330
1F
100
AcDbEntity
  8
假想
100
AcDbCircle
 10
1821.923393482117
 20
-61.19332570216778
 30
0.0
 40
1.999999999999999
100
AcDbArc
 50
0.0
 51
90.0
  0
ARC
  5
3982
330
1F
100
AcDbEntity
  8
假想
100
AcDbCircle
 10
1821.923393482117
 20
-73.19332570216778
 30
0.0
 40
1.999999999999999
100
AcDbArc
 50
270.0
 51
0.0
  0
ARC
  5
3983
330
1F
100
AcDbEntity
  8
假想
100
AcDbCircle
 10
1753.923393482117
 20
-73.19332570216778
 30
0.0
 40
1.999999999999999
100
AcDbArc
 50
180.0
 51
270.0
  0
ARC
  5
3984
330
1F
100
AcDbEntity
  8
假想
100
AcDbCircle
 10
1753.923393482117
 20
-61.19332570216778
 30
0.0
 40
1.999999999999999
100
AcDbArc
 50
90.0
 51
180.0
  0
LINE
  5
3985
330
1F
100
AcDbEntity
  8
假想
100
AcDbLine
 10
1813.923393482118
 20
-93.19332570216777
 30
0.0
 11
1813.923393482118
 21
-75.19332570216779
 31
0.0
  0
LINE
  5
3986
330
1F
100
AcDbEntity
  8
假想
100
AcDbLine
 10
1813.923393482118
 20
-59.19332570216778
 30
0.0
 11
1813.923393482118
 21
-57.19332570216778
 31
0.0
  0
LINE
  5
3987
330
1F
100
AcDbEntity
  8
假想
100
AcDbLine
 10
1822.723393482117
 20
-57.19332570216778
 30
0.0
 11
1813.923393482118
 21
-57.19332570216778
 31
0.0
  0
LINE
  5
3988
330
1F
100
AcDbEntity
  8
假想
100
AcDbLine
 10
1761.923393482118
 20
-93.19332570216777
 30
0.0
 11
1761.923393482118
 21
-75.19332570216779
 31
0.0
  0
LINE
  5
3989
330
1F
100
AcDbEntity
  8
假想
100
AcDbLine
 10
1761.923393482118
 20
-59.19332570216778
 30
0.0
 11
1761.923393482118
 21
-57.19332570216778
 31
0.0
  0
LINE
  5
398A
330
1F
100
AcDbEntity
  8
假想
100
AcDbLine
 10
1761.923393482118
 20
-93.19332570216777
 30
0.0
 11
1753.723393482117
 21
-93.19332570216777
 31
0.0
  0
LINE
  5
398B
330
1F
100
AcDbEntity
  8
假想
100
AcDbLine
 10
1822.723393482117
 20
-93.19332570216777
 30
0.0
 11
1813.923393482118
 21
-93.19332570216777
 31
0.0
  0
LINE
  5
398C
330
1F
100
AcDbEntity
  8
假想
100
AcDbLine
 10
1825.723393482117
 20
-93.19332570216777
 30
0.0
 11
1825.723393482117
 21
-57.19332570216778
 31
0.0
  0
LINE
  5
398D
330
1F
100
AcDbEntity
  8
假想
100
AcDbLine
 10
1761.923393482118
 20
-57.19332570216778
 30
0.0
 11
1753.723393482117
 21
-57.19332570216778
 31
0.0
  0
LINE
  5
398E
330
1F
100
AcDbEntity
  8
假想
100
AcDbLine
 10
1750.723393482117
 20
-57.19332570216778
 30
0.0
 11
1750.723393482117
 21
-93.19332570216777
 31
0.0
  0
LINE
  5
398F
330
1F
100
AcDbEntity
  8
假想
100
AcDbLine
 10
1802.723393482117
 20
-43.19332570216778
 30
0.0
 11
1812.723393482117
 21
-43.19332570216778
 31
0.0
  0
LINE
  5
3990
330
1F
100
AcDbEntity
  8
假想
100
AcDbLine
 10
1812.723393482117
 20
-49.19332570216778
 30
0.0
 11
1802.723393482117
 21
-49.19332570216778
 31
0.0
  0
LINE
  5
3991
102
{ACAD_REACTORS
330
39A6
102
}
330
1F
100
AcDbEntity
  8
假想
100
AcDbLine
 10
1763.723393482117
 20
-43.19332570216778
 30
0.0
 11
1773.723393482117
 21
-43.19332570216778
 31
0.0
  0
LINE
  5
3992
330
1F
100
AcDbEntity
  8
假想
100
AcDbLine
 10
1773.723393482117
 20
-49.19332570216778
 30
0.0
 11
1763.723393482117
 21
-49.19332570216778
 31
0.0
  0
LINE
  5
3993
330
1F
100
AcDbEntity
  8
假想
100
AcDbLine
 10
1755.723393482117
 20
-57.19332570216778
 30
0.0
 11
1755.723393482117
 21
-43.19332570216778
 31
0.0
  0
LINE
  5
3994
330
1F
100
AcDbEntity
  8
假想
100
AcDbLine
 10
1815.723393482117
 20
-38.19332570216778
 30
0.0
 11
1760.723393482117
 21
-38.19332570216778
 31
0.0
  0
LINE
  5
3995
330
1F
100
AcDbEntity
  8
假想
100
AcDbLine
 10
1820.723393482117
 20
-57.19332570216778
 30
0.0
 11
1820.723393482117
 21
-43.19332570216778
 31
0.0
  0
LINE
  5
3996
330
1F
100
AcDbEntity
  8
假想
100
AcDbLine
 10
1825.723393482117
 20
-93.19332570216777
 30
0.0
 11
1822.723393482117
 21
-93.19332570216777
 31
0.0
  0
LINE
  5
3997
330
1F
100
AcDbEntity
  8
假想
100
AcDbLine
 10
1822.723393482117
 20
-57.19332570216778
 30
0.0
 11
1825.723393482117
 21
-57.19332570216778
 31
0.0
  0
LINE
  5
3998
330
1F
100
AcDbEntity
  8
假想
100
AcDbLine
 10
1753.723393482117
 20
-93.19332570216777
 30
0.0
 11
1750.723393482117
 21
-93.19332570216777
 31
0.0
  0
LINE
  5
3999
330
1F
100
AcDbEntity
  8
假想
100
AcDbLine
 10
1750.723393482117
 20
-57.19332570216778
 30
0.0
 11
1753.723393482117
 21
-57.19332570216778
 31
0.0
  0
ARC
  5
399A
330
1F
100
AcDbEntity
  8
假想
100
AcDbCircle
 10
1812.723393482117
 20
-46.19332570216778
 30
0.0
 40
2.999999999999992
100
AcDbArc
 50
270.0
 51
90.0
  0
ARC
  5
399B
330
1F
100
AcDbEntity
  8
假想
100
AcDbCircle
 10
1802.723393482117
 20
-46.19332570216778
 30
0.0
 40
3.0
100
AcDbArc
 50
90.0
 51
270.0
  0
ARC
  5
399C
330
1F
100
AcDbEntity
  8
假想
100
AcDbCircle
 10
1773.723393482117
 20
-46.19332570216778
 30
0.0
 40
3.0
100
AcDbArc
 50
270.0
 51
90.0
  0
ARC
  5
399D
102
{ACAD_REACTORS
330
39A6
102
}
330
1F
100
AcDbEntity
  8
假想
100
AcDbCircle
 10
1763.723393482117
 20
-46.19332570216778
 30
0.0
 40
3.0
100
AcDbArc
 50
90.0
 51
270.0
  0
ARC
  5
399E
330
1F
100
AcDbEntity
  8
假想
100
AcDbCircle
 10
1760.723393482117
 20
-43.19332570216778
 30
0.0
 40
5.0
100
AcDbArc
 50
90.0
 51
180.0
  0
ARC
  5
399F
330
1F
100
AcDbEntity
  8
假想
100
AcDbCircle
 10
1815.723393482117
 20
-43.19332570216778
 30
0.0
 40
5.0
100
AcDbArc
 50
0.0
 51
90.0
  0
DIMENSION
  5
39A0
330
1F
100
AcDbEntity
  8
AM_REFDIM
100
AcDbDimension
  2
*D38
 10
1807.723393482118
 20
-18.39932570216791
 30
0.0
 11
1788.223393482117
 21
-14.27432570216791
 31
0.0
 70
    32
 71
     5
 42
39.0
  3
AM_ISO$0
100
AcDbAlignedDimension
 13
1768.723393482117
 23
-40.39932570216791
 33
0.0
 14
1807.723393482118
 24
-40.39932570216791
 34
0.0
100
AcDbRotatedDimension
1001
ACAD
1000
DSTYLE
1002
{
1070
    40
1040
1.5
1070
    41
1040
4.0
1070
    43
1040
10.0
1070
    44
1040
1.5
1070
   285
1070
     0
1002
}
  0
DIMENSION
  5
39A1
330
1F
100
AcDbEntity
  8
AM_REFDIM
100
AcDbDimension
  2
*D39
 10
1820.723393482117
 20
-8.399325702167914
 30
0.0
 11
1788.223393482117
 21
-4.274325702167914
 31
0.0
 70
    32
 71
     5
 42
65.0
  3
AM_ISO$0
100
AcDbAlignedDimension
 13
1755.723393482117
 23
-43.19332570216778
 33
0.0
 14
1820.723393482117
 24
-43.19332570216778
 34
0.0
100
AcDbRotatedDimension
1001
ACAD
1000
DSTYLE
1002
{
1070
    40
1040
1.5
1070
    41
1040
4.0
1070
    43
1040
10.0
1070
    44
1040
1.5
1070
   285
1070
     0
1002
}
  0
DIMENSION
  5
39A2
330
1F
100
AcDbEntity
  8
AM_REFDIM
100
AcDbDimension
  2
*D40
 10
1841.569449497622
 20
-46.19332570216779
 30
0.0
 11
1841.569449497622
 21
-60.69332570216778
 31
0.0
 70
   160
 71
     5
 42
29.0
  3
AM_ISO$0
100
AcDbAlignedDimension
 13
1832.166753177969
 23
-75.19332570216779
 33
0.0
 14
1817.653437432748
 24
-46.19332570216778
 34
0.0
 50
90.0
100
AcDbRotatedDimension
1001
ACAD
1000
DSTYLE
1002
{
1070
    40
1040
1.5
1070
    41
1040
4.0
1070
    43
1040
10.0
1070
    44
1040
1.5
1070
   285
1070
     0
1002
}
  0
DIMENSION
  5
39A3
330
1F
100
AcDbEntity
  8
AM_REFDIM
100
AcDbDimension
  2
*D41
 10
1776.723393482117
 20
-28.39932570216792
 30
0.0
 11
1768.723393482117
 21
-24.27432570216792
 31
0.0
 70
    32
 71
     5
 42
16.0
  3
AM_ISO$0
100
AcDbAlignedDimension
 13
1760.723393482117
 23
-46.19332570216778
 33
0.0
 14
1776.723393482117
 24
-46.19332570216778
 34
0.0
100
AcDbRotatedDimension
1001
ACAD
1000
DSTYLE
1002
{
1070
    40
1040
1.5
1070
    41
1040
4.0
1070
    43
1040
10.0
1070
    44
1040
1.5
1070
   285
1070
     0
1002
}
  0
DIMENSION
  5
39A4
102
{ACAD_XDICTIONARY
360
39A5
102
}
102
{ACAD_REACTORS
330
39A6
102
}
330
1F
100
AcDbEntity
  8
AM_REFDIM
100
AcDbDimension
  2
*D49
 10
1743.723392472118
 20
-49.19332570216777
 30
0.0
 11
1739.598392472117
 21
-46.1933257021675
 31
0.0
 70
    32
 71
     5
 42
6.0
  3
AM_ISO$0
100
AcDbAlignedDimension
 13
1763.723393482117
 23
-43.19332570216778
 33
0.0
 14
1763.723393482117
 24
-49.19332570216778
 34
0.0
 50
90.0
100
AcDbRotatedDimension
1001
ACAD
1000
DSTYLE
1002
{
1070
    40
1040
1.5
1070
    41
1040
4.0
1070
    43
1040
10.0
1070
    44
1040
1.5
1070
   285
1070
     0
1002
}
  0
LINE
  5
39A7
102
{ACAD_REACTORS
330
39E9
102
}
330
1F
100
AcDbEntity
  8
AM_7
100
AcDbLine
 10
1747.45152805727
 20
-75.19332570216779
 30
0.0
 11
1832.166753177969
 21
-75.19332570216779
 31
0.0
  0
LINE
  5
39A8
330
1F
100
AcDbEntity
  8
AM_7
100
AcDbLine
 10
1798.312393956347
 20
-46.19332570216778
 30
0.0
 11
1817.653437432748
 21
-46.19332570216778
 31
0.0
  0
LINE
  5
39A9
330
1F
100
AcDbEntity
  8
AM_7
100
AcDbLine
 10
1807.723393482118
 20
-51.85186658018278
 30
0.0
 11
1807.723393482118
 21
-40.39932570216791
 31
0.0
  0
LINE
  5
39AA
330
1F
100
AcDbEntity
  8
AM_7
100
AcDbLine
 10
1759.143555206148
 20
-46.19332570216778
 30
0.0
 11
1779.038253076259
 21
-46.19332570216778
 31
0.0
  0
LINE
  5
39AB
330
1F
100
AcDbEntity
  8
AM_7
100
AcDbLine
 10
1768.723393482117
 20
-51.71319125340733
 30
0.0
 11
1768.723393482117
 21
-40.39932570216791
 31
0.0
  0
CIRCLE
  5
39AC
330
1F
100
AcDbEntity
  8
AM_VIS
100
AcDbCircle
 10
1909.722235591816
 20
-75.19332570216779
 30
0.0
 40
10.25
  0
CIRCLE
  5
39AD
330
1F
100
AcDbEntity
  8
AM_VIS
100
AcDbCircle
 10
1909.722235591816
 20
-75.19332570216779
 30
0.0
 40
8.71073457753819
  0
DIMENSION
  5
39AE
330
1F
100
AcDbEntity
  8
AM_REFDIM
100
AcDbDimension
  2
*D42
 10
1909.722235591815
 20
-75.19332570216841
 30
0.0
 11
1845.141819914623
 21
-129.6181099332631
 31
0.0
 70
   164
  1
2-PT1/4
 71
     5
 42
10.24999999999931
  3
AM_ISO$4
100
AcDbRadialDimension
 15
1902.73733343492
 25
-82.69490166049763
 35
0.0
 40
0.0
1001
ACAD
1000
DSTYLE
1002
{
1070
    40
1040
1.5
1070
   141
1040
0.0
1002
}
  0
MTEXT
  5
39AF
330
1F
100
AcDbEntity
  8
AM_REFDIM
100
AcDbMText
 10
1832.922997231226
 20
-130.6892245645198
 30
0.0
 40
5.25
 41
35.85606272283053
 71
     1
 72
     5
  1
{\L2-PT3/8\P2-PT1/2}
 73
     1
 44
1.0
1001
ACAD
1000
MTEXTBEGIN
1070
    73
1070
     1
1070
    44
1040
1.0
1070
    74
1070
     0
1000
MTEXTEND
  0
DIMENSION
  5
39B0
330
1F
100
AcDbEntity
  8
AM_REFDIM
100
AcDbDimension
  2
*D43
 10
1943.722235591816
 20
-18.39932570216791
 30
0.0
 11
1902.887054041911
 21
-18.39932570216791
 31
0.0
 70
   160
 71
     5
 42
68.0
  3
AM_ISO$0
100
AcDbAlignedDimension
 13
1875.722235591816
 23
-87.19332570216778
 33
0.0
 14
1943.722235591816
 24
-87.19332570216778
 34
0.0
100
AcDbRotatedDimension
1001
ACAD
1000
DSTYLE
1002
{
1070
    40
1040
1.5
1070
    41
1040
4.0
1070
    43
1040
10.0
1070
    44
1040
1.5
1070
   285
1070
     0
1002
}
  0
DIMENSION
  5
39B1
330
1F
100
AcDbEntity
  8
AM_REFDIM
100
AcDbDimension
  2
*D44
 10
1934.722235591816
 20
-28.39932570216792
 30
0.0
 11
1903.586247981763
 21
-28.39932570216792
 31
0.0
 70
   160
 71
     5
 42
50.0
  3
AM_ISO$0
100
AcDbAlignedDimension
 13
1884.722235591816
 23
-60.19332570216779
 33
0.0
 14
1934.722235591816
 24
-60.19332570216779
 34
0.0
100
AcDbRotatedDimension
1001
ACAD
1000
DSTYLE
1002
{
1070
    40
1040
1.5
1070
    41
1040
4.0
1070
    43
1040
10.0
1070
    44
1040
1.5
1070
   285
1070
     0
1002
}
  0
DIMENSION
  5
39B2
330
1F
100
AcDbEntity
  8
AM_REFDIM
100
AcDbDimension
  2
*D45
 10
1949.722235591815
 20
-8.399325702167914
 30
0.0
 11
1929.722235591816
 21
-4.274325702167914
 31
0.0
 70
    32
 71
     5
 42
40.0
  3
AM_ISO$0
100
AcDbAlignedDimension
 13
1909.722235591815
 23
-58.39932570216792
 33
0.0
 14
1949.722235591815
 24
-38.19332570216778
 34
0.0
100
AcDbRotatedDimension
1001
ACAD
1000
DSTYLE
1002
{
1070
    40
1040
1.5
1070
    41
1040
4.0
1070
    43
1040
10.0
1070
    44
1040
1.5
1070
   285
1070
     0
1002
}
  0
LINE
  5
39B3
330
1F
100
AcDbEntity
  8
假想
100
AcDbLine
 10
1926.722235591816
 20
-89.19332570216779
 30
0.0
 11
1926.722235591816
 21
-61.19332570216778
 31
0.0
  0
LINE
  5
39B4
330
1F
100
AcDbEntity
  8
假想
100
AcDbLine
 10
1932.671725334599
 20
-87.19332570216778
 30
0.0
 11
1926.722235591816
 21
-87.19332570216778
 31
0.0
  0
LINE
  5
39B5
330
1F
100
AcDbEntity
  8
假想
100
AcDbLine
 10
1926.722235591816
 20
-86.19332570216778
 30
0.0
 11
1932.671725334599
 21
-86.19332570216778
 31
0.0
  0
LINE
  5
39B6
330
1F
100
AcDbEntity
  8
假想
100
AcDbLine
 10
1882.109872136558
 20
-71.15448111435575
 30
0.0
 11
1883.222235591816
 21
-71.19332570216778
 31
0.0
  0
LINE
  5
39B7
330
1F
100
AcDbEntity
  8
假想
100
AcDbLine
 10
1882.109872136558
 20
-63.23217028997982
 30
0.0
 11
1883.222235591816
 21
-63.19332570216778
 31
0.0
  0
LINE
  5
39B8
330
1F
100
AcDbEntity
  8
假想
100
AcDbLine
 10
1880.198997778999
 20
-67.60832570216774
 30
0.0
 11
1880.498871639942
 21
-67.60832570216774
 31
0.0
  0
ELLIPSE
  5
39B9
330
1F
100
AcDbEntity
  8
假想
100
AcDbEllipse
 10
1885.034340209305
 20
-67.19332570216778
 30
0.0
 11
-0.0000000000000027
 21
6.034919222530423
 31
0.0
210
0.0
220
0.0
230
1.0
 40
0.7533208489537047
 41
1.50197555890304
 42
1.639617094686751
  0
LINE
  5
39BA
330
1F
100
AcDbEntity
  8
假想
100
AcDbLine
 10
1880.488109737221
 20
-69.34332570216787
 30
0.0
 11
1880.498871639942
 21
-69.33393050289481
 31
0.0
  0
ARC
  5
39BB
330
1F
100
AcDbEntity
  8
假想
100
AcDbCircle
 10
1886.622235591816
 20
-67.19332570216778
 30
0.0
 40
6.486738394601876
100
AcDbArc
 50
160.7314010687875
 51
171.9764194947717
  0
ARC
  5
39BC
330
1F
100
AcDbEntity
  8
假想
100
AcDbCircle
 10
1886.622235591816
 20
-67.19332570216778
 30
0.0
 40
6.486738394601876
100
AcDbArc
 50
188.0235805052283
 51
199.2685989312125
  0
LINE
  5
39BD
330
1F
100
AcDbEntity
  8
假想
100
AcDbLine
 10
1880.498871639942
 20
-65.05272090144121
 30
0.0
 11
1880.488109737221
 21
-65.04332570216769
 31
0.0
  0
LINE
  5
39BE
330
1F
100
AcDbEntity
  8
假想
100
AcDbLine
 10
1880.498871639942
 20
-66.77832570216782
 30
0.0
 11
1880.198997778999
 21
-66.77832570216782
 31
0.0
  0
LINE
  5
39BF
330
1F
100
AcDbEntity
  8
假想
100
AcDbLine
 10
1880.198997778999
 20
-68.09874880768251
 30
0.0
 11
1880.198997778999
 21
-67.60832570216774
 31
0.0
  0
LINE
  5
39C0
330
1F
100
AcDbEntity
  8
假想
100
AcDbLine
 10
1880.198997778999
 20
-66.77832570216782
 30
0.0
 11
1880.198997778999
 21
-66.28790259665305
 31
0.0
  0
ARC
  5
39C1
330
1F
100
AcDbEntity
  8
假想
100
AcDbCircle
 10
1882.155241482271
 20
-69.85527303923067
 30
0.0
 40
1.3
100
AcDbArc
 50
210.7913345539564
 51
267.9999999999964
  0
ARC
  5
39C2
330
1F
100
AcDbEntity
  8
假想
100
AcDbCircle
 10
1882.155241482271
 20
-64.5313783651049
 30
0.0
 40
1.3
100
AcDbArc
 50
92.00000000000366
 51
149.2086654460436
  0
ARC
  5
39C3
330
1F
100
AcDbEntity
  8
假想
100
AcDbCircle
 10
1886.622235591816
 20
-67.19332570216778
 30
0.0
 40
6.500000000000034
100
AcDbArc
 50
149.2086654460436
 51
160.684528691558
  0
ARC
  5
39C4
330
1F
100
AcDbEntity
  8
假想
100
AcDbCircle
 10
1886.622235591816
 20
-67.19332570216778
 30
0.0
 40
6.500000000000034
100
AcDbArc
 50
199.315471308442
 51
210.7913345539564
  0
LINE
  5
39C5
330
1F
100
AcDbEntity
  8
假想
100
AcDbLine
 10
1883.222235591816
 20
-75.19332570216779
 30
0.0
 11
1883.722235591816
 21
-75.19332570216779
 31
0.0
  0
LINE
  5
39C6
330
1F
100
AcDbEntity
  8
假想
100
AcDbLine
 10
1883.722235591816
 20
-73.19332570216778
 30
0.0
 11
1883.722235591816
 21
-61.19332570216778
 31
0.0
  0
LINE
  5
39C7
330
1F
100
AcDbEntity
  8
假想
100
AcDbLine
 10
1883.722235591816
 20
-59.19332570216778
 30
0.0
 11
1883.222235591816
 21
-59.19332570216778
 31
0.0
  0
LINE
  5
39C8
330
1F
100
AcDbEntity
  8
假想
100
AcDbLine
 10
1883.222235591816
 20
-73.19332570216778
 30
0.0
 11
1883.222235591816
 21
-61.19332570216778
 31
0.0
  0
LINE
  5
39C9
330
1F
100
AcDbEntity
  8
假想
100
AcDbLine
 10
1883.722235591816
 20
-73.19332570216778
 30
0.0
 11
1883.722235591816
 21
-75.02635598015007
 31
0.0
  0
LINE
  5
39CA
330
1F
100
AcDbEntity
  8
假想
100
AcDbLine
 10
1883.722235591816
 20
-59.36029542418549
 30
0.0
 11
1883.722235591816
 21
-61.19332570216778
 31
0.0
  0
LINE
  5
39CB
330
1F
100
AcDbEntity
  8
假想
100
AcDbLine
 10
1883.222235591816
 20
-61.19332570216778
 30
0.0
 11
1883.222235591816
 21
-59.19332570216778
 31
0.0
  0
LINE
  5
39CC
330
1F
100
AcDbEntity
  8
假想
100
AcDbLine
 10
1883.222235591816
 20
-75.19332570216779
 30
0.0
 11
1883.222235591816
 21
-73.19332570216778
 31
0.0
  0
LINE
  5
39CD
330
1F
100
AcDbEntity
  8
假想
100
AcDbLine
 10
1949.722235591815
 20
-38.19332570216778
 30
0.0
 11
1947.422235591815
 21
-38.19332570216778
 31
0.0
  0
LINE
  5
39CE
330
1F
100
AcDbEntity
  8
假想
100
AcDbLine
 10
1949.722235591815
 20
-57.19332570216778
 30
0.0
 11
1949.722235591815
 21
-43.19332570216778
 31
0.0
  0
LINE
  5
39CF
330
1F
100
AcDbEntity
  8
假想
100
AcDbLine
 10
1949.722235591815
 20
-93.19332570216777
 30
0.0
 11
1949.722235591815
 21
-57.19332570216778
 31
0.0
  0
LINE
  5
39D0
330
1F
100
AcDbEntity
  8
假想
100
AcDbLine
 10
1946.722235591815
 20
-57.19332570216778
 30
0.0
 11
1886.722235591815
 21
-57.19332570216778
 31
0.0
  0
LINE
  5
39D1
330
1F
100
AcDbEntity
  8
假想
100
AcDbLine
 10
1946.722235591815
 20
-93.19332570216777
 30
0.0
 11
1883.722235591816
 21
-93.19332570216777
 31
0.0
  0
LINE
  5
39D2
330
1F
100
AcDbEntity
  8
假想
100
AcDbLine
 10
1930.222235591816
 20
-89.19332570216779
 30
0.0
 11
1909.722235591815
 21
-89.19332570216779
 31
0.0
  0
LINE
  5
39D3
330
1F
100
AcDbEntity
  8
假想
100
AcDbLine
 10
1883.722235591816
 20
-57.19332570216778
 30
0.0
 11
1883.722235591816
 21
-59.36029542418549
 31
0.0
  0
LINE
  5
39D4
330
1F
100
AcDbEntity
  8
假想
100
AcDbLine
 10
1883.722235591816
 20
-75.02635598015007
 30
0.0
 11
1883.722235591816
 21
-93.19332570216777
 31
0.0
  0
LINE
  5
39D5
330
1F
100
AcDbEntity
  8
假想
100
AcDbLine
 10
1947.422235591815
 20
-57.19332570216778
 30
0.0
 11
1947.422235591815
 21
-43.19332570216778
 31
0.0
  0
LINE
  5
39D6
330
1F
100
AcDbEntity
  8
假想
100
AcDbLine
 10
1909.722235591815
 20
-61.19332570216778
 30
0.0
 11
1930.722235591815
 21
-61.19332570216778
 31
0.0
  0
LINE
  5
39D7
330
1F
100
AcDbEntity
  8
假想
100
AcDbLine
 10
1930.722235591815
 20
-65.19332570216779
 30
0.0
 11
1929.722235591816
 21
-65.19332570216779
 31
0.0
  0
LINE
  5
39D8
330
1F
100
AcDbEntity
  8
假想
100
AcDbLine
 10
1930.222235591816
 20
-84.19332570216779
 30
0.0
 11
1929.722235591816
 21
-84.19332570216779
 31
0.0
  0
LINE
  5
39D9
330
1F
100
AcDbEntity
  8
假想
100
AcDbLine
 10
1949.722235591815
 20
-38.19332570216778
 30
0.0
 11
1949.722235591815
 21
-43.19332570216778
 31
0.0
  0
LINE
  5
39DA
330
1F
100
AcDbEntity
  8
假想
100
AcDbLine
 10
1946.722235591815
 20
-57.19332570216778
 30
0.0
 11
1949.722235591815
 21
-57.19332570216778
 31
0.0
  0
LINE
  5
39DB
330
1F
100
AcDbEntity
  8
假想
100
AcDbLine
 10
1949.722235591815
 20
-93.19332570216777
 30
0.0
 11
1946.722235591815
 21
-93.19332570216777
 31
0.0
  0
ARC
  5
39DC
330
1F
100
AcDbEntity
  8
假想
100
AcDbCircle
 10
1909.722235591815
 20
-75.19332570216779
 30
0.0
 40
14.0
100
AcDbArc
 50
90.0
 51
270.0
  0
LINE
  5
39DD
330
1F
100
AcDbEntity
  8
假想
100
AcDbLine
 10
1883.722235591816
 20
-57.19332570216778
 30
0.0
 11
1886.722235591815
 21
-57.19332570216778
 31
0.0
  0
LINE
  5
39DE
330
1F
100
AcDbEntity
  8
假想
100
AcDbLine
 10
1947.422235591815
 20
-43.19332570216778
 30
0.0
 11
1947.422235591815
 21
-38.19332570216778
 31
0.0
  0
ARC
  5
39DF
330
1F
100
AcDbEntity
  8
假想
100
AcDbCircle
 10
1930.722235591815
 20
-63.19332570216778
 30
0.0
 40
1.999999999999999
100
AcDbArc
 50
270.0
 51
90.0
  0
LINE
  5
39E0
330
1F
100
AcDbEntity
  8
假想
100
AcDbLine
 10
1926.722235591816
 20
-65.19332570216779
 30
0.0
 11
1929.722235591816
 21
-65.19332570216779
 31
0.0
  0
LINE
  5
39E1
330
1F
100
AcDbEntity
  8
假想
100
AcDbLine
 10
1929.722235591816
 20
-84.19332570216779
 30
0.0
 11
1926.722235591816
 21
-84.19332570216779
 31
0.0
  0
ARC
  5
39E2
330
1F
100
AcDbEntity
  8
假想
100
AcDbCircle
 10
1930.222235591816
 20
-86.69332570216779
 30
0.0
 40
2.5
100
AcDbArc
 50
270.0
 51
90.0
  0
DIMENSION
  5
39E3
330
1F
100
AcDbEntity
  8
AM_REFDIM
100
AcDbDimension
  2
*D46
 10
1961.722235591815
 20
-75.19332570216779
 30
0.0
 11
1957.597235591816
 21
-56.69332570216748
 31
0.0
 70
    32
 71
     5
 42
37.00000000000001
  3
AM_ISO$0
100
AcDbAlignedDimension
 13
1949.722235591815
 23
-38.19332570216778
 33
0.0
 14
1919.079446768278
 24
-75.19332570216779
 34
0.0
 50
90.0
100
AcDbRotatedDimension
1001
ACAD
1000
DSTYLE
1002
{
1070
    40
1040
1.5
1070
    41
1040
4.0
1070
    43
1040
10.0
1070
    44
1040
1.5
1070
   285
1070
     0
1002
}
  0
DIMENSION
  5
39E4
102
{ACAD_XDICTIONARY
360
39E5
102
}
102
{ACAD_REACTORS
330
39E6
102
}
330
1F
100
AcDbEntity
  8
AM_REFDIM
100
AcDbDimension
  2
*D50
 10
1717.89437388234
 20
-231.7933257021678
 30
0.0
 11
1713.50687388234
 21
-145.4933257021675
 31
0.0
 70
    32
  1
(<>)
 71
     5
 42
172.6
  3
AM_ISO$0
100
AcDbAlignedDimension
 13
1764.423393482118
 23
-59.19332570216778
 33
0.0
 14
1785.673393482118
 24
-231.7933257021678
 34
0.0
 50
90.0
100
AcDbRotatedDimension
1001
ACAD
1000
DSTYLE
1002
{
1070
    40
1040
1.5
1070
    41
1040
4.0
1070
    43
1040
10.0
1070
    44
1040
1.5
1070
   285
1070
     0
1002
}
  0
DIMENSION
  5
39E7
102
{ACAD_XDICTIONARY
360
39E8
102
}
102
{ACAD_REACTORS
330
39E9
102
}
330
1F
100
AcDbEntity
  8
AM_REFDIM
100
AcDbDimension
  2
*D51
 10
1735.451528057271
 20
-231.7933257021678
 30
0.0
 11
1731.326528057271
 21
-153.4933257021675
 31
0.0
 70
    32
 71
     5
 42
156.6
  3
AM_ISO$0
100
AcDbAlignedDimension
 13
1747.45152805727
 23
-75.19332570216779
 33
0.0
 14
1785.673393482118
 24
-231.7933257021678
 34
0.0
 50
90.0
100
AcDbRotatedDimension
1001
ACAD
1000
DSTYLE
1002
{
1070
    40
1040
1.5
1070
    41
1040
4.0
1070
    43
1040
10.0
1070
    44
1040
1.5
1070
   285
1070
     0
1002
}
  0
DIMENSION
  5
39EA
102
{ACAD_XDICTIONARY
360
39EB
102
}
102
{ACAD_REACTORS
330
39EC
102
}
330
1F
100
AcDbEntity
  8
AM_REFDIM
100
AcDbDimension
  2
*D52
 10
1791.423393482117
 20
-240.7933257021678
 30
0.0
 11
1827.498393482118
 21
-236.6318152868297
 31
0.0
 70
    32
  1
%%c<>Drain Outlet
 71
     5
 42
6.0
  3
AM_ISO$0
100
AcDbAlignedDimension
 13
1785.423393482117
 23
-228.7933257021678
 33
0.0
 14
1791.423393482117
 24
-228.7933257021678
 34
0.0
100
AcDbRotatedDimension
1001
ACAD
1000
DSTYLE
1002
{
1070
    40
1040
1.5
1070
    41
1040
4.0
1070
    43
1040
10.0
1070
    44
1040
1.5
1070
   285
1070
     0
1002
}
  0
ENDSEC
  0
SECTION
  2
OBJECTS
  0
DICTIONARY
  5
C
330
0
100
AcDbDictionary
281
     1
  3
ACAD_COLOR
350
5BF
  3
ACAD_GROUP
350
D
  3
ACAD_LAYOUT
350
1A
  3
ACAD_MATERIAL
350
5BE
  3
ACAD_MLINESTYLE
350
17
  3
ACAD_PLOTSETTINGS
350
19
  3
ACAD_PLOTSTYLENAME
350
E
  3
ACAD_TABLESTYLE
350
5C0
  3
ACDBHEADERROUNDTRIPXREC
350
3B13
  3
AcDbVariableDictionary
350
82
  3
AcmDictionary
350
45
  3
AMG
350
2B
  3
AMGSNAPSETTINGS
350
979
  3
DWGPROPS
350
3B12
  0
DICTIONARY
  5
A69
330
2
100
AcDbDictionary
280
     1
281
     1
  3
ACAD_LAYERFILTERS
360
1909
  3
ACAD_LAYERSTATES
360
A6A
  3
ACLYDICTIONARY
360
1908
  0
DICTIONARY
  5
7D
330
1F
100
AcDbDictionary
280
     1
281
     1
  0
DICTIONARY
  5
392D
330
392C
100
AcDbDictionary
280
     1
281
     1
  3
ACAD_DIMASSOC
360
392E
  0
DICTIONARY
  5
3930
330
392F
100
AcDbDictionary
280
     1
281
     1
  3
ACAD_DIMASSOC
360
3931
  0
DICTIONARY
  5
39A5
330
39A4
100
AcDbDictionary
280
     1
281
     1
  3
ACAD_DIMASSOC
360
39A6
  0
DICTIONARY
  5
39E5
330
39E4
100
AcDbDictionary
280
     1
281
     1
  3
ACAD_DIMASSOC
360
39E6
  0
DICTIONARY
  5
39E8
330
39E7
100
AcDbDictionary
280
     1
281
     1
  3
ACAD_DIMASSOC
360
39E9
  0
DICTIONARY
  5
39EB
330
39EA
100
AcDbDictionary
280
     1
281
     1
  3
ACAD_DIMASSOC
360
39EC
  0
DICTIONARY
  5
5BF
102
{ACAD_REACTORS
330
C
102
}
330
C
100
AcDbDictionary
281
     1
  0
DICTIONARY
  5
D
102
{ACAD_REACTORS
330
C
102
}
330
C
100
AcDbDictionary
281
     1
  0
DICTIONARY
  5
1A
102
{ACAD_REACTORS
330
C
102
}
330
C
100
AcDbDictionary
281
     1
  3
Layout1
350
1E
  3
Layout2
350
26
  3
Model
350
22
  0
DICTIONARY
  5
5BE
102
{ACAD_REACTORS
330
C
102
}
330
C
100
AcDbDictionary
281
     1
  0
DICTIONARY
  5
17
102
{ACAD_REACTORS
330
C
102
}
330
C
100
AcDbDictionary
281
     1
  3
Standard
350
18
  0
DICTIONARY
  5
19
102
{ACAD_REACTORS
330
C
102
}
330
C
100
AcDbDictionary
281
     1
  0
ACDBDICTIONARYWDFLT
  5
E
102
{ACAD_REACTORS
330
C
102
}
330
C
100
AcDbDictionary
281
     1
  3
Normal
350
F
100
AcDbDictionaryWithDefault
340
F
  0
DICTIONARY
  5
5C0
102
{ACAD_REACTORS
330
C
102
}
330
C
100
AcDbDictionary
281
     1
  3
Standard
350
5C1
  0
DICTIONARY
  5
3B13
102
{ACAD_REACTORS
330
C
102
}
330
C
100
AcDbDictionary
281
     1
  0
DICTIONARY
  5
82
102
{ACAD_REACTORS
330
C
102
}
330
C
100
AcDbDictionary
281
     1
  3
CTABLESTYLE
350
633
  3
DIMASSOC
350
85
  3
HIDETEXT
350
84
  3
INDEXCTL
350
83
  3
PROJECTNAME
350
634
  0
DICTIONARY
  5
45
102
{ACAD_REACTORS
330
C
102
}
330
C
100
AcDbDictionary
281
     1
  3
AcmStdDictionary
350
4A
  3
AMDTSECTSYM_ARROWCOLOR
350
5CC
  0
DICTIONARY
  5
2B
102
{ACAD_REACTORS
330
C
102
}
330
C
100
AcDbDictionary
281
     1
  0
DICTIONARY
  5
979
102
{ACAD_REACTORS
330
C
102
}
330
C
100
AcDbDictionary
281
     1
  0
XRECORD
  5
3B12
102
{ACAD_REACTORS
330
C
102
}
330
C
100
AcDbXrecord
280
     1
  1
DWGPROPS COOKIE
  2

  3

  4

  6

  7

  8

  9

300
AmdtFileType=84
301
=
302
=
303
=
304
=
305
=
306
=
307
=
308
=
309
=
 40
0.4075972337962963
 41
2453021.369367211
 42
2455625.647087905
  1

 90
        1
  0
DICTIONARY
  5
1909
102
{ACAD_REACTORS
330
A69
102
}
330
A69
100
AcDbDictionary
281
     1
  0
DICTIONARY
  5
A6A
102
{ACAD_REACTORS
330
A69
102
}
330
A69
100
AcDbDictionary
281
     1
  0
DICTIONARY
  5
1908
102
{ACAD_REACTORS
330
A69
102
}
330
A69
100
AcDbDictionary
281
     1
1001
ACAD
1000
<All
  0
DIMASSOC
  5
392E
102
{ACAD_REACTORS
330
392D
102
}
330
392D
100
AcDbDimAssoc
330
392C
 90
        3
 70
     0
 71
     0
  1
AcDbOsnapPointRef
 72
     1
331
3913
 73
     0
 91
        0
 40
0.0
 10
0.0
 20
0.0
 30
2.000000000000000E+50
 75
     0
  1
AcDbOsnapPointRef
 72
    13
331
390E
 73
     0
 91
        0
 40
0.0
 10
0.0
 20
0.0
 30
2.000000000000000E+50
 75
     0
  0
DIMASSOC
  5
3931
102
{ACAD_REACTORS
330
3930
102
}
330
3930
100
AcDbDimAssoc
330
392F
 90
        1
 70
     0
 71
     0
  1
AcDbOsnapPointRef
 72
     1
331
390C
 73
     0
 91
        0
 40
0.0
 10
0.0
 20
0.0
 30
2.000000000000000E+50
 75
     0
  0
DIMASSOC
  5
39A6
102
{ACAD_REACTORS
330
39A5
102
}
330
39A5
100
AcDbDimAssoc
330
39A4
 90
        3
 70
     0
 71
     0
  1
AcDbOsnapPointRef
 72
    13
331
3991
 73
     0
 91
        0
 40
0.0
 10
0.0
 20
0.0
 30
2.000000000000000E+50
 75
     0
  1
AcDbOsnapPointRef
 72
     1
331
399D
 73
     0
 91
        0
 40
0.0
 10
0.0
 20
0.0
 30
2.000000000000000E+50
 75
     0
  0
DIMASSOC
  5
39E6
102
{ACAD_REACTORS
330
39E5
102
}
330
39E5
100
AcDbDimAssoc
330
39E4
 90
        3
 70
     0
 71
     0
  1
AcDbOsnapPointRef
 72
    13
331
377A
 73
     0
 91
        0
 40
0.0
 10
0.0
 20
0.0
 30
2.000000000000000E+50
 75
     0
  1
AcDbOsnapPointRef
 72
     1
331
37C8
 73
     0
 91
        0
 40
0.0
 10
0.0
 20
0.0
 30
2.000000000000000E+50
 75
     0
  0
DIMASSOC
  5
39E9
102
{ACAD_REACTORS
330
39E8
102
}
330
39E8
100
AcDbDimAssoc
330
39E7
 90
        3
 70
     0
 71
     0
  1
AcDbOsnapPointRef
 72
    13
331
39A7
 73
     0
 91
        0
 40
0.0
 10
0.0
 20
0.0
 30
2.000000000000000E+50
 75
     0
  1
AcDbOsnapPointRef
 72
     1
331
37C8
 73
     0
 91
        0
 40
0.0
 10
0.0
 20
0.0
 30
2.000000000000000E+50
 75
     0
  0
DIMASSOC
  5
39EC
102
{ACAD_REACTORS
330
39EB
102
}
330
39EB
100
AcDbDimAssoc
330
39EA
 90
        3
 70
     0
 71
     0
  1
AcDbOsnapPointRef
 72
     1
331
37C9
 73
     0
 91
        0
 40
0.0
 10
0.0
 20
0.0
 30
2.000000000000000E+50
 75
     0
  1
AcDbOsnapPointRef
 72
    13
331
37C9
 73
     0
 91
        0
 40
0.0
 10
0.0
 20
0.0
 30
2.000000000000000E+50
 75
     0
  0
LAYOUT
  5
1E
102
{ACAD_XDICTIONARY
360
3B14
102
}
102
{ACAD_REACTORS
330
1A
102
}
330
1A
100
AcDbPlotSettings
  1

  2
自動 RD 上的 Epson Stylus Photo 750 單色
  4

  6

 40
0.0
 41
0.0
 42
0.0
 43
0.0
 44
0.0
 45
0.0
 46
0.0
 47
0.0
 48
0.0
 49
0.0
140
0.0
141
0.0
142
1.0
143
1.0
 70
   688
 72
     0
 73
     0
 74
     5
  7
單色出圖.ctb
 75
    16
147
1.0
148
0.0
149
0.0
100
AcDbLayout
  1
Layout1
 70
     1
 71
     1
 10
0.0
 20
0.0
 11
420.0
 21
297.0
 12
0.0
 22
0.0
 32
0.0
 14
1.000000000000000E+20
 24
1.000000000000000E+20
 34
1.000000000000000E+20
 15
-1.000000000000000E+20
 25
-1.000000000000000E+20
 35
-1.000000000000000E+20
146
0.0
 13
0.0
 23
0.0
 33
0.0
 16
1.0
 26
0.0
 36
0.0
 17
0.0
 27
1.0
 37
0.0
 76
     0
330
1B
  0
LAYOUT
  5
26
102
{ACAD_XDICTIONARY
360
3B18
102
}
102
{ACAD_REACTORS
330
1A
102
}
330
1A
100
AcDbPlotSettings
  1

  2
自動 RD 上的 Epson Stylus Photo 750 單色
  4

  6

 40
0.0
 41
0.0
 42
0.0
 43
0.0
 44
0.0
 45
0.0
 46
0.0
 47
0.0
 48
0.0
 49
0.0
140
0.0
141
0.0
142
1.0
143
1.0
 70
   688
 72
     0
 73
     0
 74
     5
  7
單色出圖.ctb
 75
    16
147
1.0
148
0.0
149
0.0
100
AcDbLayout
  1
Layout2
 70
     1
 71
     2
 10
0.0
 20
0.0
 11
12.0
 21
9.0
 12
0.0
 22
0.0
 32
0.0
 14
0.0
 24
0.0
 34
0.0
 15
0.0
 25
0.0
 35
0.0
146
0.0
 13
0.0
 23
0.0
 33
0.0
 16
1.0
 26
0.0
 36
0.0
 17
0.0
 27
1.0
 37
0.0
 76
     0
330
23
  0
LAYOUT
  5
22
102
{ACAD_XDICTIONARY
360
3B16
102
}
102
{ACAD_REACTORS
330
1A
102
}
330
1A
100
AcDbPlotSettings
  1

  2
自動 RD 上的 Epson Stylus Photo 750 單色
  4
A4
  6

 40
3.757083177566528
 41
14.7637300491333
 42
3.757080078125
 43
3.757080078125
 44
209.9733276367187
 45
296.9683227539062
 46
7.54
 47
0.0
 48
0.0
 49
0.0
140
0.0
141
0.0
142
1.0
143
1.817317462545654
 70
 11956
 72
     1
 73
     0
 74
     1
  7
單色出圖.ctb
 75
     0
147
0.5502615919395967
148
-125.5654918467224
149
222.8859553785132
100
AcDbLayout
  1
Model
 70
     1
 71
     0
 10
0.0
 20
0.0
 11
12.0
 21
9.0
 12
0.0
 22
0.0
 32
0.0
 14
0.0
 24
0.0
 34
0.0
 15
0.0
 25
0.0
 35
0.0
146
0.0
 13
0.0
 23
0.0
 33
0.0
 16
1.0
 26
0.0
 36
0.0
 17
0.0
 27
1.0
 37
0.0
 76
     0
330
1F
  0
MLINESTYLE
  5
18
102
{ACAD_REACTORS
330
17
102
}
330
17
100
AcDbMlineStyle
  2
STANDARD
 70
     0
  3

 62
   256
 51
90.0
 52
90.0
 71
     2
 49
0.5
 62
   256
  6
BYLAYER
 49
-0.5
 62
   256
  6
BYLAYER
  0
ACDBPLACEHOLDER
  5
F
102
{ACAD_REACTORS
330
E
102
}
330
E
  0
TABLESTYLE
  5
5C1
102
{ACAD_REACTORS
330
5C0
102
}
330
5C0
100
AcDbTableStyle
  3
Standard
 70
     0
 71
     0
 40
1.5
 41
1.5
280
     0
281
     0
  7
STANDARD
140
4.5
170
     2
 62
     0
 63
     7
283
     0
274
    -2
284
     1
 64
     0
275
    -2
285
     1
 65
     0
276
    -2
286
     1
 66
     0
277
    -2
287
     1
 67
     0
278
    -2
288
     1
 68
     0
279
    -2
289
     1
 69
     0
  7
STANDARD
140
6.0
170
     5
 62
     0
 63
     7
283
     0
274
    -2
284
     1
 64
     0
275
    -2
285
     1
 65
     0
276
    -2
286
     1
 66
     0
277
    -2
287
     1
 67
     0
278
    -2
288
     1
 68
     0
279
    -2
289
     1
 69
     0
  7
STANDARD
140
4.5
170
     5
 62
     0
 63
     7
283
     0
274
    -2
284
     1
 64
     0
275
    -2
285
     1
 65
     0
276
    -2
286
     1
 66
     0
277
    -2
287
     1
 67
     0
278
    -2
288
     1
 68
     0
279
    -2
289
     1
 69
     0
  0
DICTIONARYVAR
  5
633
102
{ACAD_REACTORS
330
82
102
}
330
82
100
DictionaryVariables
280
     0
  1
STANDARD
  0
DICTIONARYVAR
  5
85
102
{ACAD_REACTORS
330
82
102
}
330
82
100
DictionaryVariables
280
     0
  1
2
  0
DICTIONARYVAR
  5
84
102
{ACAD_REACTORS
330
82
102
}
330
82
100
DictionaryVariables
280
     0
  1
1
  0
DICTIONARYVAR
  5
83
102
{ACAD_REACTORS
330
82
102
}
330
82
100
DictionaryVariables
280
     0
  1
0
  0
DICTIONARYVAR
  5
634
102
{ACAD_REACTORS
330
82
102
}
330
82
100
DictionaryVariables
280
     0
  1

  0
DICTIONARY
  5
4A
102
{ACAD_REACTORS
330
45
102
}
330
45
100
AcDbDictionary
281
     1
  0
XRECORD
  5
5CC
102
{ACAD_REACTORS
330
45
102
}
330
45
100
AcDbXrecord
280
     1
 90
-1023410169
  0
DICTIONARY
  5
3B14
330
1E
100
AcDbDictionary
280
     1
281
     1
  3
ACAD_XREC_ROUNDTRIP
360
3B15
  0
DICTIONARY
  5
3B18
330
26
100
AcDbDictionary
280
     1
281
     1
  3
ACAD_XREC_ROUNDTRIP
360
3B19
  0
DICTIONARY
  5
3B16
330
22
100
AcDbDictionary
280
     1
281
     1
  3
ACAD_XREC_ROUNDTRIP
360
3B17
  0
XRECORD
  5
3B15
102
{ACAD_REACTORS
330
3B14
102
}
330
3B14
100
AcDbXrecord
280
     1
102
SHADEPLOT
 70
     0
102
SHADEPLOTRESLEVEL
 70
     2
102
SHADEPLOTCUSTOMDPI
 70
   300
  0
XRECORD
  5
3B19
102
{ACAD_REACTORS
330
3B18
102
}
330
3B18
100
AcDbXrecord
280
     1
102
SHADEPLOT
 70
     0
102
SHADEPLOTRESLEVEL
 70
     2
102
SHADEPLOTCUSTOMDPI
 70
   300
  0
XRECORD
  5
3B17
102
{ACAD_REACTORS
330
3B16
102
}
330
3B16
100
AcDbXrecord
280
     1
102
SHADEPLOT
 70
     0
102
SHADEPLOTRESLEVEL
 70
     2
102
SHADEPLOTCUSTOMDPI
 70
   300
  0
ENDSEC
  0
EOF
