  0
SECTION
  2
HEADER
  9
$ACADVER
  1
AC1015
  9
$ACADMAINTVER
 70
    20
  9
$DWGCODEPAGE
  3
ANSI_950
  9
$INSBASE
 10
0.0
 20
0.0
 30
0.0
  9
$EXTMIN
 10
178.5012829239729
 20
132.8657363749307
 30
-0.0099127238636925
  9
$EXTMAX
 10
379.6701059114073
 20
426.997233144827
 30
159.1023935736559
  9
$LIMMIN
 10
0.0
 20
0.0
  9
$LIMMAX
 10
420.0
 20
297.0
  9
$ORTHOMODE
 70
     1
  9
$REGENMODE
 70
     1
  9
$FILLMODE
 70
     1
  9
$QTEXTMODE
 70
     0
  9
$MIRRTEXT
 70
     1
  9
$LTSCALE
 40
1.0
  9
$ATTMODE
 70
     1
  9
$TEXTSIZE
 40
3.0
  9
$TRACEWID
 40
1.0
  9
$TEXTSTYLE
  7
STANDARD
  9
$CLAYER
  8
0
  9
$CELTYPE
  6
ByLayer
  9
$CECOLOR
 62
   256
  9
$CELTSCALE
 40
1.0
  9
$DISPSILH
 70
     0
  9
$DIMSCALE
 40
2.0
  9
$DIMASZ
 40
3.0
  9
$DIMEXO
 40
1.5
  9
$DIMDLI
 40
15.0
  9
$DIMRND
 40
0.0
  9
$DIMDLE
 40
0.0
  9
$DIMEXE
 40
1.5
  9
$DIMTP
 40
0.1
  9
$DIMTM
 40
0.1
  9
$DIMTXT
 40
3.5
  9
$DIMCEN
 40
0.0
  9
$DIMTSZ
 40
0.0
  9
$DIMTOL
 70
     0
  9
$DIMLIM
 70
     0
  9
$DIMTIH
 70
     0
  9
$DIMTOH
 70
     0
  9
$DIMSE1
 70
     0
  9
$DIMSE2
 70
     0
  9
$DIMTAD
 70
     1
  9
$DIMZIN
 70
     8
  9
$DIMBLK
  1

  9
$DIMASO
 70
     1
  9
$DIMSHO
 70
     1
  9
$DIMPOST
  1

  9
$DIMAPOST
  1
"
  9
$DIMALT
 70
     0
  9
$DIMALTD
 70
     2
  9
$DIMALTF
 40
0.0393701
  9
$DIMLFAC
 40
1.0
  9
$DIMTOFL
 70
     1
  9
$DIMTVP
 40
0.0
  9
$DIMTIX
 70
     0
  9
$DIMSOXD
 70
     0
  9
$DIMSAH
 70
     0
  9
$DIMBLK1
  1

  9
$DIMBLK2
  1

  9
$DIMSTYLE
  2
AM_ISO
  9
$DIMCLRD
 70
   256
  9
$DIMCLRE
 70
   256
  9
$DIMCLRT
 70
   256
  9
$DIMTFAC
 40
0.6
  9
$DIMGAP
 40
1.0
  9
$DIMJUST
 70
     0
  9
$DIMSD1
 70
     0
  9
$DIMSD2
 70
     0
  9
$DIMTOLJ
 70
     0
  9
$DIMTZIN
 70
     8
  9
$DIMALTZ
 70
     0
  9
$DIMALTTZ
 70
     0
  9
$DIMUPT
 70
     0
  9
$DIMDEC
 70
     2
  9
$DIMTDEC
 70
     8
  9
$DIMALTU
 70
     2
  9
$DIMALTTD
 70
     2
  9
$DIMTXSTY
  7
STANDARD
  9
$DIMAUNIT
 70
     0
  9
$DIMADEC
 70
     0
  9
$DIMALTRND
 40
0.0
  9
$DIMAZIN
 70
     2
  9
$DIMDSEP
 70
    46
  9
$DIMATFIT
 70
     3
  9
$DIMFRAC
 70
     0
  9
$DIMLDRBLK
  1

  9
$DIMLUNIT
 70
     2
  9
$DIMLWD
 70
    -1
  9
$DIMLWE
 70
    -1
  9
$DIMTMOVE
 70
     0
  9
$LUNITS
 70
     2
  9
$LUPREC
 70
     2
  9
$SKETCHINC
 40
1.0
  9
$FILLETRAD
 40
2.5
  9
$AUNITS
 70
     0
  9
$AUPREC
 70
     0
  9
$MENU
  1
.
  9
$ELEVATION
 40
0.0
  9
$PELEVATION
 40
0.0
  9
$THICKNESS
 40
0.0
  9
$LIMCHECK
 70
     0
  9
$CHAMFERA
 40
2.5
  9
$CHAMFERB
 40
2.5
  9
$CHAMFERC
 40
20.0
  9
$CHAMFERD
 40
0.0
  9
$SKPOLY
 70
     0
  9
$TDCREATE
 40
2454515.453502778
  9
$TDUCREATE
 40
2454515.120169445
  9
$TDUPDATE
 40
2454593.674505613
  9
$TDUUPDATE
 40
2454593.341172280
  9
$TDINDWG
 40
0.0662548264
  9
$TDUSRTIMER
 40
0.0662544676
  9
$USRTIMER
 70
     1
  9
$ANGBASE
 50
0.0
  9
$ANGDIR
 70
     0
  9
$PDMODE
 70
     0
  9
$PDSIZE
 40
0.0
  9
$PLINEWID
 40
0.0
  9
$SPLFRAME
 70
     0
  9
$SPLINETYPE
 70
     6
  9
$SPLINESEGS
 70
     8
  9
$HANDSEED
  5
169F
  9
$SURFTAB1
 70
     6
  9
$SURFTAB2
 70
     6
  9
$SURFTYPE
 70
     6
  9
$SURFU
 70
     6
  9
$SURFV
 70
     6
  9
$UCSBASE
  2

  9
$UCSNAME
  2

  9
$UCSORG
 10
0.0
 20
0.0
 30
0.0
  9
$UCSXDIR
 10
1.0
 20
0.0
 30
0.0
  9
$UCSYDIR
 10
0.0
 20
1.0
 30
0.0
  9
$UCSORTHOREF
  2

  9
$UCSORTHOVIEW
 70
     0
  9
$UCSORGTOP
 10
0.0
 20
0.0
 30
0.0
  9
$UCSORGBOTTOM
 10
0.0
 20
0.0
 30
0.0
  9
$UCSORGLEFT
 10
0.0
 20
0.0
 30
0.0
  9
$UCSORGRIGHT
 10
0.0
 20
0.0
 30
0.0
  9
$UCSORGFRONT
 10
0.0
 20
0.0
 30
0.0
  9
$UCSORGBACK
 10
0.0
 20
0.0
 30
0.0
  9
$PUCSBASE
  2

  9
$PUCSNAME
  2

  9
$PUCSORG
 10
0.0
 20
0.0
 30
0.0
  9
$PUCSXDIR
 10
1.0
 20
0.0
 30
0.0
  9
$PUCSYDIR
 10
0.0
 20
1.0
 30
0.0
  9
$PUCSORTHOREF
  2

  9
$PUCSORTHOVIEW
 70
     0
  9
$PUCSORGTOP
 10
0.0
 20
0.0
 30
0.0
  9
$PUCSORGBOTTOM
 10
0.0
 20
0.0
 30
0.0
  9
$PUCSORGLEFT
 10
0.0
 20
0.0
 30
0.0
  9
$PUCSORGRIGHT
 10
0.0
 20
0.0
 30
0.0
  9
$PUCSORGFRONT
 10
0.0
 20
0.0
 30
0.0
  9
$PUCSORGBACK
 10
0.0
 20
0.0
 30
0.0
  9
$USERI1
 70
     0
  9
$USERI2
 70
     0
  9
$USERI3
 70
     0
  9
$USERI4
 70
     0
  9
$USERI5
 70
     0
  9
$USERR1
 40
0.0
  9
$USERR2
 40
0.0
  9
$USERR3
 40
0.0
  9
$USERR4
 40
0.0
  9
$USERR5
 40
0.0
  9
$WORLDVIEW
 70
     1
  9
$SHADEDGE
 70
     3
  9
$SHADEDIF
 70
    70
  9
$TILEMODE
 70
     1
  9
$MAXACTVP
 70
    64
  9
$PINSBASE
 10
0.0
 20
0.0
 30
0.0
  9
$PLIMCHECK
 70
     0
  9
$PEXTMIN
 10
1.000000000000000E+20
 20
1.000000000000000E+20
 30
1.000000000000000E+20
  9
$PEXTMAX
 10
-1.000000000000000E+20
 20
-1.000000000000000E+20
 30
-1.000000000000000E+20
  9
$PLIMMIN
 10
0.0
 20
0.0
  9
$PLIMMAX
 10
420.0
 20
297.0
  9
$UNITMODE
 70
     0
  9
$VISRETAIN
 70
     1
  9
$PLINEGEN
 70
     0
  9
$PSLTSCALE
 70
     1
  9
$TREEDEPTH
 70
  3020
  9
$CMLSTYLE
  2
Standard
  9
$CMLJUST
 70
     0
  9
$CMLSCALE
 40
20.0
  9
$PROXYGRAPHICS
 70
     1
  9
$MEASUREMENT
 70
     1
  9
$CELWEIGHT
370
    -1
  9
$ENDCAPS
280
     0
  9
$JOINSTYLE
280
     0
  9
$LWDISPLAY
290
     0
  9
$INSUNITS
 70
     4
  9
$HYPERLINKBASE
  1

  9
$STYLESHEET
  1
彩色出圖.CTB
  9
$XEDIT
290
     1
  9
$CEPSNTYPE
380
     0
  9
$PSTYLEMODE
290
     1
  9
$FINGERPRINTGUID
  2
{F1DF99D9-ABC2-411F-A2F5-BE733C51C81C}
  9
$VERSIONGUID
  2
{80578AF7-3841-4ED6-B010-5C2762CAE3FC}
  9
$EXTNAMES
290
     1
  9
$PSVPSCALE
 40
0.0
  9
$OLESTARTUP
290
     0
  0
ENDSEC
  0
SECTION
  2
CLASSES
  0
CLASS
  1
ACDBDICTIONARYWDFLT
  2
AcDbDictionaryWithDefault
  3
ObjectDBX Classes
 90
        0
280
     0
281
     0
  0
CLASS
  1
ACDBPLACEHOLDER
  2
AcDbPlaceHolder
  3
ObjectDBX Classes
 90
        0
280
     0
281
     0
  0
CLASS
  1
LAYOUT
  2
AcDbLayout
  3
ObjectDBX Classes
 90
        0
280
     0
281
     0
  0
CLASS
  1
ACME_DOCUMENT
  2
AcMeDbDoc
  3
AcMeServices
 90
        0
280
     0
281
     0
  0
CLASS
  1
AMGSETTINGSOBJ
  2
AmgSettingsObj
  3
"AcadM|Product Description: AutoCAD Mechanical 2000|Company: Autodesk"
 90
        0
280
     0
281
     0
  0
CLASS
  1
ACMESCOPE
  2
AcMeScope
  3
AcMeServices
 90
        0
280
     0
281
     0
  0
CLASS
  1
ACMECOMMANDHISTORY
  2
AcMeCommandHistory
  3
AcMeServices
 90
        0
280
     0
281
     0
  0
CLASS
  1
ACIMSYSVARMAN
  2
AcImSysVarManager
  3
AcMeServices
 90
        0
280
     0
281
     0
  0
CLASS
  1
ACIMREALSYSVAR
  2
AcImRealSysVar
  3
AcMeServices
 90
        0
280
     0
281
     0
  0
CLASS
  1
ACIMINTSYSVAR
  2
AcImIntSysVar
  3
AcMeServices
 90
        0
280
     0
281
     0
  0
CLASS
  1
ACMEDRAWINGMAN
  2
AcMeDrawingMan
  3
AcMeServices
 90
        0
280
     0
281
     0
  0
CLASS
  1
ACMEVIEW
  2
AcMeView
  3
AcMeServices
 90
        0
280
     0
281
     0
  0
CLASS
  1
ACDBENTITYCACHE
  2
AcMeEntityCache
  3
AcMeServices
 90
        0
280
     0
281
     0
  0
CLASS
  1
GSMANAGER
  2
AcMeGSManager
  3
AcMeServices
 90
        0
280
     0
281
     0
  0
CLASS
  1
AMDTINTERNALREACTOR
  2
AmdtInternalReactor
  3
AcMeServices
 90
        0
280
     0
281
     0
  0
CLASS
  1
ACMESTATEMGR
  2
AcMeStateMgr
  3
AcMeServices
 90
        0
280
     0
281
     0
  0
CLASS
  1
ACGREFMASTER
  2
AcGrefMaster
  3
AcAttribServices
 90
        0
280
     0
281
     0
  0
CLASS
  1
ACME_DATABASE
  2
AcMeDbDatabase
  3
AcMeServices
 90
        0
280
     0
281
     0
  0
CLASS
  1
ACRFINSADJUSTERMGR
  2
AcRfInsAdjusterMgr
  3
AcMeServices
 90
        0
280
     0
281
     0
  0
CLASS
  1
ACGREFACADMASTER
  2
AcGrefacadMaster
  3
AcGrefServices
 90
        0
280
     0
281
     0
  0
CLASS
  1
AMIMASTER
  2
AmiMaster
  3
AmiServices
 90
        0
280
     0
281
     0
  0
CLASS
  1
ACMDATADICTIONARY
  2
AcmDataDictionary
  3
"AcmSymBB|Product Description: AutoCAD Mechanical 2004 DX|Company: Autodesk"
 90
        0
280
     0
281
     0
  0
CLASS
  1
ACMDATAENTRYBLOCK
  2
AcmDataEntryBlock
  3
"AcmSymBB|Product Description: AutoCAD Mechanical 2004 DX|Company: Autodesk"
 90
    32768
280
     0
281
     0
  0
CLASS
  1
ACIMSTRSYSVAR
  2
AcImStrSysVar
  3
AcMeServices
 90
        0
280
     0
281
     0
  0
CLASS
  1
ACMSTANDARDISO
  2
AcmStandardISO
  3
"Amdt_StdImp|Product Description: AutoCAD Mechanical 2004 DX|Company: Autodesk"
 90
        0
280
     0
281
     0
  0
CLASS
  1
AMGOBJPROPCFG
  2
AmgObjPropCfg
  3
"AmgLay|Product Description: AutoCAD Mechanical 2000|Company: Autodesk"
 90
        1
280
     0
281
     0
  0
CLASS
  1
AMDTEDGESTANDARDISO
  2
AmdtEdgeStdISO
  3
"Amdt_StdImp|Product Description: AutoCAD Mechanical 2004 DX|Company: Autodesk"
 90
    32768
280
     0
281
     0
  0
CLASS
  1
ACMSURFSTANDARDISO
  2
AcmSurfTextStdISO
  3
"Amdt_StdImp|Product Description: AutoCAD Mechanical 2004 DX|Company: Autodesk"
 90
        0
280
     0
281
     0
  0
CLASS
  1
ACMFCFSTANDARDISO
  2
AcmFCFStdISO
  3
"Amdt_StdImp|Product Description: AutoCAD Mechanical 2004 DX|Company: Autodesk"
 90
        0
280
     0
281
     0
  0
CLASS
  1
ACMWELDSTANDARDISO
  2
AcmWeldingStdISO
  3
"Amdt_StdImp|Product Description: AutoCAD Mechanical 2004 DX|Company: Autodesk"
 90
        0
280
     0
281
     0
  0
CLASS
  1
ACMIDSTANDARDISO
  2
AcmIdStdISO
  3
"Amdt_StdImp|Product Description: AutoCAD Mechanical 2004 DX|Company: Autodesk"
 90
        0
280
     0
281
     0
  0
CLASS
  1
ACMDATUMSTANDARDISO
  2
AcmDatumStdISO
  3
"Amdt_StdImp|Product Description: AutoCAD Mechanical 2004 DX|Company: Autodesk"
 90
        0
280
     0
281
     0
  0
CLASS
  1
ACMBOMSTANDARDISO
  2
AcmBOMStdISO
  3
"Amdt_StdImp|Product Description: AutoCAD Mechanical 2004 DX|Company: Autodesk"
 90
        0
280
     0
281
     0
  0
CLASS
  1
ACMDETAILSTANDARDISO
  2
AmdtDetailSymStdISO
  3
"Amdt_StdImp|Product Description: AutoCAD Mechanical 2004 DX|Company: Autodesk"
 90
        0
280
     0
281
     0
  0
CLASS
  1
ACMSECTIONSTANDARDISO
  2
AmdtSectionSymStdISO
  3
"Amdt_StdImp|Product Description: AutoCAD Mechanical 2004 DX|Company: Autodesk"
 90
        0
280
     0
281
     0
  0
CLASS
  1
ACMCENTERLINESTANDARDISO
  2
AmdtCenterLineStdISO
  3
"Amdt_StdImp|Product Description: AutoCAD Mechanical 2004 DX|Company: Autodesk"
 90
        0
280
     0
281
     0
  0
CLASS
  1
ACMNOTESTANDARDISO
  2
AmdtNoteStdISO
  3
"Amdt_StdImp|Product Description: AutoCAD Mechanical 2004 DX|Company: Autodesk"
 90
        0
280
     0
281
     0
  0
CLASS
  1
ACAMGLAYSTD
  2
AcAmgLayStd
  3
"AcAmgLayStd|Product Description: AutoCAD Mechanical 2000|Company: Autodesk"
 90
        0
280
     0
281
     0
  0
CLASS
  1
ACAMGDIMSTD
  2
AcAmgDimStd
  3
"AcAmgDimStd|Product Description: AutoCAD Mechanical 2000|Company: Autodesk"
 90
        0
280
     0
281
     0
  0
CLASS
  1
ACAMGHOLECHARTSTDISO
  2
AcAmgHoleChartStdISO
  3
ACMSYMBB_MODULE_NAME
 90
        0
280
     0
281
     0
  0
CLASS
  1
ACAMGTITLESTD
  2
AcAmgTitleStd
  3
"TITLEAPP"
 90
        0
280
     0
281
     0
  0
CLASS
  1
LAYER_INDEX
  2
AcDbLayerIndex
  3
ObjectDBX Classes
 90
        0
280
     0
281
     0
  0
CLASS
  1
IDBUFFER
  2
AcDbIdBuffer
  3
ObjectDBX Classes
 90
        0
280
     0
281
     0
  0
CLASS
  1
DICTIONARYVAR
  2
AcDbDictionaryVar
  3
ObjectDBX Classes
 90
        0
280
     0
281
     0
  0
CLASS
  1
AM_DRAWING_MGR
  2
AcDmDwgMgr
  3
AcMechDwgViewMgmt
 90
        0
280
     0
281
     0
  0
CLASS
  1
AM_DWG_DOCUMENT
  2
AcDmDwgDocument
  3
AcMechDwgViewMgmt
 90
        0
280
     0
281
     0
  0
CLASS
  1
AM_DWG_SHEET
  2
AcDmSheet
  3
AcMechDwgViewMgmt
 90
        0
280
     0
281
     0
  0
CLASS
  1
AM_VIEWDIMPARMAP
  2
AcDmViewDimParMap
  3
AcMechDwgViewMgmt
 90
        0
280
     0
281
     0
  0
CLASS
  1
AM_DWGMGR_NAME
  2
AcDmDwgMgrName
  3
AcMechDwgViewMgmt
 90
        0
280
     0
281
     0
  0
CLASS
  1
AMDTMENUSTATEMGR
  2
AmdtMenuStateMgr
  3
McadcomServices
 90
        0
280
     0
281
     0
  0
CLASS
  1
AMDTMCOMMENUSTATE
  2
AmdtMcomMenuState
  3
McadcomServices
 90
        0
280
     0
281
     0
  0
CLASS
  1
MAPIAMMOUDLE
  2
MApiAmModule
  3
MApiAmServices
 90
        0
280
     0
281
     0
  0
CLASS
  1
AMDTADMENUSTATE
  2
AmdtAdMenuState
  3
DesignerServices
 90
        0
280
     0
281
     0
  0
CLASS
  1
ADAPPL
  2
AcAdAppl
  3
DesignerServices
 90
        0
280
     0
281
     0
  0
CLASS
  1
DEPMGR
  2
AcAdDepMgr
  3
DesignerServices
 90
        0
280
     0
281
     0
  0
CLASS
  1
PARAMMGR
  2
AcAdParamMgr
  3
DesignerServices
 90
        0
280
     0
281
     0
  0
CLASS
  1
PARAMSCOPE
  2
AcAdParamScope
  3
DesignerServices
 90
        0
280
     0
281
     0
  0
CLASS
  1
NAMEDAPPL
  2
AcAdNamedAppl
  3
DesignerServices
 90
        0
280
     0
281
     0
  0
CLASS
  1
AMDTDMMENUSTATE
  2
AmdtDmMenuState
  3
AcMechDwgViewMgmt
 90
        0
280
     0
281
     0
  0
CLASS
  1
AMDTAMMENUSTATE
  2
AmdtAmMenuState
  3
DesignerAssemblies
 90
        0
280
     0
281
     0
  0
CLASS
  1
ACAMPROJECT
  2
AcAmProject
  3
DesignerAssemblies
 90
        0
280
     0
281
     0
  0
CLASS
  1
ACAMGRCOMPDEF
  2
AcAmGrCompDef
  3
DesignerAssemblies
 90
        0
280
     0
281
     0
  0
CLASS
  1
ACCMCONTEXT
  2
AcCmContext
  3
DesignerAssemblies
 90
        0
280
     0
281
     0
  0
CLASS
  1
ACAMCOMPDEF
  2
AcAmCompDef
  3
DesignerAssemblies
 90
        0
280
     0
281
     0
  0
CLASS
  1
ACAMCOMPDEFMGR
  2
AcAmCompDefMgr
  3
DesignerAssemblies
 90
        0
280
     0
281
     0
  0
CLASS
  1
AMCONTEXTMGR
  2
AcAmContextMgr
  3
DesignerAssemblies
 90
        0
280
     0
281
     0
  0
CLASS
  1
ACAMCONTEXTMODELER
  2
AcAmContextModeler
  3
DesignerAssemblies
 90
        0
280
     0
281
     0
  0
CLASS
  1
ACMTHREADLINESTANDARDISO
  2
AmdtThreadLineStdISO
  3
"Amdt_StdImp|Product Description: AutoCAD Mechanical 2004 DX|Company: Autodesk"
 90
        0
280
     0
281
     0
  0
CLASS
  1
CATALOGSTATE
  2
AcAmCatalogState
  3
DesignerAssemblies
 90
        0
280
     0
281
     0
  0
CLASS
  1
ACAMGRCOMPDEFSET
  2
AcAmGrCompDefSet
  3
DesignerAssemblies
 90
        0
280
     0
281
     0
  0
CLASS
  1
AMDTBROWSERDBTAB
  2
AmdtBrowserDbTab
  3
McadcomServices
 90
        0
280
     0
281
     0
  0
CLASS
  1
CBROWSERAPPOBJECT
  2
CBrowserAppObject
  3
McadcomServices
 90
        0
280
     0
281
     0
  0
CLASS
  1
DM_PLACEHOLDER
  2
AcDmSelsetPlaceholder
  3
AcMechDwgViewMgmt
 90
        0
280
     0
281
     0
  0
CLASS
  1
TABLESTYLE
  2
AcDbTableStyle
  3
ObjectDBX Classes
 90
     2047
280
     0
281
     0
  0
CLASS
  1
VAACXREFPANELOBJECT
  2
VaAcXREFPanelObject
  3
VAAC_ADDIN
 90
    32768
280
     0
281
     0
  0
CLASS
  1
VAACIMAGEINVENTORY
  2
VaAcImageInventory
  3
VAAC_ADDIN
 90
    32768
280
     0
281
     0
  0
CLASS
  1
AMDTNOTETEMPLATEDB
  2
AmdtNoteTemplateDB
  3
AMDT_STDIMP_MODULE_NAME
 90
        0
280
     0
281
     0
  0
CLASS
  1
ACMBOM
  2
AcmBom
  3
"AcmSymBB|Product Description: AutoCAD Mechanical 2004 DX|Company: Autodesk"
 90
    32768
280
     0
281
     0
  0
CLASS
  1
AMDTFORMULAUPDATEDISPATCHER
  2
AmdtFormulaUpdateDispatcher
  3
AcMeServices
 90
    32768
280
     0
281
     0
  0
CLASS
  1
ACMPARTLIST
  2
AcmPartList
  3
"AcmSymBB|Product Description: AutoCAD Mechanical 2004 DX|Company: Autodesk"
 90
    33791
280
     0
281
     1
  0
CLASS
  1
ACAMGFILTERDAT
  2
AcAmgFilterDat
  3
"AcadM|Product Description: AutoCAD Mechanical 2000|Company: Autodesk"
 90
    32768
280
     0
281
     0
  0
CLASS
  1
DIMASSOC
  2
AcDbDimAssoc
  3
"AcDbDimAssoc|Product Desc:     AcDim ARX App For Dimension|Company:          Autodesk, Inc.|WEB Address:      www.autodesk.com"
 90
        0
280
     0
281
     0
  0
CLASS
  1
SORTENTSTABLE
  2
AcDbSortentsTable
  3
ObjectDBX Classes
 90
        0
280
     0
281
     0
  0
CLASS
  1
STDPART2D
  2
AmgStdPart
  3
"AmgStdPart|Product Description: AutoCAD Mechanical 2000|Company: Autodesk"
 90
    33791
280
     0
281
     1
  0
CLASS
  1
ACAMSTDPCOMPDEF
  2
AcAmStdpCompDef
  3
DesignerAssemblies
 90
    32768
280
     0
281
     0
  0
CLASS
  1
ACRFATTGENMGR
  2
AcRfAttGeneralMgr
  3
AcAttribServices
 90
    32768
280
     0
281
     0
  0
CLASS
  1
ACRFOBJATTMGR
  2
AcRfObjAttGroupMgr
  3
AcAttribServices
 90
    32768
280
     0
281
     0
  0
CLASS
  1
ACRFMCADAPIATTHOLDER
  2
AcRfMCADAPIAttHolder
  3
AcAttribServices
 90
    32768
280
     0
281
     0
  0
CLASS
  1
AMDTSYSATTR
  2
AmdtSystemAttribute
  3
AcAttribServices
 90
    32768
280
     0
281
     0
  0
CLASS
  1
ACAMCOMP
  2
AcAmComp
  3
DesignerAssemblies
 90
    32768
280
     0
281
     0
  0
CLASS
  1
AC_AM_STDP_VIEW_DEF
  2
AcAmStdpViewDef
  3
DesignerAssemblies
 90
    32768
280
     0
281
     0
  0
CLASS
  1
AC_AM_MVD_DEP_MGR
  2
AcAmMVDdepMgr
  3
DesignerAssemblies
 90
    32768
280
     0
281
     0
  0
CLASS
  1
AC_AM_MASTER_VIEW_DEF
  2
AcAmMasterViewDef
  3
DesignerAssemblies
 90
    32768
280
     0
281
     0
  0
CLASS
  1
AC_AM_DIRTY_NODES
  2
AcAmDirtyNodes
  3
DesignerAssemblies
 90
    32768
280
     0
281
     0
  0
CLASS
  1
AC_AM_MAPPER_CACHE
  2
AcAmMapperCache
  3
DesignerAssemblies
 90
    32768
280
     0
281
     0
  0
CLASS
  1
ACAMMVDBACKUPOBJECT
  2
AcAmMVDBackupObject
  3
DesignerAssemblies
 90
    32768
280
     0
281
     0
  0
CLASS
  1
AC_AM_COMP_VIEW_INST
  2
AcAmCompView
  3
DesignerAssemblies
 90
    32768
280
     0
281
     0
  0
CLASS
  1
AC_AM_2D_XREF_MGR
  2
AcAmXrefMgr2d
  3
DesignerAssemblies
 90
    32768
280
     0
281
     0
  0
CLASS
  1
AMDTNOTE
  2
AmdtNote
  3
"AcmSymBB|Product Description: AutoCAD Mechanical 2004 DX|Company: Autodesk"
 90
    33791
280
     0
281
     1
  0
CLASS
  1
ASAPP
  2
AcAsAppObject
  3
AutoSurfServices
 90
        0
280
     0
281
     0
  0
CLASS
  1
IM_STATIC_MAN
  2
AcImStaticVarManager
  3
AcMeServices
 90
    32768
280
     0
281
     0
  0
CLASS
  1
ACIMDBLSTATICVAR
  2
AcImDblStaticVar
  3
AcMeServices
 90
    32768
280
     0
281
     0
  0
CLASS
  1
ACIMSTRSTATICVAR
  2
AcImStrStaticVar
  3
AcMeServices
 90
    32768
280
     0
281
     0
  0
CLASS
  1
ACIMINTSTATICVAR
  2
AcImIntStaticVar
  3
AcMeServices
 90
    32768
280
     0
281
     0
  0
CLASS
  1
ACASGREFMASTER
  2
AcAsGrefMaster
  3
AutoSurfResolverServices
 90
        0
280
     0
281
     0
  0
CLASS
  1
ACADGREFMODULE
  2
AcAdGrefModule
  3
AdGrefServices
 90
        0
280
     0
281
     0
  0
CLASS
  1
AMDTMAPISURFMOUDULE
  2
AmdtMApiSurfModule
  3
MApiSurfServices
 90
        0
280
     0
281
     0
  0
CLASS
  1
MAPIADMODULE
  2
MApiAdModule
  3
MApiAdServices
 90
        0
280
     0
281
     0
  0
CLASS
  1
AMDTEDGESTANDARDISO13715
  2
AmdtEdgeStdISO13715
  3
"Amdt_StdImp|Product Description: AutoCAD Mechanical 2004 DX|Company: Autodesk"
 90
        0
280
     0
281
     0
  0
ENDSEC
  0
SECTION
  2
TABLES
  0
TABLE
  2
VPORT
  5
8
330
0
100
AcDbSymbolTable
 70
     4
  0
VPORT
  5
1696
330
8
100
AcDbSymbolTableRecord
100
AcDbViewportTableRecord
  2
*Active
 70
     0
 10
0.0
 20
0.0
 11
1.0
 21
1.0
 12
279.0856944176901
 22
279.9314847598789
 13
0.0
 23
0.0
 14
2.5
 24
2.5
 15
10.0
 25
10.0
 16
0.0
 26
0.0
 36
1.0
 17
0.0
 27
0.0
 37
0.0
 40
296.500341039184
 41
1.276881720430107
 42
50.0
 43
0.0
 44
0.0
 50
0.0
 51
0.0
 71
     0
 72
   100
 73
     1
 74
     3
 75
     0
 76
     0
 77
     0
 78
     0
281
     0
 65
     0
110
0.0
120
0.0
130
0.0
111
1.0
121
0.0
131
0.0
112
0.0
122
1.0
132
0.0
 79
     0
146
0.0
  0
ENDTAB
  0
TABLE
  2
LTYPE
  5
5
330
0
100
AcDbSymbolTable
 70
    16
  0
LTYPE
  5
14
330
5
100
AcDbSymbolTableRecord
100
AcDbLinetypeTableRecord
  2
ByBlock
 70
     0
  3

 72
    65
 73
     0
 40
0.0
  0
LTYPE
  5
15
330
5
100
AcDbSymbolTableRecord
100
AcDbLinetypeTableRecord
  2
ByLayer
 70
     0
  3

 72
    65
 73
     0
 40
0.0
  0
LTYPE
  5
16
330
5
100
AcDbSymbolTableRecord
100
AcDbLinetypeTableRecord
  2
Continuous
 70
     0
  3
Solid line
 72
    65
 73
     0
 40
0.0
  0
LTYPE
  5
64
330
5
100
AcDbSymbolTableRecord
100
AcDbLinetypeTableRecord
  2
AM_ISO02W050
 70
     0
  3
__ __ __ __ __ __ __ __ __ __ __ __ __ __ __
 72
    65
 73
     2
 40
7.5
 49
6.0
 74
     0
 49
-1.5
 74
     0
  0
LTYPE
  5
65
330
5
100
AcDbSymbolTableRecord
100
AcDbLinetypeTableRecord
  2
AM_ISO08W050
 70
     0
  3
____ . ____ . ____ . ____ . ____ . ____ . ____
 72
    65
 73
     4
 40
18.0
 49
12.0
 74
     0
 49
-1.5
 74
     0
 49
3.0
 74
     0
 49
-1.5
 74
     0
  0
LTYPE
  5
66
330
5
100
AcDbSymbolTableRecord
100
AcDbLinetypeTableRecord
  2
AM_ISO09W050
 70
     0
  3
_____ . . _____ . . _____ . . ____ .. ____
 72
    65
 73
     6
 40
22.5
 49
12.0
 74
     0
 49
-1.5
 74
     0
 49
3.0
 74
     0
 49
-1.5
 74
     0
 49
3.0
 74
     0
 49
-1.5
 74
     0
  0
LTYPE
  5
67
330
5
100
AcDbSymbolTableRecord
100
AcDbLinetypeTableRecord
  2
Amconstr
 70
     0
  3
_______________________
 72
    65
 73
     2
 40
9999.0
 49
9999.0
 74
     0
 49
0.0
 74
     0
  0
LTYPE
  5
68
330
5
100
AcDbSymbolTableRecord
100
AcDbLinetypeTableRecord
  2
AM_ISO08W050x2
 70
     0
  3
__ . __ . __ . __ . __ . __
 72
    65
 73
     4
 40
9.0
 49
6.0
 74
     0
 49
-0.75
 74
     0
 49
1.5
 74
     0
 49
-0.75
 74
     0
  0
LTYPE
  5
69
330
5
100
AcDbSymbolTableRecord
100
AcDbLinetypeTableRecord
  2
AM_ISO02W050x2
 70
     0
  3
 _ _ _ _ _ _ _ _ _ _ _ _
 72
    65
 73
     2
 40
3.75
 49
3.0
 74
     0
 49
-0.75
 74
     0
  0
LTYPE
  5
6C
330
5
100
AcDbSymbolTableRecord
100
AcDbLinetypeTableRecord
  2
Amzigzag
 70
     0
  3
/\/-/\/-/\/-/\/-/\/-/\/
 72
    65
 73
     2
 40
11.0001
 49
0.0001
 74
     4
 75
   135
340
6B
 46
0.04
 50
0.0
 44
0.0
 45
0.0
 49
-11.0
 74
     0
  0
LTYPE
  5
7A
330
5
100
AcDbSymbolTableRecord
100
AcDbLinetypeTableRecord
  2
ACISOWELD
 70
     0
  3
_ _ _ _ _
 72
    65
 73
     2
 40
2.0
 49
2.0
 74
     0
 49
-1.0
 74
     0
  0
LTYPE
  5
7B
330
5
100
AcDbSymbolTableRecord
100
AcDbLinetypeTableRecord
  2
ACISOTGB
 70
     0
  3
__ . . __ . .
 72
    65
 73
     6
 40
9.0
 49
4.0
 74
     0
 49
-1.0
 74
     0
 49
1.0
 74
     0
 49
-1.0
 74
     0
 49
1.0
 74
     0
 49
-1.0
 74
     0
  0
LTYPE
  5
7C
330
5
100
AcDbSymbolTableRecord
100
AcDbLinetypeTableRecord
  2
ACISOTGL
 70
     0
  3
_ _ _ _ _
 72
    65
 73
     2
 40
3.0
 49
2.0
 74
     0
 49
-1.0
 74
     0
  0
LTYPE
  5
7E
330
5
100
AcDbSymbolTableRecord
100
AcDbLinetypeTableRecord
  2
CENTER
 70
     0
  3
__ . __
 72
    65
 73
     4
 40
7.0
 49
4.0
 74
     0
 49
-1.0
 74
     0
 49
1.0
 74
     0
 49
-1.0
 74
     0
  0
LTYPE
  5
D8
330
5
100
AcDbSymbolTableRecord
100
AcDbLinetypeTableRecord
  2
HIDDEN
 70
     0
  3
Hidden __ __ __ __ __ __ __ __ __ __ __ __ __ _
 72
    65
 73
     2
 40
9.524999999999996
 49
6.349999999999998
 74
     0
 49
-3.174999999999998
 74
     0
  0
LTYPE
  5
D9
330
5
100
AcDbSymbolTableRecord
100
AcDbLinetypeTableRecord
  2
PHANTOM2
 70
     0
  3
Phantom (.5x) ___ _ _ ___ _ _ ___ _ _ ___ _ _
 72
    65
 73
     6
 40
31.75
 49
15.875
 74
     0
 49
-3.174999999999998
 74
     0
 49
3.174999999999998
 74
     0
 49
-3.174999999999998
 74
     0
 49
3.174999999999998
 74
     0
 49
-3.174999999999998
 74
     0
  0
LTYPE
  5
1146
330
5
100
AcDbSymbolTableRecord
100
AcDbLinetypeTableRecord
  2
ASULTYPE
 70
     0
  3
實線
 72
    65
 73
     2
 40
3.0
 49
2.5
 74
     0
 49
0.5
 74
     0
  0
LTYPE
  5
1147
330
5
100
AcDbSymbolTableRecord
100
AcDbLinetypeTableRecord
  2
ASVLTYPE
 70
     0
  3
__ __ __ __ __ __ __ __ __ __ __ __ __ __ __ __ __ __ __ __ __
 72
    65
 73
     2
 40
0.75
 49
0.5
 74
     0
 49
-0.25
 74
     0
  0
ENDTAB
  0
TABLE
  2
LAYER
  5
2
102
{ACAD_XDICTIONARY
360
3F9
102
}
330
0
100
AcDbSymbolTable
 70
    11
  0
LAYER
  5
10
330
2
100
AcDbSymbolTableRecord
100
AcDbLayerTableRecord
  2
0
 70
     0
 62
     7
  6
Continuous
370
    -3
390
F
  0
LAYER
  5
BCC
330
2
100
AcDbSymbolTableRecord
100
AcDbLayerTableRecord
  2
M_0
 70
     0
 62
     7
  6
Continuous
370
    -3
390
F
  0
LAYER
  5
BCD
330
2
100
AcDbSymbolTableRecord
100
AcDbLayerTableRecord
  2
AM_8
 70
     0
 62
     1
  6
Continuous
370
    25
390
F
  0
LAYER
  5
C06
330
2
100
AcDbSymbolTableRecord
100
AcDbLayerTableRecord
  2
AM_VIS
 70
     0
 62
     7
  6
Continuous
370
    50
390
F
  0
LAYER
  5
C07
330
2
100
AcDbSymbolTableRecord
100
AcDbLayerTableRecord
  2
AM_7
 70
     0
 62
     1
  6
CENTER
370
    25
390
F
  0
LAYER
  5
E37
330
2
100
AcDbSymbolTableRecord
100
AcDbLayerTableRecord
  2
AM_5
 70
     0
 62
     5
  6
Continuous
370
    50
390
F
  0
LAYER
  5
E41
330
2
100
AcDbSymbolTableRecord
100
AcDbLayerTableRecord
  2
AM_0
 70
     0
 62
     7
  6
Continuous
370
    50
390
F
  0
LAYER
  5
E66
330
2
100
AcDbSymbolTableRecord
100
AcDbLayerTableRecord
  2
AM_4
 70
     0
 62
   150
  6
Continuous
370
    25
390
F
  0
LAYER
  5
E9D
330
2
100
AcDbSymbolTableRecord
100
AcDbLayerTableRecord
  2
Defpoints
 70
     0
 62
     7
  6
Continuous
290
     0
370
    -3
390
F
  0
LAYER
  5
119D
330
2
100
AcDbSymbolTableRecord
100
AcDbLayerTableRecord
  2
底
 70
     0
 62
     6
  6
Continuous
370
    -3
390
F
1001
AcAecLayerStandard
1000

1000

  0
LAYER
  5
1479
330
2
100
AcDbSymbolTableRecord
100
AcDbLayerTableRecord
  2
LOGO
 70
     0
 62
     7
  6
Continuous
370
    -3
390
F
  0
ENDTAB
  0
TABLE
  2
STYLE
  5
3
330
0
100
AcDbSymbolTable
 70
     8
  0
STYLE
  5
11
330
3
100
AcDbSymbolTableRecord
100
AcDbTextStyleTableRecord
  2
STANDARD
 70
     0
 40
0.0
 41
1.0
 50
0.0
 71
     0
 42
3.0
  3
ISOCP.SHX
  4
CHINESET.SHX
  0
STYLE
  5
6B
330
3
100
AcDbSymbolTableRecord
100
AcDbTextStyleTableRecord
  2

 70
     1
 40
0.0
 41
1.0
 50
0.0
 71
     0
 42
2.5
  3
ltypeshp.shx
  4

  0
STYLE
  5
6D
330
3
100
AcDbSymbolTableRecord
100
AcDbTextStyleTableRecord
  2
ACISOTS
 70
     0
 40
1.0
 41
1.0
 50
0.0
 71
     0
 42
1.0
  3
isocp.shx
  4
chineset.shx
  0
STYLE
  5
79
330
3
100
AcDbSymbolTableRecord
100
AcDbTextStyleTableRecord
  2
ACISOGDT
 70
     0
 40
0.0
 41
1.0
 50
0.0
 71
     0
 42
2.5
  3
amgdt.shx
  4
chineset.shx
  0
STYLE
  5
BCE
330
3
100
AcDbSymbolTableRecord
100
AcDbTextStyleTableRecord
  2
ROMAND
 70
     0
 40
0.0
 41
1.0
 50
0.0
 71
     0
 42
6.0
  3
romand.shx
  4
chineset.shx
  0
STYLE
  5
BCF
330
3
100
AcDbSymbolTableRecord
100
AcDbTextStyleTableRecord
  2
DAYUS
 70
     0
 40
0.0
 41
1.0
 50
0.0
 71
     0
 42
2.5
  3
simplex
  4
dayus
  0
STYLE
  5
BD0
330
3
100
AcDbSymbolTableRecord
100
AcDbTextStyleTableRecord
  2
新細明體
 70
     0
 40
0.0
 41
1.0
 50
0.0
 71
     0
 42
2.5
  3
PMingLiU.ttf
  4

1001
ACAD
1000
PMingLiU
1071
    34834
  0
STYLE
  5
147A
330
3
100
AcDbSymbolTableRecord
100
AcDbTextStyleTableRecord
  2
CHINESET
 70
     0
 40
0.0
 41
0.75
 50
0.0
 71
     0
 42
3.0
  3
simplex.shx
  4
CHINESET.SHX
  0
ENDTAB
  0
TABLE
  2
VIEW
  5
6
330
0
100
AcDbSymbolTable
 70
     0
  0
ENDTAB
  0
TABLE
  2
UCS
  5
7
330
0
100
AcDbSymbolTable
 70
     0
  0
ENDTAB
  0
TABLE
  2
APPID
  5
9
330
0
100
AcDbSymbolTable
 70
    32
  0
APPID
  5
12
330
9
100
AcDbSymbolTableRecord
100
AcDbRegAppTableRecord
  2
ACAD
 70
     0
  0
APPID
  5
46
330
9
100
AcDbSymbolTableRecord
100
AcDbRegAppTableRecord
  2
MCAD_NO_VIS
 70
     0
  0
APPID
  5
47
330
9
100
AcDbSymbolTableRecord
100
AcDbRegAppTableRecord
  2
ACAD_TEMP_GRAPHIC
 70
     0
  0
APPID
  5
58
330
9
100
AcDbSymbolTableRecord
100
AcDbRegAppTableRecord
  2
ACATTRIBSERVICES
 70
     0
  0
APPID
  5
EE
330
9
100
AcDbSymbolTableRecord
100
AcDbRegAppTableRecord
  2
AD_DRAW
 70
     0
  0
APPID
  5
10C
330
9
100
AcDbSymbolTableRecord
100
AcDbRegAppTableRecord
  2
DESIGNERASSEMBLIES
 70
     0
  0
APPID
  5
111
330
9
100
AcDbSymbolTableRecord
100
AcDbRegAppTableRecord
  2
ACADM_DIM_EDIT
 70
     0
  0
APPID
  5
112
330
9
100
AcDbSymbolTableRecord
100
AcDbRegAppTableRecord
  2
AMDT_DM_ADJ
 70
     0
  0
APPID
  5
22C
330
9
100
AcDbSymbolTableRecord
100
AcDbRegAppTableRecord
  2
ACAD_DSTYLE_DIMTEXT_FILL
 70
     0
  0
APPID
  5
452
330
9
100
AcDbSymbolTableRecord
100
AcDbRegAppTableRecord
  2
GENIUS_GENOENT_13
 70
     0
  0
APPID
  5
453
330
9
100
AcDbSymbolTableRecord
100
AcDbRegAppTableRecord
  2
GENIUS_GENOBJ-N-CRS_13
 70
     0
  0
APPID
  5
454
330
9
100
AcDbSymbolTableRecord
100
AcDbRegAppTableRecord
  2
GENIUS_GENOLIS_13
 70
     0
  0
APPID
  5
455
330
9
100
AcDbSymbolTableRecord
100
AcDbRegAppTableRecord
  2
GENIUS_GENODEF_13
 70
     0
  0
APPID
  5
456
330
9
100
AcDbSymbolTableRecord
100
AcDbRegAppTableRecord
  2
GENIUS_GENOREF_13
 70
     0
  0
APPID
  5
6F3
330
9
100
AcDbSymbolTableRecord
100
AcDbRegAppTableRecord
  2
ACAD_PSEXT
 70
     0
  0
APPID
  5
808
330
9
100
AcDbSymbolTableRecord
100
AcDbRegAppTableRecord
  2
GENIUS_GENDTOL_13
 70
     0
  0
APPID
  5
BD1
330
9
100
AcDbSymbolTableRecord
100
AcDbRegAppTableRecord
  2
GENIUS_GENOBJ-N-HTC_13
 70
     0
  0
APPID
  5
BD2
330
9
100
AcDbSymbolTableRecord
100
AcDbRegAppTableRecord
  2
GENIUS_GENHATCH_13
 70
     0
  0
APPID
  5
E48
330
9
100
AcDbSymbolTableRecord
100
AcDbRegAppTableRecord
  2
GEVID1203295366
 70
     0
  0
APPID
  5
E49
330
9
100
AcDbSymbolTableRecord
100
AcDbRegAppTableRecord
  2
GEVDC
 70
     0
  0
APPID
  5
E52
330
9
100
AcDbSymbolTableRecord
100
AcDbRegAppTableRecord
  2
AMG_2DHIDE
 70
     0
  0
APPID
  5
E53
330
9
100
AcDbSymbolTableRecord
100
AcDbRegAppTableRecord
  2
AMG_2DSTRUCT_BTR
 70
     0
  0
APPID
  5
E64
330
9
100
AcDbSymbolTableRecord
100
AcDbRegAppTableRecord
  2
ACADM_2DVIEW_IGN_NOTIFY
 70
     0
  0
APPID
  5
E89
330
9
100
AcDbSymbolTableRecord
100
AcDbRegAppTableRecord
  2
GENIUS_GENOBJ-N-CEN_13
 70
     0
  0
APPID
  5
E8A
330
9
100
AcDbSymbolTableRecord
100
AcDbRegAppTableRecord
  2
GENIUS_GENCEN_19
 70
     0
  0
APPID
  5
10F5
330
9
100
AcDbSymbolTableRecord
100
AcDbRegAppTableRecord
  2
GENIUS_GENDIM_13
 70
     0
  0
APPID
  5
10F6
330
9
100
AcDbSymbolTableRecord
100
AcDbRegAppTableRecord
  2
GENIUS_GE3DTOL_13
 70
     0
  0
APPID
  5
1148
330
9
100
AcDbSymbolTableRecord
100
AcDbRegAppTableRecord
  2
ASURF_PCURVE_APPNAME
 70
     0
  0
APPID
  5
114C
330
9
100
AcDbSymbolTableRecord
100
AcDbRegAppTableRecord
  2
AMG_3D2D_5.0
 70
     0
  0
APPID
  5
119E
330
9
100
AcDbSymbolTableRecord
100
AcDbRegAppTableRecord
  2
AcAecLayerStandard
 70
     0
  0
APPID
  5
147B
330
9
100
AcDbSymbolTableRecord
100
AcDbRegAppTableRecord
  2
GENIUS_GENREC_14
 70
     0
  0
APPID
  5
147C
330
9
100
AcDbSymbolTableRecord
100
AcDbRegAppTableRecord
  2
GENIUS_GENOBJ-N-REC_13
 70
     0
  0
ENDTAB
  0
TABLE
  2
DIMSTYLE
  5
A
330
0
100
AcDbSymbolTable
 70
     8
100
AcDbDimStyleTable
 71
     3
340
81
340
8B
340
86
  0
DIMSTYLE
105
81
102
{ACAD_REACTORS
330
F43
102
}
330
A
100
AcDbSymbolTableRecord
100
AcDbDimStyleTableRecord
  2
AM_ISO
 70
     0
  4
"
 40
2.0
 41
3.0
 42
1.5
 43
15.0
 44
1.5
 47
0.1
 48
0.1
 73
     0
 74
     0
 77
     1
 78
     8
 79
     2
140
3.5
141
0.0
143
0.0393701
146
0.6
147
1.0
172
     1
176
   256
177
   256
178
   256
271
     2
272
     2
283
     0
284
     8
340
11
371
    -1
372
    -1
  0
DIMSTYLE
105
82
330
A
100
AcDbSymbolTableRecord
100
AcDbDimStyleTableRecord
  2
AM_ISO$3
 70
     0
  4
"
 40
2.0
 41
3.0
 42
1.5
 43
15.0
 44
1.5
 47
0.1
 48
0.1
 73
     0
 77
     1
 78
     8
 79
     2
140
3.5
141
0.0
143
0.0393701
146
0.6
147
1.0
176
   256
177
   256
178
   256
271
     2
272
     2
283
     0
284
     8
288
     1
289
     0
340
11
371
    -1
372
    -1
  0
DIMSTYLE
105
83
330
A
100
AcDbSymbolTableRecord
100
AcDbDimStyleTableRecord
  2
AM_ISO$4
 70
     0
  4
"
 40
2.0
 41
3.0
 42
1.5
 43
15.0
 44
1.5
 47
0.1
 48
0.1
 73
     0
 77
     1
 78
     8
 79
     2
140
3.5
141
0.0
143
0.0393701
146
0.6
147
1.0
176
   256
177
   256
178
   256
271
     2
272
     2
283
     0
284
     8
288
     1
289
     0
340
11
371
    -1
372
    -1
  0
DIMSTYLE
105
84
330
A
100
AcDbSymbolTableRecord
100
AcDbDimStyleTableRecord
  2
AM_ISO$6
 70
     0
  4
"
 40
2.0
 41
3.0
 42
1.5
 43
15.0
 44
1.5
 47
0.1
 48
0.1
 73
     0
 74
     0
 78
     8
 79
     2
140
3.5
141
0.0
143
0.0393701
146
0.6
147
1.0
172
     1
176
   256
177
   256
178
   256
271
     2
272
     2
283
     0
284
     8
340
11
371
    -1
372
    -1
  0
DIMSTYLE
105
85
330
A
100
AcDbSymbolTableRecord
100
AcDbDimStyleTableRecord
  2
AM_ISO$7
 70
     0
  4
"
 40
2.0
 41
3.0
 42
1.5
 43
15.0
 44
1.5
 47
0.1
 48
0.1
 73
     0
 74
     0
 77
     1
 78
     8
 79
     2
140
5.0
141
0.0
143
0.0393701
146
0.6
147
1.0
172
     1
176
   256
177
   256
178
   256
271
     2
272
     2
283
     0
284
     8
340
11
371
    -1
372
    -1
  0
DIMSTYLE
105
86
330
A
100
AcDbSymbolTableRecord
100
AcDbDimStyleTableRecord
  2
AM_ISO$SF
 70
     0
  4
"
 41
2.5
 42
1.0
 43
10.0
 44
1.0
 47
0.1
 48
0.1
 73
     0
 74
     0
 75
     1
 76
     1
 77
     1
 78
     8
 79
     2
140
3.5
141
0.0
143
0.0393701
146
0.71
147
1.5
172
     1
176
   256
177
   256
178
     2
271
     2
272
     3
274
     4
283
     0
284
     8
340
11
371
    -1
372
    -1
  0
DIMSTYLE
105
8B
330
A
100
AcDbSymbolTableRecord
100
AcDbDimStyleTableRecord
  2
AM_ISO$SH
 70
     0
  4
"
 41
2.5
 42
1.0
 43
10.0
 44
1.0
 47
0.1
 48
0.1
 73
     0
 74
     0
 75
     1
 76
     1
 77
     1
 78
     8
 79
     2
140
3.5
141
0.0
143
0.0393701
144
2.0
146
0.71
147
1.5
172
     1
173
     1
176
   256
177
   256
178
     2
271
     2
272
     3
274
     4
283
     0
284
     8
340
11
343
87
371
    -1
372
    -1
  0
DIMSTYLE
105
40B
102
{ACAD_REACTORS
330
E9C
330
ECD
330
EF3
330
F19
102
}
330
A
100
AcDbSymbolTableRecord
100
AcDbDimStyleTableRecord
  2
AM_ISO$0
 70
     0
  4
"
 40
2.0
 41
3.0
 42
1.5
 43
15.0
 44
1.5
 47
0.1
 48
0.1
 73
     0
 74
     0
 77
     1
 78
     8
 79
     2
140
3.5
141
0.0
143
0.0393701
146
0.6
147
1.0
172
     1
176
   256
177
   256
178
   256
271
     2
272
     2
283
     0
284
     8
340
11
371
    -1
372
    -1
  0
ENDTAB
  0
TABLE
  2
BLOCK_RECORD
  5
1
330
0
100
AcDbSymbolTable
 70
    14
  0
BLOCK_RECORD
  5
1F
102
{ACAD_XDICTIONARY
360
8F
102
}
330
1
100
AcDbSymbolTableRecord
100
AcDbBlockTableRecord
  2
*Model_Space
340
22
  0
BLOCK_RECORD
  5
1B
330
1
100
AcDbSymbolTableRecord
100
AcDbBlockTableRecord
  2
*Paper_Space
340
1E
  0
BLOCK_RECORD
  5
23
330
1
100
AcDbSymbolTableRecord
100
AcDbBlockTableRecord
  2
*Paper_Space0
340
26
  0
BLOCK_RECORD
  5
87
330
1
100
AcDbSymbolTableRecord
100
AcDbBlockTableRecord
  2
GENAXEH
340
0
  0
BLOCK_RECORD
  5
ACA
330
1
100
AcDbSymbolTableRecord
100
AcDbBlockTableRecord
  2
A$C09F21E84
340
0
  0
BLOCK_RECORD
  5
B2D
330
1
100
AcDbSymbolTableRecord
100
AcDbBlockTableRecord
  2
A$C0AED3F82
340
0
  0
BLOCK_RECORD
  5
B52
330
1
100
AcDbSymbolTableRecord
100
AcDbBlockTableRecord
  2
A$C3F2B26CD
340
0
102
{BLKREFS
331
BCA
102
}
  0
BLOCK_RECORD
  5
BC8
330
1
100
AcDbSymbolTableRecord
100
AcDbBlockTableRecord
  2
A$C1730210C
340
0
  0
BLOCK_RECORD
  5
E69
330
1
100
AcDbSymbolTableRecord
100
AcDbBlockTableRecord
  2
*U6
340
0
  0
BLOCK_RECORD
  5
E9E
330
1
100
AcDbSymbolTableRecord
100
AcDbBlockTableRecord
  2
*D7
340
0
  0
BLOCK_RECORD
  5
ECE
330
1
100
AcDbSymbolTableRecord
100
AcDbBlockTableRecord
  2
*D8
340
0
  0
BLOCK_RECORD
  5
EF4
330
1
100
AcDbSymbolTableRecord
100
AcDbBlockTableRecord
  2
*D9
340
0
  0
BLOCK_RECORD
  5
F1A
330
1
100
AcDbSymbolTableRecord
100
AcDbBlockTableRecord
  2
*D10
340
0
  0
BLOCK_RECORD
  5
F44
330
1
100
AcDbSymbolTableRecord
100
AcDbBlockTableRecord
  2
*D11
340
0
  0
BLOCK_RECORD
  5
15FB
330
1
100
AcDbSymbolTableRecord
100
AcDbBlockTableRecord
  2
*S1812
340
0
102
{BLKREFS
331
FE2
102
}
  0
ENDTAB
  0
ENDSEC
  0
SECTION
  2
BLOCKS
  0
BLOCK
  5
20
330
1F
100
AcDbEntity
  8
0
100
AcDbBlockBegin
  2
*Model_Space
 70
     0
 10
0.0
 20
0.0
 30
0.0
  3
*Model_Space
  1

  0
ENDBLK
  5
21
330
1F
100
AcDbEntity
  8
0
100
AcDbBlockEnd
  0
BLOCK
  5
1C
330
1B
100
AcDbEntity
 67
     1
  8
0
100
AcDbBlockBegin
  2
*Paper_Space
 70
     0
 10
0.0
 20
0.0
 30
0.0
  3
*Paper_Space
  1

  0
ENDBLK
  5
1D
330
1B
100
AcDbEntity
 67
     1
  8
0
100
AcDbBlockEnd
  0
BLOCK
  5
24
330
23
100
AcDbEntity
  8
0
100
AcDbBlockBegin
  2
*Paper_Space0
 70
     0
 10
0.0
 20
0.0
 30
0.0
  3
*Paper_Space0
  1

  0
ENDBLK
  5
25
330
23
100
AcDbEntity
  8
0
100
AcDbBlockEnd
  0
BLOCK
  5
89
330
87
100
AcDbEntity
  8
0
100
AcDbBlockBegin
  2
GENAXEH
 70
     0
 10
0.0
 20
0.0
 30
0.0
  3
GENAXEH
  1

  0
LINE
  5
88
330
87
100
AcDbEntity
  8
0
100
AcDbLine
 10
-1.0
 20
0.0
 30
0.0
 11
1.0
 21
0.0
 31
0.0
  0
ENDBLK
  5
8A
330
87
100
AcDbEntity
  8
0
100
AcDbBlockEnd
  0
BLOCK
  5
ACB
330
ACA
100
AcDbEntity
  8
0
100
AcDbBlockBegin
  2
A$C09F21E84
 70
     0
 10
0.0
 20
0.0
 30
0.0
  3
A$C09F21E84
  1

  0
LWPOLYLINE
  5
ACC
330
ACA
100
AcDbEntity
  8
M_0
 62
     5
100
AcDbPolyline
 90
        2
 70
     0
 43
0.999999
 10
12.48259795562535
 20
2.999997438803147
 42
-1.0
 10
15.48259495562524
 20
2.999997438803147
 42
-0.0000000000000001
  0
ARC
  5
ACD
330
ACA
100
AcDbEntity
  8
M_0
 62
     5
100
AcDbCircle
 10
13.9825964556253
 20
2.999997438803177
 30
0.0
 40
1.999997999999999
100
AcDbArc
 50
0.0
 51
120.0000000000009
  0
ARC
  5
ACE
330
ACA
100
AcDbEntity
  8
M_0
 62
     5
100
AcDbCircle
 10
13.9825964556253
 20
2.999997438803177
 30
0.0
 40
0.999999
100
AcDbArc
 50
0.0
 51
180.0
  0
LINE
  5
ACF
330
ACA
100
AcDbEntity
  8
M_0
 62
     5
100
AcDbLine
 10
9.815900622325216
 20
5.69999473880307
 30
0.0
 11
9.815900622325216
 21
6.499993938803157
 31
0.0
  0
LINE
  5
AD0
330
ACA
100
AcDbEntity
  8
M_0
 62
     5
100
AcDbLine
 10
10.8158996223251
 20
5.69999473880307
 30
0.0
 11
10.8158996223251
 21
6.499993938803157
 31
0.0
  0
SOLID
  5
AD1
330
ACA
100
AcDbEntity
  8
M_0
 62
     5
100
AcDbTrace
 10
10.8158996223251
 20
6.499993938803157
 30
0.0
 11
10.8158996223251
 21
5.69999473880307
 31
0.0
 12
9.815900622325216
 22
6.499993938803157
 32
0.0
 13
9.815900622325216
 23
5.69999473880307
 33
0.0
  0
SOLID
  5
AD2
330
ACA
100
AcDbEntity
  8
M_0
 62
     5
100
AcDbTrace
 10
7.632147306527485
 20
4.999995438803153
 30
0.0
 11
7.632147306527485
 21
3.689750937042731
 31
0.0
 12
3.816073288825236
 22
0.0000004388031698
 32
0.0
 13
4.816072288825124
 23
0.0000004388031698
 33
0.0
  0
LINE
  5
AD3
330
ACA
100
AcDbEntity
  8
M_0
 62
     5
100
AcDbLine
 10
4.816072288825124
 20
0.0000004388031698
 30
0.0
 11
7.632147306527485
 21
3.689750937042731
 31
0.0
  0
LINE
  5
AD4
330
ACA
100
AcDbEntity
  8
M_0
 62
     5
100
AcDbLine
 10
4.816072288825124
 20
1.310244940563507
 30
0.0
 11
7.632147306527485
 21
4.999995438803153
 31
0.0
  0
SOLID
  5
AD5
330
ACA
100
AcDbEntity
  8
M_0
 62
     5
100
AcDbTrace
 10
4.816072288825124
 20
4.999995438803238
 30
0.0
 11
4.816072288825124
 21
1.310244940563507
 31
0.0
 12
3.816073288825236
 22
4.999995438803238
 32
0.0
 13
3.816073288825236
 23
0.0000004388031698
 33
0.0
  0
LINE
  5
AD6
330
ACA
100
AcDbEntity
  8
M_0
 62
     5
100
AcDbLine
 10
3.816073288825236
 20
0.0000004388031698
 30
0.0
 11
3.816073288825236
 21
3.689750937042731
 31
0.0
  0
LINE
  5
AD7
330
ACA
100
AcDbEntity
  8
M_0
 62
     5
100
AcDbLine
 10
4.816072288825124
 20
4.999995438803238
 30
0.0
 11
4.816072288825124
 21
1.310244940563507
 31
0.0
  0
LINE
  5
AD8
330
ACA
100
AcDbEntity
  8
M_0
 62
     5
100
AcDbLine
 10
3.816073288825236
 20
0.0000004388031698
 30
0.0
 11
4.816072288825124
 21
0.0000004388031698
 31
0.0
  0
LINE
  5
AD9
330
ACA
100
AcDbEntity
  8
M_0
 62
     5
100
AcDbLine
 10
3.816073288825236
 20
4.999995438803238
 30
0.0
 11
4.816072288825124
 21
4.999995438803238
 31
0.0
  0
LINE
  5
ADA
330
ACA
100
AcDbEntity
  8
M_0
 62
     5
100
AcDbLine
 10
-0.0000007288765573
 20
0.0000004388031698
 30
0.0
 11
0.9999982711233316
 21
0.0000004388031698
 31
0.0
  0
LINE
  5
ADB
330
ACA
100
AcDbEntity
  8
M_0
 62
     5
100
AcDbLine
 10
0.9999982711233316
 20
0.0000004388031698
 30
0.0
 11
3.816073288825236
 21
3.689750937042731
 31
0.0
  0
LINE
  5
ADC
330
ACA
100
AcDbEntity
  8
M_0
 62
     5
100
AcDbLine
 10
-0.0000007288765573
 20
0.0000004388031698
 30
0.0
 11
3.816073288825236
 21
4.999995438803153
 31
0.0
  0
SOLID
  5
ADD
330
ACA
100
AcDbEntity
  8
M_0
 62
     5
100
AcDbTrace
 10
3.816073288825236
 20
4.999995438803238
 30
0.0
 11
3.816073288825236
 21
3.689750937042731
 31
0.0
 12
-0.0000007288765573
 22
0.0000004388031698
 32
0.0
 13
0.9999982711233316
 23
0.0000004388031698
 33
0.0
  0
LWPOLYLINE
  5
ADE
330
ACA
100
AcDbEntity
  8
M_0
 62
     5
100
AcDbPolyline
 90
        2
 70
     0
 43
0.999999
 10
12.48259795562535
 20
0.0000004388032835
 10
12.48259795562535
 20
4.999995438803266
  0
LINE
  5
ADF
330
ACA
100
AcDbEntity
  8
M_0
 62
     5
100
AcDbLine
 10
9.815900622325216
 20
0.0000004388030277
 30
0.0
 11
9.815900622325216
 21
4.999995438803153
 31
0.0
  0
LINE
  5
AE0
330
ACA
100
AcDbEntity
  8
M_0
 62
     5
100
AcDbLine
 10
10.8158996223251
 20
0.0000004388030277
 30
0.0
 11
10.8158996223251
 21
4.999995438803153
 31
0.0
  0
LINE
  5
AE1
330
ACA
100
AcDbEntity
  8
M_0
 62
     5
100
AcDbLine
 10
11.98259845562529
 20
0.0000004388031698
 30
0.0
 11
11.98259845562529
 21
4.999995438803238
 31
0.0
  0
SOLID
  5
AE2
330
ACA
100
AcDbEntity
  8
M_0
 62
     5
100
AcDbTrace
 10
10.8158996223251
 20
4.999995438803153
 30
0.0
 11
10.8158996223251
 21
0.0000004388031698
 31
0.0
 12
9.815900622325216
 22
4.999995438803153
 32
0.0
 13
9.815900622325216
 23
0.0000004388031698
 33
0.0
  0
LINE
  5
AE3
330
ACA
100
AcDbEntity
  8
M_0
 62
     5
100
AcDbLine
 10
12.98259745562541
 20
0.0000004388031698
 30
0.0
 11
12.98259745562541
 21
2.999997438803177
 31
0.0
  0
LINE
  5
AE4
330
ACA
100
AcDbEntity
  8
M_0
 62
     5
100
AcDbLine
 10
11.98259845562529
 20
0.0000004388032551
 30
0.0
 11
12.98259745562541
 21
0.0000004388032551
 31
0.0
  0
LINE
  5
AE5
330
ACA
100
AcDbEntity
  8
M_0
 62
     5
100
AcDbLine
 10
9.815900622325216
 20
0.0000004388031698
 30
0.0
 11
10.8158996223251
 21
0.0000004388031698
 31
0.0
  0
LINE
  5
AE6
330
ACA
100
AcDbEntity
  8
M_0
 62
     5
100
AcDbLine
 10
11.98259845562529
 20
4.999995438803238
 30
0.0
 11
12.98259745562541
 21
4.999995438803238
 31
0.0
  0
LINE
  5
AE7
330
ACA
100
AcDbEntity
  8
M_0
 62
     5
100
AcDbLine
 10
12.98259745562541
 20
2.999997438803177
 30
0.0
 11
11.98259845562529
 21
2.999997438803177
 31
0.0
  0
LINE
  5
AE8
330
ACA
100
AcDbEntity
  8
M_0
 62
     5
100
AcDbLine
 10
9.815900622325216
 20
4.999995438803153
 30
0.0
 11
10.8158996223251
 21
4.999995438803153
 31
0.0
  0
LINE
  5
AE9
330
ACA
100
AcDbEntity
  8
M_0
 62
     5
100
AcDbLine
 10
9.815900622325216
 20
5.69999473880307
 30
0.0
 11
10.8158996223251
 21
5.69999473880307
 31
0.0
  0
LINE
  5
AEA
330
ACA
100
AcDbEntity
  8
M_0
 62
     5
100
AcDbLine
 10
12.98259745562541
 20
4.732046514320983
 30
0.0
 11
12.98259745562541
 21
4.999995438803238
 31
0.0
  0
LINE
  5
AEB
330
ACA
100
AcDbEntity
  8
M_0
 62
     5
100
AcDbLine
 10
7.632147306527485
 20
0.0000004388031698
 30
0.0
 11
7.632147306527485
 21
3.689750937042731
 31
0.0
  0
LINE
  5
AEC
330
ACA
100
AcDbEntity
  8
M_0
 62
     5
100
AcDbLine
 10
8.632146306527602
 20
0.0000004388031698
 30
0.0
 11
8.632146306527602
 21
4.999995438803153
 31
0.0
  0
SOLID
  5
AED
330
ACA
100
AcDbEntity
  8
M_0
 62
     5
100
AcDbTrace
 10
8.632146306527602
 20
4.999995438803153
 30
0.0
 11
8.632146306527602
 21
0.0000004388031698
 31
0.0
 12
7.632147306527485
 22
4.999995438803153
 32
0.0
 13
7.632147306527485
 23
0.0000004388031698
 33
0.0
  0
LINE
  5
AEE
330
ACA
100
AcDbEntity
  8
M_0
 62
     5
100
AcDbLine
 10
7.632147306527485
 20
0.0000004388031698
 30
0.0
 11
8.632146306527602
 21
0.0000004388031698
 31
0.0
  0
LINE
  5
AEF
330
ACA
100
AcDbEntity
  8
M_0
 62
     5
100
AcDbLine
 10
7.632147306527485
 20
4.999995438803153
 30
0.0
 11
8.632146306527602
 21
4.999995438803153
 31
0.0
  0
LINE
  5
AF0
330
ACA
100
AcDbEntity
  8
M_0
 62
     5
100
AcDbLine
 10
9.815900622325216
 20
6.499993938803157
 30
0.0
 11
10.8158996223251
 21
6.499993938803157
 31
0.0
  0
ARC
  5
AF1
330
ACA
100
AcDbEntity
  8
M_0
 62
     5
100
AcDbCircle
 10
33.98277645542544
 20
2.499997938803175
 30
0.0
 40
2.499997499999999
100
AcDbArc
 50
53.13296708943612
 51
306.8670329105639
  0
LWPOLYLINE
  5
AF2
330
ACA
100
AcDbEntity
  8
M_0
 62
     5
100
AcDbPolyline
 90
        2
 70
     1
 43
0.999999
 10
31.98277845542566
 20
2.499997938803147
 42
1.0
 10
35.98277445542567
 20
2.499997938803147
 42
1.0
  0
CIRCLE
  5
AF3
330
ACA
100
AcDbEntity
  8
M_0
 62
     5
100
AcDbCircle
 10
33.98277645542544
 20
2.499997938803175
 30
0.0
 40
1.4999985
  0
LINE
  5
AF4
330
ACA
100
AcDbEntity
  8
M_0
 62
     5
100
AcDbLine
 10
22.14928828892562
 20
0.0000004388031698
 30
0.0
 11
22.14928828892562
 21
6.499993938803157
 31
0.0
  0
LWPOLYLINE
  5
AF5
330
ACA
100
AcDbEntity
  8
M_0
 62
     5
100
AcDbPolyline
 90
        2
 70
     0
 43
0.999999
 10
21.64928878892533
 20
0.0000004388031698
 10
21.64928878892533
 20
6.499993938803157
  0
LINE
  5
AF6
330
ACA
100
AcDbEntity
  8
M_0
 62
     5
100
AcDbLine
 10
21.14928928892573
 20
4.500070934823241
 30
0.0
 11
21.14928928892573
 21
6.499993938803157
 31
0.0
  0
LWPOLYLINE
  5
AF7
330
ACA
100
AcDbEntity
  8
M_0
 62
     5
100
AcDbPolyline
 90
        2
 70
     0
 43
0.999999
 10
23.81598662222541
 20
0.0000004388031698
 10
23.81598662222541
 20
4.999995438803153
  0
LINE
  5
AF8
330
ACA
100
AcDbEntity
  8
M_0
 62
     5
100
AcDbLine
 10
23.31598712222558
 20
0.0000004388031698
 30
0.0
 11
24.31598612222547
 21
0.0000004388031698
 31
0.0
  0
LINE
  5
AF9
330
ACA
100
AcDbEntity
  8
M_0
 62
     5
100
AcDbLine
 10
23.31598712222558
 20
4.999995438803153
 30
0.0
 11
24.31598612222547
 21
4.999995438803153
 31
0.0
  0
LINE
  5
AFA
330
ACA
100
AcDbEntity
  8
M_0
 62
     5
100
AcDbLine
 10
23.31598712222558
 20
2.999997438803006
 30
0.0
 11
24.31598612222547
 21
2.999997438803006
 31
0.0
  0
LWPOLYLINE
  5
AFB
330
ACA
100
AcDbEntity
  8
M_0
 62
     5
100
AcDbPolyline
 90
        2
 70
     0
 43
0.999999
 10
26.8159836222253
 20
2.999997438803034
 42
1.0
 10
23.81598662222541
 20
2.999997438803034
 42
1.0
  0
LINE
  5
AFC
330
ACA
100
AcDbEntity
  8
M_0
 62
     5
100
AcDbLine
 10
23.31598712222558
 20
0.0000004388031698
 30
0.0
 11
23.31598712222558
 21
4.999995438803153
 31
0.0
  0
ARC
  5
AFD
330
ACA
100
AcDbEntity
  8
M_0
 62
     5
100
AcDbCircle
 10
19.64939078882526
 20
2.499997938803175
 30
0.0
 40
2.499997499999999
100
AcDbArc
 50
53.13296708943612
 51
306.8670329105639
  0
LWPOLYLINE
  5
AFE
330
ACA
100
AcDbEntity
  8
M_0
 62
     5
100
AcDbPolyline
 90
        2
 70
     1
 43
0.999999
 10
17.64939278882548
 20
2.499997938803147
 42
1.0
 10
21.64938878882549
 20
2.499997938803147
 42
1.0
  0
CIRCLE
  5
AFF
330
ACA
100
AcDbEntity
  8
M_0
 62
     5
100
AcDbCircle
 10
19.64939078882526
 20
2.499997938803175
 30
0.0
 40
1.4999985
  0
LINE
  5
B00
330
ACA
100
AcDbEntity
  8
M_0
 62
     5
100
AcDbLine
 10
21.14928928892573
 20
0.0000004388031698
 30
0.0
 11
21.14928928892573
 21
0.4999249427829966
 31
0.0
  0
LINE
  5
B01
330
ACA
100
AcDbEntity
  8
M_0
 62
     5
100
AcDbLine
 10
21.14928928892573
 20
0.0000004388031698
 30
0.0
 11
22.14928828892562
 21
0.0000004388031698
 31
0.0
  0
LINE
  5
B02
330
ACA
100
AcDbEntity
  8
M_0
 62
     5
100
AcDbLine
 10
14.98259545562541
 20
0.0000004388031698
 30
0.0
 11
14.98259545562541
 21
2.999997438803177
 31
0.0
  0
LINE
  5
B03
330
ACA
100
AcDbEntity
  8
M_0
 62
     5
100
AcDbLine
 10
15.9825944556253
 20
0.0000004388031698
 30
0.0
 11
15.9825944556253
 21
2.999997438803177
 31
0.0
  0
LWPOLYLINE
  5
B04
330
ACA
100
AcDbEntity
  8
M_0
 62
     5
100
AcDbPolyline
 90
        2
 70
     0
 43
0.999999
 10
15.48259495562524
 20
2.999997438803147
 10
15.48259495562524
 20
0.0000004388031698
  0
LINE
  5
B05
330
ACA
100
AcDbEntity
  8
M_0
 62
     5
100
AcDbLine
 10
14.98259545562541
 20
0.0000004388031698
 30
0.0
 11
15.9825944556253
 21
0.0000004388031698
 31
0.0
  0
LINE
  5
B06
330
ACA
100
AcDbEntity
  8
M_0
 62
     5
100
AcDbLine
 10
15.9825944556253
 20
2.999997438803177
 30
0.0
 11
14.98259545562541
 21
2.999997438803177
 31
0.0
  0
LINE
  5
B07
330
ACA
100
AcDbEntity
  8
M_0
 62
     5
100
AcDbLine
 10
30.31598012222548
 20
0.0000004388030277
 30
0.0
 11
30.31598012222548
 21
2.999997438803006
 31
0.0
  0
LINE
  5
B08
330
ACA
100
AcDbEntity
  8
M_0
 62
     5
100
AcDbLine
 10
29.31598112222537
 20
0.0000004388030277
 30
0.0
 11
29.31598112222537
 21
2.999997438803006
 31
0.0
  0
LWPOLYLINE
  5
B09
330
ACA
100
AcDbEntity
  8
M_0
 62
     5
100
AcDbPolyline
 90
        2
 70
     0
 43
0.999999
 10
29.81598062222543
 20
0.0000004388030561
 10
29.81598062222543
 20
2.999997438803034
  0
LWPOLYLINE
  5
B0A
330
ACA
100
AcDbEntity
  8
M_0
 62
     5
100
AcDbPolyline
 90
        2
 70
     0
 43
0.999999
 10
26.8159836222253
 20
0.0000004388031698
 10
26.8159836222253
 20
2.999997438803034
  0
LINE
  5
B0B
330
ACA
100
AcDbEntity
  8
M_0
 62
     5
100
AcDbLine
 10
26.31598412222547
 20
0.0000004388031698
 30
0.0
 11
26.31598412222547
 21
2.999997438803006
 31
0.0
  0
LINE
  5
B0C
330
ACA
100
AcDbEntity
  8
M_0
 62
     5
100
AcDbLine
 10
27.31598312222536
 20
0.0000004388031698
 30
0.0
 11
27.31598312222536
 21
2.999997438803006
 31
0.0
  0
LINE
  5
B0D
330
ACA
100
AcDbEntity
  8
M_0
 62
     5
100
AcDbLine
 10
24.31598612222547
 20
0.0000004388031698
 30
0.0
 11
24.31598612222547
 21
2.999997438803006
 31
0.0
  0
LINE
  5
B0E
330
ACA
100
AcDbEntity
  8
M_0
 62
     5
100
AcDbLine
 10
29.31598112222537
 20
0.0000004388030277
 30
0.0
 11
30.31598012222548
 21
0.0000004388030277
 31
0.0
  0
LINE
  5
B0F
330
ACA
100
AcDbEntity
  8
M_0
 62
     5
100
AcDbLine
 10
26.31598412222547
 20
0.0000004388031698
 30
0.0
 11
27.31598312222536
 21
0.0000004388031698
 31
0.0
  0
LINE
  5
B10
330
ACA
100
AcDbEntity
  8
M_0
 62
     5
100
AcDbLine
 10
29.31598112222537
 20
2.999997438803006
 30
0.0
 11
30.31598012222548
 21
2.999997438803006
 31
0.0
  0
LINE
  5
B11
330
ACA
100
AcDbEntity
  8
M_0
 62
     5
100
AcDbLine
 10
26.31598412222547
 20
2.999997438803006
 30
0.0
 11
27.31598312222536
 21
2.999997438803006
 31
0.0
  0
LINE
  5
B12
330
ACA
100
AcDbEntity
  8
M_0
 62
     5
100
AcDbLine
 10
24.31598612222547
 20
4.732046514320813
 30
0.0
 11
24.31598612222547
 21
4.999995438803153
 31
0.0
  0
ARC
  5
B13
330
ACA
100
AcDbEntity
  8
M_0
 62
     5
100
AcDbCircle
 10
25.31598512222536
 20
2.999997438803006
 30
0.0
 40
1.999997999999999
100
AcDbArc
 50
41.40962210927096
 51
120.0000000000009
  0
ARC
  5
B14
330
ACA
100
AcDbEntity
  8
M_0
 62
     5
100
AcDbCircle
 10
25.31598512222536
 20
2.999997438803006
 30
0.0
 40
0.999999
100
AcDbArc
 50
0.0
 51
180.0
  0
ARC
  5
B15
330
ACA
100
AcDbEntity
  8
M_0
 62
     5
100
AcDbCircle
 10
28.31598212222548
 20
2.999997438803006
 30
0.0
 40
1.999997999999999
100
AcDbArc
 50
0.0
 51
138.590377890729
  0
ARC
  5
B16
330
ACA
100
AcDbEntity
  8
M_0
 62
     5
100
AcDbCircle
 10
28.31598212222548
 20
2.999997438803006
 30
0.0
 40
0.999999
100
AcDbArc
 50
0.0
 51
180.0
  0
LWPOLYLINE
  5
B17
330
ACA
100
AcDbEntity
  8
M_0
 62
     5
100
AcDbPolyline
 90
        2
 70
     0
 43
0.999999
 10
29.81598062222543
 20
2.999997438803034
 42
1.0
 10
26.8159836222253
 20
2.999997438803034
 42
1.0
  0
LINE
  5
B18
330
ACA
100
AcDbEntity
  8
M_0
 62
     5
100
AcDbLine
 10
21.14928928892573
 20
6.499993938803157
 30
0.0
 11
22.14928828892562
 21
6.499993938803157
 31
0.0
  0
ARC
  5
B19
330
ACA
100
AcDbEntity
  8
M_0
 62
     5
100
AcDbCircle
 10
39.64937078882531
 20
2.999997438803177
 30
0.0
 40
1.999997999999999
100
AcDbArc
 50
0.0
 51
120.0000000000009
  0
LINE
  5
B1A
330
ACA
100
AcDbEntity
  8
M_0
 62
     5
100
AcDbLine
 10
41.64936878882531
 20
0.0000004388031698
 30
0.0
 11
41.64936878882531
 21
2.999997438803177
 31
0.0
  0
LINE
  5
B1B
330
ACA
100
AcDbEntity
  8
M_0
 62
     5
100
AcDbLine
 10
40.6493697888252
 20
0.0000004388031698
 30
0.0
 11
40.6493697888252
 21
2.999997438803177
 31
0.0
  0
LWPOLYLINE
  5
B1C
330
ACA
100
AcDbEntity
  8
M_0
 62
     5
100
AcDbPolyline
 90
        2
 70
     0
 43
0.999999
 10
41.14936928882571
 20
2.999997438803147
 10
41.14936928882571
 20
0.0000004388031698
  0
LINE
  5
B1D
330
ACA
100
AcDbEntity
  8
M_0
 62
     5
100
AcDbLine
 10
38.64937178882519
 20
0.0000004388031698
 30
0.0
 11
38.64937178882519
 21
2.999997438803177
 31
0.0
  0
LINE
  5
B1E
330
ACA
100
AcDbEntity
  8
M_0
 62
     5
100
AcDbLine
 10
40.6493697888252
 20
0.0000004388031698
 30
0.0
 11
41.64936878882531
 21
0.0000004388031698
 31
0.0
  0
LINE
  5
B1F
330
ACA
100
AcDbEntity
  8
M_0
 62
     5
100
AcDbLine
 10
38.64937178882519
 20
4.732046514320983
 30
0.0
 11
38.64937178882519
 21
4.999995438803238
 31
0.0
  0
ARC
  5
B20
330
ACA
100
AcDbEntity
  8
M_0
 62
     5
100
AcDbCircle
 10
39.64937078882531
 20
2.999997438803177
 30
0.0
 40
0.999999
100
AcDbArc
 50
0.0
 51
180.0
  0
LWPOLYLINE
  5
B21
330
ACA
100
AcDbEntity
  8
M_0
 62
     5
100
AcDbPolyline
 90
        2
 70
     0
 43
0.999999
 10
35.98267445552482
 20
0.0000004388031698
 10
35.98267445552482
 20
4.999995438803266
  0
LINE
  5
B22
330
ACA
100
AcDbEntity
  8
M_0
 62
     5
100
AcDbLine
 10
37.64937278882531
 20
0.0000004388031698
 30
0.0
 11
37.64937278882531
 21
4.999995438803238
 31
0.0
  0
LINE
  5
B23
330
ACA
100
AcDbEntity
  8
M_0
 62
     5
100
AcDbLine
 10
36.48267395552512
 20
0.0000004388031698
 30
0.0
 11
36.48267395552512
 21
4.999995438803238
 31
0.0
  0
LINE
  5
B24
330
ACA
100
AcDbEntity
  8
M_0
 62
     5
100
AcDbLine
 10
35.48267495552523
 20
0.0000004388031698
 30
0.0
 11
36.48267395552512
 21
0.0000004388031698
 31
0.0
  0
LINE
  5
B25
330
ACA
100
AcDbEntity
  8
M_0
 62
     5
100
AcDbLine
 10
35.48267495552523
 20
0.0000004388031698
 30
0.0
 11
35.48267495552523
 21
0.4999249427829966
 31
0.0
  0
LINE
  5
B26
330
ACA
100
AcDbEntity
  8
M_0
 62
     5
100
AcDbLine
 10
35.48267495552523
 20
4.999995438803238
 30
0.0
 11
36.48267395552512
 21
4.999995438803238
 31
0.0
  0
LINE
  5
B27
330
ACA
100
AcDbEntity
  8
M_0
 62
     5
100
AcDbLine
 10
35.48267495552523
 20
4.500070934823241
 30
0.0
 11
35.48267495552523
 21
4.999995438803238
 31
0.0
  0
LWPOLYLINE
  5
B28
330
ACA
100
AcDbEntity
  8
M_0
 62
     5
100
AcDbPolyline
 90
        2
 70
     0
 43
0.999999
 10
38.14937228882559
 20
0.0000004388032835
 10
38.14937228882559
 20
4.999995438803266
  0
LINE
  5
B29
330
ACA
100
AcDbEntity
  8
M_0
 62
     5
100
AcDbLine
 10
37.64937278882531
 20
0.0000004388032551
 30
0.0
 11
38.64937178882519
 21
0.0000004388032551
 31
0.0
  0
LINE
  5
B2A
330
ACA
100
AcDbEntity
  8
M_0
 62
     5
100
AcDbLine
 10
37.64937278882531
 20
4.999995438803238
 30
0.0
 11
38.64937178882519
 21
4.999995438803238
 31
0.0
  0
LWPOLYLINE
  5
B2B
330
ACA
100
AcDbEntity
  8
M_0
 62
     5
100
AcDbPolyline
 90
        2
 70
     0
 43
0.999999
 10
38.14937228882559
 20
2.999997438803147
 42
-1.0
 10
41.14936928882571
 20
2.999997438803147
 42
-0.0000000000000001
  0
ENDBLK
  5
B2C
330
ACA
100
AcDbEntity
  8
0
100
AcDbBlockEnd
  0
BLOCK
  5
B2E
330
B2D
100
AcDbEntity
  8
0
100
AcDbBlockBegin
  2
A$C0AED3F82
 70
     0
 10
0.0
 20
0.0
 30
0.0
  3
A$C0AED3F82
  1

  0
LINE
  5
B2F
330
B2D
100
AcDbEntity
  8
M_0
 62
     5
100
AcDbLine
 10
11.09998897711853
 20
8.249992188803162
 30
0.0
 11
11.09998897711853
 21
0.0000004388031698
 31
0.0
  0
LINE
  5
B30
330
B2D
100
AcDbEntity
  8
M_0
 62
     5
100
AcDbLine
 10
9.869990207118688
 20
7.589992848803148
 30
0.0
 11
9.869990207118688
 21
0.0000004388031698
 31
0.0
  0
LINE
  5
B31
330
B2D
100
AcDbEntity
  8
M_0
 62
     5
100
AcDbLine
 10
10.22998984711853
 20
8.249992188803162
 30
0.0
 11
10.22998984711853
 21
0.0000004388031698
 31
0.0
  0
SOLID
  5
B32
330
B2D
100
AcDbEntity
  8
M_0
 62
     5
100
AcDbTrace
 10
5.369994707118847
 20
7.589992848803148
 30
0.0
 11
4.499995577118625
 21
4.399996038803094
 31
0.0
 12
5.369994707118847
 22
0.0000004388031698
 32
0.0
 13
4.499995577118625
 23
0.0000004388031698
 33
0.0
  0
LINE
  5
B33
330
B2D
100
AcDbEntity
  8
M_0
 62
     5
100
AcDbLine
 10
5.369994707118847
 20
7.589992848803148
 30
0.0
 11
5.369994707118847
 21
0.0000004388031698
 31
0.0
  0
LINE
  5
B34
330
B2D
100
AcDbEntity
  8
M_0
 62
     5
100
AcDbLine
 10
5.729994347118462
 20
8.249992188803162
 30
0.0
 11
5.729994347118462
 21
0.6599997788030976
 31
0.0
  0
SOLID
  5
B35
330
B2D
100
AcDbEntity
  8
M_0
 62
     5
100
AcDbTrace
 10
6.599993477118458
 20
8.249992188803162
 30
0.0
 11
6.599993477118458
 21
3.849996588803151
 31
0.0
 12
5.729994347118462
 22
8.249992188803162
 32
0.0
 13
5.729994347118462
 23
0.6599997788030976
 33
0.0
  0
LINE
  5
B36
330
B2D
100
AcDbEntity
  8
M_0
 62
     5
100
AcDbLine
 10
1.229998847118394
 20
0.0000004388031698
 30
0.0
 11
5.369994707118847
 21
7.589992848803148
 31
0.0
  0
SOLID
  5
B37
330
B2D
100
AcDbEntity
  8
M_0
 62
     5
100
AcDbTrace
 10
5.369994707118847
 20
7.589992848803148
 30
0.0
 11
4.499995577118625
 21
4.399996038803094
 31
0.0
 12
1.229998847118394
 22
0.0000004388031698
 32
0.0
 13
2.099997977118619
 23
0.0000004388031698
 33
0.0
  0
SOLID
  5
B38
330
B2D
100
AcDbEntity
  8
M_0
 62
     5
100
AcDbTrace
 10
9.869990207118688
 20
7.589992848803148
 30
0.0
 11
8.999991077118693
 21
4.399996038803094
 31
0.0
 12
9.869990207118688
 22
0.0000004388031698
 32
0.0
 13
8.999991077118693
 23
0.0000004388031698
 33
0.0
  0
LINE
  5
B39
330
B2D
100
AcDbEntity
  8
M_0
 62
     5
100
AcDbLine
 10
5.729994347118462
 20
0.0000004388031698
 30
0.0
 11
9.869990207118688
 21
7.589992848803148
 31
0.0
  0
LINE
  5
B3A
330
B2D
100
AcDbEntity
  8
M_0
 62
     5
100
AcDbLine
 10
5.729994347118462
 20
0.6599997788030976
 30
0.0
 11
9.869990207118688
 21
8.249992188803162
 31
0.0
  0
SOLID
  5
B3B
330
B2D
100
AcDbEntity
  8
M_0
 62
     5
100
AcDbTrace
 10
8.999991077118693
 20
8.249992188803162
 30
0.0
 11
6.599993477118458
 21
3.849996588803151
 31
0.0
 12
9.869990207118688
 22
8.249992188803162
 32
0.0
 13
5.729994347118462
 23
0.6599997788030976
 33
0.0
  0
SOLID
  5
B3C
330
B2D
100
AcDbEntity
  8
M_0
 62
     5
100
AcDbTrace
 10
9.869990207118688
 20
7.589992848803148
 30
0.0
 11
8.999991077118693
 21
4.399996038803094
 31
0.0
 12
5.729994347118462
 22
0.0000004388031698
 32
0.0
 13
6.599993477118458
 23
0.0000004388031698
 33
0.0
  0
LINE
  5
B3D
330
B2D
100
AcDbEntity
  8
M_0
 62
     5
100
AcDbLine
 10
0.8699992071187805
 20
0.0000004388031698
 30
0.0
 11
5.369994707118847
 21
8.249992188803162
 31
0.0
  0
SOLID
  5
B3E
330
B2D
100
AcDbEntity
  8
M_0
 62
     5
100
AcDbTrace
 10
5.369994707118847
 20
8.249992188803162
 30
0.0
 11
4.499995577118625
 21
8.249992188803162
 31
0.0
 12
0.8699992071187805
 22
0.0000004388031698
 32
0.0
 13
0.0000000771185569
 23
0.0000004388031698
 33
0.0
  0
LINE
  5
B3F
330
B2D
100
AcDbEntity
  8
M_0
 62
     5
100
AcDbLine
 10
0.0000000771185569
 20
0.0000004388031698
 30
0.0
 11
4.499995577118625
 21
8.249992188803162
 31
0.0
  0
SOLID
  5
B40
330
B2D
100
AcDbEntity
  8
M_0
 62
     5
100
AcDbTrace
 10
11.09998897711853
 20
8.249992188803162
 30
0.0
 11
11.09998897711853
 21
0.0000004388031698
 31
0.0
 12
10.22998984711853
 22
8.249992188803162
 32
0.0
 13
10.22998984711853
 23
0.0000004388031698
 33
0.0
  0
LINE
  5
B41
330
B2D
100
AcDbEntity
  8
M_0
 62
     5
100
AcDbLine
 10
6.599993477118458
 20
8.249992188803162
 30
0.0
 11
6.599993477118458
 21
3.849996588803151
 31
0.0
  0
LINE
  5
B42
330
B2D
100
AcDbEntity
  8
M_0
 62
     5
100
AcDbLine
 10
6.599993477118458
 20
3.849996588803151
 30
0.0
 11
8.999991077118693
 21
8.249992188803162
 31
0.0
  0
LINE
  5
B43
330
B2D
100
AcDbEntity
  8
M_0
 62
     5
100
AcDbLine
 10
6.599993477118458
 20
0.0000004388031698
 30
0.0
 11
8.999991077118693
 21
4.399996038803094
 31
0.0
  0
LINE
  5
B44
330
B2D
100
AcDbEntity
  8
M_0
 62
     5
100
AcDbLine
 10
5.729994347118462
 20
0.0000004388031698
 30
0.0
 11
6.599993477118458
 21
0.0000004388031698
 31
0.0
  0
LINE
  5
B45
330
B2D
100
AcDbEntity
  8
M_0
 62
     5
100
AcDbLine
 10
2.099997977118619
 20
0.0000004388031698
 30
0.0
 11
4.499995577118625
 21
4.399996038803094
 31
0.0
  0
LINE
  5
B46
330
B2D
100
AcDbEntity
  8
M_0
 62
     5
100
AcDbLine
 10
4.499995577118625
 20
4.399996038803094
 30
0.0
 11
4.499995577118625
 21
0.0000004388031698
 31
0.0
  0
LINE
  5
B47
330
B2D
100
AcDbEntity
  8
M_0
 62
     5
100
AcDbLine
 10
1.229998847118394
 20
0.0000004388031698
 30
0.0
 11
2.099997977118619
 21
0.0000004388031698
 31
0.0
  0
LINE
  5
B48
330
B2D
100
AcDbEntity
  8
M_0
 62
     5
100
AcDbLine
 10
0.0000000771185569
 20
0.0000004388031698
 30
0.0
 11
0.8699992071187805
 21
0.0000004388031698
 31
0.0
  0
LINE
  5
B49
330
B2D
100
AcDbEntity
  8
M_0
 62
     5
100
AcDbLine
 10
4.499995577118625
 20
0.0000004388031698
 30
0.0
 11
5.369994707118847
 21
0.0000004388031698
 31
0.0
  0
LINE
  5
B4A
330
B2D
100
AcDbEntity
  8
M_0
 62
     5
100
AcDbLine
 10
8.999991077118693
 20
4.399996038803094
 30
0.0
 11
8.999991077118693
 21
0.0000004388031698
 31
0.0
  0
LINE
  5
B4B
330
B2D
100
AcDbEntity
  8
M_0
 62
     5
100
AcDbLine
 10
8.999991077118693
 20
0.0000004388031698
 30
0.0
 11
9.869990207118688
 21
0.0000004388031698
 31
0.0
  0
LINE
  5
B4C
330
B2D
100
AcDbEntity
  8
M_0
 62
     5
100
AcDbLine
 10
10.22998984711853
 20
0.0000004388031698
 30
0.0
 11
11.09998897711853
 21
0.0000004388031698
 31
0.0
  0
LINE
  5
B4D
330
B2D
100
AcDbEntity
  8
M_0
 62
     5
100
AcDbLine
 10
5.729994347118462
 20
8.249992188803162
 30
0.0
 11
6.599993477118458
 21
8.249992188803162
 31
0.0
  0
LINE
  5
B4E
330
B2D
100
AcDbEntity
  8
M_0
 62
     5
100
AcDbLine
 10
4.499995577118625
 20
8.249992188803162
 30
0.0
 11
5.369994707118847
 21
8.249992188803162
 31
0.0
  0
LINE
  5
B4F
330
B2D
100
AcDbEntity
  8
M_0
 62
     5
100
AcDbLine
 10
8.999991077118693
 20
8.249992188803162
 30
0.0
 11
9.869990207118688
 21
8.249992188803162
 31
0.0
  0
LINE
  5
B50
330
B2D
100
AcDbEntity
  8
M_0
 62
     5
100
AcDbLine
 10
10.22998984711853
 20
8.249992188803162
 30
0.0
 11
11.09998897711853
 21
8.249992188803162
 31
0.0
  0
ENDBLK
  5
B51
330
B2D
100
AcDbEntity
  8
0
100
AcDbBlockEnd
  0
BLOCK
  5
B53
330
B52
100
AcDbEntity
  8
0
100
AcDbBlockBegin
  2
A$C3F2B26CD
 70
     0
 10
0.0
 20
0.0
 30
0.0
  3
A$C3F2B26CD
  1

  0
LINE
  5
B54
330
B52
100
AcDbEntity
  8
M_0
 62
     5
100
AcDbLine
 10
-8.950000000000045
 20
13.75
 30
0.0
 11
-7.5
 21
13.75000000000005
 31
0.0
  0
LWPOLYLINE
  5
B55
330
B52
100
AcDbEntity
  8
M_0
 62
     5
100
AcDbPolyline
 90
        2
 70
     0
 43
0.5
 10
-7.416699999999991
 20
-2.741910220509679
 42
1.0
 10
-8.916699999999991
 20
-2.741910220509679
 42
1.0
  0
LINE
  5
B56
330
B52
100
AcDbEntity
  8
M_0
 62
     5
100
AcDbLine
 10
-9.166699999999991
 20
-1.741910220509623
 30
0.0
 11
-8.666699999999991
 21
-1.741910220509623
 31
0.0
  0
LINE
  5
B57
330
B52
100
AcDbEntity
  8
M_0
 62
     5
100
AcDbLine
 10
-9.166699999999991
 20
-2.741910220509679
 30
0.0
 11
-8.666699999999991
 21
-2.741910220509679
 31
0.0
  0
LINE
  5
B58
330
B52
100
AcDbEntity
  8
M_0
 62
     5
100
AcDbLine
 10
-8.950000000000045
 20
0.0000000000000568
 30
0.0
 11
-7.5
 21
0.0000000000000568
 31
0.0
  0
LINE
  5
B59
330
B52
100
AcDbEntity
  8
M_0
 62
     5
100
AcDbLine
 10
-9.166699999999991
 20
-4.241910220509622
 30
0.0
 11
-8.666699999999991
 21
-4.241910220509622
 31
0.0
  0
LWPOLYLINE
  5
B5A
330
B52
100
AcDbEntity
  8
M_0
 62
     5
100
AcDbPolyline
 90
        2
 70
     0
 43
0.5
 10
-8.916699999999991
 20
-4.241910220509622
 10
-8.916699999999991
 20
-1.741910220509623
  0
SOLID
  5
B5B
330
B52
100
AcDbEntity
  8
M_0
 62
     5
100
AcDbTrace
 10
-2.049999999999954
 20
12.65000000000009
 30
0.0
 11
-3.5
 21
7.33333333333337
 31
0.0
 12
-8.950000000000045
 22
0.0
 32
0.0
 13
-7.5
 23
0.0000000000000568
 33
0.0
  0
SOLID
  5
B5C
330
B52
100
AcDbEntity
  8
M_0
 62
     5
100
AcDbTrace
 10
-3.5
 20
13.75000000000005
 30
0.0
 11
-7.5
 21
6.416666666666742
 31
0.0
 12
-2.049999999999954
 22
13.75000000000005
 32
0.0
 13
-8.950000000000045
 23
1.100000000000021
 33
0.0
  0
SOLID
  5
B5D
330
B52
100
AcDbEntity
  8
M_0
 62
     5
100
AcDbTrace
 10
-7.5
 20
13.75000000000005
 30
0.0
 11
-7.5
 21
6.416666666666742
 31
0.0
 12
-8.950000000000045
 22
13.75
 32
0.0
 13
-8.950000000000045
 23
1.100000000000021
 33
0.0
  0
LINE
  5
B5E
330
B52
100
AcDbEntity
  8
M_0
 62
     5
100
AcDbLine
 10
-8.950000000000045
 20
1.100000000000021
 30
0.0
 11
-2.049999999999954
 21
13.75000000000005
 31
0.0
  0
LINE
  5
B5F
330
B52
100
AcDbEntity
  8
M_0
 62
     5
100
AcDbLine
 10
-8.950000000000045
 20
0.0000000000000568
 30
0.0
 11
-2.049999999999954
 21
12.65000000000009
 31
0.0
  0
SOLID
  5
B60
330
B52
100
AcDbEntity
  8
M_0
 62
     5
100
AcDbTrace
 10
-9.549999999999952
 20
12.65000000000003
 30
0.0
 11
-11.0
 21
7.33333333333337
 31
0.0
 12
-9.549999999999952
 22
0.0
 32
0.0
 13
-11.0
 23
0.0000000000000568
 33
0.0
  0
SOLID
  5
B61
330
B52
100
AcDbEntity
  8
M_0
 62
     5
100
AcDbTrace
 10
-9.549999999999952
 20
12.65000000000009
 30
0.0
 11
-11.0
 21
7.33333333333337
 31
0.0
 12
-16.45000000000004
 22
0.0000000000000568
 32
0.0
 13
-15.0
 23
0.0000000000000568
 33
0.0
  0
SOLID
  5
B62
330
B52
100
AcDbEntity
  8
M_0
 62
     5
100
AcDbTrace
 10
-9.549999999999952
 20
13.75
 30
0.0
 11
-11.0
 21
13.75
 31
0.0
 12
-17.04999999999995
 22
0.0
 32
0.0
 13
-18.5
 23
0.0000000000000568
 33
0.0
  0
LINE
  5
B63
330
B52
100
AcDbEntity
  8
M_0
 62
     5
100
AcDbLine
 10
-16.45000000000004
 20
0.0000000000000568
 30
0.0
 11
-9.549999999999952
 21
12.65000000000003
 31
0.0
  0
LINE
  5
B64
330
B52
100
AcDbEntity
  8
M_0
 62
     5
100
AcDbLine
 10
-17.04999999999995
 20
0.0
 30
0.0
 11
-9.549999999999952
 21
13.75
 31
0.0
  0
LINE
  5
B65
330
B52
100
AcDbEntity
  8
M_0
 62
     5
100
AcDbLine
 10
-18.5
 20
0.0000000000000568
 30
0.0
 11
-11.0
 21
13.75000000000005
 31
0.0
  0
LINE
  5
B66
330
B52
100
AcDbEntity
  8
M_0
 62
     5
100
AcDbLine
 10
-8.950000000000045
 20
13.75
 30
0.0
 11
-8.950000000000045
 21
1.100000000000021
 31
0.0
  0
LINE
  5
B67
330
B52
100
AcDbEntity
  8
M_0
 62
     5
100
AcDbLine
 10
-9.549999999999952
 20
12.65000000000003
 30
0.0
 11
-9.549999999999952
 21
0.0000000000000568
 31
0.0
  0
LINE
  5
B68
330
B52
100
AcDbEntity
  8
M_0
 62
     5
100
AcDbLine
 10
-17.00862774977668
 20
-1.741910220509623
 30
0.0
 11
-16.50862774977668
 21
-1.741910220509623
 31
0.0
  0
SOLID
  5
B69
330
B52
100
AcDbEntity
  8
M_0
 62
     5
100
AcDbTrace
 10
-16.50862774977668
 20
-1.741910220509623
 30
0.0
 11
-16.50862774977668
 21
-4.241910220509622
 31
0.0
 12
-17.00862774977668
 22
-1.741910220509623
 32
0.0
 13
-17.00862774977668
 23
-4.241910220509622
 33
0.0
  0
LINE
  5
B6A
330
B52
100
AcDbEntity
  8
M_0
 62
     5
100
AcDbLine
 10
-18.91666666666674
 20
-1.741910220509565
 30
0.0
 11
-18.41666666666674
 21
-1.741910220509565
 31
0.0
  0
LINE
  5
B6B
330
B52
100
AcDbEntity
  8
M_0
 62
     5
100
AcDbLine
 10
-18.5
 20
0.0000000000000568
 30
0.0
 11
-17.04999999999995
 21
0.0
 31
0.0
  0
SOLID
  5
B6C
330
B52
100
AcDbEntity
  8
M_0
 62
     5
100
AcDbTrace
 10
-17.00862774977668
 20
-1.741910220509623
 30
0.0
 11
-17.00862774977668
 21
-2.397033126512724
 31
0.0
 12
-18.91666666666674
 22
-4.241910220509622
 32
0.0
 13
-18.41666666666674
 23
-4.241910220509622
 33
0.0
  0
SOLID
  5
B6D
330
B52
100
AcDbEntity
  8
M_0
 62
     5
100
AcDbTrace
 10
-18.41666666666674
 20
-1.741910220509565
 30
0.0
 11
-18.41666666666674
 21
-3.586787314506523
 31
0.0
 12
-18.91666666666674
 22
-1.741910220509565
 32
0.0
 13
-18.91666666666674
 23
-4.241910220509622
 33
0.0
  0
SOLID
  5
B6E
330
B52
100
AcDbEntity
  8
M_0
 62
     5
100
AcDbTrace
 10
-18.91666666666674
 20
-1.741910220509565
 30
0.0
 11
-18.91666666666674
 21
-2.397033126512724
 31
0.0
 12
-20.82470558355658
 22
-4.241910220509622
 32
0.0
 13
-20.32470558355658
 23
-4.241910220509622
 33
0.0
  0
LINE
  5
B6F
330
B52
100
AcDbEntity
  8
M_0
 62
     5
100
AcDbLine
 10
-20.82470558355658
 20
-4.241910220509622
 30
0.0
 11
-18.91666666666674
 21
-1.741910220509623
 31
0.0
  0
LINE
  5
B70
330
B52
100
AcDbEntity
  8
M_0
 62
     5
100
AcDbLine
 10
-18.41666666666674
 20
-3.586787314506523
 30
0.0
 11
-17.00862774977668
 21
-1.741910220509623
 31
0.0
  0
LINE
  5
B71
330
B52
100
AcDbEntity
  8
M_0
 62
     5
100
AcDbLine
 10
-18.41666666666674
 20
-1.741910220509565
 30
0.0
 11
-18.41666666666674
 21
-3.586787314506523
 31
0.0
  0
LINE
  5
B72
330
B52
100
AcDbEntity
  8
M_0
 62
     5
100
AcDbLine
 10
-11.0
 20
7.33333333333337
 30
0.0
 11
-11.0
 21
0.0
 31
0.0
  0
LINE
  5
B73
330
B52
100
AcDbEntity
  8
M_0
 62
     5
100
AcDbLine
 10
-15.0
 20
0.0000000000000568
 30
0.0
 11
-11.0
 21
7.33333333333337
 31
0.0
  0
LWPOLYLINE
  5
B74
330
B52
100
AcDbEntity
  8
M_0
 62
     5
100
AcDbPolyline
 90
        2
 70
     0
 43
0.5
 10
-13.08339999999998
 20
-4.241910220509566
 10
-13.08339999999998
 20
-2.741910220509623
  0
LINE
  5
B75
330
B52
100
AcDbEntity
  8
M_0
 62
     5
100
AcDbLine
 10
-13.33339999999998
 20
-2.741910220509623
 30
0.0
 11
-12.83339999999998
 21
-2.741910220509623
 31
0.0
  0
ARC
  5
B76
330
B52
100
AcDbEntity
  8
M_0
 62
     5
100
AcDbCircle
 10
-13.83339999999998
 20
-2.741910220509623
 30
0.0
 40
1.0
100
AcDbArc
 50
0.0
 51
120.0000000000033
  0
LWPOLYLINE
  5
B77
330
B52
100
AcDbEntity
  8
M_0
 62
     5
100
AcDbPolyline
 90
        2
 70
     0
 43
0.5
 10
-14.58339999999998
 20
-2.741910220509623
 42
-1.0
 10
-13.08339999999998
 20
-2.741910220509623
 42
-0.0000000000000001
  0
LINE
  5
B78
330
B52
100
AcDbEntity
  8
M_0
 62
     5
100
AcDbLine
 10
-14.33339999999998
 20
-1.875884816725316
 30
0.0
 11
-14.33339999999998
 21
-1.741910220509565
 31
0.0
  0
SOLID
  5
B79
330
B52
100
AcDbEntity
  8
M_0
 62
     5
100
AcDbTrace
 10
-15.41675000000009
 20
-0.9919102205096235
 30
0.0
 11
-15.41675000000009
 21
-1.391910220509656
 31
0.0
 12
-15.91675000000009
 22
-0.9919102205096235
 32
0.0
 13
-15.91675000000009
 23
-1.391910220509656
 33
0.0
  0
LINE
  5
B7A
330
B52
100
AcDbEntity
  8
M_0
 62
     5
100
AcDbLine
 10
-15.91675000000009
 20
-1.391910220509656
 30
0.0
 11
-15.41675000000009
 21
-1.391910220509656
 31
0.0
  0
LINE
  5
B7B
330
B52
100
AcDbEntity
  8
M_0
 62
     5
100
AcDbLine
 10
-15.41675000000009
 20
-1.391910220509656
 30
0.0
 11
-15.41675000000009
 21
-0.9919102205096235
 31
0.0
  0
LINE
  5
B7C
330
B52
100
AcDbEntity
  8
M_0
 62
     5
100
AcDbLine
 10
-15.91675000000009
 20
-1.391910220509656
 30
0.0
 11
-15.91675000000009
 21
-0.9919102205096235
 31
0.0
  0
LINE
  5
B7D
330
B52
100
AcDbEntity
  8
M_0
 62
     5
100
AcDbLine
 10
-15.91675000000009
 20
-0.9919102205096235
 30
0.0
 11
-15.41675000000009
 21
-0.9919102205096235
 31
0.0
  0
LINE
  5
B7E
330
B52
100
AcDbEntity
  8
M_0
 62
     5
100
AcDbLine
 10
-15.91675000000009
 20
-1.741910220509623
 30
0.0
 11
-15.41675000000009
 21
-1.741910220509623
 31
0.0
  0
LINE
  5
B7F
330
B52
100
AcDbEntity
  8
M_0
 62
     5
100
AcDbLine
 10
-16.45000000000004
 20
0.0000000000000568
 30
0.0
 11
-15.0
 21
0.0000000000000568
 31
0.0
  0
SOLID
  5
B80
330
B52
100
AcDbEntity
  8
M_0
 62
     5
100
AcDbTrace
 10
-15.41675000000009
 20
-1.741910220509623
 30
0.0
 11
-15.41675000000009
 21
-4.241910220509622
 31
0.0
 12
-15.91675000000009
 22
-1.741910220509623
 32
0.0
 13
-15.91675000000009
 23
-4.241910220509622
 33
0.0
  0
LINE
  5
B81
330
B52
100
AcDbEntity
  8
M_0
 62
     5
100
AcDbLine
 10
-14.83339999999998
 20
-4.241910220509622
 30
0.0
 11
-14.83339999999998
 21
-1.741910220509565
 31
0.0
  0
LINE
  5
B82
330
B52
100
AcDbEntity
  8
M_0
 62
     5
100
AcDbLine
 10
-15.41675000000009
 20
-4.241910220509679
 30
0.0
 11
-15.41675000000009
 21
-1.741910220509623
 31
0.0
  0
LINE
  5
B83
330
B52
100
AcDbEntity
  8
M_0
 62
     5
100
AcDbLine
 10
-15.91675000000009
 20
-4.241910220509679
 30
0.0
 11
-15.91675000000009
 21
-1.741910220509623
 31
0.0
  0
LINE
  5
B84
330
B52
100
AcDbEntity
  8
M_0
 62
     5
100
AcDbLine
 10
-16.50862774977668
 20
-4.241910220509622
 30
0.0
 11
-16.50862774977668
 21
-1.741910220509623
 31
0.0
  0
LINE
  5
B85
330
B52
100
AcDbEntity
  8
M_0
 62
     5
100
AcDbLine
 10
-14.83339999999998
 20
-1.741910220509565
 30
0.0
 11
-14.33339999999998
 21
-1.741910220509565
 31
0.0
  0
LWPOLYLINE
  5
B86
330
B52
100
AcDbEntity
  8
M_0
 62
     5
100
AcDbPolyline
 90
        2
 70
     0
 43
0.5
 10
-14.58339999999998
 20
-4.241910220509566
 10
-14.58339999999998
 20
-1.741910220509565
  0
LINE
  5
B87
330
B52
100
AcDbEntity
  8
M_0
 62
     5
100
AcDbLine
 10
-10.25004999999987
 20
-0.9919102205096235
 30
0.0
 11
-9.750049999999873
 21
-0.9919102205096235
 31
0.0
  0
LINE
  5
B88
330
B52
100
AcDbEntity
  8
M_0
 62
     5
100
AcDbLine
 10
-10.25004999999987
 20
-1.991872722462061
 30
0.0
 11
-10.25004999999987
 21
-0.9919102205096235
 31
0.0
  0
LINE
  5
B89
330
B52
100
AcDbEntity
  8
M_0
 62
     5
100
AcDbLine
 10
-11.0
 20
0.0000000000000568
 30
0.0
 11
-9.549999999999952
 21
0.0000000000000568
 31
0.0
  0
LINE
  5
B8A
330
B52
100
AcDbEntity
  8
M_0
 62
     5
100
AcDbLine
 10
-10.25004999999987
 20
-4.241910220509622
 30
0.0
 11
-9.750049999999873
 21
-4.241910220509622
 31
0.0
  0
LINE
  5
B8B
330
B52
100
AcDbEntity
  8
M_0
 62
     5
100
AcDbLine
 10
-10.25004999999987
 20
-4.241910220509622
 30
0.0
 11
-10.25004999999987
 21
-3.991947718557183
 31
0.0
  0
CIRCLE
  5
B8C
330
B52
100
AcDbEntity
  8
M_0
 62
     5
100
AcDbCircle
 10
-11.0
 20
-2.991910220509623
 30
0.0
 40
0.75
  0
LWPOLYLINE
  5
B8D
330
B52
100
AcDbEntity
  8
M_0
 62
     5
100
AcDbPolyline
 90
        2
 70
     0
 43
0.5
 10
-10.00004999999987
 20
-4.241910220509622
 10
-10.00004999999987
 20
-0.9919102205096235
  0
LWPOLYLINE
  5
B8E
330
B52
100
AcDbEntity
  8
M_0
 62
     5
100
AcDbPolyline
 90
        2
 70
     1
 43
0.5
 10
-12.0
 20
-2.991910220509623
 42
1.0
 10
-10.0
 20
-2.991910220509623
 42
1.0
  0
ARC
  5
B8F
330
B52
100
AcDbEntity
  8
M_0
 62
     5
100
AcDbCircle
 10
-11.0
 20
-2.991910220509623
 30
0.0
 40
1.25
100
AcDbArc
 50
53.1329670894371
 51
306.8670329105628
  0
LINE
  5
B90
330
B52
100
AcDbEntity
  8
M_0
 62
     5
100
AcDbLine
 10
-9.750049999999873
 20
-4.241910220509622
 30
0.0
 11
-9.750049999999873
 21
-0.9919102205096235
 31
0.0
  0
LINE
  5
B91
330
B52
100
AcDbEntity
  8
M_0
 62
     5
100
AcDbLine
 10
-9.166699999999991
 20
-4.241910220509622
 30
0.0
 11
-9.166699999999991
 21
-1.741910220509623
 31
0.0
  0
LINE
  5
B92
330
B52
100
AcDbEntity
  8
M_0
 62
     5
100
AcDbLine
 10
-11.0
 20
13.75000000000005
 30
0.0
 11
-9.549999999999952
 21
13.75
 31
0.0
  0
SOLID
  5
B93
330
B52
100
AcDbEntity
  8
M_0
 62
     5
100
AcDbTrace
 10
0.0
 20
13.75
 30
0.0
 11
0.0
 21
0.0
 31
0.0
 12
-1.450000000000045
 22
13.75
 32
0.0
 13
-1.450000000000045
 23
0.0000000000000568
 33
0.0
  0
SOLID
  5
B94
330
B52
100
AcDbEntity
  8
M_0
 62
     5
100
AcDbTrace
 10
-2.049999999999954
 20
12.65000000000009
 30
0.0
 11
-3.5
 21
7.33333333333337
 31
0.0
 12
-2.049999999999954
 22
0.0
 32
0.0
 13
-3.5
 23
0.0000000000000568
 33
0.0
  0
LINE
  5
B95
330
B52
100
AcDbEntity
  8
M_0
 62
     5
100
AcDbLine
 10
0.0
 20
13.75000000000005
 30
0.0
 11
0.0
 21
0.0
 31
0.0
  0
LINE
  5
B96
330
B52
100
AcDbEntity
  8
M_0
 62
     5
100
AcDbLine
 10
-1.450000000000045
 20
13.75
 30
0.0
 11
-1.450000000000045
 21
0.0
 31
0.0
  0
LINE
  5
B97
330
B52
100
AcDbEntity
  8
M_0
 62
     5
100
AcDbLine
 10
-7.5
 20
6.416666666666742
 30
0.0
 11
-3.5
 21
13.75000000000005
 31
0.0
  0
LINE
  5
B98
330
B52
100
AcDbEntity
  8
M_0
 62
     5
100
AcDbLine
 10
-2.049999999999954
 20
12.65000000000009
 30
0.0
 11
-2.049999999999954
 21
0.0
 31
0.0
  0
LINE
  5
B99
330
B52
100
AcDbEntity
  8
M_0
 62
     5
100
AcDbLine
 10
-7.5
 20
13.75000000000005
 30
0.0
 11
-7.5
 21
6.416666666666742
 31
0.0
  0
ARC
  5
B9A
330
B52
100
AcDbEntity
  8
M_0
 62
     5
100
AcDbCircle
 10
-1.0
 20
-2.741910220509623
 30
0.0
 40
0.5
100
AcDbArc
 50
0.0
 51
180.0
  0
LWPOLYLINE
  5
B9B
330
B52
100
AcDbEntity
  8
M_0
 62
     5
100
AcDbPolyline
 90
        2
 70
     0
 43
0.5
 10
-1.75
 20
-2.741910220509623
 42
-1.0
 10
-0.25
 20
-2.741910220509623
 42
-0.0000000000000001
  0
ARC
  5
B9C
330
B52
100
AcDbEntity
  8
M_0
 62
     5
100
AcDbCircle
 10
-1.0
 20
-2.741910220509623
 30
0.0
 40
1.0
100
AcDbArc
 50
0.0
 51
120.0000000000033
  0
LINE
  5
B9D
330
B52
100
AcDbEntity
  8
M_0
 62
     5
100
AcDbLine
 10
-1.450000000000045
 20
0.0
 30
0.0
 11
0.0
 21
0.0
 31
0.0
  0
LINE
  5
B9E
330
B52
100
AcDbEntity
  8
M_0
 62
     5
100
AcDbLine
 10
-3.5
 20
7.33333333333337
 30
0.0
 11
-3.5
 21
0.0
 31
0.0
  0
LINE
  5
B9F
330
B52
100
AcDbEntity
  8
M_0
 62
     5
100
AcDbLine
 10
-7.5
 20
0.0000000000000568
 30
0.0
 11
-3.5
 21
7.33333333333337
 31
0.0
  0
LWPOLYLINE
  5
BA0
330
B52
100
AcDbEntity
  8
M_0
 62
     5
100
AcDbPolyline
 90
        2
 70
     1
 43
0.5
 10
-4.833300000000007
 20
-2.991910220509623
 42
1.0
 10
-2.833300000000008
 20
-2.991910220509623
 42
1.0
  0
ARC
  5
BA1
330
B52
100
AcDbEntity
  8
M_0
 62
     5
100
AcDbCircle
 10
-3.833300000000008
 20
-2.991910220509623
 30
0.0
 40
1.25
100
AcDbArc
 50
53.1329670894371
 51
306.8670329105628
  0
LINE
  5
BA2
330
B52
100
AcDbEntity
  8
M_0
 62
     5
100
AcDbLine
 10
-6.166699999999991
 20
-2.741910220509679
 30
0.0
 11
-5.666699999999991
 21
-2.741910220509679
 31
0.0
  0
LINE
  5
BA3
330
B52
100
AcDbEntity
  8
M_0
 62
     5
100
AcDbLine
 10
-6.166699999999991
 20
-4.241910220509679
 30
0.0
 11
-5.666699999999991
 21
-4.241910220509679
 31
0.0
  0
LWPOLYLINE
  5
BA4
330
B52
100
AcDbEntity
  8
M_0
 62
     5
100
AcDbPolyline
 90
        2
 70
     0
 43
0.5
 10
-5.916699999999991
 20
-4.241910220509679
 10
-5.916699999999991
 20
-2.741910220509679
  0
LINE
  5
BA5
330
B52
100
AcDbEntity
  8
M_0
 62
     5
100
AcDbLine
 10
-6.166699999999991
 20
-4.241910220509679
 30
0.0
 11
-6.166699999999991
 21
-2.741910220509679
 31
0.0
  0
LINE
  5
BA6
330
B52
100
AcDbEntity
  8
M_0
 62
     5
100
AcDbLine
 10
-5.666699999999991
 20
-4.241910220509679
 30
0.0
 11
-5.666699999999991
 21
-2.741910220509679
 31
0.0
  0
ARC
  5
BA7
330
B52
100
AcDbEntity
  8
M_0
 62
     5
100
AcDbCircle
 10
-8.166699999999991
 20
-2.741910220509679
 30
0.0
 40
1.0
100
AcDbArc
 50
41.40962210926974
 51
120.0000000000033
  0
LINE
  5
BA8
330
B52
100
AcDbEntity
  8
M_0
 62
     5
100
AcDbLine
 10
-7.666699999999991
 20
-2.741910220509679
 30
0.0
 11
-7.166699999999991
 21
-2.741910220509679
 31
0.0
  0
LINE
  5
BA9
330
B52
100
AcDbEntity
  8
M_0
 62
     5
100
AcDbLine
 10
-8.666699999999991
 20
-1.875884816725374
 30
0.0
 11
-8.666699999999991
 21
-1.741910220509623
 31
0.0
  0
ARC
  5
BAA
330
B52
100
AcDbEntity
  8
M_0
 62
     5
100
AcDbCircle
 10
-8.166699999999991
 20
-2.741910220509679
 30
0.0
 40
0.5
100
AcDbArc
 50
0.0
 51
180.0
  0
LINE
  5
BAB
330
B52
100
AcDbEntity
  8
M_0
 62
     5
100
AcDbLine
 10
-7.666699999999991
 20
-4.241910220509622
 30
0.0
 11
-7.166699999999991
 21
-4.241910220509622
 31
0.0
  0
LWPOLYLINE
  5
BAC
330
B52
100
AcDbEntity
  8
M_0
 62
     5
100
AcDbPolyline
 90
        2
 70
     0
 43
0.5
 10
-7.416699999999991
 20
-4.241910220509622
 10
-7.416699999999991
 20
-2.741910220509679
  0
LINE
  5
BAD
330
B52
100
AcDbEntity
  8
M_0
 62
     5
100
AcDbLine
 10
-7.666699999999991
 20
-4.241910220509622
 30
0.0
 11
-7.666699999999991
 21
-2.741910220509679
 31
0.0
  0
LINE
  5
BAE
330
B52
100
AcDbEntity
  8
M_0
 62
     5
100
AcDbLine
 10
-8.666699999999991
 20
-4.241910220509622
 30
0.0
 11
-8.666699999999991
 21
-2.741910220509679
 31
0.0
  0
LINE
  5
BAF
330
B52
100
AcDbEntity
  8
M_0
 62
     5
100
AcDbLine
 10
-7.166699999999991
 20
-4.241910220509622
 30
0.0
 11
-7.166699999999991
 21
-2.741910220509679
 31
0.0
  0
LWPOLYLINE
  5
BB0
330
B52
100
AcDbEntity
  8
M_0
 62
     5
100
AcDbPolyline
 90
        2
 70
     0
 43
0.5
 10
-5.916699999999991
 20
-2.741910220509679
 42
1.0
 10
-7.416699999999991
 20
-2.741910220509679
 42
1.0
  0
ARC
  5
BB1
330
B52
100
AcDbEntity
  8
M_0
 62
     5
100
AcDbCircle
 10
-6.666699999999991
 20
-2.741910220509679
 30
0.0
 40
0.5
100
AcDbArc
 50
0.0
 51
180.0
  0
ARC
  5
BB2
330
B52
100
AcDbEntity
  8
M_0
 62
     5
100
AcDbCircle
 10
-6.666699999999991
 20
-2.741910220509679
 30
0.0
 40
1.0
100
AcDbArc
 50
0.0
 51
138.5903778907278
  0
LINE
  5
BB3
330
B52
100
AcDbEntity
  8
M_0
 62
     5
100
AcDbLine
 10
-2.0
 20
-1.741910220509565
 30
0.0
 11
-1.5
 21
-1.741910220509565
 31
0.0
  0
LINE
  5
BB4
330
B52
100
AcDbEntity
  8
M_0
 62
     5
100
AcDbLine
 10
-1.5
 20
-1.875884816725316
 30
0.0
 11
-1.5
 21
-1.741910220509565
 31
0.0
  0
LINE
  5
BB5
330
B52
100
AcDbEntity
  8
M_0
 62
     5
100
AcDbLine
 10
-3.083350000000109
 20
-1.991872722462061
 30
0.0
 11
-3.083350000000109
 21
-1.741910220509565
 31
0.0
  0
LINE
  5
BB6
330
B52
100
AcDbEntity
  8
M_0
 62
     5
100
AcDbLine
 10
-3.083350000000109
 20
-1.741910220509565
 30
0.0
 11
-2.583350000000108
 21
-1.741910220509565
 31
0.0
  0
LINE
  5
BB7
330
B52
100
AcDbEntity
  8
M_0
 62
     5
100
AcDbLine
 10
-3.5
 20
0.0000000000000568
 30
0.0
 11
-2.049999999999954
 21
0.0
 31
0.0
  0
LINE
  5
BB8
330
B52
100
AcDbEntity
  8
M_0
 62
     5
100
AcDbLine
 10
-2.0
 20
-4.241910220509566
 30
0.0
 11
-1.5
 21
-4.241910220509566
 31
0.0
  0
LINE
  5
BB9
330
B52
100
AcDbEntity
  8
M_0
 62
     5
100
AcDbLine
 10
-3.083350000000109
 20
-4.241910220509622
 30
0.0
 11
-3.083350000000109
 21
-3.991947718557183
 31
0.0
  0
LINE
  5
BBA
330
B52
100
AcDbEntity
  8
M_0
 62
     5
100
AcDbLine
 10
-3.083350000000109
 20
-4.241910220509622
 30
0.0
 11
-2.583350000000108
 21
-4.241910220509622
 31
0.0
  0
CIRCLE
  5
BBB
330
B52
100
AcDbEntity
  8
M_0
 62
     5
100
AcDbCircle
 10
-3.833300000000008
 20
-2.991910220509623
 30
0.0
 40
0.75
  0
LINE
  5
BBC
330
B52
100
AcDbEntity
  8
M_0
 62
     5
100
AcDbLine
 10
-1.5
 20
-4.241910220509622
 30
0.0
 11
-1.5
 21
-2.741910220509623
 31
0.0
  0
LWPOLYLINE
  5
BBD
330
B52
100
AcDbEntity
  8
M_0
 62
     5
100
AcDbPolyline
 90
        2
 70
     0
 43
0.5
 10
-1.75
 20
-4.241910220509566
 10
-1.75
 20
-1.741910220509565
  0
LINE
  5
BBE
330
B52
100
AcDbEntity
  8
M_0
 62
     5
100
AcDbLine
 10
-2.583350000000108
 20
-4.241910220509622
 30
0.0
 11
-2.583350000000108
 21
-1.741910220509565
 31
0.0
  0
LINE
  5
BBF
330
B52
100
AcDbEntity
  8
M_0
 62
     5
100
AcDbLine
 10
-2.0
 20
-4.241910220509622
 30
0.0
 11
-2.0
 21
-1.741910220509565
 31
0.0
  0
LWPOLYLINE
  5
BC0
330
B52
100
AcDbEntity
  8
M_0
 62
     5
100
AcDbPolyline
 90
        2
 70
     0
 43
0.5
 10
-2.833350000000109
 20
-4.241910220509622
 10
-2.833350000000109
 20
-1.741910220509565
  0
LINE
  5
BC1
330
B52
100
AcDbEntity
  8
M_0
 62
     5
100
AcDbLine
 10
-0.5
 20
-4.241910220509622
 30
0.0
 11
0.0
 21
-4.241910220509622
 31
0.0
  0
LWPOLYLINE
  5
BC2
330
B52
100
AcDbEntity
  8
M_0
 62
     5
100
AcDbPolyline
 90
        2
 70
     0
 43
0.5
 10
-0.25
 20
-2.741910220509623
 10
-0.25
 20
-4.241910220509622
  0
LINE
  5
BC3
330
B52
100
AcDbEntity
  8
M_0
 62
     5
100
AcDbLine
 10
-0.5
 20
-4.241910220509622
 30
0.0
 11
-0.5
 21
-2.741910220509623
 31
0.0
  0
LINE
  5
BC4
330
B52
100
AcDbEntity
  8
M_0
 62
     5
100
AcDbLine
 10
0.0
 20
-4.241910220509622
 30
0.0
 11
0.0
 21
-2.741910220509623
 31
0.0
  0
LINE
  5
BC5
330
B52
100
AcDbEntity
  8
M_0
 62
     5
100
AcDbLine
 10
-1.450000000000045
 20
13.75
 30
0.0
 11
0.0
 21
13.75000000000005
 31
0.0
  0
LINE
  5
BC6
330
B52
100
AcDbEntity
  8
M_0
 62
     5
100
AcDbLine
 10
-3.5
 20
13.75000000000005
 30
0.0
 11
-2.049999999999954
 21
13.75000000000005
 31
0.0
  0
ENDBLK
  5
BC7
330
B52
100
AcDbEntity
  8
0
100
AcDbBlockEnd
  0
BLOCK
  5
BC9
330
BC8
100
AcDbEntity
  8
0
100
AcDbBlockBegin
  2
A$C1730210C
 70
     0
 10
0.0
 20
0.0
 30
0.0
  3
A$C1730210C
  1

  0
INSERT
  5
BCA
330
BC8
100
AcDbEntity
  8
M_0
100
AcDbBlockReference
  2
A$C3F2B26CD
 10
41.64936870834731
 20
8.483811380151108
 30
0.0
 41
1.999998000000004
 42
1.999998000000004
 43
1.999997999999999
  0
ENDBLK
  5
BCB
330
BC8
100
AcDbEntity
  8
0
100
AcDbBlockEnd
  0
BLOCK
  5
E6A
330
E69
100
AcDbEntity
  8
0
100
AcDbBlockBegin
  2
*U6
 70
     1
 10
0.0
 20
0.0
 30
0.0
  3
*U6
  1

  0
ENDBLK
  5
E6B
330
E69
100
AcDbEntity
  8
0
100
AcDbBlockEnd
  0
BLOCK
  5
EA8
330
E9E
100
AcDbEntity
  8
0
100
AcDbBlockBegin
  2
*D7
 70
     1
 10
0.0
 20
0.0
 30
0.0
  3
*D7
  1

  0
LINE
  5
15AF
330
E9E
100
AcDbEntity
  8
AM_5
100
AcDbLine
 10
208.4370753065584
 20
328.7522342197509
 30
0.0
 11
199.7547120800637
 21
328.7522342197509
 31
0.0
  0
LINE
  5
15B0
330
E9E
100
AcDbEntity
  8
AM_5
100
AcDbLine
 10
204.1819432929915
 20
311.2522342197508
 30
0.0
 11
199.7547120800637
 21
311.2522342197508
 31
0.0
  0
LINE
  5
15B1
330
E9E
100
AcDbEntity
  8
AM_5
100
AcDbLine
 10
202.7547120800637
 20
322.7522342197508
 30
0.0
 11
202.7547120800637
 21
317.2522342197508
 31
0.0
  0
LINE
  5
15B2
330
E9E
100
AcDbEntity
  8
AM_5
100
AcDbLine
 10
202.7547120800637
 20
311.2522342197508
 30
0.0
 11
202.7547120800637
 21
287.6622847260896
 31
0.0
  0
SOLID
  5
15B3
330
E9E
100
AcDbEntity
  8
AM_5
100
AcDbTrace
 10
201.7547120800637
 20
322.7522342197508
 30
0.0
 11
203.7547120800637
 21
322.7522342197508
 31
0.0
 12
202.7547120800637
 22
328.7522342197509
 32
0.0
 13
202.7547120800637
 23
328.7522342197509
 33
0.0
  0
SOLID
  5
15B4
330
E9E
100
AcDbEntity
  8
AM_5
100
AcDbTrace
 10
201.7547120800637
 20
317.2522342197508
 30
0.0
 11
203.7547120800637
 21
317.2522342197508
 31
0.0
 12
202.7547120800637
 22
311.2522342197508
 32
0.0
 13
202.7547120800637
 23
311.2522342197508
 33
0.0
  0
MTEXT
  5
15B5
330
E9E
100
AcDbEntity
  8
AM_5
100
AcDbMText
 10
197.2547120800636
 20
296.4572594729203
 30
0.0
 40
7.0
 41
0.0
 71
     5
 72
     1
  1
17.5
 11
0.0000000000000001
 21
1.0
 31
0.0
 73
     1
 44
1.0
1001
ACAD
1000
MTEXTBEGIN
1070
    73
1070
     1
1070
    44
1040
1.0
1070
    74
1070
     0
1000
MTEXTEND
  0
POINT
  5
15B6
330
E9E
100
AcDbEntity
  8
Defpoints
 62
     0
100
AcDbPoint
 10
211.4370753065584
 20
328.7522342197509
 30
0.0
  0
POINT
  5
15B7
330
E9E
100
AcDbEntity
  8
Defpoints
 62
     0
100
AcDbPoint
 10
207.1819432929915
 20
311.2522342197508
 30
0.0
  0
POINT
  5
15B8
330
E9E
100
AcDbEntity
  8
Defpoints
 62
     0
100
AcDbPoint
 10
202.7547120800637
 20
311.2522342197508
 30
0.0
  0
ENDBLK
  5
EA9
330
E9E
100
AcDbEntity
  8
0
100
AcDbBlockEnd
  0
BLOCK
  5
ED8
330
ECE
100
AcDbEntity
  8
0
100
AcDbBlockBegin
  2
*D8
 70
     1
 10
0.0
 20
0.0
 30
0.0
  3
*D8
  1

  0
LINE
  5
15A6
330
ECE
100
AcDbEntity
  8
AM_5
100
AcDbLine
 10
208.4370753065584
 20
328.7522342197509
 30
0.0
 11
185.4622511923895
 21
328.7522342197509
 31
0.0
  0
LINE
  5
15A7
330
ECE
100
AcDbEntity
  8
AM_5
100
AcDbLine
 10
240.7370753065584
 20
166.7522342197508
 30
0.0
 11
185.4622511923894
 21
166.7522342197508
 31
0.0
  0
LINE
  5
15A8
330
ECE
100
AcDbEntity
  8
AM_5
100
AcDbLine
 10
188.4622511923895
 20
322.7522342197508
 30
0.0
 11
188.4622511923894
 21
172.7522342197508
 31
0.0
  0
SOLID
  5
15A9
330
ECE
100
AcDbEntity
  8
AM_5
100
AcDbTrace
 10
187.4622511923895
 20
322.7522342197508
 30
0.0
 11
189.4622511923895
 21
322.7522342197508
 31
0.0
 12
188.4622511923895
 22
328.7522342197509
 32
0.0
 13
188.4622511923895
 23
328.7522342197509
 33
0.0
  0
SOLID
  5
15AA
330
ECE
100
AcDbEntity
  8
AM_5
100
AcDbTrace
 10
187.4622511923894
 20
172.7522342197508
 30
0.0
 11
189.4622511923894
 21
172.7522342197508
 31
0.0
 12
188.4622511923894
 22
166.7522342197508
 32
0.0
 13
188.4622511923894
 23
166.7522342197508
 33
0.0
  0
MTEXT
  5
15AB
330
ECE
100
AcDbEntity
  8
AM_5
100
AcDbMText
 10
182.9615622160115
 20
247.8209578140845
 30
0.0
 40
7.0
 41
0.0
 71
     5
 72
     1
  1
162
 11
0.0000000000000001
 21
1.0
 31
0.0
 73
     1
 44
1.0
1001
ACAD
1000
MTEXTBEGIN
1070
    73
1070
     1
1070
    44
1040
1.0
1070
    74
1070
     0
1000
MTEXTEND
  0
POINT
  5
15AC
330
ECE
100
AcDbEntity
  8
Defpoints
 62
     0
100
AcDbPoint
 10
211.4370753065584
 20
328.7522342197509
 30
0.0
  0
POINT
  5
15AD
330
ECE
100
AcDbEntity
  8
Defpoints
 62
     0
100
AcDbPoint
 10
243.7370753065584
 20
166.7522342197508
 30
0.0
  0
POINT
  5
15AE
330
ECE
100
AcDbEntity
  8
Defpoints
 62
     0
100
AcDbPoint
 10
188.4622511923894
 20
166.7522342197508
 30
0.0
  0
ENDBLK
  5
ED9
330
ECE
100
AcDbEntity
  8
0
100
AcDbBlockEnd
  0
BLOCK
  5
EFE
330
EF4
100
AcDbEntity
  8
0
100
AcDbBlockBegin
  2
*D9
 70
     1
 10
0.0
 20
0.0
 30
0.0
  3
*D9
  1

  0
LINE
  5
157E
330
EF4
100
AcDbEntity
  8
AM_5
100
AcDbLine
 10
211.4370753065584
 20
331.7522342197508
 30
0.0
 11
211.4370753065584
 21
343.7522342197508
 31
0.0
  0
LINE
  5
157F
330
EF4
100
AcDbEntity
  8
AM_5
100
AcDbLine
 10
281.4370753065584
 20
331.7522342197508
 30
0.0
 11
281.4370753065584
 21
343.7522342197508
 31
0.0
  0
LINE
  5
1580
330
EF4
100
AcDbEntity
  8
AM_5
100
AcDbLine
 10
217.4370753065584
 20
340.7522342197509
 30
0.0
 11
275.4370753065584
 21
340.7522342197509
 31
0.0
  0
SOLID
  5
1581
330
EF4
100
AcDbEntity
  8
AM_5
100
AcDbTrace
 10
217.4370753065584
 20
341.7522342197508
 30
0.0
 11
217.4370753065584
 21
339.7522342197508
 31
0.0
 12
211.4370753065584
 22
340.7522342197509
 32
0.0
 13
211.4370753065584
 23
340.7522342197509
 33
0.0
  0
SOLID
  5
1582
330
EF4
100
AcDbEntity
  8
AM_5
100
AcDbTrace
 10
275.4370753065584
 20
341.7522342197508
 30
0.0
 11
275.4370753065584
 21
339.7522342197508
 31
0.0
 12
281.4370753065584
 22
340.7522342197509
 32
0.0
 13
281.4370753065584
 23
340.7522342197509
 33
0.0
  0
MTEXT
  5
1583
330
EF4
100
AcDbEntity
  8
AM_5
100
AcDbMText
 10
246.4370753065584
 20
346.2522342197508
 30
0.0
 40
7.0
 41
0.0
 71
     5
 72
     1
  1
70
 73
     1
 44
1.0
1001
ACAD
1000
MTEXTBEGIN
1070
    73
1070
     1
1070
    44
1040
1.0
1070
    74
1070
     0
1000
MTEXTEND
  0
POINT
  5
1584
330
EF4
100
AcDbEntity
  8
Defpoints
 62
     0
100
AcDbPoint
 10
211.4370753065584
 20
328.7522342197509
 30
0.0
  0
POINT
  5
1585
330
EF4
100
AcDbEntity
  8
Defpoints
 62
     0
100
AcDbPoint
 10
281.4370753065584
 20
328.7522342197509
 30
0.0
  0
POINT
  5
1586
330
EF4
100
AcDbEntity
  8
Defpoints
 62
     0
100
AcDbPoint
 10
281.4370753065584
 20
340.7522342197509
 30
0.0
  0
ENDBLK
  5
EFF
330
EF4
100
AcDbEntity
  8
0
100
AcDbBlockEnd
  0
BLOCK
  5
F24
330
F1A
100
AcDbEntity
  8
0
100
AcDbBlockBegin
  2
*D10
 70
     1
 10
0.0
 20
0.0
 30
0.0
  3
*D10
  1

  0
LINE
  5
15D6
330
F1A
100
AcDbEntity
  8
AM_5
100
AcDbLine
 10
273.5799580712924
 20
354.7801295626573
 30
0.0
 11
299.8010715286945
 21
354.7801295626573
 31
0.0
  0
LINE
  5
15D7
330
F1A
100
AcDbEntity
  8
AM_5
100
AcDbLine
 10
273.5799580712924
 20
424.7801295626572
 30
0.0
 11
299.8010715286946
 21
424.7801295626572
 31
0.0
  0
LINE
  5
15D8
330
F1A
100
AcDbEntity
  8
AM_5
100
AcDbLine
 10
296.8010715286945
 20
360.7801295626573
 30
0.0
 11
296.8010715286946
 21
418.7801295626573
 31
0.0
  0
SOLID
  5
15D9
330
F1A
100
AcDbEntity
  8
AM_5
100
AcDbTrace
 10
295.8010715286945
 20
360.7801295626573
 30
0.0
 11
297.8010715286945
 21
360.7801295626573
 31
0.0
 12
296.8010715286945
 22
354.7801295626573
 32
0.0
 13
296.8010715286945
 23
354.7801295626573
 33
0.0
  0
SOLID
  5
15DA
330
F1A
100
AcDbEntity
  8
AM_5
100
AcDbTrace
 10
295.8010715286946
 20
418.7801295626573
 30
0.0
 11
297.8010715286946
 21
418.7801295626573
 31
0.0
 12
296.8010715286946
 22
424.7801295626572
 32
0.0
 13
296.8010715286946
 23
424.7801295626572
 33
0.0
  0
MTEXT
  5
15DB
330
F1A
100
AcDbEntity
  8
AM_5
100
AcDbMText
 10
291.3010715286945
 20
389.7801295626574
 30
0.0
 40
7.0
 41
0.0
 71
     5
 72
     1
  1
70
 11
0.0000000000000001
 21
1.0
 31
0.0
 73
     1
 44
1.0
1001
ACAD
1000
MTEXTBEGIN
1070
    73
1070
     1
1070
    44
1040
1.0
1070
    74
1070
     0
1000
MTEXTEND
  0
POINT
  5
15DC
330
F1A
100
AcDbEntity
  8
Defpoints
 62
     0
100
AcDbPoint
 10
270.5799580712924
 20
354.7801295626573
 30
0.0
  0
POINT
  5
15DD
330
F1A
100
AcDbEntity
  8
Defpoints
 62
     0
100
AcDbPoint
 10
270.5799580712924
 20
424.7801295626572
 30
0.0
  0
POINT
  5
15DE
330
F1A
100
AcDbEntity
  8
Defpoints
 62
     0
100
AcDbPoint
 10
296.8010715286946
 20
424.7801295626572
 30
0.0
  0
ENDBLK
  5
F25
330
F1A
100
AcDbEntity
  8
0
100
AcDbBlockEnd
  0
BLOCK
  5
F50
330
F44
100
AcDbEntity
  8
0
100
AcDbBlockBegin
  2
*D11
 70
     1
 10
0.0
 20
0.0
 30
0.0
  3
*D11
  1

  0
LINE
  5
15B9
330
F44
100
AcDbEntity
  8
AM_5
100
AcDbLine
 10
243.4370753065584
 20
165.7522342197508
 30
0.0
 11
243.4370753065584
 21
159.1531356262669
 31
0.0
  0
LINE
  5
15BA
330
F44
100
AcDbEntity
  8
AM_5
100
AcDbLine
 10
249.4370753065584
 20
165.7522342197507
 30
0.0
 11
249.4370753065584
 21
159.1531356262669
 31
0.0
  0
LINE
  5
15BB
330
F44
100
AcDbEntity
  8
AM_5
100
AcDbLine
 10
237.4370753065584
 20
162.1531356262669
 30
0.0
 11
231.4370753065584
 21
162.1531356262669
 31
0.0
  0
LINE
  5
15BC
330
F44
100
AcDbEntity
  8
AM_5
100
AcDbLine
 10
255.4370753065584
 20
162.1531356262669
 30
0.0
 11
274.8843194010466
 21
162.1531356262669
 31
0.0
  0
LINE
  5
15BD
330
F44
100
AcDbEntity
  8
AM_5
100
AcDbLine
 10
243.4370753065584
 20
162.1531356262669
 30
0.0
 11
249.4370753065584
 21
162.1531356262669
 31
0.0
  0
SOLID
  5
15BE
330
F44
100
AcDbEntity
  8
AM_5
100
AcDbTrace
 10
237.4370753065584
 20
163.1531356262669
 30
0.0
 11
237.4370753065584
 21
161.1531356262669
 31
0.0
 12
243.4370753065584
 22
162.1531356262669
 32
0.0
 13
243.4370753065584
 23
162.1531356262669
 33
0.0
  0
SOLID
  5
15BF
330
F44
100
AcDbEntity
  8
AM_5
100
AcDbTrace
 10
255.4370753065584
 20
163.1531356262669
 30
0.0
 11
255.4370753065584
 21
161.1531356262669
 31
0.0
 12
249.4370753065584
 22
162.1531356262669
 32
0.0
 13
249.4370753065584
 23
162.1531356262669
 33
0.0
  0
MTEXT
  5
15C0
330
F44
100
AcDbEntity
  8
AM_5
100
AcDbMText
 10
268.1606973538025
 20
167.6531356262669
 30
0.0
 40
7.0
 41
0.0
 71
     5
 72
     1
  1
%%c6
 73
     1
 44
1.0
1001
ACAD
1000
MTEXTBEGIN
1070
    73
1070
     1
1070
    44
1040
1.0
1070
    74
1070
     0
1000
MTEXTEND
  0
POINT
  5
15C1
330
F44
100
AcDbEntity
  8
Defpoints
 62
     0
100
AcDbPoint
 10
243.4370753065584
 20
168.7522342197508
 30
0.0
  0
POINT
  5
15C2
330
F44
100
AcDbEntity
  8
Defpoints
 62
     0
100
AcDbPoint
 10
249.4370753065584
 20
168.7522342197507
 30
0.0
  0
POINT
  5
15C3
330
F44
100
AcDbEntity
  8
Defpoints
 62
     0
100
AcDbPoint
 10
249.4370753065584
 20
162.1531356262669
 30
0.0
  0
ENDBLK
  5
F51
330
F44
100
AcDbEntity
  8
0
100
AcDbBlockEnd
  0
BLOCK
  5
1600
330
15FB
100
AcDbEntity
  8
0
100
AcDbBlockBegin
  2
*S1812
 70
     1
 10
0.0
 20
0.0
 30
0.0
  3
*S1812
  1

  0
LINE
  5
15FC
330
15FB
100
AcDbEntity
  8
AM_5
 62
     5
100
AcDbLine
 10
354.1390788665748
 20
340.977855109475
 30
0.0
 11
316.2241680968291
 21
340.977855109475
 31
0.0
  0
LINE
  5
15FD
330
15FB
100
AcDbEntity
  8
AM_5
 62
     5
100
AcDbLine
 10
316.2241680968291
 20
340.977855109475
 30
0.0
 11
328.2194990607373
 21
326.2314198509228
 31
0.0
  0
TRACE
  5
15FE
330
15FB
100
AcDbEntity
  8
AM_5
 62
     5
100
AcDbTrace
 10
327.5045864246429
 20
325.6498817686763
 30
0.0
 11
328.9344116968317
 21
326.8129579331695
 31
0.0
 12
332.6367193603763
 22
320.8011192308415
 32
0.0
 13
332.6367193603763
 23
320.8011192308415
 33
0.0
  0
MTEXT
  5
15FF
330
15FB
100
AcDbEntity
  8
AM_5
 62
     5
100
AcDbMText
 10
354.1390788665748
 20
330.9895698251324
 30
0.0
 40
7.0
 41
0.0
 71
     9
 72
     5
  1

  7
ACISOTS
 11
-1.0
 21
0.0000000000000001
 31
0.0
 73
     1
 44
1.0
1001
ACAD
1000
MTEXTBEGIN
1070
    73
1070
     1
1070
    44
1040
1.0
1070
    74
1070
     0
1000
MTEXTEND
  0
ENDBLK
  5
1601
330
15FB
100
AcDbEntity
  8
0
100
AcDbBlockEnd
  0
ENDSEC
  0
SECTION
  2
ENTITIES
  0
LINE
  5
D07
330
1F
100
AcDbEntity
  8
AM_7
100
AcDbLine
 10
246.4370753065584
 20
333.3462055019179
 30
0.0
 11
246.4370753065584
 21
164.8560868909835
 31
0.0
  0
LINE
  5
D08
330
1F
100
AcDbEntity
  8
AM_7
100
AcDbLine
 10
341.4561146813289
 20
311.2522342197508
 30
0.0
 11
341.4561146813289
 21
311.2522342197508
 31
0.0
  0
LINE
  5
D09
330
1F
100
AcDbEntity
  8
AM_7
100
AcDbLine
 10
341.4561146813289
 20
311.2522342197508
 30
0.0
 11
341.4561146813289
 21
311.2522342197508
 31
0.0
  0
LINE
  5
D0A
330
1F
100
AcDbEntity
  8
AM_7
100
AcDbLine
 10
327.7061146813289
 20
311.2522342197508
 30
0.0
 11
341.4561146813289
 21
311.2522342197508
 31
0.0
  0
LINE
  5
D0B
330
1F
100
AcDbEntity
  8
AM_7
100
AcDbLine
 10
341.4561146813289
 20
311.2522342197508
 30
0.0
 11
355.2061146813289
 21
311.2522342197508
 31
0.0
  0
LINE
  5
D0C
330
1F
100
AcDbEntity
  8
AM_7
100
AcDbLine
 10
341.4561146813289
 20
297.5022342197508
 30
0.0
 11
341.4561146813289
 21
311.2522342197508
 31
0.0
  0
LINE
  5
D0D
330
1F
100
AcDbEntity
  8
AM_7
100
AcDbLine
 10
341.4561146813289
 20
311.2522342197508
 30
0.0
 11
341.4561146813289
 21
325.0022342197508
 31
0.0
  0
LINE
  5
D0E
330
1F
100
AcDbEntity
  8
AM_7
100
AcDbLine
 10
341.4561146813289
 20
333.112254481234
 30
0.0
 11
341.4561146813289
 21
165.0554154791543
 31
0.0
  0
LINE
  5
D0F
330
1F
100
AcDbEntity
  8
AM_VIS
100
AcDbLine
 10
279.1370753065584
 20
293.2522342197509
 30
0.0
 11
281.4370753065584
 21
293.2522342197509
 31
0.0
  0
LINE
  5
D10
330
1F
100
AcDbEntity
  8
AM_VIS
100
AcDbLine
 10
279.1370753065585
 20
289.7522342197508
 30
0.0
 11
279.1370753065585
 21
293.2522342197509
 31
0.0
  0
LINE
  5
D11
330
1F
100
AcDbEntity
  8
AM_VIS
100
AcDbLine
 10
281.4370753065584
 20
289.7522342197508
 30
0.0
 11
279.1370753065585
 21
289.7522342197508
 31
0.0
  0
LINE
  5
D12
330
1F
100
AcDbEntity
  8
AM_VIS
100
AcDbLine
 10
281.4370753065584
 20
277.7522342197508
 30
0.0
 11
281.4370753065584
 21
289.7522342197508
 31
0.0
  0
LINE
  5
D13
330
1F
100
AcDbEntity
  8
AM_VIS
100
AcDbLine
 10
281.4370753065584
 20
293.2522342197509
 30
0.0
 11
281.4370753065584
 21
323.7522342197508
 31
0.0
  0
LINE
  5
D14
330
1F
100
AcDbEntity
  8
AM_VIS
100
AcDbLine
 10
225.4370753065584
 20
299.2522342197509
 30
0.0
 11
225.4370753065584
 21
323.2522342197508
 31
0.0
  0
LINE
  5
D15
330
1F
100
AcDbEntity
  8
AM_VIS
100
AcDbLine
 10
228.2552679391117
 20
323.2522342197508
 30
0.0
 11
225.4370753065584
 21
323.2522342197508
 31
0.0
  0
LINE
  5
D16
330
1F
100
AcDbEntity
  8
AM_VIS
100
AcDbLine
 10
219.3964150629572
 20
299.2522342197509
 30
0.0
 11
215.4370753065584
 21
299.2522342197509
 31
0.0
  0
LINE
  5
D17
330
1F
100
AcDbEntity
  8
AM_VIS
100
AcDbLine
 10
277.4370753065584
 20
299.2522342197509
 30
0.0
 11
273.4777355501596
 21
299.2522342197509
 31
0.0
  0
LINE
  5
D18
330
1F
100
AcDbEntity
  8
AM_VIS
100
AcDbLine
 10
277.4370753065584
 20
277.7522342197508
 30
0.0
 11
277.4370753065584
 21
299.2522342197509
 31
0.0
  0
LINE
  5
D19
330
1F
100
AcDbEntity
  8
AM_VIS
100
AcDbLine
 10
262.687031021427
 20
323.2522342197508
 30
0.0
 11
230.1871195916898
 21
323.2522342197508
 31
0.0
  0
LINE
  5
D1A
330
1F
100
AcDbEntity
  8
AM_VIS
100
AcDbLine
 10
267.4370753065584
 20
323.2522342197508
 30
0.0
 11
264.6188826740051
 21
323.2522342197508
 31
0.0
  0
LINE
  5
D1B
330
1F
100
AcDbEntity
  8
AM_VIS
100
AcDbLine
 10
267.4370753065584
 20
323.2522342197508
 30
0.0
 11
267.4370753065584
 21
299.2522342197509
 31
0.0
  0
LINE
  5
D1C
330
1F
100
AcDbEntity
  8
AM_VIS
100
AcDbLine
 10
270.5799580712924
 20
299.2522342197509
 30
0.0
 11
222.2941925418244
 21
299.2522342197509
 31
0.0
  0
LINE
  5
D1D
330
1F
100
AcDbEntity
  8
AM_VIS
100
AcDbLine
 10
215.4370753065584
 20
277.7522342197508
 30
0.0
 11
219.3964150629572
 21
277.7522342197508
 31
0.0
  0
LINE
  5
D1E
330
1F
100
AcDbEntity
  8
AM_VIS
100
AcDbLine
 10
222.2941925418244
 20
277.7522342197508
 30
0.0
 11
270.5799580712924
 21
277.7522342197508
 31
0.0
  0
LINE
  5
D1F
330
1F
100
AcDbEntity
  8
AM_VIS
100
AcDbLine
 10
273.4777355501596
 20
277.7522342197508
 30
0.0
 11
277.4370753065584
 21
277.7522342197508
 31
0.0
  0
LINE
  5
D20
330
1F
100
AcDbEntity
  8
AM_VIS
100
AcDbLine
 10
277.4370753065584
 20
277.7522342197508
 30
0.0
 11
281.4370753065584
 21
277.7522342197508
 31
0.0
  0
LINE
  5
D21
330
1F
100
AcDbEntity
  8
AM_VIS
100
AcDbLine
 10
215.4370753065584
 20
299.2522342197509
 30
0.0
 11
215.4370753065584
 21
277.7522342197508
 31
0.0
  0
LINE
  5
D22
330
1F
100
AcDbEntity
  8
AM_VIS
100
AcDbLine
 10
211.4370753065584
 20
277.7522342197508
 30
0.0
 11
215.4370753065584
 21
277.7522342197508
 31
0.0
  0
LINE
  5
D23
330
1F
100
AcDbEntity
  8
AM_VIS
100
AcDbLine
 10
211.4370753065584
 20
277.7522342197508
 30
0.0
 11
211.4370753065584
 21
289.7522342197508
 31
0.0
  0
LINE
  5
D24
330
1F
100
AcDbEntity
  8
AM_VIS
100
AcDbLine
 10
213.7370753065584
 20
289.7522342197508
 30
0.0
 11
211.4370753065584
 21
289.7522342197508
 31
0.0
  0
LINE
  5
D25
330
1F
100
AcDbEntity
  8
AM_VIS
100
AcDbLine
 10
213.7370753065584
 20
293.2522342197509
 30
0.0
 11
213.7370753065584
 21
289.7522342197508
 31
0.0
  0
LINE
  5
D26
330
1F
100
AcDbEntity
  8
AM_VIS
100
AcDbLine
 10
211.4370753065584
 20
293.2522342197509
 30
0.0
 11
213.7370753065584
 21
293.2522342197509
 31
0.0
  0
LINE
  5
D27
330
1F
100
AcDbEntity
  8
AM_VIS
100
AcDbLine
 10
211.4370753065584
 20
293.2522342197509
 30
0.0
 11
211.4370753065584
 21
323.7522342197508
 31
0.0
  0
LINE
  5
D28
330
1F
100
AcDbEntity
  8
AM_VIS
100
AcDbLine
 10
216.4370753065584
 20
299.2522342197509
 30
0.0
 11
216.4370753065584
 21
326.7522342197509
 31
0.0
  0
LINE
  5
D29
330
1F
100
AcDbEntity
  8
AM_VIS
100
AcDbLine
 10
215.633227729265
 20
323.7522342197508
 30
0.0
 11
215.633227729265
 21
299.2522342197509
 31
0.0
  0
LINE
  5
D2A
330
1F
100
AcDbEntity
  8
AM_VIS
100
AcDbLine
 10
216.4370753065584
 20
326.7522342197509
 30
0.0
 11
276.4370753065584
 21
326.7522342197509
 31
0.0
  0
LINE
  5
D2B
330
1F
100
AcDbEntity
  8
AM_VIS
100
AcDbLine
 10
216.4370753065584
 20
326.7522342197509
 30
0.0
 11
215.633227729265
 21
323.7522342197508
 31
0.0
  0
LINE
  5
D2C
330
1F
100
AcDbEntity
  8
AM_VIS
100
AcDbLine
 10
211.4370753065584
 20
323.7522342197508
 30
0.0
 11
215.633227729265
 21
323.7522342197508
 31
0.0
  0
LINE
  5
D2D
330
1F
100
AcDbEntity
  8
AM_VIS
100
AcDbLine
 10
211.4370753065584
 20
328.7522342197509
 30
0.0
 11
211.4370753065584
 21
323.7522342197508
 31
0.0
  0
LINE
  5
D2E
102
{ACAD_REACTORS
330
EAB
330
EDB
330
F01
102
}
330
1F
100
AcDbEntity
  8
AM_VIS
100
AcDbLine
 10
281.4370753065584
 20
328.7522342197509
 30
0.0
 11
211.4370753065584
 21
328.7522342197509
 31
0.0
  0
LINE
  5
D2F
102
{ACAD_REACTORS
330
F01
102
}
330
1F
100
AcDbEntity
  8
AM_VIS
100
AcDbLine
 10
281.4370753065584
 20
323.7522342197508
 30
0.0
 11
281.4370753065584
 21
328.7522342197509
 31
0.0
  0
LINE
  5
D30
330
1F
100
AcDbEntity
  8
AM_VIS
100
AcDbLine
 10
277.2409228838518
 20
323.7522342197508
 30
0.0
 11
281.4370753065584
 21
323.7522342197508
 31
0.0
  0
LINE
  5
D31
330
1F
100
AcDbEntity
  8
AM_VIS
100
AcDbLine
 10
277.2409228838518
 20
299.2522342197509
 30
0.0
 11
277.2409228838518
 21
323.7522342197508
 31
0.0
  0
LINE
  5
D32
330
1F
100
AcDbEntity
  8
AM_VIS
100
AcDbLine
 10
276.4370753065584
 20
299.2522342197509
 30
0.0
 11
276.4370753065584
 21
326.7522342197509
 31
0.0
  0
LINE
  5
D33
330
1F
100
AcDbEntity
  8
AM_VIS
100
AcDbLine
 10
277.2409228838518
 20
323.7522342197508
 30
0.0
 11
276.4370753065584
 21
326.7522342197509
 31
0.0
  0
LINE
  5
D34
330
1F
100
AcDbEntity
  8
AM_VIS
100
AcDbLine
 10
228.2552679391117
 20
323.2522342197508
 30
0.0
 11
230.1871195916898
 21
323.2522342197508
 31
0.0
  0
LINE
  5
D35
330
1F
100
AcDbEntity
  8
AM_VIS
100
AcDbLine
 10
262.687031021427
 20
323.2522342197508
 30
0.0
 11
264.6188826740051
 21
323.2522342197508
 31
0.0
  0
LINE
  5
D36
330
1F
100
AcDbEntity
  8
AM_VIS
100
AcDbLine
 10
219.3964150629572
 20
299.2522342197509
 30
0.0
 11
222.2941925418244
 21
299.2522342197509
 31
0.0
  0
LINE
  5
D37
330
1F
100
AcDbEntity
  8
AM_VIS
100
AcDbLine
 10
270.5799580712924
 20
299.2522342197509
 30
0.0
 11
273.4777355501596
 21
299.2522342197509
 31
0.0
  0
LINE
  5
D38
330
1F
100
AcDbEntity
  8
AM_VIS
100
AcDbLine
 10
222.2941925418244
 20
277.7522342197508
 30
0.0
 11
219.3964150629572
 21
277.7522342197508
 31
0.0
  0
LINE
  5
D39
330
1F
100
AcDbEntity
  8
AM_VIS
100
AcDbLine
 10
273.4777355501596
 20
277.7522342197508
 30
0.0
 11
270.5799580712924
 21
277.7522342197508
 31
0.0
  0
LINE
  5
D3A
330
1F
100
AcDbEntity
  8
AM_VIS
100
AcDbLine
 10
256.9370753065584
 20
259.7522342197509
 30
0.0
 11
256.9370753065584
 21
252.7522342197508
 31
0.0
  0
LINE
  5
D3B
330
1F
100
AcDbEntity
  8
AM_VIS
100
AcDbLine
 10
256.9370753065584
 20
252.7522342197508
 30
0.0
 11
235.9370753065584
 21
252.7522342197508
 31
0.0
  0
LINE
  5
D3C
330
1F
100
AcDbEntity
  8
AM_VIS
100
AcDbLine
 10
235.9370753065584
 20
252.7522342197508
 30
0.0
 11
235.9370753065584
 21
259.7522342197509
 31
0.0
  0
LINE
  5
D3D
330
1F
100
AcDbEntity
  8
AM_VIS
100
AcDbLine
 10
235.9370753065584
 20
259.7522342197509
 30
0.0
 11
235.9370753065584
 21
277.7522342197508
 31
0.0
  0
LINE
  5
D3E
330
1F
100
AcDbEntity
  8
AM_VIS
100
AcDbLine
 10
256.9370753065584
 20
277.7522342197508
 30
0.0
 11
256.9370753065584
 21
259.7522342197509
 31
0.0
  0
LINE
  5
D3F
330
1F
100
AcDbEntity
  8
AM_VIS
100
AcDbLine
 10
256.9370753065584
 20
259.7522342197509
 30
0.0
 11
235.9370753065584
 21
259.7522342197509
 31
0.0
  0
SPLINE
  5
D40
330
1F
100
AcDbEntity
  8
AM_VIS
100
AcDbSpline
210
0.0
220
0.0
230
1.0
 70
     8
 71
     3
 72
    22
 73
    18
 74
     0
 42
0.0000000001
 43
0.0000000001
 40
-3.791104644221506
 40
-3.791104644221506
 40
-3.791104644221506
 40
-3.791104644221506
 40
-3.314470136663178
 40
-3.314470136663178
 40
-2.83783562910485
 40
-2.83783562910485
 40
-2.361201121546524
 40
-2.361201121546524
 40
-1.884566613988198
 40
-1.884566613988198
 40
-1.413424960491148
 40
-1.413424960491148
 40
-0.9422833069940992
 40
-0.9422833069940992
 40
-0.4711416534970497
 40
-0.4711416534970497
 40
0.0
 40
0.0
 40
0.0
 40
0.0
 10
223.4279314368491
 20
197.7522342197508
 30
0.0
 10
223.3298376304608
 20
197.7522342197508
 30
0.0
 10
223.2294452650527
 20
197.7674001548458
 30
0.0
 10
223.0318917704858
 20
197.8311297773576
 30
0.0
 10
222.934726017647
 20
197.8796772664084
 30
0.0
 10
222.750197958706
 20
198.0079774186659
 30
0.0
 10
222.6626857419763
 20
198.0878280639295
 30
0.0
 10
222.5021924034499
 20
198.2723840299287
 30
0.0
 10
222.4292058825832
 20
198.3771027679779
 30
0.0
 10
222.3015662013084
 20
198.5991933389256
 30
0.0
 10
222.242380507931
 20
198.7239646021502
 30
0.0
 10
222.1385011081469
 20
198.9958535644624
 30
0.0
 10
222.0937909106538
 20
199.142965738284
 30
0.0
 10
222.0221557459272
 20
199.4500906172653
 30
0.0
 10
221.9951660839137
 20
199.6103566952707
 30
0.0
 10
221.9597752970717
 20
199.932903364822
 30
0.0
 10
221.9513802550405
 20
200.0951870019184
 30
0.0
 10
221.9513802550405
 20
200.2522342197508
 30
0.0
  0
LINE
  5
D41
330
1F
100
AcDbEntity
  8
AM_VIS
100
AcDbLine
 10
221.9513802550405
 20
200.2522342197508
 30
0.0
 11
221.9513802550405
 21
265.2522342197508
 31
0.0
  0
SPLINE
  5
D42
330
1F
100
AcDbEntity
  8
AM_VIS
100
AcDbSpline
210
0.0
220
0.0
230
1.0
 70
     8
 71
     3
 72
    22
 73
    18
 74
     0
 42
0.0000000001
 43
0.0000000001
 40
0.0
 40
0.0
 40
0.0
 40
0.0
 40
0.4711416534970509
 40
0.4711416534970509
 40
0.9422833069941015
 40
0.9422833069941015
 40
1.413424960491151
 40
1.413424960491151
 40
1.884566613988203
 40
1.884566613988203
 40
2.361201121546528
 40
2.361201121546528
 40
2.837835629104853
 40
2.837835629104853
 40
3.314470136663179
 40
3.314470136663179
 40
3.791104644221503
 40
3.791104644221503
 40
3.791104644221503
 40
3.791104644221503
 10
221.9513802550405
 20
265.2522342197508
 30
0.0
 10
221.9513802550405
 20
265.4092814375831
 30
0.0
 10
221.9597752970717
 20
265.5715650746795
 30
0.0
 10
221.9951660839137
 20
265.8941117442308
 30
0.0
 10
222.0221557459272
 20
266.0543778222362
 30
0.0
 10
222.0937909106539
 20
266.3615027012176
 30
0.0
 10
222.1385011081469
 20
266.5086148750392
 30
0.0
 10
222.242380507931
 20
266.7805038373515
 30
0.0
 10
222.3015662013086
 20
266.905275100576
 30
0.0
 10
222.4292058825832
 20
267.1273656715237
 30
0.0
 10
222.5021924034499
 20
267.2320844095728
 30
0.0
 10
222.6626857419763
 20
267.416640375572
 30
0.0
 10
222.750197958706
 20
267.4964910208357
 30
0.0
 10
222.934726017647
 20
267.6247911730931
 30
0.0
 10
223.0318917704858
 20
267.6733386621439
 30
0.0
 10
223.2294452650527
 20
267.7370682846557
 30
0.0
 10
223.3298376304608
 20
267.7522342197509
 30
0.0
 10
223.4279314368491
 20
267.7522342197509
 30
0.0
  0
SPLINE
  5
D43
330
1F
100
AcDbEntity
  8
AM_VIS
100
AcDbSpline
210
0.0
220
0.0
230
1.0
 70
     8
 71
     3
 72
    22
 73
    18
 74
     0
 42
0.0000000001
 43
0.0000000001
 40
3.774151069998001
 40
3.774151069998001
 40
3.774151069998001
 40
3.774151069998001
 40
4.250785577556326
 40
4.250785577556326
 40
4.727420085114653
 40
4.727420085114653
 40
5.20405459267298
 40
5.20405459267298
 40
5.680689100231306
 40
5.680689100231306
 40
6.151830753728357
 40
6.151830753728357
 40
6.622972407225407
 40
6.622972407225407
 40
7.094114060722459
 40
7.094114060722459
 40
7.565255714219508
 40
7.565255714219508
 40
7.565255714219508
 40
7.565255714219508
 10
269.4462191762676
 20
267.7522342197509
 30
0.0
 10
269.5443129826561
 20
267.7522342197509
 30
0.0
 10
269.644705348064
 20
267.7370682846557
 30
0.0
 10
269.8422588426309
 20
267.6733386621439
 30
0.0
 10
269.9394245954697
 20
267.6247911730931
 30
0.0
 10
270.1239526544109
 20
267.4964910208357
 30
0.0
 10
270.2114648711406
 20
267.416640375572
 30
0.0
 10
270.3719582096669
 20
267.2320844095728
 30
0.0
 10
270.4449447305335
 20
267.1273656715237
 30
0.0
 10
270.5725844118083
 20
266.905275100576
 30
0.0
 10
270.6317701051858
 20
266.7805038373515
 30
0.0
 10
270.7356495049698
 20
266.5086148750392
 30
0.0
 10
270.780359702463
 20
266.3615027012176
 30
0.0
 10
270.8519948671896
 20
266.0543778222362
 30
0.0
 10
270.8789845292031
 20
265.8941117442308
 30
0.0
 10
270.9143753160451
 20
265.5715650746795
 30
0.0
 10
270.9227703580764
 20
265.4092814375831
 30
0.0
 10
270.9227703580764
 20
265.2522342197508
 30
0.0
  0
LINE
  5
D44
330
1F
100
AcDbEntity
  8
AM_VIS
100
AcDbLine
 10
270.9227703580764
 20
265.2522342197508
 30
0.0
 11
270.9227703580764
 21
200.2522342197508
 31
0.0
  0
SPLINE
  5
D45
330
1F
100
AcDbEntity
  8
AM_VIS
100
AcDbSpline
210
0.0
220
0.0
230
1.0
 70
     8
 71
     3
 72
    22
 73
    18
 74
     0
 42
0.0000000001
 43
0.0000000001
 40
0.0
 40
0.0
 40
0.0
 40
0.0
 40
0.4711416534970496
 40
0.4711416534970496
 40
0.9422833069940988
 40
0.9422833069940988
 40
1.413424960491148
 40
1.413424960491148
 40
1.884566613988196
 40
1.884566613988196
 40
2.361201121546523
 40
2.361201121546523
 40
2.83783562910485
 40
2.83783562910485
 40
3.314470136663176
 40
3.314470136663176
 40
3.791104644221503
 40
3.791104644221503
 40
3.791104644221503
 40
3.791104644221503
 10
270.9227703580764
 20
200.2522342197508
 30
0.0
 10
270.9227703580764
 20
200.0951870019184
 30
0.0
 10
270.9143753160451
 20
199.932903364822
 30
0.0
 10
270.8789845292031
 20
199.6103566952707
 30
0.0
 10
270.8519948671896
 20
199.4500906172653
 30
0.0
 10
270.780359702463
 20
199.142965738284
 30
0.0
 10
270.7356495049698
 20
198.9958535644624
 30
0.0
 10
270.6317701051858
 20
198.7239646021503
 30
0.0
 10
270.5725844118083
 20
198.5991933389256
 30
0.0
 10
270.4449447305335
 20
198.3771027679779
 30
0.0
 10
270.3719582096669
 20
198.2723840299287
 30
0.0
 10
270.2114648711406
 20
198.0878280639295
 30
0.0
 10
270.1239526544109
 20
198.0079774186659
 30
0.0
 10
269.9394245954697
 20
197.8796772664084
 30
0.0
 10
269.8422588426309
 20
197.8311297773576
 30
0.0
 10
269.644705348064
 20
197.7674001548458
 30
0.0
 10
269.5443129826561
 20
197.7522342197508
 30
0.0
 10
269.4462191762676
 20
197.7522342197508
 30
0.0
  0
SPLINE
  5
D46
330
1F
100
AcDbEntity
  8
AM_VIS
100
AcDbSpline
210
0.0
220
0.0
230
1.0
 70
     8
 71
     3
 72
    22
 73
    18
 74
     0
 42
0.0000000001
 43
0.0000000001
 40
3.773562071924172
 40
3.773562071924172
 40
3.773562071924172
 40
3.773562071924172
 40
4.248305562462999
 40
4.248305562462999
 40
4.723049053001827
 40
4.723049053001827
 40
5.197792543540655
 40
5.197792543540655
 40
5.672536034079482
 40
5.672536034079482
 40
6.145072416928018
 40
6.145072416928018
 40
6.617608799776554
 40
6.617608799776554
 40
7.09014518262509
 40
7.09014518262509
 40
7.562681565473628
 40
7.562681565473628
 40
7.562681565473628
 40
7.562681565473628
 10
227.4876637550828
 20
267.7522342197509
 30
0.0
 10
227.6116634291154
 20
267.7522342197509
 30
0.0
 10
227.7406879428394
 20
267.7371704770244
 30
0.0
 10
227.9991009178225
 20
267.6738407940133
 30
0.0
 10
228.1284898503923
 20
267.6255906229588
 30
0.0
 10
228.3782912463394
 20
267.4980514906768
 30
0.0
 10
228.4988910658465
 20
267.4186652615614
 30
0.0
 10
228.7232547376196
 20
267.2351705317982
 30
0.0
 10
228.8270043462169
 20
267.1310489402823
 30
0.0
 10
229.0111582347821
 20
266.9094696721186
 30
0.0
 10
229.0979773283134
 20
266.7844866281406
 30
0.0
 10
229.2517629740256
 20
266.5120374551346
 30
0.0
 10
229.3187286365323
 20
266.3645771484923
 30
0.0
 10
229.4266315593489
 20
266.0566676551921
 30
0.0
 10
229.4676491878363
 20
265.8959639210307
 30
0.0
 10
229.5215332552552
 20
265.5725047976841
 30
0.0
 10
229.5343855398871
 20
265.409746347367
 30
0.0
 10
229.5343855398871
 20
265.2522342197508
 30
0.0
  0
SPLINE
  5
D47
330
1F
100
AcDbEntity
  8
AM_VIS
100
AcDbSpline
210
0.0
220
0.0
230
1.0
 70
     8
 71
     3
 72
    22
 73
    18
 74
     0
 42
0.0000000001
 43
0.0000000001
 40
0.0
 40
0.0
 40
0.0
 40
0.0
 40
0.4725363828485325
 40
0.4725363828485325
 40
0.9450727656970647
 40
0.9450727656970647
 40
1.417609148545596
 40
1.417609148545596
 40
1.890145531394129
 40
1.890145531394129
 40
2.364889021932957
 40
2.364889021932957
 40
2.839632512471787
 40
2.839632512471787
 40
3.314376003010615
 40
3.314376003010615
 40
3.789119493549443
 40
3.789119493549443
 40
3.789119493549443
 40
3.789119493549443
 10
229.5343855398871
 20
200.2522342197508
 30
0.0
 10
229.5343855398871
 20
200.0947220921346
 30
0.0
 10
229.5215332552552
 20
199.9319636418174
 30
0.0
 10
229.4676491878363
 20
199.6085045184709
 30
0.0
 10
229.4266315593489
 20
199.4478007843095
 30
0.0
 10
229.3187286365323
 20
199.1398912910091
 30
0.0
 10
229.2517629740256
 20
198.992430984367
 30
0.0
 10
229.0979773283134
 20
198.719981811361
 30
0.0
 10
229.0111582347821
 20
198.5949987673829
 30
0.0
 10
228.8270043462169
 20
198.3734194992193
 30
0.0
 10
228.7232547376196
 20
198.2692979077034
 30
0.0
 10
228.4988910658465
 20
198.0858031779401
 30
0.0
 10
228.3782912463394
 20
198.0064169488248
 30
0.0
 10
228.1284898503923
 20
197.8788778165428
 30
0.0
 10
227.9991009178225
 20
197.8306276454883
 30
0.0
 10
227.7406879428394
 20
197.7672979624772
 30
0.0
 10
227.6116634291154
 20
197.7522342197508
 30
0.0
 10
227.4876637550828
 20
197.7522342197508
 30
0.0
  0
SPLINE
  5
D48
330
1F
100
AcDbEntity
  8
AM_VIS
100
AcDbSpline
210
0.0
220
0.0
230
1.0
 70
     8
 71
     3
 72
    22
 73
    18
 74
     0
 42
0.0000000001
 43
0.0000000001
 40
-3.789115704278325
 40
-3.789115704278325
 40
-3.789115704278325
 40
-3.789115704278325
 40
-3.312953486657824
 40
-3.312953486657824
 40
-2.836791269037325
 40
-2.836791269037325
 40
-2.360629051416824
 40
-2.360629051416824
 40
-1.884466833796325
 40
-1.884466833796325
 40
-1.413350125347244
 40
-1.413350125347244
 40
-0.9422334168981636
 40
-0.9422334168981636
 40
-0.4711167084490829
 40
-0.4711167084490829
 40
0.0
 40
0.0
 40
0.0
 40
0.0
 10
222.5379162867769
 20
267.7522342197509
 30
0.0
 10
222.4393043323839
 20
267.7522342197509
 30
0.0
 10
222.3383268691228
 20
267.7370804292884
 30
0.0
 10
222.1395103618696
 20
267.6733889578342
 30
0.0
 10
222.0416668239119
 20
267.6248672577017
 30
0.0
 10
221.8557554539618
 20
267.496627068188
 30
0.0
 10
221.7675366158928
 20
267.416810300111
 30
0.0
 10
221.6056761146783
 20
267.2323337447796
 30
0.0
 10
221.5320295300726
 20
267.127660694597
 30
0.0
 10
221.4031318643851
 20
266.9055799090404
 30
0.0
 10
221.3433184104915
 20
266.7807579666706
 30
0.0
 10
221.2383168776071
 20
266.508774295837
 30
0.0
 10
221.1931126714601
 20
266.3616182708243
 30
0.0
 10
221.1206788338259
 20
266.0544238676924
 30
0.0
 10
221.0933842431027
 20
265.8941327768756
 30
0.0
 10
221.0575937890356
 20
265.5715589093451
 30
0.0
 10
221.0491041656486
 20
265.4092731225671
 30
0.0
 10
221.0491041656486
 20
265.2522342197508
 30
0.0
  0
LINE
  5
D49
330
1F
100
AcDbEntity
  8
AM_VIS
100
AcDbLine
 10
221.0491041656486
 20
200.2522342197508
 30
0.0
 11
221.0491041656486
 21
265.2522342197508
 31
0.0
  0
SPLINE
  5
D4A
330
1F
100
AcDbEntity
  8
AM_VIS
100
AcDbSpline
210
0.0
220
0.0
230
1.0
 70
     8
 71
     3
 72
    22
 73
    18
 74
     0
 42
0.0000000001
 43
0.0000000001
 40
0.0
 40
0.0
 40
0.0
 40
0.0
 40
0.4711167084490839
 40
0.4711167084490839
 40
0.9422334168981675
 40
0.9422334168981675
 40
1.41335012534725
 40
1.41335012534725
 40
1.884466833796334
 40
1.884466833796334
 40
2.360629051416834
 40
2.360629051416834
 40
2.836791269037331
 40
2.836791269037331
 40
3.312953486657831
 40
3.312953486657831
 40
3.789115704278328
 40
3.789115704278328
 40
3.789115704278328
 40
3.789115704278328
 10
221.0491041656486
 20
200.2522342197508
 30
0.0
 10
221.0491041656486
 20
200.0951953169344
 30
0.0
 10
221.0575937890356
 20
199.9329095301564
 30
0.0
 10
221.0933842431027
 20
199.610335662626
 30
0.0
 10
221.1206788338259
 20
199.4500445718091
 30
0.0
 10
221.1931126714601
 20
199.1428501686771
 30
0.0
 10
221.2383168776071
 20
198.9956941436646
 30
0.0
 10
221.3433184104915
 20
198.723710472831
 30
0.0
 10
221.4031318643851
 20
198.5988885304612
 30
0.0
 10
221.5320295300726
 20
198.3768077449045
 30
0.0
 10
221.6056761146783
 20
198.272134694722
 30
0.0
 10
221.7675366158928
 20
198.0876581393905
 30
0.0
 10
221.8557554539618
 20
198.0078413713135
 30
0.0
 10
222.0416668239119
 20
197.8796011817999
 30
0.0
 10
222.1395103618696
 20
197.8310794816674
 30
0.0
 10
222.3383268691228
 20
197.7673880102132
 30
0.0
 10
222.4393043323839
 20
197.7522342197508
 30
0.0
 10
222.5379162867769
 20
197.7522342197508
 30
0.0
  0
SPLINE
  5
D4B
330
1F
100
AcDbEntity
  8
AM_VIS
100
AcDbSpline
210
0.0
220
0.0
230
1.0
 70
     8
 71
     3
 72
    22
 73
    18
 74
     0
 42
0.0000000001
 43
0.0000000001
 40
3.773562167966562
 40
3.773562167966562
 40
3.773562167966562
 40
3.773562167966562
 40
4.249724385587061
 40
4.249724385587061
 40
4.725886603207558
 40
4.725886603207558
 40
5.202048820828056
 40
5.202048820828056
 40
5.678211038448554
 40
5.678211038448554
 40
6.149327746897637
 40
6.149327746897637
 40
6.620444455346721
 40
6.620444455346721
 40
7.091561163795804
 40
7.091561163795804
 40
7.562677872244887
 40
7.562677872244887
 40
7.562677872244887
 40
7.562677872244887
 10
227.4876637550828
 20
197.7522342197508
 30
0.0
 10
227.6120339906906
 20
197.7522342197508
 30
0.0
 10
227.7414343012757
 20
197.7673880102132
 30
0.0
 10
228.0005624419238
 20
197.8310794816674
 30
0.0
 10
228.1302907516758
 20
197.8796011817998
 30
0.0
 10
228.3806905609552
 20
198.0078413713135
 30
0.0
 10
228.5015507536939
 20
198.0876581393905
 30
0.0
 10
228.7263216701314
 20
198.272134694722
 30
0.0
 10
228.8302179640655
 20
198.3768077449045
 30
0.0
 10
229.0139832164868
 20
198.5988885304612
 30
0.0
 10
229.1003520994967
 20
198.723710472831
 30
0.0
 10
229.2533277421659
 20
198.9956941436646
 30
0.0
 10
229.31993357224
 20
199.1428501686771
 30
0.0
 10
229.4272469602033
 20
199.4500445718091
 30
0.0
 10
229.4680340512815
 20
199.610335662626
 30
0.0
 10
229.5216103190071
 20
199.9329095301564
 30
0.0
 10
229.5343855398871
 20
200.0951953169344
 30
0.0
 10
229.5343855398871
 20
200.2522342197508
 30
0.0
  0
LINE
  5
D4C
330
1F
100
AcDbEntity
  8
AM_VIS
100
AcDbLine
 10
229.5343855398871
 20
265.2522342197508
 30
0.0
 11
229.5343855398871
 21
200.2522342197508
 31
0.0
  0
SPLINE
  5
D4D
330
1F
100
AcDbEntity
  8
AM_VIS
100
AcDbSpline
210
0.0
220
0.0
230
1.0
 70
     8
 71
     3
 72
    22
 73
    18
 74
     0
 42
0.0000000001
 43
0.0000000001
 40
7.562677872244874
 40
7.562677872244874
 40
7.562677872244874
 40
7.562677872244874
 40
8.033794580693951
 40
8.033794580693951
 40
8.504911289143034
 40
8.504911289143034
 40
8.976027997592112
 40
8.976027997592112
 40
9.447144706041193
 40
9.447144706041193
 40
9.923306923661693
 40
9.923306923661693
 40
10.39946914128219
 40
10.39946914128219
 40
10.87563135890269
 40
10.87563135890269
 40
11.35179357652319
 40
11.35179357652319
 40
11.35179357652319
 40
11.35179357652319
 10
229.5343855398871
 20
265.2522342197508
 30
0.0
 10
229.5343855398871
 20
265.4092731225671
 30
0.0
 10
229.5216103190071
 20
265.5715589093451
 30
0.0
 10
229.4680340512815
 20
265.8941327768756
 30
0.0
 10
229.4272469602032
 20
266.0544238676924
 30
0.0
 10
229.31993357224
 20
266.3616182708243
 30
0.0
 10
229.2533277421659
 20
266.508774295837
 30
0.0
 10
229.1003520994967
 20
266.7807579666706
 30
0.0
 10
229.0139832164868
 20
266.9055799090404
 30
0.0
 10
228.8302179640655
 20
267.127660694597
 30
0.0
 10
228.7263216701314
 20
267.2323337447796
 30
0.0
 10
228.5015507536939
 20
267.416810300111
 30
0.0
 10
228.3806905609552
 20
267.496627068188
 30
0.0
 10
228.1302907516758
 20
267.6248672577017
 30
0.0
 10
228.0005624419238
 20
267.6733889578342
 30
0.0
 10
227.7414343012757
 20
267.7370804292884
 30
0.0
 10
227.6120339906906
 20
267.7522342197509
 30
0.0
 10
227.4876637550828
 20
267.7522342197509
 30
0.0
  0
SPLINE
  5
D4E
330
1F
100
AcDbEntity
  8
AM_VIS
100
AcDbSpline
210
0.0
220
0.0
230
1.0
 70
     8
 71
     3
 72
    22
 73
    18
 74
     0
 42
0.0000000001
 43
0.0000000001
 40
-3.789115704278326
 40
-3.789115704278326
 40
-3.789115704278326
 40
-3.789115704278326
 40
-3.312953486657828
 40
-3.312953486657828
 40
-2.83679126903733
 40
-2.83679126903733
 40
-2.360629051416831
 40
-2.360629051416831
 40
-1.884466833796333
 40
-1.884466833796333
 40
-1.41335012534725
 40
-1.41335012534725
 40
-0.9422334168981656
 40
-0.9422334168981656
 40
-0.4711167084490829
 40
-0.4711167084490829
 40
0.0
 40
0.0
 40
0.0
 40
0.0
 10
270.3362343263399
 20
197.7522342197508
 30
0.0
 10
270.4348462807328
 20
197.7522342197508
 30
0.0
 10
270.5358237439939
 20
197.7673880102132
 30
0.0
 10
270.7346402512471
 20
197.8310794816674
 30
0.0
 10
270.8324837892048
 20
197.8796011817998
 30
0.0
 10
271.018395159155
 20
198.0078413713135
 30
0.0
 10
271.106613997224
 20
198.0876581393905
 30
0.0
 10
271.2684744984384
 20
198.272134694722
 30
0.0
 10
271.3421210830443
 20
198.3768077449045
 30
0.0
 10
271.4710187487318
 20
198.5988885304612
 30
0.0
 10
271.5308322026252
 20
198.723710472831
 30
0.0
 10
271.6358337355097
 20
198.9956941436645
 30
0.0
 10
271.6810379416568
 20
199.1428501686771
 30
0.0
 10
271.7534717792909
 20
199.4500445718091
 30
0.0
 10
271.7807663700142
 20
199.6103356626259
 30
0.0
 10
271.8165568240813
 20
199.9329095301564
 30
0.0
 10
271.8250464474682
 20
200.0951953169344
 30
0.0
 10
271.8250464474682
 20
200.2522342197508
 30
0.0
  0
LINE
  5
D4F
330
1F
100
AcDbEntity
  8
AM_VIS
100
AcDbLine
 10
271.8250464474682
 20
265.2522342197508
 30
0.0
 11
271.8250464474682
 21
200.2522342197508
 31
0.0
  0
SPLINE
  5
D50
330
1F
100
AcDbEntity
  8
AM_VIS
100
AcDbSpline
210
0.0
220
0.0
230
1.0
 70
     8
 71
     3
 72
    22
 73
    18
 74
     0
 42
0.0000000001
 43
0.0000000001
 40
7.562677872244874
 40
7.562677872244874
 40
7.562677872244874
 40
7.562677872244874
 40
8.033794580693951
 40
8.033794580693951
 40
8.504911289143034
 40
8.504911289143034
 40
8.976027997592112
 40
8.976027997592112
 40
9.447144706041193
 40
9.447144706041193
 40
9.923306923661693
 40
9.923306923661693
 40
10.39946914128219
 40
10.39946914128219
 40
10.87563135890269
 40
10.87563135890269
 40
11.35179357652319
 40
11.35179357652319
 40
11.35179357652319
 40
11.35179357652319
 10
271.8250464474682
 20
265.2522342197508
 30
0.0
 10
271.8250464474682
 20
265.4092731225671
 30
0.0
 10
271.8165568240813
 20
265.5715589093451
 30
0.0
 10
271.7807663700142
 20
265.8941327768756
 30
0.0
 10
271.7534717792909
 20
266.0544238676924
 30
0.0
 10
271.6810379416568
 20
266.3616182708243
 30
0.0
 10
271.6358337355097
 20
266.508774295837
 30
0.0
 10
271.5308322026252
 20
266.7807579666706
 30
0.0
 10
271.4710187487318
 20
266.9055799090404
 30
0.0
 10
271.3421210830443
 20
267.127660694597
 30
0.0
 10
271.2684744984384
 20
267.2323337447796
 30
0.0
 10
271.106613997224
 20
267.416810300111
 30
0.0
 10
271.018395159155
 20
267.496627068188
 30
0.0
 10
270.8324837892048
 20
267.6248672577017
 30
0.0
 10
270.7346402512471
 20
267.6733889578342
 30
0.0
 10
270.5358237439939
 20
267.7370804292884
 30
0.0
 10
270.4348462807328
 20
267.7522342197509
 30
0.0
 10
270.3362343263399
 20
267.7522342197509
 30
0.0
  0
SPLINE
  5
D51
330
1F
100
AcDbEntity
  8
AM_VIS
100
AcDbSpline
210
0.0
220
0.0
230
1.0
 70
     8
 71
     3
 72
    22
 73
    18
 74
     0
 42
0.0000000001
 43
0.0000000001
 40
-3.789115704278325
 40
-3.789115704278325
 40
-3.789115704278325
 40
-3.789115704278325
 40
-3.312953486657824
 40
-3.312953486657824
 40
-2.836791269037325
 40
-2.836791269037325
 40
-2.360629051416824
 40
-2.360629051416824
 40
-1.884466833796325
 40
-1.884466833796325
 40
-1.413350125347243
 40
-1.413350125347243
 40
-0.9422334168981619
 40
-0.9422334168981619
 40
-0.4711167084490812
 40
-0.4711167084490812
 40
0.0
 40
0.0
 40
0.0
 40
0.0
 10
265.386486858034
 20
267.7522342197509
 30
0.0
 10
265.2621166224261
 20
267.7522342197509
 30
0.0
 10
265.132716311841
 20
267.7370804292884
 30
0.0
 10
264.8735881711931
 20
267.6733889578342
 30
0.0
 10
264.743859861441
 20
267.6248672577017
 30
0.0
 10
264.4934600521616
 20
267.496627068188
 30
0.0
 10
264.372599859423
 20
267.416810300111
 30
0.0
 10
264.1478289429854
 20
267.2323337447796
 30
0.0
 10
264.0439326490513
 20
267.127660694597
 30
0.0
 10
263.86016739663
 20
266.9055799090404
 30
0.0
 10
263.77379851362
 20
266.7807579666706
 30
0.0
 10
263.6208228709508
 20
266.5087742958371
 30
0.0
 10
263.5542170408768
 20
266.3616182708243
 30
0.0
 10
263.4469036529135
 20
266.0544238676924
 30
0.0
 10
263.4061165618352
 20
265.8941327768756
 30
0.0
 10
263.3525402941097
 20
265.5715589093451
 30
0.0
 10
263.3397650732296
 20
265.4092731225671
 30
0.0
 10
263.3397650732296
 20
265.2522342197508
 30
0.0
  0
LINE
  5
D52
330
1F
100
AcDbEntity
  8
AM_VIS
100
AcDbLine
 10
263.3397650732296
 20
200.2522342197508
 30
0.0
 11
263.3397650732296
 21
265.2522342197508
 31
0.0
  0
SPLINE
  5
D53
330
1F
100
AcDbEntity
  8
AM_VIS
100
AcDbSpline
210
0.0
220
0.0
230
1.0
 70
     8
 71
     3
 72
    22
 73
    18
 74
     0
 42
0.0000000001
 43
0.0000000001
 40
0.0
 40
0.0
 40
0.0
 40
0.0
 40
0.4711167084490837
 40
0.4711167084490837
 40
0.9422334168981672
 40
0.9422334168981672
 40
1.41335012534725
 40
1.41335012534725
 40
1.884466833796333
 40
1.884466833796333
 40
2.360629051416831
 40
2.360629051416831
 40
2.83679126903733
 40
2.83679126903733
 40
3.312953486657828
 40
3.312953486657828
 40
3.789115704278326
 40
3.789115704278326
 40
3.789115704278326
 40
3.789115704278326
 10
263.3397650732296
 20
200.2522342197508
 30
0.0
 10
263.3397650732296
 20
200.0951953169344
 30
0.0
 10
263.3525402941097
 20
199.9329095301564
 30
0.0
 10
263.4061165618352
 20
199.610335662626
 30
0.0
 10
263.4469036529135
 20
199.4500445718091
 30
0.0
 10
263.5542170408768
 20
199.1428501686771
 30
0.0
 10
263.6208228709508
 20
198.9956941436646
 30
0.0
 10
263.77379851362
 20
198.723710472831
 30
0.0
 10
263.86016739663
 20
198.5988885304612
 30
0.0
 10
264.0439326490513
 20
198.3768077449045
 30
0.0
 10
264.1478289429854
 20
198.272134694722
 30
0.0
 10
264.372599859423
 20
198.0876581393905
 30
0.0
 10
264.4934600521616
 20
198.0078413713135
 30
0.0
 10
264.743859861441
 20
197.8796011817998
 30
0.0
 10
264.873588171193
 20
197.8310794816674
 30
0.0
 10
265.132716311841
 20
197.7673880102132
 30
0.0
 10
265.2621166224261
 20
197.7522342197508
 30
0.0
 10
265.386486858034
 20
197.7522342197508
 30
0.0
  0
SPLINE
  5
D54
330
1F
100
AcDbEntity
  8
AM_VIS
100
AcDbSpline
210
0.0
220
0.0
230
1.0
 70
     8
 71
     3
 72
    22
 73
    18
 74
     0
 42
0.0000000001
 43
0.0000000001
 40
3.773562167966562
 40
3.773562167966562
 40
3.773562167966562
 40
3.773562167966562
 40
4.249724385587061
 40
4.249724385587061
 40
4.725886603207559
 40
4.725886603207559
 40
5.202048820828058
 40
5.202048820828058
 40
5.678211038448558
 40
5.678211038448558
 40
6.149327746897641
 40
6.149327746897641
 40
6.620444455346723
 40
6.620444455346723
 40
7.091561163795807
 40
7.091561163795807
 40
7.562677872244889
 40
7.562677872244889
 40
7.562677872244889
 40
7.562677872244889
 10
265.386486858034
 20
197.7522342197508
 30
0.0
 10
265.2621166224261
 20
197.7522342197508
 30
0.0
 10
265.132716311841
 20
197.7673880102132
 30
0.0
 10
264.8735881711931
 20
197.8310794816674
 30
0.0
 10
264.743859861441
 20
197.8796011817998
 30
0.0
 10
264.4934600521616
 20
198.0078413713135
 30
0.0
 10
264.372599859423
 20
198.0876581393905
 30
0.0
 10
264.1478289429854
 20
198.272134694722
 30
0.0
 10
264.0439326490513
 20
198.3768077449045
 30
0.0
 10
263.86016739663
 20
198.5988885304612
 30
0.0
 10
263.77379851362
 20
198.723710472831
 30
0.0
 10
263.6208228709508
 20
198.9956941436646
 30
0.0
 10
263.5542170408768
 20
199.1428501686771
 30
0.0
 10
263.4469036529135
 20
199.4500445718091
 30
0.0
 10
263.4061165618352
 20
199.610335662626
 30
0.0
 10
263.3525402941097
 20
199.9329095301564
 30
0.0
 10
263.3397650732296
 20
200.0951953169344
 30
0.0
 10
263.3397650732296
 20
200.2522342197508
 30
0.0
  0
SPLINE
  5
D55
330
1F
100
AcDbEntity
  8
AM_VIS
100
AcDbSpline
210
0.0
220
0.0
230
1.0
 70
     8
 71
     3
 72
    22
 73
    18
 74
     0
 42
0.0000000001
 43
0.0000000001
 40
7.562677872244875
 40
7.562677872244875
 40
7.562677872244875
 40
7.562677872244875
 40
8.033794580693955
 40
8.033794580693955
 40
8.504911289143034
 40
8.504911289143034
 40
8.976027997592115
 40
8.976027997592115
 40
9.447144706041195
 40
9.447144706041195
 40
9.923306923661693
 40
9.923306923661693
 40
10.39946914128219
 40
10.39946914128219
 40
10.87563135890269
 40
10.87563135890269
 40
11.3517935765232
 40
11.3517935765232
 40
11.3517935765232
 40
11.3517935765232
 10
263.3397650732296
 20
265.2522342197508
 30
0.0
 10
263.3397650732296
 20
265.4092731225671
 30
0.0
 10
263.3525402941097
 20
265.5715589093451
 30
0.0
 10
263.4061165618352
 20
265.8941327768756
 30
0.0
 10
263.4469036529135
 20
266.0544238676924
 30
0.0
 10
263.5542170408768
 20
266.3616182708243
 30
0.0
 10
263.6208228709508
 20
266.5087742958371
 30
0.0
 10
263.77379851362
 20
266.7807579666706
 30
0.0
 10
263.86016739663
 20
266.9055799090404
 30
0.0
 10
264.0439326490513
 20
267.127660694597
 30
0.0
 10
264.1478289429854
 20
267.2323337447796
 30
0.0
 10
264.372599859423
 20
267.416810300111
 30
0.0
 10
264.4934600521616
 20
267.496627068188
 30
0.0
 10
264.743859861441
 20
267.6248672577017
 30
0.0
 10
264.873588171193
 20
267.6733889578342
 30
0.0
 10
265.132716311841
 20
267.7370804292884
 30
0.0
 10
265.2621166224261
 20
267.7522342197509
 30
0.0
 10
265.386486858034
 20
267.7522342197509
 30
0.0
  0
LINE
  5
D56
330
1F
100
AcDbEntity
  8
AM_VIS
100
AcDbLine
 10
235.4370753065584
 20
181.7522342197508
 30
0.0
 11
235.4370753065584
 21
178.7522342197508
 31
0.0
  0
LINE
  5
D57
330
1F
100
AcDbEntity
  8
AM_VIS
100
AcDbLine
 10
257.4370753065584
 20
181.7522342197508
 30
0.0
 11
257.4370753065584
 21
178.7522342197508
 31
0.0
  0
LINE
  5
D58
330
1F
100
AcDbEntity
  8
AM_VIS
100
AcDbLine
 10
215.9370753065584
 20
277.7522342197508
 30
0.0
 11
215.9370753065584
 21
191.9153011121704
 31
0.0
  0
LINE
  5
D59
330
1F
100
AcDbEntity
  8
AM_VIS
100
AcDbLine
 10
276.9370753065584
 20
277.7522342197508
 30
0.0
 11
276.9370753065584
 21
191.9153011121704
 31
0.0
  0
LINE
  5
D5A
330
1F
100
AcDbEntity
  8
AM_VIS
100
AcDbLine
 10
243.4370753065584
 20
176.7522342197508
 30
0.0
 11
243.4370753065584
 21
173.3522342197508
 31
0.0
  0
LINE
  5
D5B
330
1F
100
AcDbEntity
  8
AM_VIS
100
AcDbLine
 10
249.4370753065584
 20
176.7522342197508
 30
0.0
 11
249.4370753065584
 21
173.3522342197508
 31
0.0
  0
LINE
  5
D5C
330
1F
100
AcDbEntity
  8
AM_VIS
100
AcDbLine
 10
249.1370753065583
 20
166.7522342197508
 30
0.0
 11
249.4370753065584
 21
168.7522342197508
 31
0.0
  0
LINE
  5
D5D
330
1F
100
AcDbEntity
  8
AM_VIS
100
AcDbLine
 10
243.7370753065584
 20
166.7522342197508
 30
0.0
 11
243.4370753065584
 21
168.7522342197508
 31
0.0
  0
LINE
  5
D5E
330
1F
100
AcDbEntity
  8
AM_VIS
100
AcDbLine
 10
243.4370753065584
 20
171.3522342197508
 30
0.0
 11
243.4370753065584
 21
171.0522342197508
 31
0.0
  0
LINE
  5
D5F
330
1F
100
AcDbEntity
  8
AM_VIS
100
AcDbLine
 10
249.4370753065584
 20
171.3522342197508
 30
0.0
 11
249.4370753065584
 21
171.0522342197508
 31
0.0
  0
LINE
  5
D60
330
1F
100
AcDbEntity
  8
AM_VIS
100
AcDbLine
 10
243.4370753065584
 20
169.0522342197508
 30
0.0
 11
243.4370753065584
 21
168.7522342197508
 31
0.0
  0
LINE
  5
D61
102
{ACAD_REACTORS
330
F53
102
}
330
1F
100
AcDbEntity
  8
AM_VIS
100
AcDbLine
 10
249.4370753065584
 20
169.0522342197508
 30
0.0
 11
249.4370753065584
 21
168.7522342197508
 31
0.0
  0
LINE
  5
D62
330
1F
100
AcDbEntity
  8
AM_VIS
100
AcDbLine
 10
249.1370753065583
 20
169.0522342197508
 30
0.0
 11
249.4370753065584
 21
171.0522342197508
 31
0.0
  0
LINE
  5
D63
330
1F
100
AcDbEntity
  8
AM_VIS
100
AcDbLine
 10
243.7370753065584
 20
169.0522342197508
 30
0.0
 11
243.4370753065584
 21
171.0522342197508
 31
0.0
  0
LINE
  5
D64
330
1F
100
AcDbEntity
  8
AM_VIS
100
AcDbLine
 10
249.1370753065583
 20
171.3522342197508
 30
0.0
 11
249.4370753065584
 21
173.3522342197508
 31
0.0
  0
LINE
  5
D65
330
1F
100
AcDbEntity
  8
AM_VIS
100
AcDbLine
 10
243.7370753065584
 20
171.3522342197508
 30
0.0
 11
243.4370753065584
 21
173.3522342197508
 31
0.0
  0
LINE
  5
D66
330
1F
100
AcDbEntity
  8
AM_VIS
100
AcDbLine
 10
255.4370753065584
 20
176.7522342197508
 30
0.0
 11
237.4370753065584
 21
176.7522342197508
 31
0.0
  0
LINE
  5
D67
330
1F
100
AcDbEntity
  8
AM_VIS
100
AcDbLine
 10
234.9370753065584
 20
181.7522342197508
 30
0.0
 11
257.9370753065584
 21
181.7522342197508
 31
0.0
  0
LINE
  5
D68
330
1F
100
AcDbEntity
  8
AM_VIS
100
AcDbLine
 10
222.5379162867769
 20
197.7522342197508
 30
0.0
 11
227.4876637550828
 21
197.7522342197508
 31
0.0
  0
LINE
  5
D69
330
1F
100
AcDbEntity
  8
AM_VIS
100
AcDbLine
 10
227.4876637550828
 20
267.7522342197509
 30
0.0
 11
222.537916286777
 21
267.7522342197509
 31
0.0
  0
LINE
  5
D6A
330
1F
100
AcDbEntity
  8
AM_VIS
100
AcDbLine
 10
270.3362343263399
 20
267.7522342197509
 30
0.0
 11
265.386486858034
 21
267.7522342197509
 31
0.0
  0
LINE
  5
D6B
330
1F
100
AcDbEntity
  8
AM_VIS
100
AcDbLine
 10
265.386486858034
 20
197.7522342197508
 30
0.0
 11
270.3362343263399
 21
197.7522342197508
 31
0.0
  0
LINE
  5
D6C
102
{ACAD_REACTORS
330
EDB
102
}
330
1F
100
AcDbEntity
  8
AM_VIS
100
AcDbLine
 10
243.7370753065584
 20
166.7522342197508
 30
0.0
 11
249.1370753065583
 21
166.7522342197508
 31
0.0
  0
LINE
  5
D6D
102
{ACAD_REACTORS
330
F53
102
}
330
1F
100
AcDbEntity
  8
AM_VIS
100
AcDbLine
 10
249.4370753065584
 20
168.7522342197508
 30
0.0
 11
243.4370753065584
 21
168.7522342197508
 31
0.0
  0
LINE
  5
D6E
330
1F
100
AcDbEntity
  8
AM_VIS
100
AcDbLine
 10
243.4370753065584
 20
169.0522342197508
 30
0.0
 11
249.4370753065584
 21
169.0522342197508
 31
0.0
  0
LINE
  5
D6F
330
1F
100
AcDbEntity
  8
AM_VIS
100
AcDbLine
 10
249.4370753065584
 20
171.0522342197508
 30
0.0
 11
243.4370753065584
 21
171.0522342197508
 31
0.0
  0
LINE
  5
D70
330
1F
100
AcDbEntity
  8
AM_VIS
100
AcDbLine
 10
243.4370753065584
 20
171.3522342197508
 30
0.0
 11
249.4370753065584
 21
171.3522342197508
 31
0.0
  0
LINE
  5
D71
330
1F
100
AcDbEntity
  8
AM_VIS
100
AcDbLine
 10
249.4370753065584
 20
173.3522342197508
 30
0.0
 11
243.4370753065584
 21
173.3522342197508
 31
0.0
  0
ARC
  5
D72
330
1F
100
AcDbEntity
  8
AM_VIS
100
AcDbCircle
 10
237.4370753065584
 20
178.7522342197508
 30
0.0
 40
2.0
100
AcDbArc
 50
180.0
 51
270.0
  0
ARC
  5
D73
330
1F
100
AcDbEntity
  8
AM_VIS
100
AcDbCircle
 10
255.4370753065584
 20
178.7522342197508
 30
0.0
 40
2.0
100
AcDbArc
 50
270.0
 51
0.0
  0
ARC
  5
D74
330
1F
100
AcDbEntity
  8
AM_VIS
100
AcDbCircle
 10
234.9370753065584
 20
208.3147342197508
 30
0.0
 40
26.56250000000001
100
AcDbArc
 50
229.5130104454945
 51
270.0
  0
ARC
  5
D75
330
1F
100
AcDbEntity
  8
AM_VIS
100
AcDbCircle
 10
257.9370753065584
 20
208.3147342197508
 30
0.0
 40
26.5625
100
AcDbArc
 50
270.0
 51
310.4869895545055
  0
ARC
  5
D76
330
1F
100
AcDbEntity
  8
AM_VIS
100
AcDbCircle
 10
220.9370753065584
 20
191.9153011121704
 30
0.0
 40
5.0
100
AcDbArc
 50
180.0
 51
229.5130104454945
  0
ARC
  5
D77
330
1F
100
AcDbEntity
  8
AM_VIS
100
AcDbCircle
 10
271.9370753065584
 20
191.9153011121704
 30
0.0
 40
5.0
100
AcDbArc
 50
310.4869895545055
 51
0.0
  0
LINE
  5
D78
330
1F
100
AcDbEntity
  8
AM_VIS
100
AcDbLine
 10
281.4370753065584
 20
402.7801295626573
 30
0.0
 11
281.4370753065584
 21
376.7801295626573
 31
0.0
  0
LINE
  5
D79
330
1F
100
AcDbEntity
  8
AM_VIS
100
AcDbLine
 10
211.4370753065584
 20
376.7801295626573
 30
0.0
 11
211.4370753065584
 21
402.7801295626573
 31
0.0
  0
LINE
  5
D7A
330
1F
100
AcDbEntity
  8
AM_VIS
100
AcDbLine
 10
228.2552679391117
 20
364.2624914724521
 30
0.0
 11
225.4370753065584
 21
374.7801295626573
 31
0.0
  0
LINE
  5
D7B
330
1F
100
AcDbEntity
  8
AM_VIS
100
AcDbLine
 10
264.6188826740051
 20
415.2977676528624
 30
0.0
 11
267.4370753065584
 21
404.7801295626571
 31
0.0
  0
LINE
  5
D7C
330
1F
100
AcDbEntity
  8
AM_VIS
100
AcDbLine
 10
219.3964150629572
 20
357.0036724273498
 30
0.0
 11
215.4370753065584
 21
371.7801295626573
 31
0.0
  0
LINE
  5
D7D
330
1F
100
AcDbEntity
  8
AM_VIS
100
AcDbLine
 10
277.4370753065584
 20
371.7801295626573
 30
0.0
 11
273.4777355501596
 21
357.0036724273498
 31
0.0
  0
LINE
  5
D7E
330
1F
100
AcDbEntity
  8
AM_VIS
100
AcDbLine
 10
273.4777355501596
 20
422.5565866979648
 30
0.0
 11
277.4370753065584
 21
407.7801295626573
 31
0.0
  0
LINE
  5
D7F
330
1F
100
AcDbEntity
  8
AM_VIS
100
AcDbLine
 10
215.4370753065584
 20
407.7801295626573
 30
0.0
 11
219.3964150629572
 21
422.5565866979648
 31
0.0
  0
LINE
  5
D80
330
1F
100
AcDbEntity
  8
AM_VIS
100
AcDbLine
 10
262.687031021427
 20
362.7801295626573
 30
0.0
 11
230.1871195916898
 21
362.7801295626573
 31
0.0
  0
LINE
  5
D81
330
1F
100
AcDbEntity
  8
AM_VIS
100
AcDbLine
 10
267.4370753065584
 20
374.7801295626573
 30
0.0
 11
264.6188826740051
 21
364.2624914724521
 31
0.0
  0
LINE
  5
D82
330
1F
100
AcDbEntity
  8
AM_VIS
100
AcDbLine
 10
230.1871195916898
 20
416.7801295626571
 30
0.0
 11
262.687031021427
 21
416.7801295626571
 31
0.0
  0
LINE
  5
D83
330
1F
100
AcDbEntity
  8
AM_VIS
100
AcDbLine
 10
225.4370753065584
 20
404.7801295626571
 30
0.0
 11
228.2552679391117
 21
415.2977676528624
 31
0.0
  0
LINE
  5
D84
330
1F
100
AcDbEntity
  8
AM_VIS
100
AcDbLine
 10
270.5799580712924
 20
354.7801295626573
 30
0.0
 11
222.2941925418244
 21
354.7801295626573
 31
0.0
  0
LINE
  5
D85
330
1F
100
AcDbEntity
  8
AM_VIS
100
AcDbLine
 10
222.2941925418244
 20
424.7801295626572
 30
0.0
 11
270.5799580712924
 21
424.7801295626572
 31
0.0
  0
LINE
  5
D86
330
1F
100
AcDbEntity
  8
AM_VIS
100
AcDbLine
 10
216.4370753065584
 20
374.7801295626573
 30
0.0
 11
276.4370753065584
 21
374.7801295626573
 31
0.0
  0
LINE
  5
D87
330
1F
100
AcDbEntity
  8
AM_VIS
100
AcDbLine
 10
216.4370753065584
 20
374.7801295626573
 30
0.0
 11
215.633227729265
 21
371.7801295626573
 31
0.0
  0
LINE
  5
D88
330
1F
100
AcDbEntity
  8
AM_VIS
100
AcDbLine
 10
211.4370753065584
 20
371.7801295626573
 30
0.0
 11
215.633227729265
 21
371.7801295626573
 31
0.0
  0
LINE
  5
D89
330
1F
100
AcDbEntity
  8
AM_VIS
100
AcDbLine
 10
211.4370753065584
 20
376.7801295626573
 30
0.0
 11
211.4370753065584
 21
371.7801295626573
 31
0.0
  0
LINE
  5
D8A
330
1F
100
AcDbEntity
  8
AM_VIS
100
AcDbLine
 10
281.4370753065584
 20
376.7801295626573
 30
0.0
 11
211.4370753065584
 21
376.7801295626573
 31
0.0
  0
LINE
  5
D8B
330
1F
100
AcDbEntity
  8
AM_VIS
100
AcDbLine
 10
281.4370753065584
 20
371.7801295626573
 30
0.0
 11
281.4370753065584
 21
376.7801295626573
 31
0.0
  0
LINE
  5
D8C
330
1F
100
AcDbEntity
  8
AM_VIS
100
AcDbLine
 10
277.2409228838518
 20
371.7801295626573
 30
0.0
 11
281.4370753065584
 21
371.7801295626573
 31
0.0
  0
LINE
  5
D8D
330
1F
100
AcDbEntity
  8
AM_VIS
100
AcDbLine
 10
277.2409228838518
 20
371.7801295626573
 30
0.0
 11
276.4370753065584
 21
374.7801295626573
 31
0.0
  0
LINE
  5
D8E
330
1F
100
AcDbEntity
  8
AM_VIS
100
AcDbLine
 10
276.4370753065584
 20
404.7801295626571
 30
0.0
 11
216.4370753065584
 21
404.7801295626571
 31
0.0
  0
LINE
  5
D8F
330
1F
100
AcDbEntity
  8
AM_VIS
100
AcDbLine
 10
276.4370753065584
 20
404.7801295626571
 30
0.0
 11
277.2409228838517
 21
407.7801295626573
 31
0.0
  0
LINE
  5
D90
330
1F
100
AcDbEntity
  8
AM_VIS
100
AcDbLine
 10
281.4370753065584
 20
407.7801295626573
 30
0.0
 11
277.2409228838518
 21
407.7801295626573
 31
0.0
  0
LINE
  5
D91
330
1F
100
AcDbEntity
  8
AM_VIS
100
AcDbLine
 10
281.4370753065584
 20
402.7801295626573
 30
0.0
 11
281.4370753065584
 21
407.7801295626573
 31
0.0
  0
LINE
  5
D92
330
1F
100
AcDbEntity
  8
AM_VIS
100
AcDbLine
 10
211.4370753065584
 20
402.7801295626573
 30
0.0
 11
281.4370753065584
 21
402.7801295626573
 31
0.0
  0
LINE
  5
D93
330
1F
100
AcDbEntity
  8
AM_VIS
100
AcDbLine
 10
211.4370753065584
 20
407.7801295626573
 30
0.0
 11
211.4370753065584
 21
402.7801295626573
 31
0.0
  0
LINE
  5
D94
330
1F
100
AcDbEntity
  8
AM_VIS
100
AcDbLine
 10
215.633227729265
 20
407.7801295626573
 30
0.0
 11
211.4370753065584
 21
407.7801295626573
 31
0.0
  0
LINE
  5
D95
330
1F
100
AcDbEntity
  8
AM_VIS
100
AcDbLine
 10
215.633227729265
 20
407.7801295626573
 30
0.0
 11
216.4370753065584
 21
404.7801295626571
 31
0.0
  0
LINE
  5
D96
330
1F
100
AcDbEntity
  8
AM_VIS
100
AcDbLine
 10
220.9370753065584
 20
389.7801295626573
 30
0.0
 11
213.4370753065584
 21
385.4500025437351
 31
0.0
  0
LINE
  5
D97
330
1F
100
AcDbEntity
  8
AM_VIS
100
AcDbLine
 10
213.4370753065584
 20
385.4500025437351
 30
0.0
 11
213.4370753065584
 21
394.1102565815795
 31
0.0
  0
LINE
  5
D98
330
1F
100
AcDbEntity
  8
AM_VIS
100
AcDbLine
 10
213.4370753065584
 20
394.1102565815795
 30
0.0
 11
220.9370753065584
 21
389.7801295626573
 31
0.0
  0
ARC
  5
D99
330
1F
100
AcDbEntity
  8
AM_VIS
100
AcDbCircle
 10
230.1871195916898
 20
364.7801295626573
 30
0.0
 40
1.999999999999999
100
AcDbArc
 50
194.9999999999999
 51
270.0
  0
ARC
  5
D9A
330
1F
100
AcDbEntity
  8
AM_VIS
100
AcDbCircle
 10
262.687031021427
 20
364.7801295626573
 30
0.0
 40
2.0
100
AcDbArc
 50
270.0
 51
345.0000000000009
  0
ARC
  5
D9B
330
1F
100
AcDbEntity
  8
AM_VIS
100
AcDbCircle
 10
262.687031021427
 20
414.7801295626573
 30
0.0
 40
2.0
100
AcDbArc
 50
14.99999999999995
 51
90.0
  0
ARC
  5
D9C
330
1F
100
AcDbEntity
  8
AM_VIS
100
AcDbCircle
 10
230.1871195916898
 20
414.7801295626573
 30
0.0
 40
2.0
100
AcDbArc
 50
90.0
 51
165.0
  0
ARC
  5
D9D
330
1F
100
AcDbEntity
  8
AM_VIS
100
AcDbCircle
 10
222.2941925418244
 20
357.7801295626573
 30
0.0
 40
3.0
100
AcDbArc
 50
194.9999999999999
 51
270.0
  0
ARC
  5
D9E
102
{ACAD_REACTORS
330
F27
102
}
330
1F
100
AcDbEntity
  8
AM_VIS
100
AcDbCircle
 10
270.5799580712924
 20
357.7801295626573
 30
0.0
 40
3.0
100
AcDbArc
 50
270.0
 51
345.0000000000002
  0
ARC
  5
D9F
102
{ACAD_REACTORS
330
F27
102
}
330
1F
100
AcDbEntity
  8
AM_VIS
100
AcDbCircle
 10
270.5799580712924
 20
421.7801295626571
 30
0.0
 40
3.0
100
AcDbArc
 50
14.99999999999995
 51
90.0
  0
ARC
  5
DA0
330
1F
100
AcDbEntity
  8
AM_VIS
100
AcDbCircle
 10
222.2941925418244
 20
421.7801295626571
 30
0.0
 40
3.0
100
AcDbArc
 50
90.0
 51
165.0
  0
LINE
  5
DA1
330
1F
100
AcDbEntity
  8
AM_VIS
100
AcDbLine
 10
256.9370753065584
 20
354.7801295626573
 30
0.0
 11
256.9370753065584
 21
352.2801295626573
 31
0.0
  0
LINE
  5
DA2
330
1F
100
AcDbEntity
  8
AM_VIS
100
AcDbLine
 10
256.9370753065584
 20
352.2801295626573
 30
0.0
 11
235.9370753065584
 21
352.2801295626573
 31
0.0
  0
LINE
  5
DA3
330
1F
100
AcDbEntity
  8
AM_VIS
100
AcDbLine
 10
235.9370753065584
 20
352.2801295626573
 30
0.0
 11
235.9370753065584
 21
354.7801295626573
 31
0.0
  0
LINE
  5
DA4
330
1F
100
AcDbEntity
  8
AM_VIS
100
AcDbLine
 10
359.4561146813289
 20
289.7522342197508
 30
0.0
 11
323.4561146813289
 21
289.7522342197508
 31
0.0
  0
LINE
  5
DA5
330
1F
100
AcDbEntity
  8
AM_VIS
100
AcDbLine
 10
323.4561146813289
 20
289.7522342197508
 30
0.0
 11
323.4561146813289
 21
293.2522342197509
 31
0.0
  0
LINE
  5
DA6
330
1F
100
AcDbEntity
  8
AM_VIS
100
AcDbLine
 10
323.4561146813289
 20
277.7522342197508
 30
0.0
 11
323.4561146813289
 21
289.7522342197508
 31
0.0
  0
LINE
  5
DA7
330
1F
100
AcDbEntity
  8
AM_VIS
100
AcDbLine
 10
323.4561146813289
 20
293.2522342197509
 30
0.0
 11
359.4561146813289
 21
293.2522342197509
 31
0.0
  0
LINE
  5
DA8
330
1F
100
AcDbEntity
  8
AM_VIS
100
AcDbLine
 10
323.4561146813289
 20
293.2522342197509
 30
0.0
 11
323.4561146813289
 21
323.7522342197508
 31
0.0
  0
LINE
  5
DA9
330
1F
100
AcDbEntity
  8
AM_VIS
100
AcDbLine
 10
354.4561146813289
 20
328.7522342197509
 30
0.0
 11
328.4561146813289
 21
328.7522342197509
 31
0.0
  0
LINE
  5
DAA
330
1F
100
AcDbEntity
  8
AM_VIS
100
AcDbLine
 10
366.9737527715339
 20
323.2522342197508
 30
0.0
 11
359.4561146813289
 21
323.2522342197508
 31
0.0
  0
LINE
  5
DAB
330
1F
100
AcDbEntity
  8
AM_VIS
100
AcDbLine
 10
323.4561146813289
 20
299.2522342197509
 30
0.0
 11
308.6796575460214
 21
299.2522342197509
 31
0.0
  0
LINE
  5
DAC
330
1F
100
AcDbEntity
  8
AM_VIS
100
AcDbLine
 10
374.2325718166364
 20
299.2522342197509
 30
0.0
 11
359.4561146813289
 21
299.2522342197509
 31
0.0
  0
LINE
  5
DAD
330
1F
100
AcDbEntity
  8
AM_VIS
100
AcDbLine
 10
323.4561146813289
 20
323.2522342197508
 30
0.0
 11
315.9384765911239
 21
323.2522342197508
 31
0.0
  0
LINE
  5
DAE
330
1F
100
AcDbEntity
  8
AM_VIS
100
AcDbLine
 10
314.4561146813289
 20
323.2522342197508
 30
0.0
 11
314.4561146813289
 21
299.2522342197509
 31
0.0
  0
LINE
  5
DAF
330
1F
100
AcDbEntity
  8
AM_VIS
100
AcDbLine
 10
368.4561146813289
 20
299.2522342197509
 30
0.0
 11
368.4561146813289
 21
323.2522342197508
 31
0.0
  0
LINE
  5
DB0
330
1F
100
AcDbEntity
  8
AM_VIS
100
AcDbLine
 10
306.4561146813289
 20
299.2522342197509
 30
0.0
 11
306.4561146813289
 21
277.7522342197508
 31
0.0
  0
LINE
  5
DB1
330
1F
100
AcDbEntity
  8
AM_VIS
100
AcDbLine
 10
376.4561146813289
 20
277.7522342197508
 30
0.0
 11
376.4561146813289
 21
299.2522342197509
 31
0.0
  0
LINE
  5
DB2
330
1F
100
AcDbEntity
  8
AM_VIS
100
AcDbLine
 10
308.6796575460214
 20
277.7522342197508
 30
0.0
 11
323.4561146813289
 21
277.7522342197508
 31
0.0
  0
LINE
  5
DB3
330
1F
100
AcDbEntity
  8
AM_VIS
100
AcDbLine
 10
323.4561146813289
 20
277.7522342197508
 30
0.0
 11
359.4561146813289
 21
277.7522342197508
 31
0.0
  0
LINE
  5
DB4
330
1F
100
AcDbEntity
  8
AM_VIS
100
AcDbLine
 10
359.4561146813289
 20
277.7522342197508
 30
0.0
 11
374.2325718166364
 21
277.7522342197508
 31
0.0
  0
LINE
  5
DB5
330
1F
100
AcDbEntity
  8
AM_VIS
100
AcDbLine
 10
323.4561146813289
 20
323.7522342197508
 30
0.0
 11
328.4561146813289
 21
328.7522342197509
 31
0.0
  0
LINE
  5
DB6
330
1F
100
AcDbEntity
  8
AM_VIS
100
AcDbLine
 10
359.4561146813289
 20
277.7522342197508
 30
0.0
 11
359.4561146813289
 21
289.7522342197508
 31
0.0
  0
LINE
  5
DB7
330
1F
100
AcDbEntity
  8
AM_VIS
100
AcDbLine
 10
359.4561146813289
 20
293.2522342197509
 30
0.0
 11
359.4561146813289
 21
289.7522342197508
 31
0.0
  0
LINE
  5
DB8
330
1F
100
AcDbEntity
  8
AM_VIS
100
AcDbLine
 10
359.4561146813289
 20
293.2522342197509
 30
0.0
 11
359.4561146813289
 21
323.7522342197508
 31
0.0
  0
LINE
  5
DB9
330
1F
100
AcDbEntity
  8
AM_VIS
100
AcDbLine
 10
354.4561146813289
 20
328.7522342197509
 30
0.0
 11
359.4561146813289
 21
323.7522342197508
 31
0.0
  0
LINE
  5
DBB
330
1F
100
AcDbEntity
  8
AM_VIS
100
AcDbLine
 10
314.4561146813289
 20
323.2522342197508
 30
0.0
 11
315.9384765911239
 21
323.2522342197508
 31
0.0
  0
LINE
  5
DBC
330
1F
100
AcDbEntity
  8
AM_VIS
100
AcDbLine
 10
366.9737527715339
 20
323.2522342197508
 30
0.0
 11
368.4561146813289
 21
323.2522342197508
 31
0.0
  0
LINE
  5
DBD
330
1F
100
AcDbEntity
  8
AM_VIS
100
AcDbLine
 10
306.4561146813289
 20
299.2522342197509
 30
0.0
 11
308.6796575460214
 21
299.2522342197509
 31
0.0
  0
LINE
  5
DBE
330
1F
100
AcDbEntity
  8
AM_VIS
100
AcDbLine
 10
374.2325718166364
 20
299.2522342197509
 30
0.0
 11
376.4561146813289
 21
299.2522342197509
 31
0.0
  0
LINE
  5
DBF
330
1F
100
AcDbEntity
  8
AM_VIS
100
AcDbLine
 10
308.6796575460214
 20
277.7522342197508
 30
0.0
 11
306.4561146813289
 21
277.7522342197508
 31
0.0
  0
LINE
  5
DC0
330
1F
100
AcDbEntity
  8
AM_VIS
100
AcDbLine
 10
376.4561146813289
 20
277.7522342197508
 30
0.0
 11
374.2325718166364
 21
277.7522342197508
 31
0.0
  0
LINE
  5
DC1
330
1F
100
AcDbEntity
  8
AM_VIS
100
AcDbLine
 10
312.8204725547762
 20
252.7522342197508
 30
0.0
 11
303.9561146813289
 21
252.7522342197508
 31
0.0
  0
LINE
  5
DC2
330
1F
100
AcDbEntity
  8
AM_VIS
100
AcDbLine
 10
303.9561146813289
 20
259.7522342197509
 30
0.0
 11
303.9561146813289
 21
252.7522342197508
 31
0.0
  0
LINE
  5
DC3
330
1F
100
AcDbEntity
  8
AM_VIS
100
AcDbLine
 10
306.9561146813289
 20
277.7522342197508
 30
0.0
 11
306.9561146813289
 21
259.7522342197509
 31
0.0
  0
LINE
  5
DC4
330
1F
100
AcDbEntity
  8
AM_VIS
100
AcDbLine
 10
306.9561146813289
 20
259.7522342197509
 30
0.0
 11
303.9561146813289
 21
259.7522342197509
 31
0.0
  0
LINE
  5
DC5
330
1F
100
AcDbEntity
  8
AM_VIS
100
AcDbLine
 10
365.9418097328469
 20
265.2522342197508
 30
0.0
 11
365.9418097328469
 21
200.2522342197508
 31
0.0
  0
SPLINE
  5
DC6
330
1F
100
AcDbEntity
  8
AM_VIS
100
AcDbSpline
210
0.0
220
0.0
230
1.0
 70
     8
 71
     3
 72
    22
 73
    18
 74
     0
 42
0.0000000001
 43
0.0000000001
 40
7.565255714219516
 40
7.565255714219516
 40
7.565255714219516
 40
7.565255714219516
 40
8.036397367716562
 40
8.036397367716562
 40
8.507539021213611
 40
8.507539021213611
 40
8.978680674710663
 40
8.978680674710663
 40
9.44982232820771
 40
9.44982232820771
 40
9.926456835766039
 40
9.926456835766039
 40
10.40309134332436
 40
10.40309134332436
 40
10.87972585088269
 40
10.87972585088269
 40
11.35636035844102
 40
11.35636035844102
 40
11.35636035844102
 40
11.35636035844102
 10
365.9418097328469
 20
200.2522342197508
 30
0.0
 10
365.9418097328469
 20
200.0951870019185
 30
0.0
 10
365.9334146908157
 20
199.9329033648221
 30
0.0
 10
365.8980239039739
 20
199.6103566952707
 30
0.0
 10
365.8710342419602
 20
199.4500906172653
 30
0.0
 10
365.7993990772334
 20
199.142965738284
 30
0.0
 10
365.7546888797406
 20
198.9958535644624
 30
0.0
 10
365.6508094799562
 20
198.7239646021503
 30
0.0
 10
365.5916237865789
 20
198.5991933389256
 30
0.0
 10
365.463984105304
 20
198.3771027679779
 30
0.0
 10
365.3909975844374
 20
198.2723840299287
 30
0.0
 10
365.2305042459111
 20
198.0878280639296
 30
0.0
 10
365.1429920291814
 20
198.0079774186659
 30
0.0
 10
364.9584639702402
 20
197.8796772664084
 30
0.0
 10
364.8612982174015
 20
197.8311297773576
 30
0.0
 10
364.6637447228345
 20
197.7674001548458
 30
0.0
 10
364.5633523574265
 20
197.7522342197508
 30
0.0
 10
364.4652585510382
 20
197.7522342197508
 30
0.0
  0
SPLINE
  5
DC7
330
1F
100
AcDbEntity
  8
AM_VIS
100
AcDbSpline
210
0.0
220
0.0
230
1.0
 70
     8
 71
     3
 72
    22
 73
    18
 74
     0
 42
0.0000000001
 43
0.0000000001
 40
3.774151069998002
 40
3.774151069998002
 40
3.774151069998002
 40
3.774151069998002
 40
4.25078557755633
 40
4.25078557755633
 40
4.727420085114657
 40
4.727420085114657
 40
5.204054592672983
 40
5.204054592672983
 40
5.68068910023131
 40
5.68068910023131
 40
6.15183075372836
 40
6.15183075372836
 40
6.62297240722541
 40
6.62297240722541
 40
7.094114060722462
 40
7.094114060722462
 40
7.565255714219513
 40
7.565255714219513
 40
7.565255714219513
 40
7.565255714219513
 10
364.4652585510382
 20
267.7522342197509
 30
0.0
 10
364.5633523574265
 20
267.7522342197509
 30
0.0
 10
364.6637447228345
 20
267.7370682846557
 30
0.0
 10
364.8612982174015
 20
267.6733386621439
 30
0.0
 10
364.9584639702402
 20
267.6247911730931
 30
0.0
 10
365.1429920291814
 20
267.4964910208357
 30
0.0
 10
365.2305042459111
 20
267.416640375572
 30
0.0
 10
365.3909975844374
 20
267.2320844095728
 30
0.0
 10
365.463984105304
 20
267.1273656715237
 30
0.0
 10
365.5916237865789
 20
266.905275100576
 30
0.0
 10
365.6508094799562
 20
266.7805038373515
 30
0.0
 10
365.7546888797404
 20
266.5086148750392
 30
0.0
 10
365.7993990772334
 20
266.3615027012176
 30
0.0
 10
365.8710342419602
 20
266.0543778222362
 30
0.0
 10
365.8980239039739
 20
265.8941117442308
 30
0.0
 10
365.9334146908157
 20
265.5715650746795
 30
0.0
 10
365.9418097328469
 20
265.4092814375831
 30
0.0
 10
365.9418097328469
 20
265.2522342197508
 30
0.0
  0
LINE
  5
DC8
330
1F
100
AcDbEntity
  8
AM_VIS
100
AcDbLine
 10
316.970419629811
 20
200.2522342197508
 30
0.0
 11
316.970419629811
 21
265.2522342197508
 31
0.0
  0
SPLINE
  5
DC9
330
1F
100
AcDbEntity
  8
AM_VIS
100
AcDbSpline
210
0.0
220
0.0
230
1.0
 70
     8
 71
     3
 72
    22
 73
    18
 74
     0
 42
0.0000000001
 43
0.0000000001
 40
0.0
 40
0.0
 40
0.0
 40
0.0
 40
0.4711416534970506
 40
0.4711416534970506
 40
0.9422833069941011
 40
0.9422833069941011
 40
1.41342496049115
 40
1.41342496049115
 40
1.884566613988202
 40
1.884566613988202
 40
2.361201121546526
 40
2.361201121546526
 40
2.837835629104853
 40
2.837835629104853
 40
3.314470136663179
 40
3.314470136663179
 40
3.791104644221503
 40
3.791104644221503
 40
3.791104644221503
 40
3.791104644221503
 10
316.970419629811
 20
265.2522342197508
 30
0.0
 10
316.970419629811
 20
265.4092814375831
 30
0.0
 10
316.9788146718422
 20
265.5715650746795
 30
0.0
 10
317.0142054586841
 20
265.8941117442308
 30
0.0
 10
317.0411951206978
 20
266.0543778222362
 30
0.0
 10
317.1128302854244
 20
266.3615027012176
 30
0.0
 10
317.1575404829173
 20
266.5086148750392
 30
0.0
 10
317.2614198827016
 20
266.7805038373515
 30
0.0
 10
317.3206055760791
 20
266.905275100576
 30
0.0
 10
317.4482452573538
 20
267.1273656715237
 30
0.0
 10
317.5212317782205
 20
267.2320844095728
 30
0.0
 10
317.6817251167467
 20
267.416640375572
 30
0.0
 10
317.7692373334764
 20
267.4964910208357
 30
0.0
 10
317.9537653924175
 20
267.6247911730931
 30
0.0
 10
318.0509311452564
 20
267.6733386621439
 30
0.0
 10
318.2484846398232
 20
267.7370682846557
 30
0.0
 10
318.3488770052313
 20
267.7522342197509
 30
0.0
 10
318.4469708116196
 20
267.7522342197509
 30
0.0
  0
SPLINE
  5
DCA
330
1F
100
AcDbEntity
  8
AM_VIS
100
AcDbSpline
210
0.0
220
0.0
230
1.0
 70
     8
 71
     3
 72
    22
 73
    18
 74
     0
 42
0.0000000001
 43
0.0000000001
 40
-3.791104644221506
 40
-3.791104644221506
 40
-3.791104644221506
 40
-3.791104644221506
 40
-3.314470136663178
 40
-3.314470136663178
 40
-2.83783562910485
 40
-2.83783562910485
 40
-2.361201121546524
 40
-2.361201121546524
 40
-1.884566613988198
 40
-1.884566613988198
 40
-1.413424960491148
 40
-1.413424960491148
 40
-0.9422833069940992
 40
-0.9422833069940992
 40
-0.4711416534970497
 40
-0.4711416534970497
 40
0.0
 40
0.0
 40
0.0
 40
0.0
 10
318.4469708116196
 20
197.7522342197508
 30
0.0
 10
318.3488770052313
 20
197.7522342197508
 30
0.0
 10
318.2484846398232
 20
197.7674001548458
 30
0.0
 10
318.0509311452563
 20
197.8311297773576
 30
0.0
 10
317.9537653924175
 20
197.8796772664084
 30
0.0
 10
317.7692373334764
 20
198.0079774186659
 30
0.0
 10
317.6817251167467
 20
198.0878280639295
 30
0.0
 10
317.5212317782205
 20
198.2723840299287
 30
0.0
 10
317.4482452573538
 20
198.3771027679779
 30
0.0
 10
317.3206055760791
 20
198.5991933389256
 30
0.0
 10
317.2614198827016
 20
198.7239646021502
 30
0.0
 10
317.1575404829173
 20
198.9958535644624
 30
0.0
 10
317.1128302854244
 20
199.142965738284
 30
0.0
 10
317.0411951206977
 20
199.4500906172653
 30
0.0
 10
317.0142054586841
 20
199.6103566952707
 30
0.0
 10
316.9788146718422
 20
199.932903364822
 30
0.0
 10
316.970419629811
 20
200.0951870019184
 30
0.0
 10
316.970419629811
 20
200.2522342197508
 30
0.0
  0
SPLINE
  5
DCB
330
1F
100
AcDbEntity
  8
AM_VIS
100
AcDbSpline
210
0.0
220
0.0
230
1.0
 70
     8
 71
     3
 72
    22
 73
    18
 74
     0
 42
0.0000000001
 43
0.0000000001
 40
7.562677872244871
 40
7.562677872244871
 40
7.562677872244871
 40
7.562677872244871
 40
8.03379458069395
 40
8.03379458069395
 40
8.504911289143031
 40
8.504911289143031
 40
8.976027997592112
 40
8.976027997592112
 40
9.447144706041193
 40
9.447144706041193
 40
9.923306923661693
 40
9.923306923661693
 40
10.39946914128219
 40
10.39946914128219
 40
10.87563135890269
 40
10.87563135890269
 40
11.35179357652319
 40
11.35179357652319
 40
11.35179357652319
 40
11.35179357652319
 10
358.3588044480001
 20
265.2522342197508
 30
0.0
 10
358.3588044480001
 20
265.4092731225671
 30
0.0
 10
358.3715796688803
 20
265.5715589093451
 30
0.0
 10
358.4251559366057
 20
265.8941327768756
 30
0.0
 10
358.465943027684
 20
266.0544238676924
 30
0.0
 10
358.5732564156473
 20
266.3616182708243
 30
0.0
 10
358.6398622457214
 20
266.508774295837
 30
0.0
 10
358.7928378883906
 20
266.7807579666706
 30
0.0
 10
358.8792067714005
 20
266.9055799090404
 30
0.0
 10
359.0629720238219
 20
267.127660694597
 30
0.0
 10
359.1668683177559
 20
267.2323337447796
 30
0.0
 10
359.3916392341935
 20
267.416810300111
 30
0.0
 10
359.5124994269322
 20
267.496627068188
 30
0.0
 10
359.7628992362114
 20
267.6248672577017
 30
0.0
 10
359.8926275459636
 20
267.6733889578342
 30
0.0
 10
360.1517556866117
 20
267.7370804292884
 30
0.0
 10
360.2811559971967
 20
267.7522342197509
 30
0.0
 10
360.4055262328045
 20
267.7522342197509
 30
0.0
  0
SPLINE
  5
DCC
330
1F
100
AcDbEntity
  8
AM_VIS
100
AcDbSpline
210
0.0
220
0.0
230
1.0
 70
     8
 71
     3
 72
    22
 73
    18
 74
     0
 42
0.0000000001
 43
0.0000000001
 40
3.773562071924166
 40
3.773562071924166
 40
3.773562071924166
 40
3.773562071924166
 40
4.248305562462991
 40
4.248305562462991
 40
4.723049053001815
 40
4.723049053001815
 40
5.197792543540641
 40
5.197792543540641
 40
5.672536034079465
 40
5.672536034079465
 40
6.145072416928004
 40
6.145072416928004
 40
6.617608799776546
 40
6.617608799776546
 40
7.090145182625085
 40
7.090145182625085
 40
7.562681565473624
 40
7.562681565473624
 40
7.562681565473624
 40
7.562681565473624
 10
360.4055262328045
 20
197.7522342197508
 30
0.0
 10
360.2815265587718
 20
197.7522342197508
 30
0.0
 10
360.1525020450479
 20
197.7672979624772
 30
0.0
 10
359.8940890700649
 20
197.8306276454883
 30
0.0
 10
359.7647001374951
 20
197.8788778165428
 30
0.0
 10
359.5148987415478
 20
198.0064169488248
 30
0.0
 10
359.3942989220409
 20
198.0858031779401
 30
0.0
 10
359.1699352502677
 20
198.2692979077033
 30
0.0
 10
359.0661856416705
 20
198.3734194992192
 30
0.0
 10
358.8820317531051
 20
198.5949987673829
 30
0.0
 10
358.795212659574
 20
198.719981811361
 30
0.0
 10
358.6414270138616
 20
198.9924309843669
 30
0.0
 10
358.574461351355
 20
199.1398912910091
 30
0.0
 10
358.4665584285385
 20
199.4478007843095
 30
0.0
 10
358.4255408000511
 20
199.6085045184709
 30
0.0
 10
358.3716567326321
 20
199.9319636418174
 30
0.0
 10
358.3588044480001
 20
200.0947220921346
 30
0.0
 10
358.3588044480003
 20
200.2522342197508
 30
0.0
  0
SPLINE
  5
DCD
330
1F
100
AcDbEntity
  8
AM_VIS
100
AcDbSpline
210
0.0
220
0.0
230
1.0
 70
     8
 71
     3
 72
    22
 73
    18
 74
     0
 42
0.0000000001
 43
0.0000000001
 40
-3.789115704278325
 40
-3.789115704278325
 40
-3.789115704278325
 40
-3.789115704278325
 40
-3.312953486657824
 40
-3.312953486657824
 40
-2.836791269037325
 40
-2.836791269037325
 40
-2.360629051416824
 40
-2.360629051416824
 40
-1.884466833796325
 40
-1.884466833796325
 40
-1.413350125347244
 40
-1.413350125347244
 40
-0.9422334168981636
 40
-0.9422334168981636
 40
-0.4711167084490829
 40
-0.4711167084490829
 40
0.0
 40
0.0
 40
0.0
 40
0.0
 10
322.5067031298534
 20
267.7522342197509
 30
0.0
 10
322.6310733654611
 20
267.7522342197509
 30
0.0
 10
322.7604736760462
 20
267.7370804292884
 30
0.0
 10
323.0196018166943
 20
267.6733889578342
 30
0.0
 10
323.1493301264463
 20
267.6248672577017
 30
0.0
 10
323.3997299357256
 20
267.496627068188
 30
0.0
 10
323.5205901284644
 20
267.416810300111
 30
0.0
 10
323.745361044902
 20
267.2323337447796
 30
0.0
 10
323.849257338836
 20
267.127660694597
 30
0.0
 10
324.0330225912574
 20
266.9055799090404
 30
0.0
 10
324.1193914742672
 20
266.7807579666706
 30
0.0
 10
324.2723671169365
 20
266.508774295837
 30
0.0
 10
324.3389729470105
 20
266.3616182708243
 30
0.0
 10
324.4462863349738
 20
266.0544238676924
 30
0.0
 10
324.487073426052
 20
265.8941327768756
 30
0.0
 10
324.5406496937776
 20
265.5715589093451
 30
0.0
 10
324.5534249146577
 20
265.4092731225671
 30
0.0
 10
324.5534249146577
 20
265.2522342197508
 30
0.0
  0
SPLINE
  5
DCE
330
1F
100
AcDbEntity
  8
AM_VIS
100
AcDbSpline
210
0.0
220
0.0
230
1.0
 70
     8
 71
     3
 72
    22
 73
    18
 74
     0
 42
0.0000000001
 43
0.0000000001
 40
0.0
 40
0.0
 40
0.0
 40
0.0
 40
0.4711167084490839
 40
0.4711167084490839
 40
0.9422334168981675
 40
0.9422334168981675
 40
1.41335012534725
 40
1.41335012534725
 40
1.884466833796334
 40
1.884466833796334
 40
2.360629051416834
 40
2.360629051416834
 40
2.836791269037331
 40
2.836791269037331
 40
3.312953486657831
 40
3.312953486657831
 40
3.789115704278328
 40
3.789115704278328
 40
3.789115704278328
 40
3.789115704278328
 10
324.5534249146577
 20
200.2522342197508
 30
0.0
 10
324.5534249146577
 20
200.0951953169344
 30
0.0
 10
324.5406496937776
 20
199.9329095301564
 30
0.0
 10
324.4870734260521
 20
199.610335662626
 30
0.0
 10
324.4462863349738
 20
199.4500445718091
 30
0.0
 10
324.3389729470106
 20
199.1428501686771
 30
0.0
 10
324.2723671169365
 20
198.9956941436646
 30
0.0
 10
324.1193914742674
 20
198.723710472831
 30
0.0
 10
324.0330225912574
 20
198.5988885304612
 30
0.0
 10
323.8492573388362
 20
198.3768077449045
 30
0.0
 10
323.745361044902
 20
198.272134694722
 30
0.0
 10
323.5205901284644
 20
198.0876581393905
 30
0.0
 10
323.3997299357256
 20
198.0078413713135
 30
0.0
 10
323.1493301264463
 20
197.8796011817999
 30
0.0
 10
323.0196018166943
 20
197.8310794816674
 30
0.0
 10
322.7604736760462
 20
197.7673880102132
 30
0.0
 10
322.6310733654612
 20
197.7522342197508
 30
0.0
 10
322.5067031298534
 20
197.7522342197508
 30
0.0
  0
SPLINE
  5
DCF
330
1F
100
AcDbEntity
  8
AM_VIS
100
AcDbSpline
210
0.0
220
0.0
230
1.0
 70
     8
 71
     3
 72
    22
 73
    18
 74
     0
 42
0.0000000001
 43
0.0000000001
 40
-3.789115704278326
 40
-3.789115704278326
 40
-3.789115704278326
 40
-3.789115704278326
 40
-3.312953486657828
 40
-3.312953486657828
 40
-2.83679126903733
 40
-2.83679126903733
 40
-2.360629051416831
 40
-2.360629051416831
 40
-1.884466833796333
 40
-1.884466833796333
 40
-1.41335012534725
 40
-1.41335012534725
 40
-0.9422334168981656
 40
-0.9422334168981656
 40
-0.4711167084490829
 40
-0.4711167084490829
 40
0.0
 40
0.0
 40
0.0
 40
0.0
 10
322.5067031298534
 20
197.7522342197508
 30
0.0
 10
322.6310733654611
 20
197.7522342197508
 30
0.0
 10
322.7604736760462
 20
197.7673880102132
 30
0.0
 10
323.0196018166943
 20
197.8310794816674
 30
0.0
 10
323.1493301264463
 20
197.8796011817998
 30
0.0
 10
323.3997299357256
 20
198.0078413713135
 30
0.0
 10
323.5205901284644
 20
198.0876581393905
 30
0.0
 10
323.745361044902
 20
198.272134694722
 30
0.0
 10
323.849257338836
 20
198.3768077449045
 30
0.0
 10
324.0330225912574
 20
198.5988885304612
 30
0.0
 10
324.1193914742672
 20
198.723710472831
 30
0.0
 10
324.2723671169365
 20
198.9956941436645
 30
0.0
 10
324.3389729470105
 20
199.1428501686771
 30
0.0
 10
324.4462863349738
 20
199.4500445718091
 30
0.0
 10
324.487073426052
 20
199.6103356626259
 30
0.0
 10
324.5406496937776
 20
199.9329095301564
 30
0.0
 10
324.5534249146577
 20
200.0951953169344
 30
0.0
 10
324.5534249146577
 20
200.2522342197508
 30
0.0
  0
LINE
  5
DD0
330
1F
100
AcDbEntity
  8
AM_VIS
100
AcDbLine
 10
324.5534249146577
 20
265.2522342197508
 30
0.0
 11
324.5534249146577
 21
200.2522342197508
 31
0.0
  0
SPLINE
  5
DD1
330
1F
100
AcDbEntity
  8
AM_VIS
100
AcDbSpline
210
0.0
220
0.0
230
1.0
 70
     8
 71
     3
 72
    22
 73
    18
 74
     0
 42
0.0000000001
 43
0.0000000001
 40
7.562677872244874
 40
7.562677872244874
 40
7.562677872244874
 40
7.562677872244874
 40
8.033794580693951
 40
8.033794580693951
 40
8.504911289143034
 40
8.504911289143034
 40
8.976027997592112
 40
8.976027997592112
 40
9.447144706041193
 40
9.447144706041193
 40
9.923306923661693
 40
9.923306923661693
 40
10.39946914128219
 40
10.39946914128219
 40
10.87563135890269
 40
10.87563135890269
 40
11.35179357652319
 40
11.35179357652319
 40
11.35179357652319
 40
11.35179357652319
 10
324.5534249146577
 20
265.2522342197508
 30
0.0
 10
324.5534249146577
 20
265.4092731225671
 30
0.0
 10
324.5406496937776
 20
265.5715589093451
 30
0.0
 10
324.487073426052
 20
265.8941327768756
 30
0.0
 10
324.4462863349738
 20
266.0544238676924
 30
0.0
 10
324.3389729470105
 20
266.3616182708243
 30
0.0
 10
324.2723671169365
 20
266.508774295837
 30
0.0
 10
324.1193914742672
 20
266.7807579666706
 30
0.0
 10
324.0330225912574
 20
266.9055799090404
 30
0.0
 10
323.849257338836
 20
267.127660694597
 30
0.0
 10
323.745361044902
 20
267.2323337447796
 30
0.0
 10
323.5205901284644
 20
267.416810300111
 30
0.0
 10
323.3997299357256
 20
267.496627068188
 30
0.0
 10
323.1493301264463
 20
267.6248672577017
 30
0.0
 10
323.0196018166943
 20
267.6733889578342
 30
0.0
 10
322.7604736760462
 20
267.7370804292884
 30
0.0
 10
322.6310733654612
 20
267.7522342197509
 30
0.0
 10
322.5067031298534
 20
267.7522342197509
 30
0.0
  0
SPLINE
  5
DD2
330
1F
100
AcDbEntity
  8
AM_VIS
100
AcDbSpline
210
0.0
220
0.0
230
1.0
 70
     8
 71
     3
 72
    22
 73
    18
 74
     0
 42
0.0000000001
 43
0.0000000001
 40
-3.789115704278325
 40
-3.789115704278325
 40
-3.789115704278325
 40
-3.789115704278325
 40
-3.312953486657824
 40
-3.312953486657824
 40
-2.836791269037325
 40
-2.836791269037325
 40
-2.360629051416824
 40
-2.360629051416824
 40
-1.884466833796325
 40
-1.884466833796325
 40
-1.413350125347243
 40
-1.413350125347243
 40
-0.9422334168981619
 40
-0.9422334168981619
 40
-0.4711167084490812
 40
-0.4711167084490812
 40
0.0
 40
0.0
 40
0.0
 40
0.0
 10
317.5569556615475
 20
267.7522342197509
 30
0.0
 10
317.4583437071545
 20
267.7522342197509
 30
0.0
 10
317.3573662438934
 20
267.7370804292884
 30
0.0
 10
317.1585497366402
 20
267.6733889578342
 30
0.0
 10
317.0607061986824
 20
267.6248672577017
 30
0.0
 10
316.8747948287323
 20
267.496627068188
 30
0.0
 10
316.7865759906633
 20
267.416810300111
 30
0.0
 10
316.6247154894489
 20
267.2323337447796
 30
0.0
 10
316.5510689048431
 20
267.127660694597
 30
0.0
 10
316.4221712391555
 20
266.9055799090404
 30
0.0
 10
316.3623577852622
 20
266.7807579666706
 30
0.0
 10
316.2573562523777
 20
266.5087742958371
 30
0.0
 10
316.2121520462306
 20
266.3616182708243
 30
0.0
 10
316.1397182085964
 20
266.0544238676924
 30
0.0
 10
316.1124236178732
 20
265.8941327768756
 30
0.0
 10
316.076633163806
 20
265.5715589093451
 30
0.0
 10
316.0681435404191
 20
265.4092731225671
 30
0.0
 10
316.0681435404191
 20
265.2522342197508
 30
0.0
  0
LINE
  5
DD3
330
1F
100
AcDbEntity
  8
AM_VIS
100
AcDbLine
 10
316.0681435404191
 20
200.2522342197508
 30
0.0
 11
316.0681435404191
 21
265.2522342197508
 31
0.0
  0
SPLINE
  5
DD4
330
1F
100
AcDbEntity
  8
AM_VIS
100
AcDbSpline
210
0.0
220
0.0
230
1.0
 70
     8
 71
     3
 72
    22
 73
    18
 74
     0
 42
0.0000000001
 43
0.0000000001
 40
0.0
 40
0.0
 40
0.0
 40
0.0
 40
0.4711167084490837
 40
0.4711167084490837
 40
0.9422334168981672
 40
0.9422334168981672
 40
1.41335012534725
 40
1.41335012534725
 40
1.884466833796333
 40
1.884466833796333
 40
2.360629051416831
 40
2.360629051416831
 40
2.83679126903733
 40
2.83679126903733
 40
3.312953486657828
 40
3.312953486657828
 40
3.789115704278326
 40
3.789115704278326
 40
3.789115704278326
 40
3.789115704278326
 10
316.0681435404191
 20
200.2522342197508
 30
0.0
 10
316.0681435404191
 20
200.0951953169344
 30
0.0
 10
316.076633163806
 20
199.9329095301564
 30
0.0
 10
316.1124236178732
 20
199.610335662626
 30
0.0
 10
316.1397182085964
 20
199.4500445718091
 30
0.0
 10
316.2121520462306
 20
199.1428501686771
 30
0.0
 10
316.2573562523777
 20
198.9956941436646
 30
0.0
 10
316.3623577852622
 20
198.723710472831
 30
0.0
 10
316.4221712391555
 20
198.5988885304612
 30
0.0
 10
316.5510689048431
 20
198.3768077449045
 30
0.0
 10
316.6247154894488
 20
198.272134694722
 30
0.0
 10
316.7865759906633
 20
198.0876581393905
 30
0.0
 10
316.8747948287323
 20
198.0078413713135
 30
0.0
 10
317.0607061986824
 20
197.8796011817998
 30
0.0
 10
317.1585497366402
 20
197.8310794816674
 30
0.0
 10
317.3573662438934
 20
197.7673880102132
 30
0.0
 10
317.4583437071545
 20
197.7522342197508
 30
0.0
 10
317.5569556615475
 20
197.7522342197508
 30
0.0
  0
SPLINE
  5
DD5
330
1F
100
AcDbEntity
  8
AM_VIS
100
AcDbSpline
210
0.0
220
0.0
230
1.0
 70
     8
 71
     3
 72
    22
 73
    18
 74
     0
 42
0.0000000001
 43
0.0000000001
 40
3.773562167966562
 40
3.773562167966562
 40
3.773562167966562
 40
3.773562167966562
 40
4.249724385587061
 40
4.249724385587061
 40
4.725886603207559
 40
4.725886603207559
 40
5.202048820828058
 40
5.202048820828058
 40
5.678211038448558
 40
5.678211038448558
 40
6.149327746897641
 40
6.149327746897641
 40
6.620444455346723
 40
6.620444455346723
 40
7.091561163795807
 40
7.091561163795807
 40
7.562677872244889
 40
7.562677872244889
 40
7.562677872244889
 40
7.562677872244889
 10
365.3552737011105
 20
197.7522342197508
 30
0.0
 10
365.4538856555031
 20
197.7522342197508
 30
0.0
 10
365.5548631187643
 20
197.7673880102132
 30
0.0
 10
365.7536796260176
 20
197.8310794816674
 30
0.0
 10
365.8515231639754
 20
197.8796011817998
 30
0.0
 10
366.0374345339255
 20
198.0078413713135
 30
0.0
 10
366.1256533719945
 20
198.0876581393905
 30
0.0
 10
366.287513873209
 20
198.272134694722
 30
0.0
 10
366.3611604578148
 20
198.3768077449045
 30
0.0
 10
366.4900581235024
 20
198.5988885304612
 30
0.0
 10
366.5498715773958
 20
198.723710472831
 30
0.0
 10
366.6548731102803
 20
198.9956941436646
 30
0.0
 10
366.7000773164273
 20
199.1428501686771
 30
0.0
 10
366.7725111540615
 20
199.4500445718091
 30
0.0
 10
366.7998057447846
 20
199.610335662626
 30
0.0
 10
366.8355961988518
 20
199.9329095301564
 30
0.0
 10
366.8440858222386
 20
200.0951953169344
 30
0.0
 10
366.8440858222386
 20
200.2522342197508
 30
0.0
  0
LINE
  5
DD6
330
1F
100
AcDbEntity
  8
AM_VIS
100
AcDbLine
 10
366.8440858222386
 20
265.2522342197508
 30
0.0
 11
366.8440858222386
 21
200.2522342197508
 31
0.0
  0
SPLINE
  5
DD7
330
1F
100
AcDbEntity
  8
AM_VIS
100
AcDbSpline
210
0.0
220
0.0
230
1.0
 70
     8
 71
     3
 72
    22
 73
    18
 74
     0
 42
0.0000000001
 43
0.0000000001
 40
7.562677872244875
 40
7.562677872244875
 40
7.562677872244875
 40
7.562677872244875
 40
8.033794580693955
 40
8.033794580693955
 40
8.504911289143034
 40
8.504911289143034
 40
8.976027997592115
 40
8.976027997592115
 40
9.447144706041195
 40
9.447144706041195
 40
9.923306923661693
 40
9.923306923661693
 40
10.39946914128219
 40
10.39946914128219
 40
10.87563135890269
 40
10.87563135890269
 40
11.3517935765232
 40
11.3517935765232
 40
11.3517935765232
 40
11.3517935765232
 10
366.8440858222386
 20
265.2522342197508
 30
0.0
 10
366.8440858222386
 20
265.4092731225671
 30
0.0
 10
366.8355961988518
 20
265.5715589093451
 30
0.0
 10
366.7998057447846
 20
265.8941327768756
 30
0.0
 10
366.7725111540615
 20
266.0544238676924
 30
0.0
 10
366.7000773164273
 20
266.3616182708243
 30
0.0
 10
366.6548731102803
 20
266.5087742958371
 30
0.0
 10
366.5498715773958
 20
266.7807579666706
 30
0.0
 10
366.4900581235024
 20
266.9055799090404
 30
0.0
 10
366.3611604578148
 20
267.127660694597
 30
0.0
 10
366.287513873209
 20
267.2323337447796
 30
0.0
 10
366.1256533719945
 20
267.416810300111
 30
0.0
 10
366.0374345339255
 20
267.496627068188
 30
0.0
 10
365.8515231639754
 20
267.6248672577017
 30
0.0
 10
365.7536796260176
 20
267.6733889578342
 30
0.0
 10
365.5548631187643
 20
267.7370804292884
 30
0.0
 10
365.4538856555031
 20
267.7522342197509
 30
0.0
 10
365.3552737011105
 20
267.7522342197509
 30
0.0
  0
SPLINE
  5
DD8
330
1F
100
AcDbEntity
  8
AM_VIS
100
AcDbSpline
210
0.0
220
0.0
230
1.0
 70
     8
 71
     3
 72
    22
 73
    18
 74
     0
 42
0.0000000001
 43
0.0000000001
 40
-3.789115704278325
 40
-3.789115704278325
 40
-3.789115704278325
 40
-3.789115704278325
 40
-3.312953486657824
 40
-3.312953486657824
 40
-2.836791269037325
 40
-2.836791269037325
 40
-2.360629051416824
 40
-2.360629051416824
 40
-1.884466833796325
 40
-1.884466833796325
 40
-1.413350125347244
 40
-1.413350125347244
 40
-0.9422334168981636
 40
-0.9422334168981636
 40
-0.4711167084490829
 40
-0.4711167084490829
 40
0.0
 40
0.0
 40
0.0
 40
0.0
 10
360.4055262328045
 20
267.7522342197509
 30
0.0
 10
360.2811559971967
 20
267.7522342197509
 30
0.0
 10
360.1517556866117
 20
267.7370804292884
 30
0.0
 10
359.8926275459636
 20
267.6733889578342
 30
0.0
 10
359.7628992362114
 20
267.6248672577017
 30
0.0
 10
359.5124994269322
 20
267.496627068188
 30
0.0
 10
359.3916392341935
 20
267.416810300111
 30
0.0
 10
359.1668683177559
 20
267.2323337447796
 30
0.0
 10
359.0629720238218
 20
267.127660694597
 30
0.0
 10
358.8792067714005
 20
266.9055799090404
 30
0.0
 10
358.7928378883905
 20
266.7807579666706
 30
0.0
 10
358.6398622457214
 20
266.508774295837
 30
0.0
 10
358.5732564156473
 20
266.3616182708243
 30
0.0
 10
358.465943027684
 20
266.0544238676924
 30
0.0
 10
358.4251559366057
 20
265.8941327768756
 30
0.0
 10
358.3715796688803
 20
265.5715589093451
 30
0.0
 10
358.3588044480001
 20
265.4092731225671
 30
0.0
 10
358.3588044480001
 20
265.2522342197508
 30
0.0
  0
LINE
  5
DD9
330
1F
100
AcDbEntity
  8
AM_VIS
100
AcDbLine
 10
358.3588044480001
 20
200.2522342197508
 30
0.0
 11
358.3588044480001
 21
265.2522342197508
 31
0.0
  0
SPLINE
  5
DDA
330
1F
100
AcDbEntity
  8
AM_VIS
100
AcDbSpline
210
0.0
220
0.0
230
1.0
 70
     8
 71
     3
 72
    22
 73
    18
 74
     0
 42
0.0000000001
 43
0.0000000001
 40
0.0
 40
0.0
 40
0.0
 40
0.0
 40
0.4711167084490829
 40
0.4711167084490829
 40
0.9422334168981658
 40
0.9422334168981658
 40
1.413350125347248
 40
1.413350125347248
 40
1.884466833796331
 40
1.884466833796331
 40
2.360629051416831
 40
2.360629051416831
 40
2.83679126903733
 40
2.83679126903733
 40
3.312953486657828
 40
3.312953486657828
 40
3.789115704278326
 40
3.789115704278326
 40
3.789115704278326
 40
3.789115704278326
 10
358.3588044480001
 20
200.2522342197508
 30
0.0
 10
358.3588044480001
 20
200.0951953169344
 30
0.0
 10
358.3715796688803
 20
199.9329095301564
 30
0.0
 10
358.4251559366057
 20
199.610335662626
 30
0.0
 10
358.465943027684
 20
199.4500445718091
 30
0.0
 10
358.5732564156473
 20
199.1428501686771
 30
0.0
 10
358.6398622457214
 20
198.9956941436646
 30
0.0
 10
358.7928378883905
 20
198.723710472831
 30
0.0
 10
358.8792067714005
 20
198.5988885304612
 30
0.0
 10
359.0629720238218
 20
198.3768077449045
 30
0.0
 10
359.1668683177559
 20
198.272134694722
 30
0.0
 10
359.3916392341935
 20
198.0876581393905
 30
0.0
 10
359.5124994269322
 20
198.0078413713135
 30
0.0
 10
359.7628992362114
 20
197.8796011817998
 30
0.0
 10
359.8926275459636
 20
197.8310794816674
 30
0.0
 10
360.1517556866115
 20
197.7673880102132
 30
0.0
 10
360.2811559971967
 20
197.7522342197508
 30
0.0
 10
360.4055262328045
 20
197.7522342197508
 30
0.0
  0
LINE
  5
DDB
330
1F
100
AcDbEntity
  8
AM_VIS
100
AcDbLine
 10
312.8204725547762
 20
277.7522342197508
 30
0.0
 11
312.8204725547762
 21
252.7522342197508
 31
0.0
  0
LINE
  5
DDC
330
1F
100
AcDbEntity
  8
AM_VIS
100
AcDbLine
 10
330.4561146813289
 20
181.7522342197508
 30
0.0
 11
330.4561146813289
 21
178.7522342197508
 31
0.0
  0
LINE
  5
DDD
330
1F
100
AcDbEntity
  8
AM_VIS
100
AcDbLine
 10
352.4561146813289
 20
181.7522342197508
 30
0.0
 11
352.4561146813289
 21
178.7522342197508
 31
0.0
  0
LINE
  5
DDE
330
1F
100
AcDbEntity
  8
AM_VIS
100
AcDbLine
 10
310.9561146813289
 20
252.7522342197508
 30
0.0
 11
310.9561146813289
 21
191.9153011121704
 31
0.0
  0
LINE
  5
DDF
330
1F
100
AcDbEntity
  8
AM_VIS
100
AcDbLine
 10
371.9561146813289
 20
277.7522342197508
 30
0.0
 11
371.9561146813289
 21
191.9153011121704
 31
0.0
  0
LINE
  5
DE0
330
1F
100
AcDbEntity
  8
AM_VIS
100
AcDbLine
 10
338.4561146813289
 20
176.7522342197508
 30
0.0
 11
338.4561146813289
 21
173.3522342197508
 31
0.0
  0
LINE
  5
DE1
330
1F
100
AcDbEntity
  8
AM_VIS
100
AcDbLine
 10
344.4561146813289
 20
176.7522342197508
 30
0.0
 11
344.4561146813289
 21
173.3522342197508
 31
0.0
  0
LINE
  5
DE2
330
1F
100
AcDbEntity
  8
AM_VIS
100
AcDbLine
 10
344.156114681329
 20
166.7522342197508
 30
0.0
 11
344.4561146813289
 21
168.7522342197508
 31
0.0
  0
LINE
  5
DE3
330
1F
100
AcDbEntity
  8
AM_VIS
100
AcDbLine
 10
338.7561146813289
 20
166.7522342197508
 30
0.0
 11
338.4561146813289
 21
168.7522342197508
 31
0.0
  0
LINE
  5
DE4
330
1F
100
AcDbEntity
  8
AM_VIS
100
AcDbLine
 10
338.4561146813289
 20
171.3522342197508
 30
0.0
 11
338.4561146813289
 21
171.0522342197508
 31
0.0
  0
LINE
  5
DE5
330
1F
100
AcDbEntity
  8
AM_VIS
100
AcDbLine
 10
344.4561146813289
 20
171.3522342197508
 30
0.0
 11
344.4561146813289
 21
171.0522342197508
 31
0.0
  0
LINE
  5
DE6
330
1F
100
AcDbEntity
  8
AM_VIS
100
AcDbLine
 10
338.4561146813289
 20
169.0522342197508
 30
0.0
 11
338.4561146813289
 21
168.7522342197508
 31
0.0
  0
LINE
  5
DE7
330
1F
100
AcDbEntity
  8
AM_VIS
100
AcDbLine
 10
344.4561146813289
 20
169.0522342197508
 30
0.0
 11
344.4561146813289
 21
168.7522342197508
 31
0.0
  0
LINE
  5
DE8
330
1F
100
AcDbEntity
  8
AM_VIS
100
AcDbLine
 10
344.156114681329
 20
169.0522342197508
 30
0.0
 11
344.4561146813289
 21
171.0522342197508
 31
0.0
  0
LINE
  5
DE9
330
1F
100
AcDbEntity
  8
AM_VIS
100
AcDbLine
 10
338.7561146813289
 20
169.0522342197508
 30
0.0
 11
338.4561146813289
 21
171.0522342197508
 31
0.0
  0
LINE
  5
DEA
330
1F
100
AcDbEntity
  8
AM_VIS
100
AcDbLine
 10
344.156114681329
 20
171.3522342197508
 30
0.0
 11
344.4561146813289
 21
173.3522342197508
 31
0.0
  0
LINE
  5
DEB
330
1F
100
AcDbEntity
  8
AM_VIS
100
AcDbLine
 10
338.7561146813289
 20
171.3522342197508
 30
0.0
 11
338.4561146813289
 21
173.3522342197508
 31
0.0
  0
LINE
  5
DEC
330
1F
100
AcDbEntity
  8
AM_VIS
100
AcDbLine
 10
350.4561146813289
 20
176.7522342197508
 30
0.0
 11
332.4561146813289
 21
176.7522342197508
 31
0.0
  0
LINE
  5
DED
330
1F
100
AcDbEntity
  8
AM_VIS
100
AcDbLine
 10
329.9561146813289
 20
181.7522342197508
 30
0.0
 11
352.9561146813289
 21
181.7522342197508
 31
0.0
  0
LINE
  5
DEE
330
1F
100
AcDbEntity
  8
AM_VIS
100
AcDbLine
 10
322.5067031298534
 20
267.7522342197509
 30
0.0
 11
317.5569556615475
 21
267.7522342197509
 31
0.0
  0
LINE
  5
DEF
330
1F
100
AcDbEntity
  8
AM_VIS
100
AcDbLine
 10
317.5569556615475
 20
197.7522342197508
 30
0.0
 11
322.5067031298534
 21
197.7522342197508
 31
0.0
  0
LINE
  5
DF0
330
1F
100
AcDbEntity
  8
AM_VIS
100
AcDbLine
 10
365.3552737011105
 20
267.7522342197509
 30
0.0
 11
360.4055262328045
 21
267.7522342197509
 31
0.0
  0
LINE
  5
DF1
330
1F
100
AcDbEntity
  8
AM_VIS
100
AcDbLine
 10
360.4055262328045
 20
197.7522342197508
 30
0.0
 11
365.3552737011105
 21
197.7522342197508
 31
0.0
  0
LINE
  5
DF2
330
1F
100
AcDbEntity
  8
AM_VIS
100
AcDbLine
 10
338.7561146813289
 20
166.7522342197508
 30
0.0
 11
344.156114681329
 21
166.7522342197508
 31
0.0
  0
LINE
  5
DF3
330
1F
100
AcDbEntity
  8
AM_VIS
100
AcDbLine
 10
344.4561146813289
 20
168.7522342197508
 30
0.0
 11
338.4561146813289
 21
168.7522342197508
 31
0.0
  0
LINE
  5
DF4
330
1F
100
AcDbEntity
  8
AM_VIS
100
AcDbLine
 10
338.4561146813289
 20
169.0522342197508
 30
0.0
 11
344.4561146813289
 21
169.0522342197508
 31
0.0
  0
LINE
  5
DF5
330
1F
100
AcDbEntity
  8
AM_VIS
100
AcDbLine
 10
344.4561146813289
 20
171.0522342197508
 30
0.0
 11
338.4561146813289
 21
171.0522342197508
 31
0.0
  0
LINE
  5
DF6
330
1F
100
AcDbEntity
  8
AM_VIS
100
AcDbLine
 10
338.4561146813289
 20
171.3522342197508
 30
0.0
 11
344.4561146813289
 21
171.3522342197508
 31
0.0
  0
LINE
  5
DF7
330
1F
100
AcDbEntity
  8
AM_VIS
100
AcDbLine
 10
344.4561146813289
 20
173.3522342197508
 30
0.0
 11
338.4561146813289
 21
173.3522342197508
 31
0.0
  0
ARC
  5
DF8
330
1F
100
AcDbEntity
  8
AM_VIS
100
AcDbCircle
 10
332.4561146813289
 20
178.7522342197508
 30
0.0
 40
2.0
100
AcDbArc
 50
180.0
 51
270.0
  0
ARC
  5
DF9
330
1F
100
AcDbEntity
  8
AM_VIS
100
AcDbCircle
 10
350.4561146813289
 20
178.7522342197508
 30
0.0
 40
2.0
100
AcDbArc
 50
270.0
 51
0.0
  0
ARC
  5
DFA
330
1F
100
AcDbEntity
  8
AM_VIS
100
AcDbCircle
 10
329.9561146813289
 20
208.3147342197508
 30
0.0
 40
26.56250000000001
100
AcDbArc
 50
229.5130104454945
 51
270.0
  0
ARC
  5
DFB
330
1F
100
AcDbEntity
  8
AM_VIS
100
AcDbCircle
 10
352.9561146813289
 20
208.3147342197508
 30
0.0
 40
26.56250000000001
100
AcDbArc
 50
270.0
 51
310.4869895545055
  0
ARC
  5
DFC
330
1F
100
AcDbEntity
  8
AM_VIS
100
AcDbCircle
 10
315.9561146813289
 20
191.9153011121704
 30
0.0
 40
5.0
100
AcDbArc
 50
180.0
 51
229.5130104454945
  0
ARC
  5
DFD
330
1F
100
AcDbEntity
  8
AM_VIS
100
AcDbCircle
 10
366.9561146813289
 20
191.9153011121704
 30
0.0
 40
5.0
100
AcDbArc
 50
310.4869895545055
 51
0.0
  0
LINE
  5
E1E
330
1F
100
AcDbEntity
  8
0
100
AcDbLine
 10
246.4370753065584
 20
274.70589057348
 30
0.0
 11
247.4370753065584
 21
274.70589057348
 31
0.0
  0
LINE
  5
E1F
330
1F
100
AcDbEntity
  8
0
100
AcDbLine
 10
247.4370753065584
 20
274.70589057348
 30
0.0
 11
247.4370753065584
 21
266.70589057348
 31
0.0
  0
LINE
  5
E20
330
1F
100
AcDbEntity
  8
0
100
AcDbLine
 10
247.4370753065584
 20
266.70589057348
 30
0.0
 11
249.4370753065584
 21
266.70589057348
 31
0.0
  0
LINE
  5
E21
330
1F
100
AcDbEntity
  8
0
100
AcDbLine
 10
249.4370753065584
 20
266.70589057348
 30
0.0
 11
246.4370753065586
 21
261.6605269104779
 31
0.0
  0
LINE
  5
E22
330
1F
100
AcDbEntity
  8
0
100
AcDbLine
 10
246.4370753065584
 20
274.70589057348
 30
0.0
 11
245.4370753065584
 21
274.70589057348
 31
0.0
  0
LINE
  5
E23
330
1F
100
AcDbEntity
  8
0
100
AcDbLine
 10
245.4370753065584
 20
274.70589057348
 30
0.0
 11
245.4370753065584
 21
266.70589057348
 31
0.0
  0
LINE
  5
E24
330
1F
100
AcDbEntity
  8
0
100
AcDbLine
 10
245.4370753065584
 20
266.70589057348
 30
0.0
 11
243.4370753065584
 21
266.70589057348
 31
0.0
  0
LINE
  5
E25
330
1F
100
AcDbEntity
  8
0
100
AcDbLine
 10
243.4370753065584
 20
266.70589057348
 30
0.0
 11
246.4370753065582
 21
261.6605269104779
 31
0.0
  0
LINE
  5
E26
330
1F
100
AcDbEntity
  8
0
100
AcDbLine
 10
243.9955931861335
 20
273.646653495599
 30
0.0
 11
243.9955931861335
 21
273.146653495599
 31
0.0
  0
LINE
  5
E27
330
1F
100
AcDbEntity
  8
0
100
AcDbLine
 10
243.9955931861335
 20
273.146653495599
 30
0.0
 11
239.9955931861335
 21
273.146653495599
 31
0.0
  0
LINE
  5
E28
330
1F
100
AcDbEntity
  8
0
100
AcDbLine
 10
239.9955931861335
 20
273.146653495599
 30
0.0
 11
239.9955931861335
 21
272.146653495599
 31
0.0
  0
LINE
  5
E29
330
1F
100
AcDbEntity
  8
0
100
AcDbLine
 10
239.9955931861335
 20
272.146653495599
 30
0.0
 11
237.4729113546325
 21
273.646653495599
 31
0.0
  0
LINE
  5
E2A
330
1F
100
AcDbEntity
  8
0
100
AcDbLine
 10
243.9955931861335
 20
273.646653495599
 30
0.0
 11
243.9955931861335
 21
274.146653495599
 31
0.0
  0
LINE
  5
E2B
330
1F
100
AcDbEntity
  8
0
100
AcDbLine
 10
243.9955931861335
 20
274.146653495599
 30
0.0
 11
239.9955931861335
 21
274.146653495599
 31
0.0
  0
LINE
  5
E2C
330
1F
100
AcDbEntity
  8
0
100
AcDbLine
 10
239.9955931861335
 20
274.146653495599
 30
0.0
 11
239.9955931861335
 21
275.146653495599
 31
0.0
  0
LINE
  5
E2D
330
1F
100
AcDbEntity
  8
0
100
AcDbLine
 10
239.9955931861335
 20
275.146653495599
 30
0.0
 11
237.4729113546325
 21
273.646653495599
 31
0.0
  0
LINE
  5
E2E
330
1F
100
AcDbEntity
  8
0
100
AcDbLine
 10
248.8785574269832
 20
273.646653495599
 30
0.0
 11
248.8785574269832
 21
273.146653495599
 31
0.0
  0
LINE
  5
E2F
330
1F
100
AcDbEntity
  8
0
100
AcDbLine
 10
248.8785574269832
 20
273.146653495599
 30
0.0
 11
252.8785574269832
 21
273.146653495599
 31
0.0
  0
LINE
  5
E30
330
1F
100
AcDbEntity
  8
0
100
AcDbLine
 10
252.8785574269832
 20
273.146653495599
 30
0.0
 11
252.8785574269832
 21
272.146653495599
 31
0.0
  0
LINE
  5
E31
330
1F
100
AcDbEntity
  8
0
100
AcDbLine
 10
252.8785574269832
 20
272.146653495599
 30
0.0
 11
255.4012392584843
 21
273.646653495599
 31
0.0
  0
LINE
  5
E32
330
1F
100
AcDbEntity
  8
0
100
AcDbLine
 10
248.8785574269832
 20
273.646653495599
 30
0.0
 11
248.8785574269832
 21
274.146653495599
 31
0.0
  0
LINE
  5
E33
330
1F
100
AcDbEntity
  8
0
100
AcDbLine
 10
248.8785574269832
 20
274.146653495599
 30
0.0
 11
252.8785574269832
 21
274.146653495599
 31
0.0
  0
LINE
  5
E34
330
1F
100
AcDbEntity
  8
0
100
AcDbLine
 10
252.8785574269832
 20
274.146653495599
 30
0.0
 11
252.8785574269832
 21
275.146653495599
 31
0.0
  0
LINE
  5
E35
330
1F
100
AcDbEntity
  8
0
100
AcDbLine
 10
252.8785574269832
 20
275.146653495599
 30
0.0
 11
255.4012392584843
 21
273.646653495599
 31
0.0
  0
ARC
  5
E7A
330
1F
100
AcDbEntity
  8
AM_4
100
AcDbCircle
 10
341.4561146813289
 20
311.2522342197508
 30
0.0
 40
13.22049999999999
100
AcDbArc
 50
260.0
 51
170.0
  0
CIRCLE
  5
E7B
330
1F
100
AcDbEntity
  8
AM_0
100
AcDbCircle
 10
341.4561146813289
 20
311.2522342197508
 30
0.0
 40
12.0585
  0
LINE
  5
E88
330
1F
100
AcDbEntity
  8
AM_7
100
AcDbLine
 10
209.4370753065584
 20
389.7801295626573
 30
0.0
 11
283.4370753065584
 21
389.7801295626573
 31
0.0
1001
GENIUS_GENODEF_13
1002
{
1000
HIER
1070
     0
1002
}
1002
{
1000
MANEDIT
1070
     0
1002
}
1002
{
1000
NOSEL
1070
     0
1002
}
1002
{
1000
BEHIND
1070
     0
1002
}
1002
{
1000
OTHER
1070
     0
1002
}
1002
{
1000
REACTOR
1002
}
1001
GENIUS_GENOBJ-N-CEN_13
1002
{
1000
OWNER
1000
GEN
1002
}
1001
GENIUS_GENCEN_19
1002
{
1040
2.0
1002
}
  0
LINE
  5
E8B
102
{ACAD_REACTORS
330
EAB
102
}
330
1F
100
AcDbEntity
  8
AM_7
100
AcDbLine
 10
207.1819432929915
 20
311.2522342197508
 30
0.0
 11
220.9319432929915
 21
311.2522342197508
 31
0.0
  0
LINE
  5
E8C
330
1F
100
AcDbEntity
  8
AM_7
100
AcDbLine
 10
285.6922073201255
 20
311.2522342197508
 30
0.0
 11
271.9422073201255
 21
311.2522342197508
 31
0.0
  0
DIMENSION
  5
E9C
102
{ACAD_XDICTIONARY
360
EAA
102
}
102
{ACAD_REACTORS
330
EAB
102
}
330
1F
100
AcDbEntity
  8
AM_5
100
AcDbDimension
  2
*D7
 10
202.7547120800637
 20
311.2522342197508
 30
0.0
 11
202.7547120800636
 21
296.4572594729203
 31
0.0
 70
   160
 71
     5
 42
17.5
  3
AM_ISO$0
100
AcDbAlignedDimension
 13
211.4370753065584
 23
328.7522342197509
 33
0.0
 14
207.1819432929915
 24
311.2522342197508
 34
0.0
 50
90.0
100
AcDbRotatedDimension
  0
DIMENSION
  5
ECD
102
{ACAD_XDICTIONARY
360
EDA
102
}
102
{ACAD_REACTORS
330
EDB
102
}
330
1F
100
AcDbEntity
  8
AM_5
100
AcDbDimension
  2
*D8
 10
188.4622511923894
 20
166.7522342197508
 30
0.0
 11
188.4622511923894
 21
247.8209578140845
 31
0.0
 70
   160
 71
     5
 42
162.0
  3
AM_ISO$0
100
AcDbAlignedDimension
 13
211.4370753065584
 23
328.7522342197509
 33
0.0
 14
243.7370753065584
 24
166.7522342197508
 34
0.0
 50
90.0
100
AcDbRotatedDimension
  0
DIMENSION
  5
EF3
102
{ACAD_XDICTIONARY
360
F00
102
}
102
{ACAD_REACTORS
330
F01
102
}
330
1F
100
AcDbEntity
  8
AM_5
100
AcDbDimension
  2
*D9
 10
281.4370753065584
 20
340.7522342197509
 30
0.0
 11
246.4370753065584
 21
346.2522342197508
 31
0.0
 70
    32
 71
     5
 42
70.0
  3
AM_ISO$0
100
AcDbAlignedDimension
 13
211.4370753065584
 23
328.7522342197509
 33
0.0
 14
281.4370753065584
 24
328.7522342197509
 34
0.0
100
AcDbRotatedDimension
  0
DIMENSION
  5
F19
102
{ACAD_XDICTIONARY
360
F26
102
}
102
{ACAD_REACTORS
330
F27
102
}
330
1F
100
AcDbEntity
  8
AM_5
100
AcDbDimension
  2
*D10
 10
296.8010715286946
 20
424.7801295626572
 30
0.0
 11
291.3010715286945
 21
389.7801295626574
 31
0.0
 70
    32
 71
     5
 42
70.0
  3
AM_ISO$0
100
AcDbAlignedDimension
 13
270.5799580712924
 23
354.7801295626573
 33
0.0
 14
270.5799580712924
 24
424.7801295626572
 34
0.0
 50
90.0
100
AcDbRotatedDimension
  0
DIMENSION
  5
F43
102
{ACAD_XDICTIONARY
360
F52
102
}
102
{ACAD_REACTORS
330
F53
102
}
330
1F
100
AcDbEntity
  8
AM_5
100
AcDbDimension
  2
*D11
 10
249.4370753065584
 20
162.1531356262669
 30
0.0
 11
268.1606973538025
 21
162.1531356262669
 31
0.0
 70
   160
  1
%%c<>
 71
     5
 42
6.0
  3
AM_ISO
100
AcDbAlignedDimension
 13
243.4370753065584
 23
168.7522342197508
 33
0.0
 14
249.4370753065584
 24
168.7522342197507
 34
0.0
100
AcDbRotatedDimension
  0
INSERT
  5
FE2
330
1F
100
AcDbEntity
  8
AM_5
100
AcDbBlockReference
  2
*S1812
 10
0.0
 20
0.0
 30
0.0
  0
TEXT
  5
FE4
330
1F
100
AcDbEntity
  8
AM_5
100
AcDbText
 10
315.1730397800827
 20
342.6322255903069
 30
0.0
 40
7.0
  1
2-PT3/4
100
AcDbText
  0
LWPOLYLINE
  5
14F7
330
1F
100
AcDbEntity
  8
LOGO
 62
     4
100
AcDbPolyline
 90
        4
 70
     1
 43
0.0
 10
178.5013651008713
 20
157.1629745889724
 10
379.6449690842936
 20
157.1629745889724
 10
379.6449690842936
 20
426.9759911054131
 10
178.5013651008713
 20
426.9759911054131
1001
GENIUS_GENREC_14
1002
{
1000
PYDIR
1011
178.5013651008713
1021
426.9759911054131
1031
0.0
1002
}
1002
{
1000
PXDIR
1011
379.6449690842936
1021
157.1629745889724
1031
0.0
1002
}
1002
{
1000
PORI
1011
178.5013651008713
1021
157.1629745889724
1031
0.0
1002
}
1002
{
1000
PINS
1011
178.5013651008713
1021
157.1629745889724
1031
0.0
1002
}
1002
{
1000
PINS2
1011
379.6449690842936
1021
426.9759911054131
1031
0.0
1002
}
1002
{
1000
C
1070
     1
1002
}
1001
GENIUS_GENODEF_13
1002
{
1000
HIER
1070
     0
1002
}
1002
{
1000
MANEDIT
1070
     0
1002
}
1002
{
1000
NOSEL
1070
     0
1002
}
1002
{
1000
BEHIND
1070
     0
1002
}
1002
{
1000
OTHER
1070
     0
1002
}
1002
{
1000
REACTOR
1002
}
1001
GENIUS_GENOBJ-N-REC_13
1002
{
1000
OWNER
1000
GEN
1002
}
  0
LWPOLYLINE
  5
14F8
330
1F
100
AcDbEntity
  8
LOGO
 62
     4
100
AcDbPolyline
 90
        4
 70
     1
 43
0.0
 10
178.5013651008713
 20
157.1629745889724
 10
379.6449690842936
 20
157.1629745889724
 10
379.6449690842936
 20
132.886963520542
 10
178.5013651008713
 20
132.886963520542
1001
GENIUS_GENREC_14
1002
{
1000
PYDIR
1011
178.5013651008713
1021
132.886963520542
1031
0.0
1002
}
1002
{
1000
PXDIR
1011
379.6449690842936
1021
157.1629745889724
1031
0.0
1002
}
1002
{
1000
PORI
1011
178.5013651008713
1021
157.1629745889724
1031
0.0
1002
}
1002
{
1000
PINS
1011
178.5013651008713
1021
157.1629745889724
1031
0.0
1002
}
1002
{
1000
PINS2
1011
379.6449690842936
1021
132.886963520542
1031
0.0
1002
}
1002
{
1000
C
1070
     1
1002
}
1001
GENIUS_GENOBJ-N-REC_13
1002
{
1000
OWNER
1000
GEN
1002
}
1001
GENIUS_GENODEF_13
1002
{
1000
HIER
1070
     0
1002
}
1002
{
1000
MANEDIT
1070
     0
1002
}
1002
{
1000
NOSEL
1070
     0
1002
}
1002
{
1000
BEHIND
1070
     0
1002
}
1002
{
1000
OTHER
1070
     0
1002
}
1002
{
1000
REACTOR
1002
}
  0
TEXT
  5
14F9
330
1F
100
AcDbEntity
  8
LOGO
 62
     7
100
AcDbText
 10
233.3149906712477
 20
146.5280672315201
 30
0.0
 40
3.236801475790652
  1
Order example:
 41
0.8
  7
CHINESET
100
AcDbText
  0
TEXT
  5
14FA
330
1F
100
AcDbEntity
  8
LOGO
 62
     7
100
AcDbText
 10
233.8956996232638
 20
151.0848135211363
 30
0.0
 40
4.855202213685976
  1
訂購代號：
  7
CHINESET
100
AcDbText
  0
LINE
  5
14FB
330
1F
100
AcDbEntity
  8
LOGO
 62
     4
100
AcDbLine
 10
231.9085894514172
 20
132.8869635205423
 30
0.0
 11
231.9085894514172
 21
157.1629745889724
 31
0.0
  0
TEXT
  5
14FC
330
1F
100
AcDbEntity
  8
LOGO
  6
Continuous
100
AcDbText
 10
187.2214173994325
 20
137.6559492592404
 30
0.0
 40
3.641401660264483
  1
金器工業股份有限公司
  7
CHINESET
100
AcDbText
  0
TEXT
  5
14FD
330
1F
100
AcDbEntity
  8
LOGO
  6
Continuous
100
AcDbText
 10
180.5328829653179
 20
134.0138341697475
 30
0.0
 40
2.427601106842988
  1
MINDMAN INDUSTRIAL CO., LTD.
 41
0.85
  7
CHINESET
100
AcDbText
  0
LINE
  5
14FE
330
1F
100
AcDbEntity
  8
LOGO
 62
     4
100
AcDbLine
 10
231.9085894514172
 20
152.3077723752863
 30
0.0
 11
196.3037732177198
 21
152.3077723752863
 31
0.0
  0
LINE
  5
14FF
330
1F
100
AcDbEntity
  8
LOGO
 62
     4
100
AcDbLine
 10
231.9085894514172
 20
147.4525701616003
 30
0.0
 11
196.3037732177198
 21
147.4525701616003
 31
0.0
  0
LINE
  5
1500
330
1F
100
AcDbEntity
  8
LOGO
 62
     4
100
AcDbLine
 10
231.9085894514172
 20
142.5973679479146
 30
0.0
 11
178.5013651008714
 21
142.5973679479146
 31
0.0
  0
LINE
  5
1501
330
1F
100
AcDbEntity
  8
LOGO
 62
     4
100
AcDbLine
 10
196.3037732177198
 20
142.5973679479146
 30
0.0
 11
196.3037732177198
 21
157.1629745889724
 31
0.0
  0
TEXT
  5
1502
330
1F
100
AcDbEntity
  8
LOGO
100
AcDbText
 10
220.6379845917235
 20
143.8111685013357
 30
0.0
 40
2.427601106842988
  1
mm
  7
CHINESET
 72
     1
 11
223.6435859621006
 21
145.0249690547572
 31
0.0
100
AcDbText
 73
     2
  0
TEXT
  5
1503
330
1F
100
AcDbEntity
  8
LOGO
100
AcDbText
 10
219.3663840119487
 20
153.5215729287078
 30
0.0
 40
2.427601106842988
  1
1 : 1
  7
CHINESET
 72
     1
 11
223.6435859621006
 21
154.7353734821293
 31
0.0
100
AcDbText
 73
     2
  0
LINE
  5
1504
330
1F
100
AcDbEntity
  8
LOGO
 62
     4
100
AcDbLine
 10
215.7245820724638
 20
142.5973679479146
 30
0.0
 11
215.7245820724638
 21
157.1629745889724
 31
0.0
  0
CIRCLE
  5
1505
330
1F
100
AcDbEntity
  8
LOGO
  6
Continuous
100
AcDbCircle
 10
220.2195891613302
 20
149.8853639249757
 30
0.0
 40
1.409522341921985
  0
CIRCLE
  5
1506
330
1F
100
AcDbEntity
  8
LOGO
  6
Continuous
100
AcDbCircle
 10
220.2195891613302
 20
149.8853639249757
 30
0.0
 40
0.8258553144131218
  0
LINE
  5
1507
330
1F
100
AcDbEntity
  8
LOGO
100
AcDbLine
 10
229.077191112024
 20
148.4758415830534
 30
0.0
 11
229.077191112024
 21
151.294886266898
 31
0.0
  0
LINE
  5
1508
330
1F
100
AcDbEntity
  8
LOGO
100
AcDbLine
 10
224.6584194805417
 20
149.0595086105628
 30
0.0
 11
224.6584194805417
 21
150.7112192393889
 31
0.0
  0
LINE
  5
1509
330
1F
100
AcDbEntity
  8
LOGO
  6
Continuous
100
AcDbLine
 10
224.6584194805417
 20
150.7112192393889
 30
0.0
 11
229.077191112024
 21
151.294886266898
 31
0.0
  0
LINE
  5
150A
330
1F
100
AcDbEntity
  8
LOGO
  6
Continuous
100
AcDbLine
 10
224.6584194805417
 20
149.0595086105628
 30
0.0
 11
229.077191112024
 21
148.4758415830534
 31
0.0
  0
TEXT
  5
150B
330
1F
100
AcDbEntity
  8
LOGO
100
AcDbText
 10
198.3054603803713
 20
153.5227676142919
 30
159.1009773032933
 40
2.427601106842988
  1
比例 Scale:
 41
0.9
  7
CHINESET
 72
     4
 11
206.0141776450919
 21
154.7353734821293
 31
159.1009773032933
100
AcDbText
  0
TEXT
  5
150C
330
1F
100
AcDbEntity
  8
LOGO
100
AcDbText
 10
198.165656566629
 20
148.7005188112998
 30
159.1009773032933
 40
2.427601106842988
  1
投影  View:
 41
0.9
  7
CHINESET
 72
     4
 11
206.0141776450919
 21
149.8801712684431
 31
159.1009773032933
100
AcDbText
  0
TEXT
  5
150D
330
1F
100
AcDbEntity
  8
LOGO
100
AcDbText
 10
198.4029979248426
 20
143.8111685013357
 30
159.1009773032933
 40
2.427601106842988
  1
單位  Unit:
 41
0.9
  7
CHINESET
 72
     4
 11
206.0141776450919
 21
145.0249690547572
 31
159.1009773032933
100
AcDbText
  0
SOLID
  5
150E
330
1F
100
AcDbEntity
  8
LOGO
 62
     5
100
AcDbTrace
 10
181.0200402092553
 20
146.6329092462333
 30
0.0
 11
182.0696712276012
 21
146.6329092462329
 31
0.0
 12
186.4491661662165
 22
156.5863068339958
 32
0.0
 13
187.4987971845629
 23
156.5863068339954
 33
0.0
  0
SOLID
  5
150F
330
1F
100
AcDbEntity
  8
LOGO
 62
     5
100
AcDbTrace
 10
182.5040013041592
 20
146.6329092462333
 30
0.0
 11
183.5536323225049
 21
146.6329092462333
 31
0.0
 12
187.4987971845629
 22
155.7900350269745
 32
0.0
 13
186.4491661662165
 23
151.9413879597064
 33
0.0
  0
SOLID
  5
1510
330
1F
100
AcDbEntity
  8
LOGO
 62
     2
100
AcDbTrace
 10
182.0696712276012
 20
146.6329092462329
 30
0.0
 11
182.5040013041592
 21
146.6329092462333
 31
0.0
 12
187.4987971845629
 22
156.5863068339954
 32
0.0
 13
187.9331272611204
 23
156.5863068339954
 33
0.0
  0
SOLID
  5
1511
330
1F
100
AcDbEntity
  8
LOGO
 62
     5
100
AcDbTrace
 10
179.3372242857915
 20
143.0134919415925
 30
0.0
 11
179.6991660162558
 21
143.0134919415925
 31
0.0
 12
180.7184221005354
 22
144.8232005939128
 32
0.0
 13
181.0803638309989
 23
144.8232005939128
 33
0.0
  0
SOLID
  5
1512
330
1F
100
AcDbEntity
  8
LOGO
 62
     5
100
AcDbTrace
 10
180.7184221005354
 20
144.8232005939128
 30
0.0
 11
181.0803638309989
 21
144.8232005939128
 31
0.0
 12
180.7184221005354
 22
143.0134919415925
 32
0.0
 13
181.0803638309989
 23
143.0134919415925
 33
0.0
  0
SOLID
  5
1513
330
1F
100
AcDbEntity
  8
LOGO
 62
     5
100
AcDbTrace
 10
180.7184221005354
 20
143.0134919415925
 30
0.0
 11
181.0803638309989
 21
143.0134919415925
 31
0.0
 12
182.0996199152802
 22
144.8232005939128
 32
0.0
 13
182.4615616457442
 23
144.8232005939128
 33
0.0
  0
SOLID
  5
1514
330
1F
100
AcDbEntity
  8
LOGO
 62
     5
100
AcDbTrace
 10
182.0996199152802
 20
144.8232005939128
 30
0.0
 11
182.4615616457442
 21
144.8232005939128
 31
0.0
 12
182.0996199152802
 22
143.0134919415925
 32
0.0
 13
182.4615616457442
 23
143.0134919415925
 33
0.0
  0
POLYLINE
  5
1515
330
1F
100
AcDbEntity
  8
LOGO
 62
     5
100
AcDb2dPolyline
 66
     1
 10
0.0
 20
0.0
 30
0.0
 40
0.362521765288553
 41
0.362521765288553
  0
VERTEX
  5
1516
330
1515
100
AcDbEntity
  8
LOGO
 62
     5
100
AcDbVertex
100
AcDb2dVertex
 10
194.2317834234323
 20
144.0993171329846
 30
0.0
 42
1.0
  0
VERTEX
  5
1517
330
1515
100
AcDbEntity
  8
LOGO
 62
     5
100
AcDbVertex
100
AcDb2dVertex
 10
193.1442181275662
 20
144.0993171329846
 30
0.0
 42
1.0
  0
SEQEND
  5
1518
330
1515
100
AcDbEntity
  8
LOGO
 62
     5
  0
POLYLINE
  5
1519
330
1F
100
AcDbEntity
  8
LOGO
 62
     5
100
AcDb2dPolyline
 66
     1
 10
0.0
 20
0.0
 30
0.0
 70
     1
  0
VERTEX
  5
151A
330
1519
100
AcDbEntity
  8
LOGO
 62
     5
100
AcDbVertex
100
AcDb2dVertex
 10
191.0941091699545
 20
143.9183462677523
 30
0.0
 42
1.000000057330635
  0
VERTEX
  5
151B
330
1519
100
AcDbEntity
  8
LOGO
 62
     5
100
AcDbVertex
100
AcDb2dVertex
 10
192.1799343613469
 20
143.9183462677523
 30
0.0
 42
1.000000057330635
  0
SEQEND
  5
151C
330
1519
100
AcDbEntity
  8
LOGO
 62
     5
  0
CIRCLE
  5
151D
330
1F
100
AcDbEntity
  8
LOGO
 62
     5
100
AcDbCircle
 10
191.6370217656514
 20
143.9183462677523
 30
0.0
 40
0.5429125956961372
  0
POLYLINE
  5
151E
330
1F
100
AcDbEntity
  8
LOGO
 62
     5
100
AcDb2dPolyline
 66
     1
 10
0.0
 20
0.0
 30
0.0
 70
     1
 40
0.362521765288553
 41
0.362521765288553
  0
VERTEX
  5
151F
330
151E
100
AcDbEntity
  8
LOGO
 62
     5
100
AcDbVertex
100
AcDb2dVertex
 10
190.911978235074
 20
143.9183462677523
 30
0.0
 42
1.0
  0
VERTEX
  5
1520
330
151E
100
AcDbEntity
  8
LOGO
 62
     5
100
AcDbVertex
100
AcDb2dVertex
 10
192.3620652962281
 20
143.9183462677523
 30
0.0
 42
1.0
  0
SEQEND
  5
1521
330
151E
100
AcDbEntity
  8
LOGO
 62
     5
  0
LINE
  5
1522
330
1F
100
AcDbEntity
  8
LOGO
100
AcDbLine
 10
194.4118842364267
 20
143.0134919415925
 30
0.0
 11
194.4118842364267
 21
144.0993171329846
 31
0.0
  0
SOLID
  5
1523
330
1F
100
AcDbEntity
  8
LOGO
 62
     5
100
AcDbTrace
 10
192.1798981671754
 20
144.8232005939128
 30
0.0
 11
192.5418398976389
 21
144.8232005939128
 31
0.0
 12
192.1798981671754
 22
143.0134919415925
 32
0.0
 13
192.5418398976389
 23
143.0134919415925
 33
0.0
  0
SOLID
  5
1524
330
1F
100
AcDbEntity
  8
LOGO
 62
     5
100
AcDbTrace
 10
192.9641173145703
 20
143.0134919415925
 30
0.0
 11
193.3260590450348
 21
143.0134919415925
 31
0.0
 12
192.9641173145703
 22
144.8232005939128
 32
0.0
 13
193.3260590450348
 23
144.8232005939128
 33
0.0
  0
SOLID
  5
1525
330
1F
100
AcDbEntity
  8
LOGO
 62
     5
100
AcDbTrace
 10
194.0499425059631
 20
144.0993171329846
 30
0.0
 11
194.4118842364267
 21
144.0993171329846
 31
0.0
 12
194.0499425059631
 22
143.0134919415925
 32
0.0
 13
194.4118842364267
 23
143.0134919415925
 33
0.0
  0
SOLID
  5
1526
330
1F
100
AcDbEntity
  8
LOGO
 62
     5
100
AcDbTrace
 10
192.927923141524
 20
155.7900350269745
 30
0.0
 11
191.8782921231788
 21
151.9413879597064
 31
0.0
 12
192.927923141524
 22
146.6329092462329
 32
0.0
 13
191.8782921231788
 23
146.6329092462329
 33
0.0
  0
SOLID
  5
1527
330
1F
100
AcDbEntity
  8
LOGO
 62
     5
100
AcDbTrace
 10
193.3622532180814
 20
146.6329092462329
 30
0.0
 11
194.4118842364267
 21
146.6329092462329
 31
0.0
 12
193.3622532180814
 22
156.5863068339954
 32
0.0
 13
194.4118842364267
 23
156.5863068339958
 33
0.0
  0
SOLID
  5
1528
330
1F
100
AcDbEntity
  8
LOGO
 62
     2
100
AcDbTrace
 10
192.927923141524
 20
156.5863068339958
 30
0.0
 11
193.3622532180814
 21
156.5863068339954
 31
0.0
 12
192.927923141524
 22
146.6329092462329
 32
0.0
 13
193.3622532180814
 23
146.6329092462329
 33
0.0
  0
POLYLINE
  5
1529
330
1F
100
AcDbEntity
  8
LOGO
 62
     5
100
AcDb2dPolyline
 66
     1
 10
0.0
 20
0.0
 30
0.0
 40
0.362521765288553
 41
0.362521765288553
  0
VERTEX
  5
152A
330
1529
100
AcDbEntity
  8
LOGO
 62
     5
100
AcDbVertex
100
AcDb2dVertex
 10
189.043927823998
 20
144.0993171329846
 30
0.0
 42
1.0
  0
VERTEX
  5
152B
330
1529
100
AcDbEntity
  8
LOGO
 62
     5
100
AcDbVertex
100
AcDb2dVertex
 10
187.9563625281324
 20
144.0993171329846
 30
0.0
 42
1.0
  0
SEQEND
  5
152C
330
1529
100
AcDbEntity
  8
LOGO
 62
     5
  0
POLYLINE
  5
152D
330
1F
100
AcDbEntity
  8
LOGO
 62
     5
100
AcDb2dPolyline
 66
     1
 10
0.0
 20
0.0
 30
0.0
 40
0.362521765288553
 41
0.362521765288553
  0
VERTEX
  5
152E
330
152D
100
AcDbEntity
  8
LOGO
 62
     5
100
AcDbVertex
100
AcDb2dVertex
 10
190.1297530153893
 20
144.0993171329846
 30
0.0
 42
1.0
  0
VERTEX
  5
152F
330
152D
100
AcDbEntity
  8
LOGO
 62
     5
100
AcDbVertex
100
AcDb2dVertex
 10
189.0421877195239
 20
144.0993171329846
 30
0.0
 42
1.0
  0
SEQEND
  5
1530
330
152D
100
AcDbEntity
  8
LOGO
 62
     5
  0
POLYLINE
  5
1531
330
1F
100
AcDbEntity
  8
LOGO
 62
     5
100
AcDb2dPolyline
 66
     1
 10
0.0
 20
0.0
 30
0.0
 40
0.362521765288553
 41
0.362521765288553
  0
VERTEX
  5
1532
330
1531
100
AcDbEntity
  8
LOGO
 62
     5
100
AcDbVertex
100
AcDb2dVertex
 10
184.9418974159555
 20
144.0993171329846
 30
0.0
 42
1.0
  0
VERTEX
  5
1533
330
1531
100
AcDbEntity
  8
LOGO
 62
     5
100
AcDbVertex
100
AcDb2dVertex
 10
183.8543321200903
 20
144.0993171329846
 30
0.0
 42
1.0
  0
SEQEND
  5
1534
330
1531
100
AcDbEntity
  8
LOGO
 62
     5
  0
SOLID
  5
1535
330
1F
100
AcDbEntity
  8
LOGO
 62
     5
100
AcDbTrace
 10
183.674231307095
 20
144.8232005939128
 30
0.0
 11
184.0361730375585
 21
144.8232005939128
 31
0.0
 12
183.674231307095
 22
143.0134919415925
 32
0.0
 13
184.0361730375585
 23
143.0134919415925
 33
0.0
  0
SOLID
  5
1536
330
1F
100
AcDbEntity
  8
LOGO
 62
     5
100
AcDbTrace
 10
184.7600564984872
 20
144.0993171329846
 30
0.0
 11
185.1219982289518
 21
144.0993171329846
 31
0.0
 12
184.7600564984872
 22
143.0134919415925
 32
0.0
 13
185.1219982289518
 23
143.0134919415925
 33
0.0
  0
POLYLINE
  5
1537
330
1F
100
AcDbEntity
  8
LOGO
 62
     5
100
AcDb2dPolyline
 66
     1
 10
0.0
 20
0.0
 30
0.0
 70
     1
 40
0.362521765288553
 41
0.362521765288553
  0
VERTEX
  5
1538
330
1537
100
AcDbEntity
  8
LOGO
 62
     5
100
AcDbVertex
100
AcDb2dVertex
 10
185.7241226356395
 20
143.9183462677523
 30
0.0
 42
1.0
  0
VERTEX
  5
1539
330
1537
100
AcDbEntity
  8
LOGO
 62
     5
100
AcDbVertex
100
AcDb2dVertex
 10
187.1742096967941
 20
143.9183462677523
 30
0.0
 42
1.0
  0
SEQEND
  5
153A
330
1537
100
AcDbEntity
  8
LOGO
 62
     5
  0
SOLID
  5
153B
330
1F
100
AcDbEntity
  8
LOGO
 62
     5
100
AcDbTrace
 10
186.9920425677404
 20
145.366113189609
 30
0.0
 11
187.3539842982044
 21
145.366113189609
 31
0.0
 12
186.9920425677404
 22
143.0134919415925
 32
0.0
 13
187.3539842982044
 23
143.0134919415925
 33
0.0
  0
SOLID
  5
153C
330
1F
100
AcDbEntity
  8
LOGO
 62
     5
100
AcDbTrace
 10
187.7762617151377
 20
144.8232005939128
 30
0.0
 11
188.138203445601
 21
144.8232005939128
 31
0.0
 12
187.7762617151377
 22
143.0134919415925
 32
0.0
 13
188.138203445601
 23
143.0134919415925
 33
0.0
  0
SOLID
  5
153D
330
1F
100
AcDbEntity
  8
LOGO
 62
     5
100
AcDbTrace
 10
188.8620869065289
 20
144.0993171329846
 30
0.0
 11
189.2240286369934
 21
144.0993171329846
 31
0.0
 12
188.8620869065289
 22
143.0134919415925
 32
0.0
 13
189.2240286369934
 23
143.0134919415925
 33
0.0
  0
SOLID
  5
153E
330
1F
100
AcDbEntity
  8
LOGO
 62
     5
100
AcDbTrace
 10
189.9479120979215
 20
144.0993171329846
 30
0.0
 11
190.309853828385
 21
144.0993171329846
 31
0.0
 12
189.9479120979215
 22
143.013491941592
 32
0.0
 13
190.309853828385
 23
143.013491941592
 33
0.0
  0
SOLID
  5
153F
330
1F
100
AcDbEntity
  8
LOGO
 62
     5
100
AcDbTrace
 10
182.8900121596982
 20
145.0765598052377
 30
0.0
 11
183.251953890163
 21
145.0765598052377
 31
0.0
 12
182.8900121596982
 22
145.366113189609
 32
0.0
 13
183.251953890163
 23
145.366113189609
 33
0.0
  0
SOLID
  5
1540
330
1F
100
AcDbEntity
  8
LOGO
 62
     5
100
AcDbTrace
 10
182.8900121596982
 20
144.8232005939128
 30
0.0
 11
183.251953890163
 21
144.8232005939128
 31
0.0
 12
182.8900121596982
 22
143.013491941592
 32
0.0
 13
183.251953890163
 23
143.0134919415925
 33
0.0
  0
SOLID
  5
1541
330
1F
100
AcDbEntity
  8
LOGO
 62
     5
100
AcDbTrace
 10
186.4491661662165
 20
146.6329092462333
 30
0.0
 11
187.4987971845629
 21
146.6329092462333
 31
0.0
 12
186.4491661662165
 22
151.9413879597064
 32
0.0
 13
187.4987971845629
 23
155.7900350269745
 33
0.0
  0
SOLID
  5
1542
330
1F
100
AcDbEntity
  8
LOGO
 62
     5
100
AcDbTrace
 10
187.9331272611204
 20
156.5863068339954
 30
0.0
 11
188.9827582794657
 21
156.5863068339958
 31
0.0
 12
187.9331272611204
 22
147.4291810532539
 32
0.0
 13
188.9827582794657
 23
151.2778281205223
 33
0.0
  0
SOLID
  5
1543
330
1F
100
AcDbEntity
  8
LOGO
 62
     2
100
AcDbTrace
 10
187.4987971845629
 20
156.5863068339954
 30
0.0
 11
187.9331272611204
 21
156.5863068339954
 31
0.0
 12
187.4987971845629
 22
146.6329092462333
 32
0.0
 13
187.9331272611204
 23
146.6329092462333
 33
0.0
  0
SOLID
  5
1544
330
1F
100
AcDbEntity
  8
LOGO
 62
     5
100
AcDbTrace
 10
187.9331272611204
 20
147.4291810532539
 30
0.0
 11
188.9827582794657
 21
151.2778281205223
 31
0.0
 12
192.927923141524
 22
156.5863068339958
 32
0.0
 13
191.8782921231788
 23
156.5863068339958
 33
0.0
  0
SOLID
  5
1545
330
1F
100
AcDbEntity
  8
LOGO
 62
     5
100
AcDbTrace
 10
187.9331272611204
 20
146.6329092462333
 30
0.0
 11
188.9827582794657
 21
146.6329092462333
 31
0.0
 12
192.927923141524
 22
155.7900350269745
 32
0.0
 13
191.8782921231788
 23
151.9413879597064
 33
0.0
  0
SOLID
  5
1546
330
1F
100
AcDbEntity
  8
LOGO
 62
     2
100
AcDbTrace
 10
187.4987971845629
 20
146.6329092462333
 30
0.0
 11
187.9331272611204
 21
146.6329092462333
 31
0.0
 12
192.927923141524
 22
156.5863068339958
 32
0.0
 13
193.3622532180814
 23
156.5863068339954
 33
0.0
  0
LINE
  5
1547
330
1F
100
AcDbEntity
  8
LOGO
 62
     4
100
AcDbLine
 10
281.4831726309293
 20
143.8111685013362
 30
0.0
 11
281.4831726309293
 21
134.9099644429115
 31
0.0
  0
LINE
  5
1548
330
1F
100
AcDbEntity
  8
LOGO
 62
     4
100
AcDbLine
 10
265.2991652519756
 20
143.8111685013362
 30
0.0
 11
265.2991652519756
 21
134.9099644429115
 31
0.0
  0
LINE
  5
1549
330
1F
100
AcDbEntity
  8
LOGO
 62
     4
100
AcDbLine
 10
281.4831726309293
 20
134.9099644429115
 30
0.0
 11
265.2991652519756
 21
134.9099644429115
 31
0.0
  0
LINE
  5
154A
330
1F
100
AcDbEntity
  8
LOGO
 62
     4
100
AcDbLine
 10
297.2519386105726
 20
154.7353734821293
 30
0.0
 11
265.2991652519756
 21
154.7353734821293
 31
0.0
  0
LINE
  5
154B
330
1F
100
AcDbEntity
  8
LOGO
 62
     4
100
AcDbLine
 10
297.2519386105726
 20
147.4525701616003
 30
0.0
 11
265.2991652519756
 21
147.4525701616003
 31
0.0
  0
LINE
  5
154C
330
1F
100
AcDbEntity
  8
LOGO
 62
     4
100
AcDbLine
 10
265.2991652519756
 20
154.7353734821293
 30
0.0
 11
265.2991652519756
 21
147.4525701616003
 31
0.0
  0
LINE
  5
154D
330
1F
100
AcDbEntity
  8
LOGO
 62
     4
100
AcDbLine
 10
297.2519386105726
 20
154.7353734821293
 30
0.0
 11
297.2519386105726
 21
147.4525701616003
 31
0.0
  0
LINE
  5
154E
330
1F
100
AcDbEntity
  8
LOGO
 62
     4
100
AcDbLine
 10
274.2355676345702
 20
147.4525701616003
 30
0.0
 11
274.2355676345702
 21
143.8111685013362
 31
0.0
  0
TEXT
  5
154F
330
1F
100
AcDbEntity
  8
LOGO
  6
Continuous
 62
     7
100
AcDbText
 10
266.9699494989298
 20
148.9728447073034
 30
0.0
 40
4.248917164799998
  1
MAF402
  7
CHINESET
100
AcDbText
  0
LINE
  5
1550
330
1F
100
AcDbEntity
  8
LOGO
 62
     4
100
AcDbLine
 10
281.4831726309293
 20
143.8111685013362
 30
0.0
 11
265.2991652519756
 21
143.8111685013362
 31
0.0
  0
TEXT
  5
1551
330
1F
100
AcDbEntity
  8
LOGO
  6
Continuous
100
AcDbText
 10
270.4925619820942
 20
136.1663505203164
 30
159.1009773032933
 40
1.820964499199998
  1
Model
 41
0.8
  7
CHINESET
100
AcDbText
  0
TEXT
  5
1552
330
1F
100
AcDbEntity
  8
LOGO
100
AcDbText
 10
270.0078804283221
 20
139.5420262559739
 30
159.1009773032933
 40
3.034940831999998
  1
型號
  7
CHINESET
100
AcDbText
  0
LINE
  5
1553
330
1F
100
AcDbEntity
  8
LOGO
  6
Continuous
 62
     7
100
AcDbLine
 10
298.8460260256145
 20
151.0681749815486
 30
0.0
 11
302.0618462342745
 21
151.0681749815486
 31
0.0
  0
LINE
  5
1554
330
1F
100
AcDbEntity
  8
LOGO
 62
     4
100
AcDbLine
 10
308.6531066826329
 20
143.8111685013362
 30
0.0
 11
308.6531066826329
 21
134.9099644429115
 31
0.0
  0
LINE
  5
1555
330
1F
100
AcDbEntity
  8
LOGO
 62
     4
100
AcDbLine
 10
284.9329848423066
 20
143.8111685013362
 30
0.0
 11
284.9329848423066
 21
134.9099644429115
 31
0.0
  0
LINE
  5
1556
330
1F
100
AcDbEntity
  8
LOGO
 62
     4
100
AcDbLine
 10
308.6531066826329
 20
134.9099644429115
 30
0.0
 11
284.9329848423066
 21
134.9099644429115
 31
0.0
  0
LINE
  5
1557
330
1F
100
AcDbEntity
  8
LOGO
 62
     4
100
AcDbLine
 10
319.0905790396322
 20
154.7353734821293
 30
0.0
 11
303.7758965929303
 21
154.7353734821293
 31
0.0
  0
LINE
  5
1558
330
1F
100
AcDbEntity
  8
LOGO
 62
     4
100
AcDbLine
 10
319.0905790396322
 20
147.4525701616003
 30
0.0
 11
303.7758965929303
 21
147.4525701616003
 31
0.0
  0
LINE
  5
1559
330
1F
100
AcDbEntity
  8
LOGO
 62
     4
100
AcDbLine
 10
303.7758965929303
 20
154.7353734821293
 30
0.0
 11
303.7758965929303
 21
147.4525701616003
 31
0.0
  0
LINE
  5
155A
330
1F
100
AcDbEntity
  8
LOGO
 62
     4
100
AcDbLine
 10
319.0905790396322
 20
154.7353734821293
 30
0.0
 11
319.0905790396322
 21
147.4525701616003
 31
0.0
  0
LINE
  5
155B
330
1F
100
AcDbEntity
  8
LOGO
 62
     4
100
AcDbLine
 10
308.7645711032628
 20
147.4525701616003
 30
0.0
 11
308.7645711032628
 21
145.6318693314684
 31
0.0
  0
TEXT
  5
155C
330
1F
100
AcDbEntity
  8
LOGO
  6
Continuous
 62
     7
100
AcDbText
 10
308.1675800445678
 20
148.9728447073034
 30
0.0
 40
4.248917164799998
  1
*A
  7
CHINESET
100
AcDbText
  0
LINE
  5
155D
330
1F
100
AcDbEntity
  8
LOGO
 62
     4
100
AcDbLine
 10
308.6531066826329
 20
143.8111685013362
 30
0.0
 11
284.9329848423066
 21
143.8111685013362
 31
0.0
  0
TEXT
  5
155E
330
1F
100
AcDbEntity
  8
LOGO
  6
Continuous
100
AcDbText
 10
290.2688776609517
 20
136.1663505203164
 30
159.1009773032933
 40
1.820964499199998
  1
Bore size
 41
0.8
  7
CHINESET
100
AcDbText
  0
TEXT
  5
155F
330
1F
100
AcDbEntity
  8
LOGO
100
AcDbText
 10
287.2411247638444
 20
139.5420262559739
 30
159.1009773032933
 40
3.034940831999998
  1
配管口徑代號
  7
CHINESET
100
AcDbText
  0
TEXT
  5
1560
330
1F
100
AcDbEntity
  8
LOGO
100
AcDbText
 10
232.8715182196367
 20
134.1784377277951
 30
0.0
 40
2.427952665599998
  1
10805060
 41
0.7
  7
CHINESET
 72
     1
 11
238.9413998836367
 21
134.1784377277951
 31
0.0
100
AcDbText
  0
LINE
  5
1561
330
1F
100
AcDbEntity
  8
LOGO
 62
     4
100
AcDbLine
 10
246.476305445016
 20
137.7421657342289
 30
0.0
 11
246.4763054450171
 21
132.8869635205426
 31
0.0
  0
LINE
  5
1562
330
1F
100
AcDbEntity
  8
LOGO
 62
     4
100
AcDbLine
 10
246.476305445016
 20
137.7421657342289
 30
0.0
 11
231.9085894514172
 21
137.7421657342289
 31
0.0
  0
LINE
  5
1563
330
1F
100
AcDbEntity
  8
LOGO
  6
AM_ISO08W050x2
 48
0.3
100
AcDbLine
 10
218.2765415070555
 20
149.8853639249757
 30
0.0
 11
222.1626368156047
 21
149.8853639249757
 31
0.0
1001
GENIUS_GENOREF_13
1005
156A
  0
LINE
  5
1564
330
1F
100
AcDbEntity
  8
LOGO
  6
AM_ISO08W050x2
 48
0.3
100
AcDbLine
 10
220.2195891613302
 20
147.9423162707011
 30
0.0
 11
220.2195891613302
 21
151.8284115792502
 31
0.0
1001
GENIUS_GENOREF_13
1005
1569
  0
LINE
  5
1565
330
1F
100
AcDbEntity
  8
LOGO
  6
CENTER
 48
0.5
100
AcDbLine
 10
224.305040569206
 20
149.8853639249757
 30
0.0
 11
229.522147111013
 21
149.8853639249757
 31
0.0
1001
GENIUS_GENOREF_13
1005
1568
  0
LINE
  5
1566
330
1F
100
AcDbEntity
  8
LOGO
 62
     4
100
AcDbLine
 10
296.7930457624697
 20
145.6318693314684
 30
0.0
 11
296.7930457624697
 21
143.8111685013362
 31
0.0
  0
LINE
  5
1567
330
1F
100
AcDbEntity
  8
LOGO
 62
     4
100
AcDbLine
 10
308.7645711032628
 20
145.6318693314684
 30
0.0
 11
296.7930457624697
 21
145.6318693314684
 31
0.0
  0
POINT
  5
1568
330
1F
100
AcDbEntity
  8
0
 60
     1
100
AcDbPoint
 10
-529.4292913433101
 20
-465.0915454335053
 30
0.0
1001
GENIUS_GENOBJ-N-CRS_13
1002
{
1000
OWNER
1000
GEN
1002
}
1001
GENIUS_GENOLIS_13
1002
{
1000
ENT
1005
0
1005
0
1005
0
1005
1565
1002
}
1001
GENIUS_GENOENT_13
1002
{
1000
MYREF
1005
1568
1002
}
1002
{
1000
GRP
1005
0
1002
}
1001
GENIUS_GENODEF_13
1002
{
1000
HIER
1070
    10
1002
}
1002
{
1000
MANEDIT
1070
     1
1002
}
1002
{
1000
NOSEL
1070
     0
1002
}
1002
{
1000
BEHIND
1070
     0
1002
}
1002
{
1000
OTHER
1070
     0
1002
}
1002
{
1000
REACTOR
1002
}
  0
POINT
  5
1569
330
1F
100
AcDbEntity
  8
0
 60
     1
100
AcDbPoint
 10
-540.7538765661646
 20
-456.2159589548691
 30
0.0
1001
GENIUS_GENOBJ-N-CRS_13
1002
{
1000
OWNER
1000
GEN
1002
}
1001
GENIUS_GENOLIS_13
1002
{
1000
ENT
1005
0
1005
0
1005
0
1005
1564
1002
}
1001
GENIUS_GENOENT_13
1002
{
1000
MYREF
1005
1569
1002
}
1002
{
1000
GRP
1005
0
1002
}
1001
GENIUS_GENODEF_13
1002
{
1000
HIER
1070
    10
1002
}
1002
{
1000
MANEDIT
1070
     1
1002
}
1002
{
1000
NOSEL
1070
     0
1002
}
1002
{
1000
BEHIND
1070
     0
1002
}
1002
{
1000
OTHER
1070
     0
1002
}
1002
{
1000
REACTOR
1002
}
  0
POINT
  5
156A
330
1F
100
AcDbEntity
  8
0
 60
     1
100
AcDbPoint
 10
-534.3952028683278
 20
-465.0915454335053
 30
0.0
1001
GENIUS_GENOBJ-N-CRS_13
1002
{
1000
OWNER
1000
GEN
1002
}
1001
GENIUS_GENOLIS_13
1002
{
1000
ENT
1005
0
1005
0
1005
0
1005
1563
1002
}
1001
GENIUS_GENOENT_13
1002
{
1000
MYREF
1005
156A
1002
}
1002
{
1000
GRP
1005
0
1002
}
1001
GENIUS_GENODEF_13
1002
{
1000
HIER
1070
    10
1002
}
1002
{
1000
MANEDIT
1070
     1
1002
}
1002
{
1000
NOSEL
1070
     0
1002
}
1002
{
1000
BEHIND
1070
     0
1002
}
1002
{
1000
OTHER
1070
     0
1002
}
1002
{
1000
REACTOR
1002
}
  0
ENDSEC
  0
SECTION
  2
OBJECTS
  0
DICTIONARY
  5
C
330
0
100
AcDbDictionary
281
     1
  3
ACAD_COLOR
350
BE
  3
ACAD_GROUP
350
D
  3
ACAD_LAYOUT
350
1A
  3
ACAD_MATERIAL
350
BD
  3
ACAD_MLINESTYLE
350
17
  3
ACAD_PLOTSETTINGS
350
19
  3
ACAD_PLOTSTYLENAME
350
E
  3
ACAD_TABLESTYLE
350
11A
  3
AcAsAppObject
350
1101
  3
ACASGREF_MASTER
350
1149
  3
ACDBHEADERROUNDTRIPXREC
350
1698
  3
AcDbVariableDictionary
350
94
  3
AcmDictionary
350
5B
  3
AD_GREF_MODULE
350
114A
  3
AD_MAPI_MODULE
350
115C
  3
AMG
350
41
  3
AMGSNAPSETTINGS
350
1B8
  3
DWGPROPS
350
1697
  3
MAPISURF_MODULE
350
114B
  0
DICTIONARY
  5
3F9
330
2
100
AcDbDictionary
280
     1
281
     1
  3
ACAD_LAYERFILTERS
360
15A5
  3
ACAD_LAYERSTATES
360
C0A
  3
ACLYDICTIONARY
360
15A4
  3
AMLAYER_GROUPCOLORS
360
E42
  0
DICTIONARY
  5
8F
330
1F
100
AcDbDictionary
280
     1
281
     1
  3
ACAD_INDEX
360
12A4
  3
ACAD_SORTENTS
360
E74
  0
DICTIONARY
  5
EAA
330
E9C
100
AcDbDictionary
280
     1
281
     1
  3
ACAD_DIMASSOC
360
EAB
  0
DICTIONARY
  5
EDA
330
ECD
100
AcDbDictionary
280
     1
281
     1
  3
ACAD_DIMASSOC
360
EDB
  0
DICTIONARY
  5
F00
330
EF3
100
AcDbDictionary
280
     1
281
     1
  3
ACAD_DIMASSOC
360
F01
  0
DICTIONARY
  5
F26
330
F19
100
AcDbDictionary
280
     1
281
     1
  3
ACAD_DIMASSOC
360
F27
  0
DICTIONARY
  5
F52
330
F43
100
AcDbDictionary
280
     1
281
     1
  3
ACAD_DIMASSOC
360
F53
  0
DICTIONARY
  5
BE
102
{ACAD_REACTORS
330
C
102
}
330
C
100
AcDbDictionary
281
     1
  0
DICTIONARY
  5
D
102
{ACAD_REACTORS
330
C
102
}
330
C
100
AcDbDictionary
281
     1
  0
DICTIONARY
  5
1A
102
{ACAD_REACTORS
330
C
102
}
330
C
100
AcDbDictionary
281
     1
  3
Model
350
22
  3
配置1
350
1E
  3
配置2
350
26
  0
DICTIONARY
  5
BD
102
{ACAD_REACTORS
330
C
102
}
330
C
100
AcDbDictionary
281
     1
  0
DICTIONARY
  5
17
102
{ACAD_REACTORS
330
C
102
}
330
C
100
AcDbDictionary
281
     1
  3
Standard
350
18
  0
DICTIONARY
  5
19
102
{ACAD_REACTORS
330
C
102
}
330
C
100
AcDbDictionary
281
     1
  0
ACDBDICTIONARYWDFLT
  5
E
102
{ACAD_REACTORS
330
C
102
}
330
C
100
AcDbDictionary
281
     1
  3
Normal
350
F
100
AcDbDictionaryWithDefault
340
F
  0
DICTIONARY
  5
11A
102
{ACAD_REACTORS
330
C
102
}
330
C
100
AcDbDictionary
281
     1
  3
Standard
350
11B
  0
ACAD_PROXY_OBJECT
  5
1101
102
{ACAD_REACTORS
330
C
102
}
330
C
100
AcDbProxyObject
 90
      499
 91
      599
 95
  2555929
 70
     0
 93
       10
310
407E
 94
        0
1001
ACAD
1000
AcRTDxfName
1000
ASAPP
1000
AcRTDxfName
1000
ASAPP
  0
ACAD_PROXY_OBJECT
  5
1149
102
{ACAD_REACTORS
330
C
102
}
330
C
100
AcDbProxyObject
 90
      499
 91
      604
 95
  2555929
 70
     0
 93
       34
310
0100004070
 94
        0
1001
ACAD
1000
AcRTDxfName
1000
ACASGREFMASTER
1000
AcRTDxfName
1000
ACASGREFMASTER
  0
DICTIONARY
  5
1698
102
{ACAD_REACTORS
330
C
102
}
330
C
100
AcDbDictionary
281
     1
  0
DICTIONARY
  5
94
102
{ACAD_REACTORS
330
C
102
}
330
C
100
AcDbDictionary
281
     1
  3
CTABLESTYLE
350
138
  3
DIMASSOC
350
96
  3
INDEXCTL
350
95
  3
PROJECTNAME
350
160F
  0
DICTIONARY
  5
5B
102
{ACAD_REACTORS
330
C
102
}
330
C
100
AcDbDictionary
281
     1
  3
AcmBOM
350
1B5
  3
AcmStdDictionary
350
61
  3
AMDTSECTSYM_ARROWCOLOR
350
123
  0
ACAD_PROXY_OBJECT
  5
114A
102
{ACAD_REACTORS
330
C
102
}
330
C
100
AcDbProxyObject
 90
      499
 91
      605
 95
  2555929
 70
     0
 93
      114
310
000000438080000000000000000000
 94
        0
1001
ACAD
1000
AcRTDxfName
1000
ACADGREFMODULE
1000
AcRTDxfName
1000
ACADGREFMODULE
  0
ACAD_PROXY_OBJECT
  5
115C
102
{ACAD_REACTORS
330
C
102
}
330
C
100
AcDbProxyObject
 90
      499
 91
      607
 95
  2555929
 70
     0
 93
       34
310
05000044F0
 94
        0
1001
ACAD
1000
AcRTDxfName
1000
MAPIADMODULE
1000
AcRTDxfName
1000
MAPIADMODULE
  0
DICTIONARY
  5
41
102
{ACAD_REACTORS
330
C
102
}
330
C
100
AcDbDictionary
281
     1
  0
DICTIONARY
  5
1B8
102
{ACAD_REACTORS
330
C
102
}
330
C
100
AcDbDictionary
281
     1
  0
XRECORD
  5
1697
102
{ACAD_REACTORS
330
C
102
}
330
C
100
AcDbXrecord
280
     1
  1
DWGPROPS COOKIE
  2

  3

  4

  6

  7

  8

  9

300
AmdtFileType=84
301
=
302
=
303
=
304
=
305
=
306
=
307
=
308
=
309
=
 40
0.0662546412037037
 41
2454515.453502778
 42
2454593.674505613
  1

 90
        1
  0
ACAD_PROXY_OBJECT
  5
114B
102
{ACAD_REACTORS
330
C
102
}
330
C
100
AcDbProxyObject
 90
      499
 91
      606
 95
  2555929
 70
     0
 93
        8
310
047E
 94
        0
1001
ACAD
1000
AcRTDxfName
1000
AMDTMAPISURFMOUDULE
1000
AcRTDxfName
1000
AMDTMAPISURFMOUDULE
  0
DICTIONARY
  5
15A5
102
{ACAD_REACTORS
330
3F9
102
}
330
3F9
100
AcDbDictionary
281
     1
  0
DICTIONARY
  5
C0A
102
{ACAD_REACTORS
330
3F9
102
}
330
3F9
100
AcDbDictionary
281
     1
  0
DICTIONARY
  5
15A4
102
{ACAD_REACTORS
330
3F9
102
}
330
3F9
100
AcDbDictionary
281
     1
1001
ACAD
1000
<All
  0
DICTIONARY
  5
E42
102
{ACAD_REACTORS
330
3F9
102
}
330
3F9
100
AcDbDictionary
280
     1
281
     1
  0
DICTIONARY
  5
12A4
102
{ACAD_REACTORS
330
8F
102
}
330
8F
100
AcDbDictionary
281
     1
  3
*A1
350
12A5
  0
SORTENTSTABLE
  5
E74
102
{ACAD_REACTORS
330
8F
102
}
330
8F
100
AcDbSortentsTable
330
1F
331
E22
  5
E22
331
DD3
  5
DD3
331
D24
  5
D24
331
D5B
  5
D5B
331
D94
  5
D94
331
E2A
  5
E2A
331
DDB
  5
DDB
331
D2C
  5
D2C
331
D63
  5
D63
331
D9C
  5
D9C
331
D6B
  5
D6B
331
DA4
  5
DA4
331
DE3
  5
DE3
331
E7A
  5
E7A
331
FE2
  5
FE2
331
DAC
  5
DAC
331
D34
  5
D34
331
DEB
  5
DEB
331
D3C
  5
D3C
331
D75
  5
D75
331
DB4
  5
DB4
331
DF3
  5
DF3
331
D44
  5
D44
331
D0D
  5
D0D
331
D7D
  5
D7D
331
DBC
  5
DBC
331
DFB
  5
DFB
331
DC4
  5
DC4
331
D15
  5
D15
331
D4C
  5
D4C
331
D85
  5
D85
331
DCC
  5
DCC
331
D8D
  5
D8D
331
D1D
  5
D1D
331
D54
  5
D54
331
E35
  5
E35
331
F43
  5
F43
331
D5C
  5
D5C
331
DD4
  5
DD4
331
D95
  5
D95
331
D25
  5
D25
331
E23
  5
E23
331
E2B
  5
E2B
331
D64
  5
D64
331
D2D
  5
D2D
331
D9D
  5
D9D
331
DDC
  5
DDC
331
E7B
  5
E7B
331
DE4
  5
DE4
331
D6C
  5
D6C
331
DA5
  5
DA5
331
D35
  5
D35
331
DAD
  5
DAD
331
EF3
  5
EF3
331
DEC
  5
DEC
331
DB5
  5
DB5
331
D3D
  5
D3D
331
D76
  5
D76
331
DF4
  5
DF4
331
DBD
  5
DBD
331
D7E
  5
D7E
331
D0E
  5
D0E
331
D45
  5
D45
331
DFC
  5
DFC
331
D4D
  5
D4D
331
DC5
  5
DC5
331
D86
  5
D86
331
D16
  5
D16
331
D55
  5
D55
331
D1E
  5
D1E
331
D8E
  5
D8E
331
DCD
  5
DCD
331
E24
  5
E24
331
DD5
  5
DD5
331
D26
  5
D26
331
D5D
  5
D5D
331
D96
  5
D96
331
E2C
  5
E2C
331
DDD
  5
DDD
331
D9E
  5
D9E
331
D2E
  5
D2E
331
D65
  5
D65
331
D6D
  5
D6D
331
DA6
  5
DA6
331
DE5
  5
DE5
331
D36
  5
D36
331
FE4
  5
FE4
331
DAE
  5
DAE
331
DED
  5
DED
331
D3E
  5
D3E
331
DB6
  5
DB6
331
D77
  5
D77
331
D07
  5
D07
331
DF5
  5
DF5
331
D46
  5
D46
331
D0F
  5
D0F
331
D7F
  5
D7F
331
DBE
  5
DBE
331
DFD
  5
DFD
331
DC6
  5
DC6
331
D17
  5
D17
331
D4E
  5
D4E
331
D87
  5
D87
331
DCE
  5
DCE
331
D8F
  5
D8F
331
D1F
  5
D1F
331
D56
  5
D56
331
E8B
  5
E8B
331
ECD
  5
ECD
331
E25
  5
E25
331
D5E
  5
D5E
331
DD6
  5
DD6
331
D97
  5
D97
331
D27
  5
D27
331
E2D
  5
E2D
331
D66
  5
D66
331
D2F
  5
D2F
331
D9F
  5
D9F
331
DDE
  5
DDE
331
DE6
  5
DE6
331
D6E
  5
D6E
331
DA7
  5
DA7
331
DAF
  5
DAF
331
D37
  5
D37
331
D70
  5
D70
331
DEE
  5
DEE
331
DB7
  5
DB7
331
D08
  5
D08
331
D3F
  5
D3F
331
D78
  5
D78
331
D47
  5
D47
331
DBF
  5
DBF
331
D80
  5
D80
331
D10
  5
D10
331
DF6
  5
DF6
331
D4F
  5
D4F
331
DC7
  5
DC7
331
D88
  5
D88
331
D18
  5
D18
331
E1E
  5
E1E
331
D57
  5
D57
331
E30
  5
E30
331
DCF
  5
DCF
331
E8C
  5
E8C
331
D20
  5
D20
331
D90
  5
D90
331
E26
  5
E26
331
DD7
  5
DD7
331
D28
  5
D28
331
D5F
  5
D5F
331
D98
  5
D98
331
E2E
  5
E2E
331
DA0
  5
DA0
331
DDF
  5
DDF
331
D67
  5
D67
331
D6F
  5
D6F
331
DE7
  5
DE7
331
DA8
  5
DA8
331
D30
  5
D30
331
D38
  5
D38
331
D71
  5
D71
331
DB0
  5
DB0
331
DEF
  5
DEF
331
D40
  5
D40
331
DB8
  5
DB8
331
D79
  5
D79
331
D09
  5
D09
331
DF7
  5
DF7
331
DC0
  5
DC0
331
D11
  5
D11
331
D48
  5
D48
331
D81
  5
D81
331
DC8
  5
DC8
331
D19
  5
D19
331
D50
  5
D50
331
D89
  5
D89
331
E31
  5
E31
331
E1F
  5
E1F
331
D58
  5
D58
331
DD0
  5
DD0
331
D91
  5
D91
331
D21
  5
D21
331
E27
  5
E27
331
D60
  5
D60
331
DD8
  5
DD8
331
D99
  5
D99
331
D29
  5
D29
331
E2F
  5
E2F
331
D68
  5
D68
331
DA1
  5
DA1
331
DE0
  5
DE0
331
D31
  5
D31
331
DA9
  5
DA9
331
DE8
  5
DE8
331
DB1
  5
DB1
331
D39
  5
D39
331
D72
  5
D72
331
DF0
  5
DF0
331
DB9
  5
DB9
331
D0A
  5
D0A
331
D41
  5
D41
331
D7A
  5
D7A
331
D49
  5
D49
331
DC1
  5
DC1
331
D82
  5
D82
331
D12
  5
D12
331
DF8
  5
DF8
331
D51
  5
D51
331
DC9
  5
DC9
331
D8A
  5
D8A
331
D1A
  5
D1A
331
E32
  5
E32
331
E20
  5
E20
331
DD1
  5
DD1
331
D22
  5
D22
331
D59
  5
D59
331
D92
  5
D92
331
E28
  5
E28
331
DD9
  5
DD9
331
D2A
  5
D2A
331
D61
  5
D61
331
D9A
  5
D9A
331
D69
  5
D69
331
DA2
  5
DA2
331
DE1
  5
DE1
331
DAA
  5
DAA
331
D32
  5
D32
331
D3A
  5
D3A
331
D73
  5
D73
331
DB2
  5
DB2
331
DE9
  5
DE9
331
DF1
  5
DF1
331
D0B
  5
D0B
331
D42
  5
D42
331
D7B
  5
D7B
331
DF9
  5
DF9
331
DC2
  5
DC2
331
D13
  5
D13
331
D4A
  5
D4A
331
D83
  5
D83
331
DCA
  5
DCA
331
D1B
  5
D1B
331
D52
  5
D52
331
D8B
  5
D8B
331
E33
  5
E33
331
D5A
  5
D5A
331
DD2
  5
DD2
331
D93
  5
D93
331
D23
  5
D23
331
E21
  5
E21
331
E29
  5
E29
331
D62
  5
D62
331
DDA
  5
DDA
331
D9B
  5
D9B
331
D2B
  5
D2B
331
DE2
  5
DE2
331
D6A
  5
D6A
331
DA3
  5
DA3
331
D33
  5
D33
331
DAB
  5
DAB
331
F19
  5
F19
331
DEA
  5
DEA
331
DB3
  5
DB3
331
D3B
  5
D3B
331
D74
  5
D74
331
DF2
  5
DF2
331
DBB
  5
DBB
331
D7C
  5
D7C
331
D0C
  5
D0C
331
D43
  5
D43
331
D4B
  5
D4B
331
DC3
  5
DC3
331
D84
  5
D84
331
D14
  5
D14
331
DFA
  5
DFA
331
D53
  5
D53
331
D1C
  5
D1C
331
D8C
  5
D8C
331
DCB
  5
DCB
331
E34
  5
E34
331
E9C
  5
E9C
331
E88
  5
E88
  0
DIMASSOC
  5
EAB
102
{ACAD_REACTORS
330
EAA
102
}
330
EAA
100
AcDbDimAssoc
330
E9C
 90
        3
 70
     0
 71
     0
  1
AcDbOsnapPointRef
 72
     1
331
D2E
 73
     0
 91
        0
 40
0.0
 10
0.0
 20
0.0
 30
2.000000000000000E+50
 75
     0
  1
AcDbOsnapPointRef
 72
    13
331
E8B
 73
     0
 91
        0
 40
0.0
 10
0.0
 20
0.0
 30
2.000000000000000E+50
 75
     0
  0
DIMASSOC
  5
EDB
102
{ACAD_REACTORS
330
EDA
102
}
330
EDA
100
AcDbDimAssoc
330
ECD
 90
        3
 70
     0
 71
     0
  1
AcDbOsnapPointRef
 72
     1
331
D2E
 73
     0
 91
        0
 40
0.0
 10
0.0
 20
0.0
 30
2.000000000000000E+50
 75
     0
  1
AcDbOsnapPointRef
 72
    13
331
D6C
 73
     0
 91
        0
 40
0.0
 10
0.0
 20
0.0
 30
2.000000000000000E+50
 75
     0
  0
DIMASSOC
  5
F01
102
{ACAD_REACTORS
330
F00
102
}
330
F00
100
AcDbDimAssoc
330
EF3
 90
        3
 70
     0
 71
     0
  1
AcDbOsnapPointRef
 72
     1
331
D2E
 73
     0
 91
        0
 40
0.0
 10
0.0
 20
0.0
 30
2.000000000000000E+50
 75
     0
  1
AcDbOsnapPointRef
 72
     1
331
D2F
 73
     0
 91
        0
 40
0.0
 10
0.0
 20
0.0
 30
2.000000000000000E+50
 75
     0
  0
DIMASSOC
  5
F27
102
{ACAD_REACTORS
330
F26
102
}
330
F26
100
AcDbDimAssoc
330
F19
 90
        3
 70
     0
 71
     0
  1
AcDbOsnapPointRef
 72
    13
331
D9E
 73
     0
 91
        0
 40
0.0
 10
0.0
 20
0.0
 30
2.000000000000000E+50
 75
     0
  1
AcDbOsnapPointRef
 72
     1
331
D9F
 73
     0
 91
        0
 40
0.0
 10
0.0
 20
0.0
 30
2.000000000000000E+50
 75
     0
  0
DIMASSOC
  5
F53
102
{ACAD_REACTORS
330
F52
102
}
330
F52
100
AcDbDimAssoc
330
F43
 90
        3
 70
     0
 71
     0
  1
AcDbOsnapPointRef
 72
     1
331
D6D
 73
     0
 91
        0
 40
0.0
 10
0.0
 20
0.0
 30
2.000000000000000E+50
 75
     0
  1
AcDbOsnapPointRef
 72
     1
331
D61
 73
     0
 91
        0
 40
0.0
 10
0.0
 20
0.0
 30
2.000000000000000E+50
 75
     0
  0
LAYOUT
  5
22
102
{ACAD_XDICTIONARY
360
169B
102
}
102
{ACAD_REACTORS
330
1A
102
}
330
1A
100
AcDbPlotSettings
  1

  2
\\RD\EPSON Stylus C63 Series單色
  4
A4
  6

 40
3.757083177566528
 41
3.757076978683471
 42
3.757080078125
 43
3.757080078125
 44
209.9733276367186
 45
296.9683227539062
 46
0.0
 47
0.0
 48
0.0
 49
0.0
140
0.0
141
0.0
142
1.0
143
0.3405120737814363
 70
 11952
 72
     1
 73
     0
 74
     0
  7
單色出圖.ctb
 75
     0
147
2.936753428137962
148
-2047.07469463503
149
-1261.649717473083
100
AcDbLayout
  1
Model
 70
     1
 71
     0
 10
0.0
 20
0.0
 11
12.0
 21
9.0
 12
0.0
 22
0.0
 32
0.0
 14
0.0
 24
0.0
 34
0.0
 15
0.0
 25
0.0
 35
0.0
146
0.0
 13
0.0
 23
0.0
 33
0.0
 16
1.0
 26
0.0
 36
0.0
 17
0.0
 27
1.0
 37
0.0
 76
     0
330
1F
1001
ACAD_PSEXT
1000
\\RD\EPSON Stylus C63 Series單色
1000
EPSON Stylus C63 Series
1000
\\RD
1000

1070
     0
  0
LAYOUT
  5
1E
102
{ACAD_XDICTIONARY
360
1699
102
}
102
{ACAD_REACTORS
330
1A
102
}
330
1A
100
AcDbPlotSettings
  1

  2

  4

  6

 40
0.0
 41
0.0
 42
0.0
 43
0.0
 44
0.0
 45
0.0
 46
0.0
 47
0.0
 48
0.0
 49
0.0
140
0.0
141
0.0
142
1.0
143
1.0
 70
   688
 72
     0
 73
     0
 74
     5
  7
單色出圖.ctb
 75
    16
147
1.0
148
0.0
149
0.0
100
AcDbLayout
  1
配置1
 70
     1
 71
     1
 10
0.0
 20
0.0
 11
420.0
 21
297.0
 12
0.0
 22
0.0
 32
0.0
 14
1.000000000000000E+20
 24
1.000000000000000E+20
 34
1.000000000000000E+20
 15
-1.000000000000000E+20
 25
-1.000000000000000E+20
 35
-1.000000000000000E+20
146
0.0
 13
0.0
 23
0.0
 33
0.0
 16
1.0
 26
0.0
 36
0.0
 17
0.0
 27
1.0
 37
0.0
 76
     0
330
1B
  0
LAYOUT
  5
26
102
{ACAD_XDICTIONARY
360
169D
102
}
102
{ACAD_REACTORS
330
1A
102
}
330
1A
100
AcDbPlotSettings
  1

  2

  4

  6

 40
0.0
 41
0.0
 42
0.0
 43
0.0
 44
0.0
 45
0.0
 46
0.0
 47
0.0
 48
0.0
 49
0.0
140
0.0
141
0.0
142
1.0
143
1.0
 70
   688
 72
     0
 73
     0
 74
     5
  7
單色出圖.ctb
 75
    16
147
1.0
148
0.0
149
0.0
100
AcDbLayout
  1
配置2
 70
     1
 71
     2
 10
0.0
 20
0.0
 11
12.0
 21
9.0
 12
0.0
 22
0.0
 32
0.0
 14
0.0
 24
0.0
 34
0.0
 15
0.0
 25
0.0
 35
0.0
146
0.0
 13
0.0
 23
0.0
 33
0.0
 16
1.0
 26
0.0
 36
0.0
 17
0.0
 27
1.0
 37
0.0
 76
     0
330
23
  0
MLINESTYLE
  5
18
102
{ACAD_REACTORS
330
17
102
}
330
17
100
AcDbMlineStyle
  2
STANDARD
 70
     0
  3

 62
   256
 51
90.0
 52
90.0
 71
     2
 49
0.5
 62
   256
  6
BYLAYER
 49
-0.5
 62
   256
  6
BYLAYER
  0
ACDBPLACEHOLDER
  5
F
102
{ACAD_REACTORS
330
E
102
}
330
E
  0
TABLESTYLE
  5
11B
102
{ACAD_REACTORS
330
11A
102
}
330
11A
100
AcDbTableStyle
  3
Standard
 70
     0
 71
     0
 40
1.5
 41
1.5
280
     0
281
     0
  7
STANDARD
140
4.5
170
     2
 62
     0
 63
     7
283
     0
274
    -2
284
     1
 64
     0
275
    -2
285
     1
 65
     0
276
    -2
286
     1
 66
     0
277
    -2
287
     1
 67
     0
278
    -2
288
     1
 68
     0
279
    -2
289
     1
 69
     0
  7
STANDARD
140
6.0
170
     5
 62
     0
 63
     7
283
     0
274
    -2
284
     1
 64
     0
275
    -2
285
     1
 65
     0
276
    -2
286
     1
 66
     0
277
    -2
287
     1
 67
     0
278
    -2
288
     1
 68
     0
279
    -2
289
     1
 69
     0
  7
STANDARD
140
4.5
170
     5
 62
     0
 63
     7
283
     0
274
    -2
284
     1
 64
     0
275
    -2
285
     1
 65
     0
276
    -2
286
     1
 66
     0
277
    -2
287
     1
 67
     0
278
    -2
288
     1
 68
     0
279
    -2
289
     1
 69
     0
  0
DICTIONARYVAR
  5
138
102
{ACAD_REACTORS
330
94
102
}
330
94
100
DictionaryVariables
280
     0
  1
STANDARD
  0
DICTIONARYVAR
  5
96
102
{ACAD_REACTORS
330
94
102
}
330
94
100
DictionaryVariables
280
     0
  1
2
  0
DICTIONARYVAR
  5
95
102
{ACAD_REACTORS
330
94
102
}
330
94
100
DictionaryVariables
280
     0
  1
1
  0
DICTIONARYVAR
  5
160F
102
{ACAD_REACTORS
330
94
102
}
330
94
100
DictionaryVariables
280
     0
  1

  0
DICTIONARY
  5
1B5
102
{ACAD_REACTORS
330
5B
102
}
330
5B
100
AcDbDictionary
281
     1
  0
DICTIONARY
  5
61
102
{ACAD_REACTORS
330
5B
102
}
330
5B
100
AcDbDictionary
281
     1
  0
XRECORD
  5
123
102
{ACAD_REACTORS
330
5B
102
}
330
5B
100
AcDbXrecord
280
     1
 90
-1023410169
  0
LAYER_INDEX
  5
12A5
102
{ACAD_REACTORS
330
12A4
102
}
330
12A4
100
AcDbIndex
 40
2454593.674505613
100
AcDbLayerIndex
  8
0
360
1604
 90
       27
  8
M_0
360
1605
 90
        0
  8
AM_8
360
1606
 90
        0
  8
AM_VIS
360
1607
 90
      238
  8
AM_7
360
1608
 90
       11
  8
AM_5
360
1609
 90
        7
  8
AM_0
360
160A
 90
        1
  8
AM_4
360
160B
 90
        1
  8
Defpoints
360
160C
 90
        0
  8
底
360
160D
 90
        0
  8
LOGO
360
160E
 90
       92
  0
DICTIONARY
  5
169B
330
22
100
AcDbDictionary
280
     1
281
     1
  3
ACAD_XREC_ROUNDTRIP
360
169C
  0
DICTIONARY
  5
1699
330
1E
100
AcDbDictionary
280
     1
281
     1
  3
ACAD_XREC_ROUNDTRIP
360
169A
  0
DICTIONARY
  5
169D
330
26
100
AcDbDictionary
280
     1
281
     1
  3
ACAD_XREC_ROUNDTRIP
360
169E
  0
IDBUFFER
  5
1604
330
0
100
AcDbIdBuffer
330
E1E
330
E1F
330
E20
330
E21
330
E22
330
E23
330
E24
330
E25
330
E26
330
E27
330
E28
330
E29
330
E2A
330
E2B
330
E2C
330
E2D
330
E2E
330
E2F
330
E30
330
E31
330
E32
330
E33
330
E34
330
E35
330
1568
330
1569
330
156A
  0
IDBUFFER
  5
1605
330
0
100
AcDbIdBuffer
  0
IDBUFFER
  5
1606
330
0
100
AcDbIdBuffer
  0
IDBUFFER
  5
1607
330
0
100
AcDbIdBuffer
330
D0F
330
D10
330
D11
330
D12
330
D13
330
D14
330
D15
330
D16
330
D17
330
D18
330
D19
330
D1A
330
D1B
330
D1C
330
D1D
330
D1E
330
D1F
330
D20
330
D21
330
D22
330
D23
330
D24
330
D25
330
D26
330
D27
330
D28
330
D29
330
D2A
330
D2B
330
D2C
330
D2D
330
D2E
330
D2F
330
D30
330
D31
330
D32
330
D33
330
D34
330
D35
330
D36
330
D37
330
D38
330
D39
330
D3A
330
D3B
330
D3C
330
D3D
330
D3E
330
D3F
330
D40
330
D41
330
D42
330
D43
330
D44
330
D45
330
D46
330
D47
330
D48
330
D49
330
D4A
330
D4B
330
D4C
330
D4D
330
D4E
330
D4F
330
D50
330
D51
330
D52
330
D53
330
D54
330
D55
330
D56
330
D57
330
D58
330
D59
330
D5A
330
D5B
330
D5C
330
D5D
330
D5E
330
D5F
330
D60
330
D61
330
D62
330
D63
330
D64
330
D65
330
D66
330
D67
330
D68
330
D69
330
D6A
330
D6B
330
D6C
330
D6D
330
D6E
330
D6F
330
D70
330
D71
330
D72
330
D73
330
D74
330
D75
330
D76
330
D77
330
D78
330
D79
330
D7A
330
D7B
330
D7C
330
D7D
330
D7E
330
D7F
330
D80
330
D81
330
D82
330
D83
330
D84
330
D85
330
D86
330
D87
330
D88
330
D89
330
D8A
330
D8B
330
D8C
330
D8D
330
D8E
330
D8F
330
D90
330
D91
330
D92
330
D93
330
D94
330
D95
330
D96
330
D97
330
D98
330
D99
330
D9A
330
D9B
330
D9C
330
D9D
330
D9E
330
D9F
330
DA0
330
DA1
330
DA2
330
DA3
330
DA4
330
DA5
330
DA6
330
DA7
330
DA8
330
DA9
330
DAA
330
DAB
330
DAC
330
DAD
330
DAE
330
DAF
330
DB0
330
DB1
330
DB2
330
DB3
330
DB4
330
DB5
330
DB6
330
DB7
330
DB8
330
DB9
330
DBB
330
DBC
330
DBD
330
DBE
330
DBF
330
DC0
330
DC1
330
DC2
330
DC3
330
DC4
330
DC5
330
DC6
330
DC7
330
DC8
330
DC9
330
DCA
330
DCB
330
DCC
330
DCD
330
DCE
330
DCF
330
DD0
330
DD1
330
DD2
330
DD3
330
DD4
330
DD5
330
DD6
330
DD7
330
DD8
330
DD9
330
DDA
330
DDB
330
DDC
330
DDD
330
DDE
330
DDF
330
DE0
330
DE1
330
DE2
330
DE3
330
DE4
330
DE5
330
DE6
330
DE7
330
DE8
330
DE9
330
DEA
330
DEB
330
DEC
330
DED
330
DEE
330
DEF
330
DF0
330
DF1
330
DF2
330
DF3
330
DF4
330
DF5
330
DF6
330
DF7
330
DF8
330
DF9
330
DFA
330
DFB
330
DFC
330
DFD
  0
IDBUFFER
  5
1608
330
0
100
AcDbIdBuffer
330
D07
330
D08
330
D09
330
D0A
330
D0B
330
D0C
330
D0D
330
D0E
330
E88
330
E8B
330
E8C
  0
IDBUFFER
  5
1609
330
0
100
AcDbIdBuffer
330
E9C
330
ECD
330
EF3
330
F19
330
F43
330
FE2
330
FE4
  0
IDBUFFER
  5
160A
330
0
100
AcDbIdBuffer
330
E7B
  0
IDBUFFER
  5
160B
330
0
100
AcDbIdBuffer
330
E7A
  0
IDBUFFER
  5
160C
330
0
100
AcDbIdBuffer
  0
IDBUFFER
  5
160D
330
0
100
AcDbIdBuffer
  0
IDBUFFER
  5
160E
330
0
100
AcDbIdBuffer
330
14F7
330
14F8
330
14F9
330
14FA
330
14FB
330
14FC
330
14FD
330
14FE
330
14FF
330
1500
330
1501
330
1502
330
1503
330
1504
330
1505
330
1506
330
1507
330
1508
330
1509
330
150A
330
150B
330
150C
330
150D
330
150E
330
150F
330
1510
330
1511
330
1512
330
1513
330
1514
330
1515
330
1519
330
151D
330
151E
330
1522
330
1523
330
1524
330
1525
330
1526
330
1527
330
1528
330
1529
330
152D
330
1531
330
1535
330
1536
330
1537
330
153B
330
153C
330
153D
330
153E
330
153F
330
1540
330
1541
330
1542
330
1543
330
1544
330
1545
330
1546
330
1547
330
1548
330
1549
330
154A
330
154B
330
154C
330
154D
330
154E
330
154F
330
1550
330
1551
330
1552
330
1553
330
1554
330
1555
330
1556
330
1557
330
1558
330
1559
330
155A
330
155B
330
155C
330
155D
330
155E
330
155F
330
1560
330
1561
330
1562
330
1563
330
1564
330
1565
330
1566
330
1567
  0
XRECORD
  5
169C
102
{ACAD_REACTORS
330
169B
102
}
330
169B
100
AcDbXrecord
280
     1
102
SHADEPLOT
 70
     0
102
SHADEPLOTRESLEVEL
 70
     2
102
SHADEPLOTCUSTOMDPI
 70
   300
  0
XRECORD
  5
169A
102
{ACAD_REACTORS
330
1699
102
}
330
1699
100
AcDbXrecord
280
     1
102
SHADEPLOT
 70
     0
102
SHADEPLOTRESLEVEL
 70
     2
102
SHADEPLOTCUSTOMDPI
 70
   300
  0
XRECORD
  5
169E
102
{ACAD_REACTORS
330
169D
102
}
330
169D
100
AcDbXrecord
280
     1
102
SHADEPLOT
 70
     0
102
SHADEPLOTRESLEVEL
 70
     2
102
SHADEPLOTCUSTOMDPI
 70
   300
  0
ENDSEC
  0
EOF
