  0
SECTION
  2
HEADER
  9
$ACADVER
  1
AC1015
  9
$ACADMAINTVER
 70
    20
  9
$DWGCODEPAGE
  3
ANSI_950
  9
$INSBASE
 10
0.0
 20
0.0
 30
0.0
  9
$EXTMIN
 10
-1089.011429505132
 20
71.21679894106126
 30
-0.0047329433519963
  9
$EXTMAX
 10
-852.1994655829216
 20
378.4485945581784
 30
155.1056545049567
  9
$LIMMIN
 10
0.0
 20
0.0
  9
$LIMMAX
 10
420.0
 20
297.0
  9
$ORTHOMODE
 70
     1
  9
$REGENMODE
 70
     1
  9
$FILLMODE
 70
     1
  9
$QTEXTMODE
 70
     0
  9
$MIRRTEXT
 70
     1
  9
$LTSCALE
 40
3.0
  9
$ATTMODE
 70
     1
  9
$TEXTSIZE
 40
4.0
  9
$TRACEWID
 40
1.0
  9
$TEXTSTYLE
  7
CHINESET
  9
$CLAYER
  8
0
  9
$CELTYPE
  6
ByLayer
  9
$CECOLOR
 62
   256
  9
$CELTSCALE
 40
1.0
  9
$DISPSILH
 70
     0
  9
$DIMSCALE
 40
1.0
  9
$DIMASZ
 40
3.0
  9
$DIMEXO
 40
1.0
  9
$DIMDLI
 40
15.0
  9
$DIMRND
 40
0.0
  9
$DIMDLE
 40
0.0
  9
$DIMEXE
 40
1.0
  9
$DIMTP
 40
0.1
  9
$DIMTM
 40
0.1
  9
$DIMTXT
 40
3.5
  9
$DIMCEN
 40
0.0
  9
$DIMTSZ
 40
0.0
  9
$DIMTOL
 70
     0
  9
$DIMLIM
 70
     0
  9
$DIMTIH
 70
     0
  9
$DIMTOH
 70
     0
  9
$DIMSE1
 70
     0
  9
$DIMSE2
 70
     0
  9
$DIMTAD
 70
     1
  9
$DIMZIN
 70
     8
  9
$DIMBLK
  1

  9
$DIMASO
 70
     1
  9
$DIMSHO
 70
     1
  9
$DIMPOST
  1

  9
$DIMAPOST
  1
"
  9
$DIMALT
 70
     0
  9
$DIMALTD
 70
     2
  9
$DIMALTF
 40
0.0393701
  9
$DIMLFAC
 40
1.0
  9
$DIMTOFL
 70
     1
  9
$DIMTVP
 40
0.0
  9
$DIMTIX
 70
     0
  9
$DIMSOXD
 70
     0
  9
$DIMSAH
 70
     0
  9
$DIMBLK1
  1

  9
$DIMBLK2
  1

  9
$DIMSTYLE
  2
AM_ISO
  9
$DIMCLRD
 70
   256
  9
$DIMCLRE
 70
   256
  9
$DIMCLRT
 70
   256
  9
$DIMTFAC
 40
0.71
  9
$DIMGAP
 40
1.0
  9
$DIMJUST
 70
     0
  9
$DIMSD1
 70
     0
  9
$DIMSD2
 70
     0
  9
$DIMTOLJ
 70
     0
  9
$DIMTZIN
 70
     8
  9
$DIMALTZ
 70
     0
  9
$DIMALTTZ
 70
     0
  9
$DIMUPT
 70
     0
  9
$DIMDEC
 70
     2
  9
$DIMTDEC
 70
     2
  9
$DIMALTU
 70
     2
  9
$DIMALTTD
 70
     2
  9
$DIMTXSTY
  7
STANDARD
  9
$DIMAUNIT
 70
     0
  9
$DIMADEC
 70
     0
  9
$DIMALTRND
 40
0.0
  9
$DIMAZIN
 70
     2
  9
$DIMDSEP
 70
    46
  9
$DIMATFIT
 70
     3
  9
$DIMFRAC
 70
     0
  9
$DIMLDRBLK
  1

  9
$DIMLUNIT
 70
     2
  9
$DIMLWD
 70
    -1
  9
$DIMLWE
 70
    -1
  9
$DIMTMOVE
 70
     0
  9
$LUNITS
 70
     2
  9
$LUPREC
 70
     2
  9
$SKETCHINC
 40
1.0
  9
$FILLETRAD
 40
2.5
  9
$AUNITS
 70
     0
  9
$AUPREC
 70
     0
  9
$MENU
  1
.
  9
$ELEVATION
 40
0.0
  9
$PELEVATION
 40
0.0
  9
$THICKNESS
 40
0.0
  9
$LIMCHECK
 70
     0
  9
$CHAMFERA
 40
2.5
  9
$CHAMFERB
 40
2.5
  9
$CHAMFERC
 40
0.0
  9
$CHAMFERD
 40
0.0
  9
$SKPOLY
 70
     0
  9
$TDCREATE
 40
2451457.340116412
  9
$TDUCREATE
 40
2451457.006783079
  9
$TDUPDATE
 40
2454649.413867048
  9
$TDUUPDATE
 40
2454649.080533715
  9
$TDINDWG
 40
1.0589468403
  9
$TDUSRTIMER
 40
1.0589468403
  9
$USRTIMER
 70
     1
  9
$ANGBASE
 50
0.0
  9
$ANGDIR
 70
     0
  9
$PDMODE
 70
     0
  9
$PDSIZE
 40
0.0
  9
$PLINEWID
 40
0.0
  9
$SPLFRAME
 70
     0
  9
$SPLINETYPE
 70
     6
  9
$SPLINESEGS
 70
     8
  9
$HANDSEED
  5
3A14
  9
$SURFTAB1
 70
     6
  9
$SURFTAB2
 70
     6
  9
$SURFTYPE
 70
     6
  9
$SURFU
 70
     6
  9
$SURFV
 70
     6
  9
$UCSBASE
  2

  9
$UCSNAME
  2

  9
$UCSORG
 10
0.0
 20
0.0
 30
0.0
  9
$UCSXDIR
 10
1.0
 20
0.0
 30
0.0
  9
$UCSYDIR
 10
0.0
 20
1.0
 30
0.0
  9
$UCSORTHOREF
  2

  9
$UCSORTHOVIEW
 70
     0
  9
$UCSORGTOP
 10
0.0
 20
0.0
 30
0.0
  9
$UCSORGBOTTOM
 10
0.0
 20
0.0
 30
0.0
  9
$UCSORGLEFT
 10
0.0
 20
0.0
 30
0.0
  9
$UCSORGRIGHT
 10
0.0
 20
0.0
 30
0.0
  9
$UCSORGFRONT
 10
0.0
 20
0.0
 30
0.0
  9
$UCSORGBACK
 10
0.0
 20
0.0
 30
0.0
  9
$PUCSBASE
  2

  9
$PUCSNAME
  2

  9
$PUCSORG
 10
0.0
 20
0.0
 30
0.0
  9
$PUCSXDIR
 10
1.0
 20
0.0
 30
0.0
  9
$PUCSYDIR
 10
0.0
 20
1.0
 30
0.0
  9
$PUCSORTHOREF
  2

  9
$PUCSORTHOVIEW
 70
     0
  9
$PUCSORGTOP
 10
0.0
 20
0.0
 30
0.0
  9
$PUCSORGBOTTOM
 10
0.0
 20
0.0
 30
0.0
  9
$PUCSORGLEFT
 10
0.0
 20
0.0
 30
0.0
  9
$PUCSORGRIGHT
 10
0.0
 20
0.0
 30
0.0
  9
$PUCSORGFRONT
 10
0.0
 20
0.0
 30
0.0
  9
$PUCSORGBACK
 10
0.0
 20
0.0
 30
0.0
  9
$USERI1
 70
     0
  9
$USERI2
 70
     0
  9
$USERI3
 70
     0
  9
$USERI4
 70
     0
  9
$USERI5
 70
     0
  9
$USERR1
 40
0.0
  9
$USERR2
 40
0.0
  9
$USERR3
 40
0.0
  9
$USERR4
 40
0.0
  9
$USERR5
 40
0.0
  9
$WORLDVIEW
 70
     1
  9
$SHADEDGE
 70
     3
  9
$SHADEDIF
 70
    70
  9
$TILEMODE
 70
     1
  9
$MAXACTVP
 70
    48
  9
$PINSBASE
 10
0.0
 20
0.0
 30
0.0
  9
$PLIMCHECK
 70
     0
  9
$PEXTMIN
 10
1.000000000000000E+20
 20
1.000000000000000E+20
 30
1.000000000000000E+20
  9
$PEXTMAX
 10
-1.000000000000000E+20
 20
-1.000000000000000E+20
 30
-1.000000000000000E+20
  9
$PLIMMIN
 10
0.0
 20
0.0
  9
$PLIMMAX
 10
420.0
 20
297.0
  9
$UNITMODE
 70
     0
  9
$VISRETAIN
 70
     1
  9
$PLINEGEN
 70
     0
  9
$PSLTSCALE
 70
     1
  9
$TREEDEPTH
 70
  3020
  9
$CMLSTYLE
  2
Standard
  9
$CMLJUST
 70
     0
  9
$CMLSCALE
 40
1.0
  9
$PROXYGRAPHICS
 70
     1
  9
$MEASUREMENT
 70
     1
  9
$CELWEIGHT
370
    -1
  9
$ENDCAPS
280
     0
  9
$JOINSTYLE
280
     0
  9
$LWDISPLAY
290
     0
  9
$INSUNITS
 70
     4
  9
$HYPERLINKBASE
  1

  9
$STYLESHEET
  1
單色出圖.ctb
  9
$XEDIT
290
     1
  9
$CEPSNTYPE
380
     0
  9
$PSTYLEMODE
290
     1
  9
$FINGERPRINTGUID
  2
{C1BC4B2F-FC92-11D4-9D7A-0050BAE3FAE1}
  9
$VERSIONGUID
  2
{997E0A4F-EC44-40A8-99CB-A7755D3030E0}
  9
$EXTNAMES
290
     1
  9
$PSVPSCALE
 40
0.0
  9
$OLESTARTUP
290
     0
  0
ENDSEC
  0
SECTION
  2
CLASSES
  0
CLASS
  1
ACDBDICTIONARYWDFLT
  2
AcDbDictionaryWithDefault
  3
ObjectDBX Classes
 90
        0
280
     0
281
     0
  0
CLASS
  1
ACDBPLACEHOLDER
  2
AcDbPlaceHolder
  3
ObjectDBX Classes
 90
        0
280
     0
281
     0
  0
CLASS
  1
LAYOUT
  2
AcDbLayout
  3
ObjectDBX Classes
 90
        0
280
     0
281
     0
  0
CLASS
  1
DICTIONARYVAR
  2
AcDbDictionaryVar
  3
ObjectDBX Classes
 90
        0
280
     0
281
     0
  0
CLASS
  1
ACME_DOCUMENT
  2
AcMeDbDoc
  3
AcMeServices
 90
        0
280
     0
281
     0
  0
CLASS
  1
AMGSETTINGSOBJ
  2
AmgSettingsObj
  3
"AcadM|Product Description: AutoCAD Mechanical 2000|Company: Autodesk"
 90
        0
280
     0
281
     0
  0
CLASS
  1
ACMESCOPE
  2
AcMeScope
  3
AcMeServices
 90
        0
280
     0
281
     0
  0
CLASS
  1
ACMECOMMANDHISTORY
  2
AcMeCommandHistory
  3
AcMeServices
 90
        0
280
     0
281
     0
  0
CLASS
  1
ACIMSYSVARMAN
  2
AcImSysVarManager
  3
AcMeServices
 90
        0
280
     0
281
     0
  0
CLASS
  1
ACIMREALSYSVAR
  2
AcImRealSysVar
  3
AcMeServices
 90
        0
280
     0
281
     0
  0
CLASS
  1
ACIMINTSYSVAR
  2
AcImIntSysVar
  3
AcMeServices
 90
        0
280
     0
281
     0
  0
CLASS
  1
ACMEDRAWINGMAN
  2
AcMeDrawingMan
  3
AcMeServices
 90
        0
280
     0
281
     0
  0
CLASS
  1
ACMEVIEW
  2
AcMeView
  3
AcMeServices
 90
        0
280
     0
281
     0
  0
CLASS
  1
ACDBENTITYCACHE
  2
AcMeEntityCache
  3
AcMeServices
 90
        0
280
     0
281
     0
  0
CLASS
  1
GSMANAGER
  2
AcMeGSManager
  3
AcMeServices
 90
        0
280
     0
281
     0
  0
CLASS
  1
AMDTINTERNALREACTOR
  2
AmdtInternalReactor
  3
AcMeServices
 90
        0
280
     0
281
     0
  0
CLASS
  1
ACMESTATEMGR
  2
AcMeStateMgr
  3
AcMeServices
 90
        0
280
     0
281
     0
  0
CLASS
  1
ACGREFMASTER
  2
AcGrefMaster
  3
AcAttribServices
 90
        0
280
     0
281
     0
  0
CLASS
  1
ACME_DATABASE
  2
AcMeDbDatabase
  3
AcMeServices
 90
        0
280
     0
281
     0
  0
CLASS
  1
ACRFINSADJUSTERMGR
  2
AcRfInsAdjusterMgr
  3
AcMeServices
 90
        0
280
     0
281
     0
  0
CLASS
  1
ACGREFACADMASTER
  2
AcGrefacadMaster
  3
AcGrefServices
 90
        0
280
     0
281
     0
  0
CLASS
  1
AMIMASTER
  2
AmiMaster
  3
AmiServices
 90
        0
280
     0
281
     0
  0
CLASS
  1
ACMDATADICTIONARY
  2
AcmDataDictionary
  3
"AcmSymBB|Product Description: AutoCAD Mechanical 2004 DX|Company: Autodesk"
 90
        0
280
     0
281
     0
  0
CLASS
  1
ACMDATAENTRYBLOCK
  2
AcmDataEntryBlock
  3
"AcmSymBB|Product Description: AutoCAD Mechanical 2004 DX|Company: Autodesk"
 90
    32768
280
     0
281
     0
  0
CLASS
  1
ACIMSTRSYSVAR
  2
AcImStrSysVar
  3
AcMeServices
 90
        0
280
     0
281
     0
  0
CLASS
  1
ACMSTANDARDANSI
  2
AcmStandardANSI
  3
"Amdt_StdImp|Product Description: AutoCAD Mechanical 2004 DX|Company: Autodesk"
 90
    32768
280
     0
281
     0
  0
CLASS
  1
AMGOBJPROPCFG
  2
AmgObjPropCfg
  3
"AmgLay|Product Description: AutoCAD Mechanical 2000|Company: Autodesk"
 90
        1
280
     0
281
     0
  0
CLASS
  1
ACMSURFSTANDARDANSI
  2
AcmSurfTextStdANSI
  3
"Amdt_StdImp|Product Description: AutoCAD Mechanical 2004 DX|Company: Autodesk"
 90
    32768
280
     0
281
     0
  0
CLASS
  1
ACMFCFSTANDARDANSI
  2
AcmFCFStdANSI
  3
"Amdt_StdImp|Product Description: AutoCAD Mechanical 2004 DX|Company: Autodesk"
 90
    32768
280
     0
281
     0
  0
CLASS
  1
ACMWELDSTANDARDANSI
  2
AcmWeldingStdANSI
  3
"Amdt_StdImp|Product Description: AutoCAD Mechanical 2004 DX|Company: Autodesk"
 90
    32768
280
     0
281
     0
  0
CLASS
  1
ACMIDSTANDARDANSI
  2
AcmIdStdANSI
  3
"Amdt_StdImp|Product Description: AutoCAD Mechanical 2004 DX|Company: Autodesk"
 90
    32768
280
     0
281
     0
  0
CLASS
  1
ACMDATUMSTANDARDANSI
  2
AcmDatumStdANSI
  3
"Amdt_StdImp|Product Description: AutoCAD Mechanical 2004 DX|Company: Autodesk"
 90
    32768
280
     0
281
     0
  0
CLASS
  1
ACMBOMSTANDARDANSI
  2
AcmBOMStdANSI
  3
"Amdt_StdImp|Product Description: AutoCAD Mechanical 2004 DX|Company: Autodesk"
 90
    32768
280
     0
281
     0
  0
CLASS
  1
ACMDETAILSTANDARDANSI
  2
AmdtDetailSymStdANSI
  3
"Amdt_StdImp|Product Description: AutoCAD Mechanical 2004 DX|Company: Autodesk"
 90
    32768
280
     0
281
     0
  0
CLASS
  1
ACMSECTIONSTANDARDANSI
  2
AmdtSectionSymStdANSI
  3
"Amdt_StdImp|Product Description: AutoCAD Mechanical 2004 DX|Company: Autodesk"
 90
    32768
280
     0
281
     0
  0
CLASS
  1
ACMCENTERLINESTANDARDANSI
  2
AmdtCenterLineStdANSI
  3
"Amdt_StdImp|Product Description: AutoCAD Mechanical 2004 DX|Company: Autodesk"
 90
    32768
280
     0
281
     0
  0
CLASS
  1
ACMNOTESTANDARDANSI
  2
AmdtNoteStdANSI
  3
"Amdt_StdImp|Product Description: AutoCAD Mechanical 2004 DX|Company: Autodesk"
 90
    32768
280
     0
281
     0
  0
CLASS
  1
ACAMGLAYSTD
  2
AcAmgLayStd
  3
"AcAmgLayStd|Product Description: AutoCAD Mechanical 2000|Company: Autodesk"
 90
        0
280
     0
281
     0
  0
CLASS
  1
ACAMGDIMSTD
  2
AcAmgDimStd
  3
"AcAmgDimStd|Product Description: AutoCAD Mechanical 2000|Company: Autodesk"
 90
        0
280
     0
281
     0
  0
CLASS
  1
ACAMGHOLECHARTSTDANSI
  2
AcAmgHoleChartStdANSI
  3
ACMSYMBB_MODULE_NAME
 90
    32768
280
     0
281
     0
  0
CLASS
  1
ACAMGTITLESTD
  2
AcAmgTitleStd
  3
"TITLEAPP"
 90
        0
280
     0
281
     0
  0
CLASS
  1
LAYER_INDEX
  2
AcDbLayerIndex
  3
ObjectDBX Classes
 90
        0
280
     0
281
     0
  0
CLASS
  1
IDBUFFER
  2
AcDbIdBuffer
  3
ObjectDBX Classes
 90
        0
280
     0
281
     0
  0
CLASS
  1
ACAMGFILTERDAT
  2
AcAmgFilterDat
  3
"AcadM|Product Description: AutoCAD Mechanical 2000|Company: Autodesk"
 90
    32768
280
     0
281
     0
  0
CLASS
  1
AMDTNOTE
  2
AmdtNote
  3
"AcmSymBB|Product Description: AutoCAD Mechanical 2004 DX|Company: Autodesk"
 90
    33791
280
     0
281
     1
  0
CLASS
  1
AMDTFORMULAUPDATEDISPATCHER
  2
AmdtFormulaUpdateDispatcher
  3
AcMeServices
 90
    32768
280
     0
281
     0
  0
CLASS
  1
TABLESTYLE
  2
AcDbTableStyle
  3
ObjectDBX Classes
 90
     2047
280
     0
281
     0
  0
CLASS
  1
AM_DRAWING_MGR
  2
AcDmDwgMgr
  3
AcMechDwgViewMgmt
 90
        0
280
     0
281
     0
  0
CLASS
  1
AM_DWG_DOCUMENT
  2
AcDmDwgDocument
  3
AcMechDwgViewMgmt
 90
        0
280
     0
281
     0
  0
CLASS
  1
AM_DWG_SHEET
  2
AcDmSheet
  3
AcMechDwgViewMgmt
 90
        0
280
     0
281
     0
  0
CLASS
  1
AM_VIEWDIMPARMAP
  2
AcDmViewDimParMap
  3
AcMechDwgViewMgmt
 90
        0
280
     0
281
     0
  0
CLASS
  1
AM_DWGMGR_NAME
  2
AcDmDwgMgrName
  3
AcMechDwgViewMgmt
 90
        0
280
     0
281
     0
  0
CLASS
  1
AMDTMENUSTATEMGR
  2
AmdtMenuStateMgr
  3
McadcomServices
 90
        0
280
     0
281
     0
  0
CLASS
  1
AMDTMCOMMENUSTATE
  2
AmdtMcomMenuState
  3
McadcomServices
 90
        0
280
     0
281
     0
  0
CLASS
  1
MAPIAMMOUDLE
  2
MApiAmModule
  3
MApiAmServices
 90
        0
280
     0
281
     0
  0
CLASS
  1
AMDTADMENUSTATE
  2
AmdtAdMenuState
  3
DesignerServices
 90
        0
280
     0
281
     0
  0
CLASS
  1
ADAPPL
  2
AcAdAppl
  3
DesignerServices
 90
        0
280
     0
281
     0
  0
CLASS
  1
DEPMGR
  2
AcAdDepMgr
  3
DesignerServices
 90
        0
280
     0
281
     0
  0
CLASS
  1
PARAMMGR
  2
AcAdParamMgr
  3
DesignerServices
 90
        0
280
     0
281
     0
  0
CLASS
  1
PARAMSCOPE
  2
AcAdParamScope
  3
DesignerServices
 90
        0
280
     0
281
     0
  0
CLASS
  1
NAMEDAPPL
  2
AcAdNamedAppl
  3
DesignerServices
 90
        0
280
     0
281
     0
  0
CLASS
  1
AMDTDMMENUSTATE
  2
AmdtDmMenuState
  3
AcMechDwgViewMgmt
 90
        0
280
     0
281
     0
  0
CLASS
  1
AMDTAMMENUSTATE
  2
AmdtAmMenuState
  3
DesignerAssemblies
 90
        0
280
     0
281
     0
  0
CLASS
  1
ACAMPROJECT
  2
AcAmProject
  3
DesignerAssemblies
 90
        0
280
     0
281
     0
  0
CLASS
  1
ACAMGRCOMPDEF
  2
AcAmGrCompDef
  3
DesignerAssemblies
 90
        0
280
     0
281
     0
  0
CLASS
  1
ACCMCONTEXT
  2
AcCmContext
  3
DesignerAssemblies
 90
        0
280
     0
281
     0
  0
CLASS
  1
ACAMCOMPDEF
  2
AcAmCompDef
  3
DesignerAssemblies
 90
        0
280
     0
281
     0
  0
CLASS
  1
ACAMCOMPDEFMGR
  2
AcAmCompDefMgr
  3
DesignerAssemblies
 90
        0
280
     0
281
     0
  0
CLASS
  1
AMCONTEXTMGR
  2
AcAmContextMgr
  3
DesignerAssemblies
 90
        0
280
     0
281
     0
  0
CLASS
  1
ACAMCONTEXTMODELER
  2
AcAmContextModeler
  3
DesignerAssemblies
 90
        0
280
     0
281
     0
  0
CLASS
  1
CATALOGSTATE
  2
AcAmCatalogState
  3
DesignerAssemblies
 90
        0
280
     0
281
     0
  0
CLASS
  1
ACAMGRCOMPDEFSET
  2
AcAmGrCompDefSet
  3
DesignerAssemblies
 90
        0
280
     0
281
     0
  0
CLASS
  1
AMDTBROWSERDBTAB
  2
AmdtBrowserDbTab
  3
McadcomServices
 90
        0
280
     0
281
     0
  0
CLASS
  1
CBROWSERAPPOBJECT
  2
CBrowserAppObject
  3
McadcomServices
 90
        0
280
     0
281
     0
  0
CLASS
  1
DM_PLACEHOLDER
  2
AcDmSelsetPlaceholder
  3
AcMechDwgViewMgmt
 90
        0
280
     0
281
     0
  0
CLASS
  1
ACMTHREADLINESTANDARDANSI
  2
AmdtThreadLineStdANSI
  3
"Amdt_StdImp|Product Description: AutoCAD Mechanical 2004 DX|Company: Autodesk"
 90
    32768
280
     0
281
     0
  0
CLASS
  1
AMDTNOTETEMPLATEDB
  2
AmdtNoteTemplateDB
  3
AMDT_STDIMP_MODULE_NAME
 90
        0
280
     0
281
     0
  0
CLASS
  1
SORTENTSTABLE
  2
AcDbSortentsTable
  3
ObjectDBX Classes
 90
        0
280
     0
281
     0
  0
CLASS
  1
ACMSTANDARDISO
  2
AcmStandardISO
  3
"Amdt_StdImp|Product Description: AutoCAD Mechanical 2004 DX|Company: Autodesk"
 90
        0
280
     0
281
     0
  0
CLASS
  1
AMDTEDGESTANDARDISO13715
  2
AmdtEdgeStdISO13715
  3
"Amdt_StdImp|Product Description: AutoCAD Mechanical 2004 DX|Company: Autodesk"
 90
        0
280
     0
281
     0
  0
CLASS
  1
ACMSURFSTANDARDISO
  2
AcmSurfTextStdISO
  3
"Amdt_StdImp|Product Description: AutoCAD Mechanical 2004 DX|Company: Autodesk"
 90
        0
280
     0
281
     0
  0
CLASS
  1
ACMFCFSTANDARDISO
  2
AcmFCFStdISO
  3
"Amdt_StdImp|Product Description: AutoCAD Mechanical 2004 DX|Company: Autodesk"
 90
        0
280
     0
281
     0
  0
CLASS
  1
ACMWELDSTANDARDISO
  2
AcmWeldingStdISO
  3
"Amdt_StdImp|Product Description: AutoCAD Mechanical 2004 DX|Company: Autodesk"
 90
        0
280
     0
281
     0
  0
CLASS
  1
ACMIDSTANDARDISO
  2
AcmIdStdISO
  3
"Amdt_StdImp|Product Description: AutoCAD Mechanical 2004 DX|Company: Autodesk"
 90
        0
280
     0
281
     0
  0
CLASS
  1
ACMDATUMSTANDARDISO
  2
AcmDatumStdISO
  3
"Amdt_StdImp|Product Description: AutoCAD Mechanical 2004 DX|Company: Autodesk"
 90
        0
280
     0
281
     0
  0
CLASS
  1
ACMBOMSTANDARDISO
  2
AcmBOMStdISO
  3
"Amdt_StdImp|Product Description: AutoCAD Mechanical 2004 DX|Company: Autodesk"
 90
        0
280
     0
281
     0
  0
CLASS
  1
ACMDETAILSTANDARDISO
  2
AmdtDetailSymStdISO
  3
"Amdt_StdImp|Product Description: AutoCAD Mechanical 2004 DX|Company: Autodesk"
 90
        0
280
     0
281
     0
  0
CLASS
  1
ACMSECTIONSTANDARDISO
  2
AmdtSectionSymStdISO
  3
"Amdt_StdImp|Product Description: AutoCAD Mechanical 2004 DX|Company: Autodesk"
 90
        0
280
     0
281
     0
  0
CLASS
  1
ACMCENTERLINESTANDARDISO
  2
AmdtCenterLineStdISO
  3
"Amdt_StdImp|Product Description: AutoCAD Mechanical 2004 DX|Company: Autodesk"
 90
        0
280
     0
281
     0
  0
CLASS
  1
ACMTHREADLINESTANDARDISO
  2
AmdtThreadLineStdISO
  3
"Amdt_StdImp|Product Description: AutoCAD Mechanical 2004 DX|Company: Autodesk"
 90
        0
280
     0
281
     0
  0
CLASS
  1
ACMNOTESTANDARDISO
  2
AmdtNoteStdISO
  3
"Amdt_StdImp|Product Description: AutoCAD Mechanical 2004 DX|Company: Autodesk"
 90
        0
280
     0
281
     0
  0
CLASS
  1
ACAMGHOLECHARTSTDISO
  2
AcAmgHoleChartStdISO
  3
ACMSYMBB_MODULE_NAME
 90
        0
280
     0
281
     0
  0
ENDSEC
  0
SECTION
  2
TABLES
  0
TABLE
  2
VPORT
  5
20D9
330
0
100
AcDbSymbolTable
 70
     3
  0
VPORT
  5
3A0D
330
20D9
100
AcDbSymbolTableRecord
100
AcDbViewportTableRecord
  2
*Active
 70
     0
 10
0.0
 20
0.0
 11
1.0
 21
1.0
 12
-970.6054475440268
 22
224.8326967496198
 13
0.0
 23
0.0
 14
2.5
 24
2.5
 15
10.0
 25
10.0
 16
0.0
 26
0.0
 36
1.0
 17
0.0
 27
0.0
 37
0.0
 40
309.7061456489328
 41
0.9704301075268817
 42
50.0
 43
0.0
 44
0.0
 50
0.0
 51
0.0
 71
     0
 72
   100
 73
     1
 74
     1
 75
     0
 76
     0
 77
     0
 78
     0
281
     0
 65
     1
110
0.0
120
0.0
130
0.0
111
1.0
121
0.0
131
0.0
112
0.0
122
1.0
132
0.0
 79
     0
146
0.0
  0
ENDTAB
  0
TABLE
  2
LTYPE
  5
20D6
330
0
100
AcDbSymbolTable
 70
    19
  0
LTYPE
  5
20E4
330
20D6
100
AcDbSymbolTableRecord
100
AcDbLinetypeTableRecord
  2
ByBlock
 70
     0
  3

 72
    65
 73
     0
 40
0.0
  0
LTYPE
  5
20E5
330
20D6
100
AcDbSymbolTableRecord
100
AcDbLinetypeTableRecord
  2
ByLayer
 70
     0
  3

 72
    65
 73
     0
 40
0.0
  0
LTYPE
  5
20E6
330
20D6
100
AcDbSymbolTableRecord
100
AcDbLinetypeTableRecord
  2
CONTINUOUS
 70
     0
  3
Solid line
 72
    65
 73
     0
 40
0.0
  0
LTYPE
  5
2156
330
20D6
100
AcDbSymbolTableRecord
100
AcDbLinetypeTableRecord
  2
CENTER
 70
     0
  3
---- - ---- - ---- 3,-.3,.3,-.3
 72
    65
 73
     4
 40
3.9
 49
3.0
 74
     0
 49
-0.3
 74
     0
 49
0.3
 74
     0
 49
-0.3
 74
     0
  0
LTYPE
  5
2342
330
20D6
100
AcDbSymbolTableRecord
100
AcDbLinetypeTableRecord
  2
Amconstr
 70
     0
  3
_______________________
 72
    65
 73
     2
 40
9999.0
 49
9999.0
 74
     0
 49
0.0
 74
     0
  0
LTYPE
  5
2348
330
20D6
100
AcDbSymbolTableRecord
100
AcDbLinetypeTableRecord
  2
HIDDEN
 70
     0
  3
Hidden __ __ __ __ __ __ __ __ __ __ __ __ __ _
 72
    65
 73
     2
 40
0.375
 49
0.25
 74
     0
 49
-0.125
 74
     0
  0
LTYPE
  5
2349
330
20D6
100
AcDbSymbolTableRecord
100
AcDbLinetypeTableRecord
  2
PHANTOM2
 70
     0
  3
Phantom (.5x) ___ _ _ ___ _ _ ___ _ _ ___ _ _
 72
    65
 73
     6
 40
1.25
 49
0.625
 74
     0
 49
-0.125
 74
     0
 49
0.125
 74
     0
 49
-0.125
 74
     0
 49
0.125
 74
     0
 49
-0.125
 74
     0
  0
LTYPE
  5
234A
330
20D6
100
AcDbSymbolTableRecord
100
AcDbLinetypeTableRecord
  2
CENTER2
 70
     0
  3
Center (.5x) ___ _ ___ _ ___ _ ___ _ ___ _ ___
 72
    65
 73
     4
 40
1.125
 49
0.75
 74
     0
 49
-0.125
 74
     0
 49
0.125
 74
     0
 49
-0.125
 74
     0
  0
LTYPE
  5
234B
330
20D6
100
AcDbSymbolTableRecord
100
AcDbLinetypeTableRecord
  2
HIDDEN2
 70
     0
  3
Hidden (.5x) _ _ _ _ _ _ _ _ _ _ _ _ _ _ _ _ _
 72
    65
 73
     2
 40
0.1875
 49
0.125
 74
     0
 49
-0.0625
 74
     0
  0
LTYPE
  5
234C
330
20D6
100
AcDbSymbolTableRecord
100
AcDbLinetypeTableRecord
  2
Amzigzag2
 70
     0
  3
/\/-/\/-/\/-/\/-/\/-/\/
 72
    65
 73
     2
 40
0.4401
 49
0.0001
 74
     4
 75
   135
340
2346
 46
0.0016
 50
0.0
 44
0.0
 45
0.0
 49
-0.4400000000000001
 74
     0
  0
LTYPE
  5
2359
330
20D6
100
AcDbSymbolTableRecord
100
AcDbLinetypeTableRecord
  2
ACANSTGB
 70
     0
  3
__ . . __ . .
 72
    65
 73
     6
 40
0.35433070866
 49
0.15748031496
 74
     0
 49
-0.03937007874
 74
     0
 49
0.03937007874
 74
     0
 49
-0.03937007874
 74
     0
 49
0.03937007874
 74
     0
 49
-0.03937007874
 74
     0
  0
LTYPE
  5
235A
330
20D6
100
AcDbSymbolTableRecord
100
AcDbLinetypeTableRecord
  2
ACANSTGL
 70
     0
  3
_ _ _ _ _
 72
    65
 73
     2
 40
0.11811023622
 49
0.07874015748
 74
     0
 49
-0.03937007874
 74
     0
  0
LTYPE
  5
29CD
330
20D6
100
AcDbSymbolTableRecord
100
AcDbLinetypeTableRecord
  2
AM_ISO02W050
 70
     0
  3
__ __ __ __ __ __ __ __ __ __ __ __ __ __ __
 72
    65
 73
     2
 40
7.5
 49
6.0
 74
     0
 49
-1.5
 74
     0
  0
LTYPE
  5
29CE
330
20D6
100
AcDbSymbolTableRecord
100
AcDbLinetypeTableRecord
  2
AM_ISO08W050
 70
     0
  3
____ . ____ . ____ . ____ . ____ . ____ . ____
 72
    65
 73
     4
 40
18.0
 49
12.0
 74
     0
 49
-1.5
 74
     0
 49
3.0
 74
     0
 49
-1.5
 74
     0
  0
LTYPE
  5
29CF
330
20D6
100
AcDbSymbolTableRecord
100
AcDbLinetypeTableRecord
  2
AM_ISO09W050
 70
     0
  3
_____ . . _____ . . _____ . . ____ .. ____
 72
    65
 73
     6
 40
22.5
 49
12.0
 74
     0
 49
-1.5
 74
     0
 49
3.0
 74
     0
 49
-1.5
 74
     0
 49
3.0
 74
     0
 49
-1.5
 74
     0
  0
LTYPE
  5
29D0
330
20D6
100
AcDbSymbolTableRecord
100
AcDbLinetypeTableRecord
  2
AM_ISO08W050x2
 70
     0
  3
__ . __ . __ . __ . __ . __
 72
    65
 73
     4
 40
9.0
 49
6.0
 74
     0
 49
-0.75
 74
     0
 49
1.5
 74
     0
 49
-0.75
 74
     0
  0
LTYPE
  5
29D1
330
20D6
100
AcDbSymbolTableRecord
100
AcDbLinetypeTableRecord
  2
AM_ISO02W050x2
 70
     0
  3
 _ _ _ _ _ _ _ _ _ _ _ _
 72
    65
 73
     2
 40
3.75
 49
3.0
 74
     0
 49
-0.75
 74
     0
  0
LTYPE
  5
29D2
330
20D6
100
AcDbSymbolTableRecord
100
AcDbLinetypeTableRecord
  2
Amzigzag
 70
     0
  3
/\/-/\/-/\/-/\/-/\/-/\/
 72
    65
 73
     2
 40
11.0001
 49
0.0001
 74
     4
 75
   135
340
2346
 46
0.04
 50
0.0
 44
0.0
 45
0.0
 49
-11.0
 74
     0
  0
LTYPE
  5
2A22
330
20D6
100
AcDbSymbolTableRecord
100
AcDbLinetypeTableRecord
  2
ACISOWELD
 70
     0
  3
_ _ _ _ _
 72
    65
 73
     2
 40
2.0
 49
2.0
 74
     0
 49
-1.0
 74
     0
  0
LTYPE
  5
2A23
330
20D6
100
AcDbSymbolTableRecord
100
AcDbLinetypeTableRecord
  2
ACISOTGB
 70
     0
  3
__ . . __ . .
 72
    65
 73
     6
 40
9.0
 49
4.0
 74
     0
 49
-1.0
 74
     0
 49
1.0
 74
     0
 49
-1.0
 74
     0
 49
1.0
 74
     0
 49
-1.0
 74
     0
  0
LTYPE
  5
2A24
330
20D6
100
AcDbSymbolTableRecord
100
AcDbLinetypeTableRecord
  2
ACISOTGL
 70
     0
  3
_ _ _ _ _
 72
    65
 73
     2
 40
3.0
 49
2.0
 74
     0
 49
-1.0
 74
     0
  0
ENDTAB
  0
TABLE
  2
LAYER
  5
20D3
102
{ACAD_XDICTIONARY
360
2A30
102
}
330
0
100
AcDbSymbolTable
 70
     8
  0
LAYER
  5
20E1
330
20D3
100
AcDbSymbolTableRecord
100
AcDbLayerTableRecord
  2
0
 70
     0
 62
     7
  6
CONTINUOUS
370
    -3
390
20E0
  0
LAYER
  5
215F
330
20D3
100
AcDbSymbolTableRecord
100
AcDbLayerTableRecord
  2
DEFPOINTS
 70
     0
 62
    -7
  6
CONTINUOUS
290
     0
370
    -3
390
20E0
  0
LAYER
  5
2160
330
20D3
100
AcDbSymbolTableRecord
100
AcDbLayerTableRecord
  2
DIM
 70
     0
 62
     5
  6
CONTINUOUS
370
    -3
390
20E0
  0
LAYER
  5
2161
330
20D3
100
AcDbSymbolTableRecord
100
AcDbLayerTableRecord
  2
CENTER
 70
     0
 62
     1
  6
CENTER
370
    -3
390
20E0
  0
LAYER
  5
2176
330
20D3
100
AcDbSymbolTableRecord
100
AcDbLayerTableRecord
  2
LOGO
 70
     0
 62
     7
  6
CONTINUOUS
370
    -3
390
20E0
  0
LAYER
  5
260B
330
20D3
100
AcDbSymbolTableRecord
100
AcDbLayerTableRecord
  2
AM_VIS
 70
     0
 62
     7
  6
CONTINUOUS
370
    50
390
20E0
  0
LAYER
  5
260C
330
20D3
100
AcDbSymbolTableRecord
100
AcDbLayerTableRecord
  2
AM_7
 70
     0
 62
     1
  6
AM_ISO08W050x2
370
    25
390
20E0
  0
LAYER
  5
31A2
330
20D3
100
AcDbSymbolTableRecord
100
AcDbLayerTableRecord
  2
ASHADE
 70
     4
 62
     7
  6
CONTINUOUS
370
    -3
390
20E0
  0
ENDTAB
  0
TABLE
  2
STYLE
  5
20D4
330
0
100
AcDbSymbolTable
 70
     8
  0
STYLE
  5
20E2
330
20D4
100
AcDbSymbolTableRecord
100
AcDbTextStyleTableRecord
  2
STANDARD
 70
     0
 40
0.0
 41
1.0
 50
0.0
 71
     0
 42
25.0
  3
ISOCP.SHX
  4

  0
STYLE
  5
2155
330
20D4
100
AcDbSymbolTableRecord
100
AcDbTextStyleTableRecord
  2
CHINESET
 70
     0
 40
0.0
 41
1.0
 50
0.0
 71
     0
 42
4.0
  3
simplex.shx
  4
chineset.shx
  0
STYLE
  5
2346
330
20D4
100
AcDbSymbolTableRecord
100
AcDbTextStyleTableRecord
  2

 70
     1
 40
0.0
 41
1.0
 50
0.0
 71
     0
 42
25.0
  3
ltypeshp.shx
  4

  0
STYLE
  5
234D
330
20D4
100
AcDbSymbolTableRecord
100
AcDbTextStyleTableRecord
  2
ACANSTS
 70
     0
 40
1.0
 41
1.0
 50
0.0
 71
     0
 42
25.0
  3
romans.shx
  4
chineset.shx
  0
STYLE
  5
2358
330
20D4
100
AcDbSymbolTableRecord
100
AcDbTextStyleTableRecord
  2
ACANSGDT
 70
     0
 40
0.0
 41
1.0
 50
0.0
 71
     0
 42
25.0
  3
amgdtans.shx
  4

  0
STYLE
  5
2A26
330
20D4
100
AcDbSymbolTableRecord
100
AcDbTextStyleTableRecord
  2
ACISOTS
 70
     0
 40
1.0
 41
1.0
 50
0.0
 71
     0
 42
2.5
  3
isocp.shx
  4
chineset.shx
  0
STYLE
  5
2A27
330
20D4
100
AcDbSymbolTableRecord
100
AcDbTextStyleTableRecord
  2
ACISOGDT
 70
     0
 40
0.0
 41
1.0
 50
0.0
 71
     0
 42
2.5
  3
amgdt.shx
  4

  0
STYLE
  5
2E21
330
20D4
100
AcDbSymbolTableRecord
100
AcDbTextStyleTableRecord
  2
DAYUS
 70
     0
 40
0.0
 41
1.0
 50
0.0
 71
     0
 42
3.75
  3
simplex.shx
  4
dayus.shx
  0
ENDTAB
  0
TABLE
  2
VIEW
  5
20D7
330
0
100
AcDbSymbolTable
 70
     0
  0
ENDTAB
  0
TABLE
  2
UCS
  5
20D8
330
0
100
AcDbSymbolTable
 70
     0
  0
ENDTAB
  0
TABLE
  2
APPID
  5
20DA
330
0
100
AcDbSymbolTable
 70
    22
  0
APPID
  5
20E3
330
20DA
100
AcDbSymbolTableRecord
100
AcDbRegAppTableRecord
  2
ACAD
 70
     0
  0
APPID
  5
2321
330
20DA
100
AcDbSymbolTableRecord
100
AcDbRegAppTableRecord
  2
MCAD_NO_VIS
 70
     0
  0
APPID
  5
2322
330
20DA
100
AcDbSymbolTableRecord
100
AcDbRegAppTableRecord
  2
ACAD_TEMP_GRAPHIC
 70
     0
  0
APPID
  5
2333
330
20DA
100
AcDbSymbolTableRecord
100
AcDbRegAppTableRecord
  2
ACATTRIBSERVICES
 70
     0
  0
APPID
  5
252C
330
20DA
100
AcDbSymbolTableRecord
100
AcDbRegAppTableRecord
  2
GENIUS_GENDTOL_13
 70
     0
  0
APPID
  5
29A0
330
20DA
100
AcDbSymbolTableRecord
100
AcDbRegAppTableRecord
  2
AD_DRAW
 70
     0
  0
APPID
  5
29BE
330
20DA
100
AcDbSymbolTableRecord
100
AcDbRegAppTableRecord
  2
DESIGNERASSEMBLIES
 70
     0
  0
APPID
  5
29C3
330
20DA
100
AcDbSymbolTableRecord
100
AcDbRegAppTableRecord
  2
ACADM_DIM_EDIT
 70
     0
  0
APPID
  5
29C4
330
20DA
100
AcDbSymbolTableRecord
100
AcDbRegAppTableRecord
  2
AMDT_DM_ADJ
 70
     0
  0
APPID
  5
2E22
330
20DA
100
AcDbSymbolTableRecord
100
AcDbRegAppTableRecord
  2
ACAD_PSEXT
 70
     0
  0
APPID
  5
31A0
330
20DA
100
AcDbSymbolTableRecord
100
AcDbRegAppTableRecord
  2
AVE_RENDER
 70
     0
  0
APPID
  5
31A1
330
20DA
100
AcDbSymbolTableRecord
100
AcDbRegAppTableRecord
  2
AVE_ENTITY_MATERIAL
 70
     0
  0
APPID
  5
31AE
330
20DA
100
AcDbSymbolTableRecord
100
AcDbRegAppTableRecord
  2
AVE_FINISH
 70
     0
  0
APPID
  5
31AF
330
20DA
100
AcDbSymbolTableRecord
100
AcDbRegAppTableRecord
  2
AVE_MATERIAL
 70
     0
  0
APPID
  5
31B0
330
20DA
100
AcDbSymbolTableRecord
100
AcDbRegAppTableRecord
  2
AVE_GLOBAL
 70
     0
  0
APPID
  5
3455
330
20DA
100
AcDbSymbolTableRecord
100
AcDbRegAppTableRecord
  2
GENIUS_GENOENT_13
 70
     0
  0
APPID
  5
3456
330
20DA
100
AcDbSymbolTableRecord
100
AcDbRegAppTableRecord
  2
GENIUS_GENOBJ-N-CRS_13
 70
     0
  0
APPID
  5
3457
330
20DA
100
AcDbSymbolTableRecord
100
AcDbRegAppTableRecord
  2
GENIUS_GENOLIS_13
 70
     0
  0
APPID
  5
3458
330
20DA
100
AcDbSymbolTableRecord
100
AcDbRegAppTableRecord
  2
GENIUS_GENODEF_13
 70
     0
  0
APPID
  5
3459
330
20DA
100
AcDbSymbolTableRecord
100
AcDbRegAppTableRecord
  2
GENIUS_GENOREF_13
 70
     0
  0
APPID
  5
345A
330
20DA
100
AcDbSymbolTableRecord
100
AcDbRegAppTableRecord
  2
GENIUS_GENREC_14
 70
     0
  0
APPID
  5
345B
330
20DA
100
AcDbSymbolTableRecord
100
AcDbRegAppTableRecord
  2
GENIUS_GENOBJ-N-REC_13
 70
     0
  0
ENDTAB
  0
TABLE
  2
DIMSTYLE
  5
20DB
330
0
100
AcDbSymbolTable
 70
    15
100
AcDbDimStyleTable
 71
     2
340
2A28
340
215E
  0
DIMSTYLE
105
215E
102
{ACAD_REACTORS
330
2CFD
330
2D21
330
311B
330
311C
330
311A
330
3927
102
}
330
20DB
100
AcDbSymbolTableRecord
100
AcDbDimStyleTableRecord
  2
STANDARD
 70
     0
 41
3.0
 42
2.0
 43
8.0
 44
2.0
 73
     0
 74
     0
 77
     1
 78
     8
 79
     2
140
3.0
141
2.5
143
0.0394
147
1.0
171
     4
176
   256
177
   256
178
   256
271
     2
272
     2
274
     4
279
     2
284
     8
285
     8
286
     8
340
2155
  0
DIMSTYLE
105
235E
330
20DB
100
AcDbSymbolTableRecord
100
AcDbDimStyleTableRecord
  2
AM_ANSI
 70
     0
  4
mm
 41
0.1
 42
0.05
 43
0.5
 44
0.1
 47
0.1
 48
0.1
 78
     7
 79
     2
140
0.12
141
0.0
146
0.71
147
0.06
176
   256
177
   256
178
     2
274
     4
284
     7
340
20E2
371
    -1
372
    -1
  0
DIMSTYLE
105
235F
330
20DB
100
AcDbSymbolTableRecord
100
AcDbDimStyleTableRecord
  2
AM_ANSI$3
 70
     0
  4
mm
 41
0.1
 42
0.05
 43
0.5
 44
0.1
 47
0.1
 48
0.1
 78
     7
 79
     2
140
0.12
141
0.0
146
0.71
147
0.06
176
   256
177
   256
178
     2
274
     4
284
     7
288
     1
289
     0
340
20E2
371
    -1
372
    -1
  0
DIMSTYLE
105
2360
330
20DB
100
AcDbSymbolTableRecord
100
AcDbDimStyleTableRecord
  2
AM_ANSI$4
 70
     0
  4
mm
 41
0.1
 42
0.05
 43
0.5
 44
0.1
 47
0.1
 48
0.1
 78
     7
 79
     2
140
0.12
141
0.0
146
0.71
147
0.06
176
   256
177
   256
178
     2
274
     4
284
     7
288
     1
289
     0
340
20E2
371
    -1
372
    -1
  0
DIMSTYLE
105
2361
330
20DB
100
AcDbSymbolTableRecord
100
AcDbDimStyleTableRecord
  2
AM_ANSI$7
 70
     0
  4
mm
 41
0.1
 42
0.05
 43
0.5
 44
0.1
 47
0.1
 48
0.1
 78
     7
 79
     2
140
0.24
141
0.0
146
0.71
147
0.06
176
   256
177
   256
178
     2
274
     4
284
     7
340
20E2
371
    -1
372
    -1
  0
DIMSTYLE
105
2362
330
20DB
100
AcDbSymbolTableRecord
100
AcDbDimStyleTableRecord
  2
AM_ANSI$SF
 70
     0
  4
mm
 41
0.1
 42
0.05
 43
0.5
 44
0.1
 47
0.1
 48
0.1
 75
     1
 76
     1
 78
     7
 79
     2
140
0.12
141
0.0
146
0.71
147
0.06
176
   256
177
   256
178
     2
274
     4
284
     7
340
20E2
371
    -1
372
    -1
  0
DIMSTYLE
105
2367
330
20DB
100
AcDbSymbolTableRecord
100
AcDbDimStyleTableRecord
  2
AM_ANSI$SH
 70
     0
  4
mm
 41
0.1
 42
0.05
 43
0.5
 44
0.1
 47
0.1
 48
0.1
 75
     1
 76
     1
 78
     7
 79
     2
140
0.12
141
0.0
146
0.71
147
0.06
173
     1
176
   256
177
   256
178
     2
274
     4
284
     7
340
20E2
341
2363
343
2363
371
    -1
372
    -1
  0
DIMSTYLE
105
2A28
330
20DB
100
AcDbSymbolTableRecord
100
AcDbDimStyleTableRecord
  2
AM_ISO
 70
     0
  4
"
 40
1.5
 41
3.0
 42
1.0
 43
15.0
 44
1.0
 47
0.1
 48
0.1
 73
     0
 74
     0
 77
     1
 78
     8
 79
     2
140
3.5
141
0.0
143
0.0393701
146
0.71
147
1.0
172
     1
176
   256
177
   256
178
   256
271
     2
272
     2
283
     0
284
     8
340
20E2
371
    -1
372
    -1
  0
DIMSTYLE
105
2A29
102
{ACAD_REACTORS
330
2C29
102
}
330
20DB
100
AcDbSymbolTableRecord
100
AcDbDimStyleTableRecord
  2
AM_ISO$3
 70
     0
  4
"
 40
1.5
 41
3.0
 42
1.0
 43
15.0
 44
1.0
 47
0.1
 48
0.1
 73
     0
 77
     1
 78
     8
 79
     2
140
3.5
141
0.0
143
0.0393701
146
0.71
147
1.0
176
   256
177
   256
178
   256
271
     2
272
     2
283
     0
284
     8
288
     1
289
     0
340
20E2
371
    -1
372
    -1
  0
DIMSTYLE
105
2A2A
330
20DB
100
AcDbSymbolTableRecord
100
AcDbDimStyleTableRecord
  2
AM_ISO$4
 70
     0
  4
"
 40
1.5
 41
3.0
 42
1.0
 43
15.0
 44
1.0
 47
0.1
 48
0.1
 73
     0
 77
     1
 78
     8
 79
     2
140
3.5
141
0.0
143
0.0393701
146
0.71
147
1.0
176
   256
177
   256
178
   256
271
     2
272
     2
283
     0
284
     8
288
     1
289
     0
340
20E2
371
    -1
372
    -1
  0
DIMSTYLE
105
2A2B
330
20DB
100
AcDbSymbolTableRecord
100
AcDbDimStyleTableRecord
  2
AM_ISO$6
 70
     0
  4
"
 40
1.5
 41
3.0
 42
1.0
 43
15.0
 44
1.0
 47
0.1
 48
0.1
 73
     0
 74
     0
 78
     8
 79
     2
140
3.5
141
0.0
143
0.0393701
146
0.71
147
1.0
172
     1
176
   256
177
   256
178
   256
271
     2
272
     2
283
     0
284
     8
340
20E2
371
    -1
372
    -1
  0
DIMSTYLE
105
2A2C
330
20DB
100
AcDbSymbolTableRecord
100
AcDbDimStyleTableRecord
  2
AM_ISO$7
 70
     0
  4
"
 40
1.5
 41
3.0
 42
1.0
 43
15.0
 44
1.0
 47
0.1
 48
0.1
 73
     0
 74
     0
 77
     1
 78
     8
 79
     2
140
3.5
141
0.0
143
0.0393701
146
0.71
147
1.0
172
     1
176
   256
177
   256
178
   256
271
     2
272
     2
283
     0
284
     8
340
20E2
371
    -1
372
    -1
  0
DIMSTYLE
105
2A2D
330
20DB
100
AcDbSymbolTableRecord
100
AcDbDimStyleTableRecord
  2
AM_ISO$SF
 70
     0
  4
"
 40
1.5
 41
2.5
 42
1.0
 43
10.0
 44
1.0
 47
0.1
 48
0.1
 73
     0
 74
     0
 75
     1
 76
     1
 77
     1
 78
     8
 79
     2
140
3.5
141
0.0
143
0.0393701
146
0.71
147
1.5
172
     1
176
   256
177
   256
178
     2
271
     2
272
     3
274
     4
283
     0
284
     8
340
20E2
371
    -1
372
    -1
  0
DIMSTYLE
105
2A2E
330
20DB
100
AcDbSymbolTableRecord
100
AcDbDimStyleTableRecord
  2
AM_ISO$SH
 70
     0
  4
"
 40
1.5
 41
2.5
 42
1.0
 43
10.0
 44
1.0
 47
0.1
 48
0.1
 73
     0
 74
     0
 75
     1
 76
     1
 77
     1
 78
     8
 79
     2
140
3.5
141
0.0
143
0.0393701
144
2.0
146
0.71
147
1.5
172
     1
173
     1
176
   256
177
   256
178
     2
271
     2
272
     3
274
     4
283
     0
284
     8
340
20E2
343
2363
371
    -1
372
    -1
  0
DIMSTYLE
105
2A2F
330
20DB
100
AcDbSymbolTableRecord
100
AcDbDimStyleTableRecord
  2
AM_ISO$0
 70
     0
  4
"
 40
1.5
 41
3.0
 42
1.0
 43
15.0
 44
1.0
 47
0.1
 48
0.1
 73
     0
 74
     0
 77
     1
 78
     8
 79
     2
140
3.5
141
0.0
143
0.0393701
146
0.71
147
1.0
172
     1
176
   256
177
   256
178
   256
271
     2
272
     2
283
     0
284
     8
340
20E2
371
    -1
372
    -1
  0
ENDTAB
  0
TABLE
  2
BLOCK_RECORD
  5
20D2
330
0
100
AcDbSymbolTable
 70
    15
  0
BLOCK_RECORD
  5
20EF
102
{ACAD_XDICTIONARY
360
2241
102
}
330
20D2
100
AcDbSymbolTableRecord
100
AcDbBlockTableRecord
  2
*Model_Space
340
20F2
  0
BLOCK_RECORD
  5
20EB
102
{ACAD_XDICTIONARY
360
2243
102
}
330
20D2
100
AcDbSymbolTableRecord
100
AcDbBlockTableRecord
  2
*Paper_Space
340
20EE
  0
BLOCK_RECORD
  5
2363
330
20D2
100
AcDbSymbolTableRecord
100
AcDbBlockTableRecord
  2
GENAXEH
340
0
  0
BLOCK_RECORD
  5
2C2A
330
20D2
100
AcDbSymbolTableRecord
100
AcDbBlockTableRecord
  2
*D1
340
0
  0
BLOCK_RECORD
  5
2CFE
330
20D2
100
AcDbSymbolTableRecord
100
AcDbBlockTableRecord
  2
*D2
340
0
  0
BLOCK_RECORD
  5
2D22
330
20D2
100
AcDbSymbolTableRecord
100
AcDbBlockTableRecord
  2
*D3
340
0
  0
BLOCK_RECORD
  5
312C
330
20D2
100
AcDbSymbolTableRecord
100
AcDbBlockTableRecord
  2
*D4
340
0
  0
BLOCK_RECORD
  5
3138
330
20D2
100
AcDbSymbolTableRecord
100
AcDbBlockTableRecord
  2
*D5
340
0
  0
BLOCK_RECORD
  5
3144
330
20D2
100
AcDbSymbolTableRecord
100
AcDbBlockTableRecord
  2
*D6
340
0
  0
BLOCK_RECORD
  5
31A3
330
20D2
100
AcDbSymbolTableRecord
100
AcDbBlockTableRecord
  2
AVE_RENDER
340
0
102
{BLKREFS
331
31A6
331
31A7
331
31A8
331
31A9
331
31AA
331
31AB
331
31AC
331
31AD
102
}
  0
BLOCK_RECORD
  5
31B1
330
20D2
100
AcDbSymbolTableRecord
100
AcDbBlockTableRecord
  2
AVE_GLOBAL
340
0
102
{BLKREFS
331
31B4
102
}
  0
BLOCK_RECORD
  5
3752
330
20D2
100
AcDbSymbolTableRecord
100
AcDbBlockTableRecord
  2
*D9
340
0
  0
BLOCK_RECORD
  5
3760
102
{ACAD_XDICTIONARY
360
379C
102
}
330
20D2
100
AcDbSymbolTableRecord
100
AcDbBlockTableRecord
  2
A$C05BB03F9
340
0
  0
BLOCK_RECORD
  5
37BB
330
20D2
100
AcDbSymbolTableRecord
100
AcDbBlockTableRecord
  2
*D11
340
0
  0
BLOCK_RECORD
  5
37C9
102
{ACAD_XDICTIONARY
360
3825
102
}
330
20D2
100
AcDbSymbolTableRecord
100
AcDbBlockTableRecord
  2
A$C2E9102B8
340
0
  0
BLOCK_RECORD
  5
3928
330
20D2
100
AcDbSymbolTableRecord
100
AcDbBlockTableRecord
  2
*D13
340
0
  0
ENDTAB
  0
ENDSEC
  0
SECTION
  2
BLOCKS
  0
BLOCK
  5
2164
330
20EF
100
AcDbEntity
  8
0
100
AcDbBlockBegin
  2
*Model_Space
 70
     0
 10
0.0
 20
0.0
 30
0.0
  3
*Model_Space
  1

  0
ENDBLK
  5
2165
330
20EF
100
AcDbEntity
  8
0
100
AcDbBlockEnd
  0
BLOCK
  5
2162
330
20EB
100
AcDbEntity
 67
     1
  8
0
100
AcDbBlockBegin
  2
*Paper_Space
 70
     0
 10
0.0
 20
0.0
 30
0.0
  3
*Paper_Space
  1

  0
ENDBLK
  5
2163
330
20EB
100
AcDbEntity
 67
     1
  8
0
100
AcDbBlockEnd
  0
BLOCK
  5
2365
330
2363
100
AcDbEntity
  8
0
100
AcDbBlockBegin
  2
GENAXEH
 70
     0
 10
0.0
 20
0.0
 30
0.0
  3
GENAXEH
  1

  0
LINE
  5
2364
330
2363
100
AcDbEntity
  8
0
100
AcDbLine
 10
-1.0
 20
0.0
 30
0.0
 11
1.0
 21
0.0
 31
0.0
  0
ENDBLK
  5
2366
330
2363
100
AcDbEntity
  8
0
100
AcDbBlockEnd
  0
BLOCK
  5
2C30
330
2C2A
100
AcDbEntity
  8
0
100
AcDbBlockBegin
  2
*D1
 70
     1
 10
0.0
 20
0.0
 30
0.0
  3
*D1
  1

  0
LINE
  5
387E
330
2C2A
100
AcDbEntity
  8
DIM
100
AcDbLine
 10
-938.3807338182394
 20
265.0666129903016
 30
0.0
 11
-913.0727939816321
 21
294.6572465857681
 31
0.0
  0
LINE
  5
387F
330
2C2A
100
AcDbEntity
  8
DIM
100
AcDbLine
 10
-913.0727939816321
 20
294.6572465857681
 30
0.0
 11
-886.7644770524982
 21
294.6572465857681
 31
0.0
  0
SOLID
  5
3880
330
2C2A
100
AcDbEntity
  8
DIM
100
AcDbTrace
 10
-938.9507037875702
 20
265.5540904093286
 30
0.0
 11
-937.810763848909
 21
264.5791355712746
 31
0.0
 12
-941.3055983324017
 22
261.6467931743179
 32
0.0
 13
-941.3055983324017
 23
261.6467931743179
 33
0.0
  0
MTEXT
  5
3881
330
2C2A
100
AcDbEntity
  8
DIM
100
AcDbMText
 10
-899.1686355170655
 20
298.7827633180518
 30
0.0
 40
5.25
 41
0.0
 71
     5
 72
     1
  1
2-PT1/4
 73
     1
 44
1.0
1001
ACAD
1000
MTEXTBEGIN
1070
    73
1070
     1
1070
    44
1040
1.0
1070
    74
1070
     0
1000
MTEXTEND
  0
POINT
  5
3882
330
2C2A
100
AcDbEntity
  8
DEFPOINTS
 62
     0
100
AcDbPoint
 10
-941.3055983324017
 20
261.6467931743179
 30
0.0
  0
POINT
  5
3883
330
2C2A
100
AcDbEntity
  8
DEFPOINTS
 62
     0
100
AcDbPoint
 10
-948.6960159928075
 20
253.0057444552825
 30
0.0
  0
ENDBLK
  5
2C31
330
2C2A
100
AcDbEntity
  8
0
100
AcDbBlockEnd
  0
BLOCK
  5
2D08
330
2CFE
100
AcDbEntity
  8
0
100
AcDbBlockBegin
  2
*D2
 70
     1
 10
0.0
 20
0.0
 30
0.0
  3
*D2
  1

  0
LINE
  5
3884
330
2CFE
100
AcDbEntity
  8
DIM
370
    -2
100
AcDbLine
 10
-1050.406974416434
 20
313.9324842445962
 30
0.0
 11
-1050.406974416434
 21
290.285216057298
 31
0.0
  0
LINE
  5
3885
330
2CFE
100
AcDbEntity
  8
DIM
370
    -2
100
AcDbLine
 10
-997.4069744164342
 20
313.9324842445962
 30
0.0
 11
-997.4069744164342
 21
290.285216057298
 31
0.0
  0
LINE
  5
3886
330
2CFE
100
AcDbEntity
  8
DIM
370
    -2
100
AcDbLine
 10
-1045.906974416433
 20
293.2852160572981
 30
0.0
 11
-1001.906974416434
 21
293.2852160572981
 31
0.0
  0
SOLID
  5
3887
330
2CFE
100
AcDbEntity
  8
DIM
100
AcDbTrace
 10
-1045.906974416433
 20
294.0352160572981
 30
0.0
 11
-1045.906974416433
 21
292.535216057298
 31
0.0
 12
-1050.406974416434
 22
293.2852160572981
 32
0.0
 13
-1050.406974416434
 23
293.2852160572981
 33
0.0
  0
SOLID
  5
3888
330
2CFE
100
AcDbEntity
  8
DIM
100
AcDbTrace
 10
-1001.906974416434
 20
294.0352160572981
 30
0.0
 11
-1001.906974416434
 21
292.535216057298
 31
0.0
 12
-997.4069744164342
 22
293.2852160572981
 32
0.0
 13
-997.4069744164342
 23
293.2852160572981
 33
0.0
  0
MTEXT
  5
3889
330
2CFE
100
AcDbEntity
  8
DIM
100
AcDbMText
 10
-1023.995995650409
 20
297.035216057298
 30
0.0
 40
4.5
 41
0.0
 71
     5
 72
     1
  1
\A1;53
  7
CHINESET
 73
     1
 44
1.0
1001
ACAD
1000
MTEXTBEGIN
1070
    73
1070
     1
1070
    44
1040
1.0
1070
    74
1070
     0
1000
MTEXTEND
  0
POINT
  5
388A
330
2CFE
100
AcDbEntity
  8
DEFPOINTS
 62
     0
100
AcDbPoint
 10
-1050.406974416434
 20
316.9324842445961
 30
0.0
  0
POINT
  5
388B
330
2CFE
100
AcDbEntity
  8
DEFPOINTS
 62
     0
100
AcDbPoint
 10
-997.4069744164342
 20
316.9324842445963
 30
0.0
  0
POINT
  5
388C
330
2CFE
100
AcDbEntity
  8
DEFPOINTS
 62
     0
100
AcDbPoint
 10
-997.4069744164342
 20
293.2852160572981
 30
0.0
  0
ENDBLK
  5
2D09
330
2CFE
100
AcDbEntity
  8
0
100
AcDbBlockEnd
  0
BLOCK
  5
2D2C
330
2D22
100
AcDbEntity
  8
0
100
AcDbBlockBegin
  2
*D3
 70
     1
 10
0.0
 20
0.0
 30
0.0
  3
*D3
  1

  0
LINE
  5
388D
330
2D22
100
AcDbEntity
  8
DIM
370
    -2
100
AcDbLine
 10
-1009.127755427044
 20
305.4324842445963
 30
0.0
 11
-974.7579149240179
 21
305.4324842445963
 31
0.0
  0
LINE
  5
388E
330
2D22
100
AcDbEntity
  8
DIM
370
    -2
100
AcDbLine
 10
-1009.127755427044
 20
358.4324842445961
 30
0.0
 11
-974.7579149240179
 21
358.4324842445961
 31
0.0
  0
LINE
  5
388F
330
2D22
100
AcDbEntity
  8
DIM
370
    -2
100
AcDbLine
 10
-977.7579149240178
 20
309.9324842445962
 30
0.0
 11
-977.7579149240178
 21
353.9324842445962
 31
0.0
  0
SOLID
  5
3890
330
2D22
100
AcDbEntity
  8
DIM
100
AcDbTrace
 10
-978.5079149240178
 20
309.9324842445962
 30
0.0
 11
-977.0079149240178
 21
309.9324842445962
 31
0.0
 12
-977.7579149240178
 22
305.4324842445963
 32
0.0
 13
-977.7579149240178
 23
305.4324842445963
 33
0.0
  0
SOLID
  5
3891
330
2D22
100
AcDbEntity
  8
DIM
100
AcDbTrace
 10
-978.5079149240178
 20
353.9324842445962
 30
0.0
 11
-977.0079149240178
 21
353.9324842445962
 31
0.0
 12
-977.7579149240178
 22
358.4324842445961
 32
0.0
 13
-977.7579149240178
 23
358.4324842445961
 33
0.0
  0
MTEXT
  5
3892
330
2D22
100
AcDbEntity
  8
DIM
100
AcDbMText
 10
-981.507914924018
 20
332.0889523627339
 30
0.0
 40
4.5
 41
0.0
 71
     5
 72
     1
  1
\A1;53
  7
CHINESET
 11
0.0000000000000001
 21
1.0
 31
0.0
 73
     1
 44
1.0
1001
ACAD
1000
MTEXTBEGIN
1070
    73
1070
     1
1070
    44
1040
1.0
1070
    74
1070
     0
1000
MTEXTEND
  0
POINT
  5
3893
330
2D22
100
AcDbEntity
  8
DEFPOINTS
 62
     0
100
AcDbPoint
 10
-1012.127755427044
 20
305.4324842445963
 30
0.0
  0
POINT
  5
3894
330
2D22
100
AcDbEntity
  8
DEFPOINTS
 62
     0
100
AcDbPoint
 10
-1012.127755427044
 20
358.4324842445961
 30
0.0
  0
POINT
  5
3895
330
2D22
100
AcDbEntity
  8
DEFPOINTS
 62
     0
100
AcDbPoint
 10
-977.7579149240178
 20
358.4324842445961
 30
0.0
  0
ENDBLK
  5
2D2D
330
2D22
100
AcDbEntity
  8
0
100
AcDbBlockEnd
  0
BLOCK
  5
3136
330
312C
100
AcDbEntity
  8
0
100
AcDbBlockBegin
  2
*D4
 70
     1
 10
0.0
 20
0.0
 30
0.0
  3
*D4
  1

  0
LINE
  5
3896
330
312C
100
AcDbEntity
  8
DIM
370
    -2
100
AcDbLine
 10
-918.5869545056119
 20
277.3262688147995
 30
0.0
 11
-900.5400970741275
 21
277.3262688147995
 31
0.0
  0
LINE
  5
3897
330
312C
100
AcDbEntity
  8
DIM
370
    -2
100
AcDbLine
 10
-932.3008071626045
 20
257.3262688147995
 30
0.0
 11
-900.5400970741275
 21
257.3262688147995
 31
0.0
  0
LINE
  5
3898
330
312C
100
AcDbEntity
  8
DIM
370
    -2
100
AcDbLine
 10
-903.5400970741276
 20
272.8262688147995
 30
0.0
 11
-903.5400970741276
 21
261.8262688147995
 31
0.0
  0
SOLID
  5
3899
330
312C
100
AcDbEntity
  8
DIM
100
AcDbTrace
 10
-904.2900970741277
 20
272.8262688147995
 30
0.0
 11
-902.7900970741276
 21
272.8262688147995
 31
0.0
 12
-903.5400970741276
 22
277.3262688147995
 32
0.0
 13
-903.5400970741276
 23
277.3262688147995
 33
0.0
  0
SOLID
  5
389A
330
312C
100
AcDbEntity
  8
DIM
100
AcDbTrace
 10
-904.2900970741277
 20
261.8262688147995
 30
0.0
 11
-902.7900970741276
 21
261.8262688147995
 31
0.0
 12
-903.5400970741276
 22
257.3262688147995
 32
0.0
 13
-903.5400970741276
 23
257.3262688147995
 33
0.0
  0
MTEXT
  5
389B
330
312C
100
AcDbEntity
  8
DIM
100
AcDbMText
 10
-907.2900970741278
 20
267.3262688147993
 30
0.0
 40
4.5
 41
0.0
 71
     5
 72
     1
  1
\A1;20
  7
CHINESET
 11
0.0000000000000001
 21
1.0
 31
0.0
 73
     1
 44
1.0
1001
ACAD
1000
MTEXTBEGIN
1070
    73
1070
     1
1070
    44
1040
1.0
1070
    74
1070
     0
1000
MTEXTEND
  0
POINT
  5
389C
330
312C
100
AcDbEntity
  8
DEFPOINTS
 62
     0
100
AcDbPoint
 10
-921.5869545056118
 20
277.3262688147995
 30
0.0
  0
POINT
  5
389D
330
312C
100
AcDbEntity
  8
DEFPOINTS
 62
     0
100
AcDbPoint
 10
-935.3008071626046
 20
257.3262688147995
 30
0.0
  0
POINT
  5
389E
330
312C
100
AcDbEntity
  8
DEFPOINTS
 62
     0
100
AcDbPoint
 10
-903.5400970741276
 20
257.3262688147995
 30
0.0
  0
ENDBLK
  5
3137
330
312C
100
AcDbEntity
  8
0
100
AcDbBlockEnd
  0
BLOCK
  5
3142
330
3138
100
AcDbEntity
  8
0
100
AcDbBlockBegin
  2
*D5
 70
     1
 10
0.0
 20
0.0
 30
0.0
  3
*D5
  1

  0
LINE
  5
38BB
330
3138
100
AcDbEntity
  8
DIM
370
    -2
100
AcDbLine
 10
-933.3008071626045
 20
257.3262688147995
 30
0.0
 11
-900.5400970741275
 21
257.3262688147995
 31
0.0
  0
LINE
  5
38BC
330
3138
100
AcDbEntity
  8
DIM
370
    -2
100
AcDbLine
 10
-944.7508071626046
 20
122.3262688147995
 30
0.0
 11
-900.5400970741277
 21
122.3262688147995
 31
0.0
  0
LINE
  5
38BD
330
3138
100
AcDbEntity
  8
DIM
370
    -2
100
AcDbLine
 10
-903.5400970741276
 20
252.8262688147995
 30
0.0
 11
-903.5400970741276
 21
126.8262688147995
 31
0.0
  0
SOLID
  5
38BE
330
3138
100
AcDbEntity
  8
DIM
100
AcDbTrace
 10
-904.2900970741277
 20
252.8262688147995
 30
0.0
 11
-902.7900970741278
 21
252.8262688147995
 31
0.0
 12
-903.5400970741276
 22
257.3262688147995
 32
0.0
 13
-903.5400970741276
 23
257.3262688147995
 33
0.0
  0
SOLID
  5
38BF
330
3138
100
AcDbEntity
  8
DIM
100
AcDbTrace
 10
-904.2900970741277
 20
126.8262688147995
 30
0.0
 11
-902.7900970741278
 21
126.8262688147995
 31
0.0
 12
-903.5400970741276
 22
122.3262688147995
 32
0.0
 13
-903.5400970741276
 23
122.3262688147995
 33
0.0
  0
MTEXT
  5
38C0
330
3138
100
AcDbEntity
  8
DIM
100
AcDbMText
 10
-907.2900970741278
 20
189.8262688147995
 30
0.0
 40
4.5
 41
0.0
 71
     5
 72
     1
  1
\A1;135
  7
CHINESET
 11
0.0000000000000001
 21
1.0
 31
0.0
 73
     1
 44
1.0
1001
ACAD
1000
MTEXTBEGIN
1070
    73
1070
     1
1070
    44
1040
1.0
1070
    74
1070
     0
1000
MTEXTEND
  0
POINT
  5
38C1
330
3138
100
AcDbEntity
  8
DEFPOINTS
 62
     0
100
AcDbPoint
 10
-936.3008071626046
 20
257.3262688147995
 30
0.0
  0
POINT
  5
38C2
330
3138
100
AcDbEntity
  8
DEFPOINTS
 62
     0
100
AcDbPoint
 10
-947.7508071626045
 20
122.3262688147995
 30
0.0
  0
POINT
  5
38C3
330
3138
100
AcDbEntity
  8
DEFPOINTS
 62
     0
100
AcDbPoint
 10
-903.5400970741276
 20
122.3262688147995
 30
0.0
  0
ENDBLK
  5
3143
330
3138
100
AcDbEntity
  8
0
100
AcDbBlockEnd
  0
BLOCK
  5
314E
330
3144
100
AcDbEntity
  8
0
100
AcDbBlockBegin
  2
*D6
 70
     1
 10
0.0
 20
0.0
 30
0.0
  3
*D6
  1

  0
LINE
  5
38B2
330
3144
100
AcDbEntity
  8
DIM
370
    -2
100
AcDbLine
 10
-918.5869545056119
 20
277.3262688147995
 30
0.0
 11
-879.5330186748666
 21
277.3262688147994
 31
0.0
  0
LINE
  5
38B3
330
3144
100
AcDbEntity
  8
DIM
370
    -2
100
AcDbLine
 10
-944.7508071626046
 20
122.3262688147995
 30
0.0
 11
-879.5330186748667
 21
122.3262688147995
 31
0.0
  0
LINE
  5
38B4
330
3144
100
AcDbEntity
  8
DIM
370
    -2
100
AcDbLine
 10
-882.5330186748667
 20
272.8262688147994
 30
0.0
 11
-882.5330186748667
 21
126.8262688147995
 31
0.0
  0
SOLID
  5
38B5
330
3144
100
AcDbEntity
  8
DIM
100
AcDbTrace
 10
-883.2830186748665
 20
272.8262688147994
 30
0.0
 11
-881.7830186748667
 21
272.8262688147994
 31
0.0
 12
-882.5330186748667
 22
277.3262688147994
 32
0.0
 13
-882.5330186748667
 23
277.3262688147994
 33
0.0
  0
SOLID
  5
38B6
330
3144
100
AcDbEntity
  8
DIM
100
AcDbTrace
 10
-883.2830186748667
 20
126.8262688147995
 30
0.0
 11
-881.7830186748667
 21
126.8262688147995
 31
0.0
 12
-882.5330186748667
 22
122.3262688147995
 32
0.0
 13
-882.5330186748667
 23
122.3262688147995
 33
0.0
  0
MTEXT
  5
38B7
330
3144
100
AcDbEntity
  8
DIM
100
AcDbMText
 10
-887.4615901034381
 20
199.8262688147995
 30
0.0
 40
4.5
 41
0.0
 71
     5
 72
     1
  1
\A1;(155)
  7
CHINESET
 11
0.0000000000000001
 21
1.0
 31
0.0
 73
     1
 44
1.0
1001
ACAD
1000
MTEXTBEGIN
1070
    73
1070
     1
1070
    44
1040
1.0
1070
    74
1070
     0
1000
MTEXTEND
  0
POINT
  5
38B8
330
3144
100
AcDbEntity
  8
DEFPOINTS
 62
     0
100
AcDbPoint
 10
-921.5869545056118
 20
277.3262688147995
 30
0.0
  0
POINT
  5
38B9
330
3144
100
AcDbEntity
  8
DEFPOINTS
 62
     0
100
AcDbPoint
 10
-947.7508071626045
 20
122.3262688147995
 30
0.0
  0
POINT
  5
38BA
330
3144
100
AcDbEntity
  8
DEFPOINTS
 62
     0
100
AcDbPoint
 10
-882.5330186748667
 20
122.3262688147995
 30
0.0
  0
ENDBLK
  5
314F
330
3144
100
AcDbEntity
  8
0
100
AcDbBlockEnd
  0
BLOCK
  5
31A4
330
31A3
100
AcDbEntity
  8
ASHADE
100
AcDbBlockBegin
  2
AVE_RENDER
 70
     0
 10
0.0
 20
0.0
 30
0.0
  3
AVE_RENDER
  1
AVE_RENDER
  0
ENDBLK
  5
31A5
330
31A3
100
AcDbEntity
  8
0
100
AcDbBlockEnd
  0
BLOCK
  5
31B2
330
31B1
100
AcDbEntity
  8
ASHADE
100
AcDbBlockBegin
  2
AVE_GLOBAL
 70
     0
 10
0.0
 20
0.0
 30
0.0
  3
AVE_GLOBAL
  1
AVE_GLOBAL
  0
ENDBLK
  5
31B3
330
31B1
100
AcDbEntity
  8
0
100
AcDbBlockEnd
  0
BLOCK
  5
3753
330
3752
100
AcDbEntity
  8
0
100
AcDbBlockBegin
  2
*D9
 70
     1
 10
0.0
 20
0.0
 30
0.0
  3
*D9
  1

  0
LINE
  5
3754
330
3752
100
AcDbEntity
  8
DIM
370
    -2
100
AcDbLine
 10
-1028.014449403109
 20
-56.1009624018609
 30
0.0
 11
-1028.014449403109
 21
-68.10096240186091
 31
0.0
  0
LINE
  5
3755
330
3752
100
AcDbEntity
  8
DIM
370
    -2
100
AcDbLine
 10
-1022.014449403109
 20
-56.1009624018609
 30
0.0
 11
-1022.014449403109
 21
-68.10096240186091
 31
0.0
  0
LINE
  5
3756
330
3752
100
AcDbEntity
  8
DIM
370
    -2
100
AcDbLine
 10
-1032.514449403109
 20
-65.10096240186091
 30
0.0
 11
-1037.014449403109
 21
-65.10096240186091
 31
0.0
  0
LINE
  5
3757
330
3752
100
AcDbEntity
  8
DIM
370
    -2
100
AcDbLine
 10
-1017.514449403109
 20
-65.10096240186091
 30
0.0
 11
-1003.157306545966
 21
-65.10096240186091
 31
0.0
  0
LINE
  5
3758
330
3752
100
AcDbEntity
  8
DIM
370
    -2
100
AcDbLine
 10
-1028.014449403109
 20
-65.10096240186091
 30
0.0
 11
-1022.014449403109
 21
-65.10096240186091
 31
0.0
  0
SOLID
  5
3759
330
3752
100
AcDbEntity
  8
DIM
100
AcDbTrace
 10
-1032.514449403109
 20
-64.35096240186091
 30
0.0
 11
-1032.514449403109
 21
-65.85096240186091
 31
0.0
 12
-1028.014449403109
 22
-65.10096240186091
 32
0.0
 13
-1028.014449403109
 23
-65.10096240186091
 33
0.0
  0
SOLID
  5
375A
330
3752
100
AcDbEntity
  8
DIM
100
AcDbTrace
 10
-1017.514449403109
 20
-64.35096240186091
 30
0.0
 11
-1017.514449403109
 21
-65.85096240186091
 31
0.0
 12
-1022.014449403109
 22
-65.10096240186091
 32
0.0
 13
-1022.014449403109
 23
-65.10096240186091
 33
0.0
  0
MTEXT
  5
375B
330
3752
100
AcDbEntity
  8
DIM
100
AcDbMText
 10
-1008.085877974537
 20
-61.35096240186091
 30
0.0
 40
4.5
 41
0.0
 71
     5
 72
     1
  1
\A1;%%c6
  7
CHINESET
 73
     1
 44
1.0
1001
ACAD
1000
MTEXTBEGIN
1070
    73
1070
     1
1070
    44
1040
1.0
1070
    74
1070
     0
1000
MTEXTEND
  0
POINT
  5
375C
330
3752
100
AcDbEntity
  8
DEFPOINTS
 62
     0
100
AcDbPoint
 10
-1028.014449403109
 20
-53.1009624018609
 30
0.0
  0
POINT
  5
375D
330
3752
100
AcDbEntity
  8
DEFPOINTS
 62
     0
100
AcDbPoint
 10
-1022.014449403109
 20
-53.1009624018609
 30
0.0
  0
POINT
  5
375E
330
3752
100
AcDbEntity
  8
DEFPOINTS
 62
     0
100
AcDbPoint
 10
-1022.014449403109
 20
-65.10096240186091
 30
0.0
  0
ENDBLK
  5
375F
330
3752
100
AcDbEntity
  8
0
100
AcDbBlockEnd
  0
BLOCK
  5
379E
330
3760
100
AcDbEntity
  8
0
100
AcDbBlockBegin
  2
A$C05BB03F9
 70
     0
 10
0.0
 20
0.0
 30
0.0
  3
A$C05BB03F9
  1

  0
LINE
  5
3761
330
3760
100
AcDbEntity
  8
AM_7
100
AcDbLine
 10
41.67028704090557
 20
9.000000008502411
 30
0.0
 11
41.67028704090557
 21
37.78511930985292
 31
0.0
  0
LINE
  5
3762
330
3760
100
AcDbEntity
  8
AM_7
100
AcDbLine
 10
26.57312545504647
 20
25.00000000850253
 30
0.0
 11
55.17028704090603
 21
25.00000000850253
 31
0.0
  0
LINE
  5
3763
330
3760
100
AcDbEntity
  8
CENTER
  6
CENTER
100
AcDbLine
 10
120.5764542947349
 20
25.00000000850241
 30
0.0
 11
120.5764542947349
 21
25.00000000850241
 31
0.0
  0
LINE
  5
3764
330
3760
100
AcDbEntity
  8
CENTER
  6
CENTER
100
AcDbLine
 10
120.5764542947349
 20
25.00000000850241
 30
0.0
 11
120.5764542947349
 21
25.00000000850241
 31
0.0
  0
LINE
  5
3765
330
3760
100
AcDbEntity
  8
CENTER
  6
CENTER
100
AcDbLine
 10
112.0764542947349
 20
25.00000000850241
 30
0.0
 11
120.5764542947349
 21
25.00000000850241
 31
0.0
  0
LINE
  5
3766
330
3760
100
AcDbEntity
  8
CENTER
  6
CENTER
100
AcDbLine
 10
120.5764542947349
 20
25.00000000850241
 30
0.0
 11
129.0764542947349
 21
25.00000000850241
 31
0.0
  0
LINE
  5
3767
330
3760
100
AcDbEntity
  8
AM_VIS
100
AcDbLine
 10
51.67028704090569
 20
32.00000000850241
 30
0.0
 11
31.67028704090558
 21
32.00000000850241
 31
0.0
  0
LINE
  5
3768
330
3760
100
AcDbEntity
  8
AM_VIS
100
AcDbLine
 10
51.67028704090558
 20
18.00000000850252
 30
0.0
 11
31.67028704090558
 21
18.00000000850241
 31
0.0
  0
LINE
  5
3769
330
3760
100
AcDbEntity
  8
AM_VIS
100
AcDbLine
 10
31.67028704090558
 20
32.00000000850241
 30
0.0
 11
31.67028704090558
 21
18.00000000850241
 31
0.0
  0
LINE
  5
376A
330
3760
100
AcDbEntity
  8
AM_VIS
100
AcDbLine
 10
51.67028704090558
 20
32.00000000850252
 30
0.0
 11
51.67028704090558
 21
18.00000000850252
 31
0.0
  0
LINE
  5
376B
330
3760
100
AcDbEntity
  8
AM_VIS
100
AcDbLine
 10
28.67028704090581
 20
22.80000000850248
 30
0.0
 11
31.67028704090581
 21
22.80000000850248
 31
0.0
  0
LINE
  5
376C
330
3760
100
AcDbEntity
  8
AM_VIS
100
AcDbLine
 10
28.67028704090581
 20
27.20000000850246
 30
0.0
 11
31.67028704090535
 21
27.20000000850246
 31
0.0
  0
LINE
  5
376D
330
3760
100
AcDbEntity
  8
AM_VIS
100
AcDbLine
 10
28.17028704090581
 20
23.30000000850248
 30
0.0
 11
28.67028704090581
 21
22.80000000850248
 31
0.0
  0
LINE
  5
376E
330
3760
100
AcDbEntity
  8
AM_VIS
100
AcDbLine
 10
28.17028704090581
 20
26.70000000850246
 30
0.0
 11
28.67028704090581
 21
27.20000000850246
 31
0.0
  0
LINE
  5
376F
330
3760
100
AcDbEntity
  8
AM_VIS
100
AcDbLine
 10
51.6702870409058
 20
21.80000000850248
 30
0.0
 11
52.17028704090603
 21
21.80000000850248
 31
0.0
  0
LINE
  5
3770
330
3760
100
AcDbEntity
  8
AM_VIS
100
AcDbLine
 10
51.67028704090535
 20
28.20000000850246
 30
0.0
 11
52.17028704090603
 21
28.20000000850246
 31
0.0
  0
LINE
  5
3771
330
3760
100
AcDbEntity
  8
AM_VIS
100
AcDbLine
 10
52.67028704090603
 20
27.70000000850246
 30
0.0
 11
52.17028704090603
 21
28.20000000850246
 31
0.0
  0
LINE
  5
3772
330
3760
100
AcDbEntity
  8
AM_VIS
100
AcDbLine
 10
52.67028704090603
 20
22.30000000850248
 30
0.0
 11
52.17028704090603
 21
21.80000000850248
 31
0.0
  0
LINE
  5
3773
330
3760
100
AcDbEntity
  8
AM_VIS
100
AcDbLine
 10
28.67028704090581
 20
27.20000000850246
 30
0.0
 11
28.67028704090581
 21
22.80000000850248
 31
0.0
  0
LINE
  5
3774
330
3760
100
AcDbEntity
  8
AM_VIS
100
AcDbLine
 10
28.17028704090581
 20
23.30000000850248
 30
0.0
 11
28.17028704090581
 21
26.70000000850246
 31
0.0
  0
LINE
  5
3775
330
3760
100
AcDbEntity
  8
AM_VIS
100
AcDbLine
 10
52.67028704090603
 20
27.70000000850246
 30
0.0
 11
52.67028704090603
 21
22.30000000850248
 31
0.0
  0
LINE
  5
3776
330
3760
100
AcDbEntity
  8
AM_VIS
100
AcDbLine
 10
52.17028704090603
 20
21.80000000850248
 30
0.0
 11
52.17028704090603
 21
28.20000000850246
 31
0.0
  0
LINE
  5
3777
330
3760
100
AcDbEntity
  8
AM_VIS
100
AcDbLine
 10
113.0764542947349
 20
18.00000000850252
 30
0.0
 11
128.0764542947349
 21
18.00000000850241
 31
0.0
  0
LINE
  5
3778
330
3760
100
AcDbEntity
  8
AM_VIS
100
AcDbLine
 10
113.0764542947349
 20
32.00000000850252
 30
0.0
 11
113.0764542947349
 21
18.00000000850252
 31
0.0
  0
LINE
  5
3779
330
3760
100
AcDbEntity
  8
AM_VIS
100
AcDbLine
 10
128.0764542947349
 20
32.00000000850241
 30
0.0
 11
113.0764542947349
 21
32.00000000850252
 31
0.0
  0
LINE
  5
377A
330
3760
100
AcDbEntity
  8
AM_VIS
100
AcDbLine
 10
128.0764542947349
 20
18.00000000850241
 30
0.0
 11
128.0764542947349
 21
32.00000000850241
 31
0.0
  0
CIRCLE
  5
377B
330
3760
100
AcDbEntity
  8
AM_VIS
100
AcDbCircle
 10
120.5764542947349
 20
25.00000000850241
 30
0.0
 40
5.999999999999999
  0
CIRCLE
  5
377C
330
3760
100
AcDbEntity
  8
AM_VIS
100
AcDbCircle
 10
120.5764542947349
 20
25.00000000850241
 30
0.0
 40
5.499999999999999
  0
CIRCLE
  5
377D
330
3760
100
AcDbEntity
  8
AM_VIS
100
AcDbCircle
 10
120.5764542947347
 20
25.00000000850253
 30
0.0
 40
2.699999999999988
  0
CIRCLE
  5
377E
330
3760
100
AcDbEntity
  8
AM_VIS
100
AcDbCircle
 10
120.5764542947347
 20
25.00000000850253
 30
0.0
 40
3.199999999999988
  0
CIRCLE
  5
377F
330
3760
100
AcDbEntity
  8
AM_VIS
100
AcDbCircle
 10
120.5764542947349
 20
25.00000000850241
 30
0.0
 40
3.499999999999999
  0
LINE
  5
3780
330
3760
100
AcDbEntity
  8
AM_VIS
100
AcDbLine
 10
44.42028704090557
 20
12.00000000850264
 30
0.0
 11
44.42028704090557
 21
12.70096190282595
 31
0.0
  0
LINE
  5
3781
330
3760
100
AcDbEntity
  8
AM_VIS
100
AcDbLine
 10
38.92028704090558
 20
12.00000000850264
 30
0.0
 11
38.92028704090558
 21
12.70096190282595
 31
0.0
  0
LINE
  5
3782
330
3760
100
AcDbEntity
  8
AM_VIS
100
AcDbLine
 10
44.67028704090558
 20
15.00000000850264
 30
0.0
 11
44.67028704090558
 21
18.00000000850264
 31
0.0
  0
LINE
  5
3783
330
3760
100
AcDbEntity
  8
AM_VIS
100
AcDbLine
 10
38.67028704090558
 20
15.00000000850264
 30
0.0
 11
38.67028704090558
 21
18.00000000850264
 31
0.0
  0
LINE
  5
3784
330
3760
100
AcDbEntity
  8
AM_VIS
100
AcDbLine
 10
44.42028704090557
 20
12.70096190282595
 30
0.0
 11
45.17028704090558
 21
14.00000000850264
 31
0.0
  0
LINE
  5
3785
330
3760
100
AcDbEntity
  8
AM_VIS
100
AcDbLine
 10
38.92028704090558
 20
12.70096190282595
 30
0.0
 11
38.17028704090558
 21
14.00000000850264
 31
0.0
  0
LINE
  5
3786
330
3760
100
AcDbEntity
  8
AM_VIS
100
AcDbLine
 10
44.42028704090557
 20
12.00000000850264
 30
0.0
 11
38.92028704090558
 21
12.00000000850264
 31
0.0
  0
LINE
  5
3787
330
3760
100
AcDbEntity
  8
AM_VIS
100
AcDbLine
 10
44.67028704090558
 20
15.00000000850264
 30
0.0
 11
38.67028704090558
 21
15.00000000850264
 31
0.0
  0
LINE
  5
3788
330
3760
100
AcDbEntity
  8
AM_VIS
100
AcDbLine
 10
44.42028704090557
 20
12.70096190282595
 30
0.0
 11
38.92028704090558
 21
12.70096190282595
 31
0.0
  0
LINE
  5
3789
330
3760
100
AcDbEntity
  8
AM_VIS
100
AcDbLine
 10
45.17028704090558
 20
14.00000000850264
 30
0.0
 11
38.17028704090558
 21
14.00000000850264
 31
0.0
  0
ARC
  5
378A
330
3760
100
AcDbEntity
  8
AM_VIS
100
AcDbCircle
 10
39.16190688961524
 20
14.12919008414781
 30
0.0
 40
1.0
100
AcDbArc
 50
119.4471052414492
 51
187.4227924043959
  0
ARC
  5
378B
330
3760
100
AcDbEntity
  8
AM_VIS
100
AcDbCircle
 10
44.17866719219591
 20
14.12919008414781
 30
0.0
 40
0.9999999999999998
100
AcDbArc
 50
352.5772075956041
 51
60.55289475855072
  0
LINE
  5
378C
330
3760
100
AcDbEntity
  8
AM_VIS
100
AcDbLine
 10
123.3264542947349
 20
12.00000000850252
 30
0.0
 11
123.3264542947349
 21
12.70096190282584
 31
0.0
  0
LINE
  5
378D
330
3760
100
AcDbEntity
  8
AM_VIS
100
AcDbLine
 10
117.8264542947349
 20
12.00000000850252
 30
0.0
 11
117.8264542947349
 21
12.70096190282584
 31
0.0
  0
LINE
  5
378E
330
3760
100
AcDbEntity
  8
AM_VIS
100
AcDbLine
 10
123.5764542947349
 20
15.00000000850252
 30
0.0
 11
123.5764542947349
 21
18.00000000850252
 31
0.0
  0
LINE
  5
378F
330
3760
100
AcDbEntity
  8
AM_VIS
100
AcDbLine
 10
117.5764542947349
 20
15.00000000850252
 30
0.0
 11
117.5764542947349
 21
18.00000000850252
 31
0.0
  0
LINE
  5
3790
330
3760
100
AcDbEntity
  8
AM_VIS
100
AcDbLine
 10
123.3264542947349
 20
12.70096190282584
 30
0.0
 11
124.0764542947349
 21
14.00000000850252
 31
0.0
  0
LINE
  5
3791
330
3760
100
AcDbEntity
  8
AM_VIS
100
AcDbLine
 10
117.8264542947349
 20
12.70096190282584
 30
0.0
 11
117.0764542947349
 21
14.00000000850252
 31
0.0
  0
LINE
  5
3792
330
3760
100
AcDbEntity
  8
AM_VIS
100
AcDbLine
 10
123.3264542947349
 20
12.00000000850252
 30
0.0
 11
117.8264542947349
 21
12.00000000850252
 31
0.0
  0
LINE
  5
3793
330
3760
100
AcDbEntity
  8
AM_VIS
100
AcDbLine
 10
123.5764542947349
 20
15.00000000850252
 30
0.0
 11
117.5764542947349
 21
15.00000000850252
 31
0.0
  0
LINE
  5
3794
330
3760
100
AcDbEntity
  8
AM_VIS
100
AcDbLine
 10
123.3264542947349
 20
12.70096190282584
 30
0.0
 11
117.8264542947349
 21
12.70096190282584
 31
0.0
  0
LINE
  5
3795
330
3760
100
AcDbEntity
  8
AM_VIS
100
AcDbLine
 10
124.0764542947349
 20
14.00000000850252
 30
0.0
 11
117.0764542947349
 21
14.00000000850252
 31
0.0
  0
ARC
  5
3796
330
3760
100
AcDbEntity
  8
AM_VIS
100
AcDbCircle
 10
118.0680741434446
 20
14.12919008414769
 30
0.0
 40
1.0
100
AcDbArc
 50
119.4471052414492
 51
187.4227924043959
  0
ARC
  5
3797
330
3760
100
AcDbEntity
  8
AM_VIS
100
AcDbCircle
 10
123.0848344460253
 20
14.12919008414769
 30
0.0
 40
0.9999999999999998
100
AcDbArc
 50
352.5772075956041
 51
60.55289475855072
  0
LINE
  5
3798
330
3760
100
AcDbEntity
  8
AM_7
100
AcDbLine
 10
120.5764542947347
 20
10.60744035782727
 30
0.0
 11
120.5764542947347
 21
39.39255965917778
 31
0.0
  0
LEADER
  5
3799
330
3760
100
AcDbEntity
  8
DIM
100
AcDbLeader
  3
STANDARD
 73
     0
 75
     1
 40
5.25
 41
17.32499999999999
 76
     3
 10
41.67028704090557
 20
32.00000000850241
 30
0.0
 10
27.4246356139804
 20
9.306843829827357
 30
0.0
 10
22.9246356139804
 20
9.306843829827357
 30
0.0
340
379A
213
4.099635613980353
223
0.3183015432118736
233
0.0
1001
ACAD
1000
DSTYLE
1002
{
1070
    40
1040
1.5
1070
   172
1070
     1
1070
   279
1070
     0
1002
}
  0
MTEXT
  5
379A
102
{ACAD_REACTORS
330
3799
102
}
330
3760
100
AcDbEntity
  8
DIM
100
AcDbMText
 10
17.32500000000004
 20
10.48854228661548
 30
0.0
 40
5.25
 41
0.0
 71
     9
 72
     1
  1
PIVOT
 73
     1
 44
1.0
1001
ACAD
1000
MTEXTBEGIN
1070
    73
1070
     1
1070
    44
1040
1.0
1070
    74
1070
     0
1000
MTEXTEND
  0
DIMENSION
  5
379B
330
3760
100
AcDbEntity
  8
DIM
100
AcDbDimension
  2
*D9
 10
44.67028704090558
 20
3.000000008502624
 30
0.0
 11
58.59885846947702
 21
6.750000008502624
 31
0.0
 12
1066.684736444014
 22
68.10096241036354
 32
0.0
  1
%%c<>
 71
     5
 42
6.0
  3
STANDARD
100
AcDbAlignedDimension
 13
38.67028704090558
 23
15.00000000850264
 33
0.0
 14
44.67028704090558
 24
15.00000000850264
 34
0.0
100
AcDbRotatedDimension
1001
ACAD
1000
DSTYLE
1002
{
1070
    40
1040
1.5
1070
   172
1070
     1
1070
   279
1070
     0
1002
}
  0
ENDBLK
  5
379F
330
3760
100
AcDbEntity
  8
0
100
AcDbBlockEnd
  0
BLOCK
  5
37BC
330
37BB
100
AcDbEntity
  8
0
100
AcDbBlockBegin
  2
*D11
 70
     1
 10
0.0
 20
0.0
 30
0.0
  3
*D11
  1

  0
LINE
  5
37BD
330
37BB
100
AcDbEntity
  8
DIM
370
    -2
100
AcDbLine
 10
-1038.650269812114
 20
-61.12708778005696
 30
0.0
 11
-1038.650269812114
 21
-68.25404165672887
 31
0.0
  0
LINE
  5
37BE
330
37BB
100
AcDbEntity
  8
DIM
370
    -2
100
AcDbLine
 10
-1030.650269812114
 20
-61.12708778005696
 30
0.0
 11
-1030.650269812114
 21
-68.25404165672887
 31
0.0
  0
LINE
  5
37BF
330
37BB
100
AcDbEntity
  8
DIM
370
    -2
100
AcDbLine
 10
-1043.150269812114
 20
-65.25404165672887
 30
0.0
 11
-1047.650269812114
 21
-65.25404165672887
 31
0.0
  0
LINE
  5
37C0
330
37BB
100
AcDbEntity
  8
DIM
370
    -2
100
AcDbLine
 10
-1026.150269812114
 20
-65.25404165672887
 30
0.0
 11
-1011.578841240686
 21
-65.25404165672887
 31
0.0
  0
LINE
  5
37C1
330
37BB
100
AcDbEntity
  8
DIM
370
    -2
100
AcDbLine
 10
-1038.650269812114
 20
-65.25404165672887
 30
0.0
 11
-1030.650269812114
 21
-65.25404165672887
 31
0.0
  0
SOLID
  5
37C2
330
37BB
100
AcDbEntity
  8
DIM
100
AcDbTrace
 10
-1043.150269812114
 20
-64.50404165672887
 30
0.0
 11
-1043.150269812114
 21
-66.00404165672888
 31
0.0
 12
-1038.650269812114
 22
-65.25404165672887
 32
0.0
 13
-1038.650269812114
 23
-65.25404165672887
 33
0.0
  0
SOLID
  5
37C3
330
37BB
100
AcDbEntity
  8
DIM
100
AcDbTrace
 10
-1026.150269812114
 20
-64.50404165672887
 30
0.0
 11
-1026.150269812114
 21
-66.00404165672888
 31
0.0
 12
-1030.650269812114
 22
-65.25404165672887
 32
0.0
 13
-1030.650269812114
 23
-65.25404165672887
 33
0.0
  0
MTEXT
  5
37C4
330
37BB
100
AcDbEntity
  8
DIM
100
AcDbMText
 10
-1016.6145555264
 20
-61.50404165672887
 30
0.0
 40
4.5
 41
0.0
 71
     5
 72
     1
  1
\A1;%%c8
  7
CHINESET
 73
     1
 44
1.0
1001
ACAD
1000
MTEXTBEGIN
1070
    73
1070
     1
1070
    44
1040
1.0
1070
    74
1070
     0
1000
MTEXTEND
  0
POINT
  5
37C5
330
37BB
100
AcDbEntity
  8
DEFPOINTS
 62
     0
100
AcDbPoint
 10
-1038.650269812114
 20
-58.12708778005696
 30
0.0
  0
POINT
  5
37C6
330
37BB
100
AcDbEntity
  8
DEFPOINTS
 62
     0
100
AcDbPoint
 10
-1030.650269812114
 20
-58.12708778005696
 30
0.0
  0
POINT
  5
37C7
330
37BB
100
AcDbEntity
  8
DEFPOINTS
 62
     0
100
AcDbPoint
 10
-1030.650269812114
 20
-65.25404165672887
 30
0.0
  0
ENDBLK
  5
37C8
330
37BB
100
AcDbEntity
  8
0
100
AcDbBlockEnd
  0
BLOCK
  5
3827
330
37C9
100
AcDbEntity
  8
0
100
AcDbBlockBegin
  2
A$C2E9102B8
 70
     0
 10
0.0
 20
0.0
 30
0.0
  3
A$C2E9102B8
  1

  0
LEADER
  5
37CA
330
37C9
100
AcDbEntity
  8
DIM
100
AcDbLeader
  3
STANDARD
 73
     0
 74
     0
 75
     1
 40
5.25
 41
17.32499999999999
 76
     3
 10
13.00473552945027
 20
39.32167437976728
 30
0.0
 10
21.39101882365162
 20
49.01095690562101
 30
0.0
 10
25.89101882365162
 20
49.01095690562101
 30
0.0
213
4.099635613980353
223
0.3183015432118736
233
0.0
1001
ACAD
1000
DSTYLE
1002
{
1070
    40
1040
1.5
1070
   172
1070
     1
1070
   279
1070
     0
1002
}
  0
MTEXT
  5
37CB
102
{ACAD_REACTORS
330
37CA
102
}
330
37C9
100
AcDbEntity
  8
DIM
100
AcDbMText
 10
23.29138320967127
 20
50.19265536240914
 30
0.0
 40
5.25
 41
0.0
 71
     7
 72
     1
  1
PIVOT
 73
     1
 44
1.0
1001
ACAD
1000
MTEXTBEGIN
1070
    73
1070
     1
1070
    44
1040
1.0
1070
    74
1070
     0
1000
MTEXTEND
  0
LINE
  5
37CC
330
37C9
100
AcDbEntity
  8
CENTER
  6
CENTER
100
AcDbLine
 10
12.99969065434811
 20
8.220541654199564
 30
0.0
 11
13.00494548373672
 21
40.61602082003253
 31
0.0
  0
LINE
  5
37CD
330
37C9
100
AcDbEntity
  8
CENTER
100
AcDbLine
 10
91.90060986383958
 20
6.819342857955575
 30
0.0
 11
91.91186160947257
 21
42.34939523115133
 31
0.0
  0
LINE
  5
37CE
330
37C9
100
AcDbEntity
  8
0
 62
     7
100
AcDbLine
 10
2.965087987681499
 20
39.32167437976728
 30
0.0
 11
23.03429332101496
 21
39.32167437976728
 31
0.0
  0
LINE
  5
37CF
330
37C9
100
AcDbEntity
  8
0
100
AcDbLine
 10
21.49969065434811
 20
30.32695437976725
 30
0.0
 11
21.49969065434811
 21
25.32695437976725
 31
0.0
  0
LINE
  5
37D0
330
37C9
100
AcDbEntity
  8
0
100
AcDbLine
 10
4.499690654348114
 20
30.32695437976725
 30
0.0
 11
4.499690654348114
 21
25.32695437976725
 31
0.0
  0
LINE
  5
37D1
330
37C9
100
AcDbEntity
  8
0
100
AcDbLine
 10
5.999690654348114
 20
13.12695437976731
 30
0.0
 11
4.499690654348114
 21
13.67290973116667
 31
0.0
  0
LINE
  5
37D2
330
37C9
100
AcDbEntity
  8
0
100
AcDbLine
 10
4.499690654348114
 20
25.32695437976725
 30
0.0
 11
21.49969065434811
 21
25.32695437976725
 31
0.0
  0
LINE
  5
37D3
330
37C9
100
AcDbEntity
  8
0
100
AcDbLine
 10
4.499690654348114
 20
13.67290973116667
 30
0.0
 11
21.49969065434811
 21
13.67290973116655
 31
0.0
  0
LINE
  5
37D4
330
37C9
100
AcDbEntity
  8
0
100
AcDbLine
 10
4.499690654348341
 20
25.32695437976725
 30
0.0
 11
4.499690654348114
 21
13.67290973116667
 31
0.0
  0
LINE
  5
37D5
330
37C9
100
AcDbEntity
  8
0
100
AcDbLine
 10
19.99969065434811
 20
13.1269543797672
 30
0.0
 11
21.49969065434811
 21
13.67290973116655
 31
0.0
  0
LINE
  5
37D6
330
37C9
100
AcDbEntity
  8
CENTER
100
AcDbLine
 10
10.99969065434811
 20
25.32695437976725
 30
0.0
 11
10.99969065434811
 21
13.67290973116655
 31
0.0
  0
LINE
  5
37D7
330
37C9
100
AcDbEntity
  8
CENTER
100
AcDbLine
 10
9.999690654348114
 20
25.32695437976725
 30
0.0
 11
9.999690654348114
 21
13.67290973116655
 31
0.0
  0
LINE
  5
37D8
330
37C9
100
AcDbEntity
  8
CENTER
100
AcDbLine
 10
17.99969065434811
 20
25.32695437976725
 30
0.0
 11
17.99969065434811
 21
13.67290973116655
 31
0.0
  0
LINE
  5
37D9
330
37C9
100
AcDbEntity
  8
CENTER
100
AcDbLine
 10
18.99969065434834
 20
25.32695437976725
 30
0.0
 11
18.99969065434811
 21
13.67290973116655
 31
0.0
  0
LINE
  5
37DA
330
37C9
100
AcDbEntity
  8
CENTER
100
AcDbLine
 10
14.99969065434834
 20
25.32695437976725
 30
0.0
 11
14.99969065434811
 21
13.67290973116655
 31
0.0
  0
LINE
  5
37DB
330
37C9
100
AcDbEntity
  8
CENTER
100
AcDbLine
 10
15.99969065434811
 20
25.32695437976725
 30
0.0
 11
15.99969065434811
 21
13.67290973116655
 31
0.0
  0
LINE
  5
37DC
330
37C9
100
AcDbEntity
  8
CENTER
100
AcDbLine
 10
7.999690654348114
 20
25.32695437976725
 30
0.0
 11
7.999690654348114
 21
13.67290973116667
 31
0.0
  0
LINE
  5
37DD
330
37C9
100
AcDbEntity
  8
CENTER
100
AcDbLine
 10
6.999690654348114
 20
25.32695437976725
 30
0.0
 11
6.999690654348114
 21
13.67290973116667
 31
0.0
  0
LINE
  5
37DE
330
37C9
100
AcDbEntity
  8
CENTER
100
AcDbLine
 10
4.999690654348114
 20
25.32695437976725
 30
0.0
 11
4.999690654348114
 21
13.67290973116667
 31
0.0
  0
LINE
  5
37DF
330
37C9
100
AcDbEntity
  8
0
100
AcDbLine
 10
5.999690654348114
 20
10.1269543797672
 30
0.0
 11
19.99969065434811
 21
10.1269543797672
 31
0.0
  0
LINE
  5
37E0
330
37C9
100
AcDbEntity
  8
0
100
AcDbLine
 10
5.999690654348114
 20
12.1269543797672
 30
0.0
 11
19.99969065434811
 21
12.1269543797672
 31
0.0
  0
LINE
  5
37E1
330
37C9
100
AcDbEntity
  8
0
100
AcDbLine
 10
5.999690654348114
 20
13.1269543797672
 30
0.0
 11
19.99969065434811
 21
13.1269543797672
 31
0.0
  0
LINE
  5
37E2
330
37C9
100
AcDbEntity
  8
0
100
AcDbLine
 10
5.999690654348114
 20
13.1269543797672
 30
0.0
 11
5.999690654348114
 21
10.1269543797672
 31
0.0
  0
LINE
  5
37E3
330
37C9
100
AcDbEntity
  8
0
100
AcDbLine
 10
19.99969065434811
 20
13.1269543797672
 30
0.0
 11
19.99969065434811
 21
10.1269543797672
 31
0.0
  0
LINE
  5
37E4
330
37C9
100
AcDbEntity
  8
CENTER
100
AcDbLine
 10
20.99969065434811
 20
25.32695437976725
 30
0.0
 11
20.99969065434811
 21
13.67290973116655
 31
0.0
  0
LINE
  5
37E5
330
37C9
100
AcDbEntity
  8
0
100
AcDbLine
 10
21.49969065434811
 20
25.32695437976725
 30
0.0
 11
21.49969065434811
 21
13.67290973116655
 31
0.0
  0
LINE
  5
37E6
330
37C9
100
AcDbEntity
  8
0
 48
4.0
100
AcDbLine
 10
4.499690654348114
 20
30.32695437976725
 30
0.0
 11
21.49969065434811
 21
30.32695437976725
 31
0.0
  0
LINE
  5
37E7
330
37C9
100
AcDbEntity
  8
0
100
AcDbLine
 10
2.499690654348114
 20
39.32695437976724
 30
0.0
 11
23.49969065434811
 21
39.32695437976724
 31
0.0
  0
LINE
  5
37E8
330
37C9
100
AcDbEntity
  8
0
100
AcDbLine
 10
3.013023987681435
 20
39.32695437976724
 30
0.0
 11
22.98635732101502
 21
39.32695437976724
 31
0.0
  0
LINE
  5
37E9
330
37C9
100
AcDbEntity
  8
0
100
AcDbLine
 10
2.499690654348114
 20
39.32695437976724
 30
0.0
 11
2.499690654348114
 21
31.32695437976725
 31
0.0
  0
LINE
  5
37EA
330
37C9
100
AcDbEntity
  8
0
100
AcDbLine
 10
4.499690654348114
 20
30.32695437976725
 30
0.0
 11
2.499690654348114
 21
31.32695437976725
 31
0.0
  0
LINE
  5
37EB
330
37C9
100
AcDbEntity
  8
0
100
AcDbLine
 10
19.99969065434834
 20
39.32695437976724
 30
0.0
 11
22.99969065434834
 21
39.32695437976724
 31
0.0
  0
LINE
  5
37EC
330
37C9
100
AcDbEntity
  8
0
100
AcDbLine
 10
19.41443402048298
 20
39.32695437976724
 30
0.0
 11
19.41443402048298
 21
30.32695437976725
 31
0.0
  0
LINE
  5
37ED
330
37C9
100
AcDbEntity
  8
0
100
AcDbLine
 10
17.98906081306791
 20
39.32695437976724
 30
0.0
 11
17.98906081306791
 21
30.32695437976725
 31
0.0
  0
LINE
  5
37EE
330
37C9
100
AcDbEntity
  8
0
100
AcDbLine
 10
6.584947288213243
 20
39.32695437976724
 30
0.0
 11
6.584947288213243
 21
30.32695437976725
 31
0.0
  0
LINE
  5
37EF
330
37C9
100
AcDbEntity
  8
0
100
AcDbLine
 10
8.01032049562832
 20
39.32695437976724
 30
0.0
 11
8.01032049562832
 21
30.32695437976725
 31
0.0
  0
LINE
  5
37F0
330
37C9
100
AcDbEntity
  8
0
100
AcDbLine
 10
13.99969065434811
 20
39.32695437976724
 30
0.0
 11
13.99969065434811
 21
30.32695437976725
 31
0.0
  0
LINE
  5
37F1
330
37C9
100
AcDbEntity
  8
0
100
AcDbLine
 10
11.99969065434811
 20
39.32695437976724
 30
0.0
 11
11.99969065434811
 21
30.32695437976725
 31
0.0
  0
LINE
  5
37F2
330
37C9
100
AcDbEntity
  8
0
 48
4.0
100
AcDbLine
 10
11.99969065434834
 20
31.32695437976725
 30
0.0
 11
13.99969065434811
 21
31.32695437976725
 31
0.0
  0
LINE
  5
37F3
330
37C9
100
AcDbEntity
  8
0
 48
4.0
100
AcDbLine
 10
6.584947288213243
 20
31.32695437976725
 30
0.0
 11
8.010320495628548
 21
31.32695437976725
 31
0.0
  0
LINE
  5
37F4
330
37C9
100
AcDbEntity
  8
0
 48
4.0
100
AcDbLine
 10
19.41443402048298
 20
31.32695437976725
 30
0.0
 11
17.98906081306791
 21
31.32695437976725
 31
0.0
  0
LINE
  5
37F5
330
37C9
100
AcDbEntity
  8
0
100
AcDbLine
 10
23.49969065434811
 20
39.32695437976724
 30
0.0
 11
23.49969065434811
 21
31.32695437976725
 31
0.0
  0
LINE
  5
37F6
330
37C9
100
AcDbEntity
  8
0
100
AcDbLine
 10
21.49969065434811
 20
30.32695437976725
 30
0.0
 11
23.49969065434811
 21
31.32695437976725
 31
0.0
  0
LINE
  5
37F7
330
37C9
100
AcDbEntity
  8
CENTER
100
AcDbLine
 10
83.99775367534505
 20
25.32695437976725
 30
0.0
 11
83.99775367534505
 21
13.67290973116667
 31
0.0
  0
LINE
  5
37F8
330
37C9
100
AcDbEntity
  8
CENTER
100
AcDbLine
 10
85.99775367534505
 20
25.32695437976725
 30
0.0
 11
85.99775367534505
 21
13.67290973116667
 31
0.0
  0
LINE
  5
37F9
330
37C9
100
AcDbEntity
  8
CENTER
100
AcDbLine
 10
86.99775367534504
 20
25.32695437976725
 30
0.0
 11
86.99775367534504
 21
13.67290973116667
 31
0.0
  0
LINE
  5
37FA
330
37C9
100
AcDbEntity
  8
CENTER
100
AcDbLine
 10
94.99775367534505
 20
25.32695437976725
 30
0.0
 11
94.99775367534505
 21
13.67290973116655
 31
0.0
  0
LINE
  5
37FB
330
37C9
100
AcDbEntity
  8
CENTER
100
AcDbLine
 10
93.99775367534516
 20
25.32695437976725
 30
0.0
 11
93.99775367534505
 21
13.67290973116655
 31
0.0
  0
LINE
  5
37FC
330
37C9
100
AcDbEntity
  8
CENTER
100
AcDbLine
 10
88.99775367534505
 20
25.32695437976725
 30
0.0
 11
88.99775367534505
 21
13.67290973116655
 31
0.0
  0
LINE
  5
37FD
330
37C9
100
AcDbEntity
  8
CENTER
100
AcDbLine
 10
89.99775367534505
 20
25.32695437976725
 30
0.0
 11
89.99775367534505
 21
13.67290973116655
 31
0.0
  0
LINE
  5
37FE
330
37C9
100
AcDbEntity
  8
0
100
AcDbLine
 10
83.49775367534517
 20
25.32695437976725
 30
0.0
 11
83.49775367534505
 21
13.67290973116667
 31
0.0
  0
LINE
  5
37FF
330
37C9
100
AcDbEntity
  8
0
100
AcDbLine
 10
100.497753675345
 20
25.32695437976725
 30
0.0
 11
100.497753675345
 21
13.67290973116655
 31
0.0
  0
LINE
  5
3800
330
37C9
100
AcDbEntity
  8
CENTER
100
AcDbLine
 10
99.99775367534505
 20
25.32695437976725
 30
0.0
 11
99.99775367534505
 21
13.67290973116655
 31
0.0
  0
LINE
  5
3801
330
37C9
100
AcDbEntity
  8
CENTER
100
AcDbLine
 10
97.99775367534516
 20
25.32695437976725
 30
0.0
 11
97.99775367534506
 21
13.67290973116655
 31
0.0
  0
LINE
  5
3802
330
37C9
100
AcDbEntity
  8
CENTER
100
AcDbLine
 10
96.99775367534506
 20
25.32695437976725
 30
0.0
 11
96.99775367534506
 21
13.67290973116655
 31
0.0
  0
LINE
  5
3803
330
37C9
100
AcDbEntity
  8
0
100
AcDbLine
 10
84.99775367534505
 20
13.1269543797672
 30
0.0
 11
98.99775367534505
 21
13.1269543797672
 31
0.0
  0
LINE
  5
3804
330
37C9
100
AcDbEntity
  8
0
100
AcDbLine
 10
84.99775367534505
 20
12.1269543797672
 30
0.0
 11
98.99775367534505
 21
12.1269543797672
 31
0.0
  0
LINE
  5
3805
330
37C9
100
AcDbEntity
  8
0
100
AcDbLine
 10
84.99775367534505
 20
10.1269543797672
 30
0.0
 11
98.99775367534505
 21
10.1269543797672
 31
0.0
  0
LINE
  5
3806
330
37C9
100
AcDbEntity
  8
0
100
AcDbLine
 10
83.49775367534505
 20
13.67290973116667
 30
0.0
 11
100.497753675345
 21
13.67290973116655
 31
0.0
  0
LINE
  5
3807
330
37C9
100
AcDbEntity
  8
0
100
AcDbLine
 10
84.99775367534505
 20
13.1269543797672
 30
0.0
 11
84.99775367534505
 21
10.1269543797672
 31
0.0
  0
LINE
  5
3808
330
37C9
100
AcDbEntity
  8
0
100
AcDbLine
 10
84.99775367534505
 20
13.12695437976731
 30
0.0
 11
83.49775367534505
 21
13.67290973116667
 31
0.0
  0
LINE
  5
3809
330
37C9
100
AcDbEntity
  8
0
100
AcDbLine
 10
98.99775367534505
 20
13.1269543797672
 30
0.0
 11
100.497753675345
 21
13.67290973116655
 31
0.0
  0
LINE
  5
380A
330
37C9
100
AcDbEntity
  8
0
100
AcDbLine
 10
98.99775367534505
 20
13.1269543797672
 30
0.0
 11
98.99775367534505
 21
10.1269543797672
 31
0.0
  0
LINE
  5
380B
330
37C9
100
AcDbEntity
  8
0
 62
     7
100
AcDbLine
 10
81.96315100867844
 20
39.32167437976728
 30
0.0
 11
102.0323563420119
 21
39.32167437976728
 31
0.0
  0
LINE
  5
380C
330
37C9
100
AcDbEntity
  8
0
100
AcDbLine
 10
82.01108700867838
 20
39.32695437976724
 30
0.0
 11
101.9844203420118
 21
39.32695437976724
 31
0.0
  0
LINE
  5
380D
330
37C9
100
AcDbEntity
  8
0
100
AcDbLine
 10
81.49775367534505
 20
39.32695437976724
 30
0.0
 11
102.497753675345
 21
39.32695437976724
 31
0.0
  0
LINE
  5
380E
330
37C9
100
AcDbEntity
  8
0
 48
4.0
100
AcDbLine
 10
83.49775367534505
 20
30.32695437976725
 30
0.0
 11
100.497753675345
 21
30.32695437976725
 31
0.0
  0
LINE
  5
380F
330
37C9
100
AcDbEntity
  8
0
100
AcDbLine
 10
83.49775367534505
 20
25.32695437976725
 30
0.0
 11
100.497753675345
 21
25.32695437976725
 31
0.0
  0
LINE
  5
3810
330
37C9
100
AcDbEntity
  8
0
 48
4.0
100
AcDbLine
 10
90.99775367534517
 20
31.32695437976725
 30
0.0
 11
92.99775367534506
 21
31.32695437976725
 31
0.0
  0
LINE
  5
3811
330
37C9
100
AcDbEntity
  8
0
100
AcDbLine
 10
83.49775367534505
 20
30.32695437976725
 30
0.0
 11
81.49775367534505
 21
31.32695437976725
 31
0.0
  0
LINE
  5
3812
330
37C9
100
AcDbEntity
  8
0
100
AcDbLine
 10
81.49775367534505
 20
39.32695437976724
 30
0.0
 11
81.49775367534505
 21
31.32695437976725
 31
0.0
  0
LINE
  5
3813
330
37C9
100
AcDbEntity
  8
0
100
AcDbLine
 10
83.49775367534505
 20
30.32695437976725
 30
0.0
 11
83.49775367534505
 21
25.32695437976725
 31
0.0
  0
LINE
  5
3814
330
37C9
100
AcDbEntity
  8
0
100
AcDbLine
 10
90.99775367534505
 20
39.32695437976724
 30
0.0
 11
90.99775367534505
 21
30.32695437976725
 31
0.0
  0
LINE
  5
3815
330
37C9
100
AcDbEntity
  8
0
100
AcDbLine
 10
87.00838351662525
 20
39.32695437976724
 30
0.0
 11
87.00838351662525
 21
30.32695437976725
 31
0.0
  0
LINE
  5
3816
330
37C9
100
AcDbEntity
  8
0
100
AcDbLine
 10
85.58301030921018
 20
39.32695437976724
 30
0.0
 11
85.58301030921018
 21
30.32695437976725
 31
0.0
  0
LINE
  5
3817
330
37C9
100
AcDbEntity
  8
0
 48
4.0
100
AcDbLine
 10
85.58301030921018
 20
31.32695437976725
 30
0.0
 11
87.00838351662538
 21
31.32695437976725
 31
0.0
  0
LINE
  5
3818
330
37C9
100
AcDbEntity
  8
0
100
AcDbLine
 10
98.99775367534529
 20
39.32695437976724
 30
0.0
 11
101.9977536753452
 21
39.32695437976724
 31
0.0
  0
LINE
  5
3819
330
37C9
100
AcDbEntity
  8
0
100
AcDbLine
 10
92.99775367534506
 20
39.32695437976724
 30
0.0
 11
92.99775367534506
 21
30.32695437976725
 31
0.0
  0
LINE
  5
381A
330
37C9
100
AcDbEntity
  8
0
100
AcDbLine
 10
96.98712383406485
 20
39.32695437976724
 30
0.0
 11
96.98712383406485
 21
30.32695437976725
 31
0.0
  0
LINE
  5
381B
330
37C9
100
AcDbEntity
  8
0
100
AcDbLine
 10
98.41249704147992
 20
39.32695437976724
 30
0.0
 11
98.41249704147992
 21
30.32695437976725
 31
0.0
  0
LINE
  5
381C
330
37C9
100
AcDbEntity
  8
0
 48
4.0
100
AcDbLine
 10
98.41249704147992
 20
31.32695437976725
 30
0.0
 11
96.98712383406485
 21
31.32695437976725
 31
0.0
  0
LINE
  5
381D
330
37C9
100
AcDbEntity
  8
0
100
AcDbLine
 10
102.497753675345
 20
39.32695437976724
 30
0.0
 11
102.497753675345
 21
31.32695437976725
 31
0.0
  0
LINE
  5
381E
330
37C9
100
AcDbEntity
  8
0
100
AcDbLine
 10
100.497753675345
 20
30.32695437976725
 30
0.0
 11
102.497753675345
 21
31.32695437976725
 31
0.0
  0
LINE
  5
381F
330
37C9
100
AcDbEntity
  8
0
100
AcDbLine
 10
100.497753675345
 20
30.32695437976725
 30
0.0
 11
100.497753675345
 21
25.32695437976725
 31
0.0
  0
LINE
  5
3820
330
37C9
100
AcDbEntity
  8
0
  6
AM_ISO02W050x2
 62
     3
 48
0.5
100
AcDbLine
 10
87.90165732650882
 20
10.1269543797672
 30
0.0
 11
87.90165732650882
 21
29.20075603657029
 31
0.0
  0
LINE
  5
3821
330
37C9
100
AcDbEntity
  8
0
  6
AM_ISO02W050x2
 62
     3
 48
0.5
100
AcDbLine
 10
95.90165732650882
 20
10.1269543797672
 30
0.0
 11
95.90165732650882
 21
29.20075603657029
 31
0.0
  0
DIMENSION
  5
3822
330
37C9
100
AcDbEntity
  8
DIM
100
AcDbDimension
  2
*D11
 10
16.99999989112666
 20
3.000000503095293
 30
0.0
 11
31.035714176841
 21
3.000000503095293
 31
0.0
 12
1047.650269703241
 22
68.25404215982416
 32
0.0
 70
   128
  1
%%c<>
 71
     5
 42
8.0
  3
STANDARD
100
AcDbAlignedDimension
 13
8.999999891126662
 23
10.1269543797672
 33
0.0
 14
16.99999989112666
 24
10.1269543797672
 34
0.0
100
AcDbRotatedDimension
1001
ACAD
1000
DSTYLE
1002
{
1070
    40
1040
1.5
1070
   172
1070
     1
1070
   279
1070
     0
1002
}
  0
LINE
  5
3823
330
37C9
100
AcDbEntity
  8
0
  6
AM_ISO02W050x2
 62
     3
 48
0.5
100
AcDbLine
 10
8.999999891126662
 20
10.1269543797672
 30
0.0
 11
8.999999891126662
 21
29.20075603657029
 31
0.0
  0
LINE
  5
3824
330
37C9
100
AcDbEntity
  8
0
  6
AM_ISO02W050x2
 62
     3
 48
0.5
100
AcDbLine
 10
16.99999989112666
 20
10.1269543797672
 30
0.0
 11
16.99999989112666
 21
29.20075603657029
 31
0.0
  0
ENDBLK
  5
3828
330
37C9
100
AcDbEntity
  8
0
100
AcDbBlockEnd
  0
BLOCK
  5
3934
330
3928
100
AcDbEntity
  8
0
100
AcDbBlockBegin
  2
*D13
 70
     1
 10
0.0
 20
0.0
 30
0.0
  3
*D13
  1

  0
LINE
  5
3936
330
3928
100
AcDbEntity
  8
DIM
370
    -2
100
AcDbLine
 10
-1026.906974416434
 20
122.3262688147997
 30
0.0
 11
-1026.906974416434
 21
110.3262688147997
 31
0.0
  0
LINE
  5
3937
330
3928
100
AcDbEntity
  8
DIM
370
    -2
100
AcDbLine
 10
-1020.906974416433
 20
122.3262688147997
 30
0.0
 11
-1020.906974416433
 21
110.3262688147997
 31
0.0
  0
LINE
  5
3938
330
3928
100
AcDbEntity
  8
DIM
370
    -2
100
AcDbLine
 10
-1031.406974416434
 20
113.3262688147997
 30
0.0
 11
-1035.906974416433
 21
113.3262688147997
 31
0.0
  0
LINE
  5
3939
330
3928
100
AcDbEntity
  8
DIM
370
    -2
100
AcDbLine
 10
-1016.406974416433
 20
113.3262688147997
 30
0.0
 11
-1002.049831559291
 21
113.3262688147997
 31
0.0
  0
LINE
  5
393A
330
3928
100
AcDbEntity
  8
DIM
370
    -2
100
AcDbLine
 10
-1026.906974416434
 20
113.3262688147997
 30
0.0
 11
-1020.906974416433
 21
113.3262688147997
 31
0.0
  0
SOLID
  5
393B
330
3928
100
AcDbEntity
  8
DIM
100
AcDbTrace
 10
-1031.406974416434
 20
114.0762688147997
 30
0.0
 11
-1031.406974416434
 21
112.5762688147997
 31
0.0
 12
-1026.906974416434
 22
113.3262688147997
 32
0.0
 13
-1026.906974416434
 23
113.3262688147997
 33
0.0
  0
SOLID
  5
393C
330
3928
100
AcDbEntity
  8
DIM
100
AcDbTrace
 10
-1016.406974416433
 20
114.0762688147997
 30
0.0
 11
-1016.406974416433
 21
112.5762688147997
 31
0.0
 12
-1020.906974416433
 22
113.3262688147997
 32
0.0
 13
-1020.906974416433
 23
113.3262688147997
 33
0.0
  0
MTEXT
  5
393D
330
3928
100
AcDbEntity
  8
DIM
100
AcDbMText
 10
-1006.978402987862
 20
117.0762688147997
 30
0.0
 40
4.5
 41
0.0
 71
     5
 72
     1
  1
\A1;%%c6
  7
CHINESET
 73
     1
 44
1.0
1001
ACAD
1000
MTEXTBEGIN
1070
    73
1070
     1
1070
    44
1040
1.0
1070
    74
1070
     0
1000
MTEXTEND
  0
POINT
  5
393E
330
3928
100
AcDbEntity
  8
DEFPOINTS
 62
     0
100
AcDbPoint
 10
-1026.906974416434
 20
125.3262688147997
 30
0.0
  0
POINT
  5
393F
330
3928
100
AcDbEntity
  8
DEFPOINTS
 62
     0
100
AcDbPoint
 10
-1020.906974416433
 20
125.3262688147997
 30
0.0
  0
POINT
  5
3940
330
3928
100
AcDbEntity
  8
DEFPOINTS
 62
     0
100
AcDbPoint
 10
-1020.906974416433
 20
113.3262688147997
 30
0.0
  0
ENDBLK
  5
3935
330
3928
100
AcDbEntity
  8
0
100
AcDbBlockEnd
  0
ENDSEC
  0
SECTION
  2
ENTITIES
  0
LINE
  5
675
330
20EF
100
AcDbEntity
  8
CENTER
  6
CENTER
100
AcDbLine
 10
-1023.906974416433
 20
302.1585740546835
 30
0.0
 11
-1023.906974416433
 21
362.2201252936199
 31
0.0
  0
LINE
  5
676
330
20EF
100
AcDbEntity
  8
0
100
AcDbLine
 10
-1050.406974416434
 20
346.9324842445961
 30
0.0
 11
-1050.406974416434
 21
316.9324842445961
 31
0.0
  0
LINE
  5
677
330
20EF
100
AcDbEntity
  8
0
100
AcDbLine
 10
-997.4069744164342
 20
346.9324842445961
 30
0.0
 11
-997.4069744164342
 21
316.9324842445961
 31
0.0
  0
ARC
  5
683
330
20EF
100
AcDbEntity
  8
0
100
AcDbCircle
 10
-1015.879915231998
 20
316.9324842445963
 30
0.0
 40
10.0
100
AcDbArc
 50
270.0000000000001
 51
331.6992442339937
  0
ARC
  5
684
330
20EF
100
AcDbEntity
  8
0
100
AcDbCircle
 10
-1023.906974416433
 20
331.9324842445961
 30
0.0
 40
29.0
100
AcDbArc
 50
293.9650909849874
 51
328.852610078491
  0
LINE
  5
6DE
330
20EF
100
AcDbEntity
  8
0
100
AcDbLine
 10
-1048.726321708415
 20
316.9324842445961
 30
0.0
 11
-1047.406974416434
 21
319.9324842445961
 31
0.0
  0
LINE
  5
6DF
330
20EF
100
AcDbEntity
  8
0
100
AcDbLine
 10
-1050.406974416434
 20
319.9324842445961
 30
0.0
 11
-1044.906974416433
 21
319.9324842445961
 31
0.0
  0
ARC
  5
6E0
330
20EF
100
AcDbEntity
  8
0
100
AcDbCircle
 10
-1023.906974416433
 20
331.9324842445961
 30
0.0
 40
29.0
100
AcDbArc
 50
211.147389921509
 51
246.0349090150126
  0
LINE
  5
6E3
330
20EF
100
AcDbEntity
  8
0
100
AcDbLine
 10
-1050.406974416434
 20
316.9324842445961
 30
0.0
 11
-1048.726321708415
 21
316.9324842445961
 31
0.0
  0
LINE
  5
6E6
330
20EF
100
AcDbEntity
  8
0
100
AcDbLine
 10
-1031.934033600869
 20
306.9324842445961
 30
0.0
 11
-1015.879915231998
 21
306.9324842445963
 31
0.0
  0
LINE
  5
6E7
330
20EF
100
AcDbEntity
  8
0
100
AcDbLine
 10
-1035.686193405823
 20
305.4324842445963
 30
0.0
 11
-1012.127755427044
 21
305.4324842445963
 31
0.0
  0
LINE
  5
6E9
330
20EF
100
AcDbEntity
  8
0
100
AcDbLine
 10
-1035.906974416433
 20
311.2324842445957
 30
0.0
 11
-1035.906974416433
 21
314.6324842445967
 31
0.0
  0
CIRCLE
  5
6EA
330
20EF
100
AcDbEntity
  8
0
100
AcDbCircle
 10
-1035.906974416433
 20
312.9324842445961
 30
0.0
 40
1.7
  0
ARC
  5
6EB
330
20EF
100
AcDbEntity
  8
0
100
AcDbCircle
 10
-1031.934033600869
 20
316.9324842445961
 30
0.0
 40
10.0
100
AcDbArc
 50
208.3007557660063
 51
270.0000000000001
  0
LINE
  5
6EC
330
20EF
100
AcDbEntity
  8
0
100
AcDbLine
 10
-1040.738744600091
 20
312.1914860142461
 30
0.0
 11
-1044.906974416433
 21
319.9324842445963
 31
0.0
  0
LINE
  5
7A8
330
20EF
100
AcDbEntity
  8
0
100
AcDbLine
 10
-1002.906974416434
 20
319.9324842445961
 30
0.0
 11
-997.4069744164342
 21
319.9324842445961
 31
0.0
  0
LINE
  5
7A9
330
20EF
100
AcDbEntity
  8
0
100
AcDbLine
 10
-1002.906974416434
 20
319.9324842445963
 30
0.0
 11
-1007.075204232776
 21
312.1914860142461
 31
0.0
  0
LINE
  5
7AA
330
20EF
100
AcDbEntity
  8
0
100
AcDbLine
 10
-999.0876271244522
 20
316.9324842445961
 30
0.0
 11
-1000.406974416434
 21
319.9324842445961
 31
0.0
  0
LINE
  5
7AB
330
20EF
100
AcDbEntity
  8
0
100
AcDbLine
 10
-999.0876271244522
 20
316.9324842445961
 30
0.0
 11
-997.4069744164342
 21
316.9324842445963
 31
0.0
  0
LINE
  5
7E1
330
20EF
100
AcDbEntity
  8
0
100
AcDbLine
 10
-1013.606974416435
 20
350.9324842445963
 30
0.0
 11
-1010.206974416434
 21
350.9324842445963
 31
0.0
  0
CIRCLE
  5
7E2
330
20EF
100
AcDbEntity
  8
0
100
AcDbCircle
 10
-1011.906974416433
 20
350.9324842445963
 30
0.0
 40
1.7
  0
ARC
  5
7E3
330
20EF
100
AcDbEntity
  8
0
100
AcDbCircle
 10
-1015.879915231998
 20
346.9324842445963
 30
0.0
 40
10.0
100
AcDbArc
 50
28.30075576600614
 51
89.99999999999994
  0
LINE
  5
7E4
330
20EF
100
AcDbEntity
  8
0
100
AcDbLine
 10
-1037.906974416434
 20
356.9324842445963
 30
0.0
 11
-1009.906974416433
 21
356.9324842445961
 31
0.0
  0
ARC
  5
7E5
330
20EF
100
AcDbEntity
  8
0
100
AcDbCircle
 10
-1023.906974416433
 20
331.9324842445961
 30
0.0
 40
29.0
100
AcDbArc
 50
31.14738992150897
 51
66.03490901501261
  0
LINE
  5
7E6
330
20EF
100
AcDbEntity
  8
0
100
AcDbLine
 10
-1048.726321708415
 20
346.9324842445961
 30
0.0
 11
-1047.406974416434
 21
343.9324842445961
 31
0.0
  0
LINE
  5
7E7
330
20EF
100
AcDbEntity
  8
0
100
AcDbLine
 10
-1050.406974416434
 20
343.9324842445961
 30
0.0
 11
-1044.906974416433
 21
343.9324842445961
 31
0.0
  0
ARC
  5
7E8
330
20EF
100
AcDbEntity
  8
0
100
AcDbCircle
 10
-1023.906974416433
 20
331.9324842445961
 30
0.0
 40
29.0
100
AcDbArc
 50
113.9650909849874
 51
148.852610078491
  0
LINE
  5
7E9
330
20EF
100
AcDbEntity
  8
0
100
AcDbLine
 10
-1050.406974416434
 20
346.9324842445961
 30
0.0
 11
-1048.726321708415
 21
346.9324842445961
 31
0.0
  0
LINE
  5
7EA
330
20EF
100
AcDbEntity
  8
0
100
AcDbLine
 10
-1011.906974416433
 20
349.2324842445948
 30
0.0
 11
-1011.906974416433
 21
352.6324842445975
 31
0.0
  0
LINE
  5
7EB
330
20EF
100
AcDbEntity
  8
0
100
AcDbLine
 10
-1044.906974416433
 20
343.9324842445961
 30
0.0
 11
-1037.906974416434
 21
356.9324842445963
 31
0.0
  0
ARC
  5
7EC
330
20EF
100
AcDbEntity
  8
0
100
AcDbCircle
 10
-1053.298157946831
 20
331.9324842445963
 30
0.0
 40
6.39118353039754
100
AcDbArc
 50
337.1858215657788
 51
22.81417843422121
  0
ARC
  5
7ED
330
20EF
100
AcDbEntity
  8
0
100
AcDbCircle
 10
-1047.206974416434
 20
329.4543431004326
 30
0.0
 40
0.2
100
AcDbArc
 50
180.0
 51
296.139068100435
  0
ARC
  5
7EE
330
20EF
100
AcDbEntity
  8
0
100
AcDbCircle
 10
-1047.206974416434
 20
334.4106253887598
 30
0.0
 40
0.2
100
AcDbArc
 50
63.86093189956504
 51
179.9999999999999
  0
ARC
  5
7EF
330
20EF
100
AcDbEntity
  8
0
100
AcDbCircle
 10
-1042.157177367949
 20
331.9324842445963
 30
0.0
 40
0.2
100
AcDbArc
 50
296.1390681004349
 51
63.86093189956512
  0
LINE
  5
7F0
330
20EF
100
AcDbEntity
  8
0
100
AcDbLine
 10
-1042.069067087371
 20
331.7529387671916
 30
0.0
 11
-1047.118864135855
 21
329.2747976230281
 31
0.0
  0
LINE
  5
7F1
330
20EF
100
AcDbEntity
  8
0
100
AcDbLine
 10
-1047.118864135855
 20
334.5901708661643
 30
0.0
 11
-1042.069067087371
 21
332.1120297220008
 31
0.0
  0
LINE
  5
7F2
330
20EF
100
AcDbEntity
  8
0
100
AcDbLine
 10
-1035.686193405823
 20
358.4324842445961
 30
0.0
 11
-1012.127755427044
 21
358.4324842445961
 31
0.0
  0
ARC
  5
7F3
330
20EF
100
AcDbEntity
  8
0
100
AcDbCircle
 10
-1031.934033600869
 20
346.9324842445963
 30
0.0
 40
10.0
100
AcDbArc
 50
90.0
 51
151.6992442339936
  0
LINE
  5
7F7
330
20EF
100
AcDbEntity
  8
0
100
AcDbLine
 10
-1009.906974416433
 20
356.9324842445961
 30
0.0
 11
-1002.906974416434
 21
343.9324842445961
 31
0.0
  0
LINE
  5
7F9
330
20EF
100
AcDbEntity
  8
0
100
AcDbLine
 10
-1002.906974416434
 20
343.9324842445961
 30
0.0
 11
-997.4069744164342
 21
343.9324842445961
 31
0.0
  0
LINE
  5
7FA
330
20EF
100
AcDbEntity
  8
0
100
AcDbLine
 10
-999.1569744164342
 20
346.9324842445961
 30
0.0
 11
-1000.406974416434
 21
343.9324842445961
 31
0.0
  0
LINE
  5
7FB
330
20EF
100
AcDbEntity
  8
0
100
AcDbLine
 10
-999.0876271244522
 20
346.9324842445961
 30
0.0
 11
-997.4069744164342
 21
346.9324842445961
 31
0.0
  0
LINE
  5
1AB1
330
20EF
100
AcDbEntity
  8
CENTER
  6
CENTER
100
AcDbLine
 10
-1053.80173807305
 20
331.9324842445961
 30
0.0
 11
-992.8178734969277
 21
331.9324842445961
 31
0.0
  0
TEXT
  5
28E9
330
20EF
100
AcDbEntity
  8
DIM
100
AcDbText
 10
-912.287514100435
 20
287.8580536317212
 30
0.0
 40
5.0
  1
%%U2-PT3/8
100
AcDbText
  0
DIMENSION
  5
2C29
330
20EF
100
AcDbEntity
  8
DIM
100
AcDbDimension
  2
*D1
 10
-948.6960159928075
 20
253.0057444552825
 30
0.0
 11
-899.1686355170655
 21
294.6572465857683
 31
0.0
 70
   163
  1
2-PT1/4
 71
     5
 42
11.37039999999922
  3
AM_ISO$3
100
AcDbDiametricDimension
 15
-941.3055983324017
 25
261.6467931743179
 35
0.0
 40
0.0
1001
ACAD
1000
DSTYLE
1002
{
1070
   144
1040
1.0
1070
    40
1040
1.5
1002
}
  0
DIMENSION
  5
2CFD
330
20EF
100
AcDbEntity
  8
DIM
100
AcDbDimension
  2
*D2
 10
-997.4069744164342
 20
293.2852160572981
 30
0.0
 11
-1023.995995650409
 21
293.2852160572981
 31
0.0
 70
   160
 71
     5
 42
52.99999999999954
  3
STANDARD
100
AcDbAlignedDimension
 13
-1050.406974416434
 23
316.9324842445961
 33
0.0
 14
-997.4069744164342
 24
316.9324842445963
 34
0.0
100
AcDbRotatedDimension
1001
ACAD
1000
DSTYLE
1002
{
1070
    40
1040
1.5
1070
   279
1070
     0
1002
}
  0
DIMENSION
  5
2D21
330
20EF
100
AcDbEntity
  8
DIM
100
AcDbDimension
  2
*D3
 10
-977.7579149240178
 20
358.4324842445961
 30
0.0
 11
-977.757914924018
 21
332.0889523627339
 31
0.0
 70
   160
 71
     5
 42
52.99999999999989
  3
STANDARD
100
AcDbAlignedDimension
 13
-1012.127755427044
 23
305.4324842445963
 33
0.0
 14
-1012.127755427044
 24
358.4324842445961
 34
0.0
 50
90.0
100
AcDbRotatedDimension
1001
ACAD
1000
DSTYLE
1002
{
1070
    40
1040
1.5
1070
   279
1070
     0
1002
}
  0
LINE
  5
2FAA
330
20EF
100
AcDbEntity
  8
CENTER
  6
CENTER
100
AcDbLine
 10
-1023.906974416433
 20
139.3262688147995
 30
0.0
 11
-1023.906974416433
 21
279.9553766720621
 31
0.0
  0
LINE
  5
2FAF
330
20EF
100
AcDbEntity
  8
AM_7
100
AcDbLine
 10
-1023.906974416433
 20
159.8262688147995
 30
0.0
 11
-1023.906974416433
 21
159.8262688147995
 31
0.0
  0
LINE
  5
2FB0
330
20EF
100
AcDbEntity
  8
AM_7
100
AcDbLine
 10
-1023.906974416433
 20
159.8262688147995
 30
0.0
 11
-1023.906974416433
 21
159.8262688147995
 31
0.0
  0
LINE
  5
2FB6
330
20EF
100
AcDbEntity
  8
AM_7
100
AcDbLine
 10
-1023.906974416433
 20
199.8262688147995
 30
0.0
 11
-1023.906974416433
 21
199.8262688147995
 31
0.0
  0
LINE
  5
2FB7
330
20EF
100
AcDbEntity
  8
AM_7
100
AcDbLine
 10
-1023.906974416433
 20
199.8262688147995
 30
0.0
 11
-1023.906974416433
 21
199.8262688147995
 31
0.0
  0
LINE
  5
2FBA
330
20EF
100
AcDbEntity
  8
AM_7
100
AcDbLine
 10
-1023.906974416433
 20
191.8262688147995
 30
0.0
 11
-1023.906974416433
 21
199.8262688147995
 31
0.0
  0
LINE
  5
2FBB
330
20EF
100
AcDbEntity
  8
AM_7
100
AcDbLine
 10
-1023.906974416433
 20
199.8262688147995
 30
0.0
 11
-1023.906974416433
 21
207.8262688147995
 31
0.0
  0
LINE
  5
2FBC
330
20EF
100
AcDbEntity
  8
CENTER
  6
CENTER
100
AcDbLine
 10
-945.0008071626044
 20
139.3262688147995
 30
0.0
 11
-945.0008071626044
 21
279.5964452520503
 31
0.0
  0
LINE
  5
2FBD
330
20EF
100
AcDbEntity
  8
CENTER
  6
CENTER
100
AcDbLine
 10
-945.0008071626044
 20
257.3262688147995
 30
0.0
 11
-945.0008071626044
 21
257.3262688147995
 31
0.0
  0
LINE
  5
2FBE
330
20EF
100
AcDbEntity
  8
CENTER
  6
CENTER
100
AcDbLine
 10
-945.0008071626044
 20
257.3262688147995
 30
0.0
 11
-945.0008071626044
 21
257.3262688147995
 31
0.0
  0
LINE
  5
2FBF
330
20EF
100
AcDbEntity
  8
CENTER
  6
CENTER
100
AcDbLine
 10
-953.7008071626043
 20
257.3262688147995
 30
0.0
 11
-945.0008071626044
 21
257.3262688147995
 31
0.0
  0
LINE
  5
2FC0
330
20EF
100
AcDbEntity
  8
CENTER
  6
CENTER
100
AcDbLine
 10
-945.0008071626044
 20
257.3262688147995
 30
0.0
 11
-936.3008071626046
 21
257.3262688147995
 31
0.0
  0
LINE
  5
2FC1
330
20EF
100
AcDbEntity
  8
CENTER
  6
CENTER
100
AcDbLine
 10
-945.0008071626044
 20
248.6262688147995
 30
0.0
 11
-945.0008071626044
 21
257.3262688147995
 31
0.0
  0
LINE
  5
2FC2
330
20EF
100
AcDbEntity
  8
CENTER
  6
CENTER
100
AcDbLine
 10
-945.0008071626044
 20
257.3262688147995
 30
0.0
 11
-945.0008071626044
 21
266.0262688147994
 31
0.0
  0
LINE
  5
2FC9
330
20EF
100
AcDbEntity
  8
CENTER
  6
CENTER
100
AcDbLine
 10
-945.0008071626045
 20
121.2885227772965
 30
0.0
 11
-945.0008071626045
 21
143.8262688147995
 31
0.0
  0
LINE
  5
2FCD
330
20EF
100
AcDbEntity
  8
AM_7
100
AcDbLine
 10
-945.0008071626044
 20
199.8262688147995
 30
0.0
 11
-945.0008071626044
 21
199.8262688147995
 31
0.0
  0
LINE
  5
2FCE
330
20EF
100
AcDbEntity
  8
AM_7
100
AcDbLine
 10
-945.0008071626044
 20
199.8262688147995
 30
0.0
 11
-945.0008071626044
 21
199.8262688147995
 31
0.0
  0
LINE
  5
2FD1
330
20EF
100
AcDbEntity
  8
CENTER
  6
CENTER
100
AcDbLine
 10
-945.0008071626044
 20
191.8262688147995
 30
0.0
 11
-945.0008071626044
 21
199.8262688147995
 31
0.0
  0
LINE
  5
2FD2
330
20EF
100
AcDbEntity
  8
CENTER
  6
CENTER
100
AcDbLine
 10
-945.0008071626044
 20
199.8262688147995
 30
0.0
 11
-945.0008071626044
 21
207.8262688147995
 31
0.0
  0
LINE
  5
2FD3
330
20EF
100
AcDbEntity
  8
CENTER
  6
CENTER
100
AcDbLine
 10
-945.0008071626044
 20
159.8262688147995
 30
0.0
 11
-945.0008071626044
 21
159.8262688147995
 31
0.0
  0
LINE
  5
2FD4
330
20EF
100
AcDbEntity
  8
CENTER
  6
CENTER
100
AcDbLine
 10
-945.0008071626044
 20
159.8262688147995
 30
0.0
 11
-945.0008071626044
 21
159.8262688147995
 31
0.0
  0
LINE
  5
2FD7
330
20EF
100
AcDbEntity
  8
CENTER
  6
CENTER
100
AcDbLine
 10
-945.0008071626044
 20
161.8262688147995
 30
0.0
 11
-945.0008071626044
 21
159.8262688147995
 31
0.0
  0
LINE
  5
2FD8
330
20EF
100
AcDbEntity
  8
CENTER
  6
CENTER
100
AcDbLine
 10
-945.0008071626044
 20
159.8262688147995
 30
0.0
 11
-945.0008071626044
 21
157.8262688147995
 31
0.0
  0
LINE
  5
2FDA
330
20EF
100
AcDbEntity
  8
AM_VIS
100
AcDbLine
 10
-1035.686193405823
 20
225.8262688147995
 30
0.0
 11
-1035.686193405823
 21
236.8262688147995
 31
0.0
  0
LINE
  5
2FDB
330
20EF
100
AcDbEntity
  8
AM_VIS
100
AcDbLine
 10
-1012.127755427044
 20
236.8262688147995
 30
0.0
 11
-1012.127755427044
 21
225.8262688147995
 31
0.0
  0
LINE
  5
2FDC
330
20EF
100
AcDbEntity
  8
AM_VIS
100
AcDbLine
 10
-997.4069744164337
 20
265.3262688147995
 30
0.0
 11
-999.1569744164337
 21
265.3262688147995
 31
0.0
  0
LINE
  5
2FDD
330
20EF
100
AcDbEntity
  8
AM_VIS
100
AcDbLine
 10
-999.1569744164337
 20
265.3262688147995
 30
0.0
 11
-1000.406974416434
 21
267.3262688147995
 31
0.0
  0
LINE
  5
2FDE
330
20EF
100
AcDbEntity
  8
AM_VIS
100
AcDbLine
 10
-999.1569744164337
 20
249.3262688147995
 30
0.0
 11
-999.1569744164337
 21
265.3262688147995
 31
0.0
  0
LINE
  5
2FDF
330
20EF
100
AcDbEntity
  8
AM_VIS
100
AcDbLine
 10
-999.1569744164337
 20
249.3262688147995
 30
0.0
 11
-997.4069744164337
 21
249.3262688147995
 31
0.0
  0
LINE
  5
2FE0
330
20EF
100
AcDbEntity
  8
AM_VIS
100
AcDbLine
 10
-1000.406974416434
 20
247.3262688147995
 30
0.0
 11
-999.1569744164337
 21
249.3262688147995
 31
0.0
  0
LINE
  5
2FE1
330
20EF
100
AcDbEntity
  8
AM_VIS
100
AcDbLine
 10
-1035.686193405823
 20
236.8262688147995
 30
0.0
 11
-1012.127755427044
 21
236.8262688147995
 31
0.0
  0
LINE
  5
2FE2
330
20EF
100
AcDbEntity
  8
AM_VIS
100
AcDbLine
 10
-1048.656974416434
 20
249.3262688147995
 30
0.0
 11
-1048.656974416434
 21
265.3262688147995
 31
0.0
  0
LINE
  5
2FE3
330
20EF
100
AcDbEntity
  8
AM_VIS
100
AcDbLine
 10
-1050.406974416434
 20
249.3262688147995
 30
0.0
 11
-1048.656974416434
 21
249.3262688147995
 31
0.0
  0
LINE
  5
2FE4
330
20EF
100
AcDbEntity
  8
AM_VIS
100
AcDbLine
 10
-1048.656974416434
 20
249.3262688147995
 30
0.0
 11
-1047.406974416434
 21
247.3262688147995
 31
0.0
  0
LINE
  5
2FE5
330
20EF
100
AcDbEntity
  8
AM_VIS
100
AcDbLine
 10
-1048.656974416434
 20
265.3262688147995
 30
0.0
 11
-1050.406974416434
 21
265.3262688147995
 31
0.0
  0
LINE
  5
2FE6
330
20EF
100
AcDbEntity
  8
AM_VIS
100
AcDbLine
 10
-1047.406974416434
 20
267.3262688147995
 30
0.0
 11
-1048.656974416434
 21
265.3262688147995
 31
0.0
  0
ELLIPSE
  5
2FE7
330
20EF
100
AcDbEntity
  8
AM_VIS
100
AcDbEllipse
 10
-1002.067011492164
 20
276.3262688147995
 30
0.0
 11
0.0256889013279165
 21
-0.9998901041079923
 31
0.0
210
0.0
220
0.0
230
1.0
 40
0.5770962660710928
 41
4.68272816961532
 42
4.697563468257271
  0
ELLIPSE
  5
2FE8
330
20EF
100
AcDbEntity
  8
AM_VIS
100
AcDbEllipse
 10
-1003.221839108958
 20
276.3262688147995
 30
0.0
 11
0.0
 21
-1.0
 31
0.0
210
0.0
220
0.0
230
1.0
 40
0.5773502691896279
 41
1.585631625436846
 42
3.141592653589793
  0
ARC
  5
2FE9
330
20EF
100
AcDbEntity
  8
AM_VIS
100
AcDbCircle
 10
-1049.406974416434
 20
276.3262688147995
 30
0.0
 40
1.0
100
AcDbArc
 50
90.0
 51
180.0
  0
ELLIPSE
  5
2FEA
330
20EF
100
AcDbEntity
  8
AM_VIS
100
AcDbEllipse
 10
-1045.746937340703
 20
276.3262688147995
 30
0.0
 11
0.0256889013279164
 21
0.9998901041079919
 31
0.0
210
0.0
220
0.0
230
1.0
 40
0.5770962660710918
 41
4.727214492512105
 42
4.742049791154056
  0
ELLIPSE
  5
2FEB
330
20EF
100
AcDbEntity
  8
AM_VIS
100
AcDbEllipse
 10
-1044.592109723909
 20
276.3262688147995
 30
0.0
 11
0.0
 21
-1.0
 31
0.0
210
0.0
220
0.0
230
1.0
 40
0.577350269189628
 41
3.141592653589793
 42
4.697553681742738
  0
ARC
  5
2FEC
330
20EF
100
AcDbEntity
  8
AM_VIS
100
AcDbCircle
 10
-998.4069744164337
 20
276.3262688147995
 30
0.0
 40
1.0
100
AcDbArc
 50
0.0
 51
90.0
  0
LINE
  5
2FED
330
20EF
100
AcDbEntity
  8
AM_VIS
100
AcDbLine
 10
-997.4069744164337
 20
236.8262688147995
 30
0.0
 11
-997.5062168515458
 21
236.8262688147995
 31
0.0
  0
LINE
  5
2FEE
330
20EF
100
AcDbEntity
  8
AM_VIS
100
AcDbLine
 10
-1001.967664187228
 20
236.8262688147995
 30
0.0
 11
-1002.644361761354
 21
276.3262688147995
 31
0.0
  0
LINE
  5
2FEF
330
20EF
100
AcDbEntity
  8
AM_VIS
100
AcDbLine
 10
-997.4069744164337
 20
267.3262688147995
 30
0.0
 11
-1000.406974416434
 21
267.3262688147995
 31
0.0
  0
LINE
  5
2FF0
330
20EF
100
AcDbEntity
  8
AM_VIS
100
AcDbLine
 10
-1000.406974416434
 20
247.3262688147995
 30
0.0
 11
-1000.406974416434
 21
267.3262688147995
 31
0.0
  0
LINE
  5
2FF1
330
20EF
100
AcDbEntity
  8
AM_VIS
100
AcDbLine
 10
-997.4069744164337
 20
247.3262688147995
 30
0.0
 11
-1000.406974416434
 21
247.3262688147995
 31
0.0
  0
LINE
  5
2FF2
330
20EF
100
AcDbEntity
  8
AM_VIS
100
AcDbLine
 10
-997.4069744164337
 20
276.3262688147995
 30
0.0
 11
-997.4069744164337
 21
273.9262688147995
 31
0.0
  0
LINE
  5
2FF3
330
20EF
100
AcDbEntity
  8
AM_VIS
100
AcDbLine
 10
-999.5069744164336
 20
273.5262688147994
 30
0.0
 11
-997.4069744164337
 21
273.9262688147994
 31
0.0
  0
LINE
  5
2FF4
330
20EF
100
AcDbEntity
  8
AM_VIS
100
AcDbLine
 10
-999.5069744164336
 20
270.1262688147995
 30
0.0
 11
-999.5069744164336
 21
273.5262688147994
 31
0.0
  0
LINE
  5
2FF5
330
20EF
100
AcDbEntity
  8
AM_VIS
100
AcDbLine
 10
-997.4069744164337
 20
269.7262688147995
 30
0.0
 11
-999.5069744164336
 21
270.1262688147995
 31
0.0
  0
LINE
  5
2FF6
330
20EF
100
AcDbEntity
  8
AM_VIS
100
AcDbLine
 10
-997.4069744164337
 20
225.8262688147995
 30
0.0
 11
-997.4069744164337
 21
236.8262688147995
 31
0.0
  0
LINE
  5
2FF7
330
20EF
100
AcDbEntity
  8
AM_VIS
100
AcDbLine
 10
-997.4069744164337
 20
240.7262688147995
 30
0.0
 11
-997.4069744164337
 21
236.8262688147995
 31
0.0
  0
LINE
  5
2FF8
330
20EF
100
AcDbEntity
  8
AM_VIS
100
AcDbLine
 10
-999.5069744164336
 20
241.1262688147995
 30
0.0
 11
-999.5069744164336
 21
244.5262688147995
 31
0.0
  0
LINE
  5
2FF9
330
20EF
100
AcDbEntity
  8
AM_VIS
100
AcDbLine
 10
-997.4069744164337
 20
240.7262688147995
 30
0.0
 11
-999.5069744164338
 21
241.1262688147995
 31
0.0
  0
LINE
  5
2FFA
330
20EF
100
AcDbEntity
  8
AM_VIS
100
AcDbLine
 10
-999.5069744164336
 20
244.5262688147995
 30
0.0
 11
-997.4069744164337
 21
244.9262688147994
 31
0.0
  0
LINE
  5
2FFB
330
20EF
100
AcDbEntity
  8
AM_VIS
100
AcDbLine
 10
-1050.406974416434
 20
247.3262688147995
 30
0.0
 11
-1047.406974416434
 21
247.3262688147995
 31
0.0
  0
LINE
  5
2FFC
330
20EF
100
AcDbEntity
  8
AM_VIS
100
AcDbLine
 10
-1047.406974416434
 20
247.3262688147995
 30
0.0
 11
-1047.406974416434
 21
267.3262688147995
 31
0.0
  0
LINE
  5
2FFD
330
20EF
100
AcDbEntity
  8
AM_VIS
100
AcDbLine
 10
-1050.406974416434
 20
267.3262688147995
 30
0.0
 11
-1047.406974416434
 21
267.3262688147995
 31
0.0
  0
LINE
  5
2FFE
330
20EF
100
AcDbEntity
  8
AM_VIS
100
AcDbLine
 10
-1048.306974416433
 20
270.1262688147995
 30
0.0
 11
-1050.406974416434
 21
269.7262688147995
 31
0.0
  0
LINE
  5
2FFF
330
20EF
100
AcDbEntity
  8
AM_VIS
100
AcDbLine
 10
-1048.306974416433
 20
273.5262688147994
 30
0.0
 11
-1048.306974416433
 21
270.1262688147995
 31
0.0
  0
LINE
  5
3000
330
20EF
100
AcDbEntity
  8
AM_VIS
100
AcDbLine
 10
-1050.406974416434
 20
273.9262688147995
 30
0.0
 11
-1048.306974416433
 21
273.5262688147994
 31
0.0
  0
LINE
  5
3001
330
20EF
100
AcDbEntity
  8
AM_VIS
100
AcDbLine
 10
-1050.406974416434
 20
273.9262688147995
 30
0.0
 11
-1050.406974416434
 21
276.3262688147995
 31
0.0
  0
LINE
  5
3002
330
20EF
100
AcDbEntity
  8
AM_VIS
100
AcDbLine
 10
-1045.169587071513
 20
276.3262688147995
 30
0.0
 11
-1045.846284645639
 21
236.8262688147995
 31
0.0
  0
LINE
  5
3003
330
20EF
100
AcDbEntity
  8
AM_VIS
100
AcDbLine
 10
-1050.307731981322
 20
236.8262688147995
 30
0.0
 11
-1050.406974416434
 21
236.8262688147995
 31
0.0
  0
LINE
  5
3004
330
20EF
100
AcDbEntity
  8
AM_VIS
100
AcDbLine
 10
-1050.406974416434
 20
267.3262688147995
 30
0.0
 11
-1050.406974416434
 21
269.7262688147995
 31
0.0
  0
LINE
  5
3005
330
20EF
100
AcDbEntity
  8
AM_VIS
100
AcDbLine
 10
-1050.406974416434
 20
265.3262688147995
 30
0.0
 11
-1050.406974416434
 21
267.3262688147995
 31
0.0
  0
LINE
  5
3006
330
20EF
100
AcDbEntity
  8
AM_VIS
100
AcDbLine
 10
-1050.406974416434
 20
249.3262688147995
 30
0.0
 11
-1050.406974416434
 21
265.3262688147995
 31
0.0
  0
LINE
  5
3007
330
20EF
100
AcDbEntity
  8
AM_VIS
100
AcDbLine
 10
-1050.406974416434
 20
247.3262688147995
 30
0.0
 11
-1050.406974416434
 21
249.3262688147995
 31
0.0
  0
LINE
  5
3008
330
20EF
100
AcDbEntity
  8
AM_VIS
100
AcDbLine
 10
-1050.406974416434
 20
244.9262688147995
 30
0.0
 11
-1050.406974416434
 21
247.3262688147995
 31
0.0
  0
LINE
  5
3009
330
20EF
100
AcDbEntity
  8
AM_VIS
100
AcDbLine
 10
-1048.306974416433
 20
241.1262688147995
 30
0.0
 11
-1050.406974416434
 21
240.7262688147995
 31
0.0
  0
LINE
  5
300A
330
20EF
100
AcDbEntity
  8
AM_VIS
100
AcDbLine
 10
-1048.306974416433
 20
244.5262688147995
 30
0.0
 11
-1048.306974416433
 21
241.1262688147995
 31
0.0
  0
LINE
  5
300B
330
20EF
100
AcDbEntity
  8
AM_VIS
100
AcDbLine
 10
-1050.406974416434
 20
244.9262688147995
 30
0.0
 11
-1048.306974416433
 21
244.5262688147995
 31
0.0
  0
LINE
  5
300C
330
20EF
100
AcDbEntity
  8
AM_VIS
100
AcDbLine
 10
-997.4069744164337
 20
247.3262688147995
 30
0.0
 11
-997.4069744164337
 21
244.9262688147995
 31
0.0
  0
LINE
  5
300D
330
20EF
100
AcDbEntity
  8
AM_VIS
100
AcDbLine
 10
-997.4069744164337
 20
249.3262688147995
 30
0.0
 11
-997.4069744164337
 21
247.3262688147995
 31
0.0
  0
LINE
  5
300E
330
20EF
100
AcDbEntity
  8
AM_VIS
100
AcDbLine
 10
-997.4069744164337
 20
249.3262688147995
 30
0.0
 11
-997.4069744164337
 21
265.3262688147995
 31
0.0
  0
LINE
  5
300F
330
20EF
100
AcDbEntity
  8
AM_VIS
100
AcDbLine
 10
-997.4069744164337
 20
267.3262688147995
 30
0.0
 11
-997.4069744164337
 21
265.3262688147995
 31
0.0
  0
LINE
  5
3010
330
20EF
100
AcDbEntity
  8
AM_VIS
100
AcDbLine
 10
-997.4069744164337
 20
269.7262688147995
 30
0.0
 11
-997.4069744164337
 21
267.3262688147995
 31
0.0
  0
SPLINE
  5
3011
330
20EF
100
AcDbEntity
  8
AM_VIS
100
AcDbSpline
210
-0.0000000000002036
220
0.0000000000002901
230
1.0
 70
    12
 71
     2
 72
     6
 73
     3
 74
     0
 42
0.0000000001
 43
0.0000000001
 40
0.0
 40
0.0
 40
0.0
 40
3.333802718682254
 40
3.333802718682254
 40
3.333802718682254
 10
-1012.127755427044
 20
225.8262688147995
 30
0.0
 41
1.0
 10
-1013.542076427458
 20
224.7215210173733
 30
0.0000000000000284
 41
1.001601757869553
 10
-1014.906974416433
 20
223.8774302346321
 30
0.0
 41
1.000819973128107
  0
LINE
  5
3012
330
20EF
100
AcDbEntity
  8
AM_VIS
100
AcDbLine
 10
-997.4069744164337
 20
225.8262688147995
 30
0.0
 11
-997.4069744164337
 21
223.8774302346322
 31
0.0
  0
LINE
  5
3013
330
20EF
100
AcDbEntity
  8
AM_VIS
100
AcDbLine
 10
-1014.906974416434
 20
225.3262688147995
 30
0.0
 11
-1014.906974416434
 21
223.8774302346322
 31
0.0
  0
LINE
  5
3014
330
20EF
100
AcDbEntity
  8
AM_VIS
100
AcDbLine
 10
-1014.906974416434
 20
223.8774302346322
 30
0.0
 11
-1014.906974416434
 21
223.3262688147995
 31
0.0
  0
LINE
  5
3015
330
20EF
100
AcDbEntity
  8
AM_VIS
100
AcDbLine
 10
-1032.906974416434
 20
223.8774302346322
 30
0.0
 11
-1032.906974416434
 21
225.3262688147995
 31
0.0
  0
SPLINE
  5
3016
330
20EF
100
AcDbEntity
  8
AM_VIS
100
AcDbSpline
210
-0.0000000000023849
220
-0.0000000000033987
230
-1.0
 70
    12
 71
     2
 72
     6
 73
     3
 74
     0
 42
0.0000000001
 43
0.0000000001
 40
1.146876347465926
 40
1.146876347465926
 40
1.146876347465926
 40
4.480679066148133
 40
4.480679066148133
 40
4.480679066148133
 10
-1032.906974416433
 20
223.877430234632
 30
0.0000000000000284
 41
1.000819973128055
 10
-1034.271872405408
 20
224.7215210173734
 30
0.0000000000000284
 41
1.001601757869451
 10
-1035.686193405823
 20
225.8262688147995
 30
0.0
 41
1.0
  0
LINE
  5
3017
330
20EF
100
AcDbEntity
  8
AM_VIS
100
AcDbLine
 10
-1032.906974416434
 20
223.8774302346322
 30
0.0
 11
-1032.906974416434
 21
223.3262688147995
 31
0.0
  0
LINE
  5
3018
330
20EF
100
AcDbEntity
  8
AM_VIS
100
AcDbLine
 10
-1050.406974416434
 20
236.8262688147995
 30
0.0
 11
-1050.406974416434
 21
240.7262688147995
 31
0.0
  0
LINE
  5
3019
330
20EF
100
AcDbEntity
  8
AM_VIS
100
AcDbLine
 10
-1050.406974416434
 20
236.8262688147995
 30
0.0
 11
-1050.406974416434
 21
225.8262688147995
 31
0.0
  0
LINE
  5
301A
330
20EF
100
AcDbEntity
  8
AM_VIS
100
AcDbLine
 10
-1050.406974416434
 20
225.8262688147995
 30
0.0
 11
-1050.406974416434
 21
223.8774302346322
 31
0.0
  0
LINE
  5
301B
330
20EF
100
AcDbEntity
  8
AM_VIS
100
AcDbLine
 10
-1050.406997501992
 20
223.8774175491581
 30
0.0
 11
-1050.104135141856
 21
223.3262559140958
 31
0.0
  0
LINE
  5
301C
330
20EF
100
AcDbEntity
  8
AM_VIS
100
AcDbLine
 10
-997.7098136910115
 20
223.3262559140959
 30
0.0
 11
-997.4069513308757
 21
223.8774175491583
 31
0.0
  0
LINE
  5
301D
330
20EF
100
AcDbEntity
  8
AM_VIS
100
AcDbLine
 10
-1032.906974416434
 20
225.3262688147995
 30
0.0
 11
-1014.906974416434
 21
225.3262688147995
 31
0.0
  0
LINE
  5
301E
330
20EF
100
AcDbEntity
  8
AM_VIS
100
AcDbLine
 10
-1044.592109723909
 20
277.3262688147995
 30
0.0
 11
-1049.406974416434
 21
277.3262688147995
 31
0.0
  0
LINE
  5
301F
330
20EF
100
AcDbEntity
  8
AM_VIS
100
AcDbLine
 10
-998.4069744164337
 20
277.3262688147995
 30
0.0
 11
-1003.221839108958
 21
277.3262688147995
 31
0.0
  0
LINE
  5
3020
330
20EF
100
AcDbEntity
  8
AM_VIS
100
AcDbLine
 10
-1003.221839108958
 20
277.3262688147995
 30
0.0
 11
-1007.791189965768
 21
277.3262688147995
 31
0.0
  0
LINE
  5
3021
330
20EF
100
AcDbEntity
  8
AM_VIS
100
AcDbLine
 10
-1015.584560914922
 20
277.3262688147995
 30
0.0
 11
-1007.791189965768
 21
277.3262688147995
 31
0.0
  0
LINE
  5
3022
330
20EF
100
AcDbEntity
  8
AM_VIS
100
AcDbLine
 10
-1015.584560914922
 20
277.3262688147995
 30
0.0
 11
-1032.229387917945
 21
277.3262688147995
 31
0.0
  0
LINE
  5
3023
330
20EF
100
AcDbEntity
  8
AM_VIS
100
AcDbLine
 10
-1040.022758867099
 20
277.3262688147995
 30
0.0
 11
-1032.229387917945
 21
277.3262688147995
 31
0.0
  0
LINE
  5
3024
330
20EF
100
AcDbEntity
  8
AM_VIS
100
AcDbLine
 10
-1040.022758867099
 20
277.3262688147995
 30
0.0
 11
-1044.592109723909
 21
277.3262688147995
 31
0.0
  0
LINE
  5
3025
330
20EF
100
AcDbEntity
  8
AM_VIS
100
AcDbLine
 10
-1012.127755427044
 20
236.8262688147995
 30
0.0
 11
-997.5062168515458
 21
236.8262688147995
 31
0.0
  0
LINE
  5
3026
330
20EF
100
AcDbEntity
  8
AM_VIS
100
AcDbLine
 10
-1050.307731981322
 20
236.8262688147995
 30
0.0
 11
-1035.686193405823
 21
236.8262688147995
 31
0.0
  0
LINE
  5
3027
330
20EF
100
AcDbEntity
  8
AM_VIS
100
AcDbLine
 10
-1012.127755427044
 20
225.8262688147995
 30
0.0
 11
-997.4069744164337
 21
225.8262688147995
 31
0.0
  0
LINE
  5
3028
330
20EF
100
AcDbEntity
  8
AM_VIS
100
AcDbLine
 10
-1050.406974416434
 20
225.8262688147995
 30
0.0
 11
-1035.686193405823
 21
225.8262688147995
 31
0.0
  0
LINE
  5
3029
330
20EF
100
AcDbEntity
  8
AM_VIS
100
AcDbLine
 10
-1032.906974416434
 20
223.3262688147995
 30
0.0
 11
-1050.104111664614
 21
223.3262688147995
 31
0.0
  0
LINE
  5
302A
330
20EF
100
AcDbEntity
  8
AM_VIS
100
AcDbLine
 10
-997.7098371682535
 20
223.3262688147995
 30
0.0
 11
-1014.906974416434
 21
223.3262688147995
 31
0.0
  0
LINE
  5
302B
330
20EF
100
AcDbEntity
  8
AM_VIS
100
AcDbLine
 10
-1013.906974416434
 20
142.3262688147995
 30
0.0
 11
-1013.7736410831
 21
143.3262688147995
 31
0.0
  0
LINE
  5
302C
330
20EF
100
AcDbEntity
  8
AM_VIS
100
AcDbLine
 10
-1033.906974416433
 20
142.3262688147995
 30
0.0
 11
-1034.040307749767
 21
143.3262688147995
 31
0.0
  0
LINE
  5
302D
330
20EF
100
AcDbEntity
  8
AM_VIS
100
AcDbLine
 10
-1017.292596138772
 20
142.3262688147995
 30
0.0
 11
-1030.521352694095
 21
142.3262688147995
 31
0.0
  0
LINE
  5
3030
330
20EF
100
AcDbEntity
  8
AM_VIS
100
AcDbLine
 10
-1013.906974416434
 20
142.3262688147996
 30
0.0
 11
-1017.292596138772
 21
142.3262688147996
 31
0.0
  0
LINE
  5
3031
330
20EF
100
AcDbEntity
  8
AM_VIS
100
AcDbLine
 10
-1030.521352694095
 20
142.3262688147995
 30
0.0
 11
-1033.906974416434
 21
142.3262688147995
 31
0.0
  0
LINE
  5
304B
330
20EF
100
AcDbEntity
  8
AM_VIS
100
AcDbLine
 10
-1030.683452562021
 20
147.8901167758954
 30
0.0
 11
-1029.934664056908
 21
143.7596646979216
 31
0.0
  0
LINE
  5
304C
330
20EF
100
AcDbEntity
  8
AM_VIS
100
AcDbLine
 10
-1017.879284775999
 20
143.7596646979277
 30
0.0
 11
-1017.130496270994
 21
147.8901167724198
 31
0.0
  0
LINE
  5
304D
330
20EF
100
AcDbEntity
  8
AM_VIS
100
AcDbLine
 10
-1013.008673588104
 20
143.7576535103918
 30
0.0
 11
-1011.743437539919
 21
147.888206757702
 31
0.0
  0
LINE
  5
304E
330
20EF
100
AcDbEntity
  8
AM_VIS
100
AcDbLine
 10
-1008.723316229393
 20
143.7609907513642
 30
0.0
 11
-1004.556748054785
 21
147.89135649256
 31
0.0
  0
ARC
  5
304F
330
20EF
100
AcDbEntity
  8
AM_VIS
100
AcDbCircle
 10
-1005.61277006399
 20
148.9566345273281
 30
0.0
 40
1.499999923256975
100
AcDbArc
 50
314.749998956187
 51
359.5000011074674
  0
ARC
  5
3050
330
20EF
100
AcDbEntity
  8
AM_VIS
100
AcDbCircle
 10
-1015.631510705352
 20
148.8938479959324
 30
0.0
 40
4.005277429982398
100
AcDbArc
 50
345.5051697012423
 51
0.7109339102318508
  0
ARC
  5
3051
330
20EF
100
AcDbEntity
  8
AM_VIS
100
AcDbCircle
 10
-1023.735017210681
 20
148.890381955755
 30
0.0
 40
6.672890315229976
100
AcDbArc
 50
351.3896440763305
 51
0.4564792813737541
  0
ARC
  5
3052
330
20EF
100
AcDbEntity
  8
AM_VIS
100
AcDbCircle
 10
-1024.07893162226
 20
148.8903819557491
 30
0.0
 40
6.672890315155351
100
AcDbArc
 50
179.5435207185701
 51
188.610355923713
  0
ARC
  5
3053
330
20EF
100
AcDbEntity
  8
AM_VIS
100
AcDbCircle
 10
-1032.182438127336
 20
148.8938479959541
 30
0.0
 40
4.005277430160669
100
AcDbArc
 50
179.2890660901076
 51
194.4948302984163
  0
ARC
  5
3054
330
20EF
100
AcDbEntity
  8
AM_VIS
100
AcDbCircle
 10
-1042.201178634145
 20
148.956634584172
 30
0.0
 40
1.500000058479726
100
AcDbArc
 50
180.5000010188101
 51
225.2499989175371
  0
LINE
  5
3055
330
20EF
100
AcDbEntity
  8
AM_VIS
100
AcDbLine
 10
-1017.062187825135
 20
148.9435445343515
 30
0.0
 11
-1016.951097378132
 21
225.3262686006434
 31
0.0
  0
LINE
  5
3056
330
20EF
100
AcDbEntity
  8
AM_VIS
100
AcDbLine
 10
-1016.156974416433
 20
224.8262688147995
 30
0.0
 11
-1016.156974416433
 21
225.3262688147995
 31
0.0
  0
LINE
  5
3057
330
20EF
100
AcDbEntity
  8
AM_VIS
100
AcDbLine
 10
-1011.626311953364
 20
148.9435441868136
 30
0.0
 11
-1011.442684375738
 21
223.326268260353
 31
0.0
  0
LINE
  5
3058
330
20EF
100
AcDbEntity
  8
AM_VIS
100
AcDbLine
 10
-1004.112827255871
 20
148.9435447537426
 30
0.0
 11
-1003.463699057073
 21
223.3262688147995
 31
0.0
  0
LINE
  5
3059
330
20EF
100
AcDbEntity
  8
AM_VIS
100
AcDbLine
 10
-1044.350249775793
 20
223.3262688147995
 30
0.0
 11
-1043.701121576996
 21
148.9435447537427
 31
0.0
  0
LINE
  5
305A
330
20EF
100
AcDbEntity
  8
AM_VIS
100
AcDbLine
 10
-1030.862851454735
 20
225.3262686006434
 30
0.0
 11
-1030.751761007731
 21
148.9435445343515
 31
0.0
  0
LINE
  5
305B
330
20EF
100
AcDbEntity
  8
AM_VIS
100
AcDbLine
 10
-1036.371264457129
 20
223.326268260353
 30
0.0
 11
-1036.187636879501
 21
148.9435441868137
 31
0.0
  0
LINE
  5
305C
330
20EF
100
AcDbEntity
  8
AM_VIS
100
AcDbLine
 10
-1031.656974416433
 20
225.3262688147995
 30
0.0
 11
-1031.656974416433
 21
224.8262688147995
 31
0.0
  0
LINE
  5
305D
330
20EF
100
AcDbEntity
  8
AM_VIS
100
AcDbLine
 10
-1014.906974416434
 20
224.8262688147995
 30
0.0
 11
-1016.156974416433
 21
224.8262688147995
 31
0.0
  0
LINE
  5
305E
330
20EF
100
AcDbEntity
  8
AM_VIS
100
AcDbLine
 10
-1031.656974416433
 20
224.8262688147995
 30
0.0
 11
-1032.906974416434
 21
224.8262688147995
 31
0.0
  0
LINE
  5
305F
330
20EF
100
AcDbEntity
  8
AM_VIS
100
AcDbLine
 10
-1003.425673347633
 20
159.8262685529971
 30
0.0
 11
-1003.06652220085
 21
199.8262685597357
 31
0.0
  0
ARC
  5
3060
330
20EF
100
AcDbEntity
  8
AM_VIS
100
AcDbCircle
 10
-1067.060216483435
 20
199.5326950201462
 30
0.0
 40
22.31474947705552
100
AcDbArc
 50
0.7538074619635148
 51
13.72270256236227
  0
LINE
  5
3061
330
20EF
100
AcDbEntity
  8
AM_VIS
100
AcDbLine
 10
-1018.906974416433
 20
199.8262688147995
 30
0.0
 11
-1018.906974416433
 21
159.8262688147995
 31
0.0
  0
ARC
  5
3062
330
20EF
100
AcDbEntity
  8
AM_VIS
100
AcDbCircle
 10
-1023.906974416433
 20
159.8262688147995
 30
0.0
 40
5.0
100
AcDbArc
 50
180.0
 51
0.0
  0
LINE
  5
3063
330
20EF
100
AcDbEntity
  8
AM_VIS
100
AcDbLine
 10
-1044.747426632017
 20
199.8262685597358
 30
0.0
 11
-1044.388275485234
 21
159.8262685529972
 31
0.0
  0
ARC
  5
3064
330
20EF
100
AcDbEntity
  8
AM_VIS
100
AcDbCircle
 10
-980.7537323494322
 20
199.5326950201456
 30
0.0
 40
22.31474947705495
100
AcDbArc
 50
166.2772974376369
 51
179.2461925380356
  0
ARC
  5
3065
330
20EF
100
AcDbEntity
  8
AM_VIS
100
AcDbCircle
 10
-1066.058690889702
 20
159.7129094362673
 30
0.0
 40
21.67074105514409
100
AcDbArc
 50
346.9680208599346
 51
0.2997148811260671
  0
ARC
  5
3066
330
20EF
100
AcDbEntity
  8
AM_VIS
100
AcDbCircle
 10
-981.7552579431566
 20
159.7129094362669
 30
0.0
 40
21.67074105515296
100
AcDbArc
 50
179.7002851188737
 51
193.0319791400587
  0
LINE
  5
3067
330
20EF
100
AcDbEntity
  8
AM_VIS
100
AcDbLine
 10
-1028.906974416433
 20
199.8262688147995
 30
0.0
 11
-1028.906974416433
 21
159.8262688147995
 31
0.0
  0
ARC
  5
3068
330
20EF
100
AcDbEntity
  8
AM_VIS
100
AcDbCircle
 10
-1023.906974416433
 20
199.8262688147995
 30
0.0
 40
5.0
100
AcDbArc
 50
0.0
 51
180.0
  0
LINE
  5
3069
330
20EF
100
AcDbEntity
  8
AM_VIS
100
AcDbLine
 10
-1036.070511292358
 20
147.8882067510685
 30
0.0
 11
-1034.80527524465
 21
143.7576535104223
 31
0.0
  0
LINE
  5
306A
330
20EF
100
AcDbEntity
  8
AM_VIS
100
AcDbLine
 10
-1043.257200782222
 20
147.891356499277
 30
0.0
 11
-1039.090632603592
 21
143.7609907512453
 31
0.0
  0
ARC
  5
306B
330
20EF
100
AcDbEntity
  8
AM_VIS
100
AcDbCircle
 10
-1009.779338293314
 20
144.8262687595017
 30
0.0
 40
1.49999994470231
100
AcDbArc
 50
269.9999991462263
 51
314.7500008852533
  0
SPLINE
  5
306C
330
20EF
100
AcDbEntity
  8
AM_VIS
100
AcDbSpline
210
0.0
220
0.0
230
1.0
 70
     8
 71
     3
 72
    12
 73
     8
 74
     0
 42
0.0000000001
 43
0.0000000001
 40
-1.223984536090348
 40
-1.223984536090348
 40
-1.223984536090348
 40
-1.223984536090348
 40
-1.221752649813002
 40
-1.221752649813002
 40
-0.6063716823398849
 40
-0.6063716823398849
 40
0.0
 40
0.0
 40
0.0
 40
0.0
 10
-1013.364514897778
 20
143.3262688147995
 30
0.0
 10
-1013.364280239198
 20
143.3262688147995
 30
0.0
 10
-1013.364045587658
 20
143.3262693143975
 30
0.0
 10
-1013.299114273372
 20
143.3265458169695
 30
0.0
 10
-1013.235390520192
 20
143.3648009056241
 30
0.0
 10
-1013.117753648099
 20
143.5137254507334
 30
0.0
 10
-1013.064556827283
 20
143.6222621174877
 30
0.0
 10
-1013.019568512855
 20
143.7609907513644
 30
0.0
  0
LINE
  5
306D
330
20EF
100
AcDbEntity
  8
AM_VIS
100
AcDbLine
 10
-1018.091816376379
 20
143.3262688147995
 30
0.0
 11
-1013.364514897778
 21
143.3262688147994
 31
0.0
  0
SPLINE
  5
306E
330
20EF
100
AcDbEntity
  8
AM_VIS
100
AcDbSpline
210
0.0
220
0.0
230
1.0
 70
     8
 71
     3
 72
    12
 73
     8
 74
     0
 42
0.0000000001
 43
0.0000000001
 40
0.0
 40
0.0
 40
0.0
 40
0.0
 40
0.5930711260102758
 40
0.5930711260102758
 40
1.190594073882564
 40
1.190594073882564
 40
1.192755197791194
 40
1.192755197791194
 40
1.192755197791194
 40
1.192755197791194
 10
-1017.886599525267
 20
143.7609907513644
 30
0.0
 10
-1017.913174428355
 20
143.6230770537734
 30
0.0
 10
-1017.944739507202
 20
143.5142136537688
 30
0.0
 10
-1018.014806963185
 20
143.3650289899958
 30
0.0
 10
-1018.052743956258
 20
143.326546697477
 30
0.0
 10
-1018.091536760812
 20
143.3262693146098
 30
0.0
 10
-1018.091676566168
 20
143.3262688147995
 30
0.0
 10
-1018.091816376378
 20
143.3262688147995
 30
0.0
  0
SPLINE
  5
306F
330
20EF
100
AcDbEntity
  8
AM_VIS
100
AcDbSpline
210
0.0
220
0.0
230
1.0
 70
     8
 71
     3
 72
    12
 73
     8
 74
     0
 42
0.0000000001
 43
0.0000000001
 40
-1.191072920087334
 40
-1.191072920087334
 40
-1.191072920087334
 40
-1.191072920087334
 40
-0.5977632662150666
 40
-0.5977632662150666
 40
0.0
 40
0.0
 40
0.0021619930932113
 40
0.0021619930932113
 40
0.0021619930932113
 40
0.0021619930932113
 10
-1029.9273493076
 20
143.7609907513646
 30
0.0
 10
-1029.900774404512
 20
143.6230770537735
 30
0.0
 10
-1029.869209325665
 20
143.5142136537688
 30
0.0
 10
-1029.799141869682
 20
143.3650289899961
 30
0.0
 10
-1029.76120487661
 20
143.326546697477
 30
0.0
 10
-1029.722412072056
 20
143.3262693146098
 30
0.0
 10
-1029.722272266699
 20
143.3262688147995
 30
0.0
 10
-1029.722132456489
 20
143.3262688147995
 30
0.0
  0
LINE
  5
3070
330
20EF
100
AcDbEntity
  8
AM_VIS
100
AcDbLine
 10
-1034.44943393509
 20
143.3262688147995
 30
0.0
 11
-1029.722132456489
 21
143.3262688147995
 31
0.0
  0
ARC
  5
3071
330
20EF
100
AcDbEntity
  8
AM_VIS
100
AcDbCircle
 10
-1038.034610539554
 20
144.8262687595009
 30
0.0
 40
1.499999944701414
100
AcDbArc
 50
225.2499991304714
 51
270.0000008695239
  0
SPLINE
  5
3072
330
20EF
100
AcDbEntity
  8
AM_VIS
100
AcDbSpline
210
0.0
220
0.0
230
1.0
 70
     8
 71
     3
 72
    12
 73
     8
 74
     0
 42
0.0000000001
 43
0.0000000001
 40
-0.0022342702688356
 40
-0.0022342702688356
 40
-0.0022342702688356
 40
-0.0022342702688356
 40
0.0
 40
0.0
 40
0.6160382872722267
 40
0.6160382872722267
 40
1.223057666124346
 40
1.223057666124346
 40
1.223057666124346
 40
1.223057666124346
 10
-1034.449433935089
 20
143.3262688147995
 30
0.0
 10
-1034.449668593669
 20
143.3262688147995
 30
0.0
 10
-1034.449903245209
 20
143.3262693143976
 30
0.0
 10
-1034.51483455949
 20
143.3265458169696
 30
0.0
 10
-1034.578558312674
 20
143.364800905623
 30
0.0
 10
-1034.696195184767
 20
143.5137254507335
 30
0.0
 10
-1034.749392005584
 20
143.6222621174878
 30
0.0
 10
-1034.794380320012
 20
143.7609907513646
 30
0.0
  0
LINE
  5
3073
330
20EF
100
AcDbEntity
  8
AM_VIS
100
AcDbLine
 10
-1007.573316229393
 20
143.7609907513644
 30
0.0
 11
-1003.406748053783
 21
147.8913564935551
 31
0.0
  0
LINE
  5
3074
330
20EF
100
AcDbEntity
  8
AM_VIS
100
AcDbLine
 10
-1002.431511772249
 20
204.8262688147994
 30
0.0
 11
-1002.313699057073
 21
223.3262688147995
 31
0.0
  0
LINE
  5
3075
330
20EF
100
AcDbEntity
  8
AM_VIS
100
AcDbLine
 10
-1002.962827255871
 20
148.9435447537426
 30
0.0
 11
-1002.867855161787
 21
154.8262688147993
 31
0.0
  0
LINE
  5
3076
330
20EF
100
AcDbEntity
  8
AM_VIS
100
AcDbLine
 10
-1045.382437060618
 20
204.8262688147996
 30
0.0
 11
-1045.500249775793
 21
223.3262688147995
 31
0.0
  0
LINE
  5
3077
330
20EF
100
AcDbEntity
  8
AM_VIS
100
AcDbLine
 10
-1044.851121576996
 20
148.9435447537428
 30
0.0
 11
-1044.946093671081
 21
154.8262688147995
 31
0.0
  0
LINE
  5
3078
330
20EF
100
AcDbEntity
  8
AM_VIS
100
AcDbLine
 10
-1040.240632603474
 20
143.7609907513647
 30
0.0
 11
-1044.407200779084
 21
147.8913564935553
 31
0.0
  0
LINE
  5
3079
330
20EF
100
AcDbEntity
  8
AM_VIS
100
AcDbLine
 10
-1008.629338316077
 20
143.3262688147994
 30
0.0
 11
-1009.779338316078
 21
143.3262688147994
 31
0.0
  0
LINE
  5
307A
330
20EF
100
AcDbEntity
  8
AM_VIS
100
AcDbLine
 10
-1009.779338316078
 20
143.3262688147994
 30
0.0
 11
-1013.364514897778
 21
143.3262688147994
 31
0.0
  0
LINE
  5
307B
330
20EF
100
AcDbEntity
  8
AM_VIS
100
AcDbLine
 10
-1018.091816376379
 20
143.3262688147995
 30
0.0
 11
-1029.722132456489
 21
143.3262688147995
 31
0.0
  0
LINE
  5
307C
330
20EF
100
AcDbEntity
  8
AM_VIS
100
AcDbLine
 10
-1034.449433935089
 20
143.3262688147995
 30
0.0
 11
-1038.03461051679
 21
143.3262688147995
 31
0.0
  0
LINE
  5
307D
330
20EF
100
AcDbEntity
  8
AM_VIS
100
AcDbLine
 10
-1038.03461051679
 20
143.3262688147995
 30
0.0
 11
-1039.18461051679
 21
143.3262688147995
 31
0.0
  0
ARC
  5
307E
330
20EF
100
AcDbEntity
  8
AM_VIS
100
AcDbCircle
 10
-1004.462770140467
 20
148.9566345569901
 30
0.0
 40
1.5
100
AcDbArc
 50
314.7499999999951
 51
359.5000000000003
  0
ARC
  5
307F
330
20EF
100
AcDbEntity
  8
AM_VIS
100
AcDbCircle
 10
-1043.3511786924
 20
148.9566345569902
 30
0.0
 40
1.5
100
AcDbArc
 50
180.4999999999981
 51
225.2500000000043
  0
ARC
  5
3080
330
20EF
100
AcDbEntity
  8
AM_VIS
100
AcDbCircle
 10
-1008.629338316077
 20
144.8262688147994
 30
0.0
 40
1.5
100
AcDbArc
 50
270.0
 51
314.7500000000078
  0
ARC
  5
3081
330
20EF
100
AcDbEntity
  8
AM_VIS
100
AcDbCircle
 10
-1039.18461051679
 20
144.8262688147995
 30
0.0
 40
1.5
100
AcDbArc
 50
225.2499999999922
 51
270.0
  0
LINE
  5
3082
330
20EF
100
AcDbEntity
  8
AM_VIS
100
AcDbLine
 10
-918.5008071626043
 20
225.8262688147995
 30
0.0
 11
-918.5008071626043
 21
236.8262688147995
 31
0.0
  0
LINE
  5
3083
330
20EF
100
AcDbEntity
  8
AM_VIS
100
AcDbLine
 10
-971.5008071626042
 20
236.8262688147995
 30
0.0
 11
-971.5008071626042
 21
225.8262688147995
 31
0.0
  0
LINE
  5
3084
330
20EF
100
AcDbEntity
  8
AM_VIS
100
AcDbLine
 10
-920.0008071626044
 20
236.8262688147995
 30
0.0
 11
-920.5870645466365
 21
276.3411035692736
 31
0.0
  0
LINE
  5
3085
330
20EF
100
AcDbEntity
  8
AM_VIS
100
AcDbLine
 10
-969.4145497785726
 20
276.3411035692736
 30
0.0
 11
-970.0008071626044
 21
236.8262688147995
 31
0.0
  0
ARC
  5
3086
330
20EF
100
AcDbEntity
  8
AM_VIS
100
AcDbCircle
 10
-956.0008071626045
 20
276.3262688147995
 30
0.0
 40
1.0
100
AcDbArc
 50
90.0
 51
180.0
  0
ARC
  5
3087
330
20EF
100
AcDbEntity
  8
AM_VIS
100
AcDbCircle
 10
-934.0008071626042
 20
276.3262688147995
 30
0.0
 40
1.0
100
AcDbArc
 50
0.0
 51
90.0
  0
LINE
  5
3088
330
20EF
100
AcDbEntity
  8
AM_VIS
100
AcDbLine
 10
-957.0008071626043
 20
276.3262688147995
 30
0.0
 11
-957.0008071626043
 21
273.9262688147995
 31
0.0
  0
LINE
  5
3089
330
20EF
100
AcDbEntity
  8
AM_VIS
100
AcDbLine
 10
-957.0008071626043
 20
273.5262688147994
 30
0.0
 11
-957.0008071626043
 21
273.9262688147994
 31
0.0
  0
LINE
  5
308A
330
20EF
100
AcDbEntity
  8
AM_VIS
100
AcDbLine
 10
-957.0008071626043
 20
273.9262688147995
 30
0.0
 11
-933.0008071626043
 21
273.9262688147995
 31
0.0
  0
LINE
  5
308B
330
20EF
100
AcDbEntity
  8
AM_VIS
100
AcDbLine
 10
-957.0008071626043
 20
270.1262688147995
 30
0.0
 11
-957.0008071626043
 21
273.5262688147994
 31
0.0
  0
LINE
  5
308C
330
20EF
100
AcDbEntity
  8
AM_VIS
100
AcDbLine
 10
-933.0008071626043
 20
273.5262688147994
 30
0.0
 11
-957.0008071626043
 21
273.5262688147994
 31
0.0
  0
LINE
  5
308D
330
20EF
100
AcDbEntity
  8
AM_VIS
100
AcDbLine
 10
-957.0008071626043
 20
269.7262688147995
 30
0.0
 11
-957.0008071626043
 21
270.1262688147995
 31
0.0
  0
LINE
  5
308E
330
20EF
100
AcDbEntity
  8
AM_VIS
100
AcDbLine
 10
-933.0008071626043
 20
270.1262688147995
 30
0.0
 11
-957.0008071626043
 21
270.1262688147995
 31
0.0
  0
LINE
  5
308F
330
20EF
100
AcDbEntity
  8
AM_VIS
100
AcDbLine
 10
-933.0008071626043
 20
270.1262688147995
 30
0.0
 11
-933.0008071626043
 21
269.7262688147995
 31
0.0
  0
LINE
  5
3090
330
20EF
100
AcDbEntity
  8
AM_VIS
100
AcDbLine
 10
-933.0008071626043
 20
273.5262688147994
 30
0.0
 11
-933.0008071626043
 21
270.1262688147995
 31
0.0
  0
LINE
  5
3091
330
20EF
100
AcDbEntity
  8
AM_VIS
100
AcDbLine
 10
-933.0008071626043
 20
273.9262688147994
 30
0.0
 11
-933.0008071626043
 21
273.5262688147994
 31
0.0
  0
LINE
  5
3092
330
20EF
100
AcDbEntity
  8
AM_VIS
100
AcDbLine
 10
-933.0008071626043
 20
273.9262688147995
 30
0.0
 11
-933.0008071626043
 21
276.3262688147995
 31
0.0
  0
LINE
  5
3093
330
20EF
100
AcDbEntity
  8
AM_VIS
100
AcDbLine
 10
-956.7800261519941
 20
225.8262688147995
 30
0.0
 11
-956.7800261519941
 21
236.8262688147995
 31
0.0
  0
LINE
  5
3094
330
20EF
100
AcDbEntity
  8
AM_VIS
100
AcDbLine
 10
-956.7800261519941
 20
236.8262688147995
 30
0.0
 11
-957.0008071626046
 21
236.8262688147995
 31
0.0
  0
LINE
  5
3095
330
20EF
100
AcDbEntity
  8
AM_VIS
100
AcDbLine
 10
-957.0008071626043
 20
240.7262688147995
 30
0.0
 11
-957.0008071626043
 21
236.8262688147995
 31
0.0
  0
LINE
  5
3096
330
20EF
100
AcDbEntity
  8
AM_VIS
100
AcDbLine
 10
-933.0008071626043
 20
236.8262688147995
 30
0.0
 11
-933.0008071626043
 21
240.7262688147995
 31
0.0
  0
LINE
  5
3097
330
20EF
100
AcDbEntity
  8
AM_VIS
100
AcDbLine
 10
-933.0008071626043
 20
236.8262688147995
 30
0.0
 11
-933.2215881732148
 21
236.8262688147995
 31
0.0
  0
LINE
  5
3098
330
20EF
100
AcDbEntity
  8
AM_VIS
100
AcDbLine
 10
-933.2215881732148
 20
236.8262688147995
 30
0.0
 11
-933.2215881732148
 21
225.8262688147995
 31
0.0
  0
LINE
  5
3099
330
20EF
100
AcDbEntity
  8
AM_VIS
100
AcDbLine
 10
-933.0008071626043
 20
244.5262688147995
 30
0.0
 11
-933.0008071626043
 21
241.1262688147995
 31
0.0
  0
LINE
  5
309A
330
20EF
100
AcDbEntity
  8
AM_VIS
100
AcDbLine
 10
-957.0008071626043
 20
241.1262688147995
 30
0.0
 11
-957.0008071626043
 21
244.5262688147995
 31
0.0
  0
LINE
  5
309B
330
20EF
100
AcDbEntity
  8
AM_VIS
100
AcDbLine
 10
-933.0008071626043
 20
241.1262688147995
 30
0.0
 11
-957.0008071626043
 21
241.1262688147995
 31
0.0
  0
LINE
  5
309C
330
20EF
100
AcDbEntity
  8
AM_VIS
100
AcDbLine
 10
-933.0008071626043
 20
241.1262688147995
 30
0.0
 11
-933.0008071626043
 21
240.7262688147995
 31
0.0
  0
LINE
  5
309D
330
20EF
100
AcDbEntity
  8
AM_VIS
100
AcDbLine
 10
-933.0008071626043
 20
240.7262688147995
 30
0.0
 11
-957.0008071626043
 21
240.7262688147995
 31
0.0
  0
LINE
  5
309E
330
20EF
100
AcDbEntity
  8
AM_VIS
100
AcDbLine
 10
-957.0008071626043
 20
240.7262688147995
 30
0.0
 11
-957.0008071626043
 21
241.1262688147995
 31
0.0
  0
LINE
  5
309F
330
20EF
100
AcDbEntity
  8
AM_VIS
100
AcDbLine
 10
-933.0008071626043
 20
244.9262688147994
 30
0.0
 11
-933.0008071626043
 21
244.5262688147995
 31
0.0
  0
LINE
  5
30A0
330
20EF
100
AcDbEntity
  8
AM_VIS
100
AcDbLine
 10
-933.0008071626043
 20
244.5262688147995
 30
0.0
 11
-957.0008071626043
 21
244.5262688147995
 31
0.0
  0
LINE
  5
30A1
330
20EF
100
AcDbEntity
  8
AM_VIS
100
AcDbLine
 10
-957.0008071626043
 20
244.5262688147995
 30
0.0
 11
-957.0008071626043
 21
244.9262688147994
 31
0.0
  0
LINE
  5
30A2
330
20EF
100
AcDbEntity
  8
AM_VIS
100
AcDbLine
 10
-957.0008071626043
 20
247.3262688147995
 30
0.0
 11
-957.0008071626043
 21
244.9262688147995
 31
0.0
  0
LINE
  5
30A3
330
20EF
100
AcDbEntity
  8
AM_VIS
100
AcDbLine
 10
-960.0008071626046
 20
249.3262688147995
 30
0.0
 11
-957.0008071626046
 21
247.3262688147995
 31
0.0
  0
LINE
  5
30A4
330
20EF
100
AcDbEntity
  8
AM_VIS
100
AcDbLine
 10
-960.0008071626044
 20
249.3262688147995
 30
0.0
 11
-960.0008071626044
 21
265.3262688147995
 31
0.0
  0
LINE
  5
30A5
330
20EF
100
AcDbEntity
  8
AM_VIS
100
AcDbLine
 10
-957.0008071626046
 20
267.3262688147995
 30
0.0
 11
-960.0008071626046
 21
265.3262688147995
 31
0.0
  0
LINE
  5
30A6
330
20EF
100
AcDbEntity
  8
AM_VIS
100
AcDbLine
 10
-957.0008071626043
 20
269.7262688147995
 30
0.0
 11
-957.0008071626043
 21
267.3262688147995
 31
0.0
  0
LINE
  5
30A7
330
20EF
100
AcDbEntity
  8
AM_VIS
100
AcDbLine
 10
-933.0008071626043
 20
269.7262688147995
 30
0.0
 11
-957.0008071626043
 21
269.7262688147995
 31
0.0
  0
LINE
  5
30A8
330
20EF
100
AcDbEntity
  8
AM_VIS
100
AcDbLine
 10
-933.0008071626043
 20
267.3262688147995
 30
0.0
 11
-933.0008071626043
 21
269.7262688147995
 31
0.0
  0
LINE
  5
30A9
330
20EF
100
AcDbEntity
  8
AM_VIS
100
AcDbLine
 10
-930.0008071626043
 20
265.3262688147995
 30
0.0
 11
-933.0008071626043
 21
267.3262688147995
 31
0.0
  0
LINE
  5
30AA
330
20EF
100
AcDbEntity
  8
AM_VIS
100
AcDbLine
 10
-930.0008071626043
 20
249.3262688147995
 30
0.0
 11
-930.0008071626043
 21
265.3262688147995
 31
0.0
  0
LINE
  5
30AB
330
20EF
100
AcDbEntity
  8
AM_VIS
100
AcDbLine
 10
-933.0008071626043
 20
247.3262688147995
 30
0.0
 11
-930.0008071626043
 21
249.3262688147995
 31
0.0
  0
LINE
  5
30AC
330
20EF
100
AcDbEntity
  8
AM_VIS
100
AcDbLine
 10
-933.0008071626043
 20
244.9262688147995
 30
0.0
 11
-933.0008071626043
 21
247.3262688147995
 31
0.0
  0
LINE
  5
30AD
330
20EF
100
AcDbEntity
  8
AM_VIS
100
AcDbLine
 10
-957.0008071626043
 20
244.9262688147994
 30
0.0
 11
-933.0008071626043
 21
244.9262688147994
 31
0.0
  0
SPLINE
  5
30AF
330
20EF
100
AcDbEntity
  8
AM_VIS
100
AcDbSpline
210
0.0
220
0.0
230
1.0
 70
    12
 71
     2
 72
     6
 73
     3
 74
     0
 42
0.0000000001
 43
0.0000000001
 40
0.0
 40
0.0
 40
0.0
 40
3.333802718682296
 40
3.333802718682296
 40
3.333802718682296
 10
-933.2215881732148
 20
225.8262688147995
 30
0.0
 41
1.0
 10
-934.6359091736301
 20
224.7215210173735
 30
0.0
 41
1.001601757869639
 10
-936.0008071626044
 20
223.8774302346325
 30
0.0
 41
1.000819973128151
  0
LINE
  5
30B0
330
20EF
100
AcDbEntity
  8
AM_VIS
100
AcDbLine
 10
-918.5008071626045
 20
225.8262688147995
 30
0.0
 11
-918.5008071626045
 21
223.8774302346322
 31
0.0
  0
LINE
  5
30B1
330
20EF
100
AcDbEntity
  8
AM_VIS
100
AcDbLine
 10
-971.5008071626042
 20
225.8262688147995
 30
0.0
 11
-971.5008071626042
 21
223.8774302346322
 31
0.0
  0
SPLINE
  5
30B2
330
20EF
100
AcDbEntity
  8
AM_VIS
100
AcDbSpline
210
-0.0000000000087252
220
-0.0000000000124344
230
-1.0
 70
    12
 71
     2
 72
     6
 73
     3
 74
     0
 42
0.0000000001
 43
0.0000000001
 40
1.146876347465834
 40
1.146876347465834
 40
1.146876347465834
 40
4.480679066148136
 40
4.480679066148136
 40
4.480679066148136
 10
-954.0008071626049
 20
223.8774302346325
 30
0.0000000000001137
 41
1.000819973128144
 10
-955.3657051515781
 20
224.7215210173735
 30
0.0
 41
1.001601757869626
 10
-956.7800261519941
 20
225.8262688147995
 30
0.0
 41
1.0
  0
LINE
  5
30B3
330
20EF
100
AcDbEntity
  8
AM_VIS
100
AcDbLine
 10
-971.5008302481626
 20
223.8774175491581
 30
0.0
 11
-971.1979678880268
 21
223.3262559140958
 31
0.0
  0
LINE
  5
30B4
330
20EF
100
AcDbEntity
  8
AM_VIS
100
AcDbLine
 10
-936.0008071626044
 20
225.3262688147995
 30
0.0
 11
-936.0008071626044
 21
223.8774302346322
 31
0.0
  0
LINE
  5
30B5
330
20EF
100
AcDbEntity
  8
AM_VIS
100
AcDbLine
 10
-936.0008071626046
 20
223.8774302346322
 30
0.0
 11
-936.0008071626046
 21
223.3262688147995
 31
0.0
  0
LINE
  5
30B6
330
20EF
100
AcDbEntity
  8
AM_VIS
100
AcDbLine
 10
-954.0008071626045
 20
223.8774302346324
 30
0.0
 11
-954.0008071626045
 21
223.3262688147995
 31
0.0
  0
LINE
  5
30B7
330
20EF
100
AcDbEntity
  8
AM_VIS
100
AcDbLine
 10
-954.0008071626044
 20
223.8774302346324
 30
0.0
 11
-954.0008071626044
 21
225.3262688147995
 31
0.0
  0
LINE
  5
30B8
330
20EF
100
AcDbEntity
  8
AM_VIS
100
AcDbLine
 10
-918.8036464371821
 20
223.3262559140958
 30
0.0
 11
-918.5007840770463
 21
223.8774175491581
 31
0.0
  0
LINE
  5
30B9
330
20EF
100
AcDbEntity
  8
AM_VIS
100
AcDbLine
 10
-954.0008071626044
 20
225.3262688147995
 30
0.0
 11
-936.0008071626044
 21
225.3262688147995
 31
0.0
  0
LINE
  5
30BA
330
20EF
100
AcDbEntity
  8
AM_VIS
100
AcDbLine
 10
-926.0864593210008
 20
277.3262688147995
 30
0.0
 11
-921.5869545056118
 21
277.3262688147995
 31
0.0
  0
LINE
  5
30BB
330
20EF
100
AcDbEntity
  8
AM_VIS
100
AcDbLine
 10
-926.0864593210008
 20
277.3262688147995
 30
0.0
 11
-934.0008071626042
 21
277.3262688147995
 31
0.0
  0
LINE
  5
30BC
330
20EF
100
AcDbEntity
  8
AM_VIS
100
AcDbLine
 10
-934.0008071626042
 20
277.3262688147995
 30
0.0
 11
-956.0008071626043
 21
277.3262688147995
 31
0.0
  0
LINE
  5
30BD
330
20EF
100
AcDbEntity
  8
AM_VIS
100
AcDbLine
 10
-956.0008071626045
 20
277.3262688147995
 30
0.0
 11
-963.9151550042081
 21
277.3262688147995
 31
0.0
  0
LINE
  5
30BE
330
20EF
100
AcDbEntity
  8
AM_VIS
100
AcDbLine
 10
-968.4146598195971
 20
277.3262688147995
 30
0.0
 11
-963.9151550042081
 21
277.3262688147995
 31
0.0
  0
LINE
  5
30BF
330
20EF
100
AcDbEntity
  8
AM_VIS
100
AcDbLine
 10
-933.0008071626043
 20
236.8262688147995
 30
0.0
 11
-918.5008071626043
 21
236.8262688147995
 31
0.0
  0
LINE
  5
30C0
330
20EF
100
AcDbEntity
  8
AM_VIS
100
AcDbLine
 10
-971.5008071626042
 20
236.8262688147995
 30
0.0
 11
-957.0008071626043
 21
236.8262688147995
 31
0.0
  0
ARC
  5
30C1
330
20EF
100
AcDbEntity
  8
AM_VIS
100
AcDbCircle
 10
-921.5869545056118
 20
276.3262688147995
 30
0.0
 40
1.0
100
AcDbArc
 50
0.8500000000008054
 51
90.0
  0
ARC
  5
30C2
330
20EF
100
AcDbEntity
  8
AM_VIS
100
AcDbCircle
 10
-968.4146598195971
 20
276.3262688147995
 30
0.0
 40
0.9999999999999912
100
AcDbArc
 50
90.0
 51
179.1499999999992
  0
CIRCLE
  5
30C3
330
20EF
100
AcDbEntity
  8
AM_VIS
100
AcDbCircle
 10
-945.0008071626044
 20
257.3262688147995
 30
0.0
 40
7.2
  0
LINE
  5
30C5
330
20EF
100
AcDbEntity
  8
AM_VIS
100
AcDbLine
 10
-933.2215881732148
 20
225.8262688147995
 30
0.0
 11
-918.5008071626043
 21
225.8262688147995
 31
0.0
  0
LINE
  5
30C6
330
20EF
100
AcDbEntity
  8
AM_VIS
100
AcDbLine
 10
-971.5008071626042
 20
225.8262688147995
 30
0.0
 11
-956.7800261519941
 21
225.8262688147995
 31
0.0
  0
LINE
  5
30C7
330
20EF
100
AcDbEntity
  8
AM_VIS
100
AcDbLine
 10
-954.0008071626044
 20
223.3262688147995
 30
0.0
 11
-971.1979444107848
 21
223.3262688147995
 31
0.0
  0
LINE
  5
30C8
330
20EF
100
AcDbEntity
  8
AM_VIS
100
AcDbLine
 10
-918.8036699144241
 20
223.3262688147995
 30
0.0
 11
-936.0008071626044
 21
223.3262688147995
 31
0.0
  0
LINE
  5
30C9
330
20EF
100
AcDbEntity
  8
AM_VIS
100
AcDbLine
 10
-936.9361099672614
 20
224.8262685674754
 30
0.0
 11
-936.9123454538467
 21
225.3262685686165
 31
0.0
  0
LINE
  5
30CA
330
20EF
100
AcDbEntity
  8
AM_VIS
100
AcDbLine
 10
-935.0008071626044
 20
142.3262688147995
 30
0.0
 11
-934.8674738292711
 21
143.3262688147995
 31
0.0
  0
LINE
  5
30CB
330
20EF
100
AcDbEntity
  8
AM_VIS
100
AcDbLine
 10
-955.0008071626043
 20
142.3262688147995
 30
0.0
 11
-955.1341404959375
 21
143.3262688147994
 31
0.0
  0
LINE
  5
30CC
330
20EF
100
AcDbEntity
  8
AM_VIS
100
AcDbLine
 10
-952.5008071626043
 20
142.3262688147995
 30
0.0
 11
-955.0008071626043
 21
142.3262688147995
 31
0.0
  0
LINE
  5
30CD
330
20EF
100
AcDbEntity
  8
AM_VIS
100
AcDbLine
 10
-935.0008071626044
 20
142.3262688147995
 30
0.0
 11
-937.5008071626046
 21
142.3262688147995
 31
0.0
  0
LINE
  5
30D0
330
20EF
100
AcDbEntity
  8
AM_VIS
100
AcDbLine
 10
-937.5008071626046
 20
142.3262688147995
 30
0.0
 11
-952.5008071626045
 21
142.3262688147996
 31
0.0
  0
LINE
  5
30E3
330
20EF
100
AcDbEntity
  8
AM_VIS
100
AcDbLine
 10
-934.1025063342751
 20
143.7576535103918
 30
0.0
 11
-932.8372702860898
 21
147.8882067577019
 31
0.0
  0
LINE
  5
30E4
330
20EF
100
AcDbEntity
  8
AM_VIS
100
AcDbLine
 10
-938.9731175221696
 20
143.7596646979277
 30
0.0
 11
-938.2243290171651
 21
147.8901167724198
 31
0.0
  0
LINE
  5
30E5
330
20EF
100
AcDbEntity
  8
AM_VIS
100
AcDbLine
 10
-964.3510335283933
 20
147.8913564992768
 30
0.0
 11
-960.1844653497629
 21
143.7609907512452
 31
0.0
  0
LINE
  5
30E6
330
20EF
100
AcDbEntity
  8
AM_VIS
100
AcDbLine
 10
-957.1643440385292
 20
147.8882067510683
 30
0.0
 11
-955.8991079908214
 21
143.7576535104222
 31
0.0
  0
LINE
  5
30E7
330
20EF
100
AcDbEntity
  8
AM_VIS
100
AcDbLine
 10
-951.777285308192
 20
147.8901167758952
 30
0.0
 11
-951.028496803079
 21
143.7596646979215
 31
0.0
  0
ARC
  5
30E8
330
20EF
100
AcDbEntity
  8
AM_VIS
100
AcDbCircle
 10
-936.7253434515161
 20
148.8938479959316
 30
0.0
 40
4.005277429975373
100
AcDbArc
 50
345.5051697012281
 51
0.7109339102440633
  0
ARC
  5
30E9
330
20EF
100
AcDbEntity
  8
AM_VIS
100
AcDbCircle
 10
-944.8288499568468
 20
148.8903819557537
 30
0.0
 40
6.672890315224662
100
AcDbArc
 50
351.3896440763346
 51
0.4564792813851528
  0
ARC
  5
30EA
330
20EF
100
AcDbEntity
  8
AM_VIS
100
AcDbCircle
 10
-926.7066029448928
 20
148.9566345841718
 30
0.0
 40
1.500000058479829
100
AcDbArc
 50
314.750001082463
 51
359.4999989811891
  0
ARC
  5
30EB
330
20EF
100
AcDbEntity
  8
AM_VIS
100
AcDbCircle
 10
-945.1727643684257
 20
148.8903819557492
 30
0.0
 40
6.672890315160935
100
AcDbArc
 50
179.5435207185725
 51
188.6103559237082
  0
ARC
  5
30EC
330
20EF
100
AcDbEntity
  8
AM_VIS
100
AcDbCircle
 10
-953.276270873499
 20
148.893847995955
 30
0.0
 40
4.005277430168679
100
AcDbArc
 50
179.2890660901247
 51
194.4948302984029
  0
ARC
  5
30ED
330
20EF
100
AcDbEntity
  8
AM_VIS
100
AcDbCircle
 10
-963.2950115150489
 20
148.9566345273276
 30
0.0
 40
1.499999923255947
100
AcDbArc
 50
180.4999988925171
 51
225.2500010438286
  0
LINE
  5
30EE
330
20EF
100
AcDbEntity
  8
AM_VIS
100
AcDbLine
 10
-938.1560205713064
 20
148.9435445343514
 30
0.0
 11
-938.0449301243025
 21
225.3262686006434
 31
0.0
  0
LINE
  5
30EF
330
20EF
100
AcDbEntity
  8
AM_VIS
100
AcDbLine
 10
-937.2508071626043
 20
224.8262688147994
 30
0.0
 11
-937.2508071626043
 21
225.3262688147995
 31
0.0
  0
LINE
  5
30F0
330
20EF
100
AcDbEntity
  8
AM_VIS
100
AcDbLine
 10
-932.7201446995355
 20
148.9435441868135
 30
0.0
 11
-932.5365171219091
 21
223.326268260353
 31
0.0
  0
LINE
  5
30F1
330
20EF
100
AcDbEntity
  8
AM_VIS
100
AcDbLine
 10
-925.2066600020416
 20
148.9435447537426
 30
0.0
 11
-924.5575318032443
 21
223.3262688147995
 31
0.0
  0
LINE
  5
30F2
330
20EF
100
AcDbEntity
  8
AM_VIS
100
AcDbLine
 10
-936.0008071626044
 20
224.8262688147994
 30
0.0
 11
-937.2508071626043
 21
224.8262688147994
 31
0.0
  0
LINE
  5
30F3
330
20EF
100
AcDbEntity
  8
AM_VIS
100
AcDbLine
 10
-965.4440825219644
 20
223.3262688147995
 30
0.0
 11
-964.7949543231671
 21
148.9435447537426
 31
0.0
  0
LINE
  5
30F4
330
20EF
100
AcDbEntity
  8
AM_VIS
100
AcDbLine
 10
-951.9566842009067
 20
225.3262686006434
 30
0.0
 11
-951.8455937539025
 21
148.9435445343514
 31
0.0
  0
LINE
  5
30F5
330
20EF
100
AcDbEntity
  8
AM_VIS
100
AcDbLine
 10
-957.4650972032999
 20
223.326268260353
 30
0.0
 11
-957.2814696256733
 21
148.9435441868136
 31
0.0
  0
LINE
  5
30F6
330
20EF
100
AcDbEntity
  8
AM_VIS
100
AcDbLine
 10
-952.7508071626042
 20
225.3262688147995
 30
0.0
 11
-952.7508071626042
 21
224.8262688147994
 31
0.0
  0
LINE
  5
30F7
330
20EF
100
AcDbEntity
  8
AM_VIS
100
AcDbLine
 10
-952.7508071626042
 20
224.8262688147994
 30
0.0
 11
-954.0008071626044
 21
224.8262688147994
 31
0.0
  0
ARC
  5
30F8
330
20EF
100
AcDbEntity
  8
AM_VIS
100
AcDbCircle
 10
-901.8475650956021
 20
199.532695020146
 30
0.0
 40
22.31474947705597
100
AcDbArc
 50
166.2772974376385
 51
179.2461925380364
  0
ARC
  5
30F9
330
20EF
100
AcDbEntity
  8
AM_VIS
100
AcDbCircle
 10
-902.8490906893418
 20
159.7129094362651
 30
0.0
 40
21.6707410551383
100
AcDbArc
 50
179.7002851188693
 51
193.0319791400632
  0
LINE
  5
30FA
330
20EF
100
AcDbEntity
  8
AM_VIS
100
AcDbLine
 10
-924.5195060938037
 20
159.8262685529971
 30
0.0
 11
-924.1603549470207
 21
199.8262685597357
 31
0.0
  0
LINE
  5
30FB
330
20EF
100
AcDbEntity
  8
AM_VIS
100
AcDbLine
 10
-950.0008071626043
 20
199.8262688147994
 30
0.0
 11
-950.0008071626043
 21
159.8262688147994
 31
0.0
  0
LINE
  5
30FC
330
20EF
100
AcDbEntity
  8
AM_VIS
100
AcDbLine
 10
-965.8412593781882
 20
199.8262685597358
 30
0.0
 11
-965.4821082314052
 21
159.8262685529971
 31
0.0
  0
ARC
  5
30FD
330
20EF
100
AcDbEntity
  8
AM_VIS
100
AcDbCircle
 10
-987.1525236358699
 20
159.7129094362652
 30
0.0
 40
21.67074105514115
100
AcDbArc
 50
346.9680208599389
 51
0.2997148811312178
  0
ARC
  5
30FE
330
20EF
100
AcDbEntity
  8
AM_VIS
100
AcDbCircle
 10
-945.0008071626045
 20
199.8262688147994
 30
0.0
 40
4.999999999999985
100
AcDbArc
 50
0.0
 51
180.0
  0
LINE
  5
30FF
330
20EF
100
AcDbEntity
  8
AM_VIS
100
AcDbLine
 10
-940.0008071626043
 20
199.8262688147994
 30
0.0
 11
-940.0008071626043
 21
159.8262688147994
 31
0.0
  0
ARC
  5
3100
330
20EF
100
AcDbEntity
  8
AM_VIS
100
AcDbCircle
 10
-945.0008071626044
 20
159.8262688147994
 30
0.0
 40
5.0
100
AcDbArc
 50
180.0
 51
0.0
  0
ARC
  5
3101
330
20EF
100
AcDbEntity
  8
AM_VIS
100
AcDbCircle
 10
-988.1540492296069
 20
199.5326950201461
 30
0.0
 40
22.31474947705607
100
AcDbArc
 50
0.7538074619635148
 51
13.72270256236147
  0
LINE
  5
3102
330
20EF
100
AcDbEntity
  8
AM_VIS
100
AcDbLine
 10
-929.8171489755642
 20
143.7609907513642
 30
0.0
 11
-925.650580800956
 21
147.8913564925601
 31
0.0
  0
SPLINE
  5
3103
330
20EF
100
AcDbEntity
  8
AM_VIS
100
AcDbSpline
210
0.0
220
0.0
230
1.0
 70
     8
 71
     3
 72
    12
 73
     8
 74
     0
 42
0.0000000001
 43
0.0000000001
 40
-1.223984536093833
 40
-1.223984536093833
 40
-1.223984536093833
 40
-1.223984536093833
 40
-1.221752649816529
 40
-1.221752649816529
 40
-0.606371682339853
 40
-0.606371682339853
 40
0.0
 40
0.0
 40
0.0
 40
0.0
 10
-934.4583476439488
 20
143.3262688147994
 30
0.0
 10
-934.4581129853692
 20
143.3262688147994
 30
0.0
 10
-934.4578783338286
 20
143.3262693143974
 30
0.0
 10
-934.3929470195444
 20
143.3265458169695
 30
0.0
 10
-934.329223266363
 20
143.3648009056237
 30
0.0
 10
-934.2115863942707
 20
143.5137254507334
 30
0.0
 10
-934.1583895734542
 20
143.6222621174877
 30
0.0
 10
-934.1134012590257
 20
143.7609907513644
 30
0.0
  0
LINE
  5
3104
330
20EF
100
AcDbEntity
  8
AM_VIS
100
AcDbLine
 10
-939.1856491225492
 20
143.3262688147994
 30
0.0
 11
-934.4583476439488
 21
143.3262688147994
 31
0.0
  0
SPLINE
  5
3105
330
20EF
100
AcDbEntity
  8
AM_VIS
100
AcDbSpline
210
0.0
220
0.0
230
1.0
 70
     8
 71
     3
 72
    12
 73
     8
 74
     0
 42
0.0000000001
 43
0.0000000001
 40
0.0
 40
0.0
 40
0.0
 40
0.0
 40
0.5930711260102657
 40
0.5930711260102657
 40
1.190594073882567
 40
1.190594073882567
 40
1.192755197791147
 40
1.192755197791147
 40
1.192755197791147
 40
1.192755197791147
 10
-938.9804322714375
 20
143.7609907513644
 30
0.0
 10
-939.0070071745258
 20
143.6230770537734
 30
0.0
 10
-939.0385722533723
 20
143.5142136537688
 30
0.0
 10
-939.1086397093554
 20
143.3650289899958
 30
0.0
 10
-939.1465767024287
 20
143.3265466974769
 30
0.0
 10
-939.1853695069826
 20
143.3262693146097
 30
0.0
 10
-939.1855093123387
 20
143.3262688147994
 30
0.0
 10
-939.1856491225492
 20
143.3262688147994
 30
0.0
  0
SPLINE
  5
3106
330
20EF
100
AcDbEntity
  8
AM_VIS
100
AcDbSpline
210
0.0
220
0.0
230
1.0
 70
     8
 71
     3
 72
    12
 73
     8
 74
     0
 42
0.0000000001
 43
0.0000000001
 40
-1.191072920087237
 40
-1.191072920087237
 40
-1.191072920087237
 40
-1.191072920087237
 40
-0.5977632662149855
 40
-0.5977632662149855
 40
0.0
 40
0.0
 40
0.0021619930933586
 40
0.0021619930933586
 40
0.0021619930933586
 40
0.0021619930933586
 10
-951.0211820537714
 20
143.7609907513644
 30
0.0
 10
-950.9946071506833
 20
143.6230770537734
 30
0.0
 10
-950.9630420718364
 20
143.5142136537688
 30
0.0
 10
-950.8929746158536
 20
143.365028989996
 30
0.0
 10
-950.8550376227804
 20
143.3265466974769
 30
0.0
 10
-950.8162448182265
 20
143.3262693146097
 30
0.0
 10
-950.8161050128702
 20
143.3262688147994
 30
0.0
 10
-950.8159652026597
 20
143.3262688147994
 30
0.0
  0
LINE
  5
3107
330
20EF
100
AcDbEntity
  8
AM_VIS
100
AcDbLine
 10
-955.5432666812601
 20
143.3262688147994
 30
0.0
 11
-950.8159652026597
 21
143.3262688147994
 31
0.0
  0
SPLINE
  5
3108
330
20EF
100
AcDbEntity
  8
AM_VIS
100
AcDbSpline
210
0.0
220
0.0
230
1.0
 70
     8
 71
     3
 72
    12
 73
     8
 74
     0
 42
0.0000000001
 43
0.0000000001
 40
-0.0022342702691178
 40
-0.0022342702691178
 40
-0.0022342702691178
 40
-0.0022342702691178
 40
0.0
 40
0.0
 40
0.616038287311689
 40
0.616038287311689
 40
1.22305766621014
 40
1.22305766621014
 40
1.22305766621014
 40
1.22305766621014
 10
-955.5432666812601
 20
143.3262688147994
 30
0.0
 10
-955.5435013398398
 20
143.3262688147994
 30
0.0
 10
-955.5437359913803
 20
143.3262693143974
 30
0.0
 10
-955.6086673056645
 20
143.3265458169695
 30
0.0
 10
-955.6723910588459
 20
143.3648009056238
 30
0.0
 10
-955.7900279309382
 20
143.5137254507334
 30
0.0
 10
-955.8432247517549
 20
143.6222621174877
 30
0.0
 10
-955.8882130661832
 20
143.7609907513644
 30
0.0
  0
ARC
  5
3109
330
20EF
100
AcDbEntity
  8
AM_VIS
100
AcDbCircle
 10
-959.1284432857248
 20
144.8262687595012
 30
0.0
 40
1.499999944701741
100
AcDbArc
 50
225.249998260953
 51
270.0
  0
ARC
  5
310A
330
20EF
100
AcDbEntity
  8
AM_VIS
100
AcDbCircle
 10
-930.8731710394841
 20
144.8262687595011
 30
0.0
 40
1.499999944701713
100
AcDbArc
 50
270.0
 51
314.750001739047
  0
LINE
  5
310B
330
20EF
100
AcDbEntity
  8
AM_VIS
100
AcDbLine
 10
-966.4762698067892
 20
204.8262688147995
 30
0.0
 11
-966.5940825219646
 21
223.3262688147995
 31
0.0
  0
LINE
  5
310C
330
20EF
100
AcDbEntity
  8
AM_VIS
100
AcDbLine
 10
-965.9449543231671
 20
148.9435447537426
 30
0.0
 11
-966.0399264172513
 21
154.8262688147995
 31
0.0
  0
LINE
  5
310D
330
20EF
100
AcDbEntity
  8
AM_VIS
100
AcDbLine
 10
-961.3344653496447
 20
143.7609907513644
 30
0.0
 11
-965.5010335252548
 21
147.8913564935552
 31
0.0
  0
LINE
  5
310E
330
20EF
100
AcDbEntity
  8
AM_VIS
100
AcDbLine
 10
-923.5253445184197
 20
204.8262688147995
 30
0.0
 11
-923.4075318032443
 21
223.3262688147995
 31
0.0
  0
LINE
  5
310F
330
20EF
100
AcDbEntity
  8
AM_VIS
100
AcDbLine
 10
-924.0566600020418
 20
148.9435447537426
 30
0.0
 11
-923.9616879079576
 21
154.8262688147995
 31
0.0
  0
LINE
  5
3110
330
20EF
100
AcDbEntity
  8
AM_VIS
100
AcDbLine
 10
-928.6671489755642
 20
143.7609907513644
 30
0.0
 11
-924.5005807999541
 21
147.8913564935552
 31
0.0
  0
LINE
  5
3111
330
20EF
100
AcDbEntity
  8
AM_VIS
100
AcDbLine
 10
-930.8731710622483
 20
143.3262688147994
 30
0.0
 11
-934.4583476439488
 21
143.3262688147994
 31
0.0
  0
LINE
  5
3112
330
20EF
100
AcDbEntity
  8
AM_VIS
100
AcDbLine
 10
-939.1856491225492
 20
143.3262688147994
 30
0.0
 11
-950.8159652026597
 21
143.3262688147994
 31
0.0
  0
LINE
  5
3113
330
20EF
100
AcDbEntity
  8
AM_VIS
100
AcDbLine
 10
-955.5432666812601
 20
143.3262688147994
 30
0.0
 11
-959.1284432629606
 21
143.3262688147994
 31
0.0
  0
LINE
  5
3114
330
20EF
100
AcDbEntity
  8
AM_VIS
100
AcDbLine
 10
-959.1284432629606
 20
143.3262688147995
 30
0.0
 11
-960.2784432629608
 21
143.3262688147995
 31
0.0
  0
LINE
  5
3115
330
20EF
100
AcDbEntity
  8
AM_VIS
100
AcDbLine
 10
-929.7231710622481
 20
143.3262688147995
 30
0.0
 11
-930.8731710622483
 21
143.3262688147995
 31
0.0
  0
ARC
  5
3116
330
20EF
100
AcDbEntity
  8
AM_VIS
100
AcDbCircle
 10
-925.5566028866379
 20
148.9566345569901
 30
0.0
 40
1.5
100
AcDbArc
 50
314.7499999999957
 51
359.5000000000011
  0
ARC
  5
3117
330
20EF
100
AcDbEntity
  8
AM_VIS
100
AcDbCircle
 10
-964.4450114385708
 20
148.9566345569901
 30
0.0
 40
1.5
100
AcDbArc
 50
180.4999999999989
 51
225.2500000000043
  0
ARC
  5
3118
330
20EF
100
AcDbEntity
  8
AM_VIS
100
AcDbCircle
 10
-960.2784432629608
 20
144.8262688147995
 30
0.0
 40
1.5
100
AcDbArc
 50
225.2500000000038
 51
270.0
  0
ARC
  5
3119
330
20EF
100
AcDbEntity
  8
AM_VIS
100
AcDbCircle
 10
-929.7231710622481
 20
144.8262688147995
 30
0.0
 40
1.499999999999999
100
AcDbArc
 50
270.0
 51
314.7499999999963
  0
DIMENSION
  5
311A
330
20EF
100
AcDbEntity
  8
DIM
100
AcDbDimension
  2
*D4
 10
-903.5400970741276
 20
257.3262688147995
 30
0.0
 11
-903.5400970741276
 21
267.3262688147993
 31
0.0
 70
   160
 71
     5
 42
20.0
  3
STANDARD
100
AcDbAlignedDimension
 13
-921.5869545056118
 23
277.3262688147995
 33
0.0
 14
-935.3008071626046
 24
257.3262688147995
 34
0.0
 50
90.0
100
AcDbRotatedDimension
1001
ACAD
1000
DSTYLE
1002
{
1070
    40
1040
1.5
1070
   279
1070
     0
1002
}
  0
DIMENSION
  5
311B
330
20EF
100
AcDbEntity
  8
DIM
100
AcDbDimension
  2
*D5
 10
-903.5400970741276
 20
122.3262688147995
 30
0.0
 11
-903.5400970741276
 21
189.8262688147995
 31
0.0
 70
   160
 71
     5
 42
135.0
  3
STANDARD
100
AcDbAlignedDimension
 13
-936.3008071626046
 23
257.3262688147995
 33
0.0
 14
-947.7508071626045
 24
122.3262688147995
 34
0.0
 50
90.0
100
AcDbRotatedDimension
1001
ACAD
1000
DSTYLE
1002
{
1070
    40
1040
1.5
1070
   279
1070
     0
1002
}
  0
DIMENSION
  5
311C
330
20EF
100
AcDbEntity
  8
DIM
100
AcDbDimension
  2
*D6
 10
-882.5330186748667
 20
122.3262688147995
 30
0.0
 11
-882.5330186748667
 21
199.8262688147995
 31
0.0
 70
   160
  1
(<>)
 71
     5
 42
155.0
  3
STANDARD
100
AcDbAlignedDimension
 13
-921.5869545056118
 23
277.3262688147995
 33
0.0
 14
-947.7508071626045
 24
122.3262688147995
 34
0.0
 50
90.0
100
AcDbRotatedDimension
1001
ACAD
1000
DSTYLE
1002
{
1070
    40
1040
1.5
1070
   279
1070
     0
1002
}
  0
LINE
  5
311D
330
20EF
100
AcDbEntity
  8
CENTER
  6
CENTER
100
AcDbLine
 10
-1053.677674866157
 20
257.3262688147995
 30
0.0
 11
-992.6093101083118
 21
257.3262688147995
 31
0.0
  0
INSERT
  5
31A6
330
20EF
100
AcDbEntity
  8
ASHADE
 62
     1
100
AcDbBlockReference
  2
AVE_RENDER
 10
0.0
 20
0.0
 30
0.0
1001
AVE_RENDER
1002
{
1070
     7
1000
Pref
1070
    50
1070
    20
1070
     1
1070
     0
1000

1070
    10
1070
     1
1070
    10
1040
1.0
1070
     1
1040
0.7
1040
1.0
1040
0.0
1040
10.0
1010
-1.0
1020
-1.0
1030
-1.0
1040
0.3
1070
    49
1070
     0
1070
     0
1010
1.0
1020
1.0
1030
1.0
1040
45.0
1070
     1
1070
     0
1000
WCS
1040
0.0
1070
     0
1040
10.0
1002
}
  0
INSERT
  5
31A7
330
20EF
100
AcDbEntity
  8
ASHADE
 62
     3
100
AcDbBlockReference
  2
AVE_RENDER
 10
0.0
 20
0.0
 30
0.0
1001
AVE_RENDER
1002
{
1070
     0
1000
Full Opt
1070
     0
1070
     1
1070
     1
1070
     1
1070
     0
1070
     0
1070
     0
1070
     1
1070
     1
1040
0.0001
1040
0.0001
1002
}
  0
INSERT
  5
31A8
330
20EF
100
AcDbEntity
  8
ASHADE
 62
     4
100
AcDbBlockReference
  2
AVE_RENDER
 10
0.0
 20
0.0
 30
0.0
1001
AVE_RENDER
1002
{
1070
     0
1000
Quick Opt
1070
     0
1070
     1
1070
     1
1070
     1
1070
     0
1070
     0
1070
     1
1002
}
  0
INSERT
  5
31A9
330
20EF
100
AcDbEntity
  8
ASHADE
 62
     5
100
AcDbBlockReference
  2
AVE_RENDER
 10
0.0
 20
0.0
 30
0.0
1001
AVE_RENDER
1002
{
1070
     1
1000
Scanl Opt
1070
     2
1070
     0
1070
     2
1040
2.0
1040
4.0
1070
     0
1070
     1
1070
     0
1040
0.03
1002
}
  0
INSERT
  5
31AA
330
20EF
100
AcDbEntity
  8
ASHADE
 62
     6
100
AcDbBlockReference
  2
AVE_RENDER
 10
0.0
 20
0.0
 30
0.0
1001
AVE_RENDER
1002
{
1070
     2
1000
Raytr Opt
1070
     2
1070
     0
1070
     2
1040
2.0
1040
4.0
1070
     0
1070
     1
1070
     1
1040
0.03
1070
     3
1040
0.03
1002
}
  0
INSERT
  5
31AB
330
20EF
100
AcDbEntity
  8
ASHADE
 62
     7
100
AcDbBlockReference
  2
AVE_RENDER
 10
0.0
 20
0.0
 30
0.0
1001
AVE_RENDER
1002
{
1070
     0
1000
RFile Opt
1070
     1
1070
   640
1070
   480
1070
 10000
1070
     1
1070
     8
1070
     8
1070
     0
1070
     0
1070
     0
1070
     0
1070
     0
1070
     0
1070
     0
1002
}
  0
INSERT
  5
31AC
330
20EF
100
AcDbEntity
  8
ASHADE
 62
     8
100
AcDbBlockReference
  2
AVE_RENDER
 10
0.0
 20
0.0
 30
0.0
1001
AVE_RENDER
1002
{
1070
     0
1000
Fog Opt
1070
     0
1070
     0
1040
0.0
1040
1.0
1040
0.0
1040
1.0
1010
0.5
1020
0.5
1030
0.5
1002
}
  0
INSERT
  5
31AD
330
20EF
100
AcDbEntity
  8
ASHADE
 62
     9
100
AcDbBlockReference
  2
AVE_RENDER
 10
0.0
 20
0.0
 30
0.0
1001
AVE_RENDER
1002
{
1070
     0
1000
BG Opt
1070
     0
1070
     1
1010
0.0
1020
0.0
1030
0.0
1010
1.0
1020
0.0
1030
0.0
1010
0.0
1020
1.0
1030
0.0
1010
0.0
1020
0.0
1030
1.0
1040
0.5
1040
0.33
1040
0.0
1000

1070
     1
1000

1070
     1
1070
     1
1040
1.0
1040
1.0
1040
0.0
1040
0.0
1070
     0
1002
}
  0
INSERT
  5
31B4
330
20EF
100
AcDbEntity
  8
ASHADE
 62
     1
100
AcDbBlockReference
  2
AVE_GLOBAL
 10
0.0
 20
0.0
 30
0.0
1001
AVE_MATERIAL
1002
{
1000
*整體*
1000
2
1000
整體修飾。
1002
{
1002
}
1002
{
1070
    63
1002
{
1002
{
1010
-1.0
1020
-1.0
1030
-1.0
1002
}
1040
0.6999999880790711
1000

1040
0.0
1002
{
1002
}
1040
0.0
1002
{
1002
}
1040
0.0
1002
}
1002
{
1002
{
1010
-1.0
1020
-1.0
1030
-1.0
1002
}
1040
1.0
1000

1040
0.0
1002
{
1002
}
1040
0.0
1002
{
1002
}
1040
0.0
1002
}
1002
{
1002
{
1010
-1.0
1020
-1.0
1030
-1.0
1002
}
1040
0.2000000029802322
1000

1040
0.0
1002
{
1002
}
1040
0.0
1002
{
1002
}
1040
0.0
1002
}
1002
{
1070
     0
1002
{
1070
     1
1002
{
1040
1.0
1040
1.0
1000

1040
0.0
1002
{
1002
}
1040
0.0
1002
{
1002
}
1040
0.0
1002
}
1002
}
1040
1.0
1040
0.0
1040
0.0
1002
}
1002
{
1040
1.0
1040
1.0
1000

1040
0.0
1002
{
1002
}
1040
0.0
1002
{
1002
}
1040
0.0
1002
}
1002
{
1040
0.5
1040
1.0
1000

1040
0.0
1002
{
1002
}
1040
0.0
1002
{
1002
}
1040
0.0
1002
}
1002
{
1070
     0
1040
0.0
1002
{
1002
}
1040
1.0
1002
{
1002
}
1040
0.0
1002
}
1002
{
1040
0.0
1002
{
1002
{
1010
0.0
1020
0.0
1030
0.0
1002
}
1040
1.0
1000

1040
0.0
1002
{
1002
}
1040
0.0
1002
{
1002
}
1040
0.0
1002
}
1002
}
1002
{
1002
{
1070
     1
1002
{
1040
0.0
1040
1.0
1000

1040
0.0
1002
{
1002
}
1040
0.0
1002
{
1002
}
1040
0.0
1002
}
1002
}
1040
0.0
1002
{
1002
}
1010
1.0
1020
0.0
1030
0.0
1010
0.0
1020
1.0
1030
0.0
1010
0.0
1020
0.0
1030
1.0
1070
     0
1002
}
1002
{
1002
{
1040
1.0
1040
1.0
1002
{
1070
     1
1002
{
1040
1.0
1040
1.0
1000

1040
0.0
1002
{
1002
}
1040
0.0
1002
{
1002
}
1040
0.0
1002
}
1002
}
1002
}
1070
     0
1040
0.0
1002
{
1002
}
1002
}
1002
{
1002
}
1002
}
1002
{
1071
        3
1070
     3
1070
     0
1002
{
1070
     2
1070
     0
1070
     0
1040
0.0
1002
}
1070
     0
1070
     2
1002
{
1002
}
1002
}
1002
{
1040
8030.0
1040
190.3000030517578
1040
0.3050000071525574
1040
228.0
1040
545.0
1040
14.0
1040
17.39999961853027
1040
0.4560000002384186
1002
}
1000

1002
}
  0
CIRCLE
  5
31B5
330
20EF
100
AcDbEntity
  8
0
100
AcDbCircle
 10
-945.0008071626044
 20
257.3262688147995
 30
0.0
 40
5.685199999999952
  0
LWPOLYLINE
  5
34E4
330
20EF
100
AcDbEntity
  8
LOGO
 62
     4
100
AcDbPolyline
 90
        4
 70
     1
 43
0.0
 10
-1088.965383049447
 20
94.90211139947692
 10
-852.2743830494471
 20
94.90211139947692
 10
-852.2743830494471
 20
378.4370446949706
 10
-1088.965383049447
 20
378.4370446949706
1001
GENIUS_GENREC_14
1002
{
1000
PYDIR
1011
-1088.965383049447
1021
378.4370446949706
1031
0.0
1002
}
1002
{
1000
PXDIR
1011
-852.2743830494471
1021
94.90211139947692
1031
0.0
1002
}
1002
{
1000
PORI
1011
-1088.965383049447
1021
94.90211139947692
1031
0.0
1002
}
1002
{
1000
PINS
1011
-1088.965383049447
1021
94.90211139947692
1031
0.0
1002
}
1002
{
1000
PINS2
1011
-852.2743830494471
1021
378.4370446949706
1031
0.0
1002
}
1002
{
1000
C
1070
     1
1002
}
1001
GENIUS_GENODEF_13
1002
{
1000
HIER
1070
     0
1002
}
1002
{
1000
MANEDIT
1070
     0
1002
}
1002
{
1000
NOSEL
1070
     0
1002
}
1002
{
1000
BEHIND
1070
     0
1002
}
1002
{
1000
OTHER
1070
     0
1002
}
1002
{
1000
REACTOR
1002
}
1001
GENIUS_GENOBJ-N-REC_13
1002
{
1000
OWNER
1000
GEN
1002
}
  0
LWPOLYLINE
  5
34E5
330
20EF
100
AcDbEntity
  8
LOGO
 62
     4
100
AcDbPolyline
 90
        4
 70
     1
 43
0.0
 10
-1088.965383049447
 20
94.90211139947692
 10
-852.2743830494471
 20
94.90211139947692
 10
-852.2743830494471
 20
71.23643859947648
 10
-1088.965383049447
 20
71.23643859947648
1001
GENIUS_GENREC_14
1002
{
1000
PYDIR
1011
-1088.965383049447
1021
71.23643859947648
1031
0.0
1002
}
1002
{
1000
PXDIR
1011
-852.2743830494471
1021
94.90211139947692
1031
0.0
1002
}
1002
{
1000
PORI
1011
-1088.965383049447
1021
94.90211139947692
1031
0.0
1002
}
1002
{
1000
PINS
1011
-1088.965383049447
1021
94.90211139947692
1031
0.0
1002
}
1002
{
1000
PINS2
1011
-852.2743830494471
1021
71.23643859947648
1031
0.0
1002
}
1002
{
1000
C
1070
     1
1002
}
1001
GENIUS_GENOBJ-N-REC_13
1002
{
1000
OWNER
1000
GEN
1002
}
1001
GENIUS_GENODEF_13
1002
{
1000
HIER
1070
     0
1002
}
1002
{
1000
MANEDIT
1070
     0
1002
}
1002
{
1000
NOSEL
1070
     0
1002
}
1002
{
1000
BEHIND
1070
     0
1002
}
1002
{
1000
OTHER
1070
     0
1002
}
1002
{
1000
REACTOR
1002
}
  0
TEXT
  5
34E6
330
20EF
100
AcDbEntity
  8
LOGO
 62
     7
100
AcDbText
 10
-1035.529860875987
 20
84.53458285163073
 30
0.0
 40
3.155423039999999
  1
Order example:
 41
0.8
  7
CHINESET
100
AcDbText
  0
TEXT
  5
34E7
330
20EF
100
AcDbEntity
  8
LOGO
 62
     7
100
AcDbText
 10
-1034.963751888324
 20
88.97676515327381
 30
0.0
 40
4.733134559999998
  1
訂購代號：
  7
CHINESET
100
AcDbText
  0
LINE
  5
34E8
330
20EF
100
AcDbEntity
  8
LOGO
 62
     4
100
AcDbLine
 10
-1036.900902889447
 20
71.2364385994768
 30
0.0
 11
-1036.900902889447
 21
94.90211139947692
 31
0.0
  0
TEXT
  5
34E9
330
20EF
100
AcDbEntity
  8
LOGO
  6
Continuous
100
AcDbText
 10
-1080.46456700043
 20
75.88552430642258
 30
0.0
 40
3.54985092
  1
金器工業股份有限公司
  7
CHINESET
100
AcDbText
  0
TEXT
  5
34EA
330
20EF
100
AcDbEntity
  8
LOGO
  6
Continuous
100
AcDbText
 10
-1086.984940837099
 20
72.33497789396134
 30
0.0
 40
2.366567279999999
  1
MINDMAN INDUSTRIAL CO., LTD.
 41
0.85
  7
CHINESET
100
AcDbText
  0
LINE
  5
34EB
330
20EF
100
AcDbEntity
  8
LOGO
 62
     4
100
AcDbLine
 10
-1036.900902889447
 20
90.16897683947693
 30
0.0
 11
-1071.610556329447
 21
90.16897683947693
 31
0.0
  0
LINE
  5
34EC
330
20EF
100
AcDbEntity
  8
LOGO
 62
     4
100
AcDbLine
 10
-1036.900902889447
 20
85.43584227947686
 30
0.0
 11
-1071.610556329447
 21
85.43584227947686
 31
0.0
  0
LINE
  5
34ED
330
20EF
100
AcDbEntity
  8
LOGO
 62
     4
100
AcDbLine
 10
-1036.900902889447
 20
80.70270771947711
 30
0.0
 11
-1088.965383049447
 21
80.70270771947711
 31
0.0
  0
LINE
  5
34EE
330
20EF
100
AcDbEntity
  8
LOGO
 62
     4
100
AcDbLine
 10
-1071.610556329447
 20
80.70270771947711
 30
0.0
 11
-1071.610556329447
 21
94.90211139947692
 31
0.0
  0
TEXT
  5
34EF
330
20EF
100
AcDbEntity
  8
LOGO
100
AcDbText
 10
-1047.888146473895
 20
81.8859913594767
 30
0.0
 40
2.366567279999999
  1
mm
  7
CHINESET
 72
     1
 11
-1044.958110793896
 21
83.0692749994767
 31
0.0
100
AcDbText
 73
     2
  0
TEXT
  5
34F0
330
20EF
100
AcDbEntity
  8
LOGO
100
AcDbText
 10
-1049.127776953895
 20
91.35226047947677
 30
0.0
 40
2.366567279999999
  1
1 : 1
  7
CHINESET
 72
     1
 11
-1044.958110793896
 21
92.53554411947677
 31
0.0
100
AcDbText
 73
     2
  0
LINE
  5
34F1
330
20EF
100
AcDbEntity
  8
LOGO
 62
     4
100
AcDbLine
 10
-1052.678018089447
 20
80.70270771947711
 30
0.0
 11
-1052.678018089447
 21
94.90211139947692
 31
0.0
  0
CIRCLE
  5
34F2
330
20EF
100
AcDbEntity
  8
LOGO
  6
Continuous
100
AcDbCircle
 10
-1048.296022764971
 20
87.80747166420693
 30
0.0
 40
1.374084665482602
  0
CIRCLE
  5
34F3
330
20EF
100
AcDbEntity
  8
LOGO
  6
Continuous
100
AcDbCircle
 10
-1048.296022764971
 20
87.80747166420693
 30
0.0
 40
0.8050919731396442
  0
LINE
  5
34F4
330
20EF
100
AcDbEntity
  8
LOGO
100
AcDbLine
 10
-1039.661115285037
 20
86.43338699872408
 30
0.0
 11
-1039.661115285037
 21
89.18155632968982
 31
0.0
  0
LINE
  5
34F5
330
20EF
100
AcDbEntity
  8
LOGO
100
AcDbLine
 10
-1043.968791835101
 20
87.00237969106746
 30
0.0
 11
-1043.968791835101
 21
88.61256363734675
 31
0.0
  0
LINE
  5
34F6
330
20EF
100
AcDbEntity
  8
LOGO
  6
Continuous
100
AcDbLine
 10
-1043.968791835101
 20
88.61256363734675
 30
0.0
 11
-1039.661115285037
 21
89.18155632968982
 31
0.0
  0
LINE
  5
34F7
330
20EF
100
AcDbEntity
  8
LOGO
  6
Continuous
100
AcDbLine
 10
-1043.968791835101
 20
87.00237969106746
 30
0.0
 11
-1039.661115285037
 21
86.43338699872408
 31
0.0
  0
TEXT
  5
34F8
330
20EF
100
AcDbEntity
  8
LOGO
100
AcDbText
 10
-1069.659194826697
 20
91.35342512872872
 30
155.1009208393597
 40
2.366567279999999
  1
比例 Scale:
 41
0.9
  7
CHINESET
 72
     4
 11
-1062.144287209447
 21
92.53554411947677
 31
155.1009208393597
100
AcDbText
  0
TEXT
  5
34F9
330
20EF
100
AcDbEntity
  8
LOGO
100
AcDbText
 10
-1069.795483745947
 20
86.65241547726221
 30
155.1009208393597
 40
2.366567279999999
  1
投影  View:
 41
0.9
  7
CHINESET
 72
     4
 11
-1062.144287209447
 21
87.80240955947677
 31
155.1009208393597
100
AcDbText
  0
TEXT
  5
34FA
330
20EF
100
AcDbEntity
  8
LOGO
100
AcDbText
 10
-1069.564109534197
 20
81.8859913594767
 30
155.1009208393597
 40
2.366567279999999
  1
單位  Unit:
 41
0.9
  7
CHINESET
 72
     4
 11
-1062.144287209447
 21
83.0692749994767
 31
155.1009208393597
100
AcDbText
  0
SOLID
  5
34FB
330
20EF
100
AcDbEntity
  8
LOGO
 62
     5
100
AcDbTrace
 10
-1086.510031515931
 20
84.63678896815036
 30
0.0
 11
-1085.486789922785
 21
84.63678896815007
 31
0.0
 12
-1081.217402585863
 22
94.33994200660945
 32
0.0
 13
-1080.194160992716
 23
94.33994200660892
 33
0.0
  0
SOLID
  5
34FC
330
20EF
100
AcDbEntity
  8
LOGO
 62
     5
100
AcDbTrace
 10
-1085.063379608378
 20
84.63678896815036
 30
0.0
 11
-1084.040138015232
 21
84.63678896815036
 31
0.0
 12
-1080.194160992716
 22
93.56368976353234
 32
0.0
 13
-1081.217402585863
 23
89.81180392199478
 33
0.0
  0
SOLID
  5
34FD
330
20EF
100
AcDbEntity
  8
LOGO
 62
     2
100
AcDbTrace
 10
-1085.486789922785
 20
84.63678896815007
 30
0.0
 11
-1085.063379608378
 21
84.63678896815036
 31
0.0
 12
-1080.194160992716
 22
94.33994200660892
 32
0.0
 13
-1079.77075067831
 23
94.33994200660892
 33
0.0
  0
SOLID
  5
34FE
330
20EF
100
AcDbEntity
  8
LOGO
 62
     5
100
AcDbTrace
 10
-1088.150538719321
 20
81.10836968143829
 30
0.0
 11
-1087.797696790649
 21
81.10836968143829
 31
0.0
 12
-1086.80406645649
 22
82.87257932479416
 32
0.0
 13
-1086.45122452782
 23
82.87257932479416
 33
0.0
  0
SOLID
  5
34FF
330
20EF
100
AcDbEntity
  8
LOGO
 62
     5
100
AcDbTrace
 10
-1086.80406645649
 20
82.87257932479416
 30
0.0
 11
-1086.45122452782
 21
82.87257932479416
 31
0.0
 12
-1086.80406645649
 22
81.10836968143829
 32
0.0
 13
-1086.45122452782
 23
81.10836968143829
 33
0.0
  0
SOLID
  5
3500
330
20EF
100
AcDbEntity
  8
LOGO
 62
     5
100
AcDbTrace
 10
-1086.80406645649
 20
81.10836968143829
 30
0.0
 11
-1086.45122452782
 21
81.10836968143829
 31
0.0
 12
-1085.457594193659
 22
82.87257932479416
 32
0.0
 13
-1085.104752264988
 23
82.87257932479416
 33
0.0
  0
SOLID
  5
3501
330
20EF
100
AcDbEntity
  8
LOGO
 62
     5
100
AcDbTrace
 10
-1085.457594193659
 20
82.87257932479416
 30
0.0
 11
-1085.104752264988
 21
82.87257932479416
 31
0.0
 12
-1085.457594193659
 22
81.10836968143829
 32
0.0
 13
-1085.104752264988
 23
81.10836968143829
 33
0.0
  0
POLYLINE
  5
3502
330
20EF
100
AcDbEntity
  8
LOGO
 62
     5
100
AcDb2dPolyline
 66
     1
 10
0.0
 20
0.0
 30
0.0
 40
0.35340738048
 41
0.35340738048
  0
VERTEX
  5
3503
330
3502
100
AcDbEntity
  8
LOGO
 62
     5
100
AcDbVertex
100
AcDb2dVertex
 10
-1073.630452941717
 20
82.16689546745174
 30
0.0
 42
1.0
  0
VERTEX
  5
3504
330
3502
100
AcDbEntity
  8
LOGO
 62
     5
100
AcDbVertex
100
AcDb2dVertex
 10
-1074.690675083157
 20
82.16689546745174
 30
0.0
 42
1.0
  0
SEQEND
  5
3505
330
3502
100
AcDbEntity
  8
LOGO
 62
     5
  0
POLYLINE
  5
3506
330
20EF
100
AcDbEntity
  8
LOGO
 62
     5
100
AcDb2dPolyline
 66
     1
 10
0.0
 20
0.0
 30
0.0
 70
     1
  0
VERTEX
  5
3507
330
3506
100
AcDbEntity
  8
LOGO
 62
     5
100
AcDbVertex
100
AcDb2dVertex
 10
-1076.689240978454
 20
81.99047450311596
 30
0.0
 42
1.000000057330635
  0
VERTEX
  5
3508
330
3506
100
AcDbEntity
  8
LOGO
 62
     5
100
AcDbVertex
100
AcDb2dVertex
 10
-1075.630715192439
 20
81.99047450311596
 30
0.0
 42
1.000000057330635
  0
SEQEND
  5
3509
330
3506
100
AcDbEntity
  8
LOGO
 62
     5
  0
CIRCLE
  5
350A
330
20EF
100
AcDbEntity
  8
LOGO
 62
     5
100
AcDbCircle
 10
-1076.159978085445
 20
81.99047450311596
 30
0.0
 40
0.5292628930068481
  0
POLYLINE
  5
350B
330
20EF
100
AcDbEntity
  8
LOGO
 62
     5
100
AcDb2dPolyline
 66
     1
 10
0.0
 20
0.0
 30
0.0
 70
     1
 40
0.35340738048
 41
0.35340738048
  0
VERTEX
  5
350C
330
350B
100
AcDbEntity
  8
LOGO
 62
     5
100
AcDbVertex
100
AcDb2dVertex
 10
-1076.866792846406
 20
81.99047450311596
 30
0.0
 42
1.0
  0
VERTEX
  5
350D
330
350B
100
AcDbEntity
  8
LOGO
 62
     5
100
AcDbVertex
100
AcDb2dVertex
 10
-1075.453163324486
 20
81.99047450311596
 30
0.0
 42
1.0
  0
SEQEND
  5
350E
330
350B
100
AcDbEntity
  8
LOGO
 62
     5
  0
LINE
  5
350F
330
20EF
100
AcDbEntity
  8
LOGO
100
AcDbLine
 10
-1073.454880155095
 20
81.10836968143829
 30
0.0
 11
-1073.454880155095
 21
82.16689546745174
 31
0.0
  0
SOLID
  5
3510
330
20EF
100
AcDbEntity
  8
LOGO
 62
     5
100
AcDbTrace
 10
-1075.630750476631
 20
82.87257932479416
 30
0.0
 11
-1075.27790854796
 21
82.87257932479416
 31
0.0
 12
-1075.630750476631
 22
81.10836968143829
 32
0.0
 13
-1075.27790854796
 23
81.10836968143829
 33
0.0
  0
SOLID
  5
3511
330
20EF
100
AcDbEntity
  8
LOGO
 62
     5
100
AcDbTrace
 10
-1074.86624786978
 20
81.10836968143829
 30
0.0
 11
-1074.513405941108
 21
81.10836968143829
 31
0.0
 12
-1074.86624786978
 22
82.87257932479416
 32
0.0
 13
-1074.513405941108
 23
82.87257932479416
 33
0.0
  0
SOLID
  5
3512
330
20EF
100
AcDbEntity
  8
LOGO
 62
     5
100
AcDbTrace
 10
-1073.807722083766
 20
82.16689546745174
 30
0.0
 11
-1073.454880155095
 21
82.16689546745174
 31
0.0
 12
-1073.807722083766
 22
81.10836968143829
 32
0.0
 13
-1073.454880155095
 23
81.10836968143829
 33
0.0
  0
SOLID
  5
3513
330
20EF
100
AcDbEntity
  8
LOGO
 62
     5
100
AcDbTrace
 10
-1074.901532062647
 20
93.56368976353234
 30
0.0
 11
-1075.924773655794
 21
89.81180392199478
 31
0.0
 12
-1074.901532062647
 22
84.63678896815007
 32
0.0
 13
-1075.924773655794
 23
84.63678896815007
 33
0.0
  0
SOLID
  5
3514
330
20EF
100
AcDbEntity
  8
LOGO
 62
     5
100
AcDbTrace
 10
-1074.478121748241
 20
84.63678896815007
 30
0.0
 11
-1073.454880155095
 21
84.63678896815007
 31
0.0
 12
-1074.478121748241
 22
94.33994200660892
 32
0.0
 13
-1073.454880155095
 23
94.33994200660945
 33
0.0
  0
SOLID
  5
3515
330
20EF
100
AcDbEntity
  8
LOGO
 62
     2
100
AcDbTrace
 10
-1074.901532062647
 20
94.33994200660945
 30
0.0
 11
-1074.478121748241
 21
94.33994200660892
 31
0.0
 12
-1074.901532062647
 22
84.63678896815007
 32
0.0
 13
-1074.478121748241
 23
84.63678896815007
 33
0.0
  0
POLYLINE
  5
3516
330
20EF
100
AcDbEntity
  8
LOGO
 62
     5
100
AcDb2dPolyline
 66
     1
 10
0.0
 20
0.0
 30
0.0
 40
0.35340738048
 41
0.35340738048
  0
VERTEX
  5
3517
330
3516
100
AcDbEntity
  8
LOGO
 62
     5
100
AcDbVertex
100
AcDb2dVertex
 10
-1078.687877442134
 20
82.16689546745174
 30
0.0
 42
1.0
  0
VERTEX
  5
3518
330
3516
100
AcDbEntity
  8
LOGO
 62
     5
100
AcDbVertex
100
AcDb2dVertex
 10
-1079.748099583573
 20
82.16689546745174
 30
0.0
 42
1.0
  0
SEQEND
  5
3519
330
3516
100
AcDbEntity
  8
LOGO
 62
     5
  0
POLYLINE
  5
351A
330
20EF
100
AcDbEntity
  8
LOGO
 62
     5
100
AcDb2dPolyline
 66
     1
 10
0.0
 20
0.0
 30
0.0
 40
0.35340738048
 41
0.35340738048
  0
VERTEX
  5
351B
330
351A
100
AcDbEntity
  8
LOGO
 62
     5
100
AcDbVertex
100
AcDb2dVertex
 10
-1077.629351656121
 20
82.16689546745174
 30
0.0
 42
1.0
  0
VERTEX
  5
351C
330
351A
100
AcDbEntity
  8
LOGO
 62
     5
100
AcDbVertex
100
AcDb2dVertex
 10
-1078.68957379756
 20
82.16689546745174
 30
0.0
 42
1.0
  0
SEQEND
  5
351D
330
351A
100
AcDbEntity
  8
LOGO
 62
     5
  0
POLYLINE
  5
351E
330
20EF
100
AcDbEntity
  8
LOGO
 62
     5
100
AcDb2dPolyline
 66
     1
 10
0.0
 20
0.0
 30
0.0
 40
0.35340738048
 41
0.35340738048
  0
VERTEX
  5
351F
330
351E
100
AcDbEntity
  8
LOGO
 62
     5
100
AcDbVertex
100
AcDb2dVertex
 10
-1082.686776156537
 20
82.16689546745174
 30
0.0
 42
1.0
  0
VERTEX
  5
3520
330
351E
100
AcDbEntity
  8
LOGO
 62
     5
100
AcDbVertex
100
AcDb2dVertex
 10
-1083.746998297977
 20
82.16689546745174
 30
0.0
 42
1.0
  0
SEQEND
  5
3521
330
351E
100
AcDbEntity
  8
LOGO
 62
     5
  0
SOLID
  5
3522
330
20EF
100
AcDbEntity
  8
LOGO
 62
     5
100
AcDbTrace
 10
-1083.922571084599
 20
82.87257932479416
 30
0.0
 11
-1083.569729155928
 21
82.87257932479416
 31
0.0
 12
-1083.922571084599
 22
81.10836968143829
 32
0.0
 13
-1083.569729155928
 23
81.10836968143829
 33
0.0
  0
SOLID
  5
3523
330
20EF
100
AcDbEntity
  8
LOGO
 62
     5
100
AcDbTrace
 10
-1082.864045298585
 20
82.16689546745174
 30
0.0
 11
-1082.511203369914
 21
82.16689546745174
 31
0.0
 12
-1082.864045298585
 22
81.10836968143829
 32
0.0
 13
-1082.511203369914
 23
81.10836968143829
 33
0.0
  0
POLYLINE
  5
3524
330
20EF
100
AcDbEntity
  8
LOGO
 62
     5
100
AcDb2dPolyline
 66
     1
 10
0.0
 20
0.0
 30
0.0
 70
     1
 40
0.35340738048
 41
0.35340738048
  0
VERTEX
  5
3525
330
3524
100
AcDbEntity
  8
LOGO
 62
     5
100
AcDbVertex
100
AcDb2dVertex
 10
-1081.924217346823
 20
81.99047450311596
 30
0.0
 42
1.0
  0
VERTEX
  5
3526
330
3524
100
AcDbEntity
  8
LOGO
 62
     5
100
AcDbVertex
100
AcDb2dVertex
 10
-1080.510587824902
 20
81.99047450311596
 30
0.0
 42
1.0
  0
SEQEND
  5
3527
330
3524
100
AcDbEntity
  8
LOGO
 62
     5
  0
SOLID
  5
3528
330
20EF
100
AcDbEntity
  8
LOGO
 62
     5
100
AcDbTrace
 10
-1080.688174977048
 20
83.40184221780132
 30
0.0
 11
-1080.335333048377
 21
83.40184221780132
 31
0.0
 12
-1080.688174977048
 22
81.10836968143829
 32
0.0
 13
-1080.335333048377
 23
81.10836968143829
 33
0.0
  0
SOLID
  5
3529
330
20EF
100
AcDbEntity
  8
LOGO
 62
     5
100
AcDbTrace
 10
-1079.923672370195
 20
82.87257932479416
 30
0.0
 11
-1079.570830441525
 21
82.87257932479416
 31
0.0
 12
-1079.923672370195
 22
81.10836968143829
 32
0.0
 13
-1079.570830441525
 23
81.10836968143829
 33
0.0
  0
SOLID
  5
352A
330
20EF
100
AcDbEntity
  8
LOGO
 62
     5
100
AcDbTrace
 10
-1078.865146584183
 20
82.16689546745174
 30
0.0
 11
-1078.512304655511
 21
82.16689546745174
 31
0.0
 12
-1078.865146584183
 22
81.10836968143829
 32
0.0
 13
-1078.512304655511
 23
81.10836968143829
 33
0.0
  0
SOLID
  5
352B
330
20EF
100
AcDbEntity
  8
LOGO
 62
     5
100
AcDbTrace
 10
-1077.806620798169
 20
82.16689546745174
 30
0.0
 11
-1077.453778869498
 21
82.16689546745174
 31
0.0
 12
-1077.806620798169
 22
81.10836968143775
 32
0.0
 13
-1077.453778869498
 23
81.10836968143775
 33
0.0
  0
SOLID
  5
352C
330
20EF
100
AcDbEntity
  8
LOGO
 62
     5
100
AcDbTrace
 10
-1084.687073691451
 20
83.11956867486417
 30
0.0
 11
-1084.334231762779
 21
83.11956867486417
 31
0.0
 12
-1084.687073691451
 22
83.40184221780132
 32
0.0
 13
-1084.334231762779
 23
83.40184221780132
 33
0.0
  0
SOLID
  5
352D
330
20EF
100
AcDbEntity
  8
LOGO
 62
     5
100
AcDbTrace
 10
-1084.687073691451
 20
82.87257932479416
 30
0.0
 11
-1084.334231762779
 21
82.87257932479416
 31
0.0
 12
-1084.687073691451
 22
81.10836968143775
 32
0.0
 13
-1084.334231762779
 23
81.10836968143829
 33
0.0
  0
SOLID
  5
352E
330
20EF
100
AcDbEntity
  8
LOGO
 62
     5
100
AcDbTrace
 10
-1081.217402585863
 20
84.63678896815036
 30
0.0
 11
-1080.194160992716
 21
84.63678896815036
 31
0.0
 12
-1081.217402585863
 22
89.81180392199478
 32
0.0
 13
-1080.194160992716
 23
93.56368976353234
 33
0.0
  0
SOLID
  5
352F
330
20EF
100
AcDbEntity
  8
LOGO
 62
     5
100
AcDbTrace
 10
-1079.77075067831
 20
94.33994200660892
 30
0.0
 11
-1078.747509085164
 21
94.33994200660945
 31
0.0
 12
-1079.77075067831
 22
85.41304121122696
 32
0.0
 13
-1078.747509085164
 23
89.16492705276443
 33
0.0
  0
SOLID
  5
3530
330
20EF
100
AcDbEntity
  8
LOGO
 62
     2
100
AcDbTrace
 10
-1080.194160992716
 20
94.33994200660892
 30
0.0
 11
-1079.77075067831
 21
94.33994200660892
 31
0.0
 12
-1080.194160992716
 22
84.63678896815036
 32
0.0
 13
-1079.77075067831
 23
84.63678896815036
 33
0.0
  0
SOLID
  5
3531
330
20EF
100
AcDbEntity
  8
LOGO
 62
     5
100
AcDbTrace
 10
-1079.77075067831
 20
85.41304121122696
 30
0.0
 11
-1078.747509085164
 21
89.16492705276443
 31
0.0
 12
-1074.901532062647
 22
94.33994200660945
 32
0.0
 13
-1075.924773655794
 23
94.33994200660945
 33
0.0
  0
SOLID
  5
3532
330
20EF
100
AcDbEntity
  8
LOGO
 62
     5
100
AcDbTrace
 10
-1079.77075067831
 20
84.63678896815036
 30
0.0
 11
-1078.747509085164
 21
84.63678896815036
 31
0.0
 12
-1074.901532062647
 22
93.56368976353234
 32
0.0
 13
-1075.924773655794
 23
89.81180392199478
 33
0.0
  0
SOLID
  5
3533
330
20EF
100
AcDbEntity
  8
LOGO
 62
     2
100
AcDbTrace
 10
-1080.194160992716
 20
84.63678896815036
 30
0.0
 11
-1079.77075067831
 21
84.63678896815036
 31
0.0
 12
-1074.901532062647
 22
94.33994200660945
 32
0.0
 13
-1074.478121748241
 23
94.33994200660892
 33
0.0
  0
LINE
  5
3534
330
20EF
100
AcDbEntity
  8
LOGO
 62
     4
100
AcDbLine
 10
-980.8588642885375
 20
81.88599135947711
 30
0.0
 11
-980.8588642885375
 21
73.20857799947674
 31
0.0
  0
LINE
  5
3535
330
20EF
100
AcDbEntity
  8
LOGO
 62
     4
100
AcDbLine
 10
-996.6359794885375
 20
81.88599135947711
 30
0.0
 11
-996.6359794885375
 21
73.20857799947674
 31
0.0
  0
LINE
  5
3536
330
20EF
100
AcDbEntity
  8
LOGO
 62
     4
100
AcDbLine
 10
-980.8588642885375
 20
73.20857799947674
 30
0.0
 11
-996.6359794885375
 21
73.20857799947674
 31
0.0
  0
LINE
  5
3537
330
20EF
100
AcDbEntity
  8
LOGO
 62
     4
100
AcDbLine
 10
-981.3974812928115
 20
92.53554411947677
 30
0.0
 11
-1004.349820288926
 21
92.53554411947677
 31
0.0
  0
LINE
  5
3538
330
20EF
100
AcDbEntity
  8
LOGO
 62
     4
100
AcDbLine
 10
-981.3974812928115
 20
85.43584227947686
 30
0.0
 11
-1004.349820288926
 21
85.43584227947686
 31
0.0
  0
LINE
  5
3539
330
20EF
100
AcDbEntity
  8
LOGO
 62
     4
100
AcDbLine
 10
-1004.349820288926
 20
92.53554411947677
 30
0.0
 11
-1004.349820288926
 21
85.43584227947686
 31
0.0
  0
LINE
  5
353A
330
20EF
100
AcDbEntity
  8
LOGO
 62
     4
100
AcDbLine
 10
-981.3974812928115
 20
92.53554411947677
 30
0.0
 11
-981.3974812928115
 21
85.43584227947686
 31
0.0
  0
LINE
  5
353B
330
20EF
100
AcDbEntity
  8
LOGO
 62
     4
100
AcDbLine
 10
-989.0912665424725
 20
85.43584227947686
 30
0.0
 11
-989.0912665424725
 21
81.88599135947711
 31
0.0
  0
TEXT
  5
353C
330
20EF
100
AcDbEntity
  8
LOGO
  6
Continuous
 62
     7
100
AcDbText
 10
-1002.721042266196
 20
86.91789465881386
 30
0.0
 40
3.9015
  1
MAF300
100
AcDbText
  0
LINE
  5
353D
330
20EF
100
AcDbEntity
  8
LOGO
 62
     4
100
AcDbLine
 10
-980.8588642885375
 20
81.88599135947711
 30
0.0
 11
-996.6359794885375
 21
81.88599135947711
 31
0.0
  0
TEXT
  5
353E
330
20EF
100
AcDbEntity
  8
LOGO
  6
Continuous
100
AcDbText
 10
-992.4397716594006
 20
74.43337649435827
 30
155.1009208393597
 40
1.8207
  1
Model
100
AcDbText
  0
TEXT
  5
353F
330
20EF
100
AcDbEntity
  8
LOGO
100
AcDbText
 10
-992.9122675332671
 20
77.72418227022413
 30
155.1009208393597
 40
2.958637499999999
  1
型號
  7
DAYUS
100
AcDbText
  0
LINE
  5
3540
330
20EF
100
AcDbEntity
  8
LOGO
  6
Continuous
 62
     7
100
AcDbLine
 10
-979.4558850589627
 20
88.96054493354158
 30
0.0
 11
-976.320915783028
 21
88.96054493354158
 31
0.0
  0
LINE
  5
3541
330
20EF
100
AcDbEntity
  8
LOGO
 62
     4
100
AcDbLine
 10
-954.4178115987861
 20
81.88599135947711
 30
0.0
 11
-954.4178115987861
 21
73.20857799947674
 31
0.0
  0
LINE
  5
3542
330
20EF
100
AcDbEntity
  8
LOGO
 62
     4
100
AcDbLine
 10
-977.5415711269452
 20
81.88599135947711
 30
0.0
 11
-977.5415711269452
 21
73.20857799947674
 31
0.0
  0
LINE
  5
3543
330
20EF
100
AcDbEntity
  8
LOGO
 62
     4
100
AcDbLine
 10
-954.4178115987861
 20
73.20857799947674
 30
0.0
 11
-977.5415711269452
 21
73.20857799947674
 31
0.0
  0
LINE
  5
3544
330
20EF
100
AcDbEntity
  8
LOGO
 62
     4
100
AcDbLine
 10
-954.4124315642928
 20
92.53554411947677
 30
0.0
 11
-973.1739590096868
 21
92.53554411947677
 31
0.0
  0
LINE
  5
3545
330
20EF
100
AcDbEntity
  8
LOGO
 62
     4
100
AcDbLine
 10
-954.4124315642928
 20
85.43584227947686
 30
0.0
 11
-973.1739590096868
 21
85.43584227947686
 31
0.0
  0
LINE
  5
3546
330
20EF
100
AcDbEntity
  8
LOGO
 62
     4
100
AcDbLine
 10
-973.1739590096868
 20
92.53554411947677
 30
0.0
 11
-973.1739590096868
 21
85.43584227947686
 31
0.0
  0
LINE
  5
3547
330
20EF
100
AcDbEntity
  8
LOGO
 62
     4
100
AcDbLine
 10
-954.4124315642928
 20
92.53554411947677
 30
0.0
 11
-954.4124315642928
 21
85.43584227947686
 31
0.0
  0
LINE
  5
3548
330
20EF
100
AcDbEntity
  8
LOGO
 62
     4
100
AcDbLine
 10
-963.7931952869895
 20
85.43584227947686
 30
0.0
 11
-963.7931952869895
 21
81.88599135947711
 31
0.0
  0
TEXT
  5
3549
330
20EF
100
AcDbEntity
  8
LOGO
  6
Continuous
 62
     7
100
AcDbText
 10
-967.0047190802787
 20
86.91789465881386
 30
0.0
 40
3.9015
  1
*A
  7
DAYUS
100
AcDbText
  0
LINE
  5
354A
330
20EF
100
AcDbEntity
  8
LOGO
 62
     4
100
AcDbLine
 10
-954.4178115987861
 20
81.88599135947711
 30
0.0
 11
-977.5415711269452
 21
81.88599135947711
 31
0.0
  0
TEXT
  5
354B
330
20EF
100
AcDbEntity
  8
LOGO
  6
Continuous
100
AcDbText
 10
-972.3398313029694
 20
74.43337649435827
 30
155.1009208393597
 40
1.8207
  1
Bore size
100
AcDbText
  0
TEXT
  5
354C
330
20EF
100
AcDbEntity
  8
LOGO
100
AcDbText
 10
-977.0328108187452
 20
77.72418227022413
 30
155.1009208393597
 40
2.958637499999999
  1
配管口徑代號
  7
DAYUS
100
AcDbText
  0
TEXT
  5
354D
330
20EF
100
AcDbEntity
  8
LOGO
100
AcDbText
 10
-1035.607147211319
 20
72.4954430517457
 30
0.0
 40
2.366909999999999
  1
10806301
 41
0.7
  7
CHINESET
 72
     1
 11
-1030.044908711319
 21
72.4954430517457
 31
0.0
100
AcDbText
  0
LINE
  5
354E
330
20EF
100
AcDbEntity
  8
LOGO
 62
     4
100
AcDbLine
 10
-1022.699442889448
 20
75.96957315947739
 30
0.0
 11
-1022.699442889447
 21
71.23643859947702
 31
0.0
  0
LINE
  5
354F
330
20EF
100
AcDbEntity
  8
LOGO
 62
     4
100
AcDbLine
 10
-1022.699442889448
 20
75.96957315947739
 30
0.0
 11
-1036.900902889447
 21
75.96957315947739
 31
0.0
  0
LINE
  5
3550
330
20EF
100
AcDbEntity
  8
LOGO
  6
AM_ISO08W050x2
 48
0.3
100
AcDbLine
 10
-1050.190219051637
 20
87.80747166420693
 30
0.0
 11
-1046.401826478306
 21
87.80747166420693
 31
0.0
1001
GENIUS_GENOREF_13
1005
3565
  0
LINE
  5
3551
330
20EF
100
AcDbEntity
  8
LOGO
  6
AM_ISO08W050x2
 48
0.3
100
AcDbLine
 10
-1048.296022764971
 20
85.91327537754159
 30
0.0
 11
-1048.296022764971
 21
89.70166795087237
 31
0.0
1001
GENIUS_GENOREF_13
1005
3564
  0
LINE
  5
3552
330
20EF
100
AcDbEntity
  8
LOGO
  6
CENTER
 48
0.5
100
AcDbLine
 10
-1044.313286227796
 20
87.80747166420693
 30
0.0
 11
-1039.227346201113
 21
87.80747166420693
 31
0.0
1001
GENIUS_GENOREF_13
1005
3563
  0
POINT
  5
3563
330
20EF
100
AcDbEntity
  8
0
 60
     1
100
AcDbPoint
 10
-2413.184214106412
 20
-816.6660499671646
 30
0.0
1001
GENIUS_GENOBJ-N-CRS_13
1002
{
1000
OWNER
1000
GEN
1002
}
1001
GENIUS_GENOLIS_13
1002
{
1000
ENT
1005
0
1005
0
1005
0
1005
3552
1002
}
1001
GENIUS_GENOENT_13
1002
{
1000
MYREF
1005
3563
1002
}
1002
{
1000
GRP
1005
0
1002
}
1001
GENIUS_GENODEF_13
1002
{
1000
HIER
1070
    10
1002
}
1002
{
1000
MANEDIT
1070
     1
1002
}
1002
{
1000
NOSEL
1070
     0
1002
}
1002
{
1000
BEHIND
1070
     0
1002
}
1002
{
1000
OTHER
1070
     0
1002
}
1002
{
1000
REACTOR
1002
}
  0
POINT
  5
3564
330
20EF
100
AcDbEntity
  8
0
 60
     1
100
AcDbPoint
 10
-2424.508799329267
 20
-807.7904634885282
 30
0.0
1001
GENIUS_GENOBJ-N-CRS_13
1002
{
1000
OWNER
1000
GEN
1002
}
1001
GENIUS_GENOLIS_13
1002
{
1000
ENT
1005
0
1005
0
1005
0
1005
3551
1002
}
1001
GENIUS_GENOENT_13
1002
{
1000
MYREF
1005
3564
1002
}
1002
{
1000
GRP
1005
0
1002
}
1001
GENIUS_GENODEF_13
1002
{
1000
HIER
1070
    10
1002
}
1002
{
1000
MANEDIT
1070
     1
1002
}
1002
{
1000
NOSEL
1070
     0
1002
}
1002
{
1000
BEHIND
1070
     0
1002
}
1002
{
1000
OTHER
1070
     0
1002
}
1002
{
1000
REACTOR
1002
}
  0
POINT
  5
3565
330
20EF
100
AcDbEntity
  8
0
 60
     1
100
AcDbPoint
 10
-2418.150125631429
 20
-816.6660499671646
 30
0.0
1001
GENIUS_GENOBJ-N-CRS_13
1002
{
1000
OWNER
1000
GEN
1002
}
1001
GENIUS_GENOLIS_13
1002
{
1000
ENT
1005
0
1005
0
1005
0
1005
3550
1002
}
1001
GENIUS_GENOENT_13
1002
{
1000
MYREF
1005
3565
1002
}
1002
{
1000
GRP
1005
0
1002
}
1001
GENIUS_GENODEF_13
1002
{
1000
HIER
1070
    10
1002
}
1002
{
1000
MANEDIT
1070
     1
1002
}
1002
{
1000
NOSEL
1070
     0
1002
}
1002
{
1000
BEHIND
1070
     0
1002
}
1002
{
1000
OTHER
1070
     0
1002
}
1002
{
1000
REACTOR
1002
}
  0
LINE
  5
38ED
330
20EF
100
AcDbEntity
  8
AM_7
100
AcDbLine
 10
-1023.906974416433
 20
119.3262688147995
 30
0.0
 11
-1023.906974416433
 21
158.11138811615
 31
0.0
  0
LINE
  5
38EE
330
20EF
100
AcDbEntity
  8
AM_7
100
AcDbLine
 10
-1039.004136002293
 20
135.3262688147996
 30
0.0
 11
-1010.406974416433
 21
135.3262688147996
 31
0.0
  0
LINE
  5
38EF
330
20EF
100
AcDbEntity
  8
CENTER
  6
CENTER
100
AcDbLine
 10
-945.0008071626044
 20
135.3262688147995
 30
0.0
 11
-945.0008071626044
 21
135.3262688147995
 31
0.0
  0
LINE
  5
38F0
330
20EF
100
AcDbEntity
  8
CENTER
  6
CENTER
100
AcDbLine
 10
-945.0008071626044
 20
135.3262688147995
 30
0.0
 11
-945.0008071626044
 21
135.3262688147995
 31
0.0
  0
LINE
  5
38F1
330
20EF
100
AcDbEntity
  8
CENTER
  6
CENTER
100
AcDbLine
 10
-953.5008071626043
 20
135.3262688147995
 30
0.0
 11
-945.0008071626044
 21
135.3262688147995
 31
0.0
  0
LINE
  5
38F2
330
20EF
100
AcDbEntity
  8
CENTER
  6
CENTER
100
AcDbLine
 10
-945.0008071626044
 20
135.3262688147995
 30
0.0
 11
-936.5008071626043
 21
135.3262688147995
 31
0.0
  0
LINE
  5
38F3
330
20EF
100
AcDbEntity
  8
AM_VIS
100
AcDbLine
 10
-1013.906974416433
 20
142.3262688147995
 30
0.0
 11
-1033.906974416433
 21
142.3262688147995
 31
0.0
  0
LINE
  5
38F4
330
20EF
100
AcDbEntity
  8
AM_VIS
100
AcDbLine
 10
-1013.906974416434
 20
128.3262688147996
 30
0.0
 11
-1033.906974416433
 21
128.3262688147995
 31
0.0
  0
LINE
  5
38F5
330
20EF
100
AcDbEntity
  8
AM_VIS
100
AcDbLine
 10
-1033.906974416433
 20
142.3262688147995
 30
0.0
 11
-1033.906974416433
 21
128.3262688147995
 31
0.0
  0
LINE
  5
38F6
330
20EF
100
AcDbEntity
  8
AM_VIS
100
AcDbLine
 10
-1013.906974416434
 20
142.3262688147996
 30
0.0
 11
-1013.906974416434
 21
128.3262688147996
 31
0.0
  0
LINE
  5
38F7
330
20EF
100
AcDbEntity
  8
AM_VIS
100
AcDbLine
 10
-1036.906974416433
 20
133.1262688147996
 30
0.0
 11
-1033.906974416433
 21
133.1262688147996
 31
0.0
  0
LINE
  5
38F8
330
20EF
100
AcDbEntity
  8
AM_VIS
100
AcDbLine
 10
-1036.906974416433
 20
137.5262688147995
 30
0.0
 11
-1033.906974416434
 21
137.5262688147995
 31
0.0
  0
LINE
  5
38F9
330
20EF
100
AcDbEntity
  8
AM_VIS
100
AcDbLine
 10
-1037.406974416433
 20
133.6262688147995
 30
0.0
 11
-1036.906974416433
 21
133.1262688147996
 31
0.0
  0
LINE
  5
38FA
330
20EF
100
AcDbEntity
  8
AM_VIS
100
AcDbLine
 10
-1037.406974416433
 20
137.0262688147995
 30
0.0
 11
-1036.906974416433
 21
137.5262688147995
 31
0.0
  0
LINE
  5
38FB
330
20EF
100
AcDbEntity
  8
AM_VIS
100
AcDbLine
 10
-1013.906974416433
 20
132.1262688147996
 30
0.0
 11
-1013.406974416433
 21
132.1262688147996
 31
0.0
  0
LINE
  5
38FC
330
20EF
100
AcDbEntity
  8
AM_VIS
100
AcDbLine
 10
-1013.906974416434
 20
138.5262688147995
 30
0.0
 11
-1013.406974416433
 21
138.5262688147995
 31
0.0
  0
LINE
  5
38FD
330
20EF
100
AcDbEntity
  8
AM_VIS
100
AcDbLine
 10
-1012.906974416433
 20
138.0262688147995
 30
0.0
 11
-1013.406974416433
 21
138.5262688147995
 31
0.0
  0
LINE
  5
38FE
330
20EF
100
AcDbEntity
  8
AM_VIS
100
AcDbLine
 10
-1012.906974416433
 20
132.6262688147995
 30
0.0
 11
-1013.406974416433
 21
132.1262688147996
 31
0.0
  0
LINE
  5
38FF
330
20EF
100
AcDbEntity
  8
AM_VIS
100
AcDbLine
 10
-1036.906974416433
 20
137.5262688147995
 30
0.0
 11
-1036.906974416433
 21
133.1262688147996
 31
0.0
  0
LINE
  5
3900
330
20EF
100
AcDbEntity
  8
AM_VIS
100
AcDbLine
 10
-1037.406974416433
 20
133.6262688147995
 30
0.0
 11
-1037.406974416433
 21
137.0262688147995
 31
0.0
  0
LINE
  5
3901
330
20EF
100
AcDbEntity
  8
AM_VIS
100
AcDbLine
 10
-1012.906974416433
 20
138.0262688147995
 30
0.0
 11
-1012.906974416433
 21
132.6262688147995
 31
0.0
  0
LINE
  5
3902
330
20EF
100
AcDbEntity
  8
AM_VIS
100
AcDbLine
 10
-1013.406974416433
 20
132.1262688147996
 30
0.0
 11
-1013.406974416433
 21
138.5262688147995
 31
0.0
  0
LINE
  5
3903
330
20EF
100
AcDbEntity
  8
AM_VIS
100
AcDbLine
 10
-952.5008071626043
 20
128.3262688147996
 30
0.0
 11
-937.5008071626043
 21
128.3262688147995
 31
0.0
  0
LINE
  5
3904
330
20EF
100
AcDbEntity
  8
AM_VIS
100
AcDbLine
 10
-952.5008071626043
 20
142.3262688147996
 30
0.0
 11
-952.5008071626043
 21
128.3262688147996
 31
0.0
  0
LINE
  5
3905
330
20EF
100
AcDbEntity
  8
AM_VIS
100
AcDbLine
 10
-937.5008071626043
 20
142.3262688147995
 30
0.0
 11
-952.5008071626043
 21
142.3262688147996
 31
0.0
  0
LINE
  5
3906
330
20EF
100
AcDbEntity
  8
AM_VIS
100
AcDbLine
 10
-937.5008071626043
 20
128.3262688147995
 30
0.0
 11
-937.5008071626043
 21
142.3262688147995
 31
0.0
  0
CIRCLE
  5
3907
330
20EF
100
AcDbEntity
  8
AM_VIS
100
AcDbCircle
 10
-945.0008071626044
 20
135.3262688147995
 30
0.0
 40
5.999999999999999
  0
CIRCLE
  5
3908
330
20EF
100
AcDbEntity
  8
AM_VIS
100
AcDbCircle
 10
-945.0008071626044
 20
135.3262688147995
 30
0.0
 40
5.499999999999999
  0
CIRCLE
  5
3909
330
20EF
100
AcDbEntity
  8
AM_VIS
100
AcDbCircle
 10
-945.0008071626045
 20
135.3262688147996
 30
0.0
 40
2.699999999999988
  0
CIRCLE
  5
390A
330
20EF
100
AcDbEntity
  8
AM_VIS
100
AcDbCircle
 10
-945.0008071626045
 20
135.3262688147996
 30
0.0
 40
3.199999999999988
  0
CIRCLE
  5
390B
330
20EF
100
AcDbEntity
  8
AM_VIS
100
AcDbCircle
 10
-945.0008071626044
 20
135.3262688147995
 30
0.0
 40
3.499999999999999
  0
LINE
  5
390C
330
20EF
100
AcDbEntity
  8
AM_VIS
100
AcDbLine
 10
-1021.156974416434
 20
122.3262688147997
 30
0.0
 11
-1021.156974416434
 21
123.027230709123
 31
0.0
  0
LINE
  5
390D
330
20EF
100
AcDbEntity
  8
AM_VIS
100
AcDbLine
 10
-1026.656974416433
 20
122.3262688147997
 30
0.0
 11
-1026.656974416433
 21
123.027230709123
 31
0.0
  0
LINE
  5
390E
330
20EF
100
AcDbEntity
  8
AM_VIS
100
AcDbLine
 10
-1020.906974416433
 20
125.3262688147997
 30
0.0
 11
-1020.906974416433
 21
128.3262688147997
 31
0.0
  0
LINE
  5
390F
330
20EF
100
AcDbEntity
  8
AM_VIS
100
AcDbLine
 10
-1026.906974416434
 20
125.3262688147997
 30
0.0
 11
-1026.906974416434
 21
128.3262688147997
 31
0.0
  0
LINE
  5
3910
330
20EF
100
AcDbEntity
  8
AM_VIS
100
AcDbLine
 10
-1021.156974416434
 20
123.027230709123
 30
0.0
 11
-1020.406974416434
 21
124.3262688147997
 31
0.0
  0
LINE
  5
3911
330
20EF
100
AcDbEntity
  8
AM_VIS
100
AcDbLine
 10
-1026.656974416433
 20
123.027230709123
 30
0.0
 11
-1027.406974416434
 21
124.3262688147997
 31
0.0
  0
LINE
  5
3912
330
20EF
100
AcDbEntity
  8
AM_VIS
100
AcDbLine
 10
-1021.156974416434
 20
122.3262688147997
 30
0.0
 11
-1026.656974416433
 21
122.3262688147997
 31
0.0
  0
LINE
  5
3913
330
20EF
100
AcDbEntity
  8
AM_VIS
100
AcDbLine
 10
-1020.906974416433
 20
125.3262688147997
 30
0.0
 11
-1026.906974416434
 21
125.3262688147997
 31
0.0
  0
LINE
  5
3914
330
20EF
100
AcDbEntity
  8
AM_VIS
100
AcDbLine
 10
-1021.156974416434
 20
123.027230709123
 30
0.0
 11
-1026.656974416433
 21
123.027230709123
 31
0.0
  0
LINE
  5
3915
330
20EF
100
AcDbEntity
  8
AM_VIS
100
AcDbLine
 10
-1020.406974416434
 20
124.3262688147997
 30
0.0
 11
-1027.406974416434
 21
124.3262688147997
 31
0.0
  0
ARC
  5
3916
330
20EF
100
AcDbEntity
  8
AM_VIS
100
AcDbCircle
 10
-1026.415354567724
 20
124.4554588904449
 30
0.0
 40
1.0
100
AcDbArc
 50
119.4471052414492
 51
187.4227924043951
  0
ARC
  5
3917
330
20EF
100
AcDbEntity
  8
AM_VIS
100
AcDbCircle
 10
-1021.398594265143
 20
124.4554588904449
 30
0.0
 40
0.9999999999999998
100
AcDbArc
 50
352.5772075956049
 51
60.55289475855072
  0
LINE
  5
3918
330
20EF
100
AcDbEntity
  8
AM_VIS
100
AcDbLine
 10
-942.2508071626044
 20
122.3262688147996
 30
0.0
 11
-942.2508071626044
 21
123.0272307091229
 31
0.0
  0
LINE
  5
3919
330
20EF
100
AcDbEntity
  8
AM_VIS
100
AcDbLine
 10
-947.7508071626044
 20
122.3262688147996
 30
0.0
 11
-947.7508071626044
 21
123.0272307091229
 31
0.0
  0
LINE
  5
391A
330
20EF
100
AcDbEntity
  8
AM_VIS
100
AcDbLine
 10
-942.0008071626043
 20
125.3262688147996
 30
0.0
 11
-942.0008071626043
 21
128.3262688147996
 31
0.0
  0
LINE
  5
391B
330
20EF
100
AcDbEntity
  8
AM_VIS
100
AcDbLine
 10
-948.0008071626043
 20
125.3262688147996
 30
0.0
 11
-948.0008071626043
 21
128.3262688147996
 31
0.0
  0
LINE
  5
391C
330
20EF
100
AcDbEntity
  8
AM_VIS
100
AcDbLine
 10
-942.2508071626044
 20
123.0272307091229
 30
0.0
 11
-941.5008071626044
 21
124.3262688147996
 31
0.0
  0
LINE
  5
391D
330
20EF
100
AcDbEntity
  8
AM_VIS
100
AcDbLine
 10
-947.7508071626044
 20
123.0272307091229
 30
0.0
 11
-948.5008071626044
 21
124.3262688147996
 31
0.0
  0
LINE
  5
391E
330
20EF
100
AcDbEntity
  8
AM_VIS
100
AcDbLine
 10
-942.2508071626044
 20
122.3262688147996
 30
0.0
 11
-947.7508071626044
 21
122.3262688147996
 31
0.0
  0
LINE
  5
391F
330
20EF
100
AcDbEntity
  8
AM_VIS
100
AcDbLine
 10
-942.0008071626043
 20
125.3262688147996
 30
0.0
 11
-948.0008071626043
 21
125.3262688147996
 31
0.0
  0
LINE
  5
3920
330
20EF
100
AcDbEntity
  8
AM_VIS
100
AcDbLine
 10
-942.2508071626044
 20
123.0272307091229
 30
0.0
 11
-947.7508071626044
 21
123.0272307091229
 31
0.0
  0
LINE
  5
3921
330
20EF
100
AcDbEntity
  8
AM_VIS
100
AcDbLine
 10
-941.5008071626044
 20
124.3262688147996
 30
0.0
 11
-948.5008071626044
 21
124.3262688147996
 31
0.0
  0
ARC
  5
3922
330
20EF
100
AcDbEntity
  8
AM_VIS
100
AcDbCircle
 10
-947.5091873138946
 20
124.4554588904448
 30
0.0
 40
1.0
100
AcDbArc
 50
119.4471052414492
 51
187.4227924043951
  0
ARC
  5
3923
330
20EF
100
AcDbEntity
  8
AM_VIS
100
AcDbCircle
 10
-942.4924270113139
 20
124.4554588904448
 30
0.0
 40
0.9999999999999998
100
AcDbArc
 50
352.5772075956049
 51
60.55289475855072
  0
LINE
  5
3924
330
20EF
100
AcDbEntity
  8
AM_7
100
AcDbLine
 10
-945.0008071626045
 20
120.9337091641243
 30
0.0
 11
-945.0008071626045
 21
159.7188284654748
 31
0.0
  0
DIMENSION
  5
3927
330
20EF
100
AcDbEntity
  8
DIM
100
AcDbDimension
  2
*D13
 10
-1020.906974416433
 20
113.3262688147997
 30
0.0
 11
-1006.978402987862
 21
117.0762688147997
 31
0.0
 70
    32
  1
%%c<>
 71
     5
 42
6.0
  3
STANDARD
100
AcDbAlignedDimension
 13
-1026.906974416434
 23
125.3262688147997
 33
0.0
 14
-1020.906974416433
 24
125.3262688147997
 34
0.0
100
AcDbRotatedDimension
1001
ACAD
1000
DSTYLE
1002
{
1070
    40
1040
1.5
1070
   172
1070
     1
1070
   279
1070
     0
1002
}
  0
ENDSEC
  0
SECTION
  2
OBJECTS
  0
DICTIONARY
  5
20DD
330
0
100
AcDbDictionary
281
     1
  3
ACAD_COLOR
350
2967
  3
ACAD_GROUP
350
20DE
  3
ACAD_LAYOUT
350
20EA
  3
ACAD_MATERIAL
350
2966
  3
ACAD_MLINESTYLE
350
20E7
  3
ACAD_PLOTSETTINGS
350
20E9
  3
ACAD_PLOTSTYLENAME
350
20DF
  3
ACAD_TABLESTYLE
350
2968
  3
ACDBHEADERROUNDTRIPXREC
350
3A0F
  3
AcDbVariableDictionary
350
2314
  3
AcmDictionary
350
2336
  3
AMG
350
231C
  3
AMGSNAPSETTINGS
350
23EA
  3
DWGPROPS
350
3A0E
  0
DICTIONARY
  5
2A30
330
20D3
100
AcDbDictionary
280
     1
281
     1
  3
ACAD_LAYERFILTERS
360
368B
  3
ACAD_LAYERSTATES
360
2A31
  3
ACLYDICTIONARY
360
368A
  0
DICTIONARY
  5
2241
330
20EF
100
AcDbDictionary
280
     1
281
     1
  3
ACAD_INDEX
360
382A
  3
ACAD_LAYOUTSELFREF
360
294A
  3
ACAD_SORTENTS
360
36F5
  0
DICTIONARY
  5
2243
330
20EB
100
AcDbDictionary
280
     1
281
     1
  3
ACAD_LAYOUTSELFREF
360
2949
  0
DICTIONARY
  5
379C
330
3760
100
AcDbDictionary
280
     1
281
     1
  3
ACAD_SORTENTS
360
379D
  0
DICTIONARY
  5
3825
330
37C9
100
AcDbDictionary
280
     1
281
     1
  3
ACAD_SORTENTS
360
3826
  0
DICTIONARY
  5
2967
102
{ACAD_REACTORS
330
20DD
102
}
330
20DD
100
AcDbDictionary
281
     1
  0
DICTIONARY
  5
20DE
102
{ACAD_REACTORS
330
20DD
102
}
330
20DD
100
AcDbDictionary
281
     1
  0
DICTIONARY
  5
20EA
102
{ACAD_REACTORS
330
20DD
102
}
330
20DD
100
AcDbDictionary
281
     1
  3
Model
350
20F2
  3
配置1
350
20EE
  0
DICTIONARY
  5
2966
102
{ACAD_REACTORS
330
20DD
102
}
330
20DD
100
AcDbDictionary
281
     1
  0
DICTIONARY
  5
20E7
102
{ACAD_REACTORS
330
20DD
102
}
330
20DD
100
AcDbDictionary
281
     1
  3
Standard
350
20E8
  0
DICTIONARY
  5
20E9
102
{ACAD_REACTORS
330
20DD
102
}
330
20DD
100
AcDbDictionary
281
     1
  0
ACDBDICTIONARYWDFLT
  5
20DF
102
{ACAD_REACTORS
330
20DD
102
}
330
20DD
100
AcDbDictionary
281
     1
  3
Normal
350
20E0
100
AcDbDictionaryWithDefault
340
20E0
1001
ACAD
1000
TREAT_AS_HARD
1070
     0
  0
DICTIONARY
  5
2968
102
{ACAD_REACTORS
330
20DD
102
}
330
20DD
100
AcDbDictionary
281
     1
  3
Standard
350
2969
  0
DICTIONARY
  5
3A0F
102
{ACAD_REACTORS
330
20DD
102
}
330
20DD
100
AcDbDictionary
281
     1
  0
DICTIONARY
  5
2314
102
{ACAD_REACTORS
330
20DD
102
}
330
20DD
100
AcDbDictionary
281
     1
  3
CTABLESTYLE
350
29EA
  3
DIMASSOC
350
2315
  3
INDEXCTL
350
2373
  3
PROJECTNAME
350
3991
  0
DICTIONARY
  5
2336
102
{ACAD_REACTORS
330
20DD
102
}
330
20DD
100
AcDbDictionary
281
     1
  3
AcmStdDictionary
350
233C
  3
AMDTSECTSYM_ARROWCOLOR
350
29DE
  0
DICTIONARY
  5
231C
102
{ACAD_REACTORS
330
20DD
102
}
330
20DD
100
AcDbDictionary
281
     1
  0
DICTIONARY
  5
23EA
102
{ACAD_REACTORS
330
20DD
102
}
330
20DD
100
AcDbDictionary
281
     1
  0
XRECORD
  5
3A0E
102
{ACAD_REACTORS
330
20DD
102
}
330
20DD
100
AcDbXrecord
280
     1
  1
DWGPROPS COOKIE
  2

  3

  4

  6

  7

  8

  9

300
AmdtFileType=84
301
=
302
=
303
=
304
=
305
=
306
=
307
=
308
=
309
=
 40
1.058946296296296
 41
2451457.340116412
 42
2454649.413867048
  1

 90
        1
  0
DICTIONARY
  5
368B
102
{ACAD_REACTORS
330
2A30
102
}
330
2A30
100
AcDbDictionary
281
     1
  0
DICTIONARY
  5
2A31
102
{ACAD_REACTORS
330
2A30
102
}
330
2A30
100
AcDbDictionary
281
     1
  0
DICTIONARY
  5
368A
102
{ACAD_REACTORS
330
2A30
102
}
330
2A30
100
AcDbDictionary
281
     1
1001
ACAD
1000
<All
  0
DICTIONARY
  5
382A
102
{ACAD_REACTORS
330
2241
102
}
330
2241
100
AcDbDictionary
281
     1
  3
*A1
350
382B
  0
XRECORD
  5
294A
102
{ACAD_REACTORS
330
2241
102
}
330
2241
100
AcDbXrecord
280
     1
340
20EF
  0
SORTENTSTABLE
  5
36F5
102
{ACAD_REACTORS
330
2241
102
}
330
2241
100
AcDbSortentsTable
330
20EF
331
2FBD
  5
2FBD
331
2FF4
  5
2FF4
331
2FFC
  5
2FFC
331
304B
  5
304B
331
2FCD
  5
2FCD
331
3004
  5
3004
331
3053
  5
3053
331
30B9
  5
30B9
331
300C
  5
300C
331
307A
  5
307A
331
30F8
  5
30F8
331
30C1
  5
30C1
331
3082
  5
3082
331
3100
  5
3100
331
34E6
  5
34E6
331
3108
  5
3108
331
308A
  5
308A
331
30C9
  5
30C9
331
34EE
  5
34EE
331
352D
  5
352D
331
34F6
  5
34F6
331
31A7
  5
31A7
331
3092
  5
3092
331
3110
  5
3110
331
3535
  5
3535
331
34FE
  5
34FE
331
7F0
  5
7F0
331
390D
  5
390D
331
3915
  5
3915
331
391D
  5
391D
331
38EE
  5
38EE
331
3014
  5
3014
331
2FDD
  5
2FDD
331
301C
  5
301C
331
2FE5
  5
2FE5
331
3024
  5
3024
331
309A
  5
309A
331
3118
  5
3118
331
302C
  5
302C
331
2FED
  5
2FED
331
305B
  5
305B
331
2FB6
  5
2FB6
331
30A2
  5
30A2
331
3063
  5
3063
331
3506
  5
3506
331
353D
  5
353D
331
30AA
  5
30AA
331
306B
  5
306B
331
30E9
  5
30E9
331
3545
  5
3545
331
3516
  5
3516
331
30F1
  5
30F1
331
3073
  5
3073
331
30B2
  5
30B2
331
354D
  5
354D
331
351E
  5
351E
331
6E9
  5
6E9
331
7A9
  5
7A9
331
7E1
  5
7E1
331
7E9
  5
7E9
331
38F6
  5
38F6
331
38FE
  5
38FE
331
3906
  5
3906
331
28E9
  5
28E9
331
2FF5
  5
2FF5
331
2FBE
  5
2FBE
331
2FFD
  5
2FFD
331
304C
  5
304C
331
3054
  5
3054
331
3005
  5
3005
331
2FCE
  5
2FCE
331
30F9
  5
30F9
331
300D
  5
300D
331
307B
  5
307B
331
30BA
  5
30BA
331
30C2
  5
30C2
331
3083
  5
3083
331
3101
  5
3101
331
34E7
  5
34E7
331
352E
  5
352E
331
30CA
  5
30CA
331
308B
  5
308B
331
3109
  5
3109
331
34EF
  5
34EF
331
34F7
  5
34F7
331
3093
  5
3093
331
3111
  5
3111
331
3536
  5
3536
331
34FF
  5
34FF
331
7F1
  5
7F1
331
7F9
  5
7F9
331
1AB1
  5
1AB1
331
390E
  5
390E
331
3916
  5
3916
331
391E
  5
391E
331
38EF
  5
38EF
331
3015
  5
3015
331
2FDE
  5
2FDE
331
301D
  5
301D
331
3025
  5
3025
331
2FE6
  5
2FE6
331
2FAF
  5
2FAF
331
309B
  5
309B
331
3119
  5
3119
331
2FEE
  5
2FEE
331
302D
  5
302D
331
305C
  5
305C
331
31A8
  5
31A8
331
2FB7
  5
2FB7
331
3064
  5
3064
331
30A3
  5
30A3
331
353E
  5
353E
331
30EA
  5
30EA
331
306C
  5
306C
331
30AB
  5
30AB
331
350F
  5
350F
331
3546
  5
3546
331
30B3
  5
30B3
331
3074
  5
3074
331
30F2
  5
30F2
331
354E
  5
354E
331
6EA
  5
6EA
331
7AA
  5
7AA
331
7E2
  5
7E2
331
7EA
  5
7EA
331
38F7
  5
38F7
331
38FF
  5
38FF
331
3907
  5
3907
331
2FF6
  5
2FF6
331
2FBF
  5
2FBF
331
2FFE
  5
2FFE
331
304D
  5
304D
331
3006
  5
3006
331
3055
  5
3055
331
30BB
  5
30BB
331
300E
  5
300E
331
307C
  5
307C
331
30FA
  5
30FA
331
3102
  5
3102
331
3084
  5
3084
331
30C3
  5
30C3
331
34E8
  5
34E8
331
310A
  5
310A
331
308C
  5
308C
331
30CB
  5
30CB
331
34F0
  5
34F0
331
352F
  5
352F
331
3537
  5
3537
331
3094
  5
3094
331
3112
  5
3112
331
34F8
  5
34F8
331
7F2
  5
7F2
331
683
  5
683
331
7FA
  5
7FA
331
6E3
  5
6E3
331
390F
  5
390F
331
3917
  5
3917
331
391F
  5
391F
331
3927
  5
3927
331
3016
  5
3016
331
2FD7
  5
2FD7
331
2FDF
  5
2FDF
331
301E
  5
301E
331
2FB0
  5
2FB0
331
2C29
  5
2C29
331
2FE7
  5
2FE7
331
3026
  5
3026
331
3500
  5
3500
331
309C
  5
309C
331
311A
  5
311A
331
31A9
  5
31A9
331
305D
  5
305D
331
2FEF
  5
2FEF
331
353F
  5
353F
331
30A4
  5
30A4
331
3065
  5
3065
331
30E3
  5
30E3
331
3510
  5
3510
331
30AC
  5
30AC
331
306D
  5
306D
331
30EB
  5
30EB
331
3547
  5
3547
331
30F3
  5
30F3
331
3075
  5
3075
331
30B4
  5
30B4
331
354F
  5
354F
331
6EB
  5
6EB
331
7AB
  5
7AB
331
7E3
  5
7E3
331
7EB
  5
7EB
331
38F0
  5
38F0
331
38F8
  5
38F8
331
3900
  5
3900
331
2FC0
  5
2FC0
331
2FF7
  5
2FF7
331
2FFF
  5
2FFF
331
304E
  5
304E
331
3056
  5
3056
331
2D21
  5
2D21
331
3007
  5
3007
331
30FB
  5
30FB
331
300F
  5
300F
331
307D
  5
307D
331
30BC
  5
30BC
331
3528
  5
3528
331
3085
  5
3085
331
3103
  5
3103
331
34E9
  5
34E9
331
3530
  5
3530
331
30CC
  5
30CC
331
308D
  5
308D
331
310B
  5
310B
331
34F1
  5
34F1
331
34F9
  5
34F9
331
3095
  5
3095
331
3113
  5
3113
331
7F3
  5
7F3
331
684
  5
684
331
7FB
  5
7FB
331
3908
  5
3908
331
3910
  5
3910
331
3918
  5
3918
331
3920
  5
3920
331
2FD8
  5
2FD8
331
3017
  5
3017
331
301F
  5
301F
331
2FE0
  5
2FE0
331
2FE8
  5
2FE8
331
3027
  5
3027
331
3501
  5
3501
331
309D
  5
309D
331
311B
  5
311B
331
305E
  5
305E
331
31AA
  5
31AA
331
3538
  5
3538
331
30E4
  5
30E4
331
3066
  5
3066
331
30A5
  5
30A5
331
3540
  5
3540
331
30EC
  5
30EC
331
30AD
  5
30AD
331
306E
  5
306E
331
3511
  5
3511
331
3548
  5
3548
331
30B5
  5
30B5
331
3076
  5
3076
331
30F4
  5
30F4
331
3550
  5
3550
331
6EC
  5
6EC
331
7E4
  5
7E4
331
7EC
  5
7EC
331
38F1
  5
38F1
331
38F9
  5
38F9
331
3901
  5
3901
331
2FF0
  5
2FF0
331
2FC1
  5
2FC1
331
2FF8
  5
2FF8
331
2FC9
  5
2FC9
331
3000
  5
3000
331
304F
  5
304F
331
3008
  5
3008
331
3057
  5
3057
331
30BD
  5
30BD
331
307E
  5
307E
331
30FC
  5
30FC
331
3104
  5
3104
331
3086
  5
3086
331
30C5
  5
30C5
331
34EA
  5
34EA
331
3529
  5
3529
331
310C
  5
310C
331
308E
  5
308E
331
30CD
  5
30CD
331
34F2
  5
34F2
331
3531
  5
3531
331
3096
  5
3096
331
3114
  5
3114
331
34FA
  5
34FA
331
675
  5
675
331
3909
  5
3909
331
3911
  5
3911
331
3919
  5
3919
331
3921
  5
3921
331
2FD1
  5
2FD1
331
3010
  5
3010
331
3018
  5
3018
331
2FAA
  5
2FAA
331
2FE1
  5
2FE1
331
3020
  5
3020
331
3028
  5
3028
331
2FE9
  5
2FE9
331
3502
  5
3502
331
3539
  5
3539
331
309E
  5
309E
331
311C
  5
311C
331
31AB
  5
31AB
331
305F
  5
305F
331
350A
  5
350A
331
30A6
  5
30A6
331
3067
  5
3067
331
30E5
  5
30E5
331
3541
  5
3541
331
3512
  5
3512
331
306F
  5
306F
331
30ED
  5
30ED
331
3549
  5
3549
331
30F5
  5
30F5
331
3077
  5
3077
331
30B6
  5
30B6
331
351A
  5
351A
331
3551
  5
3551
331
7E5
  5
7E5
331
7ED
  5
7ED
331
38F2
  5
38F2
331
38FA
  5
38FA
331
3902
  5
3902
331
3030
  5
3030
331
2FBA
  5
2FBA
331
2FF1
  5
2FF1
331
2FC2
  5
2FC2
331
2FF9
  5
2FF9
331
3001
  5
3001
331
3050
  5
3050
331
3009
  5
3009
331
30FD
  5
30FD
331
30BE
  5
30BE
331
307F
  5
307F
331
3522
  5
3522
331
352A
  5
352A
331
30C6
  5
30C6
331
3087
  5
3087
331
3105
  5
3105
331
34EB
  5
34EB
331
3532
  5
3532
331
308F
  5
308F
331
310D
  5
310D
331
34F3
  5
34F3
331
34FB
  5
34FB
331
3097
  5
3097
331
3115
  5
3115
331
676
  5
676
331
6DE
  5
6DE
331
6E6
  5
6E6
331
390A
  5
390A
331
3912
  5
3912
331
391A
  5
391A
331
3922
  5
3922
331
2FD2
  5
2FD2
331
3011
  5
3011
331
3019
  5
3019
331
2FDA
  5
2FDA
331
3021
  5
3021
331
2FE2
  5
2FE2
331
2FEA
  5
2FEA
331
3029
  5
3029
331
3058
  5
3058
331
3060
  5
3060
331
309F
  5
309F
331
311D
  5
311D
331
31AC
  5
31AC
331
353A
  5
353A
331
30E6
  5
30E6
331
3068
  5
3068
331
30A7
  5
30A7
331
31B4
  5
31B4
331
350B
  5
350B
331
3542
  5
3542
331
3513
  5
3513
331
30AF
  5
30AF
331
3070
  5
3070
331
30EE
  5
30EE
331
354A
  5
354A
331
30B7
  5
30B7
331
30F6
  5
30F6
331
3552
  5
3552
331
7E6
  5
7E6
331
7EE
  5
7EE
331
38F3
  5
38F3
331
38FB
  5
38FB
331
3903
  5
3903
331
2FBB
  5
2FBB
331
2FF2
  5
2FF2
331
3031
  5
3031
331
2FFA
  5
2FFA
331
3002
  5
3002
331
3051
  5
3051
331
300A
  5
300A
331
3078
  5
3078
331
3523
  5
3523
331
3080
  5
3080
331
30BF
  5
30BF
331
30FE
  5
30FE
331
34E4
  5
34E4
331
3106
  5
3106
331
3088
  5
3088
331
30C7
  5
30C7
331
34EC
  5
34EC
331
352B
  5
352B
331
310E
  5
310E
331
3090
  5
3090
331
34F4
  5
34F4
331
3533
  5
3533
331
3116
  5
3116
331
34FC
  5
34FC
331
677
  5
677
331
6DF
  5
6DF
331
6E7
  5
6E7
331
390B
  5
390B
331
3913
  5
3913
331
391B
  5
391B
331
3923
  5
3923
331
2FD3
  5
2FD3
331
3012
  5
3012
331
2FDB
  5
2FDB
331
301A
  5
301A
331
2FE3
  5
2FE3
331
3022
  5
3022
331
3098
  5
3098
331
302A
  5
302A
331
2FEB
  5
2FEB
331
3059
  5
3059
331
353B
  5
353B
331
30A0
  5
30A0
331
3061
  5
3061
331
31AD
  5
31AD
331
30A8
  5
30A8
331
3069
  5
3069
331
30E7
  5
30E7
331
31B5
  5
31B5
331
3543
  5
3543
331
3514
  5
3514
331
30B0
  5
30B0
331
3071
  5
3071
331
30EF
  5
30EF
331
354B
  5
354B
331
30F7
  5
30F7
331
7E7
  5
7E7
331
7EF
  5
7EF
331
38F4
  5
38F4
331
38FC
  5
38FC
331
3904
  5
3904
331
2FBC
  5
2FBC
331
2FF3
  5
2FF3
331
2CFD
  5
2CFD
331
2FFB
  5
2FFB
331
3003
  5
3003
331
3052
  5
3052
331
300B
  5
300B
331
3079
  5
3079
331
30B8
  5
30B8
331
34E5
  5
34E5
331
30C0
  5
30C0
331
3081
  5
3081
331
30FF
  5
30FF
331
3524
  5
3524
331
352C
  5
352C
331
30C8
  5
30C8
331
3089
  5
3089
331
3107
  5
3107
331
34ED
  5
34ED
331
34F5
  5
34F5
331
3091
  5
3091
331
310F
  5
310F
331
31A6
  5
31A6
331
3534
  5
3534
331
3117
  5
3117
331
34FD
  5
34FD
331
7F7
  5
7F7
331
6E0
  5
6E0
331
390C
  5
390C
331
3914
  5
3914
331
391C
  5
391C
331
38ED
  5
38ED
331
3924
  5
3924
331
2FD4
  5
2FD4
331
3013
  5
3013
331
301B
  5
301B
331
2FDC
  5
2FDC
331
3023
  5
3023
331
2FE4
  5
2FE4
331
3099
  5
3099
331
30D0
  5
30D0
331
2FEC
  5
2FEC
331
302B
  5
302B
331
305A
  5
305A
331
3062
  5
3062
331
30A1
  5
30A1
331
353C
  5
353C
331
30E8
  5
30E8
331
306A
  5
306A
331
30A9
  5
30A9
331
3544
  5
3544
331
3515
  5
3515
331
30B1
  5
30B1
331
3072
  5
3072
331
30F0
  5
30F0
331
354C
  5
354C
331
7A8
  5
7A8
331
7E8
  5
7E8
331
38F5
  5
38F5
331
38FD
  5
38FD
331
3905
  5
3905
  0
XRECORD
  5
2949
102
{ACAD_REACTORS
330
2243
102
}
330
2243
100
AcDbXrecord
280
     1
340
20EB
  0
SORTENTSTABLE
  5
379D
102
{ACAD_REACTORS
330
379C
102
}
330
379C
100
AcDbSortentsTable
330
3760
  0
SORTENTSTABLE
  5
3826
102
{ACAD_REACTORS
330
3825
102
}
330
3825
100
AcDbSortentsTable
330
37C9
  0
LAYOUT
  5
20F2
102
{ACAD_XDICTIONARY
360
3A12
102
}
102
{ACAD_REACTORS
330
20EA
102
}
330
20EA
100
AcDbPlotSettings
  1

  2
DWF eView (optimized for viewing).pc3
  4
ISO_A3_(297.00_x_420.00_MM)
  6

 40
5.793749809265136
 41
17.79375076293945
 42
5.79376220703125
 43
17.79376220703125
 44
297.0
 45
420.0
 46
14.76
 47
0.0
 48
0.0
 49
0.0
140
0.0
141
0.0
142
1.0
143
0.8045630428932227
 70
 11924
 72
     1
 73
     0
 74
     1
  7

 75
     0
147
1.242910681559499
148
1473.83480424092
149
-31.87320496922882
100
AcDbLayout
  1
Model
 70
     1
 71
     0
 10
0.0
 20
0.0
 11
12.0
 21
9.0
 12
0.0
 22
0.0
 32
0.0
 14
0.0
 24
0.0
 34
0.0
 15
0.0
 25
0.0
 35
0.0
146
0.0
 13
0.0
 23
0.0
 33
0.0
 16
1.0
 26
0.0
 36
0.0
 17
0.0
 27
1.0
 37
0.0
 76
     0
330
20EF
  0
LAYOUT
  5
20EE
102
{ACAD_XDICTIONARY
360
3A10
102
}
102
{ACAD_REACTORS
330
20EA
102
}
330
20EA
100
AcDbPlotSettings
  1

  2
\\WINNT\EPSON Stylus Photo 750 單色
  4

  6

 40
0.0
 41
0.0
 42
0.0
 43
0.0
 44
0.0
 45
0.0
 46
0.0
 47
0.0
 48
0.0
 49
0.0
140
0.0
141
0.0
142
1.0
143
1.0
 70
   688
 72
     0
 73
     0
 74
     5
  7

 75
    16
147
1.0
148
0.0
149
0.0
100
AcDbLayout
  1
配置1
 70
     1
 71
     1
 10
0.0
 20
0.0
 11
420.0
 21
297.0
 12
0.0
 22
0.0
 32
0.0
 14
1.000000000000000E+20
 24
1.000000000000000E+20
 34
1.000000000000000E+20
 15
-1.000000000000000E+20
 25
-1.000000000000000E+20
 35
-1.000000000000000E+20
146
0.0
 13
0.0
 23
0.0
 33
0.0
 16
1.0
 26
0.0
 36
0.0
 17
0.0
 27
1.0
 37
0.0
 76
     0
330
20EB
  0
MLINESTYLE
  5
20E8
102
{ACAD_REACTORS
330
20E7
102
}
330
20E7
100
AcDbMlineStyle
  2
STANDARD
 70
     0
  3

 62
   256
 51
90.0
 52
90.0
 71
     2
 49
0.5
 62
   256
  6
BYLAYER
 49
-0.5
 62
   256
  6
BYLAYER
  0
ACDBPLACEHOLDER
  5
20E0
102
{ACAD_REACTORS
330
20DF
102
}
330
20DF
  0
TABLESTYLE
  5
2969
102
{ACAD_REACTORS
330
2968
102
}
330
2968
100
AcDbTableStyle
  3
Standard
 70
     0
 71
     0
 40
0.06
 41
0.06
280
     0
281
     0
  7
STANDARD
140
0.18
170
     2
 62
     0
 63
     7
283
     0
274
    -2
284
     1
 64
     0
275
    -2
285
     1
 65
     0
276
    -2
286
     1
 66
     0
277
    -2
287
     1
 67
     0
278
    -2
288
     1
 68
     0
279
    -2
289
     1
 69
     0
  7
STANDARD
140
0.25
170
     5
 62
     0
 63
     7
283
     0
274
    -2
284
     1
 64
     0
275
    -2
285
     1
 65
     0
276
    -2
286
     1
 66
     0
277
    -2
287
     1
 67
     0
278
    -2
288
     1
 68
     0
279
    -2
289
     1
 69
     0
  7
STANDARD
140
0.18
170
     5
 62
     0
 63
     7
283
     0
274
    -2
284
     1
 64
     0
275
    -2
285
     1
 65
     0
276
    -2
286
     1
 66
     0
277
    -2
287
     1
 67
     0
278
    -2
288
     1
 68
     0
279
    -2
289
     1
 69
     0
  0
DICTIONARYVAR
  5
29EA
102
{ACAD_REACTORS
330
2314
102
}
330
2314
100
DictionaryVariables
280
     0
  1
STANDARD
  0
DICTIONARYVAR
  5
2315
102
{ACAD_REACTORS
330
2314
102
}
330
2314
100
DictionaryVariables
280
     0
  1
1
  0
DICTIONARYVAR
  5
2373
102
{ACAD_REACTORS
330
2314
102
}
330
2314
100
DictionaryVariables
280
     0
  1
1
  0
DICTIONARYVAR
  5
3991
102
{ACAD_REACTORS
330
2314
102
}
330
2314
100
DictionaryVariables
280
     0
  1

  0
DICTIONARY
  5
233C
102
{ACAD_REACTORS
330
2336
102
}
330
2336
100
AcDbDictionary
281
     1
  0
XRECORD
  5
29DE
102
{ACAD_REACTORS
330
2336
102
}
330
2336
100
AcDbXrecord
280
     1
 90
-1023410169
  0
LAYER_INDEX
  5
382B
102
{ACAD_REACTORS
330
382A
102
}
330
382A
100
AcDbIndex
 40
2454649.413867048
100
AcDbLayerIndex
  8
0
360
382C
 90
       45
  8
DEFPOINTS
360
382D
 90
        0
  8
DIM
360
382E
 90
        8
  8
CENTER
360
382F
 90
       22
  8
LOGO
360
3830
 90
       90
  8
AM_VIS
360
3831
 90
      320
  8
AM_7
360
3832
 90
       11
  8
ASHADE
360
3834
 90
        9
  0
DICTIONARY
  5
3A12
330
20F2
100
AcDbDictionary
280
     1
281
     1
  3
ACAD_XREC_ROUNDTRIP
360
3A13
  0
DICTIONARY
  5
3A10
330
20EE
100
AcDbDictionary
280
     1
281
     1
  3
ACAD_XREC_ROUNDTRIP
360
3A11
  0
IDBUFFER
  5
382C
330
0
100
AcDbIdBuffer
330
676
330
677
330
683
330
684
330
6DE
330
6DF
330
6E0
330
6E3
330
6E6
330
6E7
330
6E9
330
6EA
330
6EB
330
6EC
330
7A8
330
7A9
330
7AA
330
7AB
330
7E1
330
7E2
330
7E3
330
7E4
330
7E5
330
7E6
330
7E7
330
7E8
330
7E9
330
7EA
330
7EB
330
7EC
330
7ED
330
7EE
330
7EF
330
7F0
330
7F1
330
7F2
330
7F3
330
7F7
330
7F9
330
7FA
330
7FB
330
31B5
330
3563
330
3564
330
3565
  0
IDBUFFER
  5
382D
330
0
100
AcDbIdBuffer
  0
IDBUFFER
  5
382E
330
0
100
AcDbIdBuffer
330
28E9
330
2C29
330
2CFD
330
2D21
330
311A
330
311B
330
311C
330
3927
  0
IDBUFFER
  5
382F
330
0
100
AcDbIdBuffer
330
675
330
1AB1
330
2FAA
330
2FBC
330
2FBD
330
2FBE
330
2FBF
330
2FC0
330
2FC1
330
2FC2
330
2FC9
330
2FD1
330
2FD2
330
2FD3
330
2FD4
330
2FD7
330
2FD8
330
311D
330
38EF
330
38F0
330
38F1
330
38F2
  0
IDBUFFER
  5
3830
330
0
100
AcDbIdBuffer
330
34E4
330
34E5
330
34E6
330
34E7
330
34E8
330
34E9
330
34EA
330
34EB
330
34EC
330
34ED
330
34EE
330
34EF
330
34F0
330
34F1
330
34F2
330
34F3
330
34F4
330
34F5
330
34F6
330
34F7
330
34F8
330
34F9
330
34FA
330
34FB
330
34FC
330
34FD
330
34FE
330
34FF
330
3500
330
3501
330
3502
330
3506
330
350A
330
350B
330
350F
330
3510
330
3511
330
3512
330
3513
330
3514
330
3515
330
3516
330
351A
330
351E
330
3522
330
3523
330
3524
330
3528
330
3529
330
352A
330
352B
330
352C
330
352D
330
352E
330
352F
330
3530
330
3531
330
3532
330
3533
330
3534
330
3535
330
3536
330
3537
330
3538
330
3539
330
353A
330
353B
330
353C
330
353D
330
353E
330
353F
330
3540
330
3541
330
3542
330
3543
330
3544
330
3545
330
3546
330
3547
330
3548
330
3549
330
354A
330
354B
330
354C
330
354D
330
354E
330
354F
330
3550
330
3551
330
3552
  0
IDBUFFER
  5
3831
330
0
100
AcDbIdBuffer
330
2FDA
330
2FDB
330
2FDC
330
2FDD
330
2FDE
330
2FDF
330
2FE0
330
2FE1
330
2FE2
330
2FE3
330
2FE4
330
2FE5
330
2FE6
330
2FE7
330
2FE8
330
2FE9
330
2FEA
330
2FEB
330
2FEC
330
2FED
330
2FEE
330
2FEF
330
2FF0
330
2FF1
330
2FF2
330
2FF3
330
2FF4
330
2FF5
330
2FF6
330
2FF7
330
2FF8
330
2FF9
330
2FFA
330
2FFB
330
2FFC
330
2FFD
330
2FFE
330
2FFF
330
3000
330
3001
330
3002
330
3003
330
3004
330
3005
330
3006
330
3007
330
3008
330
3009
330
300A
330
300B
330
300C
330
300D
330
300E
330
300F
330
3010
330
3011
330
3012
330
3013
330
3014
330
3015
330
3016
330
3017
330
3018
330
3019
330
301A
330
301B
330
301C
330
301D
330
301E
330
301F
330
3020
330
3021
330
3022
330
3023
330
3024
330
3025
330
3026
330
3027
330
3028
330
3029
330
302A
330
302B
330
302C
330
302D
330
3030
330
3031
330
304B
330
304C
330
304D
330
304E
330
304F
330
3050
330
3051
330
3052
330
3053
330
3054
330
3055
330
3056
330
3057
330
3058
330
3059
330
305A
330
305B
330
305C
330
305D
330
305E
330
305F
330
3060
330
3061
330
3062
330
3063
330
3064
330
3065
330
3066
330
3067
330
3068
330
3069
330
306A
330
306B
330
306C
330
306D
330
306E
330
306F
330
3070
330
3071
330
3072
330
3073
330
3074
330
3075
330
3076
330
3077
330
3078
330
3079
330
307A
330
307B
330
307C
330
307D
330
307E
330
307F
330
3080
330
3081
330
3082
330
3083
330
3084
330
3085
330
3086
330
3087
330
3088
330
3089
330
308A
330
308B
330
308C
330
308D
330
308E
330
308F
330
3090
330
3091
330
3092
330
3093
330
3094
330
3095
330
3096
330
3097
330
3098
330
3099
330
309A
330
309B
330
309C
330
309D
330
309E
330
309F
330
30A0
330
30A1
330
30A2
330
30A3
330
30A4
330
30A5
330
30A6
330
30A7
330
30A8
330
30A9
330
30AA
330
30AB
330
30AC
330
30AD
330
30AF
330
30B0
330
30B1
330
30B2
330
30B3
330
30B4
330
30B5
330
30B6
330
30B7
330
30B8
330
30B9
330
30BA
330
30BB
330
30BC
330
30BD
330
30BE
330
30BF
330
30C0
330
30C1
330
30C2
330
30C3
330
30C5
330
30C6
330
30C7
330
30C8
330
30C9
330
30CA
330
30CB
330
30CC
330
30CD
330
30D0
330
30E3
330
30E4
330
30E5
330
30E6
330
30E7
330
30E8
330
30E9
330
30EA
330
30EB
330
30EC
330
30ED
330
30EE
330
30EF
330
30F0
330
30F1
330
30F2
330
30F3
330
30F4
330
30F5
330
30F6
330
30F7
330
30F8
330
30F9
330
30FA
330
30FB
330
30FC
330
30FD
330
30FE
330
30FF
330
3100
330
3101
330
3102
330
3103
330
3104
330
3105
330
3106
330
3107
330
3108
330
3109
330
310A
330
310B
330
310C
330
310D
330
310E
330
310F
330
3110
330
3111
330
3112
330
3113
330
3114
330
3115
330
3116
330
3117
330
3118
330
3119
330
38F3
330
38F4
330
38F5
330
38F6
330
38F7
330
38F8
330
38F9
330
38FA
330
38FB
330
38FC
330
38FD
330
38FE
330
38FF
330
3900
330
3901
330
3902
330
3903
330
3904
330
3905
330
3906
330
3907
330
3908
330
3909
330
390A
330
390B
330
390C
330
390D
330
390E
330
390F
330
3910
330
3911
330
3912
330
3913
330
3914
330
3915
330
3916
330
3917
330
3918
330
3919
330
391A
330
391B
330
391C
330
391D
330
391E
330
391F
330
3920
330
3921
330
3922
330
3923
  0
IDBUFFER
  5
3832
330
0
100
AcDbIdBuffer
330
2FAF
330
2FB0
330
2FB6
330
2FB7
330
2FBA
330
2FBB
330
2FCD
330
2FCE
330
38ED
330
38EE
330
3924
  0
IDBUFFER
  5
3834
330
0
100
AcDbIdBuffer
330
31A6
330
31A7
330
31A8
330
31A9
330
31AA
330
31AB
330
31AC
330
31AD
330
31B4
  0
XRECORD
  5
3A13
102
{ACAD_REACTORS
330
3A12
102
}
330
3A12
100
AcDbXrecord
280
     1
102
SHADEPLOT
 70
     0
102
SHADEPLOTRESLEVEL
 70
     2
102
SHADEPLOTCUSTOMDPI
 70
   300
  0
XRECORD
  5
3A11
102
{ACAD_REACTORS
330
3A10
102
}
330
3A10
100
AcDbXrecord
280
     1
102
SHADEPLOT
 70
     0
102
SHADEPLOTRESLEVEL
 70
     2
102
SHADEPLOTCUSTOMDPI
 70
   300
  0
ENDSEC
  0
EOF
