  0
SECTION
  2
HEADER
  9
$ACADVER
  1
AC1012
  9
$DWGCODEPAGE
  3
big5
  9
$INSBASE
 10
0.0
 20
0.0
 30
0.0
  9
$EXTMIN
 10
-291.546701195687
 20
96.8452212017287
 30
-0.0015258207003583
  9
$EXTMAX
 10
9.301037592563488
 20
512.7679783701264
 30
0.0000000349246037
  9
$LIMMIN
 10
0.0
 20
0.0
  9
$LIMMAX
 10
420.0
 20
297.0
  9
$ORTHOMODE
 70
     0
  9
$REGENMODE
 70
     1
  9
$FILLMODE
 70
     1
  9
$QTEXTMODE
 70
     0
  9
$MIRRTEXT
 70
     1
  9
$DRAGMODE
 70
     2
  9
$LTSCALE
 40
1.0
  9
$OSMODE
 70
    37
  9
$ATTMODE
 70
     1
  9
$TEXTSIZE
 40
3.0
  9
$TRACEWID
 40
1.0
  9
$TEXTSTYLE
  7
STANDARD
  9
$CLAYER
  8
0
  9
$CELTYPE
  6
BYLAYER
  9
$CECOLOR
 62
   256
  9
$CELTSCALE
 40
1.0
  9
$DELOBJ
 70
     1
  9
$DISPSILH
 70
     0
  9
$DIMSCALE
 40
1.0
  9
$DIMASZ
 40
3.0
  9
$DIMEXO
 40
1.5
  9
$DIMDLI
 40
7.0
  9
$DIMRND
 40
0.0
  9
$DIMDLE
 40
0.0
  9
$DIMEXE
 40
2.0
  9
$DIMTP
 40
0.1
  9
$DIMTM
 40
0.1
  9
$DIMTXT
 40
3.0
  9
$DIMCEN
 40
0.0
  9
$DIMTSZ
 40
0.0
  9
$DIMTOL
 70
     0
  9
$DIMLIM
 70
     0
  9
$DIMTIH
 70
     0
  9
$DIMTOH
 70
     0
  9
$DIMSE1
 70
     0
  9
$DIMSE2
 70
     0
  9
$DIMTAD
 70
     1
  9
$DIMZIN
 70
     8
  9
$DIMBLK
  1

  9
$DIMASO
 70
     1
  9
$DIMSHO
 70
     1
  9
$DIMPOST
  1

  9
$DIMAPOST
  1
"
  9
$DIMALT
 70
     0
  9
$DIMALTD
 70
     2
  9
$DIMALTF
 40
0.0393701
  9
$DIMLFAC
 40
1.0
  9
$DIMTOFL
 70
     1
  9
$DIMTVP
 40
0.0
  9
$DIMTIX
 70
     0
  9
$DIMSOXD
 70
     0
  9
$DIMSAH
 70
     0
  9
$DIMBLK1
  1

  9
$DIMBLK2
  1

  9
$DIMSTYLE
  2
AM_ISO
  9
$DIMCLRD
 70
   256
  9
$DIMCLRE
 70
   256
  9
$DIMCLRT
 70
   256
  9
$DIMTFAC
 40
0.71
  9
$DIMGAP
 40
0.8
  9
$DIMJUST
 70
     0
  9
$DIMSD1
 70
     0
  9
$DIMSD2
 70
     0
  9
$DIMTOLJ
 70
     0
  9
$DIMTZIN
 70
     8
  9
$DIMALTZ
 70
     0
  9
$DIMALTTZ
 70
     0
  9
$DIMFIT
 70
     3
  9
$DIMUPT
 70
     0
  9
$DIMUNIT
 70
     2
  9
$DIMDEC
 70
     2
  9
$DIMTDEC
 70
     2
  9
$DIMALTU
 70
     2
  9
$DIMALTTD
 70
     2
  9
$DIMTXSTY
  7
STANDARD
  9
$DIMAUNIT
 70
     0
  9
$LUNITS
 70
     2
  9
$LUPREC
 70
     2
  9
$SKETCHINC
 40
1.0
  9
$FILLETRAD
 40
2.5
  9
$AUNITS
 70
     0
  9
$AUPREC
 70
     0
  9
$MENU
  1
.
  9
$ELEVATION
 40
0.0
  9
$PELEVATION
 40
0.0
  9
$THICKNESS
 40
0.0
  9
$LIMCHECK
 70
     0
  9
$BLIPMODE
 70
     0
  9
$CHAMFERA
 40
2.5
  9
$CHAMFERB
 40
2.5
  9
$CHAMFERC
 40
20.0
  9
$CHAMFERD
 40
0.0
  9
$SKPOLY
 70
     0
  9
$TDCREATE
 40
2453007.342608623
  9
$TDUPDATE
 40
2453057.480329490
  9
$TDINDWG
 40
0.1937177546
  9
$TDUSRTIMER
 40
0.1933047801
  9
$USRTIMER
 70
     1
  9
$ANGBASE
 50
0.0
  9
$ANGDIR
 70
     0
  9
$PDMODE
 70
     0
  9
$PDSIZE
 40
0.0
  9
$PLINEWID
 40
0.0
  9
$COORDS
 70
     1
  9
$SPLFRAME
 70
     0
  9
$SPLINETYPE
 70
     6
  9
$SPLINESEGS
 70
     8
  9
$ATTDIA
 70
     1
  9
$ATTREQ
 70
     1
  9
$HANDLING
 70
 22529
  9
$HANDSEED
  5
50C
  9
$SURFTAB1
 70
     6
  9
$SURFTAB2
 70
     6
  9
$SURFTYPE
 70
     6
  9
$SURFU
 70
     6
  9
$SURFV
 70
     6
  9
$UCSNAME
  2

  9
$UCSORG
 10
0.0
 20
0.0
 30
0.0
  9
$UCSXDIR
 10
1.0
 20
0.0
 30
0.0
  9
$UCSYDIR
 10
0.0
 20
1.0
 30
0.0
  9
$PUCSNAME
  2

  9
$PUCSORG
 10
0.0
 20
0.0
 30
0.0
  9
$PUCSXDIR
 10
1.0
 20
0.0
 30
0.0
  9
$PUCSYDIR
 10
0.0
 20
1.0
 30
0.0
  9
$USERI1
 70
     0
  9
$USERI2
 70
     0
  9
$USERI3
 70
     0
  9
$USERI4
 70
     0
  9
$USERI5
 70
     0
  9
$USERR1
 40
0.0
  9
$USERR2
 40
0.0
  9
$USERR3
 40
0.0
  9
$USERR4
 40
0.0
  9
$USERR5
 40
0.0
  9
$WORLDVIEW
 70
     1
  9
$SHADEDGE
 70
     3
  9
$SHADEDIF
 70
    70
  9
$TILEMODE
 70
     1
  9
$MAXACTVP
 70
    64
  9
$PINSBASE
 10
0.0
 20
0.0
 30
0.0
  9
$PLIMCHECK
 70
     0
  9
$PEXTMIN
 10
58.79092756563522
 20
81.91799170367506
 30
-0.0015258207003583
  9
$PEXTMAX
 10
411.4386283354008
 20
427.3015428405906
 30
0.0000000349246037
  9
$PLIMMIN
 10
-118.3985592208097
 20
31.26498204809676
  9
$PLIMMAX
 10
526.2630792708574
 20
487.0655542537563
  9
$UNITMODE
 70
     0
  9
$VISRETAIN
 70
     1
  9
$PLINEGEN
 70
     0
  9
$PSLTSCALE
 70
     1
  9
$TREEDEPTH
 70
  3020
  9
$PICKSTYLE
 70
     1
  9
$CMLSTYLE
  2
STANDARD
  9
$CMLJUST
 70
     0
  9
$CMLSCALE
 40
20.0
  9
$SAVEIMAGES
 70
     1
  0
ENDSEC
  0
SECTION
  2
CLASSES
  0
CLASS
  1
ACDBDICTIONARYWDFLT
  2
AcDbDictionaryWithDefault
  3
AutoCAD 2000
 90
    32768
280
     0
281
     0
  0
CLASS
  1
ACDBPLACEHOLDER
  2
AcDbPlaceHolder
  3
AutoCAD 2000
 90
    32768
280
     0
281
     0
  0
CLASS
  1
LAYOUT
  2
AcDbLayout
  3
AutoCAD 2000
 90
    32768
280
     0
281
     0
  0
CLASS
  1
AMGSETTINGSOBJ
  2
AmgSettingsObj
  3
"AcadM|Product Description: AutoCAD Mechanical 2000|Company: Autodesk"
 90
    32768
280
     1
281
     0
  0
CLASS
  1
ACME_DOCUMENT
  2
AcMeDbDoc
  3
AcMeServices
 90
    32768
280
     0
281
     0
  0
CLASS
  1
ACMESCOPE
  2
AcMeScope
  3
AcMeServices
 90
    32768
280
     0
281
     0
  0
CLASS
  1
ACMECOMMANDHISTORY
  2
AcMeCommandHistory
  3
AcMeServices
 90
    32768
280
     0
281
     0
  0
CLASS
  1
ACIMSYSVARMAN
  2
AcImSysVarManager
  3
AcMeServices
 90
    32768
280
     0
281
     0
  0
CLASS
  1
ACIMREALSYSVAR
  2
AcImRealSysVar
  3
AcMeServices
 90
    32768
280
     0
281
     0
  0
CLASS
  1
ACIMINTSYSVAR
  2
AcImIntSysVar
  3
AcMeServices
 90
    32768
280
     0
281
     0
  0
CLASS
  1
ACMEDRAWINGMAN
  2
AcMeDrawingMan
  3
AcMeServices
 90
    32768
280
     0
281
     0
  0
CLASS
  1
ACMEVIEW
  2
AcMeView
  3
AcMeServices
 90
    32768
280
     0
281
     0
  0
CLASS
  1
ACDBENTITYCACHE
  2
AcMeEntityCache
  3
AcMeServices
 90
    32768
280
     0
281
     0
  0
CLASS
  1
GSMANAGER
  2
AcMeGSManager
  3
AcMeServices
 90
    32768
280
     0
281
     0
  0
CLASS
  1
AMDTINTERNALREACTOR
  2
AmdtInternalReactor
  3
AcMeServices
 90
    32768
280
     0
281
     0
  0
CLASS
  1
ACMESTATEMGR
  2
AcMeStateMgr
  3
AcMeServices
 90
    32768
280
     0
281
     0
  0
CLASS
  1
ACGREFMASTER
  2
AcGrefMaster
  3
AcAttribServices
 90
    32768
280
     0
281
     0
  0
CLASS
  1
AM_DRAWING_MGR
  2
AcDmDwgMgr
  3
AcMechDwgViewMgmt
 90
    32768
280
     0
281
     0
  0
CLASS
  1
AM_DWG_DOCUMENT
  2
AcDmDwgDocument
  3
AcMechDwgViewMgmt
 90
    32768
280
     0
281
     0
  0
CLASS
  1
AM_DWG_SHEET
  2
AcDmSheet
  3
AcMechDwgViewMgmt
 90
    32768
280
     0
281
     0
  0
CLASS
  1
AM_VIEWDIMPARMAP
  2
AcDmViewDimParMap
  3
AcMechDwgViewMgmt
 90
    32768
280
     0
281
     0
  0
CLASS
  1
AM_DWGMGR_NAME
  2
AcDmDwgMgrName
  3
AcMechDwgViewMgmt
 90
    32768
280
     0
281
     0
  0
CLASS
  1
ACME_DATABASE
  2
AcMeDbDatabase
  3
AcMeServices
 90
    32768
280
     0
281
     0
  0
CLASS
  1
ACRFINSADJUSTERMGR
  2
AcRfInsAdjusterMgr
  3
AcMeServices
 90
    32768
280
     0
281
     0
  0
CLASS
  1
ACGREFACADMASTER
  2
AcGrefacadMaster
  3
AcGrefServices
 90
    32768
280
     0
281
     0
  0
CLASS
  1
AMDTMENUSTATEMGR
  2
AmdtMenuStateMgr
  3
McadcomServices
 90
    32768
280
     0
281
     0
  0
CLASS
  1
AMDTMCOMMENUSTATE
  2
AmdtMcomMenuState
  3
McadcomServices
 90
    32768
280
     0
281
     0
  0
CLASS
  1
AMIMASTER
  2
AmiMaster
  3
AmiServices
 90
    32768
280
     0
281
     0
  0
CLASS
  1
ASAPP
  2
AcAsAppObject
  3
AutoSurfServices
 90
    32768
280
     0
281
     0
  0
CLASS
  1
IM_STATIC_MAN
  2
AcImStaticVarManager
  3
AcMeServices
 90
    32768
280
     0
281
     0
  0
CLASS
  1
ACIMSTRSYSVAR
  2
AcImStrSysVar
  3
AcMeServices
 90
    32768
280
     0
281
     0
  0
CLASS
  1
ACIMDBLSTATICVAR
  2
AcImDblStaticVar
  3
AcMeServices
 90
    32768
280
     0
281
     0
  0
CLASS
  1
ACIMSTRSTATICVAR
  2
AcImStrStaticVar
  3
AcMeServices
 90
    32768
280
     0
281
     0
  0
CLASS
  1
ACIMINTSTATICVAR
  2
AcImIntStaticVar
  3
AcMeServices
 90
    32768
280
     0
281
     0
  0
CLASS
  1
ACASGREFMASTER
  2
AcAsGrefMaster
  3
AutoSurfResolverServices
 90
    32768
280
     0
281
     0
  0
CLASS
  1
ACADGREFMODULE
  2
AcAdGrefModule
  3
AdGrefServices
 90
    32768
280
     0
281
     0
  0
CLASS
  1
AMDTMAPISURFMOUDULE
  2
AmdtMApiSurfModule
  3
MApiSurfServices
 90
    32768
280
     0
281
     0
  0
CLASS
  1
MAPIAMMOUDLE
  2
MApiAmModule
  3
MApiAmServices
 90
    32768
280
     0
281
     0
  0
CLASS
  1
AMDTADMENUSTATE
  2
AmdtAdMenuState
  3
DesignerServices
 90
    32768
280
     0
281
     0
  0
CLASS
  1
ADAPPL
  2
AcAdAppl
  3
DesignerServices
 90
    32768
280
     0
281
     0
  0
CLASS
  1
DEPMGR
  2
AcAdDepMgr
  3
DesignerServices
 90
    32768
280
     0
281
     0
  0
CLASS
  1
PARAMMGR
  2
AcAdParamMgr
  3
DesignerServices
 90
    32768
280
     0
281
     0
  0
CLASS
  1
PARAMSCOPE
  2
AcAdParamScope
  3
DesignerServices
 90
    32768
280
     0
281
     0
  0
CLASS
  1
NAMEDAPPL
  2
AcAdNamedAppl
  3
DesignerServices
 90
    32768
280
     0
281
     0
  0
CLASS
  1
AMDTDMMENUSTATE
  2
AmdtDmMenuState
  3
AcMechDwgViewMgmt
 90
    32768
280
     0
281
     0
  0
CLASS
  1
MAPIADMODULE
  2
MApiAdModule
  3
MApiAdServices
 90
    32768
280
     0
281
     0
  0
CLASS
  1
AMDTAMMENUSTATE
  2
AmdtAmMenuState
  3
DesignerAssemblies
 90
    32768
280
     0
281
     0
  0
CLASS
  1
ACAMPROJECT
  2
AcAmProject
  3
DesignerAssemblies
 90
    32768
280
     0
281
     0
  0
CLASS
  1
ACAMGRCOMPDEF
  2
AcAmGrCompDef
  3
DesignerAssemblies
 90
    32768
280
     0
281
     0
  0
CLASS
  1
ACCMCONTEXT
  2
AcCmContext
  3
DesignerAssemblies
 90
    32768
280
     0
281
     0
  0
CLASS
  1
ACAMCOMPDEF
  2
AcAmCompDef
  3
DesignerAssemblies
 90
    32768
280
     0
281
     0
  0
CLASS
  1
ACAMCOMPDEFMGR
  2
AcAmCompDefMgr
  3
DesignerAssemblies
 90
    32768
280
     0
281
     0
  0
CLASS
  1
AMCONTEXTMGR
  2
AcAmContextMgr
  3
DesignerAssemblies
 90
    32768
280
     0
281
     0
  0
CLASS
  1
ACAMCONTEXTMODELER
  2
AcAmContextModeler
  3
DesignerAssemblies
 90
    32768
280
     0
281
     0
  0
CLASS
  1
ACMDATADICTIONARY
  2
AcmDataDictionary
  3
"AcmSymBB|Product Description: AutoCAD Mechanical 2000|Company: Autodesk"
 90
    32768
280
     0
281
     0
  0
CLASS
  1
ACMDATAENTRYBLOCK
  2
AcmDataEntryBlock
  3
"AcmSymBB|Product Description: AutoCAD Mechanical 2000|Company: Autodesk"
 90
    32768
280
     0
281
     0
  0
CLASS
  1
ACMSTANDARDISO
  2
AcmStandardISO
  3
"Amdt_StdImp|Product Description: AutoCAD Mechanical 2000|Company: Autodesk"
 90
    32768
280
     0
281
     0
  0
CLASS
  1
AMGOBJPROPCFG
  2
AmgObjPropCfg
  3
"AmgLay|Product Description: AutoCAD Mechanical 2000|Company: Autodesk"
 90
    32769
280
     0
281
     0
  0
CLASS
  1
AMDTEDGESTANDARDISO
  2
AmdtEdgeStdISO
  3
"Amdt_StdImp|Product Description: AutoCAD Mechanical 2000|Company: Autodesk"
 90
    32768
280
     0
281
     0
  0
CLASS
  1
ACMSURFSTANDARDISO
  2
AcmSurfTextStdISO
  3
"Amdt_StdImp|Product Description: AutoCAD Mechanical 2000|Company: Autodesk"
 90
    32768
280
     0
281
     0
  0
CLASS
  1
ACMFCFSTANDARDISO
  2
AcmFCFStdISO
  3
"Amdt_StdImp|Product Description: AutoCAD Mechanical 2000|Company: Autodesk"
 90
    32768
280
     0
281
     0
  0
CLASS
  1
ACMWELDSTANDARDISO
  2
AcmWeldingStdISO
  3
"Amdt_StdImp|Product Description: AutoCAD Mechanical 2000|Company: Autodesk"
 90
    32768
280
     0
281
     0
  0
CLASS
  1
ACMIDSTANDARDISO
  2
AcmIdStdISO
  3
"Amdt_StdImp|Product Description: AutoCAD Mechanical 2000|Company: Autodesk"
 90
    32768
280
     0
281
     0
  0
CLASS
  1
ACMDATUMSTANDARDISO
  2
AcmDatumStdISO
  3
"Amdt_StdImp|Product Description: AutoCAD Mechanical 2000|Company: Autodesk"
 90
    32768
280
     0
281
     0
  0
CLASS
  1
ACMBOMSTANDARDISO
  2
AcmBOMStdISO
  3
"Amdt_StdImp|Product Description: AutoCAD Mechanical 2000|Company: Autodesk"
 90
    32768
280
     0
281
     0
  0
CLASS
  1
ACMDETAILSTANDARDISO
  2
AmdtDetailSymStdISO
  3
"Amdt_StdImp|Product Description: AutoCAD Mechanical 2000|Company: Autodesk"
 90
    32768
280
     0
281
     0
  0
CLASS
  1
ACMSECTIONSTANDARDISO
  2
AmdtSectionSymStdISO
  3
"Amdt_StdImp|Product Description: AutoCAD Mechanical 2000|Company: Autodesk"
 90
    32768
280
     0
281
     0
  0
CLASS
  1
ACMCENTERLINESTANDARDISO
  2
AmdtCenterLineStdISO
  3
"Amdt_StdImp|Product Description: AutoCAD Mechanical 2000|Company: Autodesk"
 90
    32768
280
     0
281
     0
  0
CLASS
  1
ACMTHREADLINESTANDARDISO
  2
AmdtThreadLineStdISO
  3
"Amdt_StdImp|Product Description: AutoCAD Mechanical 2000|Company: Autodesk"
 90
    32768
280
     0
281
     0
  0
CLASS
  1
ACMNOTESTANDARDISO
  2
AmdtNoteStdISO
  3
"Amdt_StdImp|Product Description: AutoCAD Mechanical 2000|Company: Autodesk"
 90
    32768
280
     0
281
     0
  0
CLASS
  1
ACAMGLAYSTD
  2
AcAmgLayStd
  3
"AcAmgLayStd|Product Description: AutoCAD Mechanical 2000|Company: Autodesk"
 90
    32768
280
     0
281
     0
  0
CLASS
  1
ACAMGDIMSTD
  2
AcAmgDimStd
  3
"AcAmgDimStd|Product Description: AutoCAD Mechanical 2000|Company: Autodesk"
 90
    32768
280
     0
281
     0
  0
CLASS
  1
ACAMGHOLECHARTSTDISO
  2
AcAmgHoleChartStdISO
  3
ACMSYMBB_MODULE_NAME
 90
    32768
280
     0
281
     0
  0
CLASS
  1
ACAMGTITLESTD
  2
AcAmgTitleStd
  3
"TITLEAPP"
 90
    32768
280
     0
281
     0
  0
CLASS
  1
CATALOGSTATE
  2
AcAmCatalogState
  3
DesignerAssemblies
 90
    32768
280
     0
281
     0
  0
CLASS
  1
ACAMGRCOMPDEFSET
  2
AcAmGrCompDefSet
  3
DesignerAssemblies
 90
    32768
280
     0
281
     0
  0
CLASS
  1
AMDTBROWSERDBTAB
  2
AmdtBrowserDbTab
  3
McadcomServices
 90
    32768
280
     0
281
     0
  0
CLASS
  1
CBROWSERAPPOBJECT
  2
CBrowserAppObject
  3
McadcomServices
 90
    32768
280
     0
281
     0
  0
CLASS
  1
DM_PLACEHOLDER
  2
AcDmSelsetPlaceholder
  3
AcMechDwgViewMgmt
 90
    32768
280
     0
281
     0
  0
CLASS
  1
ACAMGFILTERDAT
  2
AcAmgFilterDat
  3
"AcadM|Product Description: AutoCAD Mechanical 2000|Company: Autodesk"
 90
    32768
280
     0
281
     0
  0
CLASS
  1
DIMASSOC
  2
AcDbDimAssoc
  3
"AcDbDimAssoc|Product Desc:     AcDim ARX App For Dimension|Company:          Autodesk, Inc.|WEB Address:      www.autodesk.com"
 90
    32768
280
     1
281
     0
  0
CLASS
  1
LAYER_INDEX
  2
AcDbLayerIndex
  3
AutoCAD 2000
 90
    32768
280
     0
281
     0
  0
CLASS
  1
IDBUFFER
  2
AcDbIdBuffer
  3
AutoCAD 2000
 90
    32768
280
     0
281
     0
  0
CLASS
  1
DICTIONARYVAR
  2
AcDbDictionaryVar
  3
AutoCAD 2000
 90
    32768
280
     0
281
     0
  0
CLASS
  1
ADPART
  2
AcAdPart
  3
DesignerServices
 90
    32768
280
     0
281
     1
  0
CLASS
  1
ADBASE
  2
AcAdBase
  3
DesignerServices
 90
    32768
280
     0
281
     0
  0
CLASS
  1
BODYID
  2
AcAdBodyId
  3
DesignerServices
 90
    32768
280
     0
281
     0
  0
CLASS
  1
WORKPLANEDISPLAYMGR
  2
AcAdDisplayMgr
  3
DesignerServices
 90
    32768
280
     0
281
     0
  0
CLASS
  1
ACCMBODY
  2
AcCmBody
  3
DesignerAssemblies
 90
    32768
280
     0
281
     0
  0
CLASS
  1
ACAMCOMPENT
  2
AcAmCompEnt
  3
DesignerAssemblies
 90
    32768
280
     0
281
     1
  0
CLASS
  1
ACAMCOMPFEEDBACK
  2
AcAmCompFeedback
  3
DesignerAssemblies
 90
    32768
280
     0
281
     0
  0
CLASS
  1
ACAMCOMP
  2
AcAmComp
  3
DesignerAssemblies
 90
    32768
280
     0
281
     0
  0
CLASS
  1
ACAMCOMPENTCLONE
  2
AcAmCompEntClone
  3
DesignerAssemblies
 90
    32768
280
     0
281
     1
  0
CLASS
  1
ACAMCLONEREACTOR
  2
AcAmGrCompCloneReactor
  3
DesignerAssemblies
 90
    32768
280
     0
281
     0
  0
CLASS
  1
ADDATUMPLANEABS
  2
AcAdDatumPlaneAbs
  3
DesignerServices
 90
    32768
280
     0
281
     0
  0
CLASS
  1
ADDATUMAXISABS
  2
AcAdDatumAxisAbs
  3
DesignerServices
 90
    32768
280
     0
281
     0
  0
CLASS
  1
ADDATUMORIENTEDPLANE
  2
AcAdDatumOrientedPlane
  3
DesignerServices
 90
    32768
280
     0
281
     0
  0
CLASS
  1
ACAD_CIRCLE
  2
AcAdCircle
  3
DesignerServices
 90
    32768
280
     0
281
     1
  0
CLASS
  1
ACADCIRCLEACAD
  2
AcAdVirtualCircleAcad
  3
DesignerServices
 90
    32768
280
     0
281
     0
  0
CLASS
  1
ACADREFLINEACAD
  2
AcAdVirtualReferenceLine
  3
DesignerServices
 90
    32768
280
     0
281
     0
  0
CLASS
  1
ACADCONSLINE
  2
AcAdConstrainedLine
  3
DesignerServices
 90
    32768
280
     0
281
     0
  0
CLASS
  1
ACADCONSGROUP
  2
AcAdConstraintGroup
  3
DesignerServices
 90
    32768
280
     0
281
     0
  0
CLASS
  1
ACADCONSCIRCLE
  2
AcAdConstrainedCircle
  3
DesignerServices
 90
    32768
280
     0
281
     0
  0
CLASS
  1
ACADCONSPOINT
  2
AcAdConstrainedPoint
  3
DesignerServices
 90
    32768
280
     0
281
     0
  0
CLASS
  1
ACADIMPPTACAD
  2
AcAdVirtualImplicitPoint
  3
DesignerServices
 90
    32768
280
     0
281
     0
  0
CLASS
  1
ADCTRPTCNS
  2
AcAdCenterPointConstr
  3
DesignerServices
 90
    32768
280
     0
281
     0
  0
CLASS
  1
ADCLPROF2D
  2
AcAdClosedProfile2d
  3
DesignerServices
 90
    32768
280
     0
281
     0
  0
CLASS
  1
ACAD_FIXCONSTRAINT
  2
AcAdFixedConstraint
  3
DesignerServices
 90
    32768
280
     0
281
     0
  0
CLASS
  1
AMDTFORMULAUPDATEDISPATCHER
  2
AmdtFormulaUpdateDispatcher
  3
AcMeServices
 90
    32768
280
     0
281
     0
  0
CLASS
  1
ADCONSTDSP
  2
AcAdConstraintDisplayTag
  3
DesignerServices
 90
    32768
280
     0
281
     1
  0
CLASS
  1
ADCONSDISP
  2
AcAdConstraintDisplay
  3
DesignerServices
 90
    32768
280
     0
281
     1
  0
CLASS
  1
PARAM
  2
AcAdParam
  3
DesignerServices
 90
    32768
280
     0
281
     0
  0
CLASS
  1
ADDIACNS
  2
AcAdAcadDiameterConstr
  3
DesignerServices
 90
    32768
280
     0
281
     0
  0
CLASS
  1
ACMELINEARARROW
  2
AcImLinearArrowDisplay
  3
AcMeServices
 90
    32768
280
     0
281
     1
  0
CLASS
  1
ACADVOLFEATWITHTRIM
  2
AcAdVolFeatWithTrim
  3
DesignerServices
 90
    32768
280
     0
281
     0
  0
CLASS
  1
DEPEDGEFEATUREORDERING
  2
AcAdDepEdgeFeatureOrdering
  3
DesignerServices
 90
    32768
280
     0
281
     0
  0
CLASS
  1
ADPLANEID
  2
AcAdPlaneId
  3
DesignerServices
 90
    32768
280
     0
281
     0
  0
CLASS
  1
ADDATUMPLANEFACE
  2
AcAdDatumPlaneFace
  3
DesignerServices
 90
    32768
280
     0
281
     0
  0
CLASS
  1
ACMEPLINE
  2
AcImPlineDisplay
  3
AcMeServices
 90
    32768
280
     0
281
     1
  0
CLASS
  1
ACMETEXT
  2
AcImTextDisplay
  3
AcMeServices
 90
    32768
280
     0
281
     1
  0
CLASS
  1
ADCONCCNS
  2
AcAdConcentricConstr
  3
DesignerServices
 90
    32768
280
     0
281
     0
  0
CLASS
  1
CIRREFID
  2
AcAdCircleRefId
  3
DesignerServices
 90
    32768
280
     0
281
     0
  0
CLASS
  1
ACADCIRCDEPID
  2
AcAdVirtualCircleDepId
  3
DesignerServices
 90
    32768
280
     0
281
     0
  0
CLASS
  1
ACAD_LINE
  2
AcAdLine
  3
DesignerServices
 90
    32768
280
     0
281
     1
  0
CLASS
  1
ACADLINEACAD
  2
AcAdVirtualBoundedLineAcad
  3
DesignerServices
 90
    32768
280
     0
281
     0
  0
CLASS
  1
ADPCURCNS
  2
AcAdPointCurveConstr
  3
DesignerServices
 90
    32768
280
     0
281
     0
  0
CLASS
  1
ADHORCNS
  2
AcAdHorizontalConstr
  3
DesignerServices
 90
    32768
280
     0
281
     0
  0
CLASS
  1
ADPARCNS
  2
AcAdParallelConstr
  3
DesignerServices
 90
    32768
280
     0
281
     0
  0
CLASS
  1
ADVDISTCNS
  2
AcAdVerticalDistanceConstr
  3
DesignerServices
 90
    32768
280
     0
281
     0
  0
CLASS
  1
ADPDISTCNS
  2
AcAdParallelDistanceConstr
  3
DesignerServices
 90
    32768
280
     0
281
     0
  0
CLASS
  1
ADBDISTCNS
  2
AcAdAcadAngleConstr
  3
DesignerServices
 90
    32768
280
     0
281
     0
  0
CLASS
  1
ADHDISTCNS
  2
AcAdHorizontalDistanceConstr
  3
DesignerServices
 90
    32768
280
     0
281
     0
  0
CLASS
  1
EDGEID
  2
AcAdEdgeId
  3
DesignerServices
 90
    32768
280
     0
281
     0
  0
CLASS
  1
ADFILLET
  2
AcAdFillet
  3
DesignerServices
 90
    32768
280
     0
281
     0
  0
CLASS
  1
ADRADDISP
  2
AcAdRadiusDisplay
  3
DesignerServices
 90
    32768
280
     0
281
     1
  0
CLASS
  1
ADVERCNS
  2
AcAdVerticalConstr
  3
DesignerServices
 90
    32768
280
     0
281
     0
  0
CLASS
  1
ACMEPOINT
  2
AcImPointDisplay
  3
AcMeServices
 90
    32768
280
     0
281
     1
  0
CLASS
  1
ADPLANEID
  2
AcAdSurfGeomId
  3
DesignerServices
 90
    32768
280
     0
281
     0
  0
CLASS
  1
ADDATUMAXISCENTER
  2
AcAdDatumAxisCenter
  3
DesignerServices
 90
    32768
280
     0
281
     0
  0
CLASS
  1
ADDATUMPOINTAXISPLANE
  2
AcAdDatumPointAxisPlane
  3
DesignerServices
 90
    32768
280
     0
281
     0
  0
CLASS
  1
ADHOLEFEAT
  2
AcAdHoleFeat
  3
DesignerServices
 90
    32768
280
     0
281
     0
  0
CLASS
  1
ACAD_ARC
  2
AcAdArc
  3
DesignerServices
 90
    32768
280
     0
281
     1
  0
CLASS
  1
ACADARCACAD
  2
AcAdVirtualArcAcad
  3
DesignerServices
 90
    32768
280
     0
281
     0
  0
CLASS
  1
AMDT_RADIAL_DIM
  2
AmdtRadialDimension
  3
AcMeServices
 90
    32768
280
     0
281
     1
  0
CLASS
  1
ADRADCNS
  2
AcAdAcadRadiusConstr
  3
DesignerServices
 90
    32768
280
     0
281
     0
  0
CLASS
  1
ADFEATUREDISPLAY
  2
AcImFeatureDisplay
  3
ACME_MODULE_NAME
 90
    32768
280
     0
281
     1
  0
CLASS
  1
ACMEAXIS
  2
AcImAxisDisplay
  3
AcMeServices
 90
    32768
280
     0
281
     1
  0
CLASS
  1
ACMEROTATIONARROW
  2
AcImRotationArrowDisplay
  3
AcMeServices
 90
    32768
280
     0
281
     1
  0
CLASS
  1
DEPEDGEPATTERNFEATURE
  2
AcAdDepEdgePatternFeature
  3
DesignerServices
 90
    32768
280
     0
281
     0
  0
CLASS
  1
ELLREFID
  2
AcAdEllipseRefId
  3
DesignerServices
 90
    32768
280
     0
281
     0
  0
CLASS
  1
DATUMAXISDISPLAY
  2
AcAdDatumAxisDisplay
  3
DesignerServices
 90
    32768
280
     0
281
     1
  0
CLASS
  1
ADDATUMAXISELLIPTICALFACE
  2
AcAdDatumAxisEllipticalFace
  3
DesignerServices
 90
    32768
280
     0
281
     0
  0
CLASS
  1
ACADPATTNFEAT
  2
AcAdPatternFeat
  3
DesignerServices
 90
    32768
280
     0
281
     0
  0
CLASS
  1
ACADPARTCIRCEDGRES
  2
AcAdPartCircEdgRes
  3
AdGrefServices
 90
    32768
280
     0
281
     0
  0
CLASS
  1
ACRFINSADJ
  2
AcRfInsAdjuster
  3
AcMeServices
 90
    32768
280
     0
281
     0
  0
CLASS
  1
FACEID
  2
AcAdFaceId
  3
DesignerServices
 90
    32768
280
     0
281
     0
  0
CLASS
  1
ACADPARTCYLINDERFACERES
  2
AcAdPartCylinderFaceRes
  3
AdGrefServices
 90
    32768
280
     0
281
     0
  0
CLASS
  1
DEPEDGESECONDARYDEPID
  2
AcAdDepEdgeSecondaryDepId
  3
DesignerServices
 90
    32768
280
     0
281
     0
  0
CLASS
  1
ACADPARTPLANARFACERES
  2
AcAdPartPlanarFaceRes
  3
AdGrefServices
 90
    32768
280
     0
281
     0
  0
CLASS
  1
DEPEDGEPATTERNINSTANCE
  2
AcAdDepEdgePatternInstance
  3
DesignerServices
 90
    32768
280
     0
281
     0
  0
CLASS
  1
ACAMEXPR
  2
AcAmExpr
  3
DesignerAssemblies
 90
    32768
280
     0
281
     0
  0
CLASS
  1
ACCMINSERTPLPL
  2
AcCmInsertPlPl
  3
AcCmServices
 90
    32768
280
     0
281
     0
  0
CLASS
  1
ACCMCONSTREACTOR
  2
AcCmConstraintReactor
  3
DesignerAssemblies
 90
    32768
280
     0
281
     0
  0
CLASS
  1
ACCMANGVECVEC
  2
AcCmAngVecVec
  3
DesignerAssemblies
 90
    32768
280
     0
281
     0
  0
CLASS
  1
ACAMVIEWREACTOR
  2
AcAmViewReactor
  3
DesignerAssemblies
 90
    32768
280
     0
281
     0
  0
CLASS
  1
AMVIEW
  2
AcAmView
  3
DesignerAssemblies
 90
    32768
280
     0
281
     0
  0
CLASS
  1
ACAMVIEWCONTEXT
  2
AcAmViewContext
  3
DesignerAssemblies
 90
    32768
280
     0
281
     0
  0
CLASS
  1
ACAMCOMPENTVIEW
  2
AcAmCompEntView
  3
DesignerAssemblies
 90
    32768
280
     0
281
     1
  0
CLASS
  1
ACAMCOMPVIEWREACTOR
  2
AcAmGrCompViewReactor
  3
DesignerAssemblies
 90
    32768
280
     0
281
     0
  0
CLASS
  1
ACAMVIEWENTITYFILTER
  2
AcAmViewEntityFilter
  3
DesignerAssemblies
 90
    32768
280
     0
281
     0
  0
CLASS
  1
AM_GREF_PLANE
  2
AcDmGrefPlnDef
  3
AcMechDwgViewMgmt
 90
    32768
280
     0
281
     0
  0
CLASS
  1
ACADPARTLINEDGRES
  2
AcAdPartLinEdgRes
  3
AdGrefServices
 90
    32768
280
     0
281
     0
  0
CLASS
  1
AM_GREF_AXIS
  2
AcDmGrefAxisDef
  3
AcMechDwgViewMgmt
 90
    32768
280
     0
281
     0
  0
CLASS
  1
AM_BASE_VIEW_ORIENT
  2
AcDmBaseViewOr
  3
AcMechDwgViewMgmt
 90
    32768
280
     0
281
     0
  0
CLASS
  1
AM_DWG_VIEWPORT
  2
AcDmViewport
  3
AcMechDwgViewMgmt
 90
    32768
280
     0
281
     0
  0
CLASS
  1
AM_VIEW_DISPLAY
  2
AcDmDwgViewDisplay
  3
AcMechDwgViewMgmt
 90
    32768
280
     0
281
     0
  0
CLASS
  1
AM_CLDFLTS
  2
AcDmClDflts
  3
AcMechDwgViewMgmt
 90
    32768
280
     0
281
     0
  0
CLASS
  1
AM_BASE_VIEW
  2
AcDmBaseView
  3
AcMechDwgViewMgmt
 90
    32768
280
     0
281
     0
  0
CLASS
  1
AM_ISO_VIEW_ORIENT
  2
AcDmIsoViewOr
  3
AcMechDwgViewMgmt
 90
    32768
280
     0
281
     0
  0
CLASS
  1
AM_ISO_VIEW
  2
AcDmIsoView
  3
AcMechDwgViewMgmt
 90
    32768
280
     0
281
     0
  0
CLASS
  1
AM_ORTHO_VIEW_ORIENT
  2
AcDmOrthoViewOr
  3
AcMechDwgViewMgmt
 90
    32768
280
     0
281
     0
  0
CLASS
  1
AM_ORTHO_VIEW
  2
AcDmOrthoView
  3
AcMechDwgViewMgmt
 90
    32768
280
     0
281
     0
  0
CLASS
  1
ACDMPARTVIEWDATA
  2
AcDmPartViewData
  3
AcMechDwgViewMgmt
 90
    32768
280
     0
281
     0
  0
CLASS
  1
ACDMDISPLAYATTRIBS
  2
AcDmDisplayAttribs
  3
AcMechDwgViewMgmt
 90
    32768
280
     0
281
     0
  0
CLASS
  1
ACDMBODYINSTANCEDATA
  2
AcDmBodyInstanceData
  3
AcMechDwgViewMgmt
 90
    32768
280
     0
281
     0
  0
CLASS
  1
ACDMVWEDLINE
  2
AcDmViewEdgeLine
  3
AcMechDwgViewMgmt
 90
    32768
280
     0
281
     1
  0
CLASS
  1
ACDMVWEDSPLINE
  2
AcDmViewEdgeSpline
  3
AcMechDwgViewMgmt
 90
    32768
280
     0
281
     1
  0
CLASS
  1
ACDMVWEDARC
  2
AcDmViewEdgeArc
  3
AcMechDwgViewMgmt
 90
    32768
280
     0
281
     1
  0
CLASS
  1
AM_ADLINCTRLINE
  2
AcAdLineCl
  3
DesignerServices
 90
    32768
280
     0
281
     0
  0
CLASS
  1
ACDMVWEDCIRC
  2
AcDmViewEdgeCircle
  3
AcMechDwgViewMgmt
 90
    32768
280
     0
281
     1
  0
CLASS
  1
AM_ADCIRCTRLINE
  2
AcAdBullsEyeCl
  3
DesignerServices
 90
    32768
280
     0
281
     0
  0
CLASS
  1
AD_CIRCTAPH
  2
AcAdTapHoleCircDisp
  3
DesignerServices
 90
    32768
280
     0
281
     0
  0
CLASS
  1
ACDMVIEWGEOM
  2
AcDmViewGeometry
  3
AcMechDwgViewMgmt
 90
    32768
280
     0
281
     1
  0
CLASS
  1
AM_VIEWDIMLINEAR
  2
AcDmViewDimLinear
  3
AcMechDwgViewMgmt
 90
    32768
280
     0
281
     0
  0
CLASS
  1
CNRREFID
  2
AcAdCornerId
  3
DesignerServices
 90
    32768
280
     0
281
     0
  0
CLASS
  1
ACADPARTPOINTRES
  2
AcAdPartPointRes
  3
AdGrefServices
 90
    32768
280
     0
281
     0
  0
CLASS
  1
ACDMGREFEDIT
  2
AcDmViewEntityGeomrefEdit
  3
AcMechDwgViewMgmt
 90
    32768
280
     0
281
     0
  0
CLASS
  1
ACDMVIEWLINEDGERES
  2
AcDmViewLinEdgeRes
  3
AcMechDwgViewMgmt
 90
    32768
280
     0
281
     0
  0
CLASS
  1
SILEDGEID
  2
AcAdSilhouetteEdgeId
  3
DesignerServices
 90
    32768
280
     0
281
     0
  0
CLASS
  1
AMDTNOTE
  2
AmdtNote
  3
"AcmSymBB|Product Description: AutoCAD Mechanical 2000|Company: Autodesk"
 90
    33791
280
     0
281
     1
  0
CLASS
  1
ACMSTANDARDANSI
  2
AcmStandardANSI
  3
"Amdt_StdImp|Product Description: AutoCAD Mechanical 2000|Company: Autodesk"
 90
    32768
280
     0
281
     0
  0
CLASS
  1
ACMSURFSTANDARDANSI
  2
AcmSurfTextStdANSI
  3
"Amdt_StdImp|Product Description: AutoCAD Mechanical 2000|Company: Autodesk"
 90
    32768
280
     0
281
     0
  0
CLASS
  1
ACMFCFSTANDARDANSI
  2
AcmFCFStdANSI
  3
"Amdt_StdImp|Product Description: AutoCAD Mechanical 2000|Company: Autodesk"
 90
    32768
280
     0
281
     0
  0
CLASS
  1
ACMWELDSTANDARDANSI
  2
AcmWeldingStdANSI
  3
"Amdt_StdImp|Product Description: AutoCAD Mechanical 2000|Company: Autodesk"
 90
    32768
280
     0
281
     0
  0
CLASS
  1
ACMIDSTANDARDANSI
  2
AcmIdStdANSI
  3
"Amdt_StdImp|Product Description: AutoCAD Mechanical 2000|Company: Autodesk"
 90
    32768
280
     0
281
     0
  0
CLASS
  1
ACMDATUMSTANDARDANSI
  2
AcmDatumStdANSI
  3
"Amdt_StdImp|Product Description: AutoCAD Mechanical 2000|Company: Autodesk"
 90
    32768
280
     0
281
     0
  0
CLASS
  1
ACMBOMSTANDARDANSI
  2
AcmBOMStdANSI
  3
"Amdt_StdImp|Product Description: AutoCAD Mechanical 2000|Company: Autodesk"
 90
    32768
280
     0
281
     0
  0
CLASS
  1
ACMDETAILSTANDARDANSI
  2
AmdtDetailSymStdANSI
  3
"Amdt_StdImp|Product Description: AutoCAD Mechanical 2000|Company: Autodesk"
 90
    32768
280
     0
281
     0
  0
CLASS
  1
ACMSECTIONSTANDARDANSI
  2
AmdtSectionSymStdANSI
  3
"Amdt_StdImp|Product Description: AutoCAD Mechanical 2000|Company: Autodesk"
 90
    32768
280
     0
281
     0
  0
CLASS
  1
ACMCENTERLINESTANDARDANSI
  2
AmdtCenterLineStdANSI
  3
"Amdt_StdImp|Product Description: AutoCAD Mechanical 2000|Company: Autodesk"
 90
    32768
280
     0
281
     0
  0
CLASS
  1
ACMNOTESTANDARDANSI
  2
AmdtNoteStdANSI
  3
"Amdt_StdImp|Product Description: AutoCAD Mechanical 2000|Company: Autodesk"
 90
    32768
280
     0
281
     0
  0
CLASS
  1
ACAMGHOLECHARTSTDANSI
  2
AcAmgHoleChartStdANSI
  3
ACMSYMBB_MODULE_NAME
 90
    32768
280
     0
281
     0
  0
CLASS
  1
LONG_TRANSACTION
  2
AcDbLongTransaction
  3
AutoCAD 2000
 90
    32768
280
     0
281
     0
  0
CLASS
  1
LWPOLYLINE
  2
AcDbPolyline
  3
AutoCAD 2000
 90
    32768
280
     0
281
     1
  0
CLASS
  1
HATCH
  2
AcDbHatch
  3
AutoCAD 2000
 90
    32768
280
     0
281
     1
  0
CLASS
  1
XRECORD
  2
AcDbXrecord
  3
AutoCAD 2000
 90
    32768
280
     0
281
     0
  0
ENDSEC
  0
SECTION
  2
TABLES
  0
TABLE
  2
VPORT
  5
1A
330
0
100
AcDbSymbolTable
 70
     4
  0
VPORT
  5
4F7
330
1A
100
AcDbSymbolTableRecord
100
AcDbViewportTableRecord
  2
*ACTIVE
 70
     0
 10
0.0
 20
0.0
 11
1.0
 21
1.0
 12
-128.8886644875037
 22
304.7964946905216
 13
0.0
 23
0.0
 14
2.5
 24
2.5
 15
10.0
 25
10.0
 16
0.0
 26
0.0
 36
1.0
 17
0.0
 27
0.0
 37
0.0
 40
420.4249953380662
 41
1.775280898876404
 42
50.0
 43
0.0
 44
0.0
 50
0.0
 51
0.0
 71
     0
 72
   100
 73
     1
 74
     3
 75
     0
 76
     0
 77
     0
 78
     0
  0
ENDTAB
  0
TABLE
  2
LTYPE
  5
15
330
0
100
AcDbSymbolTable
 70
    15
  0
LTYPE
  5
16
330
15
100
AcDbSymbolTableRecord
100
AcDbLinetypeTableRecord
  2
BYBLOCK
 70
     0
  3

 72
    65
 73
     0
 40
0.0
  0
LTYPE
  5
17
330
15
100
AcDbSymbolTableRecord
100
AcDbLinetypeTableRecord
  2
BYLAYER
 70
     0
  3

 72
    65
 73
     0
 40
0.0
  0
LTYPE
  5
9
330
15
100
AcDbSymbolTableRecord
100
AcDbLinetypeTableRecord
  2
CONTINUOUS
 70
     0
  3
Solid line
 72
    65
 73
     0
 40
0.0
  0
LTYPE
  5
1C7
330
15
100
AcDbSymbolTableRecord
100
AcDbLinetypeTableRecord
  2
AM_ISO08W050
 70
     0
  3
____ . ____ . ____ . ____ . ____ . ____ . ____
 72
    65
 73
     4
 40
18.0
 49
12.0
 74
     0
 49
-1.5
 74
     0
 49
3.0
 74
     0
 49
-1.5
 74
     0
  0
LTYPE
  5
2B3
330
15
100
AcDbSymbolTableRecord
100
AcDbLinetypeTableRecord
  2
AM_ISO02W050
 70
     0
  3
__ __ __ __ __ __ __ __ __ __ __ __ __ __ __
 72
    65
 73
     2
 40
7.5
 49
6.0
 74
     0
 49
-1.5
 74
     0
  0
LTYPE
  5
2B4
330
15
100
AcDbSymbolTableRecord
100
AcDbLinetypeTableRecord
  2
AM_ISO09W050
 70
     0
  3
_____ . . _____ . . _____ . . ____ .. ____
 72
    65
 73
     6
 40
22.5
 49
12.0
 74
     0
 49
-1.5
 74
     0
 49
3.0
 74
     0
 49
-1.5
 74
     0
 49
3.0
 74
     0
 49
-1.5
 74
     0
  0
LTYPE
  5
2B5
330
15
100
AcDbSymbolTableRecord
100
AcDbLinetypeTableRecord
  2
AMCONSTR
 70
     0
  3
_______________________
 72
    65
 73
     2
 40
9999.0
 49
9999.0
 74
     0
 49
0.0
 74
     0
  0
LTYPE
  5
2B6
330
15
100
AcDbSymbolTableRecord
100
AcDbLinetypeTableRecord
  2
AM_ISO08W050X2
 70
     0
  3
__ . __ . __ . __ . __ . __
 72
    65
 73
     4
 40
9.0
 49
6.0
 74
     0
 49
-0.75
 74
     0
 49
1.5
 74
     0
 49
-0.75
 74
     0
  0
LTYPE
  5
2B7
330
15
100
AcDbSymbolTableRecord
100
AcDbLinetypeTableRecord
  2
AM_ISO02W050X2
 70
     0
  3
 _ _ _ _ _ _ _ _ _ _ _ _
 72
    65
 73
     2
 40
3.75
 49
3.0
 74
     0
 49
-0.75
 74
     0
  0
LTYPE
  5
2BA
330
15
100
AcDbSymbolTableRecord
100
AcDbLinetypeTableRecord
  2
AMZIGZAG
 70
     0
  3
/\/-/\/-/\/-/\/-/\/-/\/
 72
    65
 73
     2
 40
11.00009999999999
 49
0.0001
 74
     4
 75
   135
340
2B9
 46
0.04
 50
0.0
 44
0.0
 45
0.0
 49
-11.0
 74
     0
  0
LTYPE
  5
2C7
330
15
100
AcDbSymbolTableRecord
100
AcDbLinetypeTableRecord
  2
ACISOWELD
 70
     0
  3
_ _ _ _ _
 72
    65
 73
     2
 40
2.0
 49
2.0
 74
     0
 49
-1.0
 74
     0
  0
LTYPE
  5
2C8
330
15
100
AcDbSymbolTableRecord
100
AcDbLinetypeTableRecord
  2
ACISOTGB
 70
     0
  3
__ . . __ . .
 72
    65
 73
     6
 40
9.0
 49
4.0
 74
     0
 49
-1.0
 74
     0
 49
1.0
 74
     0
 49
-1.0
 74
     0
 49
1.0
 74
     0
 49
-1.0
 74
     0
  0
LTYPE
  5
2C9
330
15
100
AcDbSymbolTableRecord
100
AcDbLinetypeTableRecord
  2
ACISOTGL
 70
     0
  3
_ _ _ _ _
 72
    65
 73
     2
 40
3.0
 49
2.0
 74
     0
 49
-1.0
 74
     0
  0
LTYPE
  5
2CA
330
15
100
AcDbSymbolTableRecord
100
AcDbLinetypeTableRecord
  2
CENTER
 70
     0
  3
__ . __
 72
    65
 73
     4
 40
7.0
 49
4.0
 74
     0
 49
-1.0
 74
     0
 49
1.0
 74
     0
 49
-1.0
 74
     0
  0
LTYPE
  5
300
330
15
100
AcDbSymbolTableRecord
100
AcDbLinetypeTableRecord
  2
PHANTOM2
 70
     0
  3
Phantom (.5x) ___ _ _ ___ _ _ ___ _ _ ___ _ _
 72
    65
 73
     6
 40
1.25
 49
0.625
 74
     0
 49
-0.125
 74
     0
 49
0.125
 74
     0
 49
-0.125
 74
     0
 49
0.125
 74
     0
 49
-0.125
 74
     0
  0
LTYPE
  5
304
330
15
100
AcDbSymbolTableRecord
100
AcDbLinetypeTableRecord
  2
ACANSTGB
 70
     0
  3
__ . . __ . .
 72
    65
 73
     6
 40
0.35433070866
 49
0.15748031496
 74
     0
 49
-0.03937007874
 74
     0
 49
0.03937007874
 74
     0
 49
-0.03937007874
 74
     0
 49
0.03937007874
 74
     0
 49
-0.03937007874
 74
     0
  0
LTYPE
  5
305
330
15
100
AcDbSymbolTableRecord
100
AcDbLinetypeTableRecord
  2
ACANSTGL
 70
     0
  3
_ _ _ _ _
 72
    65
 73
     2
 40
0.11811023622
 49
0.07874015748
 74
     0
 49
-0.03937007874
 74
     0
  0
ENDTAB
  0
TABLE
  2
LAYER
  5
11
330
0
100
AcDbSymbolTable
 70
     8
  0
LAYER
  5
5
330
11
100
AcDbSymbolTableRecord
100
AcDbLayerTableRecord
  2
0
 70
     0
 62
     7
  6
CONTINUOUS
  0
LAYER
  5
1F3
330
11
100
AcDbSymbolTableRecord
100
AcDbLayerTableRecord
  2
AM_5
 70
     0
 62
     4
  6
CONTINUOUS
  0
LAYER
  5
1DB
330
11
100
AcDbSymbolTableRecord
100
AcDbLayerTableRecord
  2
DEFPOINTS
 70
     0
 62
     7
  6
CONTINUOUS
  0
LAYER
  5
1C6
330
11
100
AcDbSymbolTableRecord
100
AcDbLayerTableRecord
  2
AM_7
 70
     0
 62
     1
  6
AM_ISO08W050
  0
LAYER
  5
1D0
330
11
100
AcDbSymbolTableRecord
100
AcDbLayerTableRecord
  2
AM_4
 70
     0
 62
     3
  6
CONTINUOUS
  0
LAYER
  5
26
330
11
100
AcDbSymbolTableRecord
100
AcDbLayerTableRecord
  2
AM_VIS
 70
     0
 62
     7
  6
CONTINUOUS
  0
LAYER
  5
1D2
330
11
100
AcDbSymbolTableRecord
100
AcDbLayerTableRecord
  2
AM_REFDIM
 70
     0
 62
     5
  6
CONTINUOUS
  0
LAYER
  5
306
330
11
100
AcDbSymbolTableRecord
100
AcDbLayerTableRecord
  2
LOGO
 70
     0
 62
     7
  6
CONTINUOUS
  0
ENDTAB
  0
TABLE
  2
STYLE
  5
12
330
0
100
AcDbSymbolTable
 70
     8
  0
STYLE
  5
13
330
12
100
AcDbSymbolTableRecord
100
AcDbTextStyleTableRecord
  2
STANDARD
 70
     0
 40
0.0
 41
1.0
 50
0.0
 71
     0
 42
3.0
  3
ISOCP.SHX
  4
CHINESET.SHX
  0
STYLE
  5
1F7
330
12
100
AcDbSymbolTableRecord
100
AcDbTextStyleTableRecord
  2
ACISOTS
 70
     0
 40
1.0
 41
1.0
 50
0.0
 71
     0
 42
2.5
  3
isocp.shx
  4
chineset.shx
  0
STYLE
  5
2B9
330
12
100
AcDbSymbolTableRecord
100
AcDbTextStyleTableRecord
  2

 70
     1
 40
0.0
 41
1.0
 50
0.0
 71
     0
 42
3.0
  3
ltypeshp.shx
  4

  0
STYLE
  5
2C6
330
12
100
AcDbSymbolTableRecord
100
AcDbTextStyleTableRecord
  2
ACISOGDT
 70
     0
 40
0.0
 41
1.0
 50
0.0
 71
     0
 42
3.0
  3
amgdt.shx
  4

  0
STYLE
  5
307
330
12
100
AcDbSymbolTableRecord
100
AcDbTextStyleTableRecord
  2
CHINESET
 70
     0
 40
0.0
 41
1.0
 50
0.0
 71
     0
 42
10.0
  3
simplex.shx
  4
CHINESET.shx
  0
STYLE
  5
308
330
12
100
AcDbSymbolTableRecord
100
AcDbTextStyleTableRecord
  2
LOGO
 70
     0
 40
0.0
 41
1.0
 50
0.0
 71
     0
 42
5.0
  3
LEI00DP.TTF
  4

1001
ACAD
1000
文鼎中粗隸
1071
    34865
  0
STYLE
  5
309
330
12
100
AcDbSymbolTableRecord
100
AcDbTextStyleTableRecord
  2
ACANSTS
 70
     0
 40
1.0
 41
1.0
 50
0.0
 71
     0
 42
1.0
  3
romans.shx
  4
chineset.shx
  0
STYLE
  5
30A
330
12
100
AcDbSymbolTableRecord
100
AcDbTextStyleTableRecord
  2
ACANSGDT
 70
     0
 40
0.0
 41
1.0
 50
0.0
 71
     0
 42
1.0
  3
amgdtans.shx
  4

  0
ENDTAB
  0
TABLE
  2
VIEW
  5
18
330
0
100
AcDbSymbolTable
 70
     0
  0
ENDTAB
  0
TABLE
  2
UCS
  5
19
330
0
100
AcDbSymbolTable
 70
     0
  0
ENDTAB
  0
TABLE
  2
APPID
  5
1C
330
0
100
AcDbSymbolTable
 70
     6
  0
APPID
  5
1D
330
1C
100
AcDbSymbolTableRecord
100
AcDbRegAppTableRecord
  2
ACAD
 70
     0
  0
APPID
  5
1E1
330
1C
100
AcDbSymbolTableRecord
100
AcDbRegAppTableRecord
  2
ACAD_DIMASSOC_DIMLFAC
 70
     0
  0
APPID
  5
1E0
330
1C
100
AcDbSymbolTableRecord
100
AcDbRegAppTableRecord
  2
ACAD_DIMASSOC_CALC_DIMLFAC
 70
     0
  0
APPID
  5
295
330
1C
100
AcDbSymbolTableRecord
100
AcDbRegAppTableRecord
  2
MCAD_NO_VIS
 70
     0
  0
APPID
  5
296
330
1C
100
AcDbSymbolTableRecord
100
AcDbRegAppTableRecord
  2
ACAD_TEMP_GRAPHIC
 70
     0
  0
APPID
  5
2A7
330
1C
100
AcDbSymbolTableRecord
100
AcDbRegAppTableRecord
  2
ACATTRIBSERVICES
 70
     0
  0
ENDTAB
  0
TABLE
  2
DIMSTYLE
  5
1E
330
0
100
AcDbSymbolTable
 70
    14
  0
DIMSTYLE
105
1F
102
{ACAD_REACTORS
330
1D1
330
1E2
102
}
330
1E
100
AcDbSymbolTableRecord
100
AcDbDimStyleTableRecord
  2
AM_ISO
 70
     0
  3

  4
"
  5

  6

  7

 40
1.0
 41
3.0
 42
1.5
 43
7.0
 44
2.0
 45
0.0
 46
0.0
 47
0.1
 48
0.1
140
3.0
141
0.0
142
0.0
143
0.0393701
144
1.0
145
0.0
146
0.71
147
0.8
 71
     0
 72
     0
 73
     0
 74
     0
 75
     0
 76
     0
 77
     1
 78
     8
170
     0
171
     2
172
     1
173
     0
174
     0
175
     0
176
   256
177
   256
178
   256
270
     2
271
     2
272
     2
273
     2
274
     2
340
13
275
     0
280
     0
281
     0
282
     0
283
     0
284
     8
285
     0
286
     0
287
     3
288
     0
  0
DIMSTYLE
105
2CD
330
1E
100
AcDbSymbolTableRecord
100
AcDbDimStyleTableRecord
  2
AM_ISO$3
 70
     0
  3

  4
"
  5

  6

  7

 40
1.0
 41
3.0
 42
1.5
 43
7.0
 44
2.0
 45
0.0
 46
0.0
 47
0.1
 48
0.1
140
3.0
141
0.0
142
0.0
143
0.0393701
144
1.0
145
0.0
146
0.71
147
0.8
 71
     0
 72
     0
 73
     0
 74
     1
 75
     0
 76
     0
 77
     1
 78
     8
170
     0
171
     2
172
     0
173
     0
174
     0
175
     0
176
   256
177
   256
178
   256
270
     2
271
     2
272
     2
273
     2
274
     2
340
13
275
     0
280
     0
281
     0
282
     0
283
     0
284
     8
285
     0
286
     0
287
     0
288
     1
  0
DIMSTYLE
105
2CE
330
1E
100
AcDbSymbolTableRecord
100
AcDbDimStyleTableRecord
  2
AM_ISO$4
 70
     0
  3

  4
"
  5

  6

  7

 40
1.0
 41
3.0
 42
1.5
 43
7.0
 44
2.0
 45
0.0
 46
0.0
 47
0.1
 48
0.1
140
3.0
141
0.0
142
0.0
143
0.0393701
144
1.0
145
0.0
146
0.71
147
0.8
 71
     0
 72
     0
 73
     0
 74
     1
 75
     0
 76
     0
 77
     1
 78
     8
170
     0
171
     2
172
     0
173
     0
174
     0
175
     0
176
   256
177
   256
178
   256
270
     2
271
     2
272
     2
273
     2
274
     2
340
13
275
     0
280
     0
281
     0
282
     0
283
     0
284
     8
285
     0
286
     0
287
     0
288
     1
  0
DIMSTYLE
105
2CF
330
1E
100
AcDbSymbolTableRecord
100
AcDbDimStyleTableRecord
  2
AM_ISO$6
 70
     0
  3

  4
"
  5

  6

  7

 40
1.0
 41
3.0
 42
1.5
 43
7.0
 44
2.0
 45
0.0
 46
0.0
 47
0.1
 48
0.1
140
3.0
141
0.0
142
0.0
143
0.0393701
144
1.0
145
0.0
146
0.71
147
0.8
 71
     0
 72
     0
 73
     0
 74
     0
 75
     0
 76
     0
 77
     0
 78
     8
170
     0
171
     2
172
     1
173
     0
174
     0
175
     0
176
   256
177
   256
178
   256
270
     2
271
     2
272
     2
273
     2
274
     2
340
13
275
     0
280
     0
281
     0
282
     0
283
     0
284
     8
285
     0
286
     0
287
     3
288
     0
  0
DIMSTYLE
105
2D0
330
1E
100
AcDbSymbolTableRecord
100
AcDbDimStyleTableRecord
  2
AM_ISO$7
 70
     0
  3

  4
"
  5

  6

  7

 40
1.0
 41
2.5
 42
1.5
 43
7.0
 44
2.0
 45
0.0
 46
0.0
 47
0.1
 48
0.1
140
5.0
141
0.0
142
0.0
143
0.0393701
144
1.0
145
0.0
146
0.71
147
1.5
 71
     0
 72
     0
 73
     0
 74
     0
 75
     0
 76
     0
 77
     1
 78
     8
170
     0
171
     2
172
     1
173
     0
174
     0
175
     0
176
   256
177
   256
178
   256
270
     2
271
     2
272
     2
273
     2
274
     2
340
13
275
     0
280
     0
281
     0
282
     0
283
     0
284
     8
285
     0
286
     0
287
     3
288
     0
  0
DIMSTYLE
105
2D1
330
1E
100
AcDbSymbolTableRecord
100
AcDbDimStyleTableRecord
  2
AM_ISO$SF
 70
     0
  3

  4
"
  5

  6

  7

 40
1.0
 41
3.0
 42
1.5
 43
7.0
 44
2.0
 45
0.0
 46
0.0
 47
0.1
 48
0.1
140
3.0
141
0.0
142
0.0
143
0.0393701
144
1.0
145
0.0
146
0.71
147
0.8
 71
     0
 72
     0
 73
     0
 74
     0
 75
     1
 76
     1
 77
     1
 78
     8
170
     0
171
     2
172
     1
173
     0
174
     0
175
     0
176
   256
177
   256
178
   256
270
     2
271
     2
272
     2
273
     2
274
     2
340
13
275
     0
280
     0
281
     0
282
     0
283
     0
284
     8
285
     0
286
     0
287
     3
288
     0
  0
DIMSTYLE
105
2D6
330
1E
100
AcDbSymbolTableRecord
100
AcDbDimStyleTableRecord
  2
AM_ISO$SH
 70
     0
  3

  4
"
  5

  6
GENAXEH
  7

 40
1.0
 41
3.0
 42
1.5
 43
7.0
 44
2.0
 45
0.0
 46
0.0
 47
0.1
 48
0.1
140
3.0
141
0.0
142
0.0
143
0.0393701
144
2.0
145
0.0
146
0.71
147
0.8
 71
     0
 72
     0
 73
     0
 74
     0
 75
     1
 76
     1
 77
     1
 78
     8
170
     0
171
     2
172
     1
173
     1
174
     0
175
     0
176
   256
177
   256
178
   256
270
     2
271
     2
272
     2
273
     2
274
     2
340
13
275
     0
280
     0
281
     0
282
     0
283
     0
284
     8
285
     0
286
     0
287
     3
288
     0
  0
DIMSTYLE
105
30B
330
1E
100
AcDbSymbolTableRecord
100
AcDbDimStyleTableRecord
  2
STANDARD
 70
     0
  3

  4

  5

  6

  7

 40
1.0
 41
3.0
 42
2.0
 43
0.38
 44
2.0
 45
0.0
 46
0.0
 47
0.0
 48
0.0
140
3.0
141
0.09
142
0.0
143
25.4
144
1.0
145
0.0
146
1.0
147
1.0
 71
     0
 72
     0
 73
     0
 74
     0
 75
     0
 76
     0
 77
     1
 78
     8
170
     0
171
     2
172
     0
173
     0
174
     0
175
     0
176
   256
177
     0
178
   256
270
     2
271
     1
272
     1
273
     2
274
     2
340
307
275
     0
280
     0
281
     0
282
     0
283
     1
284
     0
285
     0
286
     0
287
     3
288
     0
  0
DIMSTYLE
105
30C
330
1E
100
AcDbSymbolTableRecord
100
AcDbDimStyleTableRecord
  2
AM_ANSI
 70
     0
  3

  4
mm
  5

  6

  7

 40
1.0
 41
0.1
 42
0.05
 43
0.5
 44
0.1
 45
0.0
 46
0.0
 47
0.1
 48
0.1
140
0.12
141
0.0
142
0.0
143
25.4
144
1.0
145
0.0
146
0.71
147
0.06
 71
     0
 72
     0
 73
     1
 74
     1
 75
     0
 76
     0
 77
     0
 78
     7
170
     0
171
     2
172
     0
173
     0
174
     0
175
     0
176
   256
177
   256
178
     2
270
     2
271
     4
272
     4
273
     2
274
     4
340
13
275
     0
280
     0
281
     0
282
     0
283
     1
284
     7
285
     0
286
     0
287
     3
288
     0
  0
DIMSTYLE
105
30D
330
1E
100
AcDbSymbolTableRecord
100
AcDbDimStyleTableRecord
  2
AM_ANSI$3
 70
     0
  3

  4
mm
  5

  6

  7

 40
1.0
 41
0.1
 42
0.05
 43
0.5
 44
0.1
 45
0.0
 46
0.0
 47
0.1
 48
0.1
140
0.12
141
0.0
142
0.0
143
25.4
144
1.0
145
0.0
146
0.71
147
0.06
 71
     0
 72
     0
 73
     1
 74
     1
 75
     0
 76
     0
 77
     0
 78
     7
170
     0
171
     2
172
     0
173
     0
174
     0
175
     0
176
   256
177
   256
178
     2
270
     2
271
     4
272
     4
273
     2
274
     4
340
13
275
     0
280
     0
281
     0
282
     0
283
     1
284
     7
285
     0
286
     0
287
     0
288
     1
  0
DIMSTYLE
105
30E
330
1E
100
AcDbSymbolTableRecord
100
AcDbDimStyleTableRecord
  2
AM_ANSI$4
 70
     0
  3

  4
mm
  5

  6

  7

 40
1.0
 41
0.1
 42
0.05
 43
0.5
 44
0.1
 45
0.0
 46
0.0
 47
0.1
 48
0.1
140
0.12
141
0.0
142
0.0
143
25.4
144
1.0
145
0.0
146
0.71
147
0.06
 71
     0
 72
     0
 73
     1
 74
     1
 75
     0
 76
     0
 77
     0
 78
     7
170
     0
171
     2
172
     0
173
     0
174
     0
175
     0
176
   256
177
   256
178
     2
270
     2
271
     4
272
     4
273
     2
274
     4
340
13
275
     0
280
     0
281
     0
282
     0
283
     1
284
     7
285
     0
286
     0
287
     0
288
     1
  0
DIMSTYLE
105
30F
330
1E
100
AcDbSymbolTableRecord
100
AcDbDimStyleTableRecord
  2
AM_ANSI$7
 70
     0
  3

  4
mm
  5

  6

  7

 40
1.0
 41
0.1
 42
0.05
 43
0.5
 44
0.1
 45
0.0
 46
0.0
 47
0.1
 48
0.1
140
0.24
141
0.0
142
0.0
143
25.4
144
1.0
145
0.0
146
0.71
147
0.06
 71
     0
 72
     0
 73
     1
 74
     1
 75
     0
 76
     0
 77
     0
 78
     7
170
     0
171
     2
172
     0
173
     0
174
     0
175
     0
176
   256
177
   256
178
     2
270
     2
271
     4
272
     4
273
     2
274
     4
340
13
275
     0
280
     0
281
     0
282
     0
283
     1
284
     7
285
     0
286
     0
287
     3
288
     0
  0
DIMSTYLE
105
310
330
1E
100
AcDbSymbolTableRecord
100
AcDbDimStyleTableRecord
  2
AM_ANSI$SF
 70
     0
  3

  4
mm
  5

  6

  7

 40
1.0
 41
0.1
 42
0.05
 43
0.5
 44
0.1
 45
0.0
 46
0.0
 47
0.1
 48
0.1
140
0.12
141
0.0
142
0.0
143
25.4
144
1.0
145
0.0
146
0.71
147
0.06
 71
     0
 72
     0
 73
     1
 74
     1
 75
     1
 76
     1
 77
     0
 78
     7
170
     0
171
     2
172
     0
173
     0
174
     0
175
     0
176
   256
177
   256
178
     2
270
     2
271
     4
272
     4
273
     2
274
     4
340
13
275
     0
280
     0
281
     0
282
     0
283
     1
284
     7
285
     0
286
     0
287
     3
288
     0
  0
DIMSTYLE
105
311
330
1E
100
AcDbSymbolTableRecord
100
AcDbDimStyleTableRecord
  2
AM_ANSI$SH
 70
     0
  3

  4
mm
  5

  6
GENAXEH
  7

 40
1.0
 41
0.1
 42
0.05
 43
0.5
 44
0.1
 45
0.0
 46
0.0
 47
0.1
 48
0.1
140
0.12
141
0.0
142
0.0
143
25.4
144
1.0
145
0.0
146
0.71
147
0.06
 71
     0
 72
     0
 73
     1
 74
     1
 75
     1
 76
     1
 77
     0
 78
     7
170
     0
171
     2
172
     0
173
     1
174
     0
175
     0
176
   256
177
   256
178
     2
270
     2
271
     4
272
     4
273
     2
274
     4
340
13
275
     0
280
     0
281
     0
282
     0
283
     1
284
     7
285
     0
286
     0
287
     3
288
     0
  0
ENDTAB
  0
TABLE
  2
BLOCK_RECORD
  5
1
330
0
100
AcDbSymbolTable
 70
     5
  0
BLOCK_RECORD
  5
2
102
{ACAD_XDICTIONARY
360
3
102
}
330
1
100
AcDbSymbolTableRecord
100
AcDbBlockTableRecord
  2
*MODEL_SPACE
  0
BLOCK_RECORD
  5
D
102
{ACAD_XDICTIONARY
360
4F9
102
}
330
1
100
AcDbSymbolTableRecord
100
AcDbBlockTableRecord
  2
*PAPER_SPACE
  0
BLOCK_RECORD
  5
2D2
330
1
100
AcDbSymbolTableRecord
100
AcDbBlockTableRecord
  2
GENAXEH
  0
BLOCK_RECORD
  5
414
330
1
100
AcDbSymbolTableRecord
100
AcDbBlockTableRecord
  2
*D1
  0
BLOCK_RECORD
  5
420
330
1
100
AcDbSymbolTableRecord
100
AcDbBlockTableRecord
  2
*D2
  0
BLOCK_RECORD
  5
4FB
330
1
100
AcDbSymbolTableRecord
100
AcDbBlockTableRecord
  2
*S3
  0
BLOCK_RECORD
  5
504
330
1
100
AcDbSymbolTableRecord
100
AcDbBlockTableRecord
  2
*S4
  0
ENDTAB
  0
ENDSEC
  0
SECTION
  2
BLOCKS
  0
BLOCK
  5
4
330
2
100
AcDbEntity
  8
0
100
AcDbBlockBegin
  2
*MODEL_SPACE
 70
     0
 10
0.0
 20
0.0
 30
0.0
  3
*MODEL_SPACE
  1

  0
ENDBLK
  5
A
330
2
100
AcDbEntity
  8
0
100
AcDbBlockEnd
  0
BLOCK
  5
E
330
D
100
AcDbEntity
 67
     1
  8
0
100
AcDbBlockBegin
  2
*PAPER_SPACE
 70
     0
 10
0.0
 20
0.0
 30
0.0
  3
*PAPER_SPACE
  1

  0
ENDBLK
  5
F
330
D
100
AcDbEntity
 67
     1
  8
0
100
AcDbBlockEnd
  0
BLOCK
  5
2D4
330
2D2
100
AcDbEntity
  8
0
100
AcDbBlockBegin
  2
GENAXEH
 70
     0
 10
0.0
 20
0.0
 30
0.0
  3
GENAXEH
  1

  0
LINE
  5
2D3
330
2D2
100
AcDbEntity
  8
0
100
AcDbLine
 10
-1.0
 20
0.0
 30
0.0
 11
1.0
 21
0.0
 31
0.0
  0
ENDBLK
  5
2D5
330
2D2
100
AcDbEntity
  8
0
100
AcDbBlockEnd
  0
BLOCK
  5
41E
330
414
100
AcDbEntity
  8
0
100
AcDbBlockBegin
  2
*D1
 70
     1
 10
0.0
 20
0.0
 30
0.0
  3
*D1
  1

  0
LINE
  5
43E
330
414
100
AcDbEntity
  8
AM_REFDIM
100
AcDbLine
 10
-193.8959829369029
 20
347.8355053148872
 30
0.0
 11
-193.8959829369029
 21
384.0167478286515
 31
0.0
  0
LINE
  5
43F
330
414
100
AcDbEntity
  8
AM_REFDIM
100
AcDbLine
 10
-107.8959829369029
 20
347.8355053148872
 30
0.0
 11
-107.8959829369029
 21
384.0167478286515
 31
0.0
  0
LINE
  5
440
330
414
100
AcDbEntity
  8
AM_REFDIM
100
AcDbLine
 10
-190.8959829369029
 20
382.0167478286515
 30
0.0
 11
-110.8959829369029
 21
382.0167478286515
 31
0.0
  0
SOLID
  5
441
330
414
100
AcDbEntity
  8
AM_REFDIM
100
AcDbTrace
 10
-190.8959829369029
 20
382.5167478286515
 30
0.0
 11
-190.8959829369029
 21
381.5167478286515
 31
0.0
 12
-193.8959829369029
 22
382.0167478286515
 32
0.0
 13
-193.8959829369029
 23
382.0167478286515
 33
0.0
  0
SOLID
  5
442
330
414
100
AcDbEntity
  8
AM_REFDIM
100
AcDbTrace
 10
-110.8959829369029
 20
382.5167478286515
 30
0.0
 11
-110.8959829369029
 21
381.5167478286515
 31
0.0
 12
-107.8959829369029
 22
382.0167478286515
 32
0.0
 13
-107.8959829369029
 23
382.0167478286515
 33
0.0
  0
MTEXT
  5
443
330
414
100
AcDbEntity
  8
AM_REFDIM
100
AcDbMText
 10
-150.8959829369028
 20
384.3167478286515
 30
0.0
 40
3.0
 41
0.0
 71
     5
 72
     1
  1
%%c86
1001
ACAD
1000
MTEXTBEGIN
1070
    73
1070
     1
1070
    44
1040
1.0
1070
    74
1070
     0
1000
MTEXTEND
  0
POINT
  5
444
330
414
100
AcDbEntity
  8
DEFPOINTS
 62
     0
100
AcDbPoint
 10
-193.8959829369029
 20
346.3355053148871
 30
0.0
  0
POINT
  5
445
330
414
100
AcDbEntity
  8
DEFPOINTS
 62
     0
100
AcDbPoint
 10
-107.8959829369029
 20
346.3355053148871
 30
0.0
  0
POINT
  5
446
330
414
100
AcDbEntity
  8
DEFPOINTS
 62
     0
100
AcDbPoint
 10
-107.8959829369029
 20
382.0167478286515
 30
0.0
  0
ENDBLK
  5
41F
330
414
100
AcDbEntity
  8
0
100
AcDbBlockEnd
  0
BLOCK
  5
42A
330
420
100
AcDbEntity
  8
0
100
AcDbBlockBegin
  2
*D2
 70
     1
 10
0.0
 20
0.0
 30
0.0
  3
*D2
  1

  0
LINE
  5
447
330
420
100
AcDbEntity
  8
AM_REFDIM
100
AcDbLine
 10
-131.8445347535383
 20
367.3355053148871
 30
0.0
 11
-73.85207990391591
 21
367.3355053148871
 31
0.0
  0
LINE
  5
448
330
420
100
AcDbEntity
  8
AM_REFDIM
100
AcDbLine
 10
-136.8489775531103
 20
173.3355053148871
 30
0.0
 11
-73.85207990391595
 21
173.3355053148871
 31
0.0
  0
LINE
  5
449
330
420
100
AcDbEntity
  8
AM_REFDIM
100
AcDbLine
 10
-75.85207990391591
 20
364.3355053148871
 30
0.0
 11
-75.85207990391594
 21
176.3355053148871
 31
0.0
  0
SOLID
  5
44A
330
420
100
AcDbEntity
  8
AM_REFDIM
100
AcDbTrace
 10
-76.35207990391591
 20
364.3355053148871
 30
0.0
 11
-75.3520799039159
 21
364.3355053148871
 31
0.0
 12
-75.85207990391591
 22
367.3355053148871
 32
0.0
 13
-75.85207990391591
 23
367.3355053148871
 33
0.0
  0
SOLID
  5
44B
330
420
100
AcDbEntity
  8
AM_REFDIM
100
AcDbTrace
 10
-76.35207990391595
 20
176.3355053148871
 30
0.0
 11
-75.35207990391595
 21
176.3355053148871
 31
0.0
 12
-75.85207990391594
 22
173.3355053148871
 32
0.0
 13
-75.85207990391594
 23
173.3355053148871
 33
0.0
  0
MTEXT
  5
44C
330
420
100
AcDbEntity
  8
AM_REFDIM
100
AcDbMText
 10
-78.15207990391598
 20
270.3355053148871
 30
0.0
 40
3.0
 41
0.0
 71
     5
 72
     1
  1
194
 11
0.0000000000000001
 21
1.0
 31
0.0
1001
ACAD
1000
MTEXTBEGIN
1070
    73
1070
     1
1070
    44
1040
1.0
1070
    74
1070
     0
1000
MTEXTEND
  0
POINT
  5
44D
330
420
100
AcDbEntity
  8
DEFPOINTS
 62
     0
100
AcDbPoint
 10
-133.3445347535383
 20
367.3355053148871
 30
0.0
  0
POINT
  5
44E
330
420
100
AcDbEntity
  8
DEFPOINTS
 62
     0
100
AcDbPoint
 10
-138.3489775531103
 20
173.3355053148871
 30
0.0
  0
POINT
  5
44F
330
420
100
AcDbEntity
  8
DEFPOINTS
 62
     0
100
AcDbPoint
 10
-75.85207990391594
 20
173.3355053148871
 30
0.0
  0
ENDBLK
  5
42B
330
420
100
AcDbEntity
  8
0
100
AcDbBlockEnd
  0
BLOCK
  5
500
330
4FB
100
AcDbEntity
  8
0
100
AcDbBlockBegin
  2
*S3
 70
     1
 10
0.0
 20
0.0
 30
0.0
  3
*S3
  1

  0
LINE
  5
4FC
330
4FB
100
AcDbEntity
  8
AM_5
 62
     5
100
AcDbLine
 10
-108.1593936752883
 20
389.8237225170816
 30
0.0
 11
-122.4352742347862
 21
389.8237225170816
 31
0.0
  0
LINE
  5
4FD
330
4FB
100
AcDbEntity
  8
AM_5
 62
     5
100
AcDbLine
 10
-122.4352742347862
 20
389.8237225170816
 30
0.0
 11
-148.1497962319911
 21
369.505403603233
 31
0.0
  0
TRACE
  5
4FE
330
4FB
100
AcDbEntity
  8
AM_5
 62
     5
100
AcDbTrace
 10
-148.4354687598879
 20
369.8669459401628
 30
0.0
 11
-147.8641237040944
 21
369.1438612663032
 31
0.0
 12
-150.8959829369028
 22
367.3355053148871
 32
0.0
 13
-150.8959829369028
 23
367.3355053148871
 33
0.0
  0
MTEXT
  5
4FF
330
4FB
100
AcDbEntity
  8
AM_5
 62
     2
100
AcDbMText
 10
-108.1593936752883
 20
386.8019389797817
 30
0.0
 40
3.5
 41
0.0
 71
     7
 72
     1
  1

  7
ACISOTS
  0
ENDBLK
  5
501
330
4FB
100
AcDbEntity
  8
0
100
AcDbBlockEnd
  0
BLOCK
  5
509
330
504
100
AcDbEntity
  8
0
100
AcDbBlockBegin
  2
*S4
 70
     1
 10
0.0
 20
0.0
 30
0.0
  3
*S4
  1

  0
LINE
  5
505
330
504
100
AcDbEntity
  8
AM_5
 62
     5
100
AcDbLine
 10
-109.794460006547
 20
161.6660390657798
 30
0.0
 11
-124.0703405660449
 21
161.6660390657798
 31
0.0
  0
LINE
  5
506
330
504
100
AcDbEntity
  8
AM_5
 62
     5
100
AcDbLine
 10
-124.0703405660449
 20
161.6660390657798
 30
0.0
 11
-147.68650656635
 21
171.93934578716
 31
0.0
  0
TRACE
  5
507
330
504
100
AcDbEntity
  8
AM_5
 62
     5
100
AcDbTrace
 10
-147.5026986783144
 20
172.3618813654058
 30
0.0
 11
-147.8703144543857
 21
171.5168102089143
 31
0.0
 12
-150.8959829369028
 22
173.3355053148871
 32
0.0
 13
-150.8959829369028
 23
173.3355053148871
 33
0.0
  0
MTEXT
  5
508
330
504
100
AcDbEntity
  8
AM_5
 62
     2
100
AcDbMText
 10
-109.794460006547
 20
158.64425552848
 30
0.0
 40
3.5
 41
0.0
 71
     7
 72
     1
  1

  7
ACISOTS
  0
ENDBLK
  5
50A
330
504
100
AcDbEntity
  8
0
100
AcDbBlockEnd
  0
ENDSEC
  0
SECTION
  2
ENTITIES
  0
LINE
  5
25
330
2
100
AcDbEntity
  8
AM_VIS
100
AcDbLine
 10
-131.8134511821723
 20
347.3355053148872
 30
0.0
 11
-114.9176908707139
 21
347.3355053148872
 31
0.0
  0
LINE
  5
27
330
2
100
AcDbEntity
  8
AM_VIS
100
AcDbLine
 10
-167.8025972152668
 20
347.3355053148872
 30
0.0
 11
-133.9893686585389
 21
347.3355053148872
 31
0.0
  0
LINE
  5
28
330
2
100
AcDbEntity
  8
AM_VIS
100
AcDbLine
 10
-186.8742750030919
 20
347.3355053148872
 30
0.0
 11
-169.9785146916334
 21
347.3355053148872
 31
0.0
  0
LINE
  5
29
330
2
100
AcDbEntity
  8
AM_VIS
100
AcDbLine
 10
-107.8959829369029
 20
317.3355053148871
 30
0.0
 11
-108.0940989415496
 21
317.3355053148871
 31
0.0
  0
LINE
  5
2A
330
2
100
AcDbEntity
  8
AM_VIS
100
AcDbLine
 10
-111.7669884750075
 20
317.3355053148871
 30
0.0
 11
-109.7510211903349
 21
317.3355053148871
 31
0.0
  0
LINE
  5
2B
330
2
100
AcDbEntity
  8
AM_VIS
100
AcDbLine
 10
-111.7669884750075
 20
317.3355053148871
 30
0.0
 11
-115.8899396580418
 21
317.3355053148871
 31
0.0
  0
LINE
  5
2C
330
2
100
AcDbEntity
  8
AM_VIS
100
AcDbLine
 10
-125.6323836307461
 20
317.3355053148871
 30
0.0
 11
-117.971819316893
 21
317.3355053148871
 31
0.0
  0
LINE
  5
2D
330
2
100
AcDbEntity
  8
AM_VIS
100
AcDbLine
 10
-125.9244604749097
 20
317.3355053148871
 30
0.0
 11
-133.0656214013137
 21
317.3355053148871
 31
0.0
  0
LINE
  5
2E
330
2
100
AcDbEntity
  8
AM_VIS
100
AcDbLine
 10
-145.4791459569029
 20
317.3355053148871
 30
0.0
 11
-135.0146204969028
 21
317.3355053148871
 31
0.0
  0
LINE
  5
2F
330
2
100
AcDbEntity
  8
AM_VIS
100
AcDbLine
 10
-146.7730317522785
 20
317.3355053148871
 30
0.0
 11
-155.0189341188017
 21
317.3355053148871
 31
0.0
  0
LINE
  5
30
330
2
100
AcDbEntity
  8
AM_VIS
100
AcDbLine
 10
-166.7773453773816
 20
317.3355053148871
 30
0.0
 11
-156.3128199174166
 21
317.3355053148871
 31
0.0
  0
LINE
  5
31
330
2
100
AcDbEntity
  8
AM_VIS
100
AcDbLine
 10
-168.7263444700004
 20
317.3355053148871
 30
0.0
 11
-175.867505396667
 21
317.3355053148871
 31
0.0
  0
LINE
  5
32
330
2
100
AcDbEntity
  8
AM_VIS
100
AcDbLine
 10
-183.8201465572282
 20
317.3355053148871
 30
0.0
 11
-176.1595822434707
 21
317.3355053148871
 31
0.0
  0
LINE
  5
33
330
2
100
AcDbEntity
  8
AM_VIS
100
AcDbLine
 10
-185.9020262141738
 20
317.3355053148871
 30
0.0
 11
-190.0249773976628
 21
317.3355053148871
 31
0.0
  0
LINE
  5
34
330
2
100
AcDbEntity
  8
AM_VIS
100
AcDbLine
 10
-192.0409446835384
 20
317.3355053148871
 30
0.0
 11
-190.0249773976628
 21
317.3355053148871
 31
0.0
  0
LINE
  5
35
330
2
100
AcDbEntity
  8
AM_VIS
100
AcDbLine
 10
-193.6978669319936
 20
317.3355053148871
 30
0.0
 11
-193.8959829369029
 21
317.3355053148871
 31
0.0
  0
LINE
  5
36
330
2
100
AcDbEntity
  8
AM_VIS
100
AcDbLine
 10
-193.6978669319936
 20
338.3355053148871
 30
0.0
 11
-190.0249773976628
 21
338.3355053148871
 31
0.0
  0
LINE
  5
37
330
2
100
AcDbEntity
  8
AM_VIS
100
AcDbLine
 10
-185.9020262141738
 20
338.3355053148871
 30
0.0
 11
-175.867505396667
 21
338.3355053148871
 31
0.0
  0
LINE
  5
38
330
2
100
AcDbEntity
  8
AM_VIS
100
AcDbLine
 10
-168.7263444700004
 20
338.3355053148871
 30
0.0
 11
-155.0189341188017
 21
338.3355053148871
 31
0.0
  0
LINE
  5
39
330
2
100
AcDbEntity
  8
AM_VIS
100
AcDbLine
 10
-146.7730317522785
 20
338.3355053148871
 30
0.0
 11
-133.0656214013137
 21
338.3355053148871
 31
0.0
  0
LINE
  5
3A
330
2
100
AcDbEntity
  8
AM_VIS
100
AcDbLine
 10
-125.9244604749097
 20
338.3355053148871
 30
0.0
 11
-115.8899396580418
 21
338.3355053148871
 31
0.0
  0
LINE
  5
3B
330
2
100
AcDbEntity
  8
AM_VIS
100
AcDbLine
 10
-111.7669884750075
 20
338.3355053148871
 30
0.0
 11
-108.0940989415496
 21
338.3355053148871
 31
0.0
  0
LINE
  5
3C
330
2
100
AcDbEntity
  8
AM_VIS
100
AcDbLine
 10
-193.8959829369029
 20
346.3355053148871
 30
0.0
 11
-107.8959829369029
 21
346.3355053148871
 31
0.0
  0
LINE
  5
3D
330
2
100
AcDbEntity
  8
AM_VIS
100
AcDbLine
 10
-131.9026302754684
 20
350.8355053148871
 30
0.0
 11
-140.964087111237
 21
350.8355053148871
 31
0.0
  0
LINE
  5
3E
330
2
100
AcDbEntity
  8
AM_VIS
100
AcDbLine
 10
-140.4133084413551
 20
351.3355053148872
 30
0.0
 11
-132.4534089453502
 21
351.3355053148872
 31
0.0
  0
LINE
  5
3F
330
2
100
AcDbEntity
  8
AM_VIS
100
AcDbLine
 10
-131.9026302754684
 20
351.3355053148872
 30
0.0
 11
-131.9003044502502
 21
351.3355053148872
 31
0.0
  0
LINE
  5
40
330
2
100
AcDbEntity
  8
AM_VIS
100
AcDbLine
 10
-141.0472175986969
 20
351.3355053148872
 30
0.0
 11
-140.964087111237
 21
351.3355053148872
 31
0.0
  0
LINE
  5
41
330
2
100
AcDbEntity
  8
AM_VIS
100
AcDbLine
 10
-141.8345261003892
 20
350.8355053148871
 30
0.0
 11
-159.9574397734165
 21
350.8355053148871
 31
0.0
  0
LINE
  5
42
330
2
100
AcDbEntity
  8
AM_VIS
100
AcDbLine
 10
-158.8558824337558
 20
351.3355053148872
 30
0.0
 11
-142.9360834400499
 21
351.3355053148872
 31
0.0
  0
LINE
  5
43
330
2
100
AcDbEntity
  8
AM_VIS
100
AcDbLine
 10
-141.8345261003892
 20
351.3355053148872
 30
0.0
 11
-141.7490697876989
 21
351.3355053148872
 31
0.0
  0
LINE
  5
44
330
2
100
AcDbEntity
  8
AM_VIS
100
AcDbLine
 10
-160.0428960861068
 20
351.3355053148872
 30
0.0
 11
-159.9574397734165
 21
351.3355053148872
 31
0.0
  0
LINE
  5
45
330
2
100
AcDbEntity
  8
AM_VIS
100
AcDbLine
 10
-160.8278787625687
 20
350.8355053148871
 30
0.0
 11
-169.8893355983374
 21
350.8355053148871
 31
0.0
  0
LINE
  5
46
330
2
100
AcDbEntity
  8
AM_VIS
100
AcDbLine
 10
-169.3385569284555
 20
351.3355053148872
 30
0.0
 11
-161.3786574324507
 21
351.3355053148872
 31
0.0
  0
LINE
  5
47
330
2
100
AcDbEntity
  8
AM_VIS
100
AcDbLine
 10
-160.8278787625687
 20
351.3355053148872
 30
0.0
 11
-160.7447482751089
 21
351.3355053148872
 31
0.0
  0
LINE
  5
48
330
2
100
AcDbEntity
  8
AM_VIS
100
AcDbLine
 10
-169.8916614235556
 20
351.3355053148872
 30
0.0
 11
-169.8893355983374
 21
351.3355053148872
 31
0.0
  0
ELLIPSE
  5
49
330
2
100
AcDbEntity
  8
AM_VIS
100
AcDbEllipse
 10
-133.3445347535383
 20
365.8355053148872
 30
0.0
 11
0.0
 21
1.500000000000003
 31
0.0
210
0.0
220
0.0
230
1.0
 40
0.866025403784439
 41
4.712388980384689
 42
6.283185307179586
  0
ELLIPSE
  5
4A
330
2
100
AcDbEntity
  8
AM_VIS
100
AcDbEllipse
 10
-142.1202588447538
 20
365.8355053148872
 30
0.0
 11
0.0
 21
1.5
 31
0.0
210
0.0
220
0.0
230
1.0
 40
0.866025403784439
 41
4.712388980384689
 42
6.283185307179586
  0
LINE
  5
4B
330
2
100
AcDbEntity
  8
AM_VIS
100
AcDbLine
 10
-142.1202588447538
 20
367.3355053148871
 30
0.0
 11
-142.1202588447538
 21
365.8355053148872
 31
0.0
  0
LINE
  5
4C
330
2
100
AcDbEntity
  8
AM_VIS
100
AcDbLine
 10
-159.671707029052
 20
365.8355053148872
 30
0.0
 11
-159.671707029052
 21
367.3355053148871
 31
0.0
  0
ELLIPSE
  5
4D
330
2
100
AcDbEntity
  8
AM_VIS
100
AcDbEllipse
 10
-159.671707029052
 20
365.8355053148872
 30
0.0
 11
0.0
 21
1.499999999999999
 31
0.0
210
0.0
220
0.0
230
1.0
 40
0.866025403784439
 41
0.0
 42
1.570796326794896
  0
ELLIPSE
  5
4E
330
2
100
AcDbEntity
  8
AM_VIS
100
AcDbEllipse
 10
-168.4474311202675
 20
365.8355053148872
 30
0.0
 11
0.0
 21
1.5
 31
0.0
210
0.0
220
0.0
230
1.0
 40
0.8660254037844371
 41
0.0
 42
1.570796326794896
  0
LINE
  5
4F
330
2
100
AcDbEntity
  8
AM_VIS
100
AcDbLine
 10
-169.7464692259442
 20
365.8355053148872
 30
0.0
 11
-169.9474311202675
 21
365.8355053148872
 31
0.0
  0
LINE
  5
50
330
2
100
AcDbEntity
  8
AM_VIS
100
AcDbLine
 10
-159.671707029052
 20
365.8355053148872
 30
0.0
 11
-160.9707451347286
 21
365.8355053148872
 31
0.0
  0
LINE
  5
51
330
2
100
AcDbEntity
  8
AM_VIS
100
AcDbLine
 10
-140.8212207390771
 20
365.8355053148872
 30
0.0
 11
-142.1202588447538
 21
365.8355053148872
 31
0.0
  0
LINE
  5
52
330
2
100
AcDbEntity
  8
AM_VIS
100
AcDbLine
 10
-131.8445347535383
 20
365.8355053148872
 30
0.0
 11
-132.0454966478616
 21
365.8355053148872
 31
0.0
  0
LINE
  5
53
330
2
100
AcDbEntity
  8
AM_VIS
100
AcDbLine
 10
-169.8916614235556
 20
351.3355053148872
 30
0.0
 11
-169.9474311202675
 21
351.3355053148872
 31
0.0
  0
LINE
  5
54
330
2
100
AcDbEntity
  8
AM_VIS
100
AcDbLine
 10
-160.0428960861069
 20
351.3355053148872
 30
0.0
 11
-160.7447482751089
 21
351.3355053148872
 31
0.0
  0
LINE
  5
55
330
2
100
AcDbEntity
  8
AM_VIS
100
AcDbLine
 10
-141.0472175986969
 20
351.3355053148872
 30
0.0
 11
-141.7490697876989
 21
351.3355053148872
 31
0.0
  0
LINE
  5
56
330
2
100
AcDbEntity
  8
AM_VIS
100
AcDbLine
 10
-131.8445347535383
 20
351.3355053148872
 30
0.0
 11
-131.9003044502502
 21
351.3355053148872
 31
0.0
  0
ARC
  5
57
330
2
100
AcDbEntity
  8
AM_VIS
100
AcDbCircle
 10
-168.4474311202675
 20
365.8355053148872
 30
0.0
 40
1.5
100
AcDbArc
 50
90.0
 51
180.0
  0
ARC
  5
58
330
2
100
AcDbEntity
  8
AM_VIS
100
AcDbCircle
 10
-133.3445347535383
 20
365.8355053148872
 30
0.0
 40
1.5
100
AcDbArc
 50
0.0
 51
90.0
  0
LINE
  5
14E
330
2
100
AcDbEntity
  8
AM_VIS
100
AcDbLine
 10
-132.8959829369029
 20
477.4397790373281
 30
0.0
 11
-131.8134511821723
 21
476.8147790373281
 31
0.0
  0
LINE
  5
14F
330
2
100
AcDbEntity
  8
AM_VIS
100
AcDbLine
 10
-140.3134511821723
 20
462.0923471729926
 30
0.0
 11
-141.0586800683286
 21
462.5226052710228
 31
0.0
  0
LINE
  5
150
330
2
100
AcDbEntity
  8
AM_VIS
100
AcDbLine
 10
-141.7332858061773
 20
462.9120890753666
 30
0.0
 11
-142.4785146916334
 21
463.3423471729925
 31
0.0
  0
LINE
  5
151
330
2
100
AcDbEntity
  8
AM_VIS
100
AcDbLine
 10
-140.3134511821723
 20
462.0923471729926
 30
0.0
 11
-131.8134511821723
 21
476.8147790373281
 31
0.0
  0
LINE
  5
152
330
2
100
AcDbEntity
  8
AM_VIS
100
AcDbLine
 10
-133.9785146916334
 20
478.064779037328
 30
0.0
 11
-132.8959829369029
 21
477.4397790373281
 31
0.0
  0
LINE
  5
153
330
2
100
AcDbEntity
  8
AM_VIS
100
AcDbLine
 10
-133.9785146916334
 20
478.064779037328
 30
0.0
 11
-142.4785146916334
 21
463.3423471729925
 31
0.0
  0
LINE
  5
154
330
2
100
AcDbEntity
  8
AM_VIS
100
AcDbLine
 10
-168.8959829369029
 20
477.4397790373281
 30
0.0
 11
-167.8134511821723
 21
478.064779037328
 31
0.0
  0
LINE
  5
155
330
2
100
AcDbEntity
  8
AM_VIS
100
AcDbLine
 10
-159.3134511821723
 20
463.3423471729925
 30
0.0
 11
-160.0586800676283
 21
462.9120890753667
 31
0.0
  0
LINE
  5
156
330
2
100
AcDbEntity
  8
AM_VIS
100
AcDbLine
 10
-160.7332858054773
 20
462.5226052710226
 30
0.0
 11
-161.4785146916334
 21
462.0923471729926
 31
0.0
  0
LINE
  5
157
330
2
100
AcDbEntity
  8
AM_VIS
100
AcDbLine
 10
-159.3134511821723
 20
463.3423471729925
 30
0.0
 11
-167.8134511821723
 21
478.064779037328
 31
0.0
  0
LINE
  5
158
330
2
100
AcDbEntity
  8
AM_VIS
100
AcDbLine
 10
-169.9785146916334
 20
476.8147790373281
 30
0.0
 11
-168.8959829369029
 21
477.4397790373281
 31
0.0
  0
LINE
  5
159
330
2
100
AcDbEntity
  8
AM_VIS
100
AcDbLine
 10
-169.9785146916334
 20
476.8147790373281
 30
0.0
 11
-161.4785146916334
 21
462.0923471729926
 31
0.0
  0
LINE
  5
15A
330
2
100
AcDbEntity
  8
AM_VIS
100
AcDbLine
 10
-186.8959829369029
 20
446.2628645010883
 30
0.0
 11
-186.8959829369029
 21
447.5128645010882
 31
0.0
  0
LINE
  5
15B
330
2
100
AcDbEntity
  8
AM_VIS
100
AcDbLine
 10
-169.8959829369028
 20
447.5128645010882
 30
0.0
 11
-169.8959829369028
 21
446.6523483054918
 31
0.0
  0
LINE
  5
15C
330
2
100
AcDbEntity
  8
AM_VIS
100
AcDbLine
 10
-169.8959829369028
 20
445.8733806950678
 30
0.0
 11
-169.8959829369028
 21
445.0128645010883
 31
0.0
  0
LINE
  5
15D
330
2
100
AcDbEntity
  8
AM_VIS
100
AcDbLine
 10
-169.8959829369028
 20
447.5128645010882
 30
0.0
 11
-186.8959829369029
 21
447.5128645010882
 31
0.0
  0
LINE
  5
15E
330
2
100
AcDbEntity
  8
AM_VIS
100
AcDbLine
 10
-186.8959829369029
 20
445.0128645010883
 30
0.0
 11
-186.8959829369029
 21
446.2628645010883
 31
0.0
  0
LINE
  5
15F
330
2
100
AcDbEntity
  8
AM_VIS
100
AcDbLine
 10
-186.8959829369029
 20
445.0128645010883
 30
0.0
 11
-169.8959829369028
 21
445.0128645010883
 31
0.0
  0
LINE
  5
160
330
2
100
AcDbEntity
  8
AM_VIS
100
AcDbLine
 10
-168.8959829369029
 20
415.0859499648484
 30
0.0
 11
-169.9785146916334
 21
415.7109499648485
 31
0.0
  0
LINE
  5
161
330
2
100
AcDbEntity
  8
AM_VIS
100
AcDbLine
 10
-161.4785146916334
 20
430.433381829184
 30
0.0
 11
-160.7332858076808
 21
430.0031237324261
 31
0.0
  0
LINE
  5
162
330
2
100
AcDbEntity
  8
AM_VIS
100
AcDbLine
 10
-160.0586800668251
 20
429.6136399263461
 30
0.0
 11
-159.3134511821723
 21
429.183381829184
 31
0.0
  0
LINE
  5
163
330
2
100
AcDbEntity
  8
AM_VIS
100
AcDbLine
 10
-161.4785146916334
 20
430.433381829184
 30
0.0
 11
-169.9785146916334
 21
415.7109499648485
 31
0.0
  0
LINE
  5
164
330
2
100
AcDbEntity
  8
AM_VIS
100
AcDbLine
 10
-167.8134511821723
 20
414.4609499648485
 30
0.0
 11
-168.8959829369029
 21
415.0859499648484
 31
0.0
  0
LINE
  5
165
330
2
100
AcDbEntity
  8
AM_VIS
100
AcDbLine
 10
-167.8134511821723
 20
414.4609499648485
 30
0.0
 11
-159.3134511821723
 21
429.183381829184
 31
0.0
  0
LINE
  5
166
330
2
100
AcDbEntity
  8
AM_VIS
100
AcDbLine
 10
-132.8959829369029
 20
415.0859499648484
 30
0.0
 11
-133.9785146916334
 21
414.4609499648485
 31
0.0
  0
LINE
  5
167
330
2
100
AcDbEntity
  8
AM_VIS
100
AcDbLine
 10
-142.4785146916334
 20
429.183381829184
 30
0.0
 11
-141.7332858069806
 21
429.6136399263461
 31
0.0
  0
LINE
  5
168
330
2
100
AcDbEntity
  8
AM_VIS
100
AcDbLine
 10
-141.0586800661249
 20
430.003123732426
 30
0.0
 11
-140.3134511821723
 21
430.433381829184
 31
0.0
  0
LINE
  5
169
330
2
100
AcDbEntity
  8
AM_VIS
100
AcDbLine
 10
-142.4785146916334
 20
429.183381829184
 30
0.0
 11
-133.9785146916334
 21
414.4609499648485
 31
0.0
  0
LINE
  5
16A
330
2
100
AcDbEntity
  8
AM_VIS
100
AcDbLine
 10
-131.8134511821723
 20
415.7109499648485
 30
0.0
 11
-132.8959829369029
 21
415.0859499648484
 31
0.0
  0
LINE
  5
16B
330
2
100
AcDbEntity
  8
AM_VIS
100
AcDbLine
 10
-131.8134511821723
 20
415.7109499648485
 30
0.0
 11
-140.3134511821723
 21
430.433381829184
 31
0.0
  0
LINE
  5
16C
330
2
100
AcDbEntity
  8
AM_VIS
100
AcDbLine
 10
-131.8959829369029
 20
445.0128645010883
 30
0.0
 11
-114.8959829369029
 21
445.0128645010883
 31
0.0
  0
LINE
  5
16D
330
2
100
AcDbEntity
  8
AM_VIS
100
AcDbLine
 10
-114.8959829369029
 20
446.2628645010883
 30
0.0
 11
-114.8959829369029
 21
445.0128645010883
 31
0.0
  0
LINE
  5
16E
330
2
100
AcDbEntity
  8
AM_VIS
100
AcDbLine
 10
-114.8959829369029
 20
447.5128645010882
 30
0.0
 11
-114.8959829369029
 21
446.2628645010883
 31
0.0
  0
LINE
  5
16F
330
2
100
AcDbEntity
  8
AM_VIS
100
AcDbLine
 10
-114.8959829369029
 20
447.5128645010882
 30
0.0
 11
-131.8959829369029
 21
447.5128645010882
 31
0.0
  0
LINE
  5
170
330
2
100
AcDbEntity
  8
AM_VIS
100
AcDbLine
 10
-131.8959829369029
 20
446.6523483054916
 30
0.0
 11
-131.8959829369029
 21
447.5128645010882
 31
0.0
  0
LINE
  5
171
330
2
100
AcDbEntity
  8
AM_VIS
100
AcDbLine
 10
-131.8959829369029
 20
445.0128645010883
 30
0.0
 11
-131.8959829369029
 21
445.8733806950681
 31
0.0
  0
LINE
  5
172
330
2
100
AcDbEntity
  8
AM_VIS
100
AcDbLine
 10
-133.3445347535383
 20
446.2628645002799
 30
0.0
 11
-142.1202588447538
 21
431.0628645010884
 31
0.0
  0
LINE
  5
173
330
2
100
AcDbEntity
  8
AM_VIS
100
AcDbLine
 10
-142.1202588456873
 20
461.4628645010883
 30
0.0
 11
-133.3445347535383
 21
446.2628645002799
 31
0.0
  0
LINE
  5
174
330
2
100
AcDbEntity
  8
AM_VIS
100
AcDbLine
 10
-159.6717070281184
 20
461.4628645010882
 30
0.0
 11
-142.1202588456873
 21
461.4628645010882
 31
0.0
  0
LINE
  5
175
330
2
100
AcDbEntity
  8
AM_VIS
100
AcDbLine
 10
-168.4474311202675
 20
446.2628645002799
 30
0.0
 11
-159.6717070281185
 21
461.4628645010883
 31
0.0
  0
LINE
  5
176
330
2
100
AcDbEntity
  8
AM_VIS
100
AcDbLine
 10
-159.671707029052
 20
431.0628645010883
 30
0.0
 11
-168.4474311202675
 21
446.2628645002799
 31
0.0
  0
LINE
  5
177
330
2
100
AcDbEntity
  8
AM_VIS
100
AcDbLine
 10
-142.1202588447538
 20
431.0628645010883
 30
0.0
 11
-159.671707029052
 21
431.0628645010883
 31
0.0
  0
LINE
  5
178
330
2
100
AcDbEntity
  8
AM_VIS
100
AcDbLine
 10
-169.8893355983823
 20
446.7654126845239
 30
0.0
 11
-169.7464692259442
 21
447.0128645002798
 31
0.0
  0
LINE
  5
179
330
2
100
AcDbEntity
  8
AM_VIS
100
AcDbLine
 10
-160.9707451337951
 20
462.2128645010882
 30
0.0
 11
-160.8278787611236
 21
462.4603163172483
 31
0.0
  0
LINE
  5
17A
330
2
100
AcDbEntity
  8
AM_VIS
100
AcDbLine
 10
-159.9574397734165
 20
462.9628645010883
 30
0.0
 11
-159.6717070281184
 21
462.9628645010883
 31
0.0
  0
LINE
  5
17B
330
2
100
AcDbEntity
  8
AM_VIS
100
AcDbLine
 10
-142.1202588456873
 20
462.9628645010883
 30
0.0
 11
-141.8345261003892
 21
462.9628645010883
 31
0.0
  0
LINE
  5
17C
330
2
100
AcDbEntity
  8
AM_VIS
100
AcDbLine
 10
-140.9640871126821
 20
462.4603163172483
 30
0.0
 11
-140.8212207400107
 21
462.2128645010883
 31
0.0
  0
LINE
  5
17D
330
2
100
AcDbEntity
  8
AM_VIS
100
AcDbLine
 10
-132.0454966478616
 20
447.0128645002798
 30
0.0
 11
-131.9026302754235
 21
446.765412684524
 31
0.0
  0
LINE
  5
17E
330
2
100
AcDbEntity
  8
AM_VIS
100
AcDbLine
 10
-131.9026302754683
 20
445.760316315958
 30
0.0
 11
-132.0454966478616
 21
445.5128645002798
 31
0.0
  0
LINE
  5
17F
330
2
100
AcDbEntity
  8
AM_VIS
100
AcDbLine
 10
-140.8212207390771
 20
430.3128645010882
 30
0.0
 11
-140.964087111237
 21
430.0654126858144
 31
0.0
  0
LINE
  5
180
330
2
100
AcDbEntity
  8
AM_VIS
100
AcDbLine
 10
-141.8345261003892
 20
429.5628645010883
 30
0.0
 11
-142.1202588447538
 21
429.5628645010883
 31
0.0
  0
LINE
  5
181
330
2
100
AcDbEntity
  8
AM_VIS
100
AcDbLine
 10
-159.671707029052
 20
429.5628645010883
 30
0.0
 11
-159.9574397734165
 21
429.5628645010883
 31
0.0
  0
LINE
  5
182
330
2
100
AcDbEntity
  8
AM_VIS
100
AcDbLine
 10
-160.8278787625687
 20
430.0654126858144
 30
0.0
 11
-160.9707451347286
 21
430.3128645010883
 31
0.0
  0
LINE
  5
183
330
2
100
AcDbEntity
  8
AM_VIS
100
AcDbLine
 10
-169.7464692259442
 20
445.5128645002798
 30
0.0
 11
-169.8893355983374
 21
445.760316315958
 31
0.0
  0
LINE
  5
184
330
2
100
AcDbEntity
  8
AM_VIS
100
AcDbLine
 10
-140.8212207390771
 20
430.3128645010882
 30
0.0
 11
-132.0454966478616
 21
445.5128645002798
 31
0.0
  0
LINE
  5
185
330
2
100
AcDbEntity
  8
AM_VIS
100
AcDbLine
 10
-159.671707029052
 20
429.5628645010883
 30
0.0
 11
-142.1202588447538
 21
429.5628645010883
 31
0.0
  0
LINE
  5
186
330
2
100
AcDbEntity
  8
AM_VIS
100
AcDbLine
 10
-169.7464692259442
 20
445.5128645002798
 30
0.0
 11
-160.9707451347286
 21
430.3128645010883
 31
0.0
  0
LINE
  5
187
330
2
100
AcDbEntity
  8
AM_VIS
100
AcDbLine
 10
-160.9707451337951
 20
462.2128645010883
 30
0.0
 11
-169.7464692259442
 21
447.0128645002798
 31
0.0
  0
LINE
  5
188
330
2
100
AcDbEntity
  8
AM_VIS
100
AcDbLine
 10
-142.1202588456873
 20
462.9628645010883
 30
0.0
 11
-159.6717070281184
 21
462.9628645010883
 31
0.0
  0
LINE
  5
189
330
2
100
AcDbEntity
  8
AM_VIS
100
AcDbLine
 10
-132.0454966478616
 20
447.0128645002798
 30
0.0
 11
-140.8212207400107
 21
462.2128645010883
 31
0.0
  0
ARC
  5
18A
330
2
100
AcDbEntity
  8
AM_VIS
100
AcDbCircle
 10
-150.8959829369029
 20
446.2628645010883
 30
0.0
 40
21.49999999999999
100
AcDbArc
 50
3.333029493942331
 51
56.66697050605765
  0
ARC
  5
18B
330
2
100
AcDbEntity
  8
AM_VIS
100
AcDbCircle
 10
-150.8959829369029
 20
446.2628645010883
 30
0.0
 40
21.49999999999999
100
AcDbArc
 50
303.3330294939424
 51
356.6669705060576
  0
ARC
  5
18C
330
2
100
AcDbEntity
  8
AM_VIS
100
AcDbCircle
 10
-150.8959829369029
 20
446.2628645010883
 30
0.0
 40
21.49999999999999
100
AcDbArc
 50
243.3330294939424
 51
296.6669705060577
  0
ARC
  5
18D
330
2
100
AcDbEntity
  8
AM_VIS
100
AcDbCircle
 10
-150.8959829369029
 20
446.2628645010883
 30
0.0
 40
21.49999999999999
100
AcDbArc
 50
183.3330294939423
 51
236.6669705060577
  0
ARC
  5
18E
330
2
100
AcDbEntity
  8
AM_VIS
100
AcDbCircle
 10
-150.8959829369029
 20
446.2628645010883
 30
0.0
 40
21.49999999999999
100
AcDbArc
 50
123.3330294939422
 51
176.6669705060576
  0
ARC
  5
18F
330
2
100
AcDbEntity
  8
AM_VIS
100
AcDbCircle
 10
-150.8959829369029
 20
446.2628645010883
 30
0.0
 40
36.0
100
AcDbArc
 50
1.989836760698572
 51
58.01016323930141
  0
ARC
  5
190
330
2
100
AcDbEntity
  8
AM_VIS
100
AcDbCircle
 10
-150.8959829369029
 20
446.2628645010883
 30
0.0
 40
36.0
100
AcDbArc
 50
301.9898367606986
 51
358.0101632393013
  0
ARC
  5
191
330
2
100
AcDbEntity
  8
AM_VIS
100
AcDbCircle
 10
-150.8959829369029
 20
446.2628645010883
 30
0.0
 40
36.0
100
AcDbArc
 50
241.9898367606986
 51
298.0101632393014
  0
ARC
  5
192
330
2
100
AcDbEntity
  8
AM_VIS
100
AcDbCircle
 10
-150.8959829369029
 20
446.2628645010883
 30
0.0
 40
36.0
100
AcDbArc
 50
181.9898367606986
 51
238.0101632393014
  0
ARC
  5
193
330
2
100
AcDbEntity
  8
AM_VIS
100
AcDbCircle
 10
-150.8959829369029
 20
446.2628645010883
 30
0.0
 40
36.0
100
AcDbArc
 50
121.9898367606985
 51
178.0101632393013
  0
CIRCLE
  5
194
330
2
100
AcDbEntity
  8
AM_VIS
100
AcDbCircle
 10
-150.8959829369028
 20
446.2628645010883
 30
0.0
 40
43.0
  0
CIRCLE
  5
195
330
2
100
AcDbEntity
  8
AM_VIS
100
AcDbCircle
 10
-150.8959829369028
 20
446.2628645010883
 30
0.0
 40
9.3
  0
CIRCLE
  5
196
330
2
100
AcDbEntity
  8
AM_VIS
100
AcDbCircle
 10
-150.8959829369028
 20
446.2628645010883
 30
0.0
 40
11.3
  0
ARC
  5
197
330
2
100
AcDbEntity
  8
AM_VIS
100
AcDbCircle
 10
-150.8959829369029
 20
446.2628645010883
 30
0.0
 40
19.0
100
AcDbArc
 50
121.5156446487116
 51
178.4843553512883
  0
ARC
  5
198
330
2
100
AcDbEntity
  8
AM_VIS
100
AcDbCircle
 10
-150.8959829369029
 20
446.2628645010883
 30
0.0
 40
18.49999999999999
100
AcDbArc
 50
124.515631419262
 51
175.4843685807379
  0
ARC
  5
199
330
2
100
AcDbEntity
  8
AM_VIS
100
AcDbCircle
 10
-150.8959829369029
 20
446.2628645010883
 30
0.0
 40
19.0
100
AcDbArc
 50
178.4843553512884
 51
178.777955588821
  0
ARC
  5
19A
330
2
100
AcDbEntity
  8
AM_VIS
100
AcDbCircle
 10
-150.8959829369029
 20
446.2628645010883
 30
0.0
 40
19.0
100
AcDbArc
 50
121.2220444097834
 51
121.5156446487117
  0
ARC
  5
19B
330
2
100
AcDbEntity
  8
AM_VIS
100
AcDbCircle
 10
-150.8959829369029
 20
446.2628645010883
 30
0.0
 40
19.0
100
AcDbArc
 50
61.51564465126757
 51
118.4843553487324
  0
ARC
  5
19C
330
2
100
AcDbEntity
  8
AM_VIS
100
AcDbCircle
 10
-150.8959829369029
 20
446.2628645010883
 30
0.0
 40
18.5
100
AcDbArc
 50
64.51563142217165
 51
115.4843685778283
  0
ARC
  5
19D
330
2
100
AcDbEntity
  8
AM_VIS
100
AcDbCircle
 10
-150.8959829369029
 20
446.2628645010883
 30
0.0
 40
19.0
100
AcDbArc
 50
118.4843553487324
 51
118.7779555875774
  0
ARC
  5
19E
330
2
100
AcDbEntity
  8
AM_VIS
100
AcDbCircle
 10
-150.8959829369029
 20
446.2628645010883
 30
0.0
 40
19.0
100
AcDbArc
 50
61.22204441242257
 51
61.51564465126757
  0
ARC
  5
19F
330
2
100
AcDbEntity
  8
AM_VIS
100
AcDbCircle
 10
-150.8959829369029
 20
446.2628645010883
 30
0.0
 40
19.0
100
AcDbArc
 50
1.515644648711667
 51
58.48435535128835
  0
ARC
  5
1A0
330
2
100
AcDbEntity
  8
AM_VIS
100
AcDbCircle
 10
-150.8959829369029
 20
446.2628645010883
 30
0.0
 40
18.5
100
AcDbArc
 50
4.51563141926199
 51
55.48436858073801
  0
ARC
  5
1A1
330
2
100
AcDbEntity
  8
AM_VIS
100
AcDbCircle
 10
-150.8959829369029
 20
446.2628645010883
 30
0.0
 40
19.0
100
AcDbArc
 50
58.48435535128829
 51
58.77795559021653
  0
ARC
  5
1A2
330
2
100
AcDbEntity
  8
AM_VIS
100
AcDbCircle
 10
-150.8959829369029
 20
446.2628645010883
 30
0.0
 40
19.0
100
AcDbArc
 50
1.222044411179046
 51
1.515644648711667
  0
ARC
  5
1A3
330
2
100
AcDbEntity
  8
AM_VIS
100
AcDbCircle
 10
-150.8959829369029
 20
446.2628645010883
 30
0.0
 40
19.0
100
AcDbArc
 50
301.5156446538235
 51
358.4843553461765
  0
ARC
  5
1A4
330
2
100
AcDbEntity
  8
AM_VIS
100
AcDbCircle
 10
-150.8959829369029
 20
446.2628645010883
 30
0.0
 40
18.5
100
AcDbArc
 50
304.5156314250813
 51
355.4843685749187
  0
ARC
  5
1A5
330
2
100
AcDbEntity
  8
AM_VIS
100
AcDbCircle
 10
-150.8959829369029
 20
446.2628645010883
 30
0.0
 40
19.0
100
AcDbArc
 50
358.4843553461764
 51
358.7779555835427
  0
ARC
  5
1A6
330
2
100
AcDbEntity
  8
AM_VIS
100
AcDbCircle
 10
-150.8959829369029
 20
446.2628645010883
 30
0.0
 40
19.0
100
AcDbArc
 50
301.2220444178528
 51
301.5156446538235
  0
ARC
  5
1A7
330
2
100
AcDbEntity
  8
AM_VIS
100
AcDbCircle
 10
-150.8959829369029
 20
446.2628645010883
 30
0.0
 40
19.0
100
AcDbArc
 50
241.5156446512675
 51
298.4843553487323
  0
ARC
  5
1A8
330
2
100
AcDbEntity
  8
AM_VIS
100
AcDbCircle
 10
-150.8959829369029
 20
446.2628645010883
 30
0.0
 40
18.5
100
AcDbArc
 50
244.5156314221716
 51
295.4843685778283
  0
ARC
  5
1A9
330
2
100
AcDbEntity
  8
AM_VIS
100
AcDbCircle
 10
-150.8959829369029
 20
446.2628645010883
 30
0.0
 40
19.0
100
AcDbArc
 50
298.4843553487323
 51
298.7779555847863
  0
ARC
  5
1AA
330
2
100
AcDbEntity
  8
AM_VIS
100
AcDbCircle
 10
-150.8959829369029
 20
446.2628645010883
 30
0.0
 40
19.0
100
AcDbArc
 50
241.2220444152137
 51
241.5156446512675
  0
ARC
  5
1AB
330
2
100
AcDbEntity
  8
AM_VIS
100
AcDbCircle
 10
-150.8959829369029
 20
446.2628645010883
 30
0.0
 40
19.0
100
AcDbArc
 50
181.5156446538235
 51
238.4843553461764
  0
ARC
  5
1AC
330
2
100
AcDbEntity
  8
AM_VIS
100
AcDbCircle
 10
-150.8959829369029
 20
446.2628645010883
 30
0.0
 40
18.5
100
AcDbArc
 50
184.5156314250813
 51
235.4843685749186
  0
ARC
  5
1AD
330
2
100
AcDbEntity
  8
AM_VIS
100
AcDbCircle
 10
-150.8959829369029
 20
446.2628645010883
 30
0.0
 40
19.0
100
AcDbArc
 50
238.4843553461764
 51
238.777955582147
  0
ARC
  5
1AE
330
2
100
AcDbEntity
  8
AM_VIS
100
AcDbCircle
 10
-150.8959829369029
 20
446.2628645010883
 30
0.0
 40
19.0
100
AcDbArc
 50
181.2220444164573
 51
181.5156446538235
  0
ARC
  5
1AF
330
2
100
AcDbEntity
  8
AM_VIS
100
AcDbCircle
 10
-150.8959829369029
 20
446.2628645010883
 30
0.0
 40
21.49999999999999
100
AcDbArc
 50
63.33302949394234
 51
116.6669705060576
  0
ARC
  5
1B0
330
2
100
AcDbEntity
  8
AM_VIS
100
AcDbCircle
 10
-150.8959829369029
 20
446.2628645010883
 30
0.0
 40
36.0
100
AcDbArc
 50
61.98983676069858
 51
118.0101632393013
  0
LINE
  5
1B1
330
2
100
AcDbEntity
  8
AM_VIS
100
AcDbLine
 10
-133.3445347535383
 20
446.2628645002799
 30
0.0
 11
-132.0454966478616
 21
445.5128645002798
 31
0.0
  0
LINE
  5
1B2
330
2
100
AcDbEntity
  8
AM_VIS
100
AcDbLine
 10
-140.8212207390771
 20
430.3128645010882
 30
0.0
 11
-142.1202588447538
 21
431.0628645010883
 31
0.0
  0
LINE
  5
1B3
330
2
100
AcDbEntity
  8
AM_VIS
100
AcDbLine
 10
-142.1202588447538
 20
431.0628645010883
 30
0.0
 11
-142.1202588447538
 21
429.5628645010883
 31
0.0
  0
LINE
  5
1B4
330
2
100
AcDbEntity
  8
AM_VIS
100
AcDbLine
 10
-159.671707029052
 20
429.5628645010883
 30
0.0
 11
-159.671707029052
 21
431.0628645010883
 31
0.0
  0
LINE
  5
1B5
330
2
100
AcDbEntity
  8
AM_VIS
100
AcDbLine
 10
-159.671707029052
 20
431.0628645010883
 30
0.0
 11
-160.9707451347286
 21
430.3128645010882
 31
0.0
  0
LINE
  5
1B6
330
2
100
AcDbEntity
  8
AM_VIS
100
AcDbLine
 10
-169.7464692259442
 20
445.5128645002798
 30
0.0
 11
-168.4474311202675
 21
446.2628645002799
 31
0.0
  0
LINE
  5
1B7
330
2
100
AcDbEntity
  8
AM_VIS
100
AcDbLine
 10
-168.4474311202675
 20
446.2628645002799
 30
0.0
 11
-169.7464692259442
 21
447.0128645002798
 31
0.0
  0
LINE
  5
1B8
330
2
100
AcDbEntity
  8
AM_VIS
100
AcDbLine
 10
-160.9707451337951
 20
462.2128645010883
 30
0.0
 11
-159.6717070281184
 21
461.4628645010883
 31
0.0
  0
ARC
  5
1B9
330
2
100
AcDbEntity
  8
AM_VIS
100
AcDbCircle
 10
-168.4474311202675
 20
446.2628645002799
 30
0.0
 40
1.5
100
AcDbArc
 50
150.0
 51
209.9999999999999
  0
LINE
  5
1BA
330
2
100
AcDbEntity
  8
AM_VIS
100
AcDbLine
 10
-159.6717070281184
 20
461.4628645010882
 30
0.0
 11
-159.6717070281184
 21
462.9628645010883
 31
0.0
  0
LINE
  5
1BB
330
2
100
AcDbEntity
  8
AM_VIS
100
AcDbLine
 10
-142.1202588456873
 20
462.9628645010883
 30
0.0
 11
-142.1202588456873
 21
461.4628645010882
 31
0.0
  0
ARC
  5
1BC
330
2
100
AcDbEntity
  8
AM_VIS
100
AcDbCircle
 10
-159.6717070281184
 20
461.4628645010882
 30
0.0
 40
1.5
100
AcDbArc
 50
90.0
 51
150.0
  0
ARC
  5
1BD
330
2
100
AcDbEntity
  8
AM_VIS
100
AcDbCircle
 10
-159.671707029052
 20
431.0628645010883
 30
0.0
 40
1.5
100
AcDbArc
 50
209.9999999999999
 51
270.0
  0
LINE
  5
1BE
330
2
100
AcDbEntity
  8
AM_VIS
100
AcDbLine
 10
-142.1202588456873
 20
461.4628645010882
 30
0.0
 11
-140.8212207400107
 21
462.2128645010882
 31
0.0
  0
LINE
  5
1BF
330
2
100
AcDbEntity
  8
AM_VIS
100
AcDbLine
 10
-132.0454966478616
 20
447.0128645002798
 30
0.0
 11
-133.3445347535383
 21
446.2628645002799
 31
0.0
  0
ARC
  5
1C0
330
2
100
AcDbEntity
  8
AM_VIS
100
AcDbCircle
 10
-142.1202588456873
 20
461.4628645010882
 30
0.0
 40
1.5
100
AcDbArc
 50
29.99999999999999
 51
90.0
  0
ARC
  5
1C1
330
2
100
AcDbEntity
  8
AM_VIS
100
AcDbCircle
 10
-142.1202588447538
 20
431.0628645010883
 30
0.0
 40
1.5
100
AcDbArc
 50
270.0
 51
330.0
  0
ARC
  5
1C2
330
2
100
AcDbEntity
  8
AM_VIS
100
AcDbCircle
 10
-133.3445347535383
 20
446.2628645002799
 30
0.0
 40
1.5
100
AcDbArc
 50
330.0
 51
29.99999999999999
  0
POINT
  5
1C3
330
2
100
AcDbEntity
  8
0
 60
     1
100
AcDbPoint
 10
0.0
 20
0.0
 30
0.0
  0
POINT
  5
1C4
330
2
100
AcDbEntity
  8
0
 60
     1
100
AcDbPoint
 10
0.0
 20
0.0
 30
0.0
  0
LINE
  5
1C8
330
2
100
AcDbEntity
  8
AM_7
100
AcDbLine
 10
-150.8959829369028
 20
372.5199746820273
 30
0.0
 11
-150.8959829369028
 21
166.3144182935504
 31
0.0
  0
LINE
  5
1C9
330
2
100
AcDbEntity
  8
AM_7
100
AcDbLine
 10
-150.8959829369028
 20
446.2628645010883
 30
0.0
 11
-150.8959829369028
 21
446.2628645010883
 31
0.0
  0
LINE
  5
1CA
330
2
100
AcDbEntity
  8
AM_7
100
AcDbLine
 10
-150.8959829369028
 20
446.2628645010883
 30
0.0
 11
-150.8959829369028
 21
446.2628645010883
 31
0.0
  0
LINE
  5
1CB
330
2
100
AcDbEntity
  8
AM_7
100
AcDbLine
 10
-196.8959829369028
 20
446.2628645010883
 30
0.0
 11
-150.8959829369028
 21
446.2628645010883
 31
0.0
  0
LINE
  5
1CC
330
2
100
AcDbEntity
  8
AM_7
100
AcDbLine
 10
-150.8959829369028
 20
446.2628645010883
 30
0.0
 11
-104.8959829369028
 21
446.2628645010883
 31
0.0
  0
LINE
  5
1CD
330
2
100
AcDbEntity
  8
AM_7
100
AcDbLine
 10
-150.8959829369028
 20
400.2628645010883
 30
0.0
 11
-150.8959829369028
 21
446.2628645010883
 31
0.0
  0
LINE
  5
1CE
330
2
100
AcDbEntity
  8
AM_7
100
AcDbLine
 10
-150.8959829369028
 20
446.2628645010883
 30
0.0
 11
-150.8959829369028
 21
492.2628645010883
 31
0.0
  0
ARC
  5
1CF
330
2
100
AcDbEntity
  8
AM_4
100
AcDbCircle
 10
-150.8959829369028
 20
446.2628645010883
 30
0.0
 40
10.5
100
AcDbArc
 50
260.0
 51
190.0
  0
DIMENSION
  5
1D1
330
2
100
AcDbEntity
  8
AM_REFDIM
100
AcDbDimension
  2
*D1
 10
-107.8959829369029
 20
382.0167478286515
 30
0.0
 11
-150.8959829369028
 21
384.3167478286515
 31
0.0
 70
    32
  1
%%c<>
  3
AM_ISO
100
AcDbAlignedDimension
 13
-193.8959829369029
 23
346.3355053148871
 33
0.0
 14
-107.8959829369029
 24
346.3355053148871
 34
0.0
100
AcDbRotatedDimension
1001
ACAD_DIMASSOC_CALC_DIMLFAC
1040
-1.0
1001
ACAD
1000
DSTYLE
1002
{
1070
   144
1040
-1.0
1002
}
1001
ACAD_DIMASSOC_DIMLFAC
1040
-1.0
  0
DIMENSION
  5
1E2
330
2
100
AcDbEntity
  8
AM_REFDIM
100
AcDbDimension
  2
*D2
 10
-75.85207990391594
 20
173.3355053148871
 30
0.0
 11
-78.15207990391598
 21
270.3355053148871
 31
0.0
 70
    32
  3
AM_ISO
100
AcDbAlignedDimension
 13
-133.3445347535383
 23
367.3355053148871
 33
0.0
 14
-138.3489775531103
 24
173.3355053148871
 34
0.0
 50
90.0
100
AcDbRotatedDimension
1001
ACAD_DIMASSOC_CALC_DIMLFAC
1040
-1.0
1001
ACAD
1000
DSTYLE
1002
{
1070
   144
1040
-1.0
1002
}
1001
ACAD_DIMASSOC_DIMLFAC
1040
-1.0
  0
TEXT
  5
1EF
330
2
100
AcDbEntity
  8
0
 62
     5
100
AcDbText
 10
-119.8307835921998
 20
398.4324871654606
 30
0.0
 40
3.0
  1
PT1/4
100
AcDbText
  0
TEXT
  5
1F0
330
2
100
AcDbEntity
  8
0
 62
     5
100
AcDbText
 10
-119.8307835921998
 20
394.5329715213511
 30
0.0
 40
3.0
  1
PT3/8
100
AcDbText
  0
TEXT
  5
1F1
330
2
100
AcDbEntity
  8
0
 62
     5
100
AcDbText
 10
-119.8307835921998
 20
390.5275448790993
 30
0.0
 40
3.0
  1
PT1/2
100
AcDbText
  0
MTEXT
  5
1F6
330
2
100
AcDbEntity
  8
AM_5
 62
     2
100
AcDbMText
 10
171.2692538264127
 20
308.8851056852732
 30
0.0
 40
3.5
 41
0.0
 71
     7
 72
     1
  1

  7
ACISOTS
1001
ACAD
1000
MTEXTBEGIN
1070
    73
1070
     1
1070
    44
1040
1.0
1070
    74
1070
     0
1000
MTEXTEND
  0
LINE
  5
1F8
330
2
100
AcDbEntity
  8
AM_VIS
100
AcDbLine
 10
-144.2564548401363
 20
173.3355053148871
 30
0.0
 11
-144.2564548401363
 21
183.3355053148872
 31
0.0
  0
LINE
  5
1F9
330
2
100
AcDbEntity
  8
AM_VIS
100
AcDbLine
 10
-145.1224802439207
 20
183.3355053148872
 30
0.0
 11
-145.1224802439207
 21
173.3355053148871
 31
0.0
  0
LINE
  5
1FA
330
2
100
AcDbEntity
  8
AM_VIS
100
AcDbLine
 10
-138.4829521493259
 20
183.3355053148872
 30
0.0
 11
-138.4829521493259
 21
173.3355053148871
 31
0.0
  0
LINE
  5
1FB
330
2
100
AcDbEntity
  8
AM_VIS
100
AcDbLine
 10
-156.669485629885
 20
173.3355053148871
 30
0.0
 11
-156.669485629885
 21
183.3355053148872
 31
0.0
  0
LINE
  5
1FC
330
2
100
AcDbEntity
  8
AM_VIS
100
AcDbLine
 10
-157.5355110336694
 20
183.3355053148872
 30
0.0
 11
-157.5355110336694
 21
173.3355053148871
 31
0.0
  0
LINE
  5
1FD
330
2
100
AcDbEntity
  8
AM_VIS
100
AcDbLine
 10
-163.3090137244798
 20
173.3355053148871
 30
0.0
 11
-163.3090137244798
 21
183.3355053148872
 31
0.0
  0
LINE
  5
1FE
330
2
100
AcDbEntity
  8
AM_VIS
100
AcDbLine
 10
-163.3090137244798
 20
173.3355053148871
 30
0.0
 11
-157.5355110336694
 21
173.3355053148871
 31
0.0
  0
LINE
  5
1FF
330
2
100
AcDbEntity
  8
AM_VIS
100
AcDbLine
 10
-156.669485629885
 20
173.3355053148871
 30
0.0
 11
-145.1224802439207
 21
173.3355053148871
 31
0.0
  0
LINE
  5
200
330
2
100
AcDbEntity
  8
AM_VIS
100
AcDbLine
 10
-144.2564548401363
 20
173.3355053148871
 30
0.0
 11
-138.4829521493259
 21
173.3355053148871
 31
0.0
  0
LINE
  5
201
330
2
100
AcDbEntity
  8
AM_VIS
100
AcDbLine
 10
-138.3489775531103
 20
183.3355053148872
 30
0.0
 11
-138.3489775531103
 21
173.3355053148871
 31
0.0
  0
LINE
  5
202
330
2
100
AcDbEntity
  8
AM_VIS
100
AcDbLine
 10
-163.4429883206954
 20
183.3355053148872
 30
0.0
 11
-163.4429883206954
 21
173.3355053148871
 31
0.0
  0
LINE
  5
203
330
2
100
AcDbEntity
  8
AM_VIS
100
AcDbLine
 10
-163.6459829369028
 20
192.8355053148871
 30
0.0
 11
-164.6459829369028
 21
193.8355053148871
 31
0.0
  0
LINE
  5
204
330
2
100
AcDbEntity
  8
AM_VIS
100
AcDbLine
 10
-138.1459829369029
 20
192.8355053148871
 30
0.0
 11
-137.1459829369028
 21
193.8355053148871
 31
0.0
  0
LINE
  5
205
330
2
100
AcDbEntity
  8
AM_VIS
100
AcDbLine
 10
-137.1459829369028
 20
195.3355053148872
 30
0.0
 11
-137.1459829369028
 21
193.8355053148871
 31
0.0
  0
LINE
  5
206
330
2
100
AcDbEntity
  8
AM_VIS
100
AcDbLine
 10
-164.6459829369028
 20
195.3355053148872
 30
0.0
 11
-164.6459829369028
 21
193.8355053148871
 31
0.0
  0
LINE
  5
207
330
2
100
AcDbEntity
  8
AM_VIS
100
AcDbLine
 10
-114.1459829369029
 20
311.3355053148872
 30
0.0
 11
-114.1459829369029
 21
220.2553769036414
 31
0.0
  0
LINE
  5
208
330
2
100
AcDbEntity
  8
AM_VIS
100
AcDbLine
 10
-187.6459829369029
 20
311.3355053148872
 30
0.0
 11
-187.6459829369029
 21
220.2553769036414
 31
0.0
  0
LINE
  5
209
330
2
100
AcDbEntity
  8
AM_VIS
100
AcDbLine
 10
-138.3959829369028
 20
192.8355053148871
 30
0.0
 11
-138.3959829369028
 21
183.3355053148872
 31
0.0
  0
LINE
  5
20A
330
2
100
AcDbEntity
  8
AM_VIS
100
AcDbLine
 10
-163.3959829369028
 20
192.8355053148871
 30
0.0
 11
-163.3959829369028
 21
183.3355053148872
 31
0.0
  0
LINE
  5
20B
330
2
100
AcDbEntity
  8
AM_VIS
100
AcDbLine
 10
-108.3959829369028
 20
316.3355053148872
 30
0.0
 11
-108.3959829369028
 21
311.3355053148872
 31
0.0
  0
LINE
  5
20C
330
2
100
AcDbEntity
  8
AM_VIS
100
AcDbLine
 10
-193.3959829369029
 20
316.3355053148872
 30
0.0
 11
-193.3959829369029
 21
311.3355053148872
 31
0.0
  0
LINE
  5
20D
330
2
100
AcDbEntity
  8
AM_VIS
100
AcDbLine
 10
-187.8959829369029
 20
316.3355053148872
 30
0.0
 11
-187.8959829369029
 21
317.3355053148871
 31
0.0
  0
LINE
  5
20E
330
2
100
AcDbEntity
  8
AM_VIS
100
AcDbLine
 10
-113.8959829369029
 20
316.3355053148872
 30
0.0
 11
-113.8959829369029
 21
317.3355053148871
 31
0.0
  0
LINE
  5
20F
330
2
100
AcDbEntity
  8
AM_VIS
100
AcDbLine
 10
-144.2564548401363
 20
173.3355053148871
 30
0.0
 11
-145.1224802439207
 21
173.3355053148871
 31
0.0
  0
LINE
  5
210
330
2
100
AcDbEntity
  8
AM_VIS
100
AcDbLine
 10
-144.9209567279485
 20
183.3355053148872
 30
0.0
 11
-144.3749842553662
 21
183.3355053148872
 31
0.0
  0
LINE
  5
211
330
2
100
AcDbEntity
  8
AM_VIS
100
AcDbLine
 10
-138.3489775531103
 20
173.3355053148871
 30
0.0
 11
-138.4829521493259
 21
173.3355053148871
 31
0.0
  0
LINE
  5
212
330
2
100
AcDbEntity
  8
AM_VIS
100
AcDbLine
 10
-138.3999580481813
 20
183.3355053148872
 30
0.0
 11
-138.3489775531103
 21
183.3355053148872
 31
0.0
  0
LINE
  5
213
330
2
100
AcDbEntity
  8
AM_VIS
100
AcDbLine
 10
-156.669485629885
 20
173.3355053148871
 30
0.0
 11
-157.5355110336694
 21
173.3355053148871
 31
0.0
  0
LINE
  5
214
330
2
100
AcDbEntity
  8
AM_VIS
100
AcDbLine
 10
-157.4169816184395
 20
183.3355053148872
 30
0.0
 11
-156.8710091458572
 21
183.3355053148872
 31
0.0
  0
LINE
  5
215
330
2
100
AcDbEntity
  8
AM_VIS
100
AcDbLine
 10
-163.3090137244798
 20
173.3355053148871
 30
0.0
 11
-163.4429883206954
 21
173.3355053148871
 31
0.0
  0
LINE
  5
216
330
2
100
AcDbEntity
  8
AM_VIS
100
AcDbLine
 10
-163.4429883206954
 20
183.3355053148872
 30
0.0
 11
-163.3920078256245
 21
183.3355053148872
 31
0.0
  0
LINE
  5
217
330
2
100
AcDbEntity
  8
AM_VIS
100
AcDbLine
 10
-138.1459829369029
 20
192.8355053148871
 30
0.0
 11
-163.6459829369028
 21
192.8355053148871
 31
0.0
  0
LINE
  5
218
330
2
100
AcDbEntity
  8
AM_VIS
100
AcDbLine
 10
-164.6459829369028
 20
193.8355053148871
 30
0.0
 11
-137.1459829369028
 21
193.8355053148871
 31
0.0
  0
LINE
  5
219
330
2
100
AcDbEntity
  8
AM_VIS
100
AcDbLine
 10
-137.1459829369028
 20
195.3355053148872
 30
0.0
 11
-164.6459829369028
 21
195.3355053148872
 31
0.0
  0
LINE
  5
21B
330
2
100
AcDbEntity
  8
AM_VIS
100
AcDbLine
 10
-138.3999580481812
 20
183.3355053148872
 30
0.0
 11
-144.3749842553662
 21
183.3355053148872
 31
0.0
  0
LINE
  5
21C
330
2
100
AcDbEntity
  8
AM_VIS
100
AcDbLine
 10
-157.4169816184395
 20
183.3355053148872
 30
0.0
 11
-163.3920078256245
 21
183.3355053148872
 31
0.0
  0
LINE
  5
21D
330
2
100
AcDbEntity
  8
AM_VIS
100
AcDbLine
 10
-144.9209567279485
 20
183.3355053148872
 30
0.0
 11
-156.8710091458572
 21
183.3355053148872
 31
0.0
  0
LINE
  5
21E
330
2
100
AcDbEntity
  8
AM_VIS
100
AcDbLine
 10
-193.3959829369029
 20
316.3355053148872
 30
0.0
 11
-108.3959829369028
 21
316.3355053148872
 31
0.0
  0
LINE
  5
21F
330
2
100
AcDbEntity
  8
AM_VIS
100
AcDbLine
 10
-108.3959829369028
 20
311.3355053148872
 30
0.0
 11
-193.3959829369029
 21
311.3355053148872
 31
0.0
  0
ARC
  5
220
330
2
100
AcDbEntity
  8
AM_VIS
100
AcDbCircle
 10
-139.1459829369029
 20
220.2553769036414
 30
0.0
 40
25.0
100
AcDbArc
 50
274.5885657357858
 51
0.0
  0
ARC
  5
221
330
2
100
AcDbEntity
  8
AM_VIS
100
AcDbCircle
 10
-162.6459829369029
 20
220.2553769036414
 30
0.0
 40
25.0
100
AcDbArc
 50
180.0
 51
265.4114342642141
  0
LINE
  5
222
330
2
100
AcDbEntity
  8
AM_VIS
100
AcDbLine
 10
-169.8959829369028
 20
349.3841927334391
 30
0.0
 11
-169.8959829369028
 21
349.8355053148872
 31
0.0
  0
LINE
  5
223
330
2
100
AcDbEntity
  8
AM_VIS
100
AcDbLine
 10
-186.8959829369029
 20
347.3355053148872
 30
0.0
 11
-169.8959829369028
 21
349.8355053148872
 31
0.0
  0
ARC
  5
224
330
2
100
AcDbEntity
  8
AM_VIS
100
AcDbCircle
 10
-172.3578547962848
 20
349.8392897513907
 30
0.0
 40
2.503674756584534
100
AcDbArc
 50
269.9597207981063
 51
349.5266418453123
  0
LINE
  5
225
330
2
100
AcDbEntity
  8
AM_VIS
100
AcDbLine
 10
-186.8742750030919
 20
347.3355053148872
 30
0.0
 11
-186.8959829369029
 21
347.3355053148872
 31
0.0
  0
LINE
  5
226
330
2
100
AcDbEntity
  8
AM_VIS
100
AcDbLine
 10
-168.8959829369029
 20
347.3355053148872
 30
0.0
 11
-169.9785146916334
 21
347.3355053148872
 31
0.0
  0
LINE
  5
227
330
2
100
AcDbEntity
  8
AM_VIS
100
AcDbLine
 10
-161.4785146916334
 20
349.8355053148872
 30
0.0
 11
-160.3959829369029
 21
349.8355053148872
 31
0.0
  0
LINE
  5
228
330
2
100
AcDbEntity
  8
AM_VIS
100
AcDbLine
 10
-160.3959829369029
 20
349.8355053148872
 30
0.0
 11
-159.3134511821723
 21
349.8355053148872
 31
0.0
  0
LINE
  5
229
330
2
100
AcDbEntity
  8
AM_VIS
100
AcDbLine
 10
-159.3134511821723
 20
349.384192733439
 30
0.0
 11
-159.3134511821723
 21
349.8355053148872
 31
0.0
  0
LINE
  5
22A
330
2
100
AcDbEntity
  8
AM_VIS
100
AcDbLine
 10
-161.4785146916334
 20
349.8355053148872
 30
0.0
 11
-169.9785146916334
 21
347.3355053148872
 31
0.0
  0
LINE
  5
22B
330
2
100
AcDbEntity
  8
AM_VIS
100
AcDbLine
 10
-167.8134511821723
 20
347.3355053148872
 30
0.0
 11
-168.8959829369029
 21
347.3355053148872
 31
0.0
  0
LINE
  5
22C
330
2
100
AcDbEntity
  8
AM_VIS
100
AcDbLine
 10
-167.8134511821723
 20
347.3355053148872
 30
0.0
 11
-159.3134511821723
 21
349.8355053148872
 31
0.0
  0
SPLINE
  5
22D
330
2
100
AcDbEntity
  8
AM_VIS
100
AcDbSpline
210
0.0
220
0.0
230
1.0
 70
     8
 71
     3
 72
    22
 73
    18
 74
     0
 42
0.0000000001
 43
0.0000000001
 40
-6.982348424698926
 40
-6.982348424698926
 40
-6.982348424698926
 40
-6.982348424698926
 40
-6.948649666253738
 40
-6.948649666253738
 40
-6.486146897646589
 40
-6.486146897646589
 40
-6.023134454738944
 40
-6.023134454738944
 40
-5.560122011831296
 40
-5.560122011831296
 40
-5.0965729642615
 40
-5.0965729642615
 40
-4.633023916691707
 40
-4.633023916691707
 40
-4.169143009848319
 40
-4.169143009848319
 40
-3.70526210300493
 40
-3.70526210300493
 40
-3.70526210300493
 40
-3.70526210300493
 10
-159.3134511821723
 20
349.384192733439
 30
0.0
 10
-159.3145585723322
 20
349.3721517813209
 30
0.0
 10
-159.31571075444
 20
349.3601220459769
 30
0.0
 10
-159.3333274224998
 20
349.1832493267508
 30
0.0
 10
-159.3585502576838
 20
349.0218948140364
 30
0.0
 10
-159.4176445521894
 20
348.7369266825641
 30
0.0
 10
-159.4569748930825
 20
348.5870768527106
 30
0.0
 10
-159.550561782441
 20
348.3073480658709
 30
0.0
 10
-159.6048174995999
 20
348.1774679963911
 30
0.0
 10
-159.7140824913115
 20
347.9592127908425
 30
0.0
 10
-159.7791711301902
 20
347.8507544457504
 30
0.0
 10
-159.9193180248642
 20
347.6637130132938
 30
0.0
 10
-159.9943758506022
 20
347.5851286369948
 30
0.0
 10
-160.137204890669
 20
347.4669378911489
 30
0.0
 10
-160.2181416260639
 20
347.4164608377613
 30
0.0
 10
-160.3835160487977
 20
347.3507446628603
 30
0.0
 10
-160.467953713639
 20
347.3355053148872
 30
0.0
 10
-160.5452671981129
 20
347.3355053148872
 30
0.0
  0
LINE
  5
22E
330
2
100
AcDbEntity
  8
AM_VIS
100
AcDbLine
 10
-167.8025972152668
 20
347.3355053148872
 30
0.0
 11
-167.8134511821723
 21
347.3355053148872
 31
0.0
  0
LINE
  5
22F
330
2
100
AcDbEntity
  8
AM_VIS
100
AcDbLine
 10
-132.8959829369029
 20
347.3355053148872
 30
0.0
 11
-133.9785146916334
 21
347.3355053148872
 31
0.0
  0
LINE
  5
230
330
2
100
AcDbEntity
  8
AM_VIS
100
AcDbLine
 10
-133.9785146916334
 20
347.3355053148872
 30
0.0
 11
-133.9893686585389
 21
347.3355053148872
 31
0.0
  0
LINE
  5
231
330
2
100
AcDbEntity
  8
AM_VIS
100
AcDbLine
 10
-142.4785146916334
 20
349.3841927334389
 30
0.0
 11
-142.4785146916334
 21
349.8355053148872
 31
0.0
  0
LINE
  5
232
330
2
100
AcDbEntity
  8
AM_VIS
100
AcDbLine
 10
-142.4785146916334
 20
349.8355053148872
 30
0.0
 11
-141.3959829369029
 21
349.8355053148872
 31
0.0
  0
LINE
  5
233
330
2
100
AcDbEntity
  8
AM_VIS
100
AcDbLine
 10
-141.3959829369029
 20
349.8355053148872
 30
0.0
 11
-140.3134511821723
 21
349.8355053148872
 31
0.0
  0
SPLINE
  5
234
330
2
100
AcDbEntity
  8
AM_VIS
100
AcDbSpline
210
0.0
220
0.0
230
1.0
 70
     8
 71
     3
 72
    22
 73
    18
 74
     0
 42
0.0000000001
 43
0.0000000001
 40
3.705262103004931
 40
3.705262103004931
 40
3.705262103004931
 40
3.705262103004931
 40
4.169143009848322
 40
4.169143009848322
 40
4.633023916691713
 40
4.633023916691713
 40
5.096572964261504
 40
5.096572964261504
 40
5.560122011831296
 40
5.560122011831296
 40
6.023134454738943
 40
6.023134454738943
 40
6.486146897646589
 40
6.486146897646589
 40
6.948649666253738
 40
6.948649666253738
 40
6.982348424698803
 40
6.982348424698803
 40
6.982348424698803
 40
6.982348424698803
 10
-141.2466986756928
 20
347.3355053148872
 30
0.0
 10
-141.3240121601667
 20
347.3355053148872
 30
0.0
 10
-141.408449825008
 20
347.3507446628603
 30
0.0
 10
-141.5738242477418
 20
347.4164608377613
 30
0.0
 10
-141.6547609831367
 20
347.4669378911489
 30
0.0
 10
-141.7975900232035
 20
347.5851286369948
 30
0.0
 10
-141.8726478489415
 20
347.6637130132938
 30
0.0
 10
-142.0127947436155
 20
347.8507544457504
 30
0.0
 10
-142.0778833824942
 20
347.9592127908425
 30
0.0
 10
-142.1871483742058
 20
348.1774679963911
 30
0.0
 10
-142.2414040913647
 20
348.3073480658709
 30
0.0
 10
-142.3349909807232
 20
348.5870768527106
 30
0.0
 10
-142.3743213216163
 20
348.7369266825641
 30
0.0
 10
-142.4334156161219
 20
349.0218948140364
 30
0.0
 10
-142.4586384513059
 20
349.1832493267508
 30
0.0
 10
-142.4762551193657
 20
349.3601220459768
 30
0.0
 10
-142.4774073014735
 20
349.3721517813208
 30
0.0
 10
-142.4785146916334
 20
349.3841927334389
 30
0.0
  0
LINE
  5
235
330
2
100
AcDbEntity
  8
AM_VIS
100
AcDbLine
 10
-142.4785146916334
 20
349.8355053148872
 30
0.0
 11
-133.9785146916334
 21
347.3355053148872
 31
0.0
  0
LINE
  5
236
330
2
100
AcDbEntity
  8
AM_VIS
100
AcDbLine
 10
-131.8134511821723
 20
347.3355053148872
 30
0.0
 11
-132.8959829369029
 21
347.3355053148872
 31
0.0
  0
LINE
  5
237
330
2
100
AcDbEntity
  8
AM_VIS
100
AcDbLine
 10
-131.8134511821723
 20
347.3355053148872
 30
0.0
 11
-140.3134511821723
 21
349.8355053148872
 31
0.0
  0
ARC
  5
238
330
2
100
AcDbEntity
  8
AM_VIS
100
AcDbCircle
 10
-129.434111077521
 20
349.8392897513907
 30
0.0
 40
2.503674756584489
100
AcDbArc
 50
190.4733581546954
 51
270.0402792018956
  0
LINE
  5
239
330
2
100
AcDbEntity
  8
AM_VIS
100
AcDbLine
 10
-131.8959829369029
 20
349.8355053148872
 30
0.0
 11
-114.8959829369029
 21
347.3355053148872
 31
0.0
  0
LINE
  5
23A
330
2
100
AcDbEntity
  8
AM_VIS
100
AcDbLine
 10
-131.8959829369029
 20
349.3841927334388
 30
0.0
 11
-131.8959829369029
 21
349.8355053148872
 31
0.0
  0
LINE
  5
23B
330
2
100
AcDbEntity
  8
AM_VIS
100
AcDbLine
 10
-114.8959829369029
 20
347.3355053148872
 30
0.0
 11
-114.9176908707139
 21
347.3355053148872
 31
0.0
  0
LINE
  5
23C
330
2
100
AcDbEntity
  8
AM_VIS
100
AcDbLine
 10
-109.7510211903349
 20
317.3355053148871
 30
0.0
 11
-108.0940989415496
 21
317.3355053148871
 31
0.0
  0
LINE
  5
23D
330
2
100
AcDbEntity
  8
AM_VIS
100
AcDbLine
 10
-117.971819316893
 20
317.3355053148871
 30
0.0
 11
-115.8899396580418
 21
317.3355053148871
 31
0.0
  0
LINE
  5
23E
330
2
100
AcDbEntity
  8
AM_VIS
100
AcDbLine
 10
-125.9244604749097
 20
317.3355053148871
 30
0.0
 11
-125.6323836307461
 21
317.3355053148871
 31
0.0
  0
LINE
  5
23F
330
2
100
AcDbEntity
  8
AM_VIS
100
AcDbLine
 10
-135.0146204969028
 20
317.3355053148871
 30
0.0
 11
-133.0656214013137
 21
317.3355053148871
 31
0.0
  0
LINE
  5
240
330
2
100
AcDbEntity
  8
AM_VIS
100
AcDbLine
 10
-146.7730317522785
 20
317.3355053148871
 30
0.0
 11
-145.4791459569029
 21
317.3355053148871
 31
0.0
  0
LINE
  5
241
330
2
100
AcDbEntity
  8
AM_VIS
100
AcDbLine
 10
-156.3128199174166
 20
317.3355053148871
 30
0.0
 11
-155.0189341188017
 21
317.3355053148871
 31
0.0
  0
LINE
  5
242
330
2
100
AcDbEntity
  8
AM_VIS
100
AcDbLine
 10
-168.7263444700004
 20
317.3355053148871
 30
0.0
 11
-166.7773453773816
 21
317.3355053148871
 31
0.0
  0
LINE
  5
243
330
2
100
AcDbEntity
  8
AM_VIS
100
AcDbLine
 10
-176.1595822434707
 20
317.3355053148871
 30
0.0
 11
-175.8675053966669
 21
317.3355053148871
 31
0.0
  0
LINE
  5
244
330
2
100
AcDbEntity
  8
AM_VIS
100
AcDbLine
 10
-185.9020262141738
 20
317.3355053148871
 30
0.0
 11
-183.8201465572282
 21
317.3355053148871
 31
0.0
  0
LINE
  5
245
330
2
100
AcDbEntity
  8
AM_VIS
100
AcDbLine
 10
-193.6978669319936
 20
317.3355053148871
 30
0.0
 11
-192.0409446835384
 21
317.3355053148871
 31
0.0
  0
LINE
  5
246
330
2
100
AcDbEntity
  8
AM_VIS
100
AcDbLine
 10
-193.6978669319936
 20
338.3355053148871
 30
0.0
 11
-193.6978669319936
 21
317.3355053148871
 31
0.0
  0
LINE
  5
247
330
2
100
AcDbEntity
  8
AM_VIS
100
AcDbLine
 10
-190.0249773976628
 20
317.3355053148871
 30
0.0
 11
-190.0249773976628
 21
338.3355053148871
 31
0.0
  0
LINE
  5
248
330
2
100
AcDbEntity
  8
AM_VIS
100
AcDbLine
 10
-185.9020262141738
 20
338.3355053148871
 30
0.0
 11
-185.9020262141738
 21
317.3355053148871
 31
0.0
  0
LINE
  5
249
330
2
100
AcDbEntity
  8
AM_VIS
100
AcDbLine
 10
-175.867505396667
 20
317.3355053148871
 30
0.0
 11
-175.867505396667
 21
338.3355053148871
 31
0.0
  0
LINE
  5
24A
330
2
100
AcDbEntity
  8
AM_VIS
100
AcDbLine
 10
-168.7263444700004
 20
338.3355053148871
 30
0.0
 11
-168.7263444700004
 21
317.3355053148871
 31
0.0
  0
LINE
  5
24B
330
2
100
AcDbEntity
  8
AM_VIS
100
AcDbLine
 10
-155.0189341188017
 20
317.3355053148871
 30
0.0
 11
-155.0189341188017
 21
338.3355053148871
 31
0.0
  0
LINE
  5
24C
330
2
100
AcDbEntity
  8
AM_VIS
100
AcDbLine
 10
-146.7730317522785
 20
338.3355053148871
 30
0.0
 11
-146.7730317522785
 21
317.3355053148871
 31
0.0
  0
LINE
  5
24D
330
2
100
AcDbEntity
  8
AM_VIS
100
AcDbLine
 10
-133.0656214013137
 20
317.3355053148871
 30
0.0
 11
-133.0656214013137
 21
338.3355053148871
 31
0.0
  0
LINE
  5
24E
330
2
100
AcDbEntity
  8
AM_VIS
100
AcDbLine
 10
-125.9244604749097
 20
338.3355053148871
 30
0.0
 11
-125.9244604749097
 21
317.3355053148871
 31
0.0
  0
LINE
  5
24F
330
2
100
AcDbEntity
  8
AM_VIS
100
AcDbLine
 10
-115.8899396580418
 20
317.3355053148871
 30
0.0
 11
-115.8899396580418
 21
338.3355053148871
 31
0.0
  0
LINE
  5
250
330
2
100
AcDbEntity
  8
AM_VIS
100
AcDbLine
 10
-111.7669884750075
 20
338.3355053148871
 30
0.0
 11
-111.7669884750075
 21
317.3355053148871
 31
0.0
  0
LINE
  5
251
330
2
100
AcDbEntity
  8
AM_VIS
100
AcDbLine
 10
-108.0940989415496
 20
317.3355053148871
 30
0.0
 11
-108.0940989415496
 21
338.3355053148871
 31
0.0
  0
LINE
  5
252
330
2
100
AcDbEntity
  8
AM_VIS
100
AcDbLine
 10
-192.0409446835384
 20
317.3355053148871
 30
0.0
 11
-192.0409446835384
 21
338.3355053148871
 31
0.0
  0
LINE
  5
253
330
2
100
AcDbEntity
  8
AM_VIS
100
AcDbLine
 10
-183.8201465572282
 20
317.3355053148871
 30
0.0
 11
-183.8201465572282
 21
338.3355053148871
 31
0.0
  0
LINE
  5
254
330
2
100
AcDbEntity
  8
AM_VIS
100
AcDbLine
 10
-176.1595822434707
 20
317.3355053148871
 30
0.0
 11
-176.1595822434707
 21
338.3355053148871
 31
0.0
  0
LINE
  5
255
330
2
100
AcDbEntity
  8
AM_VIS
100
AcDbLine
 10
-166.7773453773816
 20
317.3355053148871
 30
0.0
 11
-166.7773453773816
 21
338.3355053148871
 31
0.0
  0
LINE
  5
256
330
2
100
AcDbEntity
  8
AM_VIS
100
AcDbLine
 10
-156.3128199174166
 20
317.3355053148871
 30
0.0
 11
-156.3128199174166
 21
338.3355053148871
 31
0.0
  0
LINE
  5
257
330
2
100
AcDbEntity
  8
AM_VIS
100
AcDbLine
 10
-145.4791459569029
 20
317.3355053148871
 30
0.0
 11
-145.4791459569029
 21
338.3355053148871
 31
0.0
  0
LINE
  5
258
330
2
100
AcDbEntity
  8
AM_VIS
100
AcDbLine
 10
-135.0146204969028
 20
317.3355053148871
 30
0.0
 11
-135.0146204969028
 21
338.3355053148871
 31
0.0
  0
LINE
  5
259
330
2
100
AcDbEntity
  8
AM_VIS
100
AcDbLine
 10
-125.6323836307461
 20
317.3355053148871
 30
0.0
 11
-125.6323836307461
 21
338.3355053148871
 31
0.0
  0
LINE
  5
25A
330
2
100
AcDbEntity
  8
AM_VIS
100
AcDbLine
 10
-117.971819316893
 20
317.3355053148871
 30
0.0
 11
-117.971819316893
 21
338.3355053148871
 31
0.0
  0
LINE
  5
25B
330
2
100
AcDbEntity
  8
AM_VIS
100
AcDbLine
 10
-109.7510211903349
 20
317.3355053148871
 30
0.0
 11
-109.7510211903349
 21
338.3355053148871
 31
0.0
  0
LINE
  5
25C
330
2
100
AcDbEntity
  8
AM_VIS
100
AcDbLine
 10
-133.3445347535383
 20
367.3355053148871
 30
0.0
 11
-142.1202588447538
 21
367.3355053148871
 31
0.0
  0
LINE
  5
25D
330
2
100
AcDbEntity
  8
AM_VIS
100
AcDbLine
 10
-159.671707029052
 20
367.3355053148871
 30
0.0
 11
-168.4474311202675
 21
367.3355053148871
 31
0.0
  0
LINE
  5
25E
330
2
100
AcDbEntity
  8
AM_VIS
100
AcDbLine
 10
-142.1202588447538
 20
367.3355053148871
 30
0.0
 11
-159.671707029052
 21
367.3355053148871
 31
0.0
  0
SPLINE
  5
25F
330
2
100
AcDbEntity
  8
AM_VIS
100
AcDbSpline
210
0.0
220
0.0
230
1.0
 70
     8
 71
     3
 72
    22
 73
    18
 74
     0
 42
0.0000000001
 43
0.0000000001
 40
0.0
 40
0.0
 40
0.0
 40
0.0
 40
0.0664400538459245
 40
0.0664400538459245
 40
0.1414883488852995
 40
0.1414883488852995
 40
0.2495178522671271
 40
0.2495178522671271
 40
0.3575473556489548
 40
0.3575473556489548
 40
0.5298125040477279
 40
0.5298125040477279
 40
0.7020776524465012
 40
0.7020776524465012
 40
0.9657392116920146
 40
0.9657392116920146
 40
1.229400770937528
 40
1.229400770937528
 40
1.229400770937528
 40
1.229400770937528
 10
-140.964087111237
 20
350.8355053148871
 30
0.0
 10
-140.964087111237
 20
350.8576519995025
 30
0.0
 10
-140.9621076244586
 20
350.8839314867346
 30
0.0
 10
-140.9554294195071
 20
350.9291634932255
 30
0.0
 10
-140.9490611066026
 20
350.9563469039228
 30
0.0
 10
-140.9329136702038
 20
351.0081272637705
 30
0.0
 10
-140.9201177696316
 20
351.0378339508038
 30
0.0
 10
-140.891288749432
 20
351.0907369730448
 30
0.0
 10
-140.8752971513979
 20
351.1140237442707
 30
0.0
 10
-140.8358047007481
 20
351.1639320603411
 30
0.0
 10
-140.8076085643289
 20
351.1917044545305
 30
0.0
 10
-140.749235194754
 20
351.2379806582809
 30
0.0
 10
-140.7190772262314
 20
351.2565816114163
 30
0.0
 10
-140.6487027232188
 20
351.2926980129902
 30
0.0
 10
-140.6012290277395
 20
351.3096528466673
 30
0.0
 10
-140.5055012133978
 20
351.3310122639396
 30
0.0
 10
-140.4572520345627
 20
351.3355053148872
 30
0.0
 10
-140.4133084413551
 20
351.3355053148872
 30
0.0
  0
SPLINE
  5
260
330
2
100
AcDbEntity
  8
AM_VIS
100
AcDbSpline
210
0.0
220
0.0
230
1.0
 70
     8
 71
     3
 72
    22
 73
    18
 74
     0
 42
0.0000000001
 43
0.0000000001
 40
3.933571014322227
 40
3.933571014322227
 40
3.933571014322227
 40
3.933571014322227
 40
4.19723257356774
 40
4.19723257356774
 40
4.460894132813254
 40
4.460894132813254
 40
4.633159281212027
 40
4.633159281212027
 40
4.8054244296108
 40
4.8054244296108
 40
4.913453932992629
 40
4.913453932992629
 40
5.021483436374457
 40
5.021483436374457
 40
5.096531731413831
 40
5.096531731413831
 40
5.162971785259756
 40
5.162971785259756
 40
5.162971785259756
 40
5.162971785259756
 10
-132.4534089453503
 20
351.3355053148872
 30
0.0
 10
-132.4094653521426
 20
351.3355053148872
 30
0.0
 10
-132.3612161733076
 20
351.3310122639396
 30
0.0
 10
-132.2654883589658
 20
351.3096528466673
 30
0.0
 10
-132.2180146634866
 20
351.2926980129902
 30
0.0
 10
-132.147640160474
 20
351.2565816114163
 30
0.0
 10
-132.1174821919514
 20
351.2379806582809
 30
0.0
 10
-132.0591088223765
 20
351.1917044545305
 30
0.0
 10
-132.0309126859573
 20
351.1639320603411
 30
0.0
 10
-131.9914202353074
 20
351.1140237442707
 30
0.0
 10
-131.9754286372733
 20
351.0907369730448
 30
0.0
 10
-131.9465996170738
 20
351.0378339508038
 30
0.0
 10
-131.9338037165015
 20
351.0081272637705
 30
0.0
 10
-131.9176562801027
 20
350.9563469039228
 30
0.0
 10
-131.9112879671983
 20
350.9291634932255
 30
0.0
 10
-131.9046097622467
 20
350.8839314867346
 30
0.0
 10
-131.9026302754684
 20
350.8576519995025
 30
0.0
 10
-131.9026302754684
 20
350.8355053148871
 30
0.0
  0
LINE
  5
261
330
2
100
AcDbEntity
  8
AM_VIS
100
AcDbLine
 10
-131.9026302754683
 20
351.3355053148872
 30
0.0
 11
-132.0454966478616
 21
351.3355053148872
 31
0.0
  0
LINE
  5
262
330
2
100
AcDbEntity
  8
AM_VIS
100
AcDbLine
 10
-140.8212207390771
 20
351.3355053148872
 30
0.0
 11
-140.964087111237
 21
351.3355053148872
 31
0.0
  0
SPLINE
  5
263
330
2
100
AcDbEntity
  8
AM_VIS
100
AcDbSpline
210
0.0
220
0.0
230
1.0
 70
     8
 71
     3
 72
    22
 73
    18
 74
     0
 42
0.0000000001
 43
0.0000000001
 40
0.0
 40
0.0
 40
0.0
 40
0.0
 40
0.0664400538485239
 40
0.0664400538485239
 40
0.1414883488896914
 40
0.1414883488896914
 40
0.2495178522694163
 40
0.2495178522694163
 40
0.3575473556491412
 40
0.3575473556491412
 40
0.5298125040359261
 40
0.5298125040359261
 40
0.7020776524227111
 40
0.7020776524227111
 40
0.9657392116357893
 40
0.9657392116357893
 40
1.229400770848867
 40
1.229400770848867
 40
1.229400770848867
 40
1.229400770848867
 10
-159.9574397734165
 20
350.8355053148871
 30
0.0
 10
-159.9574397734165
 20
350.8576519995033
 30
0.0
 10
-159.9534807998598
 20
350.8839314867365
 30
0.0
 10
-159.9401243899567
 20
350.9291634932291
 30
0.0
 10
-159.927387764148
 20
350.9563469039271
 30
0.0
 10
-159.8950928913515
 20
351.0081272637754
 30
0.0
 10
-159.8695010902083
 20
351.0378339508089
 30
0.0
 10
-159.8118430498117
 20
351.0907369730503
 30
0.0
 10
-159.7798598537448
 20
351.1140237442767
 30
0.0
 10
-159.7008749524502
 20
351.1639320603464
 30
0.0
 10
-159.6444826796164
 20
351.1917044545352
 30
0.0
 10
-159.5277359404757
 20
351.2379806582848
 30
0.0
 10
-159.4674200034351
 20
351.2565816114201
 30
0.0
 10
-159.3266709974247
 20
351.2926980129922
 30
0.0
 10
-159.2317236064781
 20
351.3096528466685
 30
0.0
 10
-159.0402679778184
 20
351.3310122639397
 30
0.0
 10
-158.9437696201602
 20
351.3355053148872
 30
0.0
 10
-158.8558824337559
 20
351.3355053148872
 30
0.0
  0
SPLINE
  5
264
330
2
100
AcDbEntity
  8
AM_VIS
100
AcDbSpline
210
0.0
220
0.0
230
1.0
 70
     8
 71
     3
 72
    22
 73
    18
 74
     0
 42
0.0000000001
 43
0.0000000001
 40
3.933571013965046
 40
3.933571013965046
 40
3.933571013965046
 40
3.933571013965046
 40
4.197232573178125
 40
4.197232573178125
 40
4.460894132391203
 40
4.460894132391203
 40
4.633159280777988
 40
4.633159280777988
 40
4.805424429164773
 40
4.805424429164773
 40
4.913453932544498
 40
4.913453932544498
 40
5.021483435924222
 40
5.021483435924222
 40
5.09653173096539
 40
5.09653173096539
 40
5.162971784813914
 40
5.162971784813914
 40
5.162971784813914
 40
5.162971784813914
 10
-142.9360834400499
 20
351.3355053148872
 30
0.0
 10
-142.8481962536455
 20
351.3355053148872
 30
0.0
 10
-142.7516978959873
 20
351.3310122639397
 30
0.0
 10
-142.5602422673276
 20
351.3096528466685
 30
0.0
 10
-142.465294876381
 20
351.2926980129922
 30
0.0
 10
-142.3245458703707
 20
351.2565816114201
 30
0.0
 10
-142.26422993333
 20
351.2379806582848
 30
0.0
 10
-142.1474831941893
 20
351.1917044545352
 30
0.0
 10
-142.0910909213556
 20
351.1639320603464
 30
0.0
 10
-142.0121060200609
 20
351.1140237442767
 30
0.0
 10
-141.980122823994
 20
351.0907369730503
 30
0.0
 10
-141.9224647835974
 20
351.0378339508089
 30
0.0
 10
-141.8968729824543
 20
351.0081272637754
 30
0.0
 10
-141.8645781096578
 20
350.9563469039271
 30
0.0
 10
-141.851841483849
 20
350.9291634932291
 30
0.0
 10
-141.8384850739459
 20
350.8839314867365
 30
0.0
 10
-141.8345261003892
 20
350.8576519995033
 30
0.0
 10
-141.8345261003892
 20
350.8355053148871
 30
0.0
  0
LINE
  5
265
330
2
100
AcDbEntity
  8
AM_VIS
100
AcDbLine
 10
-141.8345261003892
 20
351.3355053148872
 30
0.0
 11
-142.1202588447538
 21
351.3355053148872
 31
0.0
  0
LINE
  5
266
330
2
100
AcDbEntity
  8
AM_VIS
100
AcDbLine
 10
-159.671707029052
 20
351.3355053148872
 30
0.0
 11
-159.9574397734165
 21
351.3355053148872
 31
0.0
  0
SPLINE
  5
267
330
2
100
AcDbEntity
  8
AM_VIS
100
AcDbSpline
210
0.0
220
0.0
230
1.0
 70
     8
 71
     3
 72
    22
 73
    18
 74
     0
 42
0.0000000001
 43
0.0000000001
 40
0.0
 40
0.0
 40
0.0
 40
0.0
 40
0.066440053845918
 40
0.066440053845918
 40
0.1414883488852983
 40
0.1414883488852983
 40
0.2495178522671288
 40
0.2495178522671288
 40
0.3575473556489594
 40
0.3575473556489594
 40
0.5298125040477304
 40
0.5298125040477304
 40
0.7020776524465015
 40
0.7020776524465015
 40
0.9657392116920176
 40
0.9657392116920176
 40
1.229400770937533
 40
1.229400770937533
 40
1.229400770937533
 40
1.229400770937533
 10
-169.8893355983374
 20
350.8355053148871
 30
0.0
 10
-169.8893355983374
 20
350.8576519995025
 30
0.0
 10
-169.8873561115591
 20
350.8839314867346
 30
0.0
 10
-169.8806779066075
 20
350.9291634932255
 30
0.0
 10
-169.874309593703
 20
350.9563469039228
 30
0.0
 10
-169.8581621573042
 20
351.0081272637705
 30
0.0
 10
-169.845366256732
 20
351.0378339508038
 30
0.0
 10
-169.8165372365324
 20
351.0907369730448
 30
0.0
 10
-169.8005456384984
 20
351.1140237442707
 30
0.0
 10
-169.7610531878485
 20
351.1639320603411
 30
0.0
 10
-169.7328570514293
 20
351.1917044545305
 30
0.0
 10
-169.6744836818544
 20
351.2379806582809
 30
0.0
 10
-169.6443257133318
 20
351.2565816114163
 30
0.0
 10
-169.5739512103192
 20
351.2926980129902
 30
0.0
 10
-169.5264775148399
 20
351.3096528466673
 30
0.0
 10
-169.4307497004982
 20
351.3310122639396
 30
0.0
 10
-169.3825005216631
 20
351.3355053148872
 30
0.0
 10
-169.3385569284555
 20
351.3355053148872
 30
0.0
  0
SPLINE
  5
268
330
2
100
AcDbEntity
  8
AM_VIS
100
AcDbSpline
210
0.0
220
0.0
230
1.0
 70
     8
 71
     3
 72
    22
 73
    18
 74
     0
 42
0.0000000001
 43
0.0000000001
 40
3.933571014322224
 40
3.933571014322224
 40
3.933571014322224
 40
3.933571014322224
 40
4.197232573567742
 40
4.197232573567742
 40
4.460894132813258
 40
4.460894132813258
 40
4.63315928121203
 40
4.63315928121203
 40
4.805424429610801
 40
4.805424429610801
 40
4.913453932992631
 40
4.913453932992631
 40
5.021483436374461
 40
5.021483436374461
 40
5.096531731413842
 40
5.096531731413842
 40
5.16297178525976
 40
5.16297178525976
 40
5.16297178525976
 40
5.16297178525976
 10
-161.3786574324507
 20
351.3355053148872
 30
0.0
 10
-161.3347138392431
 20
351.3355053148872
 30
0.0
 10
-161.286464660408
 20
351.3310122639396
 30
0.0
 10
-161.1907368460662
 20
351.3096528466673
 30
0.0
 10
-161.143263150587
 20
351.2926980129902
 30
0.0
 10
-161.0728886475744
 20
351.2565816114163
 30
0.0
 10
-161.0427306790518
 20
351.2379806582809
 30
0.0
 10
-160.9843573094769
 20
351.1917044545305
 30
0.0
 10
-160.9561611730577
 20
351.1639320603411
 30
0.0
 10
-160.9166687224078
 20
351.1140237442707
 30
0.0
 10
-160.9006771243738
 20
351.0907369730448
 30
0.0
 10
-160.8718481041742
 20
351.0378339508038
 30
0.0
 10
-160.8590522036019
 20
351.0081272637705
 30
0.0
 10
-160.8429047672031
 20
350.9563469039228
 30
0.0
 10
-160.8365364542987
 20
350.9291634932255
 30
0.0
 10
-160.8298582493471
 20
350.8839314867346
 30
0.0
 10
-160.8278787625687
 20
350.8576519995025
 30
0.0
 10
-160.8278787625687
 20
350.8355053148871
 30
0.0
  0
LINE
  5
269
330
2
100
AcDbEntity
  8
AM_VIS
100
AcDbLine
 10
-160.8278787625687
 20
351.3355053148872
 30
0.0
 11
-160.9707451347286
 21
351.3355053148872
 31
0.0
  0
LINE
  5
26A
330
2
100
AcDbEntity
  8
AM_VIS
100
AcDbLine
 10
-169.7464692259442
 20
351.3355053148872
 30
0.0
 11
-169.8893355983374
 21
351.3355053148872
 31
0.0
  0
LINE
  5
26B
330
2
100
AcDbEntity
  8
AM_VIS
100
AcDbLine
 10
-131.9026302754684
 20
350.8355053148871
 30
0.0
 11
-131.9026302754684
 21
351.3355053148872
 31
0.0
  0
LINE
  5
26C
330
2
100
AcDbEntity
  8
AM_VIS
100
AcDbLine
 10
-140.964087111237
 20
351.3355053148872
 30
0.0
 11
-140.964087111237
 21
350.8355053148871
 31
0.0
  0
LINE
  5
26D
330
2
100
AcDbEntity
  8
AM_VIS
100
AcDbLine
 10
-141.8345261003892
 20
350.8355053148871
 30
0.0
 11
-141.8345261003892
 21
351.3355053148872
 31
0.0
  0
LINE
  5
26E
330
2
100
AcDbEntity
  8
AM_VIS
100
AcDbLine
 10
-159.9574397734165
 20
351.3355053148872
 30
0.0
 11
-159.9574397734165
 21
350.8355053148871
 31
0.0
  0
LINE
  5
26F
330
2
100
AcDbEntity
  8
AM_VIS
100
AcDbLine
 10
-160.8278787625687
 20
350.8355053148871
 30
0.0
 11
-160.8278787625687
 21
351.3355053148872
 31
0.0
  0
LINE
  5
270
330
2
100
AcDbEntity
  8
AM_VIS
100
AcDbLine
 10
-169.8893355983374
 20
351.3355053148872
 30
0.0
 11
-169.8893355983374
 21
350.8355053148871
 31
0.0
  0
LINE
  5
271
330
2
100
AcDbEntity
  8
AM_VIS
100
AcDbLine
 10
-140.8212207390771
 20
365.8355053148872
 30
0.0
 11
-132.0454966478616
 21
365.8355053148872
 31
0.0
  0
LINE
  5
272
330
2
100
AcDbEntity
  8
AM_VIS
100
AcDbLine
 10
-159.671707029052
 20
365.8355053148872
 30
0.0
 11
-142.1202588447538
 21
365.8355053148872
 31
0.0
  0
LINE
  5
273
330
2
100
AcDbEntity
  8
AM_VIS
100
AcDbLine
 10
-169.7464692259442
 20
365.8355053148872
 30
0.0
 11
-160.9707451347286
 21
365.8355053148872
 31
0.0
  0
LINE
  5
274
330
2
100
AcDbEntity
  8
AM_VIS
100
AcDbLine
 10
-169.7464692259442
 20
351.3355053148872
 30
0.0
 11
-169.7464692259442
 21
365.8355053148872
 31
0.0
  0
LINE
  5
275
330
2
100
AcDbEntity
  8
AM_VIS
100
AcDbLine
 10
-160.9707451347286
 20
365.8355053148872
 30
0.0
 11
-160.9707451347286
 21
351.3355053148872
 31
0.0
  0
LINE
  5
276
330
2
100
AcDbEntity
  8
AM_VIS
100
AcDbLine
 10
-159.671707029052
 20
351.3355053148872
 30
0.0
 11
-159.671707029052
 21
365.8355053148872
 31
0.0
  0
LINE
  5
277
330
2
100
AcDbEntity
  8
AM_VIS
100
AcDbLine
 10
-142.1202588447538
 20
365.8355053148872
 30
0.0
 11
-142.1202588447538
 21
351.3355053148872
 31
0.0
  0
LINE
  5
278
330
2
100
AcDbEntity
  8
AM_VIS
100
AcDbLine
 10
-140.8212207390771
 20
351.3355053148872
 30
0.0
 11
-140.8212207390771
 21
365.8355053148872
 31
0.0
  0
LINE
  5
279
330
2
100
AcDbEntity
  8
AM_VIS
100
AcDbLine
 10
-132.0454966478616
 20
365.8355053148872
 30
0.0
 11
-132.0454966478616
 21
351.3355053148872
 31
0.0
  0
LINE
  5
27A
330
2
100
AcDbEntity
  8
AM_VIS
100
AcDbLine
 10
-193.8959829369029
 20
317.3355053148871
 30
0.0
 11
-193.8959829369029
 21
346.3355053148871
 31
0.0
  0
LINE
  5
27B
330
2
100
AcDbEntity
  8
AM_VIS
100
AcDbLine
 10
-107.8959829369029
 20
317.3355053148871
 30
0.0
 11
-107.8959829369029
 21
346.3355053148871
 31
0.0
  0
LINE
  5
27C
330
2
100
AcDbEntity
  8
AM_VIS
100
AcDbLine
 10
-169.8959829369029
 20
349.8355053148872
 30
0.0
 11
-169.8959829369029
 21
351.3355053148872
 31
0.0
  0
LINE
  5
27D
330
2
100
AcDbEntity
  8
AM_VIS
100
AcDbLine
 10
-131.8959829369029
 20
349.8355053148872
 30
0.0
 11
-131.8959829369029
 21
351.3355053148872
 31
0.0
  0
LINE
  5
27E
330
2
100
AcDbEntity
  8
AM_VIS
100
AcDbLine
 10
-169.9474311202675
 20
351.3355053148872
 30
0.0
 11
-169.9474311202675
 21
365.8355053148872
 31
0.0
  0
LINE
  5
27F
330
2
100
AcDbEntity
  8
AM_VIS
100
AcDbLine
 10
-131.8445347535383
 20
351.3355053148872
 30
0.0
 11
-131.8445347535383
 21
365.8355053148872
 31
0.0
  0
LINE
  5
280
330
2
100
AcDbEntity
  8
AM_VIS
100
AcDbLine
 10
-186.8959829369029
 20
346.3355053148871
 30
0.0
 11
-186.8959829369029
 21
347.3355053148872
 31
0.0
  0
LINE
  5
281
330
2
100
AcDbEntity
  8
AM_VIS
100
AcDbLine
 10
-114.8959829369029
 20
346.3355053148871
 30
0.0
 11
-114.8959829369029
 21
347.3355053148872
 31
0.0
  0
LINE
  5
282
330
2
100
AcDbEntity
  8
AM_VIS
100
AcDbLine
 10
-140.3134511821723
 20
349.8355053148872
 30
0.0
 11
-131.8959829369029
 21
349.8355053148872
 31
0.0
  0
LINE
  5
283
330
2
100
AcDbEntity
  8
AM_VIS
100
AcDbLine
 10
-159.3134511821723
 20
349.8355053148872
 30
0.0
 11
-142.4785146916334
 21
349.8355053148872
 31
0.0
  0
LINE
  5
284
330
2
100
AcDbEntity
  8
AM_VIS
100
AcDbLine
 10
-169.8959829369029
 20
349.8355053148872
 30
0.0
 11
-161.4785146916334
 21
349.8355053148872
 31
0.0
  0
TEXT
  5
39A
330
2
100
AcDbEntity
  8
LOGO
 62
     7
100
AcDbText
 10
-172.5967550200571
 20
126.4530637920828
 30
0.0
 40
7.022835630973986
  1
Order example:
 41
0.8
  7
CHINESET
100
AcDbText
  0
TEXT
  5
39B
330
2
100
AcDbEntity
  8
LOGO
 62
     7
100
AcDbText
 10
-171.3368002313726
 20
136.3397622638226
 30
0.0
 40
10.53425344646097
  1
訂購代號:
  7
CHINESET
100
AcDbText
  0
LINE
  5
39C
330
2
100
AcDbEntity
  8
LOGO
 62
     1
100
AcDbLine
 10
9.299012428221828
 20
96.85618245605178
 30
0.0
 11
-291.5249888328753
 21
96.85618245605178
 31
0.0
  0
LINE
  5
39D
330
2
100
AcDbEntity
  8
LOGO
 62
     1
100
AcDbLine
 10
9.299012428221828
 20
149.5274496883566
 30
0.0
 11
-291.5249888328753
 21
149.5274496883566
 31
0.0
  0
POLYLINE
  5
39E
330
2
100
AcDbEntity
  8
0
 62
     4
100
AcDb2dPolyline
 66
     1
 10
0.0
 20
0.0
 30
0.0
 70
     1
  0
VERTEX
  5
39F
330
39E
100
AcDbEntity
  8
0
 62
     4
100
AcDbVertex
100
AcDb2dVertex
 10
-291.5249888328753
 20
512.7523292169983
 30
0.0
  0
VERTEX
  5
3A0
330
39E
100
AcDbEntity
  8
0
 62
     4
100
AcDbVertex
100
AcDb2dVertex
 10
9.299012428221828
 20
512.7523292169983
 30
0.0
  0
VERTEX
  5
3A1
330
39E
100
AcDbEntity
  8
0
 62
     4
100
AcDbVertex
100
AcDb2dVertex
 10
9.299012428221828
 20
149.5274496883566
 30
0.0
  0
VERTEX
  5
3A2
330
39E
100
AcDbEntity
  8
0
 62
     4
100
AcDbVertex
100
AcDb2dVertex
 10
-291.5249888328753
 20
149.5274496883566
 30
0.0
  0
SEQEND
  5
3A3
330
39E
100
AcDbEntity
  8
0
 62
     4
  0
POLYLINE
  5
3A4
330
2
100
AcDbEntity
  8
LOGO
 62
     5
100
AcDb2dPolyline
 66
     1
 10
0.0
 20
0.0
 30
0.0
 40
0.7865575906690865
 41
0.7865575906690865
  0
VERTEX
  5
3A5
330
3A4
100
AcDbEntity
  8
LOGO
 62
     5
100
AcDbVertex
100
AcDb2dVertex
 10
-268.6509615910076
 20
121.1834441202239
 30
0.0
 42
1.0
  0
VERTEX
  5
3A6
330
3A4
100
AcDbEntity
  8
LOGO
 62
     5
100
AcDbVertex
100
AcDb2dVertex
 10
-271.010634363015
 20
121.1834441202239
 30
0.0
 42
1.0
  0
SEQEND
  5
3A7
330
3A4
100
AcDbEntity
  8
LOGO
 62
     5
  0
SOLID
  5
3A8
330
2
100
AcDbEntity
  8
LOGO
 62
     2
100
AcDbTrace
 10
-272.0034064629886
 20
126.6805378098922
 30
0.0
 11
-271.0610475447591
 21
126.6805378098922
 31
0.0
 12
-260.2239199851287
 22
148.2762630193031
 32
0.0
 13
-259.2815610668992
 23
148.2762630193016
 33
0.0
  0
SOLID
  5
3A9
330
2
100
AcDbEntity
  8
LOGO
 62
     5
100
AcDbTrace
 10
-271.0610475447591
 20
126.6805378098922
 30
0.0
 11
-268.7836801590399
 21
126.6805378098922
 31
0.0
 12
-260.2239199851287
 22
146.5486050025494
 32
0.0
 13
-262.5012873708482
 23
138.198257921577
 33
0.0
  0
SOLID
  5
3AA
330
2
100
AcDbEntity
  8
LOGO
 62
     5
100
AcDbTrace
 10
-271.0610475447591
 20
128.4081958266444
 30
0.0
 11
-268.7836801590399
 21
136.7585429076169
 31
0.0
 12
-260.2239199851287
 22
148.2762630193031
 32
0.0
 13
-262.5012873708482
 23
148.2762630193031
 33
0.0
  0
SOLID
  5
3AB
330
2
100
AcDbEntity
  8
LOGO
 62
     5
100
AcDbTrace
 10
-271.0610475447591
 20
148.2762630193016
 30
0.0
 11
-268.7836801590399
 21
148.2762630193031
 31
0.0
 12
-271.0610475447591
 22
128.4081958266444
 32
0.0
 13
-268.7836801590399
 23
136.7585429076169
 33
0.0
  0
TEXT
  5
3AC
330
2
100
AcDbEntity
  8
LOGO
  6
CONTINUOUS
 62
     5
100
AcDbText
 10
-287.538688209526
 20
99.30113541530079
 30
0.0
 40
5.267126723230489
  1
MINDMAN INDUSTRIAL CO.,LTD
 41
0.85
  7
CHINESET
100
AcDbText
  0
TEXT
  5
3AD
330
2
100
AcDbEntity
  8
LOGO
  6
CONTINUOUS
 62
     5
100
AcDbText
 10
-289.8009693256351
 20
107.2033734159651
 30
0.0
 40
7.900690084845734
  1
金器工業股份有限公司
 41
0.8
  7
LOGO
100
AcDbText
  0
LINE
  5
3AE
330
2
100
AcDbEntity
  8
LOGO
 62
     1
100
AcDbLine
 10
-175.6482009218046
 20
117.9246893489737
 30
0.0
 11
-291.5249888328754
 21
117.9246893489737
 31
0.0
  0
LINE
  5
3AF
330
2
100
AcDbEntity
  8
LOGO
 62
     1
100
AcDbLine
 10
-291.5249888328753
 20
96.85618245605178
 30
0.0
 11
-291.5249888328753
 21
149.5274496883566
 31
0.0
  0
SOLID
  5
3B0
330
2
100
AcDbEntity
  8
LOGO
 62
     2
100
AcDbTrace
 10
-272.0034064629886
 20
148.2762630193016
 30
0.0
 11
-271.0610475447591
 21
148.2762630193016
 31
0.0
 12
-272.0034064629886
 22
126.6805378098922
 32
0.0
 13
-271.0610475447591
 23
126.6805378098922
 33
0.0
  0
SOLID
  5
3B1
330
2
100
AcDbEntity
  8
LOGO
 62
     5
100
AcDbTrace
 10
-274.2807738487079
 20
126.6805378098922
 30
0.0
 11
-272.0034064629886
 21
126.6805378098922
 31
0.0
 12
-274.2807738487079
 22
138.198257921577
 32
0.0
 13
-272.0034064629886
 23
146.5486050025494
 33
0.0
  0
SOLID
  5
3B2
330
2
100
AcDbEntity
  8
LOGO
 62
     2
100
AcDbTrace
 10
-283.7828929408493
 20
126.6805378098915
 30
0.0
 11
-282.840534022619
 21
126.6805378098922
 31
0.0
 12
-272.0034064629886
 22
148.2762630193016
 32
0.0
 13
-271.0610475447591
 23
148.2762630193016
 33
0.0
  0
SOLID
  5
3B3
330
2
100
AcDbEntity
  8
LOGO
 62
     5
100
AcDbTrace
 10
-282.840534022619
 20
126.6805378098922
 30
0.0
 11
-280.5631666368997
 21
126.6805378098922
 31
0.0
 12
-272.0034064629886
 22
146.5486050025494
 32
0.0
 13
-274.2807738487079
 23
138.198257921577
 33
0.0
  0
SOLID
  5
3B4
330
2
100
AcDbEntity
  8
LOGO
 62
     5
100
AcDbTrace
 10
-286.0602603265688
 20
126.6805378098922
 30
0.0
 11
-283.7828929408493
 21
126.6805378098915
 31
0.0
 12
-274.2807738487079
 22
148.2762630193031
 32
0.0
 13
-272.0034064629886
 23
148.2762630193016
 33
0.0
  0
SOLID
  5
3B5
330
2
100
AcDbEntity
  8
LOGO
 62
     5
100
AcDbTrace
 10
-286.714676242005
 20
118.8275468246525
 30
0.0
 11
-285.9293771434815
 21
118.8275468246525
 31
0.0
 12
-283.7179137592389
 22
122.754042317272
 32
0.0
 13
-282.9326146607157
 23
122.754042317272
 33
0.0
  0
SOLID
  5
3B6
330
2
100
AcDbEntity
  8
LOGO
 62
     5
100
AcDbTrace
 10
-283.7179137592389
 20
122.754042317272
 30
0.0
 11
-282.9326146607157
 21
122.754042317272
 31
0.0
 12
-283.7179137592389
 22
118.8275468246525
 32
0.0
 13
-282.9326146607157
 23
118.8275468246525
 33
0.0
  0
SOLID
  5
3B7
330
2
100
AcDbEntity
  8
LOGO
 62
     5
100
AcDbTrace
 10
-286.714676242005
 20
122.754042317272
 30
0.0
 11
-285.9293771434815
 21
122.754042317272
 31
0.0
 12
-286.714676242005
 22
118.8275468246525
 32
0.0
 13
-285.9293771434815
 23
118.8275468246525
 33
0.0
  0
SOLID
  5
3B8
330
2
100
AcDbEntity
  8
LOGO
 62
     5
100
AcDbTrace
 10
-289.71143872477
 20
118.8275468246525
 30
0.0
 11
-288.9261396262451
 21
118.8275468246525
 31
0.0
 12
-286.714676242005
 22
122.754042317272
 32
0.0
 13
-285.9293771434815
 23
122.754042317272
 33
0.0
  0
POLYLINE
  5
3B9
330
2
100
AcDbEntity
  8
LOGO
 62
     5
100
AcDb2dPolyline
 66
     1
 10
0.0
 20
0.0
 30
0.0
 40
0.7865575906690865
 41
0.7865575906690865
  0
VERTEX
  5
3BA
330
3B9
100
AcDbEntity
  8
LOGO
 62
     5
100
AcDbVertex
100
AcDb2dVertex
 10
-277.5510703942203
 20
121.1834441202239
 30
0.0
 42
1.0
  0
VERTEX
  5
3BB
330
3B9
100
AcDbEntity
  8
LOGO
 62
     5
100
AcDbVertex
100
AcDb2dVertex
 10
-279.9107431662276
 20
121.1834441202239
 30
0.0
 42
1.0
  0
SEQEND
  5
3BC
330
3B9
100
AcDbEntity
  8
LOGO
 62
     5
  0
SOLID
  5
3BD
330
2
100
AcDbEntity
  8
LOGO
 62
     5
100
AcDbTrace
 10
-282.0030125340441
 20
122.754042317272
 30
0.0
 11
-281.2177134355186
 21
122.754042317272
 31
0.0
 12
-282.0030125340441
 22
118.827546824651
 32
0.0
 13
-281.2177134355186
 23
118.8275468246525
 33
0.0
  0
SOLID
  5
3BE
330
2
100
AcDbEntity
  8
LOGO
 62
     5
100
AcDbTrace
 10
-280.3015049772714
 20
122.754042317272
 30
0.0
 11
-279.5162058787481
 21
122.754042317272
 31
0.0
 12
-280.3015049772714
 22
118.8275468246525
 32
0.0
 13
-279.5162058787481
 23
118.8275468246525
 33
0.0
  0
SOLID
  5
3BF
330
2
100
AcDbEntity
  8
LOGO
 62
     5
100
AcDbTrace
 10
-277.9456076817001
 20
121.1834441202239
 30
0.0
 11
-277.1603085831753
 21
121.1834441202239
 31
0.0
 12
-277.9456076817001
 22
118.8275468246525
 32
0.0
 13
-277.1603085831753
 23
118.8275468246525
 33
0.0
  0
SOLID
  5
3C0
330
2
100
AcDbEntity
  8
LOGO
 62
     5
100
AcDbTrace
 10
-282.0030125340441
 20
123.3037516862384
 30
0.0
 11
-281.2177134355186
 21
123.3037516862384
 31
0.0
 12
-282.0030125340441
 22
123.9319909650584
 32
0.0
 13
-281.2177134355186
 23
123.9319909650584
 33
0.0
  0
POLYLINE
  5
3C1
330
2
100
AcDbEntity
  8
LOGO
 62
     5
100
AcDb2dPolyline
 66
     1
 10
0.0
 20
0.0
 30
0.0
 70
     1
 40
0.7865575906690865
 41
0.7865575906690865
  0
VERTEX
  5
3C2
330
3C1
100
AcDbEntity
  8
LOGO
 62
     5
100
AcDbVertex
100
AcDb2dVertex
 10
-275.8538890300467
 20
120.7907945709619
 30
0.0
 42
1.0
  0
VERTEX
  5
3C3
330
3C1
100
AcDbEntity
  8
LOGO
 62
     5
100
AcDbVertex
100
AcDb2dVertex
 10
-272.7076586673703
 20
120.7907945709619
 30
0.0
 42
1.0
  0
SEQEND
  5
3C4
330
3C1
100
AcDbEntity
  8
LOGO
 62
     5
  0
SOLID
  5
3C5
330
2
100
AcDbEntity
  8
LOGO
 62
     5
100
AcDbTrace
 10
-271.4013961740587
 20
122.754042317272
 30
0.0
 11
-270.6160970755354
 21
122.754042317272
 31
0.0
 12
-271.4013961740587
 22
118.8275468246525
 32
0.0
 13
-270.6160970755354
 23
118.8275468246525
 33
0.0
  0
SOLID
  5
3C6
330
2
100
AcDbEntity
  8
LOGO
 62
     5
100
AcDbTrace
 10
-273.1029037308313
 20
123.9319909650584
 30
0.0
 11
-272.317604632308
 21
123.9319909650584
 31
0.0
 12
-273.1029037308313
 22
118.8275468246525
 32
0.0
 13
-272.317604632308
 23
118.8275468246525
 33
0.0
  0
TEXT
  5
3C7
330
2
100
AcDbEntity
  8
LOGO
 62
     6
100
AcDbText
 10
-248.5563647117118
 20
141.6293516934338
 30
0.0
 40
5.267126723230489
  1
比例 Scale:
 41
0.9
  7
CHINESET
 72
     4
 11
-231.8308859695964
 21
144.2603229651261
 31
0.0
100
AcDbText
  0
LINE
  5
3C8
330
2
100
AcDbEntity
  8
LOGO
 62
     1
100
AcDbLine
 10
-175.6482009218046
 20
128.4589427954347
 30
0.0
 11
-252.8993928625184
 21
128.4589427954347
 31
0.0
  0
LINE
  5
3C9
330
2
100
AcDbEntity
  8
LOGO
 62
     1
100
AcDbLine
 10
-175.6482009218046
 20
138.9931962418956
 30
0.0
 11
-252.8993928625184
 21
138.9931962418956
 31
0.0
  0
TEXT
  5
3CA
330
2
100
AcDbEntity
  8
LOGO
 62
     6
100
AcDbText
 10
-246.2002660614096
 20
120.5582527105889
 30
0.0
 40
5.267126723230489
  1
單位 Unit:
 41
0.9
  7
CHINESET
 72
     4
 11
-231.8308859695964
 21
123.1918160722042
 31
0.0
100
AcDbText
  0
TEXT
  5
3CB
330
2
100
AcDbEntity
  8
LOGO
 62
     6
100
AcDbText
 10
-246.7152217544397
 20
131.1665967273447
 30
0.0
 40
5.267126723230489
  1
投影 View:
 41
0.9
  7
CHINESET
 72
     4
 11
-231.8308859695964
 21
133.7260695186652
 31
0.0
100
AcDbText
  0
SOLID
  5
3CC
330
2
100
AcDbEntity
  8
LOGO
 62
     2
100
AcDbTrace
 10
-260.2239199851287
 20
148.2762630193031
 30
0.0
 11
-259.2815610668992
 21
148.2762630193016
 31
0.0
 12
-260.2239199851287
 22
126.6805378098915
 32
0.0
 13
-259.2815610668992
 23
126.6805378098915
 33
0.0
  0
SOLID
  5
3CD
330
2
100
AcDbEntity
  8
LOGO
 62
     5
100
AcDbTrace
 10
-260.2239199851287
 20
146.5486050025494
 30
0.0
 11
-262.5012873708482
 21
138.198257921577
 31
0.0
 12
-260.2239199851287
 22
126.6805378098915
 32
0.0
 13
-262.5012873708482
 23
126.6805378098915
 33
0.0
  0
SOLID
  5
3CE
330
2
100
AcDbEntity
  8
LOGO
 62
     5
100
AcDbTrace
 10
-259.2815610668992
 20
126.6805378098915
 30
0.0
 11
-257.0041936811798
 21
126.6805378098915
 31
0.0
 12
-259.2815610668992
 22
148.2762630193016
 32
0.0
 13
-257.0041936811798
 23
148.2762630193031
 33
0.0
  0
LINE
  5
3CF
330
2
100
AcDbEntity
  8
LOGO
 62
     1
100
AcDbLine
 10
-252.8993928625184
 20
117.9246893489737
 30
0.0
 11
-252.8993928625184
 21
149.5274496883566
 31
0.0
  0
CIRCLE
  5
3D0
330
2
100
AcDbEntity
  8
LOGO
 62
     5
100
AcDbCircle
 10
-263.0247677499239
 20
120.7907945709623
 30
0.0
 40
1.177948647786024
  0
POLYLINE
  5
3D1
330
2
100
AcDbEntity
  8
LOGO
 62
     5
100
AcDb2dPolyline
 66
     1
 10
0.0
 20
0.0
 30
0.0
 70
     1
  0
VERTEX
  5
3D2
330
3D1
100
AcDbEntity
  8
LOGO
 62
     5
100
AcDbVertex
100
AcDb2dVertex
 10
-264.20271639771
 20
120.7907945709622
 30
0.0
 42
1.000000057330635
  0
VERTEX
  5
3D3
330
3D1
100
AcDbEntity
  8
LOGO
 62
     5
100
AcDbVertex
100
AcDb2dVertex
 10
-261.8468191021376
 20
120.7907945709622
 30
0.0
 42
1.000000057330635
  0
SEQEND
  5
3D4
330
3D1
100
AcDbEntity
  8
LOGO
 62
     5
  0
POLYLINE
  5
3D5
330
2
100
AcDbEntity
  8
LOGO
 62
     5
100
AcDb2dPolyline
 66
     1
 10
0.0
 20
0.0
 30
0.0
 70
     1
 40
0.7865575906690865
 41
0.7865575906690865
  0
VERTEX
  5
3D6
330
3D5
100
AcDbEntity
  8
LOGO
 62
     5
100
AcDbVertex
100
AcDb2dVertex
 10
-264.5978829312625
 20
120.7907945709619
 30
0.0
 42
1.0
  0
VERTEX
  5
3D7
330
3D5
100
AcDbEntity
  8
LOGO
 62
     5
100
AcDbVertex
100
AcDb2dVertex
 10
-261.4516525685862
 20
120.7907945709619
 30
0.0
 42
1.0
  0
SEQEND
  5
3D8
330
3D5
100
AcDbEntity
  8
LOGO
 62
     5
  0
POLYLINE
  5
3D9
330
2
100
AcDbEntity
  8
LOGO
 62
     5
100
AcDb2dPolyline
 66
     1
 10
0.0
 20
0.0
 30
0.0
 40
0.7865575906690865
 41
0.7865575906690865
  0
VERTEX
  5
3DA
330
3D9
100
AcDbEntity
  8
LOGO
 62
     5
100
AcDbVertex
100
AcDb2dVertex
 10
-266.2950642954362
 20
121.1834441202239
 30
0.0
 42
1.0
  0
VERTEX
  5
3DB
330
3D9
100
AcDbEntity
  8
LOGO
 62
     5
100
AcDbVertex
100
AcDb2dVertex
 10
-268.6547370674436
 20
121.1834441202239
 30
0.0
 42
1.0
  0
SEQEND
  5
3DC
330
3D9
100
AcDbEntity
  8
LOGO
 62
     5
  0
SOLID
  5
3DD
330
2
100
AcDbEntity
  8
LOGO
 62
     5
100
AcDbTrace
 10
-269.0454988784872
 20
121.1834441202239
 30
0.0
 11
-268.2601997799639
 21
121.1834441202239
 31
0.0
 12
-269.0454988784872
 22
118.8275468246525
 32
0.0
 13
-268.2601997799639
 23
118.8275468246525
 33
0.0
  0
SOLID
  5
3DE
330
2
100
AcDbEntity
  8
LOGO
 62
     5
100
AcDbTrace
 10
-266.6896015829157
 20
121.1834441202239
 30
0.0
 11
-265.9043024843925
 21
121.1834441202239
 31
0.0
 12
-266.6896015829157
 22
118.827546824651
 32
0.0
 13
-265.9043024843925
 23
118.827546824651
 33
0.0
  0
POLYLINE
  5
3DF
330
2
100
AcDbEntity
  8
LOGO
 62
     5
100
AcDb2dPolyline
 66
     1
 10
0.0
 20
0.0
 30
0.0
 40
0.7865575906690865
 41
0.7865575906690865
  0
VERTEX
  5
3E0
330
3DF
100
AcDbEntity
  8
LOGO
 62
     5
100
AcDbVertex
100
AcDb2dVertex
 10
-257.3949554922234
 20
121.1834441202239
 30
0.0
 42
1.0
  0
VERTEX
  5
3E1
330
3DF
100
AcDbEntity
  8
LOGO
 62
     5
100
AcDbVertex
100
AcDb2dVertex
 10
-259.7546282642308
 20
121.1834441202239
 30
0.0
 42
1.0
  0
SEQEND
  5
3E2
330
3DF
100
AcDbEntity
  8
LOGO
 62
     5
  0
SOLID
  5
3E3
330
2
100
AcDbEntity
  8
LOGO
 62
     5
100
AcDbTrace
 10
-260.145390075276
 20
118.8275468246525
 30
0.0
 11
-259.3600909767512
 21
118.8275468246525
 31
0.0
 12
-260.145390075276
 22
122.754042317272
 32
0.0
 13
-259.3600909767512
 23
122.754042317272
 33
0.0
  0
SOLID
  5
3E4
330
2
100
AcDbEntity
  8
LOGO
 62
     5
100
AcDbTrace
 10
-261.8468976320464
 20
122.754042317272
 30
0.0
 11
-261.061598533523
 21
122.754042317272
 31
0.0
 12
-261.8468976320464
 22
118.8275468246525
 32
0.0
 13
-261.061598533523
 23
118.8275468246525
 33
0.0
  0
SOLID
  5
3E5
330
2
100
AcDbEntity
  8
LOGO
 62
     5
100
AcDbTrace
 10
-257.789492779703
 20
121.1834441202239
 30
0.0
 11
-257.0041936811798
 21
121.1834441202238
 31
0.0
 12
-257.789492779703
 22
118.8275468246525
 32
0.0
 13
-257.0041936811798
 23
118.8275468246525
 33
0.0
  0
LINE
  5
3E6
330
2
100
AcDbEntity
  8
LOGO
 62
     5
100
AcDbLine
 10
-257.0041936811798
 20
118.8275468246525
 30
0.0
 11
-257.0041936811798
 21
121.1834441202239
 31
0.0
  0
LINE
  5
3E7
330
2
100
AcDbEntity
  8
LOGO
 62
     1
100
AcDbLine
 10
-175.6482009218046
 20
96.85618245605178
 30
0.0
 11
-175.6482009218046
 21
149.5274496883566
 31
0.0
  0
TEXT
  5
3E8
330
2
100
AcDbEntity
  8
LOGO
 62
     6
100
AcDbText
 10
-202.8608205124994
 20
120.5582527105889
 30
0.0
 40
5.267126723230489
  1
m/m
  7
CHINESET
 72
     1
 11
-193.5806448572838
 21
123.1918160722042
 31
0.0
100
AcDbText
 73
     2
  0
TEXT
  5
3E9
330
2
100
AcDbEntity
  8
LOGO
 62
     6
100
AcDbText
 10
-202.8608205124994
 20
141.6267596035109
 30
0.0
 40
5.267126723230489
  1
1 : 1
  7
CHINESET
 72
     1
 11
-193.5806448572838
 21
144.2603229651261
 31
0.0
100
AcDbText
 73
     2
  0
LINE
  5
3EA
330
2
100
AcDbEntity
  8
LOGO
  6
CONTINUOUS
 62
     6
100
AcDbLine
 10
-191.378777042369
 20
131.9454910686484
 30
0.0
 11
-181.7914399471485
 21
130.6791181915745
 31
0.0
  0
LINE
  5
3EB
330
2
100
AcDbEntity
  8
LOGO
  6
CONTINUOUS
 62
     6
100
AcDbLine
 10
-191.378777042369
 20
135.5291808138917
 30
0.0
 11
-181.7914399471485
 21
136.7955536909655
 31
0.0
  0
LINE
  5
3EC
330
2
100
AcDbEntity
  8
LOGO
 62
     1
100
AcDbLine
 10
-210.7623790766745
 20
117.9246893489737
 30
0.0
 11
-210.7623790766745
 21
149.5274496883566
 31
0.0
  0
CIRCLE
  5
3ED
330
2
100
AcDbEntity
  8
LOGO
  6
CONTINUOUS
 62
     6
100
AcDbCircle
 10
-201.0096351468168
 20
133.73733594127
 30
0.0
 40
3.058217749695519
  0
CIRCLE
  5
3EE
330
2
100
AcDbEntity
  8
LOGO
  6
CONTINUOUS
 62
     6
100
AcDbCircle
 10
-201.0096351468168
 20
133.73733594127
 30
0.0
 40
1.791844872621658
  0
LINE
  5
3EF
330
2
100
AcDbEntity
  8
LOGO
 62
     6
100
AcDbLine
 10
-191.3787770423689
 20
131.9454910686484
 30
0.0
 11
-191.378777042369
 21
135.5291808138917
 31
0.0
  0
LINE
  5
3F0
330
2
100
AcDbEntity
  8
LOGO
 62
     6
100
AcDbLine
 10
-181.7914399471485
 20
130.6791181915745
 30
0.0
 11
-181.7914399471485
 21
136.7955536909655
 31
0.0
  0
LINE
  5
3F1
330
2
100
AcDbEntity
  8
LOGO
 62
     6
100
AcDbLine
 10
-53.64634398786927
 20
101.2454547254105
 30
0.0
 11
-88.76052214273917
 21
101.2454547254104
 31
0.0
  0
LINE
  5
3F2
330
2
100
AcDbEntity
  8
LOGO
 62
     6
100
AcDbLine
 10
-53.64634398786927
 20
120.5582527105889
 30
0.0
 11
-88.76052214273917
 21
120.5582527105889
 31
0.0
  0
LINE
  5
3F3
330
2
100
AcDbEntity
  8
LOGO
 62
     6
100
AcDbLine
 10
-39.20565561732792
 20
128.4589427954347
 30
0.0
 11
-103.2012105132805
 21
128.4589427954347
 31
0.0
  0
LINE
  5
3F4
330
2
100
AcDbEntity
  8
LOGO
 62
     6
100
AcDbLine
 10
-39.20565561732792
 20
144.2603229651261
 30
0.0
 11
-103.2012105132805
 21
144.2603229651261
 31
0.0
  0
TEXT
  5
3F5
330
2
100
AcDbEntity
  8
LOGO
  6
CONTINUOUS
 62
     7
100
AcDbText
 10
-95.13332662355356
 20
131.9703606109217
 30
0.0
 40
8.778544538717483
  1
MAD401
  7
CHINESET
 72
     1
 11
-71.72387452030694
 21
136.3596328802804
 31
0.0
100
AcDbText
 73
     2
  0
LINE
  5
3F6
330
2
100
AcDbEntity
  8
LOGO
 62
     6
100
AcDbLine
 10
-88.76052214273917
 20
120.5582527105889
 30
0.0
 11
-88.76052214273917
 21
101.2454547254104
 31
0.0
  0
TEXT
  5
3F7
330
2
100
AcDbEntity
  8
LOGO
  6
CONTINUOUS
 62
     6
100
AcDbText
 10
-79.5639516736066
 20
103.4400908600898
 30
0.0
 40
4.389272269358741
  1
Model
  7
CHINESET
 72
     4
 11
-71.20343306530424
 21
105.6347269947692
 31
0.0
100
AcDbText
  0
LINE
  5
3F8
330
2
100
AcDbEntity
  8
LOGO
 62
     6
100
AcDbLine
 10
-103.2012105132805
 20
144.2603229651261
 30
0.0
 11
-103.2012105132805
 21
128.4589427954347
 31
0.0
  0
LINE
  5
3F9
330
2
100
AcDbEntity
  8
LOGO
 62
     6
100
AcDbLine
 10
-71.20343306530424
 20
128.4589427954347
 30
0.0
 11
-71.20343306530424
 21
120.5582527105889
 31
0.0
  0
TEXT
  5
3FA
330
2
100
AcDbEntity
  8
LOGO
 62
     6
100
AcDbText
 10
-78.22626869627822
 20
111.0815719526506
 30
0.0
 40
7.022835630973986
  1
型式
  7
CHINESET
 72
     4
 11
-71.20343306530424
 21
114.4132715334867
 31
0.0
100
AcDbText
  0
LINE
  5
3FB
330
2
100
AcDbEntity
  8
LOGO
 62
     6
100
AcDbLine
 10
2.739944580674205
 20
128.4589427954347
 30
0.0
 11
-26.50738857124327
 21
128.4589427954347
 31
0.0
  0
LINE
  5
3FC
330
2
100
AcDbEntity
  8
LOGO
 62
     6
100
AcDbLine
 10
2.739944580674261
 20
144.2603229651261
 30
0.0
 11
-26.50738857124327
 21
144.2603229651261
 31
0.0
  0
TEXT
  5
3FD
330
2
100
AcDbEntity
  8
LOGO
  6
CONTINUOUS
 62
     6
100
AcDbText
 10
-23.92286879123993
 20
103.4400908600898
 30
0.0
 40
4.389272269358741
  1
Bore size
 41
0.8
  7
CHINESET
 72
     4
 11
-11.88372199528453
 21
105.6347269947692
 31
0.0
100
AcDbText
  0
LINE
  5
3FE
330
2
100
AcDbEntity
  8
LOGO
 62
     6
100
AcDbLine
 10
6.251362396161255
 20
120.5582527105889
 30
0.0
 11
-30.01880638673026
 21
120.5582527105889
 31
0.0
  0
LINE
  5
3FF
330
2
100
AcDbEntity
  8
LOGO
 62
     6
100
AcDbLine
 10
6.251362396161255
 20
101.2454547254105
 30
0.0
 11
-30.01880638673026
 21
101.2454547254104
 31
0.0
  0
TEXT
  5
400
330
2
100
AcDbEntity
  8
LOGO
 62
     6
100
AcDbText
 10
-24.59066521507809
 20
110.9018537179996
 30
0.0
 40
7.022835630973986
  1
配管口徑
 41
0.9
  7
CHINESET
 72
     4
 11
-11.88372199528453
 21
114.4132715334867
 31
0.0
100
AcDbText
  0
LINE
  5
401
330
2
100
AcDbEntity
  8
LOGO
 62
     6
100
AcDbLine
 10
-30.01880638673026
 20
120.5582527105889
 30
0.0
 11
-30.01880638673026
 21
101.2454547254104
 31
0.0
  0
LINE
  5
402
330
2
100
AcDbEntity
  8
LOGO
 62
     6
100
AcDbLine
 10
-53.64634398786922
 20
120.5582527105889
 30
0.0
 11
-53.64634398786922
 21
101.2454547254105
 31
0.0
  0
LINE
  5
403
330
2
100
AcDbEntity
  8
LOGO
 62
     6
100
AcDbLine
 10
-39.20565561732792
 20
144.2603229651261
 30
0.0
 11
-39.20565561732792
 21
128.4589427954347
 31
0.0
  0
LINE
  5
404
330
2
100
AcDbEntity
  8
LOGO
  6
CONTINUOUS
 62
     7
100
AcDbLine
 10
-36.21730614355624
 20
136.3036618945112
 30
0.0
 11
-29.23999322736307
 21
136.3036618945112
 31
0.0
  0
LINE
  5
405
330
2
100
AcDbEntity
  8
LOGO
 62
     6
100
AcDbLine
 10
-11.51187879020608
 20
128.4589427954347
 30
0.0
 11
-11.51187879020608
 21
120.5582527105889
 31
0.0
  0
TEXT
  5
406
330
2
100
AcDbEntity
  8
LOGO
  6
CONTINUOUS
 62
     7
100
AcDbText
 10
-18.17083176260891
 20
131.8708113626921
 30
0.0
 40
8.778544538717483
  1
?A
  7
CHINESET
 72
     1
 11
-11.0643909455519
 21
136.2600836320509
 31
0.0
100
AcDbText
 73
     2
  0
LINE
  5
407
330
2
100
AcDbEntity
  8
LOGO
 62
     6
100
AcDbLine
 10
-26.50738857124321
 20
144.2603229651261
 30
0.0
 11
-26.50738857124327
 21
128.4589427954347
 31
0.0
  0
LINE
  5
408
330
2
100
AcDbEntity
  8
LOGO
 62
     1
100
AcDbLine
 10
9.299012428221828
 20
96.85618245605178
 30
0.0
 11
9.299012428221828
 21
149.5274496883566
 31
0.0
  0
LINE
  5
409
330
2
100
AcDbEntity
  8
LOGO
 62
     6
100
AcDbLine
 10
6.251362396161255
 20
120.5582527105889
 30
0.0
 11
6.251362396161255
 21
101.1726326711142
 31
0.0
  0
LINE
  5
40A
330
2
100
AcDbEntity
  8
LOGO
 62
     6
100
AcDbLine
 10
2.739944580674261
 20
144.2603229651261
 30
0.0
 11
2.739944580674205
 21
128.4589427954347
 31
0.0
  0
INSERT
  5
40E
330
2
100
AcDbEntity
  8
AM_5
 62
     5
100
AcDbBlockReference
  2
*S3
 10
0.0
 20
0.0
 30
0.0
  0
INSERT
  5
40F
330
2
100
AcDbEntity
  8
AM_5
 62
     5
100
AcDbBlockReference
  2
*S4
 10
0.0
 20
0.0
 30
0.0
  0
TEXT
  5
410
330
2
100
AcDbEntity
  8
0
 62
     5
100
AcDbText
 10
-121.4658499234585
 20
162.3698614277975
 30
0.0
 40
3.0
  1
PT3/8
100
AcDbText
  0
ENDSEC
  0
SECTION
  2
OBJECTS
  0
DICTIONARY
  5
8
330
0
100
AcDbDictionary
  3
ACAD_GROUP
350
21
  3
ACAD_LAYOUT
350
C
  3
ACAD_MLINESTYLE
350
22
  3
ACAD_PLOTSETTINGS
350
23
  3
ACMDICTIONARY
350
2AA
  3
AMG
350
290
  3
AMGSNAPSETTINGS
350
2DA
  3
DWGPROPS
350
479
1001
ACAD
1000
TREAT_AS_HARD
1070
     0
  0
DICTIONARY
  5
3
330
2
100
AcDbDictionary
  3
ACAD_INDEX
350
2E2
  3
ACAD_LAYOUTSELFREF
350
4F8
1001
ACAD
1000
TREAT_AS_HARD
1070
     1
  0
DICTIONARY
  5
4F9
330
D
100
AcDbDictionary
  3
ACAD_LAYOUTSELFREF
350
4FA
  0
DICTIONARY
  5
21
102
{ACAD_REACTORS
330
8
102
}
330
8
100
AcDbDictionary
1001
ACAD
1000
TREAT_AS_HARD
1070
     0
  0
DICTIONARY
  5
C
102
{ACAD_REACTORS
330
8
102
}
330
8
100
AcDbDictionary
1001
ACAD
1000
TREAT_AS_HARD
1070
     0
  0
DICTIONARY
  5
22
102
{ACAD_REACTORS
330
8
102
}
330
8
100
AcDbDictionary
  3
STANDARD
350
24
1001
ACAD
1000
TREAT_AS_HARD
1070
     0
  0
DICTIONARY
  5
23
102
{ACAD_REACTORS
330
8
102
}
330
8
100
AcDbDictionary
1001
ACAD
1000
TREAT_AS_HARD
1070
     0
  0
DICTIONARY
  5
2AA
102
{ACAD_REACTORS
330
8
102
}
330
8
100
AcDbDictionary
  3
ACMSTDDICTIONARY
350
2B0
1001
ACAD
1000
TREAT_AS_HARD
1070
     0
  0
DICTIONARY
  5
290
102
{ACAD_REACTORS
330
8
102
}
330
8
100
AcDbDictionary
  3
ACMGSETTINGS
350
291
1001
ACAD
1000
TREAT_AS_HARD
1070
     0
  0
DICTIONARY
  5
2DA
102
{ACAD_REACTORS
330
8
102
}
330
8
100
AcDbDictionary
1001
ACAD
1000
TREAT_AS_HARD
1070
     0
  0
XRECORD
  5
479
102
{ACAD_REACTORS
330
8
102
}
330
8
100
AcDbXrecord
  1
DWGPROPS COOKIE
  2

  3

  4

  6

  7

  8

  9

300
AmdtFileType=84
301
=
302
=
303
=
304
=
305
=
306
=
307
=
308
=
309
=
 40
0.1834378009259259
 41
2453007.342608623
 42
2453007.606538368
  1

 90
        1
  0
DICTIONARY
  5
2E2
102
{ACAD_REACTORS
330
3
102
}
330
3
100
AcDbDictionary
  3
*A1
350
2E3
1001
ACAD
1000
TREAT_AS_HARD
1070
     0
  0
XRECORD
  5
4F8
102
{ACAD_REACTORS
330
3
102
}
330
3
100
AcDbXrecord
340
2
  0
XRECORD
  5
4FA
102
{ACAD_REACTORS
330
4F9
102
}
330
4F9
100
AcDbXrecord
340
D
  0
MLINESTYLE
  5
24
102
{ACAD_REACTORS
330
22
102
}
330
22
100
AcDbMlineStyle
  2
STANDARD
 70
     0
  3

 62
   256
 51
90.0
 52
90.0
 71
     2
 49
0.5
 62
   256
  6
BYLAYER
 49
-0.5
 62
   256
  6
BYLAYER
  0
DICTIONARY
  5
2B0
102
{ACAD_REACTORS
330
2AA
102
}
330
2AA
100
AcDbDictionary
1001
ACAD
1000
TREAT_AS_HARD
1070
     0
  0
DICTIONARY
  5
291
102
{ACAD_REACTORS
330
290
102
}
330
290
100
AcDbDictionary
  3
DWGSETTINGS
350
292
1001
ACAD
1000
TREAT_AS_HARD
1070
     0
  0
LAYER_INDEX
  5
2E3
102
{ACAD_REACTORS
330
2E2
102
}
330
2E2
100
AcDbIndex
 40
2453057.48032949
100
AcDbLayerIndex
  8
0
360
2E4
 90
        7
  8
AM_5
360
2E5
 90
        3
  8
Defpoints
360
2E6
 90
        0
  8
AM_7
360
2E7
 90
        7
  8
AM_4
360
2E8
 90
        1
  8
AM_VIS
360
2E9
 90
      308
  8
AM_REFDIM
360
2EA
 90
        2
  8
LOGO
360
40C
 90
       86
  0
XRECORD
  5
292
102
{ACAD_REACTORS
330
291
102
}
330
291
100
AcDbXrecord
  1
VERSION
140
15.0
  1
PRODUCT
  2
AutoCAD Mechanical 2000
  0
IDBUFFER
  5
2E4
330
0
100
AcDbIdBuffer
330
410
330
1C3
330
1C4
330
1EF
330
1F0
330
1F1
330
39E
  0
IDBUFFER
  5
2E5
330
0
100
AcDbIdBuffer
330
1F6
330
40E
330
40F
  0
IDBUFFER
  5
2E6
330
0
100
AcDbIdBuffer
  0
IDBUFFER
  5
2E7
330
0
100
AcDbIdBuffer
330
1C8
330
1C9
330
1CA
330
1CB
330
1CC
330
1CD
330
1CE
  0
IDBUFFER
  5
2E8
330
0
100
AcDbIdBuffer
330
1CF
  0
IDBUFFER
  5
2E9
330
0
100
AcDbIdBuffer
330
25
330
27
330
28
330
29
330
2A
330
2B
330
2C
330
2D
330
2E
330
2F
330
30
330
31
330
32
330
33
330
34
330
35
330
36
330
37
330
38
330
39
330
3A
330
3B
330
3C
330
3D
330
3E
330
3F
330
40
330
41
330
42
330
43
330
44
330
45
330
46
330
47
330
48
330
49
330
4A
330
4B
330
4C
330
4D
330
4E
330
4F
330
50
330
51
330
52
330
53
330
54
330
55
330
56
330
57
330
58
330
14E
330
14F
330
150
330
151
330
152
330
153
330
154
330
155
330
156
330
157
330
158
330
159
330
15A
330
15B
330
15C
330
15D
330
15E
330
15F
330
160
330
161
330
162
330
163
330
164
330
165
330
166
330
167
330
168
330
169
330
16A
330
16B
330
16C
330
16D
330
16E
330
16F
330
170
330
171
330
172
330
173
330
174
330
175
330
176
330
177
330
178
330
179
330
17A
330
17B
330
17C
330
17D
330
17E
330
17F
330
180
330
181
330
182
330
183
330
184
330
185
330
186
330
187
330
188
330
189
330
18A
330
18B
330
18C
330
18D
330
18E
330
18F
330
190
330
191
330
192
330
193
330
194
330
195
330
196
330
197
330
198
330
199
330
19A
330
19B
330
19C
330
19D
330
19E
330
19F
330
1A0
330
1A1
330
1A2
330
1A3
330
1A4
330
1A5
330
1A6
330
1A7
330
1A8
330
1A9
330
1AA
330
1AB
330
1AC
330
1AD
330
1AE
330
1AF
330
1B0
330
1B1
330
1B2
330
1B3
330
1B4
330
1B5
330
1B6
330
1B7
330
1B8
330
1B9
330
1BA
330
1BB
330
1BC
330
1BD
330
1BE
330
1BF
330
1C0
330
1C1
330
1C2
330
1F8
330
1F9
330
1FA
330
1FB
330
1FC
330
1FD
330
1FE
330
1FF
330
200
330
201
330
202
330
203
330
204
330
205
330
206
330
207
330
208
330
209
330
20A
330
20B
330
20C
330
20D
330
20E
330
20F
330
210
330
211
330
212
330
213
330
214
330
215
330
216
330
217
330
218
330
219
330
21B
330
21C
330
21D
330
21E
330
21F
330
220
330
221
330
222
330
223
330
224
330
225
330
226
330
227
330
228
330
229
330
22A
330
22B
330
22C
330
22D
330
22E
330
22F
330
230
330
231
330
232
330
233
330
234
330
235
330
236
330
237
330
238
330
239
330
23A
330
23B
330
23C
330
23D
330
23E
330
23F
330
240
330
241
330
242
330
243
330
244
330
245
330
246
330
247
330
248
330
249
330
24A
330
24B
330
24C
330
24D
330
24E
330
24F
330
250
330
251
330
252
330
253
330
254
330
255
330
256
330
257
330
258
330
259
330
25A
330
25B
330
25C
330
25D
330
25E
330
25F
330
260
330
261
330
262
330
263
330
264
330
265
330
266
330
267
330
268
330
269
330
26A
330
26B
330
26C
330
26D
330
26E
330
26F
330
270
330
271
330
272
330
273
330
274
330
275
330
276
330
277
330
278
330
279
330
27A
330
27B
330
27C
330
27D
330
27E
330
27F
330
280
330
281
330
282
330
283
330
284
  0
IDBUFFER
  5
2EA
330
0
100
AcDbIdBuffer
330
1D1
330
1E2
  0
IDBUFFER
  5
40C
330
0
100
AcDbIdBuffer
330
39A
330
39B
330
39C
330
39D
330
3A4
330
3A8
330
3A9
330
3AA
330
3AB
330
3AC
330
3AD
330
3AE
330
3AF
330
3B0
330
3B1
330
3B2
330
3B3
330
3B4
330
3B5
330
3B6
330
3B7
330
3B8
330
3B9
330
3BD
330
3BE
330
3BF
330
3C0
330
3C1
330
3C5
330
3C6
330
3C7
330
3C8
330
3C9
330
3CA
330
3CB
330
3CC
330
3CD
330
3CE
330
3CF
330
3D0
330
3D1
330
3D5
330
3D9
330
3DD
330
3DE
330
3DF
330
3E3
330
3E4
330
3E5
330
3E6
330
3E7
330
3E8
330
3E9
330
3EA
330
3EB
330
3EC
330
3ED
330
3EE
330
3EF
330
3F0
330
3F1
330
3F2
330
3F3
330
3F4
330
3F5
330
3F6
330
3F7
330
3F8
330
3F9
330
3FA
330
3FB
330
3FC
330
3FD
330
3FE
330
3FF
330
400
330
401
330
402
330
403
330
404
330
405
330
406
330
407
330
408
330
409
330
40A
  0
ENDSEC
  0
EOF
