  0
SECTION
  2
HEADER
  9
$ACADVER
  1
AC1009
  9
$INSBASE
 10
196.8846923010438
 20
-148.80236534061001
 30
0.0
  9
$EXTMIN
 10
-19.260124796762959
 20
-84.983924134804866
 30
-0.0015258207003583
  9
$EXTMAX
 10
558.14917469550414
 20
385.76126615770153
 30
0.0000000349246037
  9
$LIMMIN
 10
0.0
 20
0.0
  9
$LIMMAX
 10
12.0
 20
9.0
  9
$ORTHOMODE
 70
     1
  9
$REGENMODE
 70
     0
  9
$FILLMODE
 70
     1
  9
$QTEXTMODE
 70
     0
  9
$MIRRTEXT
 70
     1
  9
$DRAGMODE
 70
     2
  9
$LTSCALE
 40
3.0
  9
$OSMODE
 70
    39
  9
$ATTMODE
 70
     1
  9
$TEXTSIZE
 40
4.0
  9
$TRACEWID
 40
0.05
  9
$TEXTSTYLE
  7
DAYUS
  9
$CLAYER
  8
0
  9
$CELTYPE
  6
BYLAYER
  9
$CECOLOR
 62
   256
  9
$DIMSCALE
 40
2.0
  9
$DIMASZ
 40
3.0
  9
$DIMEXO
 40
2.0
  9
$DIMDLI
 40
7.0
  9
$DIMRND
 40
0.0
  9
$DIMDLE
 40
0.0
  9
$DIMEXE
 40
2.0
  9
$DIMTP
 40
0.0
  9
$DIMTM
 40
0.0
  9
$DIMTXT
 40
3.0
  9
$DIMCEN
 40
2.0
  9
$DIMTSZ
 40
0.0
  9
$DIMTOL
 70
     0
  9
$DIMLIM
 70
     0
  9
$DIMTIH
 70
     0
  9
$DIMTOH
 70
     0
  9
$DIMSE1
 70
     0
  9
$DIMSE2
 70
     0
  9
$DIMTAD
 70
     1
  9
$DIMZIN
 70
     8
  9
$DIMBLK
  1

  9
$DIMASO
 70
     1
  9
$DIMSHO
 70
     0
  9
$DIMPOST
  1

  9
$DIMAPOST
  1

  9
$DIMALT
 70
     0
  9
$DIMALTD
 70
     2
  9
$DIMALTF
 40
25.399999999999999
  9
$DIMLFAC
 40
1.0
  9
$DIMTOFL
 70
     1
  9
$DIMTVP
 40
0.0
  9
$DIMTIX
 70
     0
  9
$DIMSOXD
 70
     0
  9
$DIMSAH
 70
     0
  9
$DIMBLK1
  1

  9
$DIMBLK2
  1

  9
$DIMSTYLE
  2
STANDARD
  9
$DIMCLRD
 70
   256
  9
$DIMCLRE
 70
   256
  9
$DIMCLRT
 70
   256
  9
$DIMTFAC
 40
0.6
  9
$DIMGAP
 40
1.0
  9
$LUNITS
 70
     2
  9
$LUPREC
 70
     4
  9
$SKETCHINC
 40
0.1
  9
$FILLETRAD
 40
1.1999999999999991
  9
$AUNITS
 70
     0
  9
$AUPREC
 70
     0
  9
$MENU
  1
ACAD
  9
$ELEVATION
 40
0.0
  9
$PELEVATION
 40
0.0
  9
$THICKNESS
 40
0.0
  9
$LIMCHECK
 70
     0
  9
$BLIPMODE
 70
     0
  9
$CHAMFERA
 40
0.2
  9
$CHAMFERB
 40
0.2
  9
$SKPOLY
 70
     0
  9
$TDCREATE
 40
2450294.5617249999
  9
$TDUPDATE
 40
2451948.6122072218
  9
$TDINDWG
 40
0.823601169
  9
$TDUSRTIMER
 40
0.823601169
  9
$USRTIMER
 70
     1
  9
$ANGBASE
 50
0.0
  9
$ANGDIR
 70
     0
  9
$PDMODE
 70
    65
  9
$PDSIZE
 40
6.2999999999999989
  9
$PLINEWID
 40
0.0
  9
$COORDS
 70
     2
  9
$SPLFRAME
 70
     0
  9
$SPLINETYPE
 70
     6
  9
$SPLINESEGS
 70
     8
  9
$ATTDIA
 70
     0
  9
$ATTREQ
 70
     1
  9
$HANDLING
 70
 12289
  9
$HANDSEED
  5
E3C
  9
$SURFTAB1
 70
     6
  9
$SURFTAB2
 70
     6
  9
$SURFTYPE
 70
     6
  9
$SURFU
 70
     6
  9
$SURFV
 70
     6
  9
$UCSNAME
  2

  9
$UCSORG
 10
0.0
 20
0.0
 30
0.0
  9
$UCSXDIR
 10
1.0
 20
0.0
 30
0.0
  9
$UCSYDIR
 10
0.0
 20
1.0
 30
0.0
  9
$PUCSNAME
  2

  9
$PUCSORG
 10
0.0
 20
0.0
 30
0.0
  9
$PUCSXDIR
 10
1.0
 20
0.0
 30
0.0
  9
$PUCSYDIR
 10
0.0
 20
1.0
 30
0.0
  9
$USERI1
 70
     0
  9
$USERI2
 70
     0
  9
$USERI3
 70
     0
  9
$USERI4
 70
     0
  9
$USERI5
 70
     0
  9
$USERR1
 40
0.0
  9
$USERR2
 40
0.0
  9
$USERR3
 40
0.0
  9
$USERR4
 40
0.0
  9
$USERR5
 40
0.0
  9
$WORLDVIEW
 70
     1
  9
$SHADEDGE
 70
     3
  9
$SHADEDIF
 70
    70
  9
$TILEMODE
 70
     1
  9
$MAXACTVP
 70
    16
  9
$PLIMCHECK
 70
     0
  9
$PEXTMIN
 10
1.0000000000000000E+020
 20
1.0000000000000000E+020
 30
1.0000000000000000E+020
  9
$PEXTMAX
 10
-1.0000000000000000E+020
 20
-1.0000000000000000E+020
 30
-1.0000000000000000E+020
  9
$PLIMMIN
 10
0.0
 20
0.0
  9
$PLIMMAX
 10
12.0
 20
9.0
  9
$UNITMODE
 70
     0
  9
$VISRETAIN
 70
     0
  9
$PLINEGEN
 70
     0
  9
$PSLTSCALE
 70
     0
  0
ENDSEC
  0
SECTION
  2
TABLES
  0
TABLE
  2
VPORT
 70
     2
  0
VPORT
  2
*ACTIVE
 70
     0
 10
0.0
 20
0.0
 11
1.0
 21
1.0
 12
269.44452494937048
 22
150.38867101144831
 13
0.0
 23
0.0
 14
1.0
 24
1.0
 15
0.0
 25
0.0
 16
0.0
 26
0.0
 36
1.0
 17
0.0
 27
0.0
 37
0.0
 40
475.93723283249727
 41
1.7274401473296499
 42
50.0
 43
0.0
 44
0.0
 50
0.0
 51
0.0
 71
     0
 72
   100
 73
     1
 74
     1
 75
     0
 76
     0
 77
     0
 78
     0
  0
ENDTAB
  0
TABLE
  2
LTYPE
 70
     4
  0
LTYPE
  2
CONTINUOUS
 70
     0
  3
Solid line
 72
    65
 73
     0
 40
0.0
  0
LTYPE
  2
CENTER
 70
     0
  3
____ _ ____ _ ____ _ ____ _ ____ _ ____ _ ____
 72
    65
 73
     4
 40
2.0
 49
1.25
 49
-0.25
 49
0.25
 49
-0.25
  0
LTYPE
  2
HIDDEN
 70
     0
  3
Hidden __ __ __ __ __ __ __ __ __ __ __ __ __ _
 72
    65
 73
     2
 40
0.375
 49
0.25
 49
-0.125
  0
LTYPE
  2
PHANTOM
 70
     0
  3
_____ _ _ _____ _ _ _____ _ _ _____ _ _ ____
 72
    65
 73
     6
 40
2.5
 49
1.25
 49
-0.25
 49
0.25
 49
-0.25
 49
0.25
 49
-0.25
  0
ENDTAB
  0
TABLE
  2
LAYER
 70
     7
  0
LAYER
  2
0
 70
     0
 62
     7
  6
CONTINUOUS
  0
LAYER
  2
DEFPOINTS
 70
     0
 62
     7
  6
CONTINUOUS
  0
LAYER
  2
CENTER
 70
     0
 62
     1
  6
CENTER
  0
LAYER
  2
DIM
 70
     0
 62
     5
  6
CONTINUOUS
  0
LAYER
  2
LOGO
 70
     0
 62
     7
  6
CONTINUOUS
  0
LAYER
  2
HIDDEN
 70
     0
 62
     6
  6
HIDDEN
  0
ENDTAB
  0
TABLE
  2
STYLE
 70
     7
  0
STYLE
  2
STANDARD
 70
     0
 40
0.0
 41
1.0
 50
0.0
 71
     0
 42
5.0
  3
txt
  4

  0
STYLE
  2
DAYUS
 70
     0
 40
0.0
 41
1.0
 50
0.0
 71
     0
 42
4.0
  3
simplex
  4
dayus
  0
STYLE
  2
CHINESET
 70
     0
 40
0.0
 41
1.0
 50
0.0
 71
     0
 42
4.0
  3
simplex.shx
  4
chineset.shx
  0
STYLE
  2
LOGO
 70
     0
 40
0.0
 41
1.0
 50
0.0
 71
     0
 42
5.0
  3
txt
  4

  0
STYLE
  2
R
 70
     0
 40
0.0
 41
1.0
 50
0.0
 71
     0
 42
2.0
  3
r
  4

  0
ENDTAB
  0
TABLE
  2
VIEW
 70
     0
  0
ENDTAB
  0
TABLE
  2
UCS
 70
     0
  0
ENDTAB
  0
TABLE
  2
APPID
 70
     2
  0
APPID
  2
ACAD
 70
     0
  0
APPID
  2
GENIUS_GENDTOL_13
 70
     0
  0
ENDTAB
  0
TABLE
  2
DIMSTYLE
 70
     1
  0
DIMSTYLE
  2
STANDARD
 70
     0
  3

  4

  5

  6

  7

 40
2.0
 41
3.0
 42
2.0
 43
7.0
 44
2.0
 45
0.0
 46
0.0
 47
0.0
 48
0.0
140
3.0
141
2.0
142
0.0
143
25.399999999999999
144
1.0
145
0.0
146
0.6
147
1.0
 71
     0
 72
     0
 73
     0
 74
     0
 75
     0
 76
     0
 77
     1
 78
     8
170
     0
171
     2
172
     1
173
     0
174
     0
175
     0
176
   256
177
   256
178
   256
  0
ENDTAB
  0
ENDSEC
  0
SECTION
  2
BLOCKS
  0
BLOCK
  8
0
  2
$MODEL_SPACE
 70
     0
 10
0.0
 20
0.0
 30
0.0
  3
$MODEL_SPACE
  1

  0
ENDBLK
  5
4F7
  8
0
  0
BLOCK
 67
     1
  8
0
  2
$PAPER_SPACE
 70
     0
 10
0.0
 20
0.0
 30
0.0
  3
$PAPER_SPACE
  1

  0
ENDBLK
  5
4FE
 67
     1
  8
0
  0
BLOCK
  8
0
  2
*D18
 70
     1
 10
0.0
 20
0.0
 30
0.0
  3
*D18
  1

  0
LINE
  5
D9F
  8
DIM
 10
28.715760633921771
 20
284.40453547329213
 30
0.0
 11
28.715760633921779
 21
320.86138579224689
 31
0.0
  0
LINE
  5
DA0
  8
DIM
 10
327.215760633922
 20
286.90453547329219
 30
0.0
 11
327.215760633922
 21
320.86138579224689
 31
0.0
  0
LINE
  5
DA1
  8
DIM
 10
34.715760633921782
 20
316.86138579224689
 30
0.0
 11
321.215760633922
 21
316.86138579224689
 31
0.0
  0
SOLID
  5
DA2
  8
DIM
 10
34.715760633921782
 20
317.86138579224689
 30
0.0
 11
34.715760633921782
 21
315.86138579224689
 31
0.0
 12
28.715760633921779
 22
316.86138579224689
 32
0.0
 13
28.715760633921779
 23
316.86138579224689
 33
0.0
  0
SOLID
  5
DA3
  8
DIM
 10
321.215760633922
 20
317.86138579224689
 30
0.0
 11
321.215760633922
 21
315.86138579224689
 31
0.0
 12
327.215760633922
 22
316.86138579224689
 32
0.0
 13
327.215760633922
 23
316.86138579224689
 33
0.0
  0
TEXT
  5
DA4
  8
0
 10
165.96576063392189
 20
318.86138579224689
 30
0.0
 40
6.0
  1
298.5
  7
CHINESET
  0
POINT
  5
DA5
  8
DEFPOINTS
 62
     0
 10
28.715760633921771
 20
280.40453547329213
 30
0.0
  0
POINT
  5
DA6
  8
DEFPOINTS
 62
     0
 10
327.215760633922
 20
282.90453547329219
 30
0.0
  0
POINT
  5
DA7
  8
DEFPOINTS
 62
     0
 10
327.215760633922
 20
316.86138579224689
 30
0.0
  0
ENDBLK
  5
C68
  8
0
  0
BLOCK
  8
0
  2
*D19
 70
     1
 10
0.0
 20
0.0
 30
0.0
  3
*D19
  1

  0
LINE
  5
DA8
  8
DIM
 10
126.2157606339217
 20
191.22508489688349
 30
0.0
 11
126.2157606339217
 21
110.71455301183531
 31
0.0
  0
LINE
  5
DA9
  8
DIM
 10
230.7157606339218
 20
188.72508489688369
 30
0.0
 11
230.7157606339218
 21
110.71455301183531
 31
0.0
  0
LINE
  5
DAA
  8
DIM
 10
132.21576063392169
 20
114.71455301183531
 30
0.0
 11
224.7157606339218
 21
114.71455301183531
 31
0.0
  0
SOLID
  5
DAB
  8
DIM
 10
132.21576063392169
 20
115.71455301183531
 30
0.0
 11
132.21576063392169
 21
113.71455301183531
 31
0.0
 12
126.2157606339217
 22
114.71455301183531
 32
0.0
 13
126.2157606339217
 23
114.71455301183531
 33
0.0
  0
SOLID
  5
DAC
  8
DIM
 10
224.7157606339218
 20
115.71455301183531
 30
0.0
 11
224.7157606339218
 21
113.71455301183531
 31
0.0
 12
230.7157606339218
 22
114.71455301183531
 32
0.0
 13
230.7157606339218
 23
114.71455301183531
 33
0.0
  0
TEXT
  5
DAD
  8
0
 10
167.0371892053503
 20
116.71455301183531
 30
0.0
 40
6.0
  1
104.5
  7
CHINESET
  0
POINT
  5
DAE
  8
DEFPOINTS
 62
     0
 10
126.2157606339217
 20
195.22508489688349
 30
0.0
  0
POINT
  5
DAF
  8
DEFPOINTS
 62
     0
 10
230.7157606339218
 20
192.72508489688369
 30
0.0
  0
POINT
  5
DB0
  8
DEFPOINTS
 62
     0
 10
230.7157606339218
 20
114.71455301183531
 30
0.0
  0
ENDBLK
  5
C75
  8
0
  0
BLOCK
  8
0
  2
*D20
 70
     1
 10
0.0
 20
0.0
 30
0.0
  3
*D20
  1

  0
LINE
  5
DB1
  8
DIM
 10
120.2157606339217
 20
198.4045354732921
 30
0.0
 11
120.2157606339217
 21
170.7543799314459
 31
0.0
  0
LINE
  5
DB2
  8
DIM
 10
132.21576063392189
 20
198.4045354732921
 30
0.0
 11
132.21576063392189
 21
170.7543799314459
 31
0.0
  0
LINE
  5
DB3
  8
DIM
 10
114.2157606339217
 20
174.7543799314459
 30
0.0
 11
108.2157606339217
 21
174.7543799314459
 31
0.0
  0
LINE
  5
DB4
  8
DIM
 10
138.215760633922
 20
174.7543799314459
 30
0.0
 11
144.215760633922
 21
174.7543799314459
 31
0.0
  0
TEXT
  5
DB5
  8
0
 10
121.9300463482076
 20
155.7543799314459
 30
0.0
 40
6.0
  1
12
  7
CHINESET
  0
LINE
  5
DB6
  8
DIM
 10
120.2157606339217
 20
174.7543799314459
 30
0.0
 11
132.21576063392189
 21
174.7543799314459
 31
0.0
  0
SOLID
  5
DB7
  8
DIM
 10
114.2157606339217
 20
175.7543799314459
 30
0.0
 11
114.2157606339217
 21
173.7543799314459
 31
0.0
 12
120.2157606339217
 22
174.7543799314459
 32
0.0
 13
120.2157606339217
 23
174.7543799314459
 33
0.0
  0
SOLID
  5
DB8
  8
DIM
 10
138.215760633922
 20
175.7543799314459
 30
0.0
 11
138.215760633922
 21
173.7543799314459
 31
0.0
 12
132.21576063392189
 22
174.7543799314459
 32
0.0
 13
132.21576063392189
 23
174.7543799314459
 33
0.0
  0
POINT
  5
DB9
  8
DEFPOINTS
 62
     0
 10
120.2157606339217
 20
202.4045354732921
 30
0.0
  0
POINT
  5
DBA
  8
DEFPOINTS
 62
     0
 10
132.21576063392189
 20
202.4045354732921
 30
0.0
  0
POINT
  5
DBB
  8
DEFPOINTS
 62
     0
 10
132.21576063392189
 20
174.7543799314459
 30
0.0
  0
ENDBLK
  5
C82
  8
0
  0
BLOCK
  8
0
  2
*D21
 70
     1
 10
0.0
 20
0.0
 30
0.0
  3
*D21
  1

  0
LINE
  5
DBC
  8
DIM
 10
122.2157606339217
 20
197.4045354732921
 30
0.0
 11
98.388594881601577
 21
197.4045354732921
 31
0.0
  0
LINE
  5
DBD
  8
DIM
 10
121.2157606339217
 20
213.40453547329221
 30
0.0
 11
98.388594881601577
 21
213.40453547329221
 31
0.0
  0
LINE
  5
DBE
  8
DIM
 10
102.38859488160151
 20
203.4045354732921
 30
0.0
 11
102.38859488160151
 21
207.40453547329221
 31
0.0
  0
SOLID
  5
DBF
  8
DIM
 10
101.38859488160151
 20
203.4045354732921
 30
0.0
 11
103.38859488160151
 21
203.4045354732921
 31
0.0
 12
102.38859488160151
 22
197.4045354732921
 32
0.0
 13
102.38859488160151
 23
197.4045354732921
 33
0.0
  0
SOLID
  5
DC0
  8
DIM
 10
101.38859488160151
 20
207.40453547329221
 30
0.0
 11
103.38859488160151
 21
207.40453547329221
 31
0.0
 12
102.38859488160151
 22
213.40453547329221
 32
0.0
 13
102.38859488160151
 23
213.40453547329221
 33
0.0
  0
TEXT
  5
DC1
  8
0
 10
100.38859488160151
 20
201.26167833043499
 30
0.0
 40
6.0
  1
16
 50
90.0
  7
CHINESET
  0
POINT
  5
DC2
  8
DEFPOINTS
 62
     0
 10
126.2157606339217
 20
197.4045354732921
 30
0.0
  0
POINT
  5
DC3
  8
DEFPOINTS
 62
     0
 10
125.2157606339217
 20
213.40453547329221
 30
0.0
  0
POINT
  5
DC4
  8
DEFPOINTS
 62
     0
 10
102.38859488160151
 20
213.40453547329221
 30
0.0
  0
ENDBLK
  5
C8F
  8
0
  0
BLOCK
  8
0
  2
*D22
 70
     1
 10
0.0
 20
0.0
 30
0.0
  3
*D22
  1

  0
LINE
  5
DC5
  8
DIM
 10
512.79617636489127
 20
274.60007114444102
 30
0.0
 11
512.79617636489127
 21
335.71815116546207
 31
0.0
  0
LINE
  5
DC6
  8
DIM
 10
441.79617636489161
 20
313.62332621911952
 30
0.0
 11
441.79617636489161
 21
335.71815116546207
 31
0.0
  0
LINE
  5
DC7
  8
DIM
 10
506.79617636489138
 20
331.71815116546207
 30
0.0
 11
447.79617636489161
 21
331.71815116546207
 31
0.0
  0
SOLID
  5
DC8
  8
DIM
 10
506.79617636489138
 20
332.71815116546219
 30
0.0
 11
506.79617636489138
 21
330.71815116546219
 31
0.0
 12
512.79617636489127
 22
331.71815116546207
 32
0.0
 13
512.79617636489127
 23
331.71815116546207
 33
0.0
  0
SOLID
  5
DC9
  8
DIM
 10
447.79617636489161
 20
332.71815116546219
 30
0.0
 11
447.79617636489161
 21
330.71815116546219
 31
0.0
 12
441.79617636489161
 22
331.71815116546207
 32
0.0
 13
441.79617636489161
 23
331.71815116546207
 33
0.0
  0
TEXT
  5
DCA
  8
0
 10
473.72474779346288
 20
333.71815116546207
 30
0.0
 40
6.0
  1
71
  7
CHINESET
  0
POINT
  5
DCB
  8
DEFPOINTS
 62
     0
 10
512.79617636489127
 20
270.60007114444102
 30
0.0
  0
POINT
  5
DCC
  8
DEFPOINTS
 62
     0
 10
441.79617636489161
 20
309.62332621911952
 30
0.0
  0
POINT
  5
DCD
  8
DEFPOINTS
 62
     0
 10
441.79617636489161
 20
331.71815116546207
 30
0.0
  0
ENDBLK
  5
C9C
  8
0
  0
BLOCK
  8
0
  2
*D23
 70
     1
 10
0.0
 20
0.0
 30
0.0
  3
*D23
  1

  0
LINE
  5
DCE
  8
DIM
 10
512.79617636489127
 20
189.10007114444079
 30
0.0
 11
512.79617636489127
 21
176.74011301621431
 31
0.0
  0
LINE
  5
DCF
  8
DIM
 10
502.79617636489138
 20
189.10007114444079
 30
0.0
 11
502.79617636489138
 21
176.74011301621431
 31
0.0
  0
LINE
  5
DD0
  8
DIM
 10
518.79617636489127
 20
180.74011301621431
 30
0.0
 11
524.79617636489127
 21
180.74011301621431
 31
0.0
  0
LINE
  5
DD1
  8
DIM
 10
496.79617636489132
 20
180.74011301621431
 30
0.0
 11
490.79617636489138
 21
180.74011301621431
 31
0.0
  0
TEXT
  5
DD2
  8
0
 10
503.5104620791771
 20
161.74011301621431
 30
0.0
 40
6.0
  1
10
  7
CHINESET
  0
LINE
  5
DD3
  8
DIM
 10
512.79617636489127
 20
180.74011301621431
 30
0.0
 11
502.79617636489138
 21
180.74011301621431
 31
0.0
  0
SOLID
  5
DD4
  8
DIM
 10
518.79617636489127
 20
181.74011301621431
 30
0.0
 11
518.79617636489127
 21
179.74011301621431
 31
0.0
 12
512.79617636489127
 22
180.74011301621431
 32
0.0
 13
512.79617636489127
 23
180.74011301621431
 33
0.0
  0
SOLID
  5
DD5
  8
DIM
 10
496.79617636489132
 20
181.74011301621431
 30
0.0
 11
496.79617636489132
 21
179.74011301621431
 31
0.0
 12
502.79617636489138
 22
180.74011301621431
 32
0.0
 13
502.79617636489138
 23
180.74011301621431
 33
0.0
  0
POINT
  5
DD6
  8
DEFPOINTS
 62
     0
 10
512.79617636489127
 20
193.10007114444079
 30
0.0
  0
POINT
  5
DD7
  8
DEFPOINTS
 62
     0
 10
502.79617636489138
 20
193.10007114444079
 30
0.0
  0
POINT
  5
DD8
  8
DEFPOINTS
 62
     0
 10
502.79617636489138
 20
180.74011301621431
 30
0.0
  0
ENDBLK
  5
CA9
  8
0
  0
BLOCK
  8
0
  2
*D24
 70
     1
 10
0.0
 20
0.0
 30
0.0
  3
*D24
  1

  0
LINE
  5
DD9
  8
DIM
 10
452.29617636489138
 20
299.8500711444409
 30
0.0
 11
535.40803059759367
 21
299.8500711444409
 31
0.0
  0
LINE
  5
DDA
  8
DIM
 10
516.79617636489127
 20
254.85007114444079
 30
0.0
 11
535.40803059759355
 21
254.85007114444079
 31
0.0
  0
LINE
  5
DDB
  8
DIM
 10
531.40803059759367
 20
293.85007114444079
 30
0.0
 11
531.40803059759367
 21
260.85007114444079
 31
0.0
  0
SOLID
  5
DDC
  8
DIM
 10
530.40803059759367
 20
293.85007114444079
 30
0.0
 11
532.40803059759378
 21
293.85007114444079
 31
0.0
 12
531.40803059759367
 22
299.8500711444409
 32
0.0
 13
531.40803059759367
 23
299.8500711444409
 33
0.0
  0
SOLID
  5
DDD
  8
DIM
 10
530.40803059759367
 20
260.85007114444079
 30
0.0
 11
532.40803059759378
 21
260.85007114444079
 31
0.0
 12
531.40803059759355
 22
254.85007114444079
 32
0.0
 13
531.40803059759355
 23
254.85007114444079
 33
0.0
  0
TEXT
  5
DDE
  8
0
 10
529.40803059759367
 20
272.49292828729813
 30
0.0
 40
6.0
  1
45
 50
90.0
  7
CHINESET
  0
POINT
  5
DDF
  8
DEFPOINTS
 62
     0
 10
448.29617636489138
 20
299.8500711444409
 30
0.0
  0
POINT
  5
DE0
  8
DEFPOINTS
 62
     0
 10
512.79617636489127
 20
254.85007114444079
 30
0.0
  0
POINT
  5
DE1
  8
DEFPOINTS
 62
     0
 10
531.40803059759355
 20
254.85007114444079
 30
0.0
  0
ENDBLK
  5
CB6
  8
0
  0
BLOCK
  8
0
  2
*D25
 70
     1
 10
0.0
 20
0.0
 30
0.0
  3
*D25
  1

  0
LINE
  5
DE2
  8
DIM
 10
486.79617636489161
 20
240.6000711444409
 30
0.0
 11
486.79617636489161
 21
309.1828450461461
 31
0.0
  0
LINE
  5
DE3
  8
DIM
 10
396.79617636489121
 20
240.85007114444079
 30
0.0
 11
396.79617636489121
 21
309.1828450461461
 31
0.0
  0
LINE
  5
DE4
  8
DIM
 10
480.79617636489172
 20
305.1828450461461
 30
0.0
 11
402.79617636489121
 21
305.1828450461461
 31
0.0
  0
SOLID
  5
DE5
  8
DIM
 10
480.79617636489172
 20
306.1828450461461
 30
0.0
 11
480.79617636489172
 21
304.1828450461461
 31
0.0
 12
486.79617636489161
 22
305.1828450461461
 32
0.0
 13
486.79617636489161
 23
305.1828450461461
 33
0.0
  0
SOLID
  5
DE6
  8
DIM
 10
402.79617636489121
 20
306.1828450461461
 30
0.0
 11
402.79617636489121
 21
304.1828450461461
 31
0.0
 12
396.79617636489121
 22
305.1828450461461
 32
0.0
 13
396.79617636489121
 23
305.1828450461461
 33
0.0
  0
TEXT
  5
DE7
  8
0
 10
436.93903350774849
 20
307.1828450461461
 30
0.0
 40
6.0
  1
90
  7
CHINESET
  0
POINT
  5
DE8
  8
DEFPOINTS
 62
     0
 10
486.79617636489161
 20
236.6000711444409
 30
0.0
  0
POINT
  5
DE9
  8
DEFPOINTS
 62
     0
 10
396.79617636489121
 20
236.85007114444079
 30
0.0
  0
POINT
  5
DEA
  8
DEFPOINTS
 62
     0
 10
396.79617636489121
 20
305.1828450461461
 30
0.0
  0
ENDBLK
  5
CC3
  8
0
  0
BLOCK
  8
0
  2
*D26
 70
     1
 10
0.0
 20
0.0
 30
0.0
  3
*D26
  1

  0
LINE
  5
DEB
  8
DIM
 10
441.79617636489161
 20
303.66803445520281
 30
0.0
 11
441.79617636489161
 21
320.078617983036
 31
0.0
  0
LINE
  5
DEC
  8
DIM
 10
366.29617636489098
 20
288.35007114444079
 30
0.0
 11
366.29617636489098
 21
320.078617983036
 31
0.0
  0
LINE
  5
DED
  8
DIM
 10
435.79617636489161
 20
316.078617983036
 30
0.0
 11
372.29617636489098
 21
316.078617983036
 31
0.0
  0
SOLID
  5
DEE
  8
DIM
 10
435.79617636489161
 20
317.078617983036
 30
0.0
 11
435.79617636489161
 21
315.078617983036
 31
0.0
 12
441.79617636489161
 22
316.078617983036
 32
0.0
 13
441.79617636489161
 23
316.078617983036
 33
0.0
  0
SOLID
  5
DEF
  8
DIM
 10
372.29617636489098
 20
317.078617983036
 30
0.0
 11
372.29617636489098
 21
315.078617983036
 31
0.0
 12
366.29617636489098
 22
316.078617983036
 32
0.0
 13
366.29617636489098
 23
316.078617983036
 33
0.0
  0
TEXT
  5
DF0
  8
0
 10
394.90331922203421
 20
318.078617983036
 30
0.0
 40
6.0
  1
75.5
  7
CHINESET
  0
POINT
  5
DF1
  8
DEFPOINTS
 62
     0
 10
441.79617636489161
 20
299.66803445520281
 30
0.0
  0
POINT
  5
DF2
  8
DEFPOINTS
 62
     0
 10
366.29617636489098
 20
284.3500711444409
 30
0.0
  0
POINT
  5
DF3
  8
DEFPOINTS
 62
     0
 10
366.29617636489098
 20
316.078617983036
 30
0.0
  0
ENDBLK
  5
D18
  8
0
  0
BLOCK
  8
0
  2
*D27
 70
     1
 10
0.0
 20
0.0
 30
0.0
  3
*D27
  1

  0
LINE
  5
DF4
  8
DIM
 10
463.29617636489161
 20
254.85007114444079
 30
0.0
 11
535.40803059759355
 21
254.85007114444079
 31
0.0
  0
LINE
  5
DF5
  8
DIM
 10
448.04617636489132
 20
36.850071144440811
 30
0.0
 11
535.40803059759355
 21
36.85007114444079
 31
0.0
  0
LINE
  5
DF6
  8
DIM
 10
531.40803059759355
 20
248.85007114444079
 30
0.0
 11
531.40803059759355
 21
42.85007114444079
 31
0.0
  0
SOLID
  5
DF7
  8
DIM
 10
530.40803059759355
 20
248.85007114444079
 30
0.0
 11
532.40803059759355
 21
248.85007114444079
 31
0.0
 12
531.40803059759355
 22
254.85007114444079
 32
0.0
 13
531.40803059759355
 23
254.85007114444079
 33
0.0
  0
SOLID
  5
DF8
  8
DIM
 10
530.40803059759355
 20
42.85007114444079
 30
0.0
 11
532.40803059759355
 21
42.85007114444079
 31
0.0
 12
531.40803059759355
 22
36.85007114444079
 32
0.0
 13
531.40803059759355
 23
36.85007114444079
 33
0.0
  0
TEXT
  5
DF9
  8
0
 10
529.40803059759367
 20
138.70721400158371
 30
0.0
 40
6.0
  1
218
 50
90.0
  7
CHINESET
  0
POINT
  5
DFA
  8
DEFPOINTS
 62
     0
 10
459.29617636489161
 20
254.85007114444079
 30
0.0
  0
POINT
  5
DFB
  8
DEFPOINTS
 62
     0
 10
444.04617636489132
 20
36.850071144440811
 30
0.0
  0
POINT
  5
DFC
  8
DEFPOINTS
 62
     0
 10
531.40803059759355
 20
36.85007114444079
 30
0.0
  0
ENDBLK
  5
D25
  8
0
  0
BLOCK
  8
0
  2
*D28
 70
     1
 10
0.0
 20
0.0
 30
0.0
  3
*D28
  1

  0
LINE
  5
DFD
  8
DIM
 10
463.29617636489161
 20
254.85007114444079
 30
0.0
 11
528.12420186957957
 21
254.85007114444079
 31
0.0
  0
LINE
  5
DFE
  8
DIM
 10
519.96714944552855
 20
203.85007114444099
 30
0.0
 11
528.12420186957957
 21
203.85007114444099
 31
0.0
  0
LINE
  5
DFF
  8
DIM
 10
524.12420186957957
 20
248.85007114444079
 30
0.0
 11
524.12420186957957
 21
209.85007114444099
 31
0.0
  0
SOLID
  5
E00
  8
DIM
 10
523.12420186957957
 20
248.85007114444079
 30
0.0
 11
525.12420186957968
 21
248.85007114444079
 31
0.0
 12
524.12420186957957
 22
254.85007114444079
 32
0.0
 13
524.12420186957957
 23
254.85007114444079
 33
0.0
  0
SOLID
  5
E01
  8
DIM
 10
523.12420186957957
 20
209.85007114444099
 30
0.0
 11
525.12420186957968
 21
209.85007114444099
 31
0.0
 12
524.12420186957957
 22
203.85007114444099
 32
0.0
 13
524.12420186957957
 23
203.85007114444099
 33
0.0
  0
TEXT
  5
E02
  8
0
 10
522.12420186957968
 20
225.77864257301229
 30
0.0
 40
6.0
  1
51
 50
90.0
  7
CHINESET
  0
POINT
  5
E03
  8
DEFPOINTS
 62
     0
 10
459.29617636489161
 20
254.85007114444079
 30
0.0
  0
POINT
  5
E04
  8
DEFPOINTS
 62
     0
 10
515.96714944552855
 20
203.85007114444099
 30
0.0
  0
POINT
  5
E05
  8
DEFPOINTS
 62
     0
 10
524.12420186957957
 20
203.85007114444099
 30
0.0
  0
ENDBLK
  5
D3B
  8
0
  0
ENDSEC
  0
SECTION
  2
ENTITIES
  0
TEXT
  5
CE
  8
0
 10
1390.4569001914119
 20
-140.00075349713379
 30
0.0
 40
3.0
  1
 
  7
DAYUS
  0
TEXT
  5
D3
  8
0
 10
1342.7288216149991
 20
-143.71846552225301
 30
0.0
 40
3.0
  1
 
  7
DAYUS
  0
TEXT
  5
1A3
  8
0
 10
1790.901573512263
 20
-310.57674813391912
 30
0.0
 40
3.0
  1
 
  7
DAYUS
  0
TEXT
  5
372
  8
0
 10
756.88111784880209
 20
226.03487389247491
 30
0.0
 40
3.0
  1
 
  7
DAYUS
  0
TEXT
  5
373
  8
0
 10
1242.94032499387
 20
354.4976280954009
 30
0.0
 40
3.0
  1
 
  7
DAYUS
  0
POLYLINE
  5
519
  8
0
 62
     4
 66
     1
 10
0.0
 20
0.0
 30
0.0
 70
     1
  0
VERTEX
  5
E0A
  8
0
 62
     4
 10
-19.2425060830817
 20
385.74664222026712
 30
0.0
  0
VERTEX
  5
E0B
  8
0
 62
     4
 10
558.13155329321557
 20
385.74664222026712
 30
0.0
  0
VERTEX
  5
E0C
  8
0
 62
     4
 10
558.13155329321557
 20
16.109714084214708
 30
0.0
  0
VERTEX
  5
E0D
  8
0
 62
     4
 10
-19.2425060830817
 20
16.109714084214708
 30
0.0
  0
SEQEND
  5
E0E
  8
0
 62
     4
  0
TEXT
  5
51E
  8
LOGO
 62
     6
 10
493.08680729609267
 20
-58.02472016219857
 30
0.0
 40
13.478988044802399
  1
配管口徑
 41
0.9
  7
CHINESET
 72
     4
 11
517.47535128965706
 21
-51.285226139797373
 31
0.0
  0
LINE
  5
51F
  8
LOGO
 62
     6
 10
552.28217271456333
 20
-76.558328723801765
 30
0.0
 11
482.66852986475089
 21
-76.558328723801864
 31
0.0
  0
LINE
  5
520
  8
LOGO
 62
     6
 10
552.28217271456333
 20
-39.491111600595168
 30
0.0
 11
482.66852986475089
 21
-39.491111600595168
 31
0.0
  0
TEXT
  5
521
  8
LOGO
  6
CONTINUOUS
 62
     6
 10
494.36851464142433
 20
-72.346144959801137
 30
0.0
 40
8.4243675280014987
  1
Bore size
 41
0.8
  7
CHINESET
 72
     4
 11
517.47535128965706
 21
-68.133961195800381
 31
0.0
  0
TEXT
  5
522
  8
LOGO
  6
CONTINUOUS
 62
     7
 10
505.40844814068328
 20
-17.77882174501196
 30
0.0
 40
16.84873505600299
  1
?A
  7
CHINESET
 72
     1
 11
519.04790032887615
 21
-9.3544542170104599
 31
0.0
 73
     2
  0
LINE
  5
523
  8
LOGO
 62
     6
 10
545.54267869216187
 20
6.0004730506129169
 30
0.0
 11
489.40802388715213
 21
6.0004730506129169
 31
0.0
  0
LINE
  5
524
  8
LOGO
 62
     6
 10
545.54267869216187
 20
-24.327250050192511
 30
0.0
 11
489.40802388715213
 21
-24.327250050192472
 31
0.0
  0
LINE
  5
525
  8
LOGO
 62
     1
 10
558.13155329321557
 20
16.109714084214708
 30
0.0
 11
-19.2425060830817
 21
16.109714084214708
 31
0.0
  0
LINE
  5
526
  8
LOGO
 62
     1
 10
558.13155329321557
 20
-84.982696251803276
 30
0.0
 11
-19.2425060830817
 21
-84.982696251803276
 31
0.0
  0
LINE
  5
527
  8
LOGO
  6
CONTINUOUS
 62
     6
 10
172.9689683679118
 20
-10.757282200685481
 30
0.0
 11
191.370025843615
 21
-8.3267219872217861
 31
0.0
  0
LINE
  5
528
  8
LOGO
  6
CONTINUOUS
 62
     6
 10
172.9689683679118
 20
-17.635488351399019
 30
0.0
 11
191.370025843615
 21
-20.06604856486274
 31
0.0
  0
LINE
  5
529
  8
LOGO
 62
     1
 10
203.16079665615769
 20
-4.108767982988879
 30
0.0
 11
54.891928163331499
 21
-4.108767982988879
 31
0.0
  0
LINE
  5
52A
  8
LOGO
 62
     1
 10
203.16079665615769
 20
-24.327250050192472
 30
0.0
 11
54.891928163331499
 21
-24.327250050192472
 31
0.0
  0
TEXT
  5
52B
  8
LOGO
 62
     6
 10
150.93138486229799
 20
0.945852533812019
 30
0.0
 40
10.109241033601791
  1
1 : 1
  7
CHINESET
 72
     1
 11
168.742904778644
 21
6.0004730506129169
 31
0.0
 73
     2
  0
TEXT
  5
52C
  8
LOGO
 62
     6
 10
150.93138486229799
 20
-39.491111600595168
 30
0.0
 40
10.109241033601791
  1
m/m
  7
CHINESET
 72
     1
 11
168.742904778644
 21
-34.43649108379428
 31
0.0
 73
     2
  0
LINE
  5
52D
  8
LOGO
 62
     1
 10
203.16079665615769
 20
-44.54573211739595
 30
0.0
 11
-19.24250608308186
 21
-44.54573211739595
 31
0.0
  0
TEXT
  5
52E
  8
LOGO
  6
CONTINUOUS
 62
     5
 10
-15.93358080728483
 20
-65.123244803041885
 30
0.0
 40
15.1638615504027
  1
金器工業股份有限公司
 41
0.8
  7
LOGO
  0
TEXT
  5
52F
  8
LOGO
  6
CONTINUOUS
 62
     5
 10
-11.591565456173949
 20
-80.29007728141579
 30
0.0
 40
10.109241033601791
  1
MINDMAN INDUSTRIAL CO.,LTD
 41
0.85
  7
CHINESET
  0
SOLID
  5
530
  8
LOGO
 62
     5
 10
-8.7540062697405361
 20
-27.74055783618422
 30
0.0
 11
-4.3830357132961133
 21
-27.740557836185669
 31
0.0
 12
13.85446212566416
 22
13.70830088872321
 32
0.0
 13
18.225432682108341
 23
13.708300888720331
 33
0.0
  0
SOLID
  5
531
  8
LOGO
 62
     5
 10
-2.574358241661141
 20
-27.74055783618422
 30
0.0
 11
1.796612314782962
 21
-27.74055783618422
 31
0.0
 12
18.225432682108341
 22
10.39239219072911
 32
0.0
 13
13.85446212566416
 23
-5.634499849568936
 33
0.0
  0
SOLID
  5
532
  8
LOGO
 62
     2
 10
-4.3830357132961133
 20
-27.740557836185669
 30
0.0
 11
-2.574358241661141
 21
-27.74055783618422
 31
0.0
 12
18.225432682108341
 22
13.708300888720331
 32
0.0
 13
20.03411015374197
 23
13.708300888720331
 33
0.0
  0
SOLID
  5
533
  8
LOGO
 62
     5
 10
-4.2583206184098801
 20
-35.2767139679857
 30
0.0
 11
-2.7510893920512229
 21
-35.2767139679857
 31
0.0
 12
-4.2583206184098801
 22
-42.812870099785762
 32
0.0
 13
-2.7510893920512229
 23
-42.812870099785762
 33
0.0
  0
SOLID
  5
534
  8
LOGO
 62
     5
 10
-15.76174396500096
 20
-42.812870099785762
 30
0.0
 11
-14.254512738639111
 21
-42.812870099785762
 31
0.0
 12
-10.01003229170637
 22
-35.2767139679857
 32
0.0
 13
-8.5028010653472403
 23
-35.2767139679857
 33
0.0
  0
SOLID
  5
535
  8
LOGO
 62
     5
 10
-10.01003229170637
 20
-35.2767139679857
 30
0.0
 11
-8.5028010653472403
 21
-35.2767139679857
 31
0.0
 12
-10.01003229170637
 22
-42.812870099785762
 32
0.0
 13
-8.5028010653472403
 23
-42.812870099785762
 33
0.0
  0
SOLID
  5
536
  8
LOGO
 62
     5
 10
-10.01003229170637
 20
-42.812870099785762
 30
0.0
 11
-8.5028010653472403
 21
-42.812870099785762
 31
0.0
 12
-4.2583206184098801
 22
-35.2767139679857
 32
0.0
 13
-2.7510893920512229
 23
-35.2767139679857
 33
0.0
  0
LINE
  5
537
  8
LOGO
 62
     1
 10
-19.2425060830817
 20
-84.982696251803276
 30
0.0
 11
-19.2425060830817
 21
16.109714084214708
 31
0.0
  0
TEXT
  5
538
  8
LOGO
 62
     6
 10
63.22753896202012
 20
0.9508275540057216
 30
0.0
 40
10.109241033601791
  1
比例 Scale:
 41
0.9
  7
CHINESET
 72
     4
 11
95.328892297738705
 21
6.0004730506129169
 31
0.0
  0
TEXT
  5
539
  8
LOGO
 62
     6
 10
66.761260269747908
 20
-19.13042687285494
 30
0.0
 40
10.109241033601791
  1
投影 View:
 41
0.9
  7
CHINESET
 72
     4
 11
95.328892297738705
 21
-14.218009016590679
 31
0.0
  0
TEXT
  5
53A
  8
LOGO
 62
     6
 10
67.749619102943782
 20
-39.491111600595183
 30
0.0
 40
10.109241033601791
  1
單位 Unit:
 41
0.9
  7
CHINESET
 72
     4
 11
95.328892297738705
 21
-34.43649108379428
 31
0.0
  0
POLYLINE
  5
53B
  8
LOGO
 62
     5
 66
     1
 10
0.0
 20
0.0
 30
0.0
 70
     1
 40
1.509646661017868
 41
1.509646661017868
  0
VERTEX
  5
E0F
  8
LOGO
 62
     5
 10
32.438916863539433
 20
-39.044792033886473
 30
0.0
 42
1.0
  0
VERTEX
  5
E10
  8
LOGO
 62
     5
 10
38.477503507610813
 20
-39.044792033886473
 30
0.0
 42
1.0
  0
SEQEND
  5
E11
  8
LOGO
 62
     5
  0
LINE
  5
53C
  8
LOGO
 62
     5
 10
47.013549105589107
 20
-42.812870099785762
 30
0.0
 11
47.013549105589107
 21
-38.291176420706329
 31
0.0
  0
SOLID
  5
53D
  8
LOGO
 62
     5
 10
37.718906301996263
 20
-35.2767139679857
 30
0.0
 11
39.226137528355231
 21
-35.2767139679857
 31
0.0
 12
37.718906301996263
 22
-42.812870099785762
 32
0.0
 13
39.226137528355231
 23
-42.812870099785762
 33
0.0
  0
SOLID
  5
53E
  8
LOGO
 62
     5
 10
40.984624200147941
 20
-42.812870099785762
 30
0.0
 11
42.491855426509552
 21
-42.812870099785762
 31
0.0
 12
40.984624200147941
 22
-35.2767139679857
 32
0.0
 13
42.491855426509552
 23
-35.2767139679857
 33
0.0
  0
SOLID
  5
53F
  8
LOGO
 62
     5
 10
45.506317879230373
 20
-38.291176420706329
 30
0.0
 11
47.013549105589107
 21
-38.291176420706527
 31
0.0
 12
45.506317879230373
 22
-42.812870099785762
 32
0.0
 13
47.013549105589107
 23
-42.812870099785762
 33
0.0
  0
SOLID
  5
540
  8
LOGO
 62
     5
 10
16.115158242082991
 20
-33.015867128444569
 30
0.0
 11
17.622389468441732
 21
-33.015867128444569
 31
0.0
 12
16.115158242082991
 22
-42.812870099785762
 32
0.0
 13
17.622389468441732
 23
-42.812870099785762
 33
0.0
  0
SOLID
  5
541
  8
LOGO
 62
     5
 10
19.380876140238811
 20
-35.2767139679857
 30
0.0
 11
20.88810736659779
 21
-35.2767139679857
 31
0.0
 12
19.380876140238811
 22
-42.812870099785762
 32
0.0
 13
20.88810736659779
 23
-42.812870099785762
 33
0.0
  0
SOLID
  5
542
  8
LOGO
 62
     5
 10
23.902569819318369
 20
-38.291176420706329
 30
0.0
 11
25.40980104567727
 21
-38.291176420706329
 31
0.0
 12
23.902569819318369
 22
-42.812870099785762
 32
0.0
 13
25.40980104567727
 23
-42.812870099785762
 33
0.0
  0
SOLID
  5
543
  8
LOGO
 62
     5
 10
28.424263498398091
 20
-38.291176420706329
 30
0.0
 11
29.931494724756821
 21
-38.291176420706329
 31
0.0
 12
28.424263498398091
 22
-42.812870099788633
 32
0.0
 13
29.931494724756821
 23
-42.812870099788633
 33
0.0
  0
LINE
  5
544
  8
LOGO
 62
     1
 10
54.891928163331499
 20
-44.545732117396071
 30
0.0
 11
54.891928163331499
 21
16.109714084214708
 31
0.0
  0
SOLID
  5
545
  8
LOGO
 62
     5
 10
2.2988217594065392
 20
-35.2767139679857
 30
0.0
 11
3.806052985765358
 21
-35.2767139679857
 31
0.0
 12
2.2988217594065392
 22
-42.812870099785762
 32
0.0
 13
3.806052985765358
 23
-42.812870099785762
 33
0.0
  0
SOLID
  5
546
  8
LOGO
 62
     5
 10
6.8205154384856987
 20
-38.291176420706329
 30
0.0
 11
8.3277466648473801
 21
-38.291176420706329
 31
0.0
 12
6.8205154384856987
 22
-42.812870099785762
 32
0.0
 13
8.3277466648473801
 23
-42.812870099785762
 33
0.0
  0
SOLID
  5
547
  8
LOGO
 62
     5
 10
-0.9668961387497603
 20
-35.2767139679857
 30
0.0
 11
0.5403350876135136
 21
-35.2767139679857
 31
0.0
 12
-0.9668961387497603
 22
-42.812870099788633
 32
0.0
 13
0.5403350876135136
 23
-42.812870099785762
 33
0.0
  0
POLYLINE
  5
548
  8
LOGO
 62
     5
 66
     1
 10
0.0
 20
0.0
 30
0.0
 70
     1
 40
1.509646661017868
 41
1.509646661017868
  0
VERTEX
  5
E12
  8
LOGO
 62
     5
 10
10.835168803627459
 20
-39.044792033886473
 30
0.0
 42
1.0
  0
VERTEX
  5
E13
  8
LOGO
 62
     5
 10
16.87375544769904
 20
-39.044792033886473
 30
0.0
 42
1.0
  0
SEQEND
  5
E14
  8
LOGO
 62
     5
  0
POLYLINE
  5
549
  8
LOGO
 62
     5
 66
     1
 10
0.0
 20
0.0
 30
0.0
 40
1.509646661017868
 41
1.509646661017868
  0
VERTEX
  5
E15
  8
LOGO
 62
     5
 10
46.263556644396921
 20
-38.291176420706307
 30
0.0
 42
1.0
  0
VERTEX
  5
E16
  8
LOGO
 62
     5
 10
41.734616661343154
 20
-38.291176420706307
 30
0.0
 42
1.0
  0
SEQEND
  5
E17
  8
LOGO
 62
     5
  0
SOLID
  5
54A
  8
LOGO
 62
     5
 10
42.642578549144993
 20
-27.740557836185669
 30
0.0
 11
47.013549105589107
 21
-27.740557836185669
 31
0.0
 12
42.642578549144993
 22
13.708300888720331
 32
0.0
 13
47.013549105589107
 23
13.70830088872321
 33
0.0
  0
SOLID
  5
54B
  8
LOGO
 62
     5
 10
20.03411015374197
 20
13.708300888720331
 30
0.0
 11
24.405080710185828
 21
13.70830088872321
 31
0.0
 12
20.03411015374197
 22
-24.42464913819299
 32
0.0
 13
24.405080710185828
 23
-8.3977570978949352
 33
0.0
  0
SOLID
  5
54C
  8
LOGO
 62
     5
 10
20.03411015374197
 20
-24.42464913819299
 30
0.0
 11
24.405080710185828
 21
-8.3977570978949352
 31
0.0
 12
40.833901077511378
 22
13.70830088872321
 32
0.0
 13
36.46293052106688
 23
13.70830088872321
 33
0.0
  0
SOLID
  5
54D
  8
LOGO
 62
     5
 10
40.833901077511378
 20
10.39239219072911
 30
0.0
 11
36.46293052106688
 21
-5.634499849568936
 31
0.0
 12
40.833901077511378
 22
-27.740557836185669
 32
0.0
 13
36.46293052106688
 23
-27.740557836185669
 33
0.0
  0
SOLID
  5
54E
  8
LOGO
 62
     2
 10
40.833901077511378
 20
13.70830088872321
 30
0.0
 11
42.642578549144993
 21
13.708300888720331
 31
0.0
 12
40.833901077511378
 22
-27.740557836185669
 32
0.0
 13
42.642578549144993
 23
-27.740557836185669
 33
0.0
  0
SOLID
  5
54F
  8
LOGO
 62
     5
 10
13.85446212566416
 20
-27.74055783618422
 30
0.0
 11
18.225432682108341
 21
-27.74055783618422
 31
0.0
 12
13.85446212566416
 22
-5.634499849568936
 32
0.0
 13
18.225432682108341
 23
10.39239219072911
 33
0.0
  0
SOLID
  5
550
  8
LOGO
 62
     2
 10
18.225432682108341
 20
13.708300888720331
 30
0.0
 11
20.03411015374197
 21
13.708300888720331
 31
0.0
 12
18.225432682108341
 22
-27.74055783618422
 32
0.0
 13
20.03411015374197
 23
-27.74055783618422
 33
0.0
  0
SOLID
  5
551
  8
LOGO
 62
     5
 10
20.03411015374197
 20
-27.74055783618422
 30
0.0
 11
24.405080710185828
 21
-27.74055783618422
 31
0.0
 12
40.833901077511378
 22
10.39239219072911
 32
0.0
 13
36.46293052106688
 23
-5.634499849568936
 33
0.0
  0
SOLID
  5
552
  8
LOGO
 62
     2
 10
18.225432682108341
 20
-27.74055783618422
 30
0.0
 11
20.03411015374197
 21
-27.74055783618422
 31
0.0
 12
40.833901077511378
 22
13.70830088872321
 32
0.0
 13
42.642578549144993
 23
13.708300888720331
 33
0.0
  0
POLYLINE
  5
553
  8
LOGO
 62
     5
 66
     1
 10
0.0
 20
0.0
 30
0.0
 40
1.509646661017868
 41
1.509646661017868
  0
VERTEX
  5
E18
  8
LOGO
 62
     5
 10
24.659808584484949
 20
-38.291176420706307
 30
0.0
 42
1.0
  0
VERTEX
  5
E19
  8
LOGO
 62
     5
 10
20.130868601431171
 20
-38.291176420706307
 30
0.0
 42
1.0
  0
SEQEND
  5
E1A
  8
LOGO
 62
     5
  0
POLYLINE
  5
554
  8
LOGO
 62
     5
 66
     1
 10
0.0
 20
0.0
 30
0.0
 40
1.509646661017868
 41
1.509646661017868
  0
VERTEX
  5
E1B
  8
LOGO
 62
     5
 10
7.5777542036527006
 20
-38.291176420706307
 30
0.0
 42
1.0
  0
VERTEX
  5
E1C
  8
LOGO
 62
     5
 10
3.048814220598925
 20
-38.291176420706307
 30
0.0
 42
1.0
  0
SEQEND
  5
E1D
  8
LOGO
 62
     5
  0
SOLID
  5
555
  8
LOGO
 62
     5
 10
-0.9668961387497603
 20
-34.221652109534212
 30
0.0
 11
0.5403350876135136
 21
-34.221652109534212
 31
0.0
 12
-0.9668961387497603
 22
-33.015867128444569
 32
0.0
 13
0.5403350876135136
 23
-33.015867128444569
 33
0.0
  0
POLYLINE
  5
556
  8
LOGO
 62
     5
 66
     1
 10
0.0
 20
0.0
 30
0.0
 70
     1
  0
VERTEX
  5
E1E
  8
LOGO
 62
     5
 10
33.197363346035353
 20
-39.044792033885749
 30
0.0
 42
1.0000000573306349
  0
VERTEX
  5
E1F
  8
LOGO
 62
     5
 10
37.719057025116811
 20
-39.044792033885749
 30
0.0
 42
1.0000000573306349
  0
SEQEND
  5
E20
  8
LOGO
 62
     5
  0
CIRCLE
  5
557
  8
LOGO
 62
     5
 10
35.458210185576
 20
-39.044792033885749
 30
0.0
 40
2.2608468395403598
  0
POLYLINE
  5
558
  8
LOGO
 62
     5
 66
     1
 10
0.0
 20
0.0
 30
0.0
 40
1.509646661017868
 41
1.509646661017868
  0
VERTEX
  5
E21
  8
LOGO
 62
     5
 10
29.181502263564472
 20
-38.291176420706307
 30
0.0
 42
1.0
  0
VERTEX
  5
E22
  8
LOGO
 62
     5
 10
24.652562280510711
 20
-38.291176420706307
 30
0.0
 42
1.0
  0
SEQEND
  5
E23
  8
LOGO
 62
     5
  0
LINE
  5
559
  8
LOGO
 62
     1
 10
135.7658564321458
 20
-44.545732117396071
 30
0.0
 11
135.7658564321458
 21
16.109714084214708
 31
0.0
  0
CIRCLE
  5
55A
  8
LOGO
  6
CONTINUOUS
 62
     6
 10
154.48438064974019
 20
-14.196385276042269
 30
0.0
 40
5.8696632888204769
  0
CIRCLE
  5
55B
  8
LOGO
  6
CONTINUOUS
 62
     6
 10
154.48438064974019
 20
-14.196385276042269
 30
0.0
 40
3.4391030753567802
  0
LINE
  5
55C
  8
LOGO
 62
     6
 10
172.96896836791191
 20
-17.63548835139904
 30
0.0
 11
172.9689683679118
 21
-10.75728220068544
 31
0.0
  0
TEXT
  5
55D
  8
LOGO
  6
CONTINUOUS
 62
     6
 10
387.57611191687619
 20
-72.346144959801023
 30
0.0
 40
8.4243675280014987
  1
Model
  7
CHINESET
 72
     4
 11
403.62252625592669
 21
-68.133961195800254
 31
0.0
  0
TEXT
  5
55E
  8
LOGO
  6
CONTINUOUS
 62
     7
 10
346.86234872500683
 20
-17.587756027791269
 30
0.0
 40
16.84873505600299
  1
MACT500
  7
CHINESET
 72
     1
 11
402.62363855320717
 21
-9.1633884997897717
 31
0.0
 73
     2
  0
LINE
  5
55F
  8
LOGO
 62
     6
 10
465.03613214744098
 20
6.0004730506129169
 30
0.0
 11
342.20892036441239
 21
6.0004730506129169
 31
0.0
  0
LINE
  5
560
  8
LOGO
 62
     6
 10
465.03613214744098
 20
-24.327250050192472
 30
0.0
 11
342.20892036441239
 21
-24.327250050192472
 31
0.0
  0
LINE
  5
561
  8
LOGO
 62
     6
 10
437.31999636793267
 20
-39.491111600595168
 30
0.0
 11
369.92505614392081
 21
-39.491111600595168
 31
0.0
  0
LINE
  5
562
  8
LOGO
 62
     6
 10
437.31999636793267
 20
-76.558328723801793
 30
0.0
 11
369.92505614392081
 21
-76.558328723801864
 31
0.0
  0
TEXT
  5
563
  8
LOGO
 62
     7
 10
211.43570460165739
 20
-9.2015263426429357
 30
0.0
 40
20.218482067203588
  1
訂購代號:
  7
CHINESET
  0
TEXT
  5
564
  8
LOGO
 62
     7
 10
209.01746267972399
 20
-28.17715064963879
 30
0.0
 40
13.478988044802399
  1
Order example:
 41
0.8
  7
CHINESET
  0
LINE
  5
565
  8
LOGO
 62
     1
 10
203.16079665615769
 20
-84.982696251803276
 30
0.0
 11
203.16079665615769
 21
16.109714084214708
 31
0.0
  0
LINE
  5
566
  8
LOGO
 62
     6
 10
191.370025843615
 20
-20.06604856486274
 30
0.0
 11
191.370025843615
 21
-8.3267219872217861
 31
0.0
  0
LINE
  5
567
  8
LOGO
 62
     6
 10
369.92505614392081
 20
-39.491111600595168
 30
0.0
 11
369.92505614392081
 21
-76.558328723801864
 31
0.0
  0
LINE
  5
568
  8
LOGO
 62
     6
 10
342.20892036441239
 20
6.0004730506129169
 30
0.0
 11
342.20892036441239
 21
-24.327250050192472
 31
0.0
  0
LINE
  5
569
  8
LOGO
 62
     6
 10
437.31999636793267
 20
-39.491111600595168
 30
0.0
 11
437.31999636793267
 21
-76.558328723801765
 31
0.0
  0
TEXT
  5
56A
  8
LOGO
 62
     6
 10
390.14353821112428
 20
-57.679785428768483
 30
0.0
 40
13.478988044802399
  1
型式
  7
CHINESET
 72
     4
 11
403.62252625592669
 21
-51.285226139797267
 31
0.0
  0
LINE
  5
56B
  8
LOGO
 62
     6
 10
403.62252625592669
 20
-24.327250050192472
 30
0.0
 11
403.62252625592669
 21
-39.491111600595168
 31
0.0
  0
LINE
  5
56C
  8
LOGO
 62
     6
 10
465.03613214744109
 20
6.0004730506129169
 30
0.0
 11
465.03613214744109
 21
-24.327250050192472
 31
0.0
  0
LINE
  5
56D
  8
LOGO
 62
     6
 10
482.66852986475089
 20
-39.491111600595168
 30
0.0
 11
482.66852986475089
 21
-76.558328723801864
 31
0.0
  0
LINE
  5
56E
  8
LOGO
  6
CONTINUOUS
 62
     7
 10
470.77169666115498
 20
-9.2708140879256185
 30
0.0
 11
484.16331257302699
 21
-9.2708140879256185
 31
0.0
  0
LINE
  5
56F
  8
LOGO
 62
     6
 10
489.4080238871523
 20
6.0004730506129169
 30
0.0
 11
489.40802388715213
 21
-24.327250050192472
 31
0.0
  0
LINE
  5
570
  8
LOGO
 62
     6
 10
518.18903310981636
 20
-24.327250050192472
 30
0.0
 11
518.18903310981636
 21
-39.491111600595168
 31
0.0
  0
LINE
  5
571
  8
LOGO
 62
     6
 10
552.28217271456333
 20
-39.491111600595168
 30
0.0
 11
552.28217271456333
 21
-76.698096710813743
 31
0.0
  0
LINE
  5
572
  8
LOGO
 62
     6
 10
545.54267869216187
 20
6.0004730506129169
 30
0.0
 11
545.54267869216187
 21
-24.327250050192511
 31
0.0
  0
LINE
  5
573
  8
LOGO
 62
     1
 10
558.13155329321557
 20
-84.982696251803276
 30
0.0
 11
558.13155329321557
 21
16.109714084214708
 31
0.0
  0
LINE
  5
963
  8
CENTER
  6
CENTER
 10
237.146867547206
 20
202.4045354732921
 30
0.0
 11
222.3716584313957
 21
202.4045354732921
 31
0.0
  0
LINE
  5
964
  8
CENTER
  6
CENTER
 10
237.146867547206
 20
208.4045354732921
 30
0.0
 11
222.3716584313957
 21
208.4045354732921
 31
0.0
  0
LINE
  5
965
  8
0
 10
226.7157606339216
 20
247.4045354732923
 30
0.0
 11
228.71576063392169
 21
243.94043385815451
 31
0.0
  0
LINE
  5
966
  8
0
 10
228.71576063392169
 20
250.86863708842989
 30
0.0
 11
226.7157606339216
 21
247.4045354732923
 31
0.0
  0
LINE
  5
967
  8
0
 10
226.7157606339216
 20
265.4045354732923
 30
0.0
 11
228.71576063392169
 21
261.94043385815451
 31
0.0
  0
LINE
  5
968
  8
0
 10
228.71576063392169
 20
268.86863708842992
 30
0.0
 11
226.7157606339216
 21
265.4045354732923
 31
0.0
  0
LINE
  5
96B
  8
0
 10
218.96576063392169
 20
239.40453547329221
 30
0.0
 11
242.9657606339216
 21
239.40453547329221
 31
0.0
  0
LINE
  5
96C
  8
0
 10
200.4657606339216
 20
273.40453547329213
 30
0.0
 11
260.965760633922
 21
273.40453547329213
 31
0.0
  0
ARC
  5
96D
  8
0
 10
229.71576063392189
 20
208.40453547329221
 30
0.0
 40
5.0
 50
90.0
 51
180.0
  0
ARC
  5
96E
  8
0
 10
229.71576063392189
 20
202.40453547329221
 30
0.0
 40
5.0
 50
180.0
 51
270.0
  0
LINE
  5
96F
  8
0
 10
219.71576063392189
 20
193.4045354732921
 30
0.0
 11
241.71576063392169
 21
193.4045354732921
 31
0.0
  0
LINE
  5
970
  8
0
 10
222.71576063392169
 20
228.40453547329221
 30
0.0
 11
237.71576063392169
 21
228.40453547329221
 31
0.0
  0
LINE
  5
971
  8
CENTER
  6
CENTER
 10
228.71576063392169
 20
265.4045354732923
 30
0.0
 11
223.71576063392169
 21
265.4045354732923
 31
0.0
  0
LINE
  5
972
  8
CENTER
  6
CENTER
 10
228.71576063392169
 20
247.4045354732923
 30
0.0
 11
223.71576063392169
 21
247.4045354732923
 31
0.0
  0
CIRCLE
  5
973
  8
0
 10
230.7157606339218
 20
247.4045354732923
 30
0.0
 40
6.0000000000000009
  0
CIRCLE
  5
974
  8
0
 10
230.7157606339218
 20
265.4045354732923
 30
0.0
 40
6.0000000000000009
  0
LINE
  5
975
  8
0
 10
222.71576063392169
 20
284.40453547329241
 30
0.0
 11
237.71576063392169
 21
284.40453547329241
 31
0.0
  0
LINE
  5
976
  8
0
 10
222.71576063392169
 20
280.40453547329219
 30
0.0
 11
237.71576063392169
 21
280.40453547329241
 31
0.0
  0
LINE
  5
97A
  8
0
 10
202.9045608738497
 20
185.34454746969331
 30
0.0
 11
201.9657606339218
 21
138.4045354732921
 31
0.0
  0
LINE
  5
97B
  8
0
 10
153.02696039399351
 20
185.3445474696934
 30
0.0
 11
153.96576063392169
 21
138.4045354732921
 31
0.0
  0
LINE
  5
97C
  8
CENTER
  6
CENTER
 10
177.9657606339216
 20
132.9664970578965
 30
0.0
 11
177.9657606339216
 21
303.2018455514513
 31
0.0
  0
LINE
  5
97D
  8
0
 10
33.465760633921938
 20
209.40453547329221
 30
0.0
 11
35.965760633921938
 21
149.4045354732921
 31
0.0
  0
LINE
  5
97E
  8
0
 10
113.465760633922
 20
209.40453547329221
 30
0.0
 11
110.9657606339219
 21
149.4045354732921
 31
0.0
  0
LINE
  5
97F
  8
CENTER
  6
CENTER
 10
73.465760633921946
 20
292.16013071176269
 30
0.0
 11
73.465760633921946
 21
36.904476918583271
 31
0.0
  0
LINE
  5
980
  8
0
 10
84.465760633921946
 20
51.404535473292128
 30
0.0
 11
84.465760633921946
 21
48.404535473292178
 31
0.0
  0
LINE
  5
981
  8
0
 10
62.465760633921718
 20
48.404535473292178
 30
0.0
 11
62.465760633921718
 21
51.404535473292128
 31
0.0
  0
LINE
  5
982
  8
0
 10
62.465760633921718
 20
48.404535473292178
 30
0.0
 11
62.465760633921718
 21
51.404535473292128
 31
0.0
  0
LINE
  5
983
  8
0
 10
84.465760633921946
 20
51.404535473292128
 30
0.0
 11
84.465760633921946
 21
48.404535473292178
 31
0.0
  0
LINE
  5
984
  8
0
 10
62.465760633921718
 20
48.404535473292178
 30
0.0
 11
84.465760633921946
 21
48.404535473292178
 31
0.0
  0
LINE
  5
985
  8
0
 10
62.465760633921718
 20
48.404535473292178
 30
0.0
 11
84.465760633921946
 21
48.404535473292178
 31
0.0
  0
LINE
  5
986
  8
0
 10
76.465760633921704
 20
48.404535473292178
 30
0.0
 11
76.465760633921704
 21
44.404535473292192
 31
0.0
  0
LINE
  5
987
  8
0
 10
76.465760633921704
 20
42.404535473292071
 30
0.0
 11
75.715760633921704
 21
40.404535473292071
 31
0.0
  0
LINE
  5
988
  8
0
 10
76.465760633921704
 20
40.404535473292071
 30
0.0
 11
75.715760633921704
 21
38.404535473292178
 31
0.0
  0
LINE
  5
989
  8
0
 10
76.465760633921704
 20
44.404535473292192
 30
0.0
 11
75.715760633921704
 21
42.404535473292121
 31
0.0
  0
LINE
  5
98A
  8
0
 10
70.465760633921491
 20
48.404535473292007
 30
0.0
 11
70.465760633921604
 21
44.404535473292071
 31
0.0
  0
LINE
  5
98B
  8
0
 10
70.465760633922059
 20
40.404535473291837
 30
0.0
 11
71.215760633922173
 21
38.404535473292007
 31
0.0
  0
LINE
  5
98C
  8
0
 10
70.465760633921604
 20
42.404535473291951
 30
0.0
 11
71.215760633921946
 21
40.404535473292071
 31
0.0
  0
LINE
  5
98D
  8
0
 10
70.465760633921604
 20
44.404535473292071
 30
0.0
 11
71.215760633921718
 21
42.404535473292071
 31
0.0
  0
LINE
  5
98E
  8
0
 10
70.465760633921604
 20
44.404535473292192
 30
0.0
 11
76.465760633921704
 21
44.404535473292192
 31
0.0
  0
LINE
  5
98F
  8
0
 10
71.215760633922173
 20
38.404535473292178
 30
0.0
 11
75.715760633921704
 21
38.404535473292178
 31
0.0
  0
LINE
  5
990
  8
0
 10
70.465760633921604
 20
40.404535473292071
 30
0.0
 11
76.465760633921704
 21
40.404535473292071
 31
0.0
  0
LINE
  5
991
  8
0
 10
70.465760633921604
 20
42.404535473292071
 30
0.0
 11
76.465760633921704
 21
42.404535473292071
 31
0.0
  0
LINE
  5
992
  8
0
 10
46.985375898171583
 20
58.628715016642097
 30
0.0
 11
62.465760633921718
 21
51.404535473292128
 31
0.0
  0
ARC
  5
993
  8
0
  6
CONTINUOUS
 10
54.965760633921832
 20
141.9045354732921
 30
0.0
 40
2.0
 50
0.0
 51
90.0
  0
ARC
  5
994
  8
0
 10
54.965760633921832
 20
76.904535473292114
 30
0.0
 40
2.0
 50
270.0
 51
0.0
  0
LINE
  5
995
  8
0
 10
35.965760633921938
 20
152.4045354732921
 30
0.0
 11
110.9657606339219
 21
152.4045354732921
 31
0.0
  0
LINE
  5
996
  8
0
 10
35.965760633921938
 20
149.4045354732921
 30
0.0
 11
110.9657606339219
 21
149.4045354732921
 31
0.0
  0
LINE
  5
997
  8
0
 10
49.465760633921711
 20
141.9045354732921
 30
0.0
 11
49.465760633921711
 21
76.904535473292114
 31
0.0
  0
LINE
  5
998
  8
0
 10
43.465760633921938
 20
149.4045354732921
 30
0.0
 11
43.465760633921938
 21
63.404535473292178
 31
0.0
  0
ARC
  5
999
  8
0
 10
48.465760633921953
 20
63.404535473292178
 30
0.0
 40
5.0
 50
180.0
 51
252.7778729299778
  0
LINE
  5
99A
  8
0
 10
54.965760633921832
 20
74.904535473292185
 30
0.0
 11
51.465760633921953
 21
74.904535473292185
 31
0.0
  0
ARC
  5
99B
  8
0
 10
51.465760633921953
 20
76.904535473292114
 30
0.0
 40
2.0
 50
180.0
 51
270.0
  0
LINE
  5
99C
  8
0
 10
54.965760633921832
 20
143.9045354732921
 30
0.0
 11
51.465760633921953
 21
143.9045354732921
 31
0.0
  0
ARC
  5
99D
  8
0
 10
51.465760633921953
 20
141.9045354732921
 30
0.0
 40
2.0
 50
90.0
 51
180.0
  0
LINE
  5
99E
  8
0
 10
56.965760633921832
 20
141.9045354732921
 30
0.0
 11
56.965760633921832
 21
76.904535473292114
 31
0.0
  0
LINE
  5
99F
  8
0
 10
97.465760633921718
 20
141.9045354732921
 30
0.0
 11
97.465760633921718
 21
76.904535473292114
 31
0.0
  0
LINE
  5
9A0
  8
0
 10
89.965760633921718
 20
141.9045354732921
 30
0.0
 11
89.965760633921718
 21
76.904535473292114
 31
0.0
  0
LINE
  5
9A1
  8
0
 10
103.4657606339219
 20
149.4045354732921
 30
0.0
 11
103.4657606339219
 21
63.404535473292178
 31
0.0
  0
LINE
  5
9A2
  8
0
 10
99.946145369671981
 20
58.628715016642097
 30
0.0
 11
84.465760633921946
 21
51.404535473292128
 31
0.0
  0
LINE
  5
9A3
  8
0
 10
62.465760633921718
 20
51.404535473292128
 30
0.0
 11
84.465760633921946
 21
51.404535473292128
 31
0.0
  0
LINE
  5
9A4
  8
0
 10
62.465760633921718
 20
51.404535473292128
 30
0.0
 11
84.465760633921946
 21
51.404535473292128
 31
0.0
  0
ARC
  5
9A5
  8
0
 10
91.965760633921846
 20
76.904535473292114
 30
0.0
 40
2.0
 50
180.0
 51
270.0
  0
ARC
  5
9A6
  8
0
 10
95.465760633921704
 20
76.904535473292114
 30
0.0
 40
2.0
 50
270.0
 51
0.0
  0
LINE
  5
9A7
  8
0
 10
91.965760633921846
 20
74.904535473292185
 30
0.0
 11
95.465760633921704
 21
74.904535473292185
 31
0.0
  0
ARC
  5
9A8
  8
0
 10
98.465760633921946
 20
63.404535473292178
 30
0.0
 40
5.0
 50
287.222127070022
 51
0.0
  0
ARC
  5
9A9
  8
0
  6
CONTINUOUS
 10
83.465760633921946
 20
119.9045354732921
 30
0.0
 40
1.5
 50
270.0
 51
0.0
  0
LINE
  5
9AA
  8
0
  6
CONTINUOUS
 10
71.893671956199114
 20
145.06507265385909
 30
0.0
 11
67.893671956198887
 21
145.06507265385909
 31
0.0
  0
LINE
  5
9AB
  8
0
  6
CONTINUOUS
 10
71.893671956199114
 20
144.06507265385909
 30
0.0
 11
67.893671956198887
 21
144.06507265385909
 31
0.0
  0
LINE
  5
9AC
  8
0
  6
CONTINUOUS
 10
63.465760633921953
 20
118.404535473292
 30
0.0
 11
83.465760633921946
 21
118.404535473292
 31
0.0
  0
LINE
  5
9AD
  8
0
  6
CONTINUOUS
 10
62.465760633921718
 20
129.4045354732921
 30
0.0
 11
73.465760633921946
 21
127.4045354732921
 31
0.0
  0
LINE
  5
9AE
  8
0
  6
CONTINUOUS
 10
62.465760633921718
 20
124.4045354732921
 30
0.0
 11
73.465760633921946
 21
122.4045354732921
 31
0.0
  0
LINE
  5
9AF
  8
0
  6
CONTINUOUS
 10
61.965760633921832
 20
149.4045354732921
 30
0.0
 11
61.965760633921832
 21
119.9045354732921
 31
0.0
  0
LINE
  5
9B0
  8
0
  6
CONTINUOUS
 10
62.465760633921718
 20
149.4045354732921
 30
0.0
 11
62.465760633921718
 21
124.4045354732921
 31
0.0
  0
ARC
  5
9B1
  8
0
  6
CONTINUOUS
 10
63.465760633921953
 20
119.9045354732921
 30
0.0
 40
1.5
 50
180.0
 51
270.0
  0
LINE
  5
9B2
  8
0
  6
CONTINUOUS
 10
65.965760633921946
 20
123.7681718369284
 30
0.0
 11
65.965760633921946
 21
118.404535473292
 31
0.0
  0
LINE
  5
9B3
  8
0
  6
CONTINUOUS
 10
67.893671956198887
 20
145.06507265385909
 30
0.0
 11
67.893671956198887
 21
146.06507265385909
 31
0.0
  0
LINE
  5
9B4
  8
0
  6
CONTINUOUS
 10
67.893671956198887
 20
144.06507265385909
 30
0.0
 11
67.893671956198887
 21
143.06507265385909
 31
0.0
  0
LINE
  5
9B5
  8
0
  6
CONTINUOUS
 10
67.893671956198887
 20
146.06507265385909
 30
0.0
 11
64.893671956199114
 21
144.5650726538592
 31
0.0
  0
LINE
  5
9B6
  8
0
  6
CONTINUOUS
 10
67.893671956198887
 20
143.06507265385909
 30
0.0
 11
64.893671956199114
 21
144.5650726538592
 31
0.0
  0
LINE
  5
9B7
  8
0
  6
CONTINUOUS
 10
70.465760633921604
 20
138.40453547329199
 30
0.0
 11
73.465760633921946
 21
132.4045354732921
 31
0.0
  0
LINE
  5
9B8
  8
0
  6
CONTINUOUS
 10
76.465760633921946
 20
138.40453547329199
 30
0.0
 11
73.465760633921946
 21
132.4045354732921
 31
0.0
  0
LINE
  5
9B9
  8
0
  6
CONTINUOUS
 10
84.465760633921946
 20
149.4045354732921
 30
0.0
 11
84.465760633921946
 21
124.4045354732921
 31
0.0
  0
LINE
  5
9BA
  8
0
  6
CONTINUOUS
 10
73.465760633921946
 20
127.4045354732921
 30
0.0
 11
84.465760633921946
 21
129.4045354732921
 31
0.0
  0
LINE
  5
9BB
  8
0
  6
CONTINUOUS
 10
73.465760633921946
 20
122.4045354732921
 30
0.0
 11
84.465760633921946
 21
124.4045354732921
 31
0.0
  0
CIRCLE
  5
9BC
  8
0
  6
CONTINUOUS
 10
73.465760633921946
 20
124.93942863568741
 30
0.0
 40
1.0
  0
ARC
  5
9BD
  8
0
  6
CONTINUOUS
 10
73.465760633921946
 20
121.45260799563169
 30
0.0
 40
1.0
 50
270.0
 51
0.0
  0
ARC
  5
9BE
  8
0
  6
CONTINUOUS
 10
73.465760633921946
 20
121.45260799563169
 30
0.0
 40
1.0
 50
180.0
 51
270.0
  0
LINE
  5
9BF
  8
0
  6
CONTINUOUS
 10
73.465760633921946
 20
120.45260799563179
 30
0.0
 11
73.465760633921946
 21
120.45260799563179
 31
0.0
  0
LINE
  5
9C0
  8
0
  6
CONTINUOUS
 10
74.465760633921946
 20
122.5863536551103
 30
0.0
 11
74.465760633921946
 21
121.45260799563169
 31
0.0
  0
LINE
  5
9C1
  8
0
  6
CONTINUOUS
 10
72.465760633921718
 20
122.5863536551103
 30
0.0
 11
72.465760633921718
 21
121.45260799563169
 31
0.0
  0
LINE
  5
9C2
  8
0
  6
CONTINUOUS
 10
80.965760633921946
 20
123.7681718369284
 30
0.0
 11
80.965760633921946
 21
118.404535473292
 31
0.0
  0
LINE
  5
9C3
  8
0
  6
CONTINUOUS
 10
75.037849311644777
 20
145.06507265385909
 30
0.0
 11
79.03784931164455
 21
145.06507265385909
 31
0.0
  0
LINE
  5
9C4
  8
0
  6
CONTINUOUS
 10
75.037849311644777
 20
144.06507265385909
 30
0.0
 11
79.03784931164455
 21
144.06507265385909
 31
0.0
  0
LINE
  5
9C5
  8
0
  6
CONTINUOUS
 10
71.893671956199114
 20
144.5650726538592
 30
0.0
 11
71.893671956199114
 21
145.06507265385909
 31
0.0
  0
LINE
  5
9C6
  8
0
  6
CONTINUOUS
 10
71.893671956199114
 20
144.5650726538592
 30
0.0
 11
71.893671956199114
 21
144.06507265385909
 31
0.0
  0
LINE
  5
9C7
  8
0
  6
CONTINUOUS
 10
75.037849311644777
 20
144.5650726538592
 30
0.0
 11
75.037849311644777
 21
145.06507265385909
 31
0.0
  0
LINE
  5
9C8
  8
0
  6
CONTINUOUS
 10
75.037849311644777
 20
144.5650726538592
 30
0.0
 11
75.037849311644777
 21
144.06507265385909
 31
0.0
  0
LINE
  5
9C9
  8
0
  6
CONTINUOUS
 10
73.465760633921946
 20
146.4045354732921
 30
0.0
 11
72.465760633921718
 21
146.4045354732921
 31
0.0
  0
LINE
  5
9CA
  8
0
  6
CONTINUOUS
 10
72.465760633921718
 20
138.40453547329199
 30
0.0
 11
70.465760633921604
 21
138.40453547329199
 31
0.0
  0
LINE
  5
9CB
  8
0
  6
CONTINUOUS
 10
72.465760633921718
 20
146.4045354732921
 30
0.0
 11
72.465760633921718
 21
138.40453547329199
 31
0.0
  0
LINE
  5
9CC
  8
0
  6
CONTINUOUS
 10
74.465760633921946
 20
138.40453547329199
 30
0.0
 11
76.465760633921946
 21
138.40453547329199
 31
0.0
  0
LINE
  5
9CD
  8
0
  6
CONTINUOUS
 10
73.465760633921946
 20
146.4045354732921
 30
0.0
 11
74.465760633921946
 21
146.4045354732921
 31
0.0
  0
LINE
  5
9CE
  8
0
  6
CONTINUOUS
 10
74.465760633921946
 20
146.4045354732921
 30
0.0
 11
74.465760633921946
 21
138.40453547329199
 31
0.0
  0
LINE
  5
9CF
  8
0
  6
CONTINUOUS
 10
79.03784931164455
 20
145.06507265385909
 30
0.0
 11
79.03784931164455
 21
146.06507265385909
 31
0.0
  0
LINE
  5
9D0
  8
0
  6
CONTINUOUS
 10
79.03784931164455
 20
144.06507265385909
 30
0.0
 11
79.03784931164455
 21
143.06507265385909
 31
0.0
  0
LINE
  5
9D1
  8
0
  6
CONTINUOUS
 10
79.03784931164455
 20
146.06507265385909
 30
0.0
 11
82.037849311644536
 21
144.5650726538592
 31
0.0
  0
LINE
  5
9D2
  8
0
  6
CONTINUOUS
 10
79.03784931164455
 20
143.06507265385909
 30
0.0
 11
82.037849311644536
 21
144.5650726538592
 31
0.0
  0
LINE
  5
9D3
  8
0
  6
CONTINUOUS
 10
84.965760633921832
 20
149.4045354732921
 30
0.0
 11
84.965760633921832
 21
119.9045354732921
 31
0.0
  0
ARC
  5
9D4
  8
0
 10
91.965760633921846
 20
141.9045354732921
 30
0.0
 40
2.0
 50
90.0
 51
180.0
  0
ARC
  5
9D5
  8
0
 10
95.465760633921704
 20
141.9045354732921
 30
0.0
 40
2.0
 50
0.0
 51
90.0
  0
LINE
  5
9D6
  8
0
 10
91.965760633921846
 20
143.9045354732921
 30
0.0
 11
95.465760633921704
 21
143.9045354732921
 31
0.0
  0
LINE
  5
9D8
  8
0
 10
201.9657606339218
 20
138.4045354732921
 30
0.0
 11
153.96576063392169
 21
138.4045354732923
 31
0.0
  0
LINE
  5
9DE
  8
0
  6
CONTINUOUS
 10
158.46576063392189
 20
140.9045354732921
 30
0.0
 11
158.46576063392189
 21
178.4045354732921
 31
0.0
  0
LINE
  5
9DF
  8
0
  6
CONTINUOUS
 10
165.96576063392189
 20
140.9045354732921
 30
0.0
 11
165.96576063392189
 21
178.4045354732921
 31
0.0
  0
LINE
  5
9E0
  8
0
  6
CONTINUOUS
 10
165.2657606339219
 20
140.9045354732921
 30
0.0
 11
165.2657606339219
 21
178.4045354732921
 31
0.0
  0
LINE
  5
9E1
  8
0
  6
CONTINUOUS
 10
159.16576063392171
 20
140.9045354732921
 30
0.0
 11
159.16576063392171
 21
178.4045354732921
 31
0.0
  0
LINE
  5
9E2
  8
0
  6
CONTINUOUS
 10
158.46576063392189
 20
140.9045354732921
 30
0.0
 11
165.96576063392189
 21
140.9045354732921
 31
0.0
  0
LINE
  5
9E3
  8
0
  6
CONTINUOUS
 10
158.46576063392189
 20
141.60453547329229
 30
0.0
 11
165.96576063392189
 21
141.60453547329229
 31
0.0
  0
LINE
  5
9E4
  8
0
  6
CONTINUOUS
 10
158.46576063392189
 20
178.4045354732921
 30
0.0
 11
165.96576063392189
 21
178.4045354732921
 31
0.0
  0
LINE
  5
9E5
  8
0
  6
CONTINUOUS
 10
158.46576063392189
 20
177.7045354732922
 30
0.0
 11
165.96576063392189
 21
177.7045354732922
 31
0.0
  0
LINE
  5
9E7
  8
0
  6
CONTINUOUS
 10
171.9657606339218
 20
140.9045354732921
 30
0.0
 11
171.9657606339218
 21
178.4045354732921
 31
0.0
  0
LINE
  5
9E8
  8
0
  6
CONTINUOUS
 10
172.66576063392171
 20
140.9045354732921
 30
0.0
 11
172.66576063392171
 21
178.4045354732921
 31
0.0
  0
LINE
  5
9E9
  8
0
  6
CONTINUOUS
 10
196.76576063392159
 20
140.9045354732921
 30
0.0
 11
196.76576063392159
 21
178.4045354732921
 31
0.0
  0
LINE
  5
9EA
  8
0
  6
CONTINUOUS
 10
190.66576063392179
 20
140.9045354732921
 30
0.0
 11
190.66576063392179
 21
178.4045354732921
 31
0.0
  0
LINE
  5
9EB
  8
0
  6
CONTINUOUS
 10
183.26576063392179
 20
140.9045354732921
 30
0.0
 11
183.26576063392179
 21
178.4045354732921
 31
0.0
  0
LINE
  5
9EC
  8
0
  6
CONTINUOUS
 10
197.46576063392169
 20
140.9045354732921
 30
0.0
 11
197.46576063392169
 21
178.4045354732921
 31
0.0
  0
LINE
  5
9ED
  8
0
  6
CONTINUOUS
 10
189.96576063392169
 20
140.9045354732921
 30
0.0
 11
189.96576063392169
 21
178.4045354732921
 31
0.0
  0
LINE
  5
9EE
  8
0
  6
CONTINUOUS
 10
183.96576063392169
 20
140.9045354732921
 30
0.0
 11
183.96576063392169
 21
178.4045354732921
 31
0.0
  0
LINE
  5
9EF
  8
0
  6
CONTINUOUS
 10
171.9657606339218
 20
140.9045354732921
 30
0.0
 11
177.9657606339216
 21
140.9045354732921
 31
0.0
  0
LINE
  5
9F0
  8
0
  6
CONTINUOUS
 10
171.9657606339218
 20
141.6045354732922
 30
0.0
 11
177.9657606339216
 21
141.60453547329229
 31
0.0
  0
LINE
  5
9F1
  8
0
  6
CONTINUOUS
 10
183.96576063392169
 20
141.6045354732922
 30
0.0
 11
177.9657606339216
 21
141.60453547329229
 31
0.0
  0
LINE
  5
9F2
  8
0
  6
CONTINUOUS
 10
183.96576063392169
 20
140.9045354732921
 30
0.0
 11
177.9657606339216
 21
140.9045354732921
 31
0.0
  0
LINE
  5
9F3
  8
0
  6
CONTINUOUS
 10
197.46576063392169
 20
141.60453547329229
 30
0.0
 11
189.96576063392169
 21
141.60453547329229
 31
0.0
  0
LINE
  5
9F4
  8
0
  6
CONTINUOUS
 10
197.46576063392169
 20
140.9045354732921
 30
0.0
 11
189.96576063392169
 21
140.9045354732921
 31
0.0
  0
LINE
  5
9F5
  8
0
  6
CONTINUOUS
 10
171.9657606339218
 20
178.4045354732921
 30
0.0
 11
177.9657606339216
 21
178.4045354732921
 31
0.0
  0
LINE
  5
9F6
  8
0
  6
CONTINUOUS
 10
171.9657606339218
 20
177.7045354732922
 30
0.0
 11
177.9657606339216
 21
177.7045354732922
 31
0.0
  0
LINE
  5
9F7
  8
0
  6
CONTINUOUS
 10
183.96576063392169
 20
177.7045354732922
 30
0.0
 11
177.9657606339216
 21
177.7045354732922
 31
0.0
  0
LINE
  5
9F8
  8
0
  6
CONTINUOUS
 10
183.96576063392169
 20
178.4045354732921
 30
0.0
 11
177.9657606339216
 21
178.4045354732921
 31
0.0
  0
LINE
  5
9F9
  8
0
  6
CONTINUOUS
 10
197.46576063392169
 20
177.7045354732922
 30
0.0
 11
189.96576063392169
 21
177.7045354732922
 31
0.0
  0
LINE
  5
9FA
  8
0
  6
CONTINUOUS
 10
197.46576063392169
 20
178.4045354732921
 30
0.0
 11
189.96576063392169
 21
178.4045354732921
 31
0.0
  0
SOLID
  5
9FB
  8
DIM
 10
100.126298065966
 20
358.9410858644402
 30
0.0
 11
100.126298065966
 21
359.61110261485879
 31
0.0
 12
98.116247814709908
 22
359.27609423964952
 32
0.0
 13
98.116247814709908
 23
359.27609423964952
 33
0.0
  0
LINE
  5
9FC
  8
DIM
 10
98.116247814709908
 20
362.6261779917433
 30
0.0
 11
106.0762779654635
 21
362.6261779917433
 31
0.0
  0
LINE
  5
9FD
  8
DIM
 10
98.116247814709908
 20
355.92601048755569
 30
0.0
 11
106.0762779654635
 21
355.92601048755569
 31
0.0
  0
LINE
  5
9FE
  8
DIM
 10
98.116247814709908
 20
359.27609423964952
 30
0.0
 11
106.0762779654635
 21
359.27609423964952
 31
0.0
  0
LINE
  5
9FF
  8
DIM
 10
98.116247814709908
 20
366.95015286611522
 30
0.0
 11
101.7813030910918
 21
365.86915789124072
 31
0.0
  0
LINE
  5
A00
  8
DIM
 10
98.116247814709908
 20
362.6261779917433
 30
0.0
 11
101.7813030910918
 21
363.70717129157578
 31
0.0
  0
LINE
  5
A01
  8
DIM
 10
98.116247814709908
 20
364.7881645914083
 30
0.0
 11
101.7813030910918
 21
363.70717129157578
 31
0.0
  0
LINE
  5
A02
  8
DIM
 10
98.116247814709908
 20
364.7881645914083
 30
0.0
 11
101.7813030910918
 21
365.86915789124072
 31
0.0
  0
LINE
  5
A03
  8
DIM
  6
PHANTOM
 10
95.181720664883613
 20
347.88580948253059
 30
0.0
 11
116.2845922185974
 21
347.88580948253059
 31
0.0
  0
LINE
  5
A04
  8
DIM
  6
PHANTOM
 10
95.181720664883613
 20
370.6663789967684
 30
0.0
 11
116.2845922185974
 21
370.6663789967684
 31
0.0
  0
LINE
  5
A07
  8
0
 10
95.965760633921946
 20
273.40453547329213
 30
0.0
 11
156.46576063392169
 21
273.40453547329213
 31
0.0
  0
LINE
  5
A08
  8
0
 10
28.715760633921722
 20
209.40453547329221
 30
0.0
 11
118.2157606339218
 21
209.40453547329221
 31
0.0
  0
LINE
  5
A09
  8
0
 10
32.465760633921718
 20
239.4045354732921
 30
0.0
 11
114.4657606339219
 21
239.4045354732921
 31
0.0
  0
LINE
  5
A0A
  8
0
 10
28.715760633921722
 20
280.40453547329201
 30
0.0
 11
118.2157606339218
 21
280.40453547329201
 31
0.0
  0
LINE
  5
A0C
  8
0
 10
50.965760633921953
 20
273.40453547329213
 30
0.0
 11
95.965760633921946
 21
273.40453547329213
 31
0.0
  0
LINE
  5
A0D
  8
0
 10
32.465760633921718
 20
280.40453547329201
 30
0.0
 11
32.465760633921718
 21
209.40453547329221
 31
0.0
  0
LINE
  5
A0E
  8
0
 10
33.965760633921832
 20
280.40453547329201
 30
0.0
 11
33.965760633921832
 21
239.4045354732921
 31
0.0
  0
LINE
  5
A0F
  8
0
 10
50.465760633921597
 20
271.40453547329213
 30
0.0
 11
50.465760633921597
 21
239.40453547329221
 31
0.0
  0
LINE
  5
A10
  8
0
 10
47.965760633921718
 20
270.40453547329201
 30
0.0
 11
47.965760633921718
 21
239.40453547329221
 31
0.0
  0
LINE
  5
A11
  8
0
 10
28.715760633921722
 20
280.40453547329201
 30
0.0
 11
28.715760633921722
 21
232.4045354732921
 31
0.0
  0
LINE
  5
A12
  8
0
 10
38.965760633921832
 20
237.4045354732921
 30
0.0
 11
38.965760633921832
 21
209.40453547329221
 31
0.0
  0
LINE
  5
A13
  8
0
 10
28.715760633921722
 20
228.40453547329199
 30
0.0
 11
28.715760633921722
 21
209.33057011154619
 31
0.0
  0
LINE
  5
A14
  8
0
 10
31.465760633921938
 20
232.4045354732921
 30
0.0
 11
31.465760633921938
 21
228.40453547329221
 31
0.0
  0
LINE
  5
A15
  8
0
 10
28.715760633921722
 20
228.40453547329221
 30
0.0
 11
31.465760633921938
 21
228.40453547329221
 31
0.0
  0
LINE
  5
A16
  8
0
 10
28.715760633921722
 20
232.4045354732921
 30
0.0
 11
31.465760633921938
 21
232.4045354732921
 31
0.0
  0
ARC
  5
A17
  8
0
 10
40.965760633921938
 20
237.4045354732921
 30
0.0
 40
2.0
 50
90.0
 51
180.0
  0
ARC
  5
A18
  8
0
 10
50.965760633921953
 20
270.40453547329201
 30
0.0
 40
3.0
 50
90.0
 51
180.0
  0
ARC
  5
A19
  8
0
 10
52.465760633921718
 20
271.40453547329213
 30
0.0
 40
2.0
 50
90.0
 51
180.0
  0
LINE
  5
A1B
  8
0
 10
96.465760633921946
 20
271.40453547329213
 30
0.0
 11
96.465760633921946
 21
239.40453547329221
 31
0.0
  0
LINE
  5
A1C
  8
0
 10
107.9657606339217
 20
237.4045354732921
 30
0.0
 11
107.9657606339217
 21
209.40453547329221
 31
0.0
  0
ARC
  5
A21
  8
0
 10
105.9657606339219
 20
237.4045354732921
 30
0.0
 40
2.0
 50
0.0
 51
90.0
  0
ARC
  5
A22
  8
0
 10
98.465760633921946
 20
271.40453547329213
 30
0.0
 40
2.0
 50
90.0
 51
180.0
  0
ARC
  5
A23
  8
0
 10
94.465760633921946
 20
271.40453547329213
 30
0.0
 40
2.0
 50
0.0
 51
90.0
  0
LINE
  5
A24
  8
0
 10
112.9657606339217
 20
280.40453547329201
 30
0.0
 11
112.9657606339217
 21
273.40453547329213
 31
0.0
  0
LINE
  5
A25
  8
DIM
 10
66.543639255684042
 20
359.27609423964952
 30
0.0
 11
75.952575419349671
 21
359.27609423964952
 31
0.0
  0
LINE
  5
A26
  8
DIM
  6
PHANTOM
 10
95.181720664883613
 20
347.88580948253059
 30
0.0
 11
95.181720664883613
 21
370.6663789967684
 31
0.0
  0
LINE
  5
A27
  8
DIM
  6
PHANTOM
 10
70.89412811011789
 20
347.88580948253059
 30
0.0
 11
70.89412811011789
 21
370.6663789967684
 31
0.0
  0
LINE
  5
A28
  8
DIM
  6
PHANTOM
 10
91.99699966383173
 20
347.88580948253059
 30
0.0
 11
91.99699966383173
 21
370.6663789967684
 31
0.0
  0
LINE
  5
A29
  8
DIM
  6
PHANTOM
 10
70.89412811011789
 20
347.88580948253059
 30
0.0
 11
91.99699966383173
 21
347.88580948253059
 31
0.0
  0
LINE
  5
A2A
  8
DIM
 10
81.070275586853882
 20
364.39379440715368
 30
0.0
 11
86.187975754357964
 21
359.27609423964952
 31
0.0
  0
LINE
  5
A2B
  8
DIM
  6
PHANTOM
 10
70.89412811011789
 20
370.6663789967684
 30
0.0
 11
91.99699966383173
 21
370.6663789967684
 31
0.0
  0
LINE
  5
A2C
  8
DIM
 10
81.070275586853882
 20
354.15839407214531
 30
0.0
 11
86.187975754357964
 21
359.27609423964952
 31
0.0
  0
LINE
  5
A2D
  8
DIM
 10
81.070275586853882
 20
364.39379440715368
 30
0.0
 11
75.952575419349671
 21
359.27609423964952
 31
0.0
  0
LINE
  5
A2E
  8
DIM
 10
81.070275586853882
 20
354.15839407214531
 30
0.0
 11
75.952575419349671
 21
359.27609423964952
 31
0.0
  0
LINE
  5
A2F
  8
DIM
 10
79.327799874961073
 20
355.90086978403809
 30
0.0
 11
82.812751298746662
 21
355.90086978403809
 31
0.0
  0
LINE
  5
A30
  8
DIM
 10
81.070275586853882
 20
354.15839407214531
 30
0.0
 11
81.070275586853882
 21
352.0345833518773
 31
0.0
  0
LINE
  5
A31
  8
DIM
  6
HIDDEN
 10
81.070275586853882
 20
364.39379440715368
 30
0.0
 11
81.070275586853882
 21
358.09975085606487
 31
0.0
  0
LINE
  5
A32
  8
DIM
 10
86.187975754357964
 20
359.27609423964952
 30
0.0
 11
98.116247814709908
 21
359.27609423964952
 31
0.0
  0
LINE
  5
A33
  8
DIM
 10
98.116247814709908
 20
362.6261779917433
 30
0.0
 11
98.116247814709908
 21
355.92601048755569
 31
0.0
  0
POLYLINE
  5
A34
  8
DIM
 66
     1
 10
0.0
 20
0.0
 30
0.0
  0
VERTEX
  5
E30
  8
DIM
 10
98.116247814709908
 20
362.6261779917433
 30
0.0
  0
VERTEX
  5
E31
  8
DIM
 10
96.990105436150387
 20
361.54731702021911
 30
0.0
  0
SEQEND
  5
E32
  8
DIM
  0
POLYLINE
  5
A35
  8
DIM
 66
     1
 10
0.0
 20
0.0
 30
0.0
  0
VERTEX
  5
E33
  8
DIM
 10
98.116247814709908
 20
360.46845772373661
 30
0.0
  0
VERTEX
  5
E34
  8
DIM
 10
96.990105436150387
 20
361.54731702021911
 30
0.0
  0
SEQEND
  5
E35
  8
DIM
  0
LINE
  5
A37
  8
0
 10
202.9657606339216
 20
185.4045354732921
 30
0.0
 11
152.9657606339216
 21
185.40453547329221
 31
0.0
  0
LINE
  5
A38
  8
CENTER
  6
CENTER
 10
175.96576063392189
 20
260.40453547329213
 30
0.0
 11
150.4657606339216
 21
260.40453547329213
 31
0.0
  0
CIRCLE
  5
A39
  8
HIDDEN
  6
PHANTOM
 10
177.9657606339216
 20
260.40453547329213
 30
0.0
 40
26.5
  0
LINE
  5
A3A
  8
0
 10
133.2157606339218
 20
224.40453547329221
 30
0.0
 11
222.71576063392169
 21
224.40453547329221
 31
0.0
  0
LINE
  5
A3B
  8
0
 10
211.9657606339218
 20
218.4045354732921
 30
0.0
 11
143.96576063392169
 21
218.40453547329221
 31
0.0
  0
LINE
  5
A3C
  8
0
 10
199.90516069390961
 20
188.4045354732921
 30
0.0
 11
156.0263605739336
 21
188.40453547329221
 31
0.0
  0
LINE
  5
A3D
  8
0
 10
200.96576063392189
 20
200.40453547329221
 30
0.0
 11
154.9657606339218
 21
200.40453547329221
 31
0.0
  0
LINE
  5
A3E
  8
0
 10
211.9657606339218
 20
212.4045354732921
 30
0.0
 11
143.96576063392169
 21
212.40453547329221
 31
0.0
  0
LINE
  5
A3F
  8
0
 10
148.96576063392169
 20
292.7224987840541
 30
0.0
 11
206.9657606339218
 21
292.7224987840541
 31
0.0
  0
LINE
  5
A40
  8
0
 10
163.96576063392169
 20
299.72249878405421
 30
0.0
 11
191.9657606339218
 21
299.72249878405421
 31
0.0
  0
LINE
  5
A41
  8
0
 10
147.9657606339216
 20
287.72249878405398
 30
0.0
 11
207.9657606339216
 21
287.72249878405398
 31
0.0
  0
LINE
  5
A42
  8
0
 10
162.9657606339216
 20
298.72249878405421
 30
0.0
 11
192.9657606339216
 21
298.72249878405421
 31
0.0
  0
LINE
  5
A43
  8
0
 10
155.46576063392169
 20
273.40453547329213
 30
0.0
 11
200.4657606339216
 21
273.40453547329213
 31
0.0
  0
LINE
  5
A44
  8
0
 10
136.9657606339218
 20
239.4045354732921
 30
0.0
 11
218.96576063392169
 21
239.4045354732921
 31
0.0
  0
LINE
  5
A45
  8
0
 10
133.2157606339218
 20
280.40453547329219
 30
0.0
 11
222.71576063392169
 21
280.40453547329219
 31
0.0
  0
LINE
  5
A46
  8
CENTER
  6
CENTER
 10
126.2157606339217
 20
249.40453547329221
 30
0.0
 11
126.2157606339217
 21
254.40453547329221
 31
0.0
  0
CIRCLE
  5
A47
  8
0
 10
126.2157606339217
 20
247.4045354732921
 30
0.0
 40
6.0000000000000009
  0
LINE
  5
A48
  8
0
 10
154.9657606339218
 20
271.40453547329213
 30
0.0
 11
154.9657606339218
 21
239.40453547329221
 31
0.0
  0
LINE
  5
A49
  8
0
 10
138.2157606339218
 20
224.40453547329221
 30
0.0
 11
138.2157606339218
 21
194.4045354732921
 31
0.0
  0
LINE
  5
A4A
  8
0
 10
118.2157606339218
 20
228.40453547329221
 30
0.0
 11
118.2157606339218
 21
209.33057011154619
 31
0.0
  0
LINE
  5
A4B
  8
CENTER
  6
CENTER
 10
118.78465372063729
 20
202.4045354732921
 30
0.0
 11
133.55986283644751
 21
202.4045354732921
 31
0.0
  0
LINE
  5
A4C
  8
CENTER
  6
CENTER
 10
118.78465372063729
 20
208.4045354732921
 30
0.0
 11
133.55986283644751
 21
208.4045354732921
 31
0.0
  0
ARC
  5
A4D
  8
0
 10
127.215760633922
 20
202.4045354732921
 30
0.0
 40
5.0
 50
270.0
 51
0.0
  0
ARC
  5
A4E
  8
0
 10
127.215760633922
 20
208.4045354732921
 30
0.0
 40
5.0
 50
0.0
 51
90.0
  0
LINE
  5
A4F
  8
0
 10
115.2157606339219
 20
193.40453547329199
 30
0.0
 11
137.215760633922
 21
193.40453547329199
 31
0.0
  0
ARC
  5
A50
  8
0
 10
125.2157606339217
 20
202.4045354732921
 30
0.0
 40
5.0
 50
180.0
 51
270.0
  0
LINE
  5
A51
  8
0
 10
114.2157606339217
 20
209.40453547329221
 30
0.0
 11
114.2157606339217
 21
194.4045354732921
 31
0.0
  0
LINE
  5
A52
  8
CENTER
  6
CENTER
 10
126.2157606339217
 20
216.6584283449547
 30
0.0
 11
126.2157606339217
 21
195.22508489688349
 31
0.0
  0
LINE
  5
A53
  8
0
 10
114.2157606339217
 20
194.4045354732921
 30
0.0
 11
115.2157606339219
 21
193.40453547329199
 31
0.0
  0
LINE
  5
A54
  8
0
 10
125.2157606339217
 20
197.4045354732921
 30
0.0
 11
127.215760633922
 21
197.4045354732921
 31
0.0
  0
ARC
  5
A55
  8
0
 10
125.2157606339217
 20
208.4045354732921
 30
0.0
 40
5.0
 50
90.0
 51
180.0
  0
LINE
  5
A56
  8
0
 10
120.2157606339216
 20
208.4045354732921
 30
0.0
 11
120.2157606339216
 21
202.4045354732921
 31
0.0
  0
LINE
  5
A57
  8
0
 10
125.2157606339217
 20
213.40453547329221
 30
0.0
 11
127.215760633922
 21
213.40453547329221
 31
0.0
  0
LINE
  5
A58
  8
0
 10
137.215760633922
 20
193.40453547329199
 30
0.0
 11
138.2157606339218
 21
194.4045354732921
 31
0.0
  0
LINE
  5
A59
  8
0
 10
132.21576063392189
 20
208.4045354732921
 30
0.0
 11
132.21576063392189
 21
202.4045354732921
 31
0.0
  0
LINE
  5
A5A
  8
0
 10
128.2157606339218
 20
250.86863708842981
 30
0.0
 11
124.2157606339217
 21
250.86863708842981
 31
0.0
  0
LINE
  5
A5B
  8
0
 10
124.2157606339217
 20
243.94043385815431
 30
0.0
 11
128.2157606339218
 21
243.94043385815431
 31
0.0
  0
LINE
  5
A5C
  8
0
 10
118.2157606339218
 20
228.40453547329221
 30
0.0
 11
133.2157606339218
 21
228.40453547329221
 31
0.0
  0
LINE
  5
A5D
  8
0
 10
114.4657606339219
 20
239.4045354732921
 30
0.0
 11
138.46576063392189
 21
239.4045354732921
 31
0.0
  0
LINE
  5
A5E
  8
0
 10
118.2157606339218
 20
239.4045354732921
 30
0.0
 11
118.2157606339218
 21
232.4045354732921
 31
0.0
  0
LINE
  5
A5F
  8
0
 10
115.4657606339217
 20
228.40453547329221
 30
0.0
 11
118.2157606339218
 21
228.40453547329221
 31
0.0
  0
LINE
  5
A60
  8
0
 10
115.4657606339217
 20
232.4045354732921
 30
0.0
 11
118.2157606339218
 21
232.4045354732921
 31
0.0
  0
LINE
  5
A61
  8
0
 10
115.4657606339217
 20
232.4045354732921
 30
0.0
 11
115.4657606339217
 21
228.40453547329221
 31
0.0
  0
LINE
  5
A62
  8
CENTER
  6
CENTER
 10
124.2157606339217
 20
247.4045354732921
 30
0.0
 11
119.2157606339217
 21
247.4045354732921
 31
0.0
  0
LINE
  5
A63
  8
0
 10
122.215760633922
 20
247.4045354732921
 30
0.0
 11
124.2157606339217
 21
243.94043385815431
 31
0.0
  0
LINE
  5
A64
  8
0
 10
124.2157606339217
 20
250.86863708842981
 30
0.0
 11
122.215760633922
 21
247.4045354732921
 31
0.0
  0
LINE
  5
A65
  8
CENTER
  6
CENTER
 10
126.2157606339217
 20
245.4045354732921
 30
0.0
 11
126.2157606339217
 21
240.4045354732921
 31
0.0
  0
LINE
  5
A66
  8
CENTER
  6
CENTER
 10
126.2157606339217
 20
246.4045354732921
 30
0.0
 11
126.2157606339217
 21
248.4045354732921
 31
0.0
  0
LINE
  5
A67
  8
CENTER
  6
CENTER
 10
125.2157606339217
 20
247.4045354732921
 30
0.0
 11
127.215760633922
 21
247.4045354732921
 31
0.0
  0
LINE
  5
A68
  8
0
 10
133.2157606339218
 20
239.4045354732921
 30
0.0
 11
133.2157606339218
 21
232.4045354732921
 31
0.0
  0
LINE
  5
A69
  8
0
 10
136.9657606339218
 20
239.4045354732921
 30
0.0
 11
136.9657606339218
 21
224.40453547329221
 31
0.0
  0
LINE
  5
A6A
  8
0
 10
133.2157606339218
 20
228.40453547329221
 30
0.0
 11
135.96576063392189
 21
228.40453547329221
 31
0.0
  0
LINE
  5
A6B
  8
0
 10
133.2157606339218
 20
232.4045354732921
 30
0.0
 11
135.96576063392189
 21
232.4045354732921
 31
0.0
  0
LINE
  5
A6C
  8
0
 10
133.2157606339218
 20
228.40453547329199
 30
0.0
 11
133.2157606339218
 21
224.40453547329221
 31
0.0
  0
LINE
  5
A6D
  8
0
 10
135.96576063392189
 20
232.4045354732921
 30
0.0
 11
135.96576063392189
 21
228.40453547329221
 31
0.0
  0
LINE
  5
A6E
  8
0
 10
130.2157606339216
 20
247.4045354732921
 30
0.0
 11
128.2157606339218
 21
250.86863708842981
 31
0.0
  0
LINE
  5
A6F
  8
0
 10
128.2157606339218
 20
243.94043385815431
 30
0.0
 11
130.2157606339216
 21
247.4045354732921
 31
0.0
  0
LINE
  5
A70
  8
CENTER
  6
CENTER
 10
128.2157606339218
 20
247.4045354732921
 30
0.0
 11
133.2157606339218
 21
247.4045354732921
 31
0.0
  0
LINE
  5
A71
  8
0
 10
152.46576063392169
 20
218.4045354732921
 30
0.0
 11
152.46576063392169
 21
213.9045354732923
 31
0.0
  0
LINE
  5
A72
  8
0
 10
153.96576063392169
 20
218.4045354732921
 30
0.0
 11
153.96576063392169
 21
213.40453547329221
 31
0.0
  0
LINE
  5
A73
  8
0
 10
144.4657606339218
 20
218.40453547329221
 30
0.0
 11
144.4657606339218
 21
213.9045354732923
 31
0.0
  0
LINE
  5
A74
  8
CENTER
  6
CENTER
 10
148.46576063392189
 20
219.31030043042861
 30
0.0
 11
148.46576063392189
 21
211.15696743538541
 31
0.0
  0
LINE
  5
A75
  8
0
 10
142.9657606339216
 20
224.4045354732923
 30
0.0
 11
142.9657606339216
 21
213.40453547329221
 31
0.0
  0
ARC
  5
A76
  8
0
 10
154.9657606339218
 20
201.4045354732923
 30
0.0
 40
1.0
 50
180.0
 51
270.0
  0
ARC
  5
A77
  8
0
 10
156.0263605739336
 20
185.40453547329221
 30
0.0
 40
3.0
 50
90.0
 51
181.1457628381751
  0
LINE
  5
A78
  8
0
 10
151.46576063392169
 20
212.90453547329221
 30
0.0
 11
145.46576063392169
 21
212.90453547329221
 31
0.0
  0
ARC
  5
A79
  8
0
 10
143.96576063392169
 20
213.40453547329221
 30
0.0
 40
1.0
 50
180.0
 51
270.0
  0
ARC
  5
A7A
  8
0
 10
145.46576063392169
 20
213.9045354732923
 30
0.0
 40
1.0
 50
180.0
 51
270.0
  0
ARC
  5
A7B
  8
0
 10
154.9657606339218
 20
213.40453547329221
 30
0.0
 40
1.0
 50
180.0
 51
270.0
  0
ARC
  5
A7C
  8
0
 10
151.46576063392169
 20
213.9045354732923
 30
0.0
 40
1.0
 50
270.0
 51
0.0
  0
LINE
  5
A7D
  8
0
 10
153.96576063392169
 20
212.40453547329221
 30
0.0
 11
153.96576063392169
 21
201.4045354732923
 31
0.0
  0
LINE
  5
A7E
  8
0
 10
156.46576063392169
 20
200.40453547329221
 30
0.0
 11
156.46576063392169
 21
188.40453547329221
 31
0.0
  0
LINE
  5
A7F
  8
0
 10
143.465760633922
 20
237.4045354732921
 30
0.0
 11
143.465760633922
 21
224.40453547329221
 31
0.0
  0
LINE
  5
A80
  8
0
 10
152.46576063392169
 20
217.4045354732923
 30
0.0
 11
144.4657606339218
 21
217.4045354732923
 31
0.0
  0
ARC
  5
A81
  8
0
 10
143.96576063392169
 20
219.4045354732923
 30
0.0
 40
1.0
 50
180.0
 51
270.0
  0
ARC
  5
A82
  8
0
 10
145.46576063392169
 20
237.4045354732921
 30
0.0
 40
2.0
 50
90.0
 51
180.0
  0
LINE
  5
A83
  8
0
 10
128.2157606339218
 20
268.86863708842981
 30
0.0
 11
124.2157606339217
 21
268.86863708842981
 31
0.0
  0
LINE
  5
A84
  8
0
 10
124.2157606339217
 20
261.94043385815439
 30
0.0
 11
128.2157606339218
 21
261.94043385815439
 31
0.0
  0
LINE
  5
A85
  8
0
 10
118.2157606339218
 20
280.40453547329201
 30
0.0
 11
133.2157606339218
 21
280.40453547329219
 31
0.0
  0
LINE
  5
A86
  8
0
 10
118.2157606339218
 20
284.40453547329213
 30
0.0
 11
133.2157606339218
 21
284.40453547329213
 31
0.0
  0
CIRCLE
  5
A87
  8
0
 10
126.2157606339217
 20
265.40453547329201
 30
0.0
 40
6.0000000000000009
  0
LINE
  5
A88
  8
0
 10
124.2157606339217
 20
268.86863708842981
 30
0.0
 11
122.215760633922
 21
265.40453547329201
 31
0.0
  0
LINE
  5
A89
  8
CENTER
  6
CENTER
 10
126.2157606339217
 20
267.40453547329213
 30
0.0
 11
126.2157606339217
 21
272.40453547329213
 31
0.0
  0
LINE
  5
A8A
  8
CENTER
  6
CENTER
 10
124.2157606339217
 20
265.40453547329201
 30
0.0
 11
119.2157606339217
 21
265.40453547329201
 31
0.0
  0
LINE
  5
A8B
  8
0
 10
122.215760633922
 20
265.40453547329201
 30
0.0
 11
124.2157606339217
 21
261.94043385815439
 31
0.0
  0
LINE
  5
A8C
  8
CENTER
  6
CENTER
 10
126.2157606339217
 20
263.40453547329219
 30
0.0
 11
126.2157606339217
 21
258.40453547329213
 31
0.0
  0
LINE
  5
A8D
  8
CENTER
  6
CENTER
 10
126.2157606339217
 20
264.4045354732923
 30
0.0
 11
126.2157606339217
 21
266.40453547329213
 31
0.0
  0
LINE
  5
A8E
  8
CENTER
  6
CENTER
 10
125.2157606339217
 20
265.40453547329201
 30
0.0
 11
127.215760633922
 21
265.40453547329201
 31
0.0
  0
LINE
  5
A8F
  8
0
 10
115.4657606339217
 20
280.40453547329219
 30
0.0
 11
115.4657606339217
 21
284.40453547329213
 31
0.0
  0
LINE
  5
A90
  8
0
 10
115.4657606339217
 20
284.40453547329213
 30
0.0
 11
118.2157606339218
 21
284.40453547329213
 31
0.0
  0
LINE
  5
A91
  8
0
 10
114.4657606339219
 20
280.40453547329201
 30
0.0
 11
114.4657606339219
 21
273.40453547329213
 31
0.0
  0
LINE
  5
A92
  8
0
 10
118.2157606339218
 20
280.40453547329201
 30
0.0
 11
118.2157606339218
 21
273.40453547329213
 31
0.0
  0
LINE
  5
A93
  8
0
 10
130.2157606339216
 20
265.40453547329201
 30
0.0
 11
128.2157606339218
 21
268.86863708842981
 31
0.0
  0
LINE
  5
A94
  8
0
 10
128.2157606339218
 20
261.94043385815439
 30
0.0
 11
130.2157606339216
 21
265.40453547329201
 31
0.0
  0
LINE
  5
A95
  8
CENTER
  6
CENTER
 10
128.2157606339218
 20
265.40453547329201
 30
0.0
 11
133.2157606339218
 21
265.40453547329201
 31
0.0
  0
LINE
  5
A96
  8
0
 10
133.2157606339218
 20
284.40453547329213
 30
0.0
 11
135.96576063392189
 21
284.40453547329213
 31
0.0
  0
LINE
  5
A97
  8
0
 10
133.2157606339218
 20
280.40453547329219
 30
0.0
 11
133.2157606339218
 21
273.40453547329213
 31
0.0
  0
LINE
  5
A98
  8
0
 10
135.96576063392189
 20
280.40453547329219
 30
0.0
 11
135.96576063392189
 21
284.40453547329213
 31
0.0
  0
LINE
  5
A99
  8
0
 10
136.9657606339218
 20
280.40453547329219
 30
0.0
 11
136.9657606339218
 21
273.40453547329213
 31
0.0
  0
LINE
  5
A9A
  8
0
 10
138.46576063392189
 20
280.40453547329219
 30
0.0
 11
138.46576063392189
 21
273.40453547329213
 31
0.0
  0
LINE
  5
A9B
  8
0
 10
147.9657606339216
 20
291.72249878405421
 30
0.0
 11
147.9657606339216
 21
280.40453547329219
 31
0.0
  0
ARC
  5
A9C
  8
0
 10
156.9657606339218
 20
271.40453547329213
 30
0.0
 40
2.0
 50
90.0
 51
180.0
  0
ARC
  5
A9D
  8
0
 10
152.9657606339216
 20
271.40453547329213
 30
0.0
 40
2.0
 50
0.0
 51
90.0
  0
LINE
  5
A9E
  8
0
 10
156.46576063392169
 20
273.40453547329213
 30
0.0
 11
156.46576063392169
 21
280.40453547329219
 31
0.0
  0
LINE
  5
A9F
  8
0
 10
147.9657606339216
 20
291.72249878405421
 30
0.0
 11
148.96576063392169
 21
292.7224987840541
 31
0.0
  0
LINE
  5
AA0
  8
0
 10
162.9657606339216
 20
298.72249878405421
 30
0.0
 11
163.96576063392169
 21
299.72249878405421
 31
0.0
  0
LINE
  5
AA1
  8
0
 10
162.9657606339216
 20
298.72249878405421
 30
0.0
 11
162.9657606339216
 21
292.7224987840541
 31
0.0
  0
LINE
  5
AA2
  8
0
 10
200.96576063392189
 20
271.4045354732923
 30
0.0
 11
200.96576063392189
 21
239.40453547329221
 31
0.0
  0
LINE
  5
AA3
  8
0
 10
218.71576063392189
 20
224.40453547329221
 30
0.0
 11
218.71576063392169
 21
194.40453547329221
 31
0.0
  0
LINE
  5
AA4
  8
0
 10
211.46576063392169
 20
218.40453547329221
 30
0.0
 11
211.46576063392169
 21
213.9045354732923
 31
0.0
  0
LINE
  5
AA5
  8
CENTER
  6
CENTER
 10
207.46576063392169
 20
219.31030043042861
 30
0.0
 11
207.46576063392169
 21
211.15696743538541
 31
0.0
  0
LINE
  5
AA6
  8
0
 10
212.9657606339216
 20
224.4045354732921
 30
0.0
 11
212.9657606339216
 21
213.40453547329221
 31
0.0
  0
LINE
  5
AA7
  8
0
 10
203.46576063392189
 20
218.4045354732921
 30
0.0
 11
203.46576063392189
 21
213.9045354732923
 31
0.0
  0
LINE
  5
AA8
  8
0
 10
201.9657606339218
 20
218.4045354732921
 30
0.0
 11
201.9657606339218
 21
213.40453547329221
 31
0.0
  0
ARC
  5
AA9
  8
0
 10
200.96576063392189
 20
201.40453547329221
 30
0.0
 40
1.0
 50
270.0
 51
0.0
  0
ARC
  5
AAA
  8
0
 10
199.90516069390961
 20
185.4045354732921
 30
0.0
 40
3.0
 50
358.85423716182481
 51
90.0
  0
LINE
  5
AAB
  8
0
 10
199.4657606339218
 20
200.4045354732921
 30
0.0
 11
199.4657606339218
 21
188.4045354732921
 31
0.0
  0
LINE
  5
AAC
  8
0
 10
204.4657606339218
 20
212.90453547329221
 30
0.0
 11
210.4657606339216
 21
212.90453547329221
 31
0.0
  0
ARC
  5
AAD
  8
0
 10
200.96576063392189
 20
213.40453547329221
 30
0.0
 40
1.0
 50
270.0
 51
0.0
  0
ARC
  5
AAE
  8
0
 10
204.4657606339218
 20
213.9045354732923
 30
0.0
 40
1.0
 50
180.0
 51
270.0
  0
LINE
  5
AAF
  8
0
 10
201.9657606339218
 20
212.4045354732921
 30
0.0
 11
201.9657606339218
 21
201.40453547329221
 31
0.0
  0
ARC
  5
AB0
  8
0
 10
211.9657606339218
 20
213.40453547329221
 30
0.0
 40
1.0
 50
270.0
 51
0.0
  0
ARC
  5
AB1
  8
0
 10
210.4657606339216
 20
213.9045354732923
 30
0.0
 40
1.0
 50
270.0
 51
0.0
  0
LINE
  5
AB2
  8
0
 10
218.71576063392169
 20
194.40453547329221
 30
0.0
 11
219.71576063392189
 21
193.4045354732921
 31
0.0
  0
LINE
  5
AB3
  8
0
 10
224.71576063392189
 20
208.40453547329221
 30
0.0
 11
224.71576063392189
 21
202.40453547329221
 31
0.0
  0
LINE
  5
AB4
  8
0
 10
212.46576063392169
 20
237.4045354732921
 30
0.0
 11
212.46576063392169
 21
224.40453547329221
 31
0.0
  0
LINE
  5
AB5
  8
0
 10
203.46576063392189
 20
217.4045354732923
 30
0.0
 11
211.46576063392169
 21
217.4045354732923
 31
0.0
  0
ARC
  5
AB6
  8
0
 10
211.9657606339218
 20
219.40453547329221
 30
0.0
 40
1.0
 50
270.0
 51
0.0
  0
ARC
  5
AB7
  8
0
 10
210.4657606339216
 20
237.4045354732921
 30
0.0
 40
2.0
 50
0.0
 51
90.0
  0
LINE
  5
AB8
  8
0
 10
222.71576063392189
 20
239.40453547329221
 30
0.0
 11
222.71576063392169
 21
232.4045354732921
 31
0.0
  0
LINE
  5
AB9
  8
0
 10
219.96576063392169
 20
228.40453547329221
 30
0.0
 11
222.71576063392169
 21
228.40453547329221
 31
0.0
  0
LINE
  5
ABA
  8
0
 10
219.96576063392169
 20
232.4045354732921
 30
0.0
 11
222.71576063392169
 21
232.4045354732921
 31
0.0
  0
LINE
  5
ABB
  8
0
 10
219.96576063392169
 20
232.4045354732921
 30
0.0
 11
219.96576063392169
 21
228.40453547329221
 31
0.0
  0
LINE
  5
ABC
  8
0
 10
222.71576063392169
 20
228.40453547329221
 30
0.0
 11
222.71576063392169
 21
224.40453547329221
 31
0.0
  0
ARC
  5
ABD
  8
0
 10
198.96576063392169
 20
271.4045354732923
 30
0.0
 40
2.0
 50
0.0
 51
90.0
  0
LINE
  5
ABE
  8
CENTER
  6
CENTER
 10
179.96576063392169
 20
260.40453547329213
 30
0.0
 11
205.4657606339216
 21
260.40453547329213
 31
0.0
  0
ARC
  5
ABF
  8
0
 10
198.96576063392169
 20
271.4045354732923
 30
0.0
 40
2.0
 50
0.0
 51
90.0
  0
LINE
  5
AC0
  8
CENTER
  6
CENTER
 10
176.9657606339218
 20
260.40453547329213
 30
0.0
 11
178.96576063392169
 21
260.40453547329213
 31
0.0
  0
CIRCLE
  5
AC1
  8
0
 10
177.9657606339216
 20
260.40453547329213
 30
0.0
 40
5.0
  0
CIRCLE
  5
AC2
  8
0
 10
177.9657606339216
 20
260.40453547329213
 30
0.0
 40
6.5
  0
LINE
  5
AC3
  8
0
 10
191.9657606339218
 20
299.72249878405421
 30
0.0
 11
192.9657606339216
 21
298.72249878405421
 31
0.0
  0
LINE
  5
AC4
  8
0
 10
192.9657606339216
 20
298.72249878405421
 30
0.0
 11
192.9657606339216
 21
292.7224987840541
 31
0.0
  0
LINE
  5
AC5
  8
0
 10
207.9657606339216
 20
291.72249878405421
 30
0.0
 11
207.9657606339216
 21
280.40453547329219
 31
0.0
  0
ARC
  5
AC6
  8
0
 10
202.9657606339216
 20
271.4045354732923
 30
0.0
 40
2.0
 50
90.0
 51
180.0
  0
LINE
  5
AC7
  8
0
 10
199.4657606339218
 20
273.40453547329213
 30
0.0
 11
199.4657606339218
 21
280.40453547329219
 31
0.0
  0
LINE
  5
AC8
  8
0
 10
219.96576063392169
 20
284.40453547329241
 30
0.0
 11
222.71576063392169
 21
284.40453547329241
 31
0.0
  0
LINE
  5
AC9
  8
0
 10
219.96576063392169
 20
280.40453547329241
 30
0.0
 11
219.96576063392169
 21
284.40453547329241
 31
0.0
  0
LINE
  5
ACA
  8
0
 10
218.96576063392169
 20
280.40453547329219
 30
0.0
 11
218.96576063392169
 21
273.40453547329213
 31
0.0
  0
LINE
  5
ACB
  8
0
 10
217.46576063392169
 20
280.40453547329219
 30
0.0
 11
217.46576063392169
 21
273.40453547329213
 31
0.0
  0
LINE
  5
ACC
  8
0
 10
222.71576063392169
 20
280.40453547329219
 30
0.0
 11
222.71576063392169
 21
273.40453547329213
 31
0.0
  0
LINE
  5
ACD
  8
0
 10
206.9657606339218
 20
292.7224987840541
 30
0.0
 11
207.9657606339216
 21
291.72249878405421
 31
0.0
  0
LINE
  5
ACE
  8
DIM
 10
129.68823711767931
 20
364.39379440715368
 30
0.0
 11
124.5705369501752
 21
359.27609423964952
 31
0.0
  0
LINE
  5
ACF
  8
DIM
 10
129.68823711767931
 20
354.15839407214531
 30
0.0
 11
124.5705369501752
 21
359.27609423964952
 31
0.0
  0
LINE
  5
AD0
  8
DIM
  6
PHANTOM
 10
119.322115100384
 20
370.6663789967684
 30
0.0
 11
140.42498665409781
 21
370.6663789967684
 31
0.0
  0
LINE
  5
AD1
  8
DIM
  6
PHANTOM
 10
119.322115100384
 20
347.88580948253059
 30
0.0
 11
140.42498665409781
 21
347.88580948253059
 31
0.0
  0
LINE
  5
AD2
  8
DIM
  6
PHANTOM
 10
119.322115100384
 20
347.88580948253059
 30
0.0
 11
119.322115100384
 21
370.6663789967684
 31
0.0
  0
LINE
  5
AD3
  8
DIM
  6
PHANTOM
 10
116.2845922185974
 20
347.88580948253059
 30
0.0
 11
116.2845922185974
 21
370.6663789967684
 31
0.0
  0
CIRCLE
  5
AD4
  8
DIM
 10
111.0584739453631
 20
364.85154315087232
 30
0.0
 40
2.5176180904522591
  0
LINE
  5
AD5
  8
DIM
 10
106.0762779654635
 20
359.27609423964952
 30
0.0
 11
124.5705369501752
 21
359.27609423964952
 31
0.0
  0
POLYLINE
  5
AD6
  8
DIM
  6
HIDDEN
 66
     1
 10
0.0
 20
0.0
 30
0.0
  0
VERTEX
  5
E36
  8
DIM
  6
HIDDEN
 10
103.04116573765781
 20
355.92601048755557
 30
0.0
  0
VERTEX
  5
E37
  8
DIM
  6
HIDDEN
 10
103.04116573765781
 20
352.37789490966622
 30
0.0
  0
VERTEX
  5
E38
  8
DIM
  6
HIDDEN
 10
110.1422092887466
 20
352.37789490966622
 30
0.0
  0
VERTEX
  5
E39
  8
DIM
  6
HIDDEN
 10
110.1422092887466
 20
356.8409434858807
 30
0.0
  0
VERTEX
  5
E3A
  8
DIM
  6
HIDDEN
 10
106.0762779654635
 20
359.27609423964952
 30
0.0
  0
SEQEND
  5
E3B
  8
DIM
  6
HIDDEN
  0
LINE
  5
AD7
  8
DIM
 10
106.0762779654635
 20
362.6261779917433
 30
0.0
 11
106.0762779654635
 21
355.92601048755569
 31
0.0
  0
SOLID
  5
AD8
  8
DIM
 10
104.0662277142074
 20
358.9410858644402
 30
0.0
 11
104.0662277142074
 21
359.61110261485879
 31
0.0
 12
106.0762779654635
 22
359.27609423964952
 32
0.0
 13
106.0762779654635
 23
359.27609423964952
 33
0.0
  0
SOLID
  5
AD9
  8
DIM
 10
110.9076716003045
 20
364.48103561318379
 30
0.0
 11
111.3814437946093
 21
364.95480780748869
 31
0.0
 12
109.7232377644585
 22
366.13924164333451
 32
0.0
 13
109.7232377644585
 23
366.13924164333451
 33
0.0
  0
LINE
  5
ADA
  8
DIM
 10
111.1445576974568
 20
364.71792171033621
 30
0.0
 11
112.3334806455305
 21
363.52899876226257
 31
0.0
  0
LINE
  5
ADB
  8
DIM
 10
111.0584739453631
 20
359.27609423964952
 30
0.0
 11
111.0584739453631
 21
362.33392673546177
 31
0.0
  0
LINE
  5
ADC
  8
DIM
  6
PHANTOM
 10
140.42498665409781
 20
347.88580948253059
 30
0.0
 11
140.42498665409781
 21
370.6663789967684
 31
0.0
  0
LINE
  5
ADD
  8
DIM
 10
144.6627052470626
 20
359.27609423964952
 30
0.0
 11
134.80593728518349
 21
359.27609423964952
 31
0.0
  0
LINE
  5
ADE
  8
DIM
 10
129.68823711767931
 20
354.15839407214531
 30
0.0
 11
134.80593728518349
 21
359.27609423964952
 31
0.0
  0
LINE
  5
ADF
  8
DIM
 10
129.68823711767931
 20
364.39379440715368
 30
0.0
 11
134.80593728518349
 21
359.27609423964952
 31
0.0
  0
LINE
  5
AE0
  8
DIM
 10
129.68823711767931
 20
364.39379440715368
 30
0.0
 11
129.68823711767931
 21
361.8761779917433
 31
0.0
  0
LINE
  5
AE5
  8
0
 62
     7
 10
448.79617636489161
 20
286.16803445520281
 30
0.0
 11
460.79617636489138
 21
286.16803445520281
 31
0.0
  0
LINE
  5
AE6
  8
0
 62
     7
 10
448.79617636489081
 20
291.16803445520281
 30
0.0
 11
461.11413967565312
 21
291.16803445520281
 31
0.0
  0
LINE
  5
AE7
  8
0
 62
     7
 10
479.29617636489161
 20
150.85007114444079
 30
0.0
 11
404.29617636489121
 21
150.85007114444079
 31
0.0
  0
LINE
  5
AE8
  8
0
 62
     7
 10
479.29617636489161
 20
147.8500711444409
 30
0.0
 11
404.29617636489121
 21
147.8500711444409
 31
0.0
  0
LINE
  5
AE9
  8
0
 62
     7
 10
468.27656110064112
 20
57.074250687790872
 30
0.0
 11
452.79617636489138
 21
49.85007114444079
 31
0.0
  0
LINE
  5
AEA
  8
0
 62
     7
 10
415.79617636489138
 20
230.85007114444079
 30
0.0
 11
467.79617636489138
 21
230.85007114444079
 31
0.0
  0
LINE
  5
AEB
  8
0
 62
     7
 10
415.79617636489138
 20
226.85007114444079
 30
0.0
 11
467.79617636489138
 21
226.85007114444079
 31
0.0
  0
LINE
  5
AEC
  8
0
 62
     7
 10
397.79617636489138
 20
207.8500711444409
 30
0.0
 11
485.79617636489138
 21
207.8500711444409
 31
0.0
  0
LINE
  5
AED
  8
0
  6
CONTINUOUS
 62
     7
 10
405.79617636489132
 20
278.85007114444102
 30
0.0
 11
477.79617636489138
 21
278.85007114444068
 31
0.0
  0
LINE
  5
AEE
  8
CENTER
  6
CENTER
 10
443.79617636489172
 20
254.85007114444079
 30
0.0
 11
459.29617636489161
 21
254.85007114444079
 31
0.0
  0
CIRCLE
  5
AEF
  8
0
 62
     7
 10
441.79617636489161
 20
254.85007114444079
 30
0.0
 40
16.5
  0
LINE
  5
AF0
  8
0
 62
     7
 10
467.79617636489138
 20
226.85007114444079
 30
0.0
 11
415.79617636489138
 21
226.85007114444079
 31
0.0
  0
LINE
  5
AF1
  8
0
 62
     7
 10
467.79617636489138
 20
230.85007114444079
 30
0.0
 11
415.79617636489138
 21
230.85007114444079
 31
0.0
  0
LINE
  5
AF2
  8
0
 62
     7
 10
460.29617636489138
 20
278.85007114444102
 30
0.0
 11
423.29617636489138
 21
278.85007114444068
 31
0.0
  0
TEXT
  5
AF3
  8
DIM
  6
BYBLOCK
 10
362.18464916838798
 20
181.95286580793049
 30
0.0
 40
5.25
  1
PT 1
  7
R
  0
LINE
  5
AF4
  8
DIM
  6
BYBLOCK
 10
429.44363135522821
 20
238.84924502146109
 30
0.0
 11
394.94312203802758
 21
180.3005228540234
 31
0.0
  0
LINE
  5
AF6
  8
0
 62
     7
 10
401.7961763648911
 20
207.8500711444409
 30
0.0
 11
404.29617636489121
 21
147.8500711444409
 31
0.0
  0
LINE
  5
AF7
  8
CENTER
  6
CENTER
 10
441.79617636489161
 20
306.69175311676798
 30
0.0
 11
441.79617636489161
 21
34.959686663266723
 31
0.0
  0
LINE
  5
AF8
  8
0
 10
242.46576063392169
 20
209.40453547329221
 30
0.0
 11
244.96576063392169
 21
149.40453547329221
 31
0.0
  0
LINE
  5
AF9
  8
0
 10
322.46576063392172
 20
209.40453547329221
 30
0.0
 11
319.96576063392172
 21
149.40453547329221
 31
0.0
  0
LINE
  5
AFA
  8
CENTER
  6
CENTER
 10
282.46576063392172
 20
306.840674014157
 30
0.0
 11
282.46576063392172
 21
47.067364903869127
 31
0.0
  0
LINE
  5
AFB
  8
0
 10
271.46576063392172
 20
48.404535473292299
 30
0.0
 11
271.46576063392172
 21
51.404535473292292
 31
0.0
  0
LINE
  5
AFC
  8
0
 10
293.465760633922
 20
51.404535473292292
 30
0.0
 11
293.465760633922
 21
48.404535473292299
 31
0.0
  0
LINE
  5
AFD
  8
0
 10
271.46576063392172
 20
48.404535473292299
 30
0.0
 11
293.465760633922
 21
48.404535473292299
 31
0.0
  0
LINE
  5
AFE
  8
0
  6
CONTINUOUS
 10
284.03784931164449
 20
145.0650726538592
 30
0.0
 11
288.03784931164449
 21
145.0650726538592
 31
0.0
  0
LINE
  5
AFF
  8
0
  6
CONTINUOUS
 10
284.03784931164449
 20
144.0650726538592
 30
0.0
 11
288.03784931164449
 21
144.0650726538592
 31
0.0
  0
LINE
  5
B00
  8
0
  6
CONTINUOUS
 10
285.4657606339216
 20
138.4045354732921
 30
0.0
 11
282.46576063392172
 21
132.4045354732921
 31
0.0
  0
LINE
  5
B01
  8
0
  6
CONTINUOUS
 10
283.465760633922
 20
138.4045354732921
 30
0.0
 11
285.4657606339216
 21
138.4045354732921
 31
0.0
  0
LINE
  5
B02
  8
0
  6
CONTINUOUS
 10
272.46576063392172
 20
118.4045354732921
 30
0.0
 11
292.46576063392172
 21
118.4045354732921
 31
0.0
  0
LINE
  5
B03
  8
0
  6
CONTINUOUS
 10
282.46576063392172
 20
127.4045354732921
 30
0.0
 11
293.465760633922
 21
129.40453547329221
 31
0.0
  0
LINE
  5
B04
  8
0
  6
CONTINUOUS
 10
282.46576063392172
 20
122.4045354732921
 30
0.0
 11
293.465760633922
 21
124.4045354732922
 31
0.0
  0
LINE
  5
B05
  8
0
 10
271.46576063392172
 20
51.404535473292292
 30
0.0
 11
293.465760633922
 21
51.404535473292292
 31
0.0
  0
LINE
  5
B06
  8
0
 10
244.96576063392169
 20
152.4045354732921
 30
0.0
 11
319.96576063392172
 21
152.4045354732921
 31
0.0
  0
LINE
  5
B07
  8
0
 10
244.96576063392169
 20
149.40453547329221
 30
0.0
 11
319.96576063392172
 21
149.40453547329221
 31
0.0
  0
LINE
  5
B08
  8
0
 10
265.96576063392189
 20
141.90453547329221
 30
0.0
 11
265.96576063392189
 21
76.904535473292114
 31
0.0
  0
LINE
  5
B09
  8
0
 10
258.465760633922
 20
141.90453547329221
 30
0.0
 11
258.465760633922
 21
76.904535473292114
 31
0.0
  0
LINE
  5
B0A
  8
0
 10
252.46576063392169
 20
149.40453547329221
 30
0.0
 11
252.46576063392169
 21
63.404535473292299
 31
0.0
  0
LINE
  5
B0B
  8
0
 10
255.98537589817181
 20
58.628715016642218
 30
0.0
 11
271.46576063392172
 21
51.404535473292128
 31
0.0
  0
ARC
  5
B0C
  8
0
 10
257.46576063392172
 20
63.404535473292299
 30
0.0
 40
5.0
 50
180.0
 51
252.7778729299778
  0
LINE
  5
B0D
  8
0
 10
263.96576063392172
 20
74.904535473292185
 30
0.0
 11
260.4657606339216
 21
74.904535473292185
 31
0.0
  0
ARC
  5
B0E
  8
0
 10
260.4657606339216
 20
76.904535473292114
 30
0.0
 40
2.0
 50
180.0
 51
270.0
  0
ARC
  5
B0F
  8
0
 10
263.96576063392172
 20
76.904535473292114
 30
0.0
 40
2.0
 50
270.0
 51
0.0
  0
ARC
  5
B10
  8
0
  6
CONTINUOUS
 10
272.46576063392172
 20
119.9045354732921
 30
0.0
 40
1.5
 50
180.0
 51
270.0
  0
LINE
  5
B11
  8
0
  6
CONTINUOUS
 10
270.965760633922
 20
149.40453547329221
 30
0.0
 11
270.965760633922
 21
119.9045354732921
 31
0.0
  0
LINE
  5
B12
  8
0
 10
263.96576063392172
 20
143.90453547329221
 30
0.0
 11
260.4657606339216
 21
143.90453547329221
 31
0.0
  0
ARC
  5
B13
  8
0
 10
260.4657606339216
 20
141.90453547329221
 30
0.0
 40
2.0
 50
90.0
 51
180.0
  0
ARC
  5
B14
  8
0
  6
CONTINUOUS
 10
263.96576063392172
 20
141.90453547329221
 30
0.0
 40
2.0
 50
0.0
 51
90.0
  0
LINE
  5
B15
  8
0
  6
CONTINUOUS
 10
279.46576063392178
 20
138.4045354732921
 30
0.0
 11
282.46576063392172
 21
132.4045354732921
 31
0.0
  0
LINE
  5
B16
  8
0
  6
CONTINUOUS
 10
271.46576063392172
 20
149.40453547329221
 30
0.0
 11
271.46576063392172
 21
124.4045354732922
 31
0.0
  0
LINE
  5
B17
  8
0
  6
CONTINUOUS
 10
271.46576063392172
 20
129.40453547329221
 30
0.0
 11
282.46576063392172
 21
127.4045354732921
 31
0.0
  0
LINE
  5
B18
  8
0
  6
CONTINUOUS
 10
271.46576063392172
 20
124.4045354732922
 30
0.0
 11
282.46576063392172
 21
122.4045354732921
 31
0.0
  0
LINE
  5
B19
  8
0
  6
CONTINUOUS
 10
274.96576063392172
 20
123.7681718369286
 30
0.0
 11
274.96576063392172
 21
118.404535473292
 31
0.0
  0
CIRCLE
  5
B1A
  8
0
  6
CONTINUOUS
 10
282.46576063392172
 20
124.93942863568741
 30
0.0
 40
1.0
  0
ARC
  5
B1B
  8
0
  6
CONTINUOUS
 10
282.46576063392172
 20
121.45260799563179
 30
0.0
 40
1.0
 50
270.0
 51
0.0
  0
ARC
  5
B1C
  8
0
  6
CONTINUOUS
 10
282.46576063392172
 20
121.45260799563179
 30
0.0
 40
1.0
 50
180.0
 51
270.0
  0
LINE
  5
B1D
  8
0
  6
CONTINUOUS
 10
282.46576063392172
 20
120.45260799563189
 30
0.0
 11
282.46576063392172
 21
120.45260799563189
 31
0.0
  0
LINE
  5
B1E
  8
0
  6
CONTINUOUS
 10
283.465760633922
 20
122.5863536551103
 30
0.0
 11
283.465760633922
 21
121.45260799563179
 31
0.0
  0
LINE
  5
B1F
  8
0
  6
CONTINUOUS
 10
281.46576063392172
 20
122.5863536551103
 30
0.0
 11
281.46576063392172
 21
121.45260799563179
 31
0.0
  0
LINE
  5
B20
  8
0
  6
CONTINUOUS
 10
280.89367195619889
 20
145.0650726538592
 30
0.0
 11
276.89367195619911
 21
145.0650726538592
 31
0.0
  0
LINE
  5
B21
  8
0
  6
CONTINUOUS
 10
280.89367195619889
 20
144.0650726538592
 30
0.0
 11
276.89367195619911
 21
144.0650726538592
 31
0.0
  0
LINE
  5
B22
  8
0
  6
CONTINUOUS
 10
276.89367195619911
 20
145.0650726538592
 30
0.0
 11
276.89367195619911
 21
146.06507265385909
 31
0.0
  0
LINE
  5
B23
  8
0
  6
CONTINUOUS
 10
276.89367195619911
 20
144.0650726538592
 30
0.0
 11
276.89367195619911
 21
143.0650726538592
 31
0.0
  0
LINE
  5
B24
  8
0
  6
CONTINUOUS
 10
276.89367195619911
 20
146.06507265385909
 30
0.0
 11
273.89367195619877
 21
144.5650726538592
 31
0.0
  0
LINE
  5
B25
  8
0
  6
CONTINUOUS
 10
276.89367195619911
 20
143.0650726538592
 30
0.0
 11
273.89367195619877
 21
144.5650726538592
 31
0.0
  0
LINE
  5
B26
  8
0
  6
CONTINUOUS
 10
280.89367195619889
 20
144.5650726538592
 30
0.0
 11
280.89367195619889
 21
145.0650726538592
 31
0.0
  0
LINE
  5
B27
  8
0
  6
CONTINUOUS
 10
280.89367195619889
 20
144.5650726538592
 30
0.0
 11
280.89367195619889
 21
144.0650726538592
 31
0.0
  0
LINE
  5
B28
  8
0
  6
CONTINUOUS
 10
284.03784931164449
 20
144.5650726538592
 30
0.0
 11
284.03784931164449
 21
145.0650726538592
 31
0.0
  0
LINE
  5
B29
  8
0
  6
CONTINUOUS
 10
284.03784931164449
 20
144.5650726538592
 30
0.0
 11
284.03784931164449
 21
144.0650726538592
 31
0.0
  0
LINE
  5
B2A
  8
0
  6
CONTINUOUS
 10
282.46576063392172
 20
146.40453547329221
 30
0.0
 11
281.46576063392172
 21
146.40453547329221
 31
0.0
  0
LINE
  5
B2B
  8
0
  6
CONTINUOUS
 10
281.46576063392172
 20
138.4045354732921
 30
0.0
 11
279.46576063392178
 21
138.4045354732921
 31
0.0
  0
LINE
  5
B2C
  8
0
  6
CONTINUOUS
 10
281.46576063392172
 20
146.40453547329221
 30
0.0
 11
281.46576063392172
 21
138.4045354732921
 31
0.0
  0
LINE
  5
B2D
  8
0
  6
CONTINUOUS
 10
282.46576063392172
 20
146.40453547329221
 30
0.0
 11
283.465760633922
 21
146.40453547329221
 31
0.0
  0
LINE
  5
B2E
  8
0
  6
CONTINUOUS
 10
283.465760633922
 20
146.40453547329221
 30
0.0
 11
283.465760633922
 21
138.4045354732921
 31
0.0
  0
LINE
  5
B2F
  8
0
 10
306.46576063392172
 20
141.90453547329221
 30
0.0
 11
306.46576063392172
 21
76.904535473292114
 31
0.0
  0
LINE
  5
B30
  8
0
 10
298.96576063392172
 20
141.90453547329221
 30
0.0
 11
298.96576063392172
 21
76.904535473292114
 31
0.0
  0
LINE
  5
B31
  8
0
 10
312.46576063392172
 20
149.40453547329221
 30
0.0
 11
312.46576063392172
 21
63.404535473292299
 31
0.0
  0
LINE
  5
B32
  8
0
 10
308.94614536967168
 20
58.628715016642218
 30
0.0
 11
293.465760633922
 21
51.404535473292128
 31
0.0
  0
ARC
  5
B33
  8
0
 10
300.96576063392189
 20
76.904535473292114
 30
0.0
 40
2.0
 50
180.0
 51
270.0
  0
ARC
  5
B34
  8
0
 10
307.46576063392172
 20
63.404535473292299
 30
0.0
 40
5.0
 50
287.222127070022
 51
0.0
  0
ARC
  5
B35
  8
0
 10
304.46576063392178
 20
76.904535473292114
 30
0.0
 40
2.0
 50
270.0
 51
0.0
  0
LINE
  5
B36
  8
0
 10
300.96576063392189
 20
74.904535473292185
 30
0.0
 11
304.46576063392178
 21
74.904535473292185
 31
0.0
  0
ARC
  5
B37
  8
0
 10
300.96576063392189
 20
141.90453547329221
 30
0.0
 40
2.0
 50
90.0
 51
180.0
  0
LINE
  5
B38
  8
0
  6
CONTINUOUS
 10
293.96576063392172
 20
149.40453547329221
 30
0.0
 11
293.96576063392172
 21
119.9045354732921
 31
0.0
  0
LINE
  5
B39
  8
0
  6
CONTINUOUS
 10
293.465760633922
 20
149.40453547329221
 30
0.0
 11
293.465760633922
 21
124.4045354732922
 31
0.0
  0
ARC
  5
B3A
  8
0
  6
CONTINUOUS
 10
292.46576063392172
 20
119.9045354732921
 30
0.0
 40
1.5
 50
270.0
 51
0.0
  0
LINE
  5
B3B
  8
0
  6
CONTINUOUS
 10
289.96576063392172
 20
123.7681718369286
 30
0.0
 11
289.96576063392172
 21
118.4045354732921
 31
0.0
  0
LINE
  5
B3C
  8
0
  6
CONTINUOUS
 10
288.03784931164449
 20
145.0650726538592
 30
0.0
 11
288.03784931164449
 21
146.06507265385909
 31
0.0
  0
LINE
  5
B3D
  8
0
  6
CONTINUOUS
 10
288.03784931164449
 20
144.0650726538592
 30
0.0
 11
288.03784931164449
 21
143.0650726538592
 31
0.0
  0
LINE
  5
B3E
  8
0
  6
CONTINUOUS
 10
288.03784931164449
 20
146.06507265385909
 30
0.0
 11
291.03784931164461
 21
144.5650726538592
 31
0.0
  0
LINE
  5
B3F
  8
0
  6
CONTINUOUS
 10
288.03784931164449
 20
143.0650726538592
 30
0.0
 11
291.03784931164461
 21
144.5650726538592
 31
0.0
  0
ARC
  5
B40
  8
0
 10
304.46576063392178
 20
141.90453547329221
 30
0.0
 40
2.0
 50
0.0
 51
90.0
  0
LINE
  5
B41
  8
0
 10
300.96576063392189
 20
143.90453547329221
 30
0.0
 11
304.46576063392178
 21
143.90453547329221
 31
0.0
  0
LINE
  5
B42
  8
0
 62
     7
 10
452.79617636489138
 20
49.85007114444079
 30
0.0
 11
452.79617636489138
 21
46.850071144440903
 31
0.0
  0
LINE
  5
B43
  8
0
 62
     7
 10
452.79617636489138
 20
49.85007114444079
 30
0.0
 11
452.79617636489138
 21
46.850071144440903
 31
0.0
  0
LINE
  5
B44
  8
0
 62
     7
 10
430.79617636489132
 20
46.850071144440903
 30
0.0
 11
430.79617636489132
 21
49.85007114444079
 31
0.0
  0
LINE
  5
B45
  8
0
 62
     7
 10
430.79617636489132
 20
46.850071144440903
 30
0.0
 11
430.79617636489132
 21
49.85007114444079
 31
0.0
  0
LINE
  5
B46
  8
0
 10
438.79617636489093
 20
42.850071144440903
 30
0.0
 11
444.7961763648911
 21
42.850071144440903
 31
0.0
  0
LINE
  5
B47
  8
0
 62
     7
 10
439.54617636489132
 20
36.85007114444079
 30
0.0
 11
444.04617636489132
 21
36.85007114444079
 31
0.0
  0
LINE
  5
B48
  8
0
 10
438.79617636489093
 20
40.85007114444079
 30
0.0
 11
444.7961763648911
 21
40.85007114444079
 31
0.0
  0
LINE
  5
B49
  8
0
 62
     7
 10
438.79617636489161
 20
38.850071144440783
 30
0.0
 11
444.7961763648911
 21
38.850071144440783
 31
0.0
  0
LINE
  5
B4A
  8
0
 62
     7
 10
430.79617636489132
 20
46.850071144440903
 30
0.0
 11
452.79617636489138
 21
46.850071144440903
 31
0.0
  0
LINE
  5
B4B
  8
0
 62
     7
 10
430.79617636489132
 20
46.850071144440903
 30
0.0
 11
452.79617636489138
 21
46.850071144440903
 31
0.0
  0
LINE
  5
B4C
  8
0
 10
438.79617636489093
 20
46.850071144440683
 30
0.0
 11
438.79617636489093
 21
42.85007114444079
 31
0.0
  0
LINE
  5
B4D
  8
0
 62
     7
 10
438.79617636489161
 20
38.850071144440619
 30
0.0
 11
439.54617636489132
 21
36.850071144440669
 31
0.0
  0
LINE
  5
B4E
  8
0
 62
     7
 10
438.79617636489093
 20
40.850071144440669
 30
0.0
 11
439.54617636489132
 21
38.850071144440783
 31
0.0
  0
LINE
  5
B4F
  8
0
 10
438.79617636489093
 20
42.85007114444079
 30
0.0
 11
439.54617636489132
 21
40.85007114444079
 31
0.0
  0
LINE
  5
B50
  8
0
 10
444.7961763648911
 20
46.850071144440903
 30
0.0
 11
444.7961763648911
 21
42.850071144440903
 31
0.0
  0
LINE
  5
B51
  8
0
 62
     7
 10
444.7961763648911
 20
38.850071144440783
 30
0.0
 11
444.04617636489132
 21
36.85007114444079
 31
0.0
  0
LINE
  5
B52
  8
0
 62
     7
 10
444.7961763648911
 20
40.85007114444079
 30
0.0
 11
444.04617636489132
 21
38.850071144440783
 31
0.0
  0
LINE
  5
B53
  8
0
 10
444.7961763648911
 20
42.850071144440903
 30
0.0
 11
444.04617636489132
 21
40.850071144440903
 31
0.0
  0
LINE
  5
B54
  8
DIM
  6
BYBLOCK
 10
394.94312203802781
 20
180.3005228540234
 30
0.0
 11
361.74864880263812
 21
180.3005228540234
 31
0.0
  0
LINE
  5
B55
  8
0
 62
     7
 10
411.79617636489121
 20
147.8500711444409
 30
0.0
 11
411.79617636489121
 21
61.850071144440903
 31
0.0
  0
LINE
  5
B56
  8
0
 62
     7
 10
417.79617636489138
 20
140.3500711444409
 30
0.0
 11
417.79617636489138
 21
75.35007114444096
 31
0.0
  0
LINE
  5
B57
  8
0
 62
     7
 10
425.29617636489138
 20
140.3500711444409
 30
0.0
 11
425.29617636489138
 21
75.35007114444096
 31
0.0
  0
LINE
  5
B58
  8
0
 62
     7
 10
415.31579162914159
 20
57.074250687790872
 30
0.0
 11
430.79617636489132
 21
49.85007114444079
 31
0.0
  0
ARC
  5
B59
  8
0
 62
     7
 10
416.79617636489161
 20
61.850071144440903
 30
0.0
 40
5.0
 50
180.0
 51
252.7778729299778
  0
LINE
  5
B5A
  8
0
 62
     7
 10
423.29617636489138
 20
73.350071144440847
 30
0.0
 11
419.7961763648911
 21
73.350071144440847
 31
0.0
  0
ARC
  5
B5B
  8
0
 62
     7
 10
419.7961763648911
 20
75.35007114444096
 30
0.0
 40
2.0
 50
180.0
 51
270.0
  0
ARC
  5
B5C
  8
0
 62
     7
 10
423.29617636489138
 20
75.35007114444096
 30
0.0
 40
2.0
 50
270.0
 51
0.0
  0
LINE
  5
B5D
  8
0
 62
     7
 10
430.79617636489132
 20
49.85007114444079
 30
0.0
 11
452.79617636489138
 21
49.85007114444079
 31
0.0
  0
LINE
  5
B5E
  8
0
 62
     7
 10
430.79617636489132
 20
49.85007114444079
 30
0.0
 11
452.79617636489138
 21
49.85007114444079
 31
0.0
  0
LINE
  5
B5F
  8
0
 62
     7
 10
423.29617636489138
 20
142.3500711444409
 30
0.0
 11
419.7961763648911
 21
142.3500711444409
 31
0.0
  0
ARC
  5
B60
  8
0
 62
     7
 10
419.7961763648911
 20
140.3500711444409
 30
0.0
 40
2.0
 50
90.0
 51
180.0
  0
ARC
  5
B61
  8
0
 62
     7
 10
423.29617636489138
 20
140.3500711444409
 30
0.0
 40
2.0
 50
0.0
 51
90.0
  0
ARC
  5
B63
  8
0
 10
285.965760633922
 20
277.4045354732923
 30
0.0
 40
3.0
 50
90.0
 51
180.0
  0
ARC
  5
B64
  8
0
 10
287.48607099382798
 20
278.40453547329219
 30
0.0
 40
2.0
 50
90.0
 51
180.0
  0
LINE
  5
B65
  8
0
  6
CONTINUOUS
 10
288.96576063392172
 20
301.40453547329219
 30
0.0
 11
275.96576063392189
 21
301.40453547329219
 31
0.0
  0
LINE
  5
B66
  8
0
  6
CONTINUOUS
 10
287.71576063392172
 20
286.40453547329219
 30
0.0
 11
272.9657606339216
 21
286.40453547329219
 31
0.0
  0
LINE
  5
B67
  8
0
 10
237.71576063392169
 20
209.40453547329221
 30
0.0
 11
327.215760633922
 21
209.40453547329221
 31
0.0
  0
LINE
  5
B68
  8
0
 10
259.96576063392172
 20
273.40453547329213
 30
0.0
 11
285.4860709938277
 21
273.40453547329213
 31
0.0
  0
LINE
  5
B69
  8
0
 10
241.46576063392169
 20
239.4045354732921
 30
0.0
 11
323.465760633922
 21
239.4045354732921
 31
0.0
  0
LINE
  5
B6A
  8
0
 10
237.71576063392169
 20
280.40453547329219
 30
0.0
 11
327.215760633922
 21
280.40453547329219
 31
0.0
  0
LINE
  5
B6B
  8
CENTER
  6
CENTER
 10
230.7157606339218
 20
249.40453547329221
 30
0.0
 11
230.7157606339218
 21
254.40453547329221
 31
0.0
  0
LINE
  5
B6C
  8
0
 10
259.46576063392178
 20
271.40453547329213
 30
0.0
 11
259.46576063392178
 21
239.40453547329221
 31
0.0
  0
LINE
  5
B6D
  8
0
 10
247.9657606339216
 20
237.4045354732921
 30
0.0
 11
247.9657606339216
 21
209.40453547329221
 31
0.0
  0
LINE
  5
B6E
  8
0
 10
237.71576063392169
 20
228.40453547329199
 30
0.0
 11
237.71576063392169
 21
209.33057011154619
 31
0.0
  0
LINE
  5
B6F
  8
0
 10
241.71576063392169
 20
193.4045354732921
 30
0.0
 11
242.71576063392169
 21
194.40453547329221
 31
0.0
  0
LINE
  5
B70
  8
CENTER
  6
CENTER
 10
230.7157606339218
 20
216.65842834495481
 30
0.0
 11
230.7157606339218
 21
195.22508489688369
 31
0.0
  0
ARC
  5
B71
  8
0
 10
231.7157606339216
 20
202.40453547329221
 30
0.0
 40
5.0
 50
270.0
 51
0.0
  0
LINE
  5
B72
  8
0
 10
229.71576063392189
 20
197.40453547329221
 30
0.0
 11
231.7157606339216
 21
197.40453547329221
 31
0.0
  0
ARC
  5
B73
  8
0
 10
231.7157606339216
 20
208.40453547329221
 30
0.0
 40
5.0
 50
0.0
 51
90.0
  0
LINE
  5
B74
  8
0
 10
229.71576063392189
 20
213.40453547329221
 30
0.0
 11
231.7157606339216
 21
213.40453547329221
 31
0.0
  0
LINE
  5
B75
  8
0
 10
236.71576063392169
 20
208.40453547329221
 30
0.0
 11
236.71576063392169
 21
202.40453547329221
 31
0.0
  0
LINE
  5
B76
  8
0
 10
242.71576063392169
 20
203.40453547329221
 30
0.0
 11
242.71576063392169
 21
194.40453547329221
 31
0.0
  0
LINE
  5
B77
  8
0
 10
237.71576063392169
 20
239.40453547329221
 30
0.0
 11
237.71576063392169
 21
232.4045354732921
 31
0.0
  0
LINE
  5
B78
  8
0
 10
240.4657606339216
 20
232.4045354732921
 30
0.0
 11
240.4657606339216
 21
228.40453547329221
 31
0.0
  0
LINE
  5
B79
  8
0
 10
237.71576063392169
 20
228.40453547329221
 30
0.0
 11
240.4657606339216
 21
228.40453547329221
 31
0.0
  0
LINE
  5
B7A
  8
0
 10
237.71576063392169
 20
232.40453547329221
 30
0.0
 11
240.4657606339216
 21
232.40453547329221
 31
0.0
  0
LINE
  5
B7B
  8
CENTER
  6
CENTER
 10
232.71576063392169
 20
247.4045354732923
 30
0.0
 11
237.71576063392169
 21
247.4045354732923
 31
0.0
  0
LINE
  5
B7C
  8
0
 10
232.71576063392169
 20
250.86863708842989
 30
0.0
 11
228.71576063392169
 21
250.86863708842989
 31
0.0
  0
LINE
  5
B7D
  8
0
 10
234.71576063392189
 20
247.4045354732923
 30
0.0
 11
232.71576063392169
 21
250.86863708842989
 31
0.0
  0
LINE
  5
B7E
  8
0
 10
232.71576063392169
 20
243.94043385815451
 30
0.0
 11
234.71576063392189
 21
247.4045354732923
 31
0.0
  0
LINE
  5
B7F
  8
0
 10
228.71576063392169
 20
243.94043385815451
 30
0.0
 11
232.71576063392169
 21
243.94043385815451
 31
0.0
  0
LINE
  5
B80
  8
CENTER
  6
CENTER
 10
229.71576063392189
 20
247.4045354732923
 30
0.0
 11
231.7157606339216
 21
247.4045354732923
 31
0.0
  0
LINE
  5
B81
  8
CENTER
  6
CENTER
 10
230.7157606339218
 20
246.4045354732923
 30
0.0
 11
230.7157606339218
 21
248.4045354732921
 31
0.0
  0
LINE
  5
B82
  8
CENTER
  6
CENTER
 10
230.7157606339218
 20
245.40453547329221
 30
0.0
 11
230.7157606339218
 21
240.4045354732923
 31
0.0
  0
ARC
  5
B83
  8
0
 10
249.96576063392169
 20
237.4045354732921
 30
0.0
 40
2.0
 50
90.0
 51
180.0
  0
LINE
  5
B84
  8
0
 10
234.71576063392189
 20
265.4045354732923
 30
0.0
 11
232.71576063392169
 21
268.86863708842992
 31
0.0
  0
LINE
  5
B85
  8
CENTER
  6
CENTER
 10
230.7157606339218
 20
267.4045354732923
 30
0.0
 11
230.7157606339218
 21
272.4045354732923
 31
0.0
  0
LINE
  5
B86
  8
CENTER
  6
CENTER
 10
232.71576063392169
 20
265.4045354732923
 30
0.0
 11
237.71576063392169
 21
265.4045354732923
 31
0.0
  0
LINE
  5
B87
  8
0
 10
232.71576063392169
 20
261.94043385815451
 30
0.0
 11
234.71576063392189
 21
265.4045354732923
 31
0.0
  0
LINE
  5
B88
  8
0
 10
228.71576063392169
 20
261.94043385815451
 30
0.0
 11
232.71576063392169
 21
261.94043385815451
 31
0.0
  0
LINE
  5
B89
  8
CENTER
  6
CENTER
 10
229.71576063392189
 20
265.4045354732923
 30
0.0
 11
231.7157606339216
 21
265.4045354732923
 31
0.0
  0
LINE
  5
B8A
  8
CENTER
  6
CENTER
 10
230.7157606339218
 20
263.40453547329219
 30
0.0
 11
230.7157606339218
 21
258.40453547329213
 31
0.0
  0
LINE
  5
B8B
  8
CENTER
  6
CENTER
 10
230.7157606339218
 20
264.4045354732923
 30
0.0
 11
230.7157606339218
 21
266.4045354732923
 31
0.0
  0
LINE
  5
B8C
  8
0
 10
232.71576063392169
 20
268.86863708842992
 30
0.0
 11
228.71576063392169
 21
268.86863708842992
 31
0.0
  0
LINE
  5
B8D
  8
0
 10
240.4657606339216
 20
280.40453547329241
 30
0.0
 11
240.4657606339216
 21
284.40453547329241
 31
0.0
  0
LINE
  5
B8E
  8
0
 10
237.71576063392169
 20
284.40453547329241
 30
0.0
 11
240.4657606339216
 21
284.40453547329241
 31
0.0
  0
LINE
  5
B8F
  8
0
 10
241.46576063392169
 20
280.40453547329219
 30
0.0
 11
241.46576063392169
 21
273.40453547329213
 31
0.0
  0
LINE
  5
B90
  8
0
 10
237.71576063392169
 20
280.40453547329219
 30
0.0
 11
237.71576063392169
 21
273.40453547329213
 31
0.0
  0
LINE
  5
B91
  8
0
 10
242.9657606339216
 20
280.40453547329219
 30
0.0
 11
242.9657606339216
 21
273.40453547329213
 31
0.0
  0
LINE
  5
B92
  8
0
  6
CONTINUOUS
 10
272.46576063392172
 20
285.9045354732923
 30
0.0
 11
272.46576063392172
 21
280.40453547329219
 31
0.0
  0
ARC
  5
B93
  8
0
 10
261.46576063392172
 20
271.4045354732923
 30
0.0
 40
2.0
 50
90.0
 51
180.0
  0
ARC
  5
B94
  8
0
 10
257.46576063392172
 20
271.4045354732923
 30
0.0
 40
2.0
 50
0.0
 51
90.0
  0
ARC
  5
B95
  8
0
 10
261.46576063392172
 20
271.40453547329213
 30
0.0
 40
2.0
 50
90.0
 51
180.0
  0
LINE
  5
B96
  8
0
 10
282.9657606339216
 20
277.4045354732923
 30
0.0
 11
282.9657606339216
 21
273.40453547329213
 31
0.0
  0
ARC
  5
B97
  8
0
  6
CONTINUOUS
 10
275.96576063392189
 20
300.9045354732923
 30
0.0
 40
0.5000000000000001
 50
90.0
 51
180.0
  0
ARC
  5
B98
  8
0
  6
CONTINUOUS
 10
272.9657606339216
 20
285.9045354732923
 30
0.0
 40
0.5000000000000001
 50
90.0
 51
180.0
  0
LINE
  5
B99
  8
0
  6
CONTINUOUS
 10
275.4657606339216
 20
300.9045354732923
 30
0.0
 11
275.4657606339216
 21
286.40453547329219
 31
0.0
  0
LINE
  5
B9A
  8
0
 10
323.465760633922
 20
280.40453547329219
 30
0.0
 11
323.465760633922
 21
209.40453547329221
 31
0.0
  0
LINE
  5
B9B
  8
0
 10
321.96576063392178
 20
280.40453547329219
 30
0.0
 11
321.96576063392138
 21
239.4045354732921
 31
0.0
  0
LINE
  5
B9C
  8
0
 10
305.4657606339216
 20
278.40453547329219
 30
0.0
 11
305.4657606339216
 21
239.40453547329221
 31
0.0
  0
LINE
  5
B9D
  8
0
 10
307.9657606339216
 20
277.4045354732923
 30
0.0
 11
307.9657606339216
 21
239.40453547329221
 31
0.0
  0
LINE
  5
B9E
  8
0
 10
327.215760633922
 20
280.40453547329219
 30
0.0
 11
327.215760633922
 21
232.40453547329221
 31
0.0
  0
LINE
  5
B9F
  8
0
 10
316.96576063392138
 20
237.40453547329221
 30
0.0
 11
316.96576063392138
 21
209.40453547329221
 31
0.0
  0
LINE
  5
BA0
  8
0
 10
327.215760633922
 20
228.40453547329221
 30
0.0
 11
327.215760633922
 21
209.33057011154619
 31
0.0
  0
LINE
  5
BA1
  8
0
 10
324.46576063392178
 20
228.40453547329221
 30
0.0
 11
327.215760633922
 21
228.40453547329221
 31
0.0
  0
LINE
  5
BA2
  8
0
 10
324.46576063392178
 20
232.40453547329221
 30
0.0
 11
327.215760633922
 21
232.40453547329221
 31
0.0
  0
LINE
  5
BA3
  8
0
 10
324.46576063392178
 20
232.40453547329221
 30
0.0
 11
324.46576063392178
 21
228.40453547329221
 31
0.0
  0
ARC
  5
BA4
  8
0
 10
314.96576063392172
 20
237.40453547329221
 30
0.0
 40
2.0
 50
0.0
 51
90.0
  0
LINE
  5
BA5
  8
0
  6
CONTINUOUS
 10
304.715760633922
 20
280.40453547329219
 30
0.0
 11
304.715760633922
 21
289.9045354732923
 31
0.0
  0
LINE
  5
BA6
  8
0
  6
CONTINUOUS
 10
302.215760633922
 20
289.9045354732923
 30
0.0
 11
302.215760633922
 21
283.90453547329219
 31
0.0
  0
LINE
  5
BA7
  8
0
  6
CONTINUOUS
 10
294.71576063392189
 20
289.9045354732923
 30
0.0
 11
294.71576063392189
 21
283.90453547329219
 31
0.0
  0
LINE
  5
BA8
  8
0
  6
CONTINUOUS
 10
297.71576063392172
 20
289.9045354732923
 30
0.0
 11
297.71576063392172
 21
283.90453547329219
 31
0.0
  0
LINE
  5
BA9
  8
0
  6
CONTINUOUS
 10
290.21576063392172
 20
289.9045354732923
 30
0.0
 11
290.21576063392172
 21
283.90453547329219
 31
0.0
  0
LINE
  5
BAA
  8
CENTER
  6
CENTER
 10
296.21576063392172
 20
293.20492702407648
 30
0.0
 11
296.21576063392172
 21
280.36738253534128
 31
0.0
  0
LINE
  5
BAB
  8
0
  6
CONTINUOUS
 10
287.71576063392172
 20
280.40453547329219
 30
0.0
 11
287.71576063392172
 21
289.9045354732923
 31
0.0
  0
LINE
  5
BAC
  8
0
 10
287.46576063392172
 20
280.40453547329201
 30
0.0
 11
304.96576063392172
 21
280.40453547329219
 31
0.0
  0
LINE
  5
BAD
  8
0
  6
CONTINUOUS
 10
301.71576063392172
 20
283.4045354732923
 30
0.0
 11
298.21576063392178
 21
283.4045354732923
 31
0.0
  0
LINE
  5
BAE
  8
0
  6
CONTINUOUS
 10
290.71576063392178
 20
283.4045354732923
 30
0.0
 11
294.21576063392172
 21
283.4045354732923
 31
0.0
  0
LINE
  5
BAF
  8
0
 10
285.4860709938277
 20
278.40453547329219
 30
0.0
 11
285.4860709938277
 21
273.40453547329213
 31
0.0
  0
ARC
  5
BB0
  8
0
  6
CONTINUOUS
 10
290.71576063392178
 20
283.90453547329219
 30
0.0
 40
0.5000000000000001
 50
180.0
 51
270.0
  0
ARC
  5
BB1
  8
0
  6
CONTINUOUS
 10
298.21576063392178
 20
283.90453547329219
 30
0.0
 40
0.5000000000000001
 50
180.0
 51
270.0
  0
ARC
  5
BB2
  8
0
  6
CONTINUOUS
 10
294.21576063392172
 20
283.90453547329219
 30
0.0
 40
0.5000000000000001
 50
270.0
 51
0.0
  0
ARC
  5
BB3
  8
0
 10
304.96576063392172
 20
277.4045354732923
 30
0.0
 40
3.0
 50
0.0
 51
90.0
  0
ARC
  5
BB4
  8
0
  6
CONTINUOUS
 10
301.71576063392172
 20
283.90453547329219
 30
0.0
 40
0.5000000000000001
 50
270.0
 51
0.0
  0
ARC
  5
BB5
  8
0
 10
303.46576063392189
 20
278.40453547329219
 30
0.0
 40
2.0
 50
0.0
 51
90.0
  0
LINE
  5
BB6
  8
0
  6
CONTINUOUS
 10
304.21576063392172
 20
290.4045354732923
 30
0.0
 11
288.21576063392178
 21
290.4045354732923
 31
0.0
  0
LINE
  5
BB7
  8
0
  6
CONTINUOUS
 10
304.715760633922
 20
289.9045354732923
 30
0.0
 11
287.71576063392172
 21
289.9045354732923
 31
0.0
  0
ARC
  5
BB8
  8
0
  6
CONTINUOUS
 10
288.96576063392172
 20
300.9045354732923
 30
0.0
 40
0.5000000000000001
 50
0.0
 51
90.0
  0
LINE
  5
BB9
  8
0
  6
CONTINUOUS
 10
289.46576063392178
 20
300.9045354732923
 30
0.0
 11
289.46576063392178
 21
290.4045354732923
 31
0.0
  0
ARC
  5
BBA
  8
0
  6
CONTINUOUS
 10
288.21576063392178
 20
289.9045354732923
 30
0.0
 40
0.5000000000000001
 50
90.0
 51
180.0
  0
ARC
  5
BBB
  8
0
  6
CONTINUOUS
 10
304.21576063392172
 20
289.9045354732923
 30
0.0
 40
0.5000000000000001
 50
0.0
 51
90.0
  0
LINE
  5
BC3
  8
CENTER
  6
CENTER
 10
364.0704798270001
 20
258.85007114444079
 30
0.0
 11
405.848017979735
 21
258.85007114444079
 31
0.0
  0
LINE
  5
BC4
  8
0
 62
     7
 10
397.79617636489138
 20
237.85007114444079
 30
0.0
 11
415.79617636489138
 21
237.8500711444409
 31
0.0
  0
LINE
  5
BC5
  8
0
 62
     7
 10
398.59617636489111
 20
253.1500711444408
 30
0.0
 11
404.7961763648911
 21
253.1500711444408
 31
0.0
  0
LINE
  5
BC6
  8
0
 62
     7
 10
398.59617636489111
 20
264.55007114444072
 30
0.0
 11
404.7961763648911
 21
264.55007114444078
 31
0.0
  0
LINE
  5
BC7
  8
0
 62
     7
 10
397.66220176867341
 20
252.35007114444079
 30
0.0
 11
404.7961763648911
 21
252.35007114444079
 31
0.0
  0
LINE
  5
BC8
  8
0
 62
     7
 10
397.66220176867557
 20
265.35007114444079
 30
0.0
 11
404.7961763648911
 21
265.35007114444079
 31
0.0
  0
LINE
  5
BC9
  8
0
 62
     7
 10
415.79617636489138
 20
237.8500711444409
 30
0.0
 11
397.79617636489138
 21
237.8500711444409
 31
0.0
  0
LINE
  5
BCB
  8
0
 62
     7
 10
391.29617636489161
 20
284.3500711444409
 30
0.0
 11
391.29617636489161
 21
233.3500711444407
 31
0.0
  0
LINE
  5
BCC
  8
0
 10
366.29617636489161
 20
284.3500711444409
 30
0.0
 11
366.29617636489161
 21
233.3500711444407
 31
0.0
  0
TEXT
  5
BCD
  8
DIM
  6
BYBLOCK
 10
361.81378067822499
 20
190.905249048591
 30
0.0
 40
5.25
  1
PT 3/4
  7
R
  0
LINE
  5
BCE
  8
0
 10
367.2961763648911
 20
232.35007114444079
 30
0.0
 11
390.29617636489138
 21
232.35007114444079
 31
0.0
  0
ARC
  5
BCF
  8
0
 10
367.2961763648911
 20
233.3500711444407
 30
0.0
 40
1.0
 50
180.0
 51
270.0
  0
LINE
  5
BD0
  8
0
 62
     7
 10
396.79617636489121
 20
236.85007114444079
 30
0.0
 11
396.79617636489121
 21
208.85007114444079
 31
0.0
  0
ARC
  5
BD1
  8
0
 62
     7
 10
397.79617636489138
 20
208.85007114444079
 30
0.0
 40
1.0
 50
180.0
 51
270.0
  0
ARC
  5
BD2
  8
0
 62
     7
 10
390.29617636489138
 20
233.3500711444407
 30
0.0
 40
1.0
 50
270.0
 51
0.0
  0
ARC
  5
BD3
  8
0
 62
     7
 10
397.79617636489138
 20
236.85007114444079
 30
0.0
 40
1.0
 50
90.0
 51
180.0
  0
ARC
  5
BD4
  8
0
 62
     7
 10
397.79617636489138
 20
236.85007114444079
 30
0.0
 40
1.0
 50
90.0
 51
180.0
  0
LINE
  5
BD5
  8
0
 10
367.2961763648911
 20
285.35007114444068
 30
0.0
 11
390.29617636489138
 21
285.35007114444068
 31
0.0
  0
ARC
  5
BD6
  8
0
 10
367.2961763648911
 20
284.3500711444409
 30
0.0
 40
1.0
 50
90.0
 51
180.0
  0
ARC
  5
BD8
  8
0
 62
     7
 10
390.29617636489138
 20
284.3500711444409
 30
0.0
 40
1.0
 50
0.0
 51
90.0
  0
LINE
  5
BD9
  8
0
 62
     7
 10
391.29617636489161
 20
251.8500711444407
 30
0.0
 11
396.79617636489149
 21
251.8500711444407
 31
0.0
  0
LINE
  5
BDA
  8
0
 62
     7
 10
391.29617636489161
 20
265.8500711444409
 30
0.0
 11
396.79617636489149
 21
265.8500711444409
 31
0.0
  0
LINE
  5
BDB
  8
0
 62
     7
 10
398.59617636489111
 20
264.55007114444072
 30
0.0
 11
398.59617636489111
 21
253.1500711444408
 31
0.0
  0
ARC
  5
BDC
  8
0
 62
     7
 10
396.79617636489149
 20
252.85007114444079
 30
0.0
 40
1.0
 50
269.9999999999996
 51
0.0
  0
ARC
  5
BDD
  8
0
 62
     7
 10
396.79617636489149
 20
264.85007114444079
 30
0.0
 40
1.0
 50
0.0
 51
90.0
  0
LINE
  5
BDE
  8
0
 62
     7
 10
397.79617636489138
 20
264.85007114444079
 30
0.0
 11
397.79617636489138
 21
252.85007114444079
 31
0.0
  0
LINE
  5
BDF
  8
0
 62
     7
 10
404.7961763648911
 20
277.85007114444079
 30
0.0
 11
404.7961763648911
 21
237.85007114444079
 31
0.0
  0
LINE
  5
BE0
  8
0
 62
     7
 10
415.79617636489138
 20
271.35007114444102
 30
0.0
 11
415.79617636489138
 21
207.85007114444079
 31
0.0
  0
LINE
  5
BE1
  8
0
 62
     7
 10
404.7961763648911
 20
270.85007114444079
 30
0.0
 11
404.7961763648911
 21
237.8500711444409
 31
0.0
  0
CIRCLE
  5
BE2
  8
0
 62
     7
 10
441.79617636489161
 20
254.85007114444079
 30
0.0
 40
13.5
  0
SOLID
  5
BE3
  8
DIM
  6
BYBLOCK
 10
428.90516411972879
 20
239.1665430458695
 30
0.0
 11
429.9820985907283
 21
238.5319469970527
 31
0.0
 12
431.34741950167802
 22
242.0800484344586
 32
0.0
 13
431.34741950167802
 23
242.0800484344586
 33
0.0
  0
LINE
  5
BE4
  8
CENTER
  6
CENTER
 10
439.7961763648911
 20
254.85007114444079
 30
0.0
 11
424.29617636489149
 21
254.85007114444079
 31
0.0
  0
LINE
  5
BE5
  8
0
 62
     7
 10
426.79617636489161
 20
297.16803445520281
 30
0.0
 11
434.7961763648911
 21
297.16803445520281
 31
0.0
  0
LINE
  5
BE6
  8
0
 62
     7
 10
427.79617636489138
 20
298.16803445520293
 30
0.0
 11
434.7961763648911
 21
298.16803445520293
 31
0.0
  0
LINE
  5
BE7
  8
0
 62
     7
 10
426.29617636489161
 20
286.16803445520281
 30
0.0
 11
434.7961763648911
 21
286.16803445520281
 31
0.0
  0
LINE
  5
BE8
  8
0
 62
     7
 10
412.79617636489138
 20
291.16803445520281
 30
0.0
 11
434.7961763648911
 21
291.16803445520281
 31
0.0
  0
LINE
  5
BE9
  8
0
  6
CONTINUOUS
 62
     7
 10
426.29617636489161
 20
278.85007114444102
 30
0.0
 11
426.29617636489161
 21
288.35007114444079
 31
0.0
  0
LINE
  5
BEA
  8
0
  6
CONTINUOUS
 62
     7
 10
423.79617636489161
 20
288.35007114444079
 30
0.0
 11
423.79617636489161
 21
282.35007114444102
 31
0.0
  0
LINE
  5
BEB
  8
0
  6
CONTINUOUS
 62
     7
 10
409.2961763648911
 20
278.85007114444102
 30
0.0
 11
409.2961763648911
 21
288.35007114444079
 31
0.0
  0
LINE
  5
BEC
  8
CENTER
  6
CENTER
 10
417.79617636489138
 20
291.6504626952252
 30
0.0
 11
417.79617636489138
 21
276.33793398110299
 31
0.0
  0
LINE
  5
BED
  8
0
  6
CONTINUOUS
 62
     7
 10
416.29617636489081
 20
288.35007114444079
 30
0.0
 11
416.29617636489081
 21
282.35007114444102
 31
0.0
  0
LINE
  5
BEE
  8
0
  6
CONTINUOUS
 62
     7
 10
411.79617636489121
 20
288.35007114444079
 30
0.0
 11
411.79617636489121
 21
282.35007114444102
 31
0.0
  0
LINE
  5
BEF
  8
0
  6
CONTINUOUS
 62
     7
 10
419.29617636489161
 20
288.35007114444079
 30
0.0
 11
419.29617636489161
 21
282.35007114444102
 31
0.0
  0
LINE
  5
BF0
  8
0
 62
     7
 10
405.79617636489132
 20
269.85007114444079
 30
0.0
 11
415.79617636489138
 21
269.85007114444079
 31
0.0
  0
LINE
  5
BF1
  8
0
  6
CONTINUOUS
 62
     7
 10
412.2961763648911
 20
281.85007114444102
 30
0.0
 11
415.79617636489138
 21
281.85007114444102
 31
0.0
  0
ARC
  5
BF2
  8
0
 62
     7
 10
405.79617636489132
 20
268.85007114444079
 30
0.0
 40
1.0
 50
90.0
 51
180.0
  0
ARC
  5
BF3
  8
0
  6
CONTINUOUS
 62
     7
 10
405.79617636489132
 20
277.85007114444079
 30
0.0
 40
1.0
 50
90.0
 51
180.0
  0
ARC
  5
BF4
  8
0
  6
CONTINUOUS
 62
     7
 10
412.2961763648911
 20
282.35007114444102
 30
0.0
 40
0.5000000000000001
 50
180.0
 51
270.0
  0
LINE
  5
BF5
  8
0
  6
CONTINUOUS
 62
     7
 10
423.29617636489138
 20
281.85007114444102
 30
0.0
 11
419.7961763648911
 21
281.85007114444102
 31
0.0
  0
LINE
  5
BF6
  8
0
  6
CONTINUOUS
 62
     7
 10
423.29617636489138
 20
278.85007114444102
 30
0.0
 11
415.79617636489138
 21
271.35007114444102
 31
0.0
  0
ARC
  5
BF7
  8
0
  6
CONTINUOUS
 62
     7
 10
419.7961763648911
 20
282.35007114444102
 30
0.0
 40
0.5000000000000001
 50
180.0
 51
270.0
  0
ARC
  5
BF8
  8
0
  6
CONTINUOUS
 62
     7
 10
415.79617636489138
 20
282.35007114444102
 30
0.0
 40
0.5000000000000001
 50
270.0
 51
0.0
  0
ARC
  5
BF9
  8
0
  6
CONTINUOUS
 62
     7
 10
423.29617636489138
 20
282.35007114444102
 30
0.0
 40
0.5000000000000001
 50
270.0
 51
0.0
  0
LINE
  5
BFA
  8
0
  6
CONTINUOUS
 62
     7
 10
409.79617636489098
 20
288.85007114444102
 30
0.0
 11
425.79617636489132
 21
288.85007114444102
 31
0.0
  0
LINE
  5
BFB
  8
0
  6
CONTINUOUS
 62
     7
 10
409.2961763648911
 20
288.35007114444079
 30
0.0
 11
426.29617636489161
 21
288.35007114444079
 31
0.0
  0
ARC
  5
BFC
  8
0
  6
CONTINUOUS
 62
     7
 10
409.79617636489098
 20
288.35007114444079
 30
0.0
 40
0.5000000000000001
 50
90.0
 51
180.0
  0
LINE
  5
BFD
  8
0
 62
     7
 10
411.79617636489149
 20
290.16803445520281
 30
0.0
 11
412.79617636489138
 21
291.16803445520281
 31
0.0
  0
LINE
  5
BFE
  8
0
 62
     7
 10
411.79617636489149
 20
290.16803445520281
 30
0.0
 11
411.79617636489149
 21
288.85007114444102
 31
0.0
  0
ARC
  5
BFF
  8
0
  6
CONTINUOUS
 62
     7
 10
425.79617636489132
 20
288.35007114444079
 30
0.0
 40
0.5000000000000001
 50
0.0
 51
90.0
  0
LINE
  5
C00
  8
0
 62
     7
 10
426.79617636489161
 20
297.16803445520281
 30
0.0
 11
427.79617636489138
 21
298.16803445520293
 31
0.0
  0
LINE
  5
C01
  8
0
 62
     7
 10
426.79617636489161
 20
297.16803445520281
 30
0.0
 11
426.79617636489161
 21
291.16803445520281
 31
0.0
  0
ARC
  5
C02
  8
0
  6
CONTINUOUS
 62
     7
 10
451.29617636489093
 20
284.3500711444409
 30
0.0
 40
0.5000000000000001
 50
0.0
 51
90.0
  0
ARC
  5
C03
  8
0
  6
CONTINUOUS
 62
     7
 10
432.2961763648911
 20
284.3500711444409
 30
0.0
 40
0.5000000000000001
 50
90.0
 51
180.0
  0
LINE
  5
C04
  8
0
  6
CONTINUOUS
 62
     7
 10
431.79617636489161
 20
284.3500711444409
 30
0.0
 11
431.79617636489161
 21
278.85007114444102
 31
0.0
  0
LINE
  5
C05
  8
0
  6
CONTINUOUS
 62
     7
 10
451.7961763648911
 20
284.3500711444409
 30
0.0
 11
451.79617636489161
 21
278.8500711444409
 31
0.0
  0
LINE
  5
C08
  8
0
  6
CONTINUOUS
 62
     7
 10
435.29617636489138
 20
299.85007114444079
 30
0.0
 11
448.29617636489138
 21
299.85007114444079
 31
0.0
  0
LINE
  5
C09
  8
0
  6
CONTINUOUS
 62
     7
 10
432.2961763648911
 20
284.85007114444079
 30
0.0
 11
451.29617636489093
 21
284.85007114444079
 31
0.0
  0
ARC
  5
C0A
  8
0
  6
CONTINUOUS
 62
     7
 10
435.29617636489138
 20
299.3500711444409
 30
0.0
 40
0.5000000000000001
 50
90.0
 51
180.0
  0
LINE
  5
C0B
  8
0
  6
CONTINUOUS
 62
     7
 10
434.7961763648911
 20
299.3500711444409
 30
0.0
 11
434.7961763648911
 21
284.8500711444409
 31
0.0
  0
LINE
  5
C0D
  8
0
 62
     7
 10
448.79617636489081
 20
297.16803445520281
 30
0.0
 11
456.79617636489161
 21
297.16803445520281
 31
0.0
  0
LINE
  5
C0E
  8
0
 62
     7
 10
448.79617636489081
 20
298.16803445520293
 30
0.0
 11
455.79617636489132
 21
298.16803445520293
 31
0.0
  0
ARC
  5
C0F
  8
0
  6
CONTINUOUS
 62
     7
 10
448.29617636489138
 20
299.3500711444409
 30
0.0
 40
0.5000000000000001
 50
0.0
 51
90.0
  0
LINE
  5
C10
  8
0
  6
CONTINUOUS
 62
     7
 10
448.79617636489081
 20
299.3500711444409
 30
0.0
 11
448.79617636489161
 21
284.85007114444079
 31
0.0
  0
LINE
  5
C11
  8
0
 62
     7
 10
455.79617636489132
 20
298.16803445520293
 30
0.0
 11
456.79617636489161
 21
297.16803445520281
 31
0.0
  0
LINE
  5
C12
  8
0
 62
     7
 10
456.79617636489161
 20
297.16803445520281
 30
0.0
 11
456.79617636489161
 21
291.16803445520281
 31
0.0
  0
LINE
  5
C17
  8
0
 62
     7
 10
481.79617636489161
 20
207.8500711444409
 30
0.0
 11
479.29617636489161
 21
147.8500711444409
 31
0.0
  0
LINE
  5
C1A
  8
0
 62
     7
 10
471.7961763648911
 20
147.8500711444409
 30
0.0
 11
471.7961763648911
 21
61.850071144440903
 31
0.0
  0
LINE
  5
C1B
  8
0
 62
     7
 10
458.29617636489132
 20
140.3500711444409
 30
0.0
 11
458.29617636489132
 21
75.35007114444096
 31
0.0
  0
LINE
  5
C1C
  8
0
 62
     7
 10
465.79617636489138
 20
140.3500711444409
 30
0.0
 11
465.79617636489138
 21
75.35007114444096
 31
0.0
  0
ARC
  5
C1D
  8
0
 62
     7
 10
466.79617636489121
 20
61.850071144440903
 30
0.0
 40
5.0
 50
287.222127070022
 51
0.0
  0
ARC
  5
C1E
  8
0
 62
     7
 10
463.79617636489093
 20
75.35007114444096
 30
0.0
 40
2.0
 50
270.0
 51
0.0
  0
LINE
  5
C1F
  8
0
 62
     7
 10
460.29617636489138
 20
73.350071144440847
 30
0.0
 11
463.79617636489093
 21
73.350071144440847
 31
0.0
  0
ARC
  5
C20
  8
0
 62
     7
 10
460.29617636489138
 20
75.35007114444096
 30
0.0
 40
2.0
 50
180.0
 51
270.0
  0
ARC
  5
C21
  8
0
 62
     7
 10
463.79617636489093
 20
140.3500711444409
 30
0.0
 40
2.0
 50
0.0
 51
90.0
  0
LINE
  5
C22
  8
0
 62
     7
 10
460.29617636489138
 20
142.3500711444409
 30
0.0
 11
463.79617636489093
 21
142.3500711444409
 31
0.0
  0
ARC
  5
C23
  8
0
 62
     7
 10
460.29617636489138
 20
140.3500711444409
 30
0.0
 40
2.0
 50
90.0
 51
180.0
  0
LINE
  5
C2E
  8
0
 62
     7
 10
467.79617636489138
 20
271.35007114444079
 30
0.0
 11
467.79617636489138
 21
207.85007114444079
 31
0.0
  0
LINE
  5
C2F
  8
0
 62
     7
 10
478.79617636489081
 20
277.85007114444079
 30
0.0
 11
478.79617636489081
 21
237.8500711444409
 31
0.0
  0
LINE
  5
C30
  8
0
 10
512.79617636489127
 20
270.60007114444102
 30
0.0
 11
512.79617636489127
 21
193.1000711444409
 31
0.0
  0
LINE
  5
C31
  8
0
 62
     7
 10
478.79617636489161
 20
270.85007114444079
 30
0.0
 11
478.79617636489161
 21
237.85007114444079
 31
0.0
  0
ARC
  5
C32
  8
0
 62
     7
 10
485.54617636489149
 20
236.6000711444409
 30
0.0
 40
1.25
 50
0.0
 51
90.0
  0
ARC
  5
C33
  8
0
 62
     7
 10
485.79617636489138
 20
208.85007114444079
 30
0.0
 40
1.0
 50
270.0
 51
0.0
  0
LINE
  5
C34
  8
0
 62
     7
 10
467.79617636489138
 20
237.8500711444409
 30
0.0
 11
485.54617636489149
 21
237.8500711444409
 31
0.0
  0
LINE
  5
C35
  8
0
 62
     7
 10
485.79617636489138
 20
237.85007114444079
 30
0.0
 11
467.79617636489138
 21
237.8500711444409
 31
0.0
  0
LINE
  5
C36
  8
0
 62
     7
 10
486.79617636489149
 20
236.6000711444409
 30
0.0
 11
486.79617636489149
 21
208.85007114444079
 31
0.0
  0
LINE
  5
C37
  8
0
 10
502.79617636489138
 20
218.5051726538909
 30
0.0
 11
502.79617636489138
 21
193.1000711444409
 31
0.0
  0
LINE
  5
C3A
  8
HIDDEN
  6
HIDDEN
 10
502.79617636489138
 20
195.8500711444409
 30
0.0
 11
512.79617636489127
 21
195.8500711444409
 31
0.0
  0
LINE
  5
C3B
  8
0
 10
504.04617636489132
 20
191.8500711444409
 30
0.0
 11
511.54617636489149
 21
191.8500711444409
 31
0.0
  0
LINE
  5
C3C
  8
0
 10
502.79617636489138
 20
193.1000711444409
 30
0.0
 11
504.04617636489132
 21
191.8500711444409
 31
0.0
  0
LINE
  5
C3D
  8
0
 10
512.79617636489127
 20
193.1000711444409
 30
0.0
 11
511.54617636489149
 21
191.8500711444409
 31
0.0
  0
LINE
  5
C3E
  8
HIDDEN
  6
HIDDEN
 10
502.79617636489138
 20
211.85007114444099
 30
0.0
 11
512.79617636489127
 21
211.85007114444099
 31
0.0
  0
ARC
  5
C3F
  8
0
 10
496.54617636489149
 20
218.5051726538909
 30
0.0
 40
6.25
 50
0.0
 51
56.309932474020442
  0
LINE
  5
C41
  8
0
 10
500.01305259129902
 20
223.70548699350249
 30
0.0
 11
486.79617636489149
 21
232.5167378111075
 31
0.0
  0
LINE
  5
C43
  8
0
 10
511.54617636489149
 20
271.85007114444102
 30
0.0
 11
478.79617636489081
 21
271.8500711444409
 31
0.0
  0
LINE
  5
C44
  8
CENTER
  6
CENTER
 10
465.29617636489138
 20
295.08975405000808
 30
0.0
 11
465.29617636489138
 21
275.93072607260967
 31
0.0
  0
LINE
  5
C45
  8
0
  6
CONTINUOUS
 62
     7
 10
460.79617636489138
 20
278.85007114444068
 30
0.0
 11
460.79617636489138
 21
290.85007114444079
 31
0.0
  0
LINE
  5
C46
  8
0
  6
CONTINUOUS
 62
     7
 10
469.7961763648911
 20
278.85007114444102
 30
0.0
 11
469.7961763648911
 21
290.85007114444079
 31
0.0
  0
LINE
  5
C47
  8
0
 62
     7
 10
471.79617636489161
 20
290.16803445520281
 30
0.0
 11
471.79617636489161
 21
278.85007114444068
 31
0.0
  0
LINE
  5
C48
  8
0
 62
     7
 10
467.79617636489138
 20
269.85007114444079
 30
0.0
 11
477.79617636489138
 21
269.85007114444079
 31
0.0
  0
LINE
  5
C49
  8
0
 62
     7
 10
467.79617636489138
 20
271.35007114444079
 30
0.0
 11
460.29617636489138
 21
278.8500711444409
 31
0.0
  0
ARC
  5
C4A
  8
0
 62
     7
 10
477.79617636489138
 20
277.85007114444079
 30
0.0
 40
1.0
 50
0.0
 51
90.0
  0
ARC
  5
C4B
  8
0
 62
     7
 10
477.79617636489138
 20
268.85007114444079
 30
0.0
 40
1.0
 50
0.0
 51
90.0
  0
LINE
  5
C4C
  8
0
  6
CONTINUOUS
 62
     7
 10
461.79617636489121
 20
291.8500711444409
 30
0.0
 11
468.79617636489093
 21
291.8500711444409
 31
0.0
  0
LINE
  5
C4D
  8
0
  6
CONTINUOUS
 62
     7
 10
461.79617636489121
 20
291.8500711444409
 30
0.0
 11
460.79617636489138
 21
290.85007114444079
 31
0.0
  0
LINE
  5
C4E
  8
0
 62
     7
 10
469.7961763648911
 20
286.16803445520281
 30
0.0
 11
471.79617636489161
 21
286.16803445520281
 31
0.0
  0
LINE
  5
C4F
  8
0
 62
     7
 10
469.4782130541293
 20
291.16803445520281
 30
0.0
 11
470.79617636489132
 21
291.16803445520281
 31
0.0
  0
LINE
  5
C50
  8
0
  6
CONTINUOUS
 62
     7
 10
469.7961763648911
 20
290.85007114444079
 30
0.0
 11
468.79617636489093
 21
291.8500711444409
 31
0.0
  0
LINE
  5
C51
  8
0
 62
     7
 10
470.79617636489132
 20
291.16803445520281
 30
0.0
 11
471.79617636489161
 21
290.16803445520281
 31
0.0
  0
LINE
  5
C54
  8
0
 10
511.54617636489149
 20
271.85007114444102
 30
0.0
 11
512.79617636489127
 21
270.60007114444102
 31
0.0
  0
DIMENSION
  5
C5C
  8
DIM
  2
*D18
 10
327.215760633922
 20
316.86138579224689
 30
0.0
 11
177.96576063392189
 21
321.86138579224689
 31
0.0
 70
     0
 13
28.715760633921771
 23
280.40453547329213
 33
0.0
 14
327.215760633922
 24
282.90453547329219
 34
0.0
  0
DIMENSION
  5
C69
  8
DIM
  2
*D19
 10
230.7157606339218
 20
114.71455301183531
 30
0.0
 11
178.46576063392169
 21
119.71455301183531
 31
0.0
 70
     0
 13
126.2157606339217
 23
195.22508489688349
 33
0.0
 14
230.7157606339218
 24
192.72508489688369
 34
0.0
  0
DIMENSION
  5
C76
  8
DIM
  2
*D20
 10
132.21576063392189
 20
174.7543799314459
 30
0.0
 11
126.2157606339218
 21
158.7543799314459
 31
0.0
 70
     0
 13
120.2157606339217
 23
202.4045354732921
 33
0.0
 14
132.21576063392189
 24
202.4045354732921
 34
0.0
  0
DIMENSION
  5
C83
  8
DIM
  2
*D21
 10
102.38859488160151
 20
213.40453547329221
 30
0.0
 11
97.388594881601549
 21
205.40453547329221
 31
0.0
 70
     0
 13
126.2157606339217
 23
197.4045354732921
 33
0.0
 14
125.2157606339217
 24
213.40453547329221
 34
0.0
 50
90.0
  0
DIMENSION
  5
C90
  8
DIM
  2
*D22
 10
441.79617636489161
 20
331.71815116546207
 30
0.0
 11
477.29617636489149
 21
336.71815116546207
 31
0.0
 70
     0
 13
512.79617636489127
 23
270.60007114444102
 33
0.0
 14
441.79617636489161
 24
309.62332621911952
 34
0.0
  0
DIMENSION
  5
C9D
  8
DIM
  2
*D23
 10
502.79617636489138
 20
180.74011301621431
 30
0.0
 11
507.79617636489138
 21
164.74011301621431
 31
0.0
 70
     0
 13
512.79617636489127
 23
193.10007114444079
 33
0.0
 14
502.79617636489138
 24
193.10007114444079
 34
0.0
  0
DIMENSION
  5
CAA
  8
DIM
  2
*D24
 10
531.40803059759355
 20
254.85007114444079
 30
0.0
 11
526.40803059759355
 21
277.3500711444409
 31
0.0
 70
     0
 13
448.29617636489138
 23
299.8500711444409
 33
0.0
 14
512.79617636489127
 24
254.85007114444079
 34
0.0
 50
90.0
  0
DIMENSION
  5
CB7
  8
DIM
  2
*D25
 10
396.79617636489121
 20
305.1828450461461
 30
0.0
 11
441.79617636489138
 21
310.1828450461461
 31
0.0
 70
     0
 13
486.79617636489161
 23
236.6000711444409
 33
0.0
 14
396.79617636489121
 24
236.85007114444079
 34
0.0
  0
DIMENSION
  5
D0C
  8
DIM
  2
*D26
 10
366.29617636489098
 20
316.078617983036
 30
0.0
 11
404.04617636489132
 21
321.078617983036
 31
0.0
 70
     0
 13
441.79617636489161
 23
299.66803445520281
 33
0.0
 14
366.29617636489098
 24
284.3500711444409
 34
0.0
  0
DIMENSION
  5
D19
  8
DIM
  2
*D27
 10
531.40803059759355
 20
36.85007114444079
 30
0.0
 11
526.40803059759355
 21
145.8500711444409
 31
0.0
 70
     0
 13
459.29617636489161
 23
254.85007114444079
 33
0.0
 14
444.04617636489132
 24
36.850071144440811
 34
0.0
 50
90.0
  0
DIMENSION
  5
D2F
  8
DIM
  2
*D28
 10
524.12420186957957
 20
203.85007114444099
 30
0.0
 11
519.12420186957957
 21
229.3500711444409
 31
0.0
 70
     0
 13
459.29617636489161
 23
254.85007114444079
 33
0.0
 14
515.96714944552855
 24
203.85007114444099
 34
0.0
 50
90.0
  0
LINE
  5
E06
  8
CENTER
  6
CENTER
 10
520.01065180090768
 20
203.8500711444409
 30
0.0
 11
500.23605504714709
 21
203.8500711444409
 31
0.0
  0
ENDSEC
  0
EOF
