  0
SECTION
  2
HEADER
  9
$ACADVER
  1
AC1009
  9
$INSBASE
 10
0.0
 20
0.0
 30
0.0
  9
$EXTMIN
 10
-1051.23040686323
 20
518.00562051148017
 30
-0.0000000349181948
  9
$EXTMAX
 10
-466.22225244125309
 20
1140.635563474654
 30
0.0000000814935746
  9
$LIMMIN
 10
0.0
 20
0.0
  9
$LIMMAX
 10
420.0
 20
297.0
  9
$ORTHOMODE
 70
     1
  9
$REGENMODE
 70
     1
  9
$FILLMODE
 70
     1
  9
$QTEXTMODE
 70
     0
  9
$MIRRTEXT
 70
     1
  9
$DRAGMODE
 70
     2
  9
$LTSCALE
 40
0.5
  9
$OSMODE
 70
    39
  9
$ATTMODE
 70
     1
  9
$TEXTSIZE
 40
25.0
  9
$TRACEWID
 40
1.0
  9
$TEXTSTYLE
  7
CHINESET
  9
$CLAYER
  8
0
  9
$CELTYPE
  6
BYBLOCK
  9
$CECOLOR
 62
   256
  9
$DIMSCALE
 40
1.0
  9
$DIMASZ
 40
3.0
  9
$DIMEXO
 40
2.0
  9
$DIMDLI
 40
8.0
  9
$DIMRND
 40
0.0
  9
$DIMDLE
 40
0.0
  9
$DIMEXE
 40
2.0
  9
$DIMTP
 40
0.0
  9
$DIMTM
 40
0.0
  9
$DIMTXT
 40
3.0
  9
$DIMCEN
 40
-2.5
  9
$DIMTSZ
 40
0.0
  9
$DIMTOL
 70
     0
  9
$DIMLIM
 70
     0
  9
$DIMTIH
 70
     0
  9
$DIMTOH
 70
     0
  9
$DIMSE1
 70
     0
  9
$DIMSE2
 70
     0
  9
$DIMTAD
 70
     1
  9
$DIMZIN
 70
     8
  9
$DIMBLK
  1

  9
$DIMASO
 70
     1
  9
$DIMSHO
 70
     1
  9
$DIMPOST
  1

  9
$DIMAPOST
  1

  9
$DIMALT
 70
     0
  9
$DIMALTD
 70
     4
  9
$DIMALTF
 40
0.0394
  9
$DIMLFAC
 40
1.0
  9
$DIMTOFL
 70
     0
  9
$DIMTVP
 40
0.0
  9
$DIMTIX
 70
     0
  9
$DIMSOXD
 70
     0
  9
$DIMSAH
 70
     0
  9
$DIMBLK1
  1

  9
$DIMBLK2
  1

  9
$DIMSTYLE
  2
STANDARD
  9
$DIMCLRD
 70
   256
  9
$DIMCLRE
 70
   256
  9
$DIMCLRT
 70
   256
  9
$DIMTFAC
 40
1.0
  9
$DIMGAP
 40
1.0
  9
$LUNITS
 70
     2
  9
$LUPREC
 70
     4
  9
$SKETCHINC
 40
1.0
  9
$FILLETRAD
 40
1.0
  9
$AUNITS
 70
     0
  9
$AUPREC
 70
     0
  9
$MENU
  1
.
  9
$ELEVATION
 40
0.0
  9
$PELEVATION
 40
0.0
  9
$THICKNESS
 40
0.0
  9
$LIMCHECK
 70
     0
  9
$BLIPMODE
 70
     0
  9
$CHAMFERA
 40
0.5
  9
$CHAMFERB
 40
0.5
  9
$SKPOLY
 70
     0
  9
$TDCREATE
 40
2451564.584198507
  9
$TDUPDATE
 40
2451948.5962670599
  9
$TDINDWG
 40
0.0061818056
  9
$TDUSRTIMER
 40
0.0061818056
  9
$USRTIMER
 70
     1
  9
$ANGBASE
 50
0.0
  9
$ANGDIR
 70
     0
  9
$PDMODE
 70
     0
  9
$PDSIZE
 40
0.0
  9
$PLINEWID
 40
0.0
  9
$COORDS
 70
     2
  9
$SPLFRAME
 70
     0
  9
$SPLINETYPE
 70
     6
  9
$SPLINESEGS
 70
     8
  9
$ATTDIA
 70
     0
  9
$ATTREQ
 70
     1
  9
$HANDLING
 70
 12289
  9
$HANDSEED
  5
1992
  9
$SURFTAB1
 70
     6
  9
$SURFTAB2
 70
     6
  9
$SURFTYPE
 70
     6
  9
$SURFU
 70
     6
  9
$SURFV
 70
     6
  9
$UCSNAME
  2

  9
$UCSORG
 10
0.0
 20
0.0
 30
0.0
  9
$UCSXDIR
 10
1.0
 20
0.0
 30
0.0
  9
$UCSYDIR
 10
0.0
 20
1.0
 30
0.0
  9
$PUCSNAME
  2

  9
$PUCSORG
 10
0.0
 20
0.0
 30
0.0
  9
$PUCSXDIR
 10
1.0
 20
0.0
 30
0.0
  9
$PUCSYDIR
 10
0.0
 20
1.0
 30
0.0
  9
$USERI1
 70
     0
  9
$USERI2
 70
     0
  9
$USERI3
 70
     0
  9
$USERI4
 70
     0
  9
$USERI5
 70
     0
  9
$USERR1
 40
0.0
  9
$USERR2
 40
0.0
  9
$USERR3
 40
0.0
  9
$USERR4
 40
0.0
  9
$USERR5
 40
0.0
  9
$WORLDVIEW
 70
     1
  9
$SHADEDGE
 70
     3
  9
$SHADEDIF
 70
    70
  9
$TILEMODE
 70
     1
  9
$MAXACTVP
 70
    48
  9
$PLIMCHECK
 70
     0
  9
$PEXTMIN
 10
1.0000000000000000E+020
 20
1.0000000000000000E+020
 30
1.0000000000000000E+020
  9
$PEXTMAX
 10
-1.0000000000000000E+020
 20
-1.0000000000000000E+020
 30
-1.0000000000000000E+020
  9
$PLIMMIN
 10
0.0
 20
0.0
  9
$PLIMMAX
 10
420.0
 20
297.0
  9
$UNITMODE
 70
     0
  9
$VISRETAIN
 70
     1
  9
$PLINEGEN
 70
     0
  9
$PSLTSCALE
 70
     1
  0
ENDSEC
  0
SECTION
  2
TABLES
  0
TABLE
  2
VPORT
 70
     2
  0
VPORT
  2
*ACTIVE
 70
     0
 10
0.0
 20
0.0
 11
1.0
 21
1.0
 12
-758.72632965224147
 22
829.32059199306718
 13
0.0
 23
0.0
 14
10.0
 24
10.0
 15
10.0
 25
10.0
 16
0.0
 26
0.0
 36
1.0
 17
0.0
 27
0.0
 37
0.0
 40
629.4971849811501
 41
1.7274401473296499
 42
50.0
 43
0.0
 44
0.0
 50
0.0
 51
0.0
 71
     0
 72
   100
 73
     1
 74
     1
 75
     0
 76
     0
 77
     0
 78
     0
  0
ENDTAB
  0
TABLE
  2
LTYPE
 70
     6
  0
LTYPE
  2
CONTINUOUS
 70
     0
  3
Solid line
 72
    65
 73
     0
 40
0.0
  0
LTYPE
  2
ACAD_ISO04W100
 70
     0
  3
ISO long-dash dot ____ . ____ . ____ . ____ . _
 72
    65
 73
     4
 40
30.5
 49
24.0
 49
-3.0
 49
0.5
 49
-3.0
  0
LTYPE
  2
CENTER
 70
     0
  3
Center ____ _ ____ _ ____ _ ____ _ ____ _ ____
 72
    65
 73
     4
 40
50.799999999999997
 49
31.75
 49
-6.3499999999999988
 49
6.3499999999999988
 49
-6.3499999999999988
  0
LTYPE
  2
HIDDEN
 70
     0
  3
_ _ _ _ _ _ _ _ _ _ _ _ _ _ _ _ _ _ _ _ _ _ _
 72
    65
 73
     2
 40
0.375
 49
0.25
 49
-0.125
  0
LTYPE
  2
PHANTOM
 70
     0
  3
_____ _ _ _____ _ _ _____ _ _ _____ _ _ ____
 72
    65
 73
     6
 40
2.5
 49
1.25
 49
-0.25
 49
0.25
 49
-0.25
 49
0.25
 49
-0.25
  0
LTYPE
  2
ASULTYPE
 70
     0
  3
實線
 72
    65
 73
     2
 40
3.0
 49
2.5
 49
0.5
  0
ENDTAB
  0
TABLE
  2
LAYER
 70
     6
  0
LAYER
  2
0
 70
     0
 62
     7
  6
CONTINUOUS
  0
LAYER
  2
DIM
 70
     0
 62
     5
  6
CONTINUOUS
  0
LAYER
  2
DEFPOINTS
 70
     0
 62
     7
  6
CONTINUOUS
  0
LAYER
  2
CENTER
 70
     0
 62
     1
  6
CENTER
  0
LAYER
  2
LOGO
 70
     0
 62
     7
  6
CONTINUOUS
  0
LAYER
  2
HIDDEN
 70
     0
 62
     6
  6
HIDDEN
  0
ENDTAB
  0
TABLE
  2
STYLE
 70
     6
  0
STYLE
  2
STANDARD
 70
     0
 40
0.0
 41
1.0
 50
0.0
 71
     0
 42
25.0
  3
txt
  4

  0
STYLE
  2
DAYUS
 70
     0
 40
0.0
 41
1.0
 50
0.0
 71
     0
 42
4.0
  3
simplex
  4
dayus
  0
STYLE
  2
ROMANS
 70
     0
 40
0.0
 41
1.0
 50
0.0
 71
     0
 42
4.0
  3
romans
  4

  0
STYLE
  2
CHINESET
 70
     0
 40
0.0
 41
1.0
 50
0.0
 71
     0
 42
25.0
  3
simplex.shx
  4
chineset.shx
  0
STYLE
  2
LOGO
 70
     0
 40
0.0
 41
1.0
 50
0.0
 71
     0
 42
5.0
  3
txt
  4

  0
ENDTAB
  0
TABLE
  2
VIEW
 70
     0
  0
ENDTAB
  0
TABLE
  2
UCS
 70
     0
  0
ENDTAB
  0
TABLE
  2
APPID
 70
     1
  0
APPID
  2
ACAD
 70
     0
  0
ENDTAB
  0
TABLE
  2
DIMSTYLE
 70
     1
  0
DIMSTYLE
  2
STANDARD
 70
     0
  3

  4

  5

  6

  7

 40
1.0
 41
3.0
 42
2.0
 43
8.0
 44
2.0
 45
0.0
 46
0.0
 47
0.0
 48
0.0
140
3.0
141
-2.5
142
0.0
143
0.0394
144
1.0
145
0.0
146
1.0
147
1.0
 71
     0
 72
     0
 73
     0
 74
     0
 75
     0
 76
     0
 77
     1
 78
     8
170
     0
171
     4
172
     0
173
     0
174
     0
175
     0
176
   256
177
   256
178
   256
  0
ENDTAB
  0
ENDSEC
  0
SECTION
  2
BLOCKS
  0
BLOCK
  8
0
  2
$MODEL_SPACE
 70
     0
 10
0.0
 20
0.0
 30
0.0
  3
$MODEL_SPACE
  1

  0
ENDBLK
  5
177C
  8
0
  0
BLOCK
 67
     1
  8
0
  2
$PAPER_SPACE
 70
     0
 10
0.0
 20
0.0
 30
0.0
  3
$PAPER_SPACE
  1

  0
ENDBLK
  5
177A
 67
     1
  8
0
  0
BLOCK
  8
0
  2
*D106
 70
     1
 10
0.0
 20
0.0
 30
0.0
  3
*D106
  1

  0
LINE
  5
18E7
  8
DIM
  6
BYBLOCK
 10
-1013.180751348323
 20
1042.34277752965
 30
0.0
 11
-1013.180751348323
 21
1124.1159590977979
 31
0.0
  0
LINE
  5
18E8
  8
DIM
  6
BYBLOCK
 10
-763.18075136332402
 20
1042.34277752965
 30
0.0
 11
-763.18075136332402
 21
1124.1159590977979
 31
0.0
  0
LINE
  5
18E9
  8
DIM
  6
BYBLOCK
 10
-1010.180751348323
 20
1122.1159590977979
 30
0.0
 11
-766.18075136332402
 21
1122.1159590977979
 31
0.0
  0
SOLID
  5
18EA
  8
DIM
  6
BYBLOCK
 10
-1010.180751348323
 20
1122.6159590977979
 30
0.0
 11
-1010.180751348323
 21
1121.6159590977979
 31
0.0
 12
-1013.180751348323
 22
1122.1159590977979
 32
0.0
 13
-1013.180751348323
 23
1122.1159590977979
 33
0.0
  0
SOLID
  5
18EB
  8
DIM
  6
BYBLOCK
 10
-766.18075136332402
 20
1122.6159590977979
 30
0.0
 11
-766.18075136332402
 21
1121.6159590977979
 31
0.0
 12
-763.18075136332402
 22
1122.1159590977979
 32
0.0
 13
-763.18075136332402
 23
1122.1159590977979
 33
0.0
  0
TEXT
  5
18EC
  8
0
  6
BYBLOCK
 10
-892.03789421296688
 20
1123.1159590977979
 30
0.0
 40
3.0
  1
250
  7
CHINESET
  0
POINT
  5
18ED
  8
DEFPOINTS
  6
BYBLOCK
 62
     0
 10
-1013.180751348323
 20
1040.34277752965
 30
0.0
  0
POINT
  5
18EE
  8
DEFPOINTS
  6
BYBLOCK
 62
     0
 10
-763.18075136332402
 20
1040.34277752965
 30
0.0
  0
POINT
  5
18EF
  8
DEFPOINTS
  6
BYBLOCK
 62
     0
 10
-763.18075136332402
 20
1122.1159590977979
 30
0.0
  0
ENDBLK
  5
17E9
  8
0
  0
BLOCK
  8
0
  2
*D107
 70
     1
 10
0.0
 20
0.0
 30
0.0
  3
*D107
  1

  0
LINE
  5
1902
  8
DIM
  6
BYBLOCK
 10
-918.17934354581109
 20
1096.8162282999681
 30
0.0
 11
-918.17934354581109
 21
1102.1264695773129
 31
0.0
  0
LINE
  5
1903
  8
DIM
  6
BYBLOCK
 10
-888.18075136332391
 20
1098.84219342349
 30
0.0
 11
-888.18075136332391
 21
1102.1264695773129
 31
0.0
  0
LINE
  5
1904
  8
DIM
  6
BYBLOCK
 10
-915.17934354581109
 20
1100.1264695773129
 30
0.0
 11
-891.18075136332379
 21
1100.1264695773129
 31
0.0
  0
SOLID
  5
1905
  8
DIM
  6
BYBLOCK
 10
-915.17934354581109
 20
1100.6264695773129
 30
0.0
 11
-915.17934354581109
 21
1099.6264695773129
 31
0.0
 12
-918.17934354581109
 22
1100.1264695773129
 32
0.0
 13
-918.17934354581109
 23
1100.1264695773129
 33
0.0
  0
SOLID
  5
1906
  8
DIM
  6
BYBLOCK
 10
-891.18075136332379
 20
1100.6264695773129
 30
0.0
 11
-891.18075136332379
 21
1099.6264695773129
 31
0.0
 12
-888.18075136332391
 22
1100.1264695773129
 32
0.0
 13
-888.18075136332391
 23
1100.1264695773129
 33
0.0
  0
TEXT
  5
1907
  8
0
  6
BYBLOCK
 10
-905.608618883139
 20
1101.1264695773129
 30
0.0
 40
3.0
  1
30
  7
CHINESET
  0
POINT
  5
1908
  8
DEFPOINTS
  6
BYBLOCK
 62
     0
 10
-918.17934354581109
 20
1094.8162282999681
 30
0.0
  0
POINT
  5
1909
  8
DEFPOINTS
  6
BYBLOCK
 62
     0
 10
-888.18075136332391
 20
1096.84219342349
 30
0.0
  0
POINT
  5
190A
  8
DEFPOINTS
  6
BYBLOCK
 62
     0
 10
-888.18075136332391
 20
1100.1264695773129
 30
0.0
  0
ENDBLK
  5
17F5
  8
0
  0
BLOCK
  8
0
  2
*D108
 70
     1
 10
0.0
 20
0.0
 30
0.0
  3
*D108
  1

  0
LINE
  5
18F9
  8
DIM
  6
BYBLOCK
 10
-975.68075136332391
 20
1077.342777535051
 30
0.0
 11
-975.68075136332391
 21
1112.417116871135
 31
0.0
  0
LINE
  5
18FA
  8
DIM
  6
BYBLOCK
 10
-888.18075136332391
 20
1098.84219342349
 30
0.0
 11
-888.18075136332391
 21
1112.417116871135
 31
0.0
  0
LINE
  5
18FB
  8
DIM
  6
BYBLOCK
 10
-972.68075136332391
 20
1110.417116871135
 30
0.0
 11
-891.18075136332379
 21
1110.417116871135
 31
0.0
  0
SOLID
  5
18FC
  8
DIM
  6
BYBLOCK
 10
-972.68075136332391
 20
1110.917116871135
 30
0.0
 11
-972.68075136332391
 21
1109.917116871135
 31
0.0
 12
-975.68075136332391
 22
1110.417116871135
 32
0.0
 13
-975.68075136332391
 23
1110.417116871135
 33
0.0
  0
SOLID
  5
18FD
  8
DIM
  6
BYBLOCK
 10
-891.18075136332379
 20
1110.917116871135
 30
0.0
 11
-891.18075136332379
 21
1109.917116871135
 31
0.0
 12
-888.18075136332391
 22
1110.417116871135
 32
0.0
 13
-888.18075136332391
 23
1110.417116871135
 33
0.0
  0
TEXT
  5
18FE
  8
0
  6
BYBLOCK
 10
-936.50217993475246
 20
1111.417116871135
 30
0.0
 40
3.0
  1
87.5
  7
CHINESET
  0
POINT
  5
18FF
  8
DEFPOINTS
  6
BYBLOCK
 62
     0
 10
-975.68075136332391
 20
1075.342777535051
 30
0.0
  0
POINT
  5
1900
  8
DEFPOINTS
  6
BYBLOCK
 62
     0
 10
-888.18075136332391
 20
1096.84219342349
 30
0.0
  0
POINT
  5
1901
  8
DEFPOINTS
  6
BYBLOCK
 62
     0
 10
-888.18075136332391
 20
1110.417116871135
 30
0.0
  0
ENDBLK
  5
1801
  8
0
  0
BLOCK
  8
0
  2
*D109
 70
     1
 10
0.0
 20
0.0
 30
0.0
  3
*D109
  1

  0
LINE
  5
18F0
  8
DIM
  6
BYBLOCK
 10
-800.68075136332391
 20
1077.342777535051
 30
0.0
 11
-800.68075136332391
 21
1112.417116871135
 31
0.0
  0
LINE
  5
18F1
  8
DIM
  6
BYBLOCK
 10
-888.18075136332391
 20
1098.84219342349
 30
0.0
 11
-888.18075136332391
 21
1112.417116871135
 31
0.0
  0
LINE
  5
18F2
  8
DIM
  6
BYBLOCK
 10
-803.68075136332379
 20
1110.417116871135
 30
0.0
 11
-885.18075136332391
 21
1110.417116871135
 31
0.0
  0
SOLID
  5
18F3
  8
DIM
  6
BYBLOCK
 10
-803.68075136332379
 20
1110.917116871135
 30
0.0
 11
-803.68075136332379
 21
1109.917116871135
 31
0.0
 12
-800.68075136332391
 22
1110.417116871135
 32
0.0
 13
-800.68075136332391
 23
1110.417116871135
 33
0.0
  0
SOLID
  5
18F4
  8
DIM
  6
BYBLOCK
 10
-885.18075136332391
 20
1110.917116871135
 30
0.0
 11
-885.18075136332391
 21
1109.917116871135
 31
0.0
 12
-888.18075136332391
 22
1110.417116871135
 32
0.0
 13
-888.18075136332391
 23
1110.417116871135
 33
0.0
  0
TEXT
  5
18F5
  8
0
  6
BYBLOCK
 10
-849.00217993475246
 20
1111.417116871135
 30
0.0
 40
3.0
  1
87.5
  7
CHINESET
  0
POINT
  5
18F6
  8
DEFPOINTS
  6
BYBLOCK
 62
     0
 10
-800.68075136332391
 20
1075.342777535051
 30
0.0
  0
POINT
  5
18F7
  8
DEFPOINTS
  6
BYBLOCK
 62
     0
 10
-888.18075136332391
 20
1096.84219342349
 30
0.0
  0
POINT
  5
18F8
  8
DEFPOINTS
  6
BYBLOCK
 62
     0
 10
-888.18075136332391
 20
1110.417116871135
 30
0.0
  0
ENDBLK
  5
180D
  8
0
  0
BLOCK
  8
0
  2
*D110
 70
     1
 10
0.0
 20
0.0
 30
0.0
  3
*D110
  1

  0
LINE
  5
190B
  8
DIM
  6
BYBLOCK
 10
-858.17934354581109
 20
1096.6453533921101
 30
0.0
 11
-858.17934354581109
 21
1102.0377053569389
 31
0.0
  0
LINE
  5
190C
  8
DIM
  6
BYBLOCK
 10
-888.18075136332391
 20
1098.84219342349
 30
0.0
 11
-888.18075136332391
 21
1102.0377053569389
 31
0.0
  0
LINE
  5
190D
  8
DIM
  6
BYBLOCK
 10
-861.17934354581098
 20
1100.0377053569389
 30
0.0
 11
-885.18075136332391
 21
1100.0377053569389
 31
0.0
  0
SOLID
  5
190E
  8
DIM
  6
BYBLOCK
 10
-861.17934354581098
 20
1100.5377053569389
 30
0.0
 11
-861.17934354581098
 21
1099.5377053569389
 31
0.0
 12
-858.17934354581109
 22
1100.0377053569389
 32
0.0
 13
-858.17934354581109
 23
1100.0377053569389
 33
0.0
  0
SOLID
  5
190F
  8
DIM
  6
BYBLOCK
 10
-885.18075136332391
 20
1100.5377053569389
 30
0.0
 11
-885.18075136332391
 21
1099.5377053569389
 31
0.0
 12
-888.18075136332391
 22
1100.0377053569389
 32
0.0
 13
-888.18075136332391
 23
1100.0377053569389
 33
0.0
  0
TEXT
  5
1910
  8
0
  6
BYBLOCK
 10
-875.60861888313889
 20
1101.0377053569389
 30
0.0
 40
3.0
  1
30
  7
CHINESET
  0
POINT
  5
1911
  8
DEFPOINTS
  6
BYBLOCK
 62
     0
 10
-858.17934354581109
 20
1094.6453533921101
 30
0.0
  0
POINT
  5
1912
  8
DEFPOINTS
  6
BYBLOCK
 62
     0
 10
-888.18075136332391
 20
1096.84219342349
 30
0.0
  0
POINT
  5
1913
  8
DEFPOINTS
  6
BYBLOCK
 62
     0
 10
-888.18075136332391
 20
1100.0377053569389
 30
0.0
  0
ENDBLK
  5
1819
  8
0
  0
BLOCK
  8
0
  2
*D111
 70
     1
 10
0.0
 20
0.0
 30
0.0
  3
*D111
  1

  0
LINE
  5
18DD
  8
DIM
 10
-978.69515136332404
 20
660.40996307153125
 30
0.0
 11
-978.69515136332404
 21
646.47624148220109
 31
0.0
  0
LINE
  5
18DE
  8
DIM
 10
-972.66635136332388
 20
660.40996307152466
 30
0.0
 11
-972.66635136332388
 21
646.47624148220109
 31
0.0
  0
LINE
  5
18DF
  8
DIM
 10
-981.69515136332404
 20
648.4762414822012
 30
0.0
 11
-984.69515136332404
 21
648.4762414822012
 31
0.0
  0
LINE
  5
18E0
  8
DIM
 10
-969.66635136332388
 20
648.4762414822012
 30
0.0
 11
-966.666351363324
 21
648.4762414822012
 31
0.0
  0
INSERT
  5
18E1
  8
0
  6
BYBLOCK
  2
*U120
 10
0.0
 20
0.0
 30
0.0
  0
SOLID
  5
18E2
  8
DIM
 10
-981.69515136332404
 20
648.9762414822012
 30
0.0
 11
-981.69515136332404
 21
647.9762414822012
 31
0.0
 12
-978.69515136332404
 22
648.4762414822012
 32
0.0
 13
-978.69515136332404
 23
648.4762414822012
 33
0.0
  0
SOLID
  5
18E3
  8
DIM
 10
-969.66635136332388
 20
648.9762414822012
 30
0.0
 11
-969.66635136332388
 21
647.9762414822012
 31
0.0
 12
-972.66635136332388
 22
648.4762414822012
 32
0.0
 13
-972.66635136332388
 23
648.4762414822012
 33
0.0
  0
POINT
  5
18E4
  8
DEFPOINTS
 62
     0
 10
-978.69515136332404
 20
662.40996307153125
 30
0.0
  0
POINT
  5
18E5
  8
DEFPOINTS
 62
     0
 10
-972.66635136332388
 20
662.40996307152477
 30
0.0
  0
POINT
  5
18E6
  8
DEFPOINTS
 62
     0
 10
-972.66635136332388
 20
648.4762414822012
 30
0.0
  0
ENDBLK
  5
1826
  8
0
  0
BLOCK
  8
0
  2
*D112
 70
     1
 10
0.0
 20
0.0
 30
0.0
  3
*D112
  1

  0
LINE
  5
1914
  8
DIM
 10
-540.4792214603774
 20
882.22292949673067
 30
0.0
 11
-540.4792214603774
 21
955.63914999448616
 31
0.0
  0
LINE
  5
1915
  8
DIM
 10
-590.4792214603774
 20
943.22213899824135
 30
0.0
 11
-590.4792214603774
 21
955.63914999448616
 31
0.0
  0
LINE
  5
1916
  8
DIM
 10
-543.47922146037729
 20
953.63914999448616
 30
0.0
 11
-587.4792214603774
 21
953.63914999448616
 31
0.0
  0
SOLID
  5
1917
  8
DIM
 10
-543.47922146037729
 20
954.13914999448605
 30
0.0
 11
-543.47922146037729
 21
953.13914999448605
 31
0.0
 12
-540.4792214603774
 22
953.63914999448616
 32
0.0
 13
-540.4792214603774
 23
953.63914999448616
 33
0.0
  0
SOLID
  5
1918
  8
DIM
 10
-587.4792214603774
 20
954.13914999448605
 30
0.0
 11
-587.4792214603774
 21
953.13914999448605
 31
0.0
 12
-590.4792214603774
 22
953.63914999448616
 32
0.0
 13
-590.4792214603774
 23
953.63914999448616
 33
0.0
  0
TEXT
  5
1919
  8
0
  6
BYBLOCK
 10
-567.90779288894885
 20
954.63914999448616
 30
0.0
 40
3.0
  1
50
  7
CHINESET
  0
POINT
  5
191A
  8
DEFPOINTS
 62
     0
 10
-540.4792214603774
 20
880.22292949673067
 30
0.0
  0
POINT
  5
191B
  8
DEFPOINTS
 62
     0
 10
-590.4792214603774
 20
941.22213899824135
 30
0.0
  0
POINT
  5
191C
  8
DEFPOINTS
 62
     0
 10
-590.4792214603774
 20
953.63914999448616
 30
0.0
  0
ENDBLK
  5
1869
  8
0
  0
BLOCK
  8
0
  2
*D113
 70
     1
 10
0.0
 20
0.0
 30
0.0
  3
*D113
  1

  0
LINE
  5
191D
  8
DIM
 10
-670.4792214603774
 20
845.39156307152678
 30
0.0
 11
-670.4792214603774
 21
955.63914999448616
 31
0.0
  0
LINE
  5
191E
  8
DIM
 10
-590.4792214603774
 20
943.22213899824135
 30
0.0
 11
-590.4792214603774
 21
955.63914999448616
 31
0.0
  0
LINE
  5
191F
  8
DIM
 10
-667.47922146037729
 20
953.63914999448616
 30
0.0
 11
-593.47922146037729
 21
953.63914999448616
 31
0.0
  0
SOLID
  5
1920
  8
DIM
 10
-667.47922146037729
 20
954.13914999448605
 30
0.0
 11
-667.47922146037729
 21
953.13914999448605
 31
0.0
 12
-670.4792214603774
 22
953.63914999448616
 32
0.0
 13
-670.4792214603774
 23
953.63914999448616
 33
0.0
  0
SOLID
  5
1921
  8
DIM
 10
-593.47922146037729
 20
954.13914999448605
 30
0.0
 11
-593.47922146037729
 21
953.13914999448605
 31
0.0
 12
-590.4792214603774
 22
953.63914999448616
 32
0.0
 13
-590.4792214603774
 23
953.63914999448616
 33
0.0
  0
TEXT
  5
1922
  8
0
  6
BYBLOCK
 10
-634.83636431752018
 20
955.9248642802005
 30
0.0
 40
3.0
  1
(80)
  7
CHINESET
  0
POINT
  5
1923
  8
DEFPOINTS
 62
     0
 10
-670.4792214603774
 20
843.39156307152666
 30
0.0
  0
POINT
  5
1924
  8
DEFPOINTS
 62
     0
 10
-590.4792214603774
 20
941.22213899824135
 30
0.0
  0
POINT
  5
1925
  8
DEFPOINTS
 62
     0
 10
-590.4792214603774
 20
953.63914999448616
 30
0.0
  0
ENDBLK
  5
1875
  8
0
  0
BLOCK
  8
0
  2
*D114
 70
     1
 10
0.0
 20
0.0
 30
0.0
  3
*D114
  1

  0
LINE
  5
1926
  8
DIM
 10
-585.46482146037727
 20
659.39556307152657
 30
0.0
 11
-481.60073184702918
 21
659.39556307152657
 31
0.0
  0
LINE
  5
1927
  8
DIM
 10
-588.47922146037729
 20
936.22691505872388
 30
0.0
 11
-481.60073184702918
 21
936.22691505872388
 31
0.0
  0
LINE
  5
1928
  8
DIM
 10
-483.60073184702929
 20
662.39556307152668
 30
0.0
 11
-483.60073184702918
 21
933.22691505872399
 31
0.0
  0
SOLID
  5
1929
  8
DIM
 10
-484.10073184702929
 20
662.39556307152668
 30
0.0
 11
-483.10073184702929
 21
662.39556307152668
 31
0.0
 12
-483.60073184702929
 22
659.39556307152657
 32
0.0
 13
-483.60073184702929
 23
659.39556307152657
 33
0.0
  0
SOLID
  5
192A
  8
DIM
 10
-484.10073184702918
 20
933.22691505872399
 30
0.0
 11
-483.10073184702918
 21
933.22691505872399
 31
0.0
 12
-483.60073184702918
 22
936.22691505872388
 32
0.0
 13
-483.60073184702918
 23
936.22691505872388
 33
0.0
  0
TEXT
  5
192B
  8
0
  6
BYBLOCK
 10
-484.60073184702929
 20
791.81123906512505
 30
0.0
 40
3.0
  1
276.8
 50
90.0
  7
CHINESET
  0
POINT
  5
192C
  8
DEFPOINTS
 62
     0
 10
-587.46482146037727
 20
659.39556307152657
 30
0.0
  0
POINT
  5
192D
  8
DEFPOINTS
 62
     0
 10
-590.4792214603774
 20
936.22691505872388
 30
0.0
  0
POINT
  5
192E
  8
DEFPOINTS
 62
     0
 10
-483.60073184702918
 20
936.22691505872388
 30
0.0
  0
ENDBLK
  5
1881
  8
0
  0
BLOCK
  8
0
  2
*D115
 70
     1
 10
0.0
 20
0.0
 30
0.0
  3
*D115
  1

  0
LINE
  5
192F
  8
DIM
 10
-577.05141592774271
 20
819.71740845929867
 30
0.0
 11
-511.8282293553429
 21
819.71740845929867
 31
0.0
  0
LINE
  5
1930
  8
DIM
 10
-585.46482146037727
 20
659.39556307152657
 30
0.0
 11
-511.8282293553429
 21
659.39556307152657
 31
0.0
  0
LINE
  5
1931
  8
DIM
 10
-513.82822935534284
 20
816.71740845929867
 30
0.0
 11
-513.82822935534296
 21
662.39556307152668
 31
0.0
  0
SOLID
  5
1932
  8
DIM
 10
-514.32822935534284
 20
816.71740845929867
 30
0.0
 11
-513.32822935534284
 21
816.71740845929867
 31
0.0
 12
-513.82822935534284
 22
819.71740845929867
 32
0.0
 13
-513.82822935534284
 23
819.71740845929867
 33
0.0
  0
SOLID
  5
1933
  8
DIM
 10
-514.32822935534296
 20
662.39556307152668
 30
0.0
 11
-513.32822935534296
 21
662.39556307152668
 31
0.0
 12
-513.82822935534296
 22
659.39556307152657
 32
0.0
 13
-513.82822935534296
 23
659.39556307152657
 33
0.0
  0
TEXT
  5
1934
  8
0
  6
BYBLOCK
 10
-514.82822935534296
 20
733.84220005112695
 30
0.0
 40
3.0
  1
160.3
 50
90.0
  7
CHINESET
  0
POINT
  5
1935
  8
DEFPOINTS
 62
     0
 10
-579.05141592774271
 20
819.71740845929867
 30
0.0
  0
POINT
  5
1936
  8
DEFPOINTS
 62
     0
 10
-587.46482146037727
 20
659.39556307152657
 30
0.0
  0
POINT
  5
1937
  8
DEFPOINTS
 62
     0
 10
-513.82822935534296
 20
659.39556307152657
 30
0.0
  0
ENDBLK
  5
188D
  8
0
  0
BLOCK
  8
0
  2
*D116
 70
     1
 10
0.0
 20
0.0
 30
0.0
  3
*D116
  1

  0
LINE
  5
1938
  8
DIM
 10
-593.49362146037743
 20
657.39556307152668
 30
0.0
 11
-593.49362146037743
 21
646.47624148220109
 31
0.0
  0
LINE
  5
1939
  8
DIM
 10
-587.46482146037727
 20
657.39556307152668
 30
0.0
 11
-587.46482146037727
 21
646.47624148220109
 31
0.0
  0
LINE
  5
193A
  8
DIM
 10
-596.49362146037743
 20
648.4762414822012
 30
0.0
 11
-599.49362146037743
 21
648.4762414822012
 31
0.0
  0
LINE
  5
193B
  8
DIM
 10
-584.46482146037738
 20
648.4762414822012
 30
0.0
 11
-581.46482146037727
 21
648.4762414822012
 31
0.0
  0
INSERT
  5
193C
  8
0
  6
BYBLOCK
  2
*U121
 10
0.0
 20
0.0
 30
0.0
  0
SOLID
  5
193D
  8
DIM
 10
-596.49362146037743
 20
648.9762414822012
 30
0.0
 11
-596.49362146037743
 21
647.9762414822012
 31
0.0
 12
-593.49362146037743
 22
648.4762414822012
 32
0.0
 13
-593.49362146037743
 23
648.4762414822012
 33
0.0
  0
SOLID
  5
193E
  8
DIM
 10
-584.46482146037738
 20
648.9762414822012
 30
0.0
 11
-584.46482146037738
 21
647.9762414822012
 31
0.0
 12
-587.46482146037727
 22
648.4762414822012
 32
0.0
 13
-587.46482146037727
 23
648.4762414822012
 33
0.0
  0
POINT
  5
193F
  8
DEFPOINTS
 62
     0
 10
-593.49362146037743
 20
659.39556307152657
 30
0.0
  0
POINT
  5
1940
  8
DEFPOINTS
 62
     0
 10
-587.46482146037727
 20
659.39556307152657
 30
0.0
  0
POINT
  5
1941
  8
DEFPOINTS
 62
     0
 10
-587.46482146037727
 20
648.4762414822012
 30
0.0
  0
ENDBLK
  5
189A
  8
0
  0
BLOCK
  8
0
  2
*D117
 70
     1
 10
0.0
 20
0.0
 30
0.0
  3
*D117
  1

  0
LINE
  5
1942
  8
DIM
 10
-588.47922146037729
 20
936.22691505872388
 30
0.0
 11
-511.8282293553429
 21
936.22691505872388
 31
0.0
  0
LINE
  5
1943
  8
DIM
 10
-532.58351571044989
 20
870.22292949673079
 30
0.0
 11
-511.82822935534301
 21
870.22292949673079
 31
0.0
  0
LINE
  5
1944
  8
DIM
 10
-513.82822935534296
 20
933.22691505872399
 30
0.0
 11
-513.82822935534296
 21
873.22292949673067
 31
0.0
  0
SOLID
  5
1945
  8
DIM
 10
-514.32822935534296
 20
933.22691505872399
 30
0.0
 11
-513.32822935534296
 21
933.22691505872399
 31
0.0
 12
-513.82822935534296
 22
936.22691505872388
 32
0.0
 13
-513.82822935534296
 23
936.22691505872388
 33
0.0
  0
SOLID
  5
1946
  8
DIM
 10
-514.32822935534296
 20
873.22292949673067
 30
0.0
 11
-513.32822935534296
 21
873.22292949673067
 31
0.0
 12
-513.82822935534296
 22
870.22292949673079
 32
0.0
 13
-513.82822935534296
 23
870.22292949673079
 33
0.0
  0
TEXT
  5
1947
  8
0
  6
BYBLOCK
 10
-514.82822935534318
 20
900.86777942058438
 30
0.0
 40
3.0
  1
66
 50
90.0
  7
CHINESET
  0
POINT
  5
1948
  8
DEFPOINTS
 62
     0
 10
-590.4792214603774
 20
936.22691505872388
 30
0.0
  0
POINT
  5
1949
  8
DEFPOINTS
 62
     0
 10
-534.58351571045
 20
870.22292949673079
 30
0.0
  0
POINT
  5
194A
  8
DEFPOINTS
 62
     0
 10
-513.82822935534296
 20
870.22292949673079
 30
0.0
  0
ENDBLK
  5
18A6
  8
0
  0
BLOCK
  8
0
  2
*D118
 70
     1
 10
0.0
 20
0.0
 30
0.0
  3
*D118
  1

  0
LINE
  5
194B
  8
DIM
 10
-534.58351571045
 20
870.22292949673079
 30
0.0
 11
-511.82822935534301
 21
870.22292949673079
 31
0.0
  0
LINE
  5
194C
  8
DIM
 10
-577.05141592774271
 20
819.71740845929867
 30
0.0
 11
-511.82822935534301
 21
819.71740845929867
 31
0.0
  0
LINE
  5
194D
  8
DIM
 10
-513.82822935534296
 20
867.22292949673067
 30
0.0
 11
-513.82822935534296
 21
822.71740845929878
 31
0.0
  0
SOLID
  5
194E
  8
DIM
 10
-514.32822935534296
 20
867.22292949673067
 30
0.0
 11
-513.32822935534296
 21
867.22292949673067
 31
0.0
 12
-513.82822935534296
 22
870.22292949673079
 32
0.0
 13
-513.82822935534296
 23
870.22292949673079
 33
0.0
  0
SOLID
  5
194F
  8
DIM
 10
-514.32822935534296
 20
822.71740845929878
 30
0.0
 11
-513.32822935534296
 21
822.71740845929878
 31
0.0
 12
-513.82822935534296
 22
819.71740845929867
 32
0.0
 13
-513.82822935534296
 23
819.71740845929867
 33
0.0
  0
TEXT
  5
1950
  8
0
  6
BYBLOCK
 10
-514.82822935534318
 20
840.39874040658617
 30
0.0
 40
3.0
  1
50.5
 50
90.0
  7
CHINESET
  0
POINT
  5
1951
  8
DEFPOINTS
 62
     0
 10
-536.58351571044989
 20
870.22292949673079
 30
0.0
  0
POINT
  5
1952
  8
DEFPOINTS
 62
     0
 10
-579.05141592774271
 20
819.71740845929867
 30
0.0
  0
POINT
  5
1953
  8
DEFPOINTS
 62
     0
 10
-513.82822935534296
 20
819.71740845929867
 30
0.0
  0
ENDBLK
  5
18B2
  8
0
  0
BLOCK
  8
0
  2
*D119
 70
     1
 10
0.0
 20
0.0
 30
0.0
  3
*D119
  1

  0
LINE
  5
1954
  8
DIM
 10
-538.47922146037729
 20
880.22292949673067
 30
0.0
 11
-525.80462867154529
 21
880.22292949673067
 31
0.0
  0
LINE
  5
1955
  8
DIM
 10
-539.47922146037695
 20
850.22292949673067
 30
0.0
 11
-525.80462867154529
 21
850.22292949673067
 31
0.0
  0
LINE
  5
1956
  8
DIM
 10
-527.80462867154517
 20
877.22292949673079
 30
0.0
 11
-527.80462867154517
 21
853.22292949673079
 31
0.0
  0
SOLID
  5
1957
  8
DIM
 10
-528.30462867154517
 20
877.22292949673079
 30
0.0
 11
-527.30462867154529
 21
877.22292949673079
 31
0.0
 12
-527.80462867154517
 22
880.22292949673067
 32
0.0
 13
-527.80462867154517
 23
880.22292949673067
 33
0.0
  0
SOLID
  5
1958
  8
DIM
 10
-528.30462867154517
 20
853.22292949673079
 30
0.0
 11
-527.30462867154529
 21
853.22292949673079
 31
0.0
 12
-527.80462867154517
 22
850.22292949673067
 32
0.0
 13
-527.80462867154517
 23
850.22292949673067
 33
0.0
  0
TEXT
  5
1959
  8
0
  6
BYBLOCK
 10
-528.80462867154552
 20
862.79435806815911
 30
0.0
 40
3.0
  1
30
 50
90.0
  7
CHINESET
  0
POINT
  5
195A
  8
DEFPOINTS
 62
     0
 10
-540.4792214603774
 20
880.22292949673067
 30
0.0
  0
POINT
  5
195B
  8
DEFPOINTS
 62
     0
 10
-541.47922146037695
 20
850.22292949673067
 30
0.0
  0
POINT
  5
195C
  8
DEFPOINTS
 62
     0
 10
-527.80462867154517
 20
850.22292949673067
 30
0.0
  0
ENDBLK
  5
18BE
  8
0
  0
BLOCK
  8
0
  2
*U120
 70
     1
 10
0.0
 20
0.0
 30
0.0
  3
*U120
  1

  0
TEXT
  5
1989
  8
0
  6
BYBLOCK
 10
-984.53789422046702
 20
638.9762414822012
 30
0.0
 40
3.0
  1
\U+2205
  7
CHINESET
  0
TEXT
  5
198A
  8
0
  6
BYBLOCK
 10
-981.82360850618124
 20
638.9762414822012
 30
0.0
 40
3.0
  1
6-排水口
  7
CHINESET
  0
ENDBLK
  5
198C
  8
0
  0
BLOCK
  8
0
  2
*U121
 70
     1
 10
0.0
 20
0.0
 30
0.0
  3
*U121
  1

  0
TEXT
  5
198E
  8
0
  6
BYBLOCK
 10
-599.33636431752029
 20
638.9762414822012
 30
0.0
 40
3.0
  1
\U+2205
  7
CHINESET
  0
TEXT
  5
198F
  8
0
  6
BYBLOCK
 10
-596.62207860323463
 20
638.9762414822012
 30
0.0
 40
3.0
  1
6-排水口
  7
CHINESET
  0
ENDBLK
  5
1991
  8
0
  0
ENDSEC
  0
SECTION
  2
ENTITIES
  0
POLYLINE
  5
4E0
  8
0
  6
BYBLOCK
 62
     4
 66
     1
 10
0.0
 20
0.0
 30
0.0
 70
     1
  0
VERTEX
  5
195E
  8
0
  6
BYBLOCK
 62
     4
 10
-1051.1316155134971
 20
1140.577452489739
 30
0.0
  0
VERTEX
  5
195F
  8
0
  6
BYBLOCK
 62
     4
 10
-466.22715244439809
 20
1140.577452489739
 30
0.0
  0
VERTEX
  5
1960
  8
0
  6
BYBLOCK
 62
     4
 10
-466.22715244439809
 20
620.43705499628766
 30
0.0
  0
VERTEX
  5
1961
  8
0
  6
BYBLOCK
 62
     4
 10
-1051.1316155134971
 20
620.43705499628766
 30
0.0
  0
SEQEND
  5
1962
  8
0
  6
BYBLOCK
 62
     4
  0
LINE
  5
4E1
  8
CENTER
  6
CENTER
 10
-1018.104321370098
 20
821.89156307152689
 30
0.0
 11
-750.94607427237668
 21
821.89156307152666
 31
0.0
  0
ARC
  5
4E2
  8
0
 10
-996.68075135552465
 20
832.89156307152655
 30
0.0
 40
1.5
 50
0.0
 51
90.0
  0
LINE
  5
4E5
  8
0
 10
-986.68075135932395
 20
816.39156307152655
 30
0.0
 11
-996.68075135452386
 21
816.39156307152666
 31
0.0
  0
LINE
  5
4E6
  8
0
 10
-996.68075135452386
 20
816.39156307152666
 30
0.0
 11
-986.68075135932395
 21
816.39156307152666
 31
0.0
  0
ARC
  5
4E7
  8
0
 10
-995.68075136332379
 20
792.09199033613743
 30
0.0
 40
1.0
 50
180.0
 51
270.0
  0
LINE
  5
4E8
  8
0
 10
-1013.180751348323
 20
804.39156307152678
 30
0.0
 11
-938.18075137832375
 21
804.39156307152655
 31
0.0
  0
LINE
  5
4E9
  8
0
 10
-938.18075137832375
 20
810.39156307152655
 30
0.0
 11
-1013.180751348323
 21
810.39156307152666
 31
0.0
  0
LINE
  5
4EA
  8
0
 10
-1013.180751348323
 20
804.39156307152655
 30
0.0
 11
-938.18075137832375
 21
804.39156307152655
 31
0.0
  0
LINE
  5
4EB
  8
0
 10
-1013.091175631484
 20
791.09199033613754
 30
0.0
 11
-938.28754172366382
 21
791.09199033613743
 31
0.0
  0
ARC
  5
4EC
  8
0
 10
-996.68075136332402
 20
774.39156307152666
 30
0.0
 40
7.0
 50
0.0
 51
180.0
  0
ARC
  5
4ED
  8
0
 10
-996.68075136332402
 20
706.39156307152655
 30
0.0
 40
7.0
 50
180.0
 51
0.0
  0
ARC
  5
4EE
  8
0
 10
-975.68075136332391
 20
708.39156307152655
 30
0.0
 40
31.0
 50
180.0
 51
237.00411452642041
  0
LINE
  5
4EF
  8
0
 10
-1003.680751363323
 20
774.39156307152666
 30
0.0
 11
-1003.680751363323
 21
706.39156307152655
 31
0.0
  0
LINE
  5
4F0
  8
0
 10
-1002.180751363324
 20
774.39156307152666
 30
0.0
 11
-1002.180751363324
 21
706.39156307152655
 31
0.0
  0
LINE
  5
4F1
  8
0
 10
-1006.680751363324
 20
708.39156307152655
 30
0.0
 11
-1007.418401866227
 21
784.71296131338545
 31
0.0
  0
ARC
  5
4F2
  8
0
 10
-995.46326645997647
 20
706.00887263844243
 30
0.0
 40
6.7283768766526313
 50
176.7394237284004
 51
259.57502944633751
  0
LINE
  5
4F3
  8
0
 10
-1013.180751348323
 20
834.39156307152655
 30
0.0
 11
-1013.180751348323
 21
791.5056660843162
 31
0.0
  0
ARC
  5
4F4
  8
0
 10
-992.08617573575737
 20
772.12082507843866
 30
0.0
 40
10.34682116081626
 50
116.3630047583348
 51
167.32254206692741
  0
ARC
  5
4F5
  8
0
 10
-997.18075136332391
 20
798.89156307152655
 30
0.0
 40
0.5
 50
359.99999999999972
 51
90.000000000000725
  0
LINE
  5
4F6
  8
0
 10
-1011.180751363323
 20
799.39156307152655
 30
0.0
 11
-1007.180751363323
 21
799.39156307152655
 31
0.0
  0
ARC
  5
4F7
  8
0
 10
-1011.180751363323
 20
798.89156307152655
 30
0.0
 40
0.5
 50
90.000000000000355
 51
180.0000000000002
  0
ARC
  5
4F8
  8
0
 10
-1007.180751363323
 20
798.89156307152655
 30
0.0
 40
0.5
 50
0.0000000000002036
 51
90.0
  0
ARC
  5
4F9
  8
0
 10
-1001.180751363323
 20
798.89156307152655
 30
0.0
 40
0.5
 50
90.000000000000327
 51
180.0
  0
LINE
  5
4FA
  8
0
 10
-1001.180751363323
 20
799.39156307152655
 30
0.0
 11
-997.18075136332391
 21
799.39156307152655
 31
0.0
  0
ARC
  5
4FB
  8
0
 10
-1012.680751363323
 20
792.09199033613743
 30
0.0
 40
1.0
 50
270.0
 51
0.0000000000004198
  0
ARC
  5
4FC
  8
0
 10
-1005.680751363324
 20
792.09199033613743
 30
0.0
 40
1.0
 50
180.0
 51
270.0
  0
ARC
  5
4FD
  8
0
 10
-1002.680751363324
 20
792.09199033613743
 30
0.0
 40
1.0
 50
270.0
 51
0.0
  0
LINE
  5
4FE
  8
0
 10
-1012.88850715387
 20
790.79920892375014
 30
0.0
 11
-1007.8566981028511
 21
785.75815014899308
 31
0.0
  0
ARC
  5
4FF
  8
0
 10
-1012.180751348324
 20
791.5056660843162
 30
0.0
 40
1.0
 50
180.0
 51
224.9473863856833
  0
ARC
  5
500
  8
0
 10
-1008.91833181117
 20
784.6984644081441
 30
0.0
 40
1.5
 50
0.5537496115755838
 51
44.947386385683373
  0
LINE
  5
501
  8
0
 10
-1011.680751363323
 20
792.09199033613743
 30
0.0
 11
-1011.680751363323
 21
798.89156307152655
 31
0.0
  0
LINE
  5
502
  8
0
 10
-1006.680751363324
 20
792.09199033613743
 30
0.0
 11
-1006.680751363324
 21
798.89156307152655
 31
0.0
  0
LINE
  5
503
  8
0
 10
-1001.680751363323
 20
792.09199033613743
 30
0.0
 11
-1001.680751363323
 21
798.89156307152655
 31
0.0
  0
LINE
  5
504
  8
0
 10
-996.68075136332402
 20
792.09199033613743
 30
0.0
 11
-996.68075136332402
 21
798.89156307152655
 31
0.0
  0
LINE
  5
505
  8
0
 10
-997.68075135452386
 20
815.39156307152678
 30
0.0
 11
-997.68075135452386
 21
811.39156307152666
 31
0.0
  0
ARC
  5
506
  8
0
 10
-996.68075135452386
 20
815.39156307152678
 30
0.0
 40
1.0
 50
90.0
 51
180.00000000000011
  0
ARC
  5
507
  8
0
 10
-998.68075135452398
 20
811.39156307152666
 30
0.0
 40
1.0
 50
269.99999999999977
 51
0.0000000000001654
  0
LINE
  5
509
  8
0
 10
-1013.180751348323
 20
834.39156307152655
 30
0.0
 11
-996.68075135552465
 21
834.39156307152655
 31
0.0
  0
TEXT
  5
50B
  8
DIM
  6
BYBLOCK
 10
-933.91656256366196
 20
706.18539761838974
 30
0.0
 40
3.0
  1
2-PT1/4
  7
CHINESET
  0
SOLID
  5
50C
  8
DIM
  6
CONTINUOUS
 10
891.939954122887
 20
815.3512054506208
 30
0.0
 11
890.94868771943686
 21
818.22651255028734
 31
0.0
 12
890.95384012280886
 22
815.18513564948387
 32
0.0
 13
890.95384012280886
 23
815.18513564948387
 33
0.0
210
0.0
220
0.0
230
-1.0
  0
POLYLINE
  5
16CE
  8
DIM
  6
BYBLOCK
 66
     1
 10
0.0
 20
0.0
 30
0.0
 70
   128
1001
ACAD
1000
R13OBJECT
1002
{
1005
50C
1002
}
  0
VERTEX
  5
1963
  8
DIM
  6
BYBLOCK
 10
-891.44689712284776
 20
815.26817055005245
 30
0.0
  0
VERTEX
  5
1964
  8
DIM
  6
BYBLOCK
 10
-910.20227684937618
 20
703.89968333267552
 30
0.0
  0
VERTEX
  5
1965
  8
DIM
  6
BYBLOCK
 10
-933.91656256366196
 20
703.89968333267552
 30
0.0
  0
SEQEND
  5
1966
  8
DIM
  6
BYBLOCK
  0
LINE
  5
50D
  8
CENTER
  6
CENTER
 10
-975.68075136332391
 20
846.91976532531021
 30
0.0
 11
-975.68075136332413
 21
658.24067081141129
 31
0.0
  0
LINE
  5
50E
  8
CENTER
  6
CENTER
 10
-800.68075136332368
 20
872.63715339852149
 30
0.0
 11
-800.68075136332368
 21
670.83584991531109
 31
0.0
  0
LINE
  5
50F
  8
0
 10
-768.9371857220284
 20
785.32497422614358
 30
0.0
 11
-769.68075136332368
 21
708.39156307152666
 31
0.0
  0
LINE
  5
510
  8
0
 10
-772.68075136332379
 20
774.39156307152666
 30
0.0
 11
-772.68075136332379
 21
706.39156307152678
 31
0.0
  0
LINE
  5
511
  8
0
 10
-786.68075136332368
 20
774.39156307152666
 30
0.0
 11
-786.68075136332368
 21
706.39156307152678
 31
0.0
  0
LINE
  5
512
  8
0
 10
-774.18075136332368
 20
774.39156307152666
 30
0.0
 11
-774.18075136332368
 21
706.39156307152678
 31
0.0
  0
LINE
  5
513
  8
0
 10
-828.68075136332379
 20
774.39156307152666
 30
0.0
 11
-828.68075136332379
 21
706.39156307152678
 31
0.0
  0
LINE
  5
514
  8
0
 10
-814.68075136332379
 20
774.39156307152666
 30
0.0
 11
-814.68075136332379
 21
706.39156307152678
 31
0.0
  0
LINE
  5
515
  8
0
 10
-827.18075136332379
 20
774.39156307152666
 30
0.0
 11
-827.18075136332379
 21
706.39156307152678
 31
0.0
  0
LINE
  5
516
  8
0
 10
-831.68075136332379
 20
708.39156307152666
 30
0.0
 11
-832.41840186622699
 21
784.71296131338545
 31
0.0
  0
LINE
  5
517
  8
CENTER
  6
CENTER
 10
-975.68075136332391
 20
846.91976532530998
 30
0.0
 11
-975.68075136332413
 21
658.24067081141118
 31
0.0
  0
LINE
  5
518
  8
0
 10
-947.68075136332391
 20
774.39156307152666
 30
0.0
 11
-947.68075136332391
 21
706.39156307152655
 31
0.0
  0
LINE
  5
519
  8
0
 10
-961.68075136332379
 20
774.39156307152666
 30
0.0
 11
-961.68075136332379
 21
706.39156307152655
 31
0.0
  0
LINE
  5
51A
  8
0
 10
-949.18075136332379
 20
774.39156307152666
 30
0.0
 11
-949.18075136332379
 21
706.39156307152655
 31
0.0
  0
LINE
  5
51B
  8
0
 10
-943.93718572202829
 20
785.32497422614335
 30
0.0
 11
-944.68075136332379
 21
708.39156307152655
 31
0.0
  0
LINE
  5
51C
  8
0
 10
-989.68075136332391
 20
774.39156307152666
 30
0.0
 11
-989.68075136332391
 21
706.39156307152655
 31
0.0
  0
ARC
  5
51D
  8
0
 10
-972.66635136332388
 20
661.40516307152654
 30
0.0
 40
1.0047999999999999
 50
0.0
 51
90.0
  0
ARC
  5
51E
  8
0
 10
-978.69515136332404
 20
661.40516307152654
 30
0.0
 40
1.0047999999999999
 50
90.0
 51
180.0
  0
LINE
  5
51F
  8
0
 10
-979.69995136332591
 20
661.40516307152654
 30
0.0
 11
-978.69515136332404
 21
659.664798420078
 31
0.0
  0
LINE
  5
520
  8
0
 10
-979.69995136332682
 20
661.40516307152859
 30
0.0
 11
-971.66155136332554
 21
661.40516307152859
 31
0.0
  0
DIMENSION
  5
521
  8
DIM
  2
*D111
 10
-972.66635136332388
 20
648.4762414822012
 30
0.0
 11
-975.68075136332413
 21
640.4762414822012
 31
0.0
 70
     0
  1
%%c<>-排水口
 13
-978.69515136332404
 23
662.40996307153125
 33
0.0
 14
-972.66635136332388
 24
662.40996307152477
 34
0.0
1001
ACAD
1000
DSTYLE
1002
{
1070
   271
1070
     0
1070
   340
1005
24
1002
}
  0
LINE
  5
531
  8
0
 10
-972.66635136332388
 20
659.66479842008664
 30
0.0
 11
-971.66155136332702
 21
661.40516307152654
 31
0.0
  0
LINE
  5
532
  8
0
 10
-972.66635136332388
 20
659.39556307152657
 30
0.0
 11
-972.66635136332388
 21
659.66479842008664
 31
0.0
  0
LINE
  5
533
  8
0
 10
-978.69515136332404
 20
659.66479842007811
 30
0.0
 11
-978.69515136332404
 21
659.39556307152657
 31
0.0
  0
LINE
  5
534
  8
0
 10
-978.69515136332404
 20
659.39556307152657
 30
0.0
 11
-972.66635136332388
 21
659.39556307152657
 31
0.0
  0
ARC
  5
535
  8
0
 10
-954.68075136332379
 20
706.39156307152655
 30
0.0
 40
7.0
 50
180.0
 51
0.0
  0
LINE
  5
536
  8
0
 10
-992.56269437945787
 20
682.39156307152666
 30
0.0
 11
-958.79880834718972
 21
682.39156307152666
 31
0.0
  0
LINE
  5
537
  8
0
 10
-982.81483136332395
 20
665.4243630715265
 30
0.0
 11
-968.54667136332375
 21
665.4243630715265
 31
0.0
  0
CIRCLE
  5
538
  8
0
 10
-975.68075136332368
 20
672.45796307152659
 30
0.0
 40
5.5263999999999847
  0
CIRCLE
  5
539
  8
0
 10
-975.68075136332368
 20
672.45796307152659
 30
0.0
 40
3.2153599999999738
  0
LINE
  5
53A
  8
CENTER
  6
CENTER
 10
-985.36301886188949
 20
672.45796307152659
 30
0.0
 11
-966.00367600753509
 21
672.45796307152659
 31
0.0
  0
LINE
  5
53B
  8
0
 10
-983.21675136332385
 20
682.39156307152666
 30
0.0
 11
-968.14475136332385
 21
682.39156307152666
 31
0.0
  0
LINE
  5
53C
  8
0
 10
-986.21675136332385
 20
681.39156307152655
 30
0.0
 11
-965.14475136332396
 21
681.39156307152655
 31
0.0
  0
LINE
  5
53D
  8
0
 10
-986.21675136332385
 20
682.39156307152666
 30
0.0
 11
-986.21675136332385
 21
681.39156307152655
 31
0.0
  0
ARC
  5
53E
  8
0
 10
-982.81483136332395
 20
665.82628307152663
 30
0.0
 40
0.4019200000000001
 50
180.0
 51
270.0
  0
LINE
  5
53F
  8
0
 10
-983.21675136332385
 20
681.39156307152655
 30
0.0
 11
-983.21675136332385
 21
665.82628307152663
 31
0.0
  0
LINE
  5
540
  8
0
 10
-965.14475136332396
 20
682.39156307152666
 30
0.0
 11
-965.14475136332396
 21
681.39156307152655
 31
0.0
  0
ARC
  5
541
  8
0
 10
-968.54667136332375
 20
665.82628307152663
 30
0.0
 40
0.4019200000000001
 50
270.0
 51
0.0
  0
LINE
  5
542
  8
0
 10
-968.14475136332385
 20
681.39156307152655
 30
0.0
 11
-968.14475136332385
 21
665.82628307152663
 31
0.0
  0
LINE
  5
543
  8
0
 10
-972.66635136332388
 20
662.56479842008673
 30
0.0
 11
-972.66635136332388
 21
662.40996307152477
 31
0.0
  0
LINE
  5
544
  8
0
 10
-972.66635136332388
 20
665.42436307152673
 30
0.0
 11
-972.66635136332388
 21
662.40996307152648
 31
0.0
  0
LINE
  5
545
  8
0
 10
-978.69515136332404
 20
665.4243630715265
 30
0.0
 11
-978.69515136332404
 21
662.40996307153125
 31
0.0
  0
LINE
  5
546
  8
0
 10
-978.69515136332404
 20
662.40996307153011
 30
0.0
 11
-972.66635136332388
 21
662.40996307152477
 31
0.0
  0
ARC
  5
547
  8
0
 10
-975.68075136332391
 20
708.39156307152655
 30
0.0
 40
31.0
 50
302.99588547357951
 51
0.0
  0
ARC
  5
548
  8
0
 10
-955.58599872549303
 20
705.7635431418023
 30
0.0
 40
6.4359616843719687
 50
278.08572460240032
 51
5.5998222228616896
  0
LINE
  5
549
  8
0
 10
-817.56269437945787
 20
682.39156307152666
 30
0.0
 11
-783.79880834718972
 21
682.39156307152666
 31
0.0
  0
ARC
  5
54A
  8
0
 10
-820.46326645997647
 20
706.00887263844254
 30
0.0
 40
6.7283768766526313
 50
176.7394237284004
 51
259.57502944633751
  0
ARC
  5
54B
  8
0
 10
-821.68075136332379
 20
706.39156307152678
 30
0.0
 40
7.0
 50
180.0
 51
0.0
  0
ARC
  5
54C
  8
0
 10
-800.68075136332368
 20
708.39156307152666
 30
0.0
 40
31.0
 50
180.0
 51
237.00411452642041
  0
LINE
  5
54D
  8
0
 10
-808.21675136332385
 20
682.39156307152666
 30
0.0
 11
-793.14475136332373
 21
682.39156307152666
 31
0.0
  0
LINE
  5
54E
  8
0
 10
-811.21675136332385
 20
681.39156307152678
 30
0.0
 11
-790.14475136332373
 21
681.39156307152678
 31
0.0
  0
LINE
  5
54F
  8
0
 10
-811.21675136332385
 20
682.39156307152666
 30
0.0
 11
-811.21675136332385
 21
681.39156307152678
 31
0.0
  0
LINE
  5
550
  8
0
 10
-790.14475136332373
 20
682.39156307152666
 30
0.0
 11
-790.14475136332373
 21
681.39156307152678
 31
0.0
  0
ARC
  5
551
  8
0
 10
-800.68075136332368
 20
708.39156307152666
 30
0.0
 40
31.0
 50
302.99588547357951
 51
0.0
  0
ARC
  5
552
  8
0
 10
-779.68075136332379
 20
706.39156307152678
 30
0.0
 40
7.0
 50
180.0
 51
0.0
  0
ARC
  5
553
  8
0
 10
-780.58599872549291
 20
705.76354314180242
 30
0.0
 40
6.4359616843719687
 50
278.08572460240032
 51
5.5998222228616896
  0
LINE
  5
554
  8
CENTER
  6
CENTER
 10
-859.3722407250259
 20
874.06200998253075
 30
0.0
 11
-857.37224072502602
 21
874.06200998253075
 31
0.0
  0
CIRCLE
  5
555
  8
0
 10
-858.37224072502602
 20
874.06200998253075
 30
0.0
 40
4.5
  0
ARC
  5
556
  8
0
 10
-858.37224072502602
 20
874.06200998253075
 30
0.0
 40
10.0
 50
0.0
 51
90.0
  0
LINE
  5
557
  8
0
 10
-859.18075136332379
 20
854.06200998253087
 30
0.0
 11
-845.68075136332379
 21
854.06200998253087
 31
0.0
  0
LINE
  5
558
  8
0
 10
-862.7807513633237
 20
857.06200998253075
 30
0.0
 11
-848.37224072502602
 21
857.06200998253075
 31
0.0
  0
LINE
  5
559
  8
0
 10
-863.65025526165618
 20
829.24788490352671
 30
0.0
 11
-855.37439320065653
 21
829.24788490352671
 31
0.0
  0
LINE
  5
55A
  8
0
 10
-866.49996249397395
 20
808.09845963652685
 30
0.0
 11
-850.31868243232361
 21
808.09845963652685
 31
0.0
  0
LINE
  5
55B
  8
0
 10
-872.96659771564634
 20
811.40794293062265
 30
0.0
 11
-849.39914220332366
 21
811.40794293062243
 31
0.0
  0
LINE
  5
55C
  8
0
  6
BYBLOCK
 10
-930.18075136332368
 20
843.2823676515269
 30
0.0
 11
-846.18075136332413
 21
843.2823676515269
 31
0.0
  0
LINE
  5
55D
  8
0
 10
-931.18075136332379
 20
834.76512627752686
 30
0.0
 11
-845.18075136332391
 21
834.76512627752675
 31
0.0
  0
LINE
  5
55E
  8
CENTER
  6
CENTER
 10
-888.18075136332368
 20
951.57029675084766
 30
0.0
 11
-888.18075136332368
 21
777.75105221190859
 31
0.0
  0
LINE
  5
55F
  8
0
 10
-860.087969477564
 20
857.06200998253075
 30
0.0
 11
-860.087969477564
 21
854.81802507773102
 31
0.0
  0
LINE
  5
560
  8
0
 10
-865.18075136332379
 20
859.06200998253075
 30
0.0
 11
-859.18075136332379
 21
854.06200998253087
 31
0.0
  0
LINE
  5
561
  8
0
 10
-916.65651197248792
 20
857.06200998253075
 30
0.0
 11
-916.65651197248792
 21
854.49887614156069
 31
0.0
  0
LINE
  5
562
  8
0
 10
-911.18075136332368
 20
859.06200998253075
 30
0.0
 11
-917.18075136332379
 21
854.06200998253087
 31
0.0
  0
LINE
  5
563
  8
0
 10
-928.37224072502613
 20
874.06200998253075
 30
0.0
 11
-928.37224072502613
 21
854.06200998253087
 31
0.0
  0
LINE
  5
564
  8
0
  6
BYBLOCK
 10
-928.69942914669093
 20
813.40601004837788
 30
0.0
 11
-926.9623605233237
 21
813.40601004837788
 31
0.0
  0
LINE
  5
565
  8
0
  6
BYBLOCK
 10
-928.69942914669093
 20
829.85503127663867
 30
0.0
 11
-926.9623605233237
 21
829.85503127663867
 31
0.0
  0
LINE
  5
566
  8
0
 10
-930.68075136332379
 20
854.06200998253087
 30
0.0
 11
-917.18075136332379
 21
854.06200998253087
 31
0.0
  0
ARC
  5
567
  8
0
 10
-926.04282029432375
 20
809.01799986552669
 30
0.0
 40
0.919540229
 50
180.0
 51
270.0
  0
LINE
  5
568
  8
0
 10
-938.18075137832375
 20
834.39156307152655
 30
0.0
 11
-938.18075137832375
 21
791.54163076228031
 31
0.0
  0
LINE
  5
569
  8
0
 10
-964.18075136332391
 20
799.39156307152655
 30
0.0
 11
-960.18075136332391
 21
799.39156307152666
 31
0.0
  0
ARC
  5
56A
  8
0
 10
-954.68075136332379
 20
774.39156307152666
 30
0.0
 40
7.0
 50
0.0
 51
180.0
  0
LINE
  5
56B
  8
0
 10
-975.68075136332391
 20
802.15672551121747
 30
0.0
 11
-984.68075136332391
 21
799.39156307152666
 31
0.0
  0
LINE
  5
56C
  8
0
 10
-984.68075136332391
 20
799.39156307152666
 30
0.0
 11
-966.68075136332391
 21
799.39156307152655
 31
0.0
  0
LINE
  5
56D
  8
0
 10
-991.18075136332379
 20
799.39156307152655
 30
0.0
 11
-987.18075136332391
 21
799.39156307152666
 31
0.0
  0
ARC
  5
56E
  8
0
 10
-991.18075136332379
 20
798.89156307152655
 30
0.0
 40
0.5
 50
90.0
 51
180.0
  0
ARC
  5
56F
  8
0
 10
-987.18075136332391
 20
798.89156307152666
 30
0.0
 40
0.5
 50
0.0000000000002036
 51
90.0
  0
ARC
  5
570
  8
0
 10
-992.68075136332391
 20
792.09199033613743
 30
0.0
 40
1.0
 50
270.0
 51
0.0
  0
ARC
  5
571
  8
0
 10
-985.68075136332379
 20
792.09199033613743
 30
0.0
 40
1.0
 50
180.0
 51
270.0
  0
LINE
  5
572
  8
0
 10
-986.68075136332379
 20
792.09199033613743
 30
0.0
 11
-986.68075136332379
 21
804.39156307152655
 31
0.0
  0
LINE
  5
573
  8
0
 10
-991.68075136332391
 20
792.09199033613743
 30
0.0
 11
-991.68075136332391
 21
798.89156307152655
 31
0.0
  0
LINE
  5
574
  8
0
 10
-986.68075136332379
 20
792.09199033613743
 30
0.0
 11
-986.68075136332379
 21
798.89156307152666
 31
0.0
  0
ARC
  5
575
  8
0
 10
-964.18075136332391
 20
798.89156307152655
 30
0.0
 40
0.5
 50
89.999999999999915
 51
180.0000000000002
  0
ARC
  5
576
  8
0
 10
-965.68075136332391
 20
792.09199033613743
 30
0.0
 40
1.0
 50
270.0
 51
0.0000000000004198
  0
LINE
  5
577
  8
0
 10
-964.68075136332391
 20
792.09199033613743
 30
0.0
 11
-964.68075136332391
 21
804.39156307152655
 31
0.0
  0
LINE
  5
578
  8
0
 10
-975.68075136332391
 20
802.15672551121747
 30
0.0
 11
-966.68075136332391
 21
799.39156307152655
 31
0.0
  0
ARC
  5
579
  8
0
 10
-955.69040708192517
 20
774.93754786405418
 30
0.0
 40
6.5325123014341511
 50
355.20564847487941
 51
81.108804699858496
  0
ARC
  5
57A
  8
0
 10
-944.18075136332391
 20
798.89156307152666
 30
0.0
 40
0.5
 50
90.0
 51
180.0
  0
ARC
  5
57B
  8
0
 10
-960.18075136332391
 20
798.89156307152666
 30
0.0
 40
0.5
 50
0.0000000000002036
 51
90.0
  0
LINE
  5
57C
  8
0
 10
-954.18075136332391
 20
799.39156307152655
 30
0.0
 11
-950.18075136332379
 21
799.39156307152666
 31
0.0
  0
ARC
  5
57D
  8
0
 10
-954.18075136332391
 20
798.89156307152655
 30
0.0
 40
0.5
 50
90.000000000000327
 51
180.0
  0
ARC
  5
57E
  8
0
 10
-950.18075136332379
 20
798.89156307152666
 30
0.0
 40
0.5
 50
359.99999999999972
 51
90.000000000000725
  0
ARC
  5
57F
  8
0
 10
-945.68075136332379
 20
792.09199033613743
 30
0.0
 40
1.0
 50
270.0
 51
0.0
  0
LINE
  5
580
  8
0
 10
-958.68075136332391
 20
791.09199033613743
 30
0.0
 11
-955.68075136332391
 21
791.09199033613743
 31
0.0
  0
ARC
  5
581
  8
0
 10
-958.68075136332391
 20
792.09199033613743
 30
0.0
 40
1.0
 50
180.0
 51
270.0
  0
ARC
  5
582
  8
0
 10
-955.68075136332391
 20
792.09199033613743
 30
0.0
 40
1.0
 50
270.0
 51
0.0
  0
ARC
  5
583
  8
0
 10
-948.68075136332391
 20
792.09199033613743
 30
0.0
 40
1.0
 50
180.0
 51
270.0
  0
LINE
  5
584
  8
0
 10
-959.68075136332391
 20
792.09199033613743
 30
0.0
 11
-959.68075136332391
 21
798.89156307152666
 31
0.0
  0
LINE
  5
585
  8
0
 10
-954.68075136332379
 20
792.09199033613743
 30
0.0
 11
-954.68075136332379
 21
798.89156307152655
 31
0.0
  0
LINE
  5
586
  8
0
 10
-949.68075136332391
 20
792.09199033613743
 30
0.0
 11
-949.68075136332391
 21
798.89156307152666
 31
0.0
  0
LINE
  5
587
  8
0
 10
-944.68075136332379
 20
792.09199033613743
 30
0.0
 11
-944.68075136332379
 21
798.89156307152666
 31
0.0
  0
LINE
  5
588
  8
0
 10
-944.18075136332391
 20
799.39156307152666
 30
0.0
 11
-940.18075136332379
 21
799.39156307152666
 31
0.0
  0
ARC
  5
589
  8
0
 10
-940.18075136332379
 20
798.89156307152666
 30
0.0
 40
0.5
 50
0.0000000000002036
 51
90.0
  0
ARC
  5
58A
  8
0
 10
-938.68075136332402
 20
792.09199033613743
 30
0.0
 40
1.0
 50
180.0
 51
270.0
  0
LINE
  5
58B
  8
0
 10
-938.51710217317907
 20
790.79358682472673
 30
0.0
 11
-943.43272958480213
 21
786.43254322723215
 31
0.0
  0
ARC
  5
58C
  8
0
 10
-939.18075137832375
 20
791.54163076228031
 30
0.0
 40
1.0
 50
311.57877936227942
 51
0.0
  0
ARC
  5
58D
  8
0
 10
-942.43725577708483
 20
785.31047732090201
 30
0.0
 40
1.5
 50
131.57877936227931
 51
179.4462503884244
  0
LINE
  5
58E
  8
0
 10
-939.68075136332391
 20
792.09199033613743
 30
0.0
 11
-939.68075136332391
 21
798.89156307152666
 31
0.0
  0
LINE
  5
58F
  8
0
 10
-957.68075137112407
 20
829.4913638707759
 30
0.0
 11
-963.18075136772393
 21
829.4913638707759
 31
0.0
  0
LINE
  5
591
  8
0
 10
-954.68075137212395
 20
816.39156307152666
 30
0.0
 11
-964.68075136732386
 21
816.39156307152666
 31
0.0
  0
LINE
  5
592
  8
0
 10
-964.68075136772404
 20
833.89156307152643
 30
0.0
 11
-964.68075136772404
 21
830.99136387077579
 31
0.0
  0
LINE
  5
593
  8
0
 10
-986.68075135892377
 20
833.89156307152643
 30
0.0
 11
-986.68075135892377
 21
830.99136387077624
 31
0.0
  0
LINE
  5
595
  8
0
 10
-995.18075135552465
 20
832.89156307152655
 30
0.0
 11
-995.18075135552476
 21
816.39156307152655
 31
0.0
  0
LINE
  5
596
  8
0
 10
-986.68075135892377
 20
830.99136387077624
 30
0.0
 11
-975.68075136332391
 21
819.39156307152655
 31
0.0
  0
LINE
  5
597
  8
0
 10
-993.68075135552465
 20
829.49136387077613
 30
0.0
 11
-988.18075135892377
 21
829.49136387077613
 31
0.0
  0
ARC
  5
598
  8
0
 10
-988.18075135892377
 20
830.99136387077624
 30
0.0
 40
1.5
 50
269.99999999999977
 51
0.0
  0
ARC
  5
599
  8
0
 10
-993.68075135552465
 20
830.99136387077624
 30
0.0
 40
1.5
 50
180.0
 51
269.99999999999972
  0
LINE
  5
59A
  8
0
 10
-985.68075135932384
 20
815.39156307152655
 30
0.0
 11
-985.68075135932384
 21
811.39156307152666
 31
0.0
  0
ARC
  5
59B
  8
0
 10
-986.68075135932395
 20
815.39156307152655
 30
0.0
 40
1.0
 50
0.0000000000001018
 51
90.0
  0
ARC
  5
59C
  8
0
 10
-984.68075135932395
 20
811.39156307152666
 30
0.0
 40
1.0
 50
180.0
 51
269.99999999999989
  0
ARC
  5
59D
  8
0
 10
-963.18075136772393
 20
830.99136387077579
 30
0.0
 40
1.5
 50
180.0000000000002
 51
269.99999999999972
  0
LINE
  5
59E
  8
0
 10
-964.68075136772404
 20
830.99136387077579
 30
0.0
 11
-975.68075136332391
 21
819.39156307152655
 31
0.0
  0
LINE
  5
59F
  8
0
 10
-965.68075136732386
 20
815.39156307152678
 30
0.0
 11
-965.68075136732386
 21
811.39156307152655
 31
0.0
  0
ARC
  5
5A0
  8
0
 10
-964.68075136732386
 20
815.39156307152678
 30
0.0
 40
1.0
 50
90.000000000000114
 51
180.0
  0
ARC
  5
5A1
  8
0
 10
-966.68075136732386
 20
811.39156307152655
 30
0.0
 40
1.0
 50
269.99999999999977
 51
0.0
  0
LINE
  5
5A2
  8
0
 10
-966.18075136772393
 20
835.39156307152655
 30
0.0
 11
-985.18075135892389
 21
835.39156307152655
 31
0.0
  0
ARC
  5
5A3
  8
0
 10
-985.18075135892389
 20
833.89156307152643
 30
0.0
 40
1.5
 50
89.999999999999758
 51
180.0
  0
ARC
  5
5A5
  8
0
 10
-966.18075136772393
 20
833.89156307152643
 30
0.0
 40
1.5
 50
0.0000000000001527
 51
89.999999999999915
  0
LINE
  5
5A6
  8
0
 10
-956.18075137112396
 20
832.89156307152655
 30
0.0
 11
-956.18075137112396
 21
830.99136387077579
 31
0.0
  0
ARC
  5
5A7
  8
0
 10
-957.68075137112385
 20
830.99136387077579
 30
0.0
 40
1.5
 50
269.99999999999949
 51
359.99999999999989
  0
LINE
  5
5A8
  8
0
 10
-953.68075137212395
 20
815.39156307152678
 30
0.0
 11
-953.68075137212395
 21
811.39156307152655
 31
0.0
  0
ARC
  5
5A9
  8
0
 10
-954.68075137212395
 20
815.39156307152678
 30
0.0
 40
1.0
 50
0.0
 51
90.0
  0
ARC
  5
5AA
  8
0
 10
-952.68075137212395
 20
811.39156307152655
 30
0.0
 40
1.0
 50
180.00000000000011
 51
269.99999999999989
  0
LINE
  5
5AB
  8
0
 10
-956.18075137112396
 20
830.99136387077579
 30
0.0
 11
-956.18075137112396
 21
816.39156307152666
 31
0.0
  0
LINE
  5
5AC
  8
0
  6
BYBLOCK
 10
-928.69942914669093
 20
814.66733828247766
 30
0.0
 11
-929.68171906769021
 21
818.37592801110748
 31
0.0
  0
LINE
  5
5AD
  8
0
  6
BYBLOCK
 10
-929.68171906769021
 20
818.37592801110748
 30
0.0
 11
-928.69942914669093
 21
822.19152752242235
 31
0.0
  0
LINE
  5
5AE
  8
0
  6
BYBLOCK
 10
-935.71713922569143
 20
825.37592801110759
 30
0.0
 11
-936.6994291466907
 21
822.08451773973729
 31
0.0
  0
LINE
  5
5AF
  8
0
  6
BYBLOCK
 10
-928.69942914669093
 20
821.66733828247777
 30
0.0
 11
-929.68171906769021
 21
825.37592801110759
 31
0.0
  0
LINE
  5
5B0
  8
0
  6
BYBLOCK
 10
-929.68171906769021
 20
825.37592801110759
 30
0.0
 11
-935.71713922569143
 21
825.37592801110759
 31
0.0
  0
LINE
  5
5B1
  8
0
  6
BYBLOCK
 10
-928.69942914669093
 20
831.87592801110748
 30
0.0
 11
-929.19942914669082
 21
832.37592801110759
 31
0.0
  0
LINE
  5
5B2
  8
0
  6
BYBLOCK
 10
-929.68171906769021
 20
825.37592801110759
 30
0.0
 11
-928.69942914669093
 21
829.19152752242235
 31
0.0
  0
LINE
  5
5B3
  8
0
  6
BYBLOCK
 10
-938.18075137832375
 20
829.85503127663867
 30
0.0
 11
-936.6994291466907
 21
829.85503127663867
 31
0.0
  0
LINE
  5
5B4
  8
0
  6
BYBLOCK
 10
-936.19942914669082
 20
832.37592801110759
 30
0.0
 11
-936.6994291466907
 21
831.87592801110748
 31
0.0
  0
LINE
  5
5B5
  8
0
  6
BYBLOCK
 10
-936.6994291466907
 20
829.85503127663867
 30
0.0
 11
-935.71713922569143
 21
825.37592801110759
 31
0.0
  0
LINE
  5
5B6
  8
0
  6
BYBLOCK
 10
-929.19942914669082
 20
832.37592801110759
 30
0.0
 11
-936.19942914669082
 21
832.37592801110759
 31
0.0
  0
LINE
  5
5B7
  8
0
  6
BYBLOCK
 10
-938.18075137832375
 20
813.40601004837788
 30
0.0
 11
-936.6994291466907
 21
813.40601004837788
 31
0.0
  0
LINE
  5
5B8
  8
0
  6
BYBLOCK
 10
-935.71713922569143
 20
818.37592801110748
 30
0.0
 11
-936.6994291466907
 21
814.56032849979283
 31
0.0
  0
LINE
  5
5B9
  8
0
  6
BYBLOCK
 10
-936.6994291466907
 20
831.87592801110748
 30
0.0
 11
-936.6994291466907
 21
810.87592801110759
 31
0.0
  0
LINE
  5
5BA
  8
0
  6
BYBLOCK
 10
-936.6994291466907
 20
822.08451773973729
 30
0.0
 11
-935.71713922569143
 21
818.37592801110748
 31
0.0
  0
LINE
  5
5BB
  8
0
  6
BYBLOCK
 10
-929.68171906769021
 20
818.37592801110748
 30
0.0
 11
-935.71713922569143
 21
818.37592801110748
 31
0.0
  0
LINE
  5
5BC
  8
0
  6
BYBLOCK
 10
-929.68171906769021
 20
818.37592801110748
 30
0.0
 11
-935.71713922569143
 21
818.37592801110748
 31
0.0
  0
LINE
  5
5BD
  8
0
  6
BYBLOCK
 10
-936.6994291466907
 20
810.87592801110759
 30
0.0
 11
-936.19942914669082
 21
810.37592801110748
 31
0.0
  0
LINE
  5
5BE
  8
0
  6
BYBLOCK
 10
-928.69942914669093
 20
810.87592801110759
 30
0.0
 11
-928.69942914669093
 21
831.87592801110748
 31
0.0
  0
LINE
  5
5BF
  8
0
  6
BYBLOCK
 10
-936.19942914669082
 20
810.37592801110748
 30
0.0
 11
-929.19942914669082
 21
810.37592801110748
 31
0.0
  0
LINE
  5
5C0
  8
0
  6
BYBLOCK
 10
-928.69942914669093
 20
810.87592801110759
 30
0.0
 11
-929.19942914669082
 21
810.37592801110748
 31
0.0
  0
LINE
  5
5C1
  8
0
 10
-954.68075137112407
 20
834.39156307152655
 30
0.0
 11
-938.18075137832375
 21
834.39156307152655
 31
0.0
  0
ARC
  5
5C2
  8
0
 10
-954.68075137112407
 20
832.89156307152655
 30
0.0
 40
1.5
 50
90.0
 51
179.9999999999998
  0
ARC
  5
5C7
  8
0
 10
-930.68075136332379
 20
853.56200998253075
 30
0.0
 40
0.5
 50
90.0
 51
180.00000000000011
  0
LINE
  5
5C8
  8
0
  6
BYBLOCK
 10
-931.18075136332379
 20
844.2823676515269
 30
0.0
 11
-931.18075136332379
 21
840.7823676515269
 31
0.0
  0
ARC
  5
5C9
  8
0
  6
BYBLOCK
 10
-930.18075136332368
 20
844.2823676515269
 30
0.0
 40
1.0
 50
180.0
 51
270.0
  0
LINE
  5
5CA
  8
0
 10
-931.18075136332379
 20
853.56200998253075
 30
0.0
 11
-931.18075136332379
 21
844.2823676515269
 31
0.0
  0
LINE
  5
5CB
  8
0
  6
BYBLOCK
 10
-931.18075136332379
 20
840.7823676515269
 30
0.0
 11
-931.18075136332402
 21
834.76512627752686
 31
0.0
  0
LINE
  5
5CC
  8
0
 10
-867.13293221814081
 20
807.84593032275825
 30
0.0
 11
-872.96659771564634
 21
811.40794293062265
 31
0.0
  0
ARC
  5
5CD
  8
0
 10
-866.49996249397395
 20
807.17891940752679
 30
0.0
 40
0.919540229
 50
90.0
 51
176.99999999999989
  0
ARC
  5
5CE
  8
0
 10
-909.86154023267363
 20
807.17891940752679
 30
0.0
 40
0.919540229
 50
3.0000000000000671
 51
90.0
  0
LINE
  5
5CF
  8
0
 10
-909.22857050850678
 20
807.84593032275825
 30
0.0
 11
-903.39490501100113
 21
811.40794293062265
 31
0.0
  0
LINE
  5
5D0
  8
0
  6
BYBLOCK
 10
-908.43075136332379
 20
797.06397688852667
 30
0.0
 11
-867.93075136332379
 21
797.06397688852667
 31
0.0
  0
LINE
  5
5D1
  8
0
 10
-891.68075136332368
 20
794.06397688852678
 30
0.0
 11
-899.80929033673931
 21
794.06397688852678
 31
0.0
  0
LINE
  5
5D2
  8
0
  6
BYBLOCK
 10
-906.01234933841317
 20
785.06397688852667
 30
0.0
 11
-888.18075136332368
 21
785.06397688852667
 31
0.0
  0
LINE
  5
5D3
  8
0
 10
-908.4106364013237
 20
797.06397688852667
 30
0.0
 11
-867.95086632532366
 21
797.06397688852667
 31
0.0
  0
LINE
  5
5D4
  8
0
 10
-908.4106364013237
 20
797.06397688852667
 30
0.0
 11
-908.94326020159895
 21
807.22704442471536
 31
0.0
  0
LINE
  5
5D5
  8
0
 10
-906.89738834756872
 20
785.27045912940844
 30
0.0
 11
-906.89738834756872
 21
794.06397688852678
 31
0.0
  0
LINE
  5
5D6
  8
0
 10
-904.59739281122984
 20
785.06397688852667
 30
0.0
 11
-904.59739281122984
 21
794.06397688852678
 31
0.0
  0
LINE
  5
5D7
  8
0
 10
-898.23343178055075
 20
785.06397688852667
 30
0.0
 11
-898.23343178055075
 21
794.06397688852678
 31
0.0
  0
LINE
  5
5D8
  8
0
 10
-892.68075136332368
 20
785.06397688852667
 30
0.0
 11
-892.68075136332368
 21
794.06397688852678
 31
0.0
  0
LINE
  5
5D9
  8
0
 10
-899.80929033673931
 20
785.06397688852667
 30
0.0
 11
-899.80929033673931
 21
794.06397688852678
 31
0.0
  0
ARC
  5
5DA
  8
0
 10
-906.01234933841317
 20
787.06397688852678
 30
0.0
 40
2.0
 50
182.38594403038871
 51
270.0
  0
LINE
  5
5DB
  8
0
 10
-904.59739281122984
 20
794.06397688852678
 30
0.0
 11
-908.30575136332368
 21
794.06397688852678
 31
0.0
  0
LINE
  5
5DC
  8
0
 10
-908.43075136332379
 20
797.06397688852667
 30
0.0
 11
-908.01061548459779
 21
786.98071579910243
 31
0.0
  0
LINE
  5
5DD
  8
0
  6
BYBLOCK
 10
-870.34915338823441
 20
785.06397688852667
 30
0.0
 11
-888.18075136332368
 21
785.06397688852667
 31
0.0
  0
LINE
  5
5DE
  8
0
 10
-884.68075136332368
 20
785.06397688852667
 30
0.0
 11
-884.68075136332368
 21
794.06397688852678
 31
0.0
  0
LINE
  5
5DF
  8
0
 10
-883.68075136332368
 20
785.06397688852667
 30
0.0
 11
-883.68075136332368
 21
794.06397688852678
 31
0.0
  0
LINE
  5
5E0
  8
0
 10
-891.68075136332368
 20
785.06397688852667
 30
0.0
 11
-891.68075136332368
 21
794.06397688852678
 31
0.0
  0
LINE
  5
5E1
  8
0
 10
-876.55221238990828
 20
785.06397688852667
 30
0.0
 11
-876.55221238990828
 21
794.06397688852678
 31
0.0
  0
LINE
  5
5E2
  8
0
 10
-878.12807094609673
 20
785.06397688852667
 30
0.0
 11
-878.12807094609673
 21
794.06397688852678
 31
0.0
  0
LINE
  5
5E3
  8
0
 10
-884.68075136332368
 20
794.06397688852678
 30
0.0
 11
-876.55221238990828
 21
794.06397688852678
 31
0.0
  0
LINE
  5
5E4
  8
0
 10
-867.95086632532366
 20
797.06397688852667
 30
0.0
 11
-867.41824252504875
 21
807.22704442471536
 31
0.0
  0
LINE
  5
5E5
  8
0
 10
-871.76410991541775
 20
785.06397688852667
 30
0.0
 11
-871.76410991541775
 21
794.06397688852678
 31
0.0
  0
LINE
  5
5E6
  8
0
 10
-869.46411437907886
 20
785.27045912940844
 30
0.0
 11
-869.46411437907886
 21
794.06397688852678
 31
0.0
  0
ARC
  5
5E7
  8
0
 10
-870.34915338823441
 20
787.06397688852678
 30
0.0
 40
2.0
 50
270.0
 51
357.61405596961117
  0
LINE
  5
5E8
  8
0
 10
-871.76410991541775
 20
794.06397688852678
 30
0.0
 11
-868.05575136332368
 21
794.06397688852678
 31
0.0
  0
LINE
  5
5E9
  8
0
 10
-867.93075136332379
 20
797.06397688852667
 30
0.0
 11
-868.35088724204957
 21
786.98071579910243
 31
0.0
  0
LINE
  5
5EA
  8
CENTER
  6
CENTER
 10
-901.61280227051373
 20
823.73064352952679
 30
0.0
 11
-875.17195083774095
 21
823.73064352952679
 31
0.0
  0
CIRCLE
  5
5EB
  8
0
 10
-888.18075136332368
 20
823.73064352952679
 30
0.0
 40
6.1609195342999996
  0
ARC
  5
5EC
  8
0
 10
-888.18075136332368
 20
832.92604581952685
 30
0.0
 40
20.229885037999999
 50
238.48462999791141
 51
301.5153700020889
  0
CIRCLE
  5
5ED
  8
0
 10
-888.18075136332368
 20
823.73064352952679
 30
0.0
 40
5.2413793053000006
  0
LINE
  5
5EE
  8
0
 10
-912.71124746499095
 20
829.24788490352671
 30
0.0
 11
-912.71124746499095
 21
834.76512627752675
 31
0.0
  0
LINE
  5
5EF
  8
0
 10
-920.98710952599129
 20
829.24788490352671
 30
0.0
 11
-920.98710952599129
 21
834.76512627752675
 31
0.0
  0
LINE
  5
5F0
  8
0
 10
-902.27431448407788
 20
827.14627017437965
 30
0.0
 11
-912.71124746499095
 21
834.76512627752686
 31
0.0
  0
LINE
  5
5F1
  8
CENTER
  6
CENTER
 10
-916.84917849549106
 20
827.06804392037327
 30
0.0
 11
-916.84917849549106
 21
842.47896985141347
 31
0.0
  0
LINE
  5
5F2
  8
0
 10
-899.67500422582384
 20
834.76512627752686
 30
0.0
 11
-898.75546399682366
 21
815.68006943749515
 31
0.0
  0
LINE
  5
5F3
  8
0
 10
-926.96236052332381
 20
834.76512627752686
 30
0.0
 11
-926.96236052332381
 21
809.01799986552669
 31
0.0
  0
LINE
  5
5F4
  8
0
 10
-903.39490501100113
 20
811.40794293062265
 30
0.0
 11
-926.96236052332381
 21
811.40794293062265
 31
0.0
  0
LINE
  5
5F5
  8
0
 10
-912.71124746499095
 20
829.24788490352671
 30
0.0
 11
-920.98710952599129
 21
829.24788490352671
 31
0.0
  0
LINE
  5
5F6
  8
0
 10
-926.04282029432375
 20
808.09845963652685
 30
0.0
 11
-909.86154023267363
 21
808.09845963652674
 31
0.0
  0
LINE
  5
5F7
  8
0
 10
-899.30791888022975
 20
827.14627017437965
 30
0.0
 11
-902.27431448407788
 21
827.14627017437965
 31
0.0
  0
LINE
  5
5F8
  8
0
 10
-903.39490501100113
 20
811.40794293062265
 30
0.0
 11
-902.27431448407788
 21
827.14627017437965
 31
0.0
  0
LINE
  5
5F9
  8
0
 10
-863.65025526165618
 20
829.24788490352671
 30
0.0
 11
-863.65025526165618
 21
834.76512627752675
 31
0.0
  0
LINE
  5
5FA
  8
0
 10
-874.08718824256925
 20
827.14627017437965
 30
0.0
 11
-863.65025526165618
 21
834.76512627752686
 31
0.0
  0
LINE
  5
5FB
  8
CENTER
  6
CENTER
 10
-859.5123242311563
 20
827.06804392037327
 30
0.0
 11
-859.5123242311563
 21
842.47896985141347
 31
0.0
  0
LINE
  5
5FC
  8
0
 10
-877.60603872982347
 20
815.68006943749515
 30
0.0
 11
-876.68649850082375
 21
834.76512627752686
 31
0.0
  0
LINE
  5
5FD
  8
0
 10
-877.05358384641761
 20
827.14627017437965
 30
0.0
 11
-874.08718824256925
 21
827.14627017437965
 31
0.0
  0
LINE
  5
5FE
  8
0
 10
-872.96659771564634
 20
811.40794293062265
 30
0.0
 11
-874.08718824256925
 21
827.14627017437965
 31
0.0
  0
ARC
  5
5FF
  8
0
 10
-918.3722407250259
 20
874.06200998253075
 30
0.0
 40
10.0
 50
90.0
 51
180.0
  0
LINE
  5
600
  8
0
 10
-928.37224072502613
 20
857.06200998253075
 30
0.0
 11
-913.77224072502634
 21
857.06200998253075
 31
0.0
  0
LINE
  5
601
  8
0
 10
-900.87224072502579
 20
908.06200998253075
 30
0.0
 11
-900.87224072502579
 21
901.06200998253075
 31
0.0
  0
LINE
  5
602
  8
0
 10
-875.87224072502579
 20
908.06200998253075
 30
0.0
 11
-875.87224072502579
 21
901.06200998253075
 31
0.0
  0
LINE
  5
603
  8
0
 10
-918.3722407250259
 20
884.06200998253075
 30
0.0
 11
-910.38287902289824
 21
884.06200998253075
 31
0.0
  0
LINE
  5
604
  8
0
 10
-909.90313757654485
 20
899.09390863492979
 30
0.0
 11
-910.70190076028132
 21
874.06599554452396
 31
0.0
  0
LINE
  5
605
  8
CENTER
  6
CENTER
 10
-916.37224072502602
 20
874.06200998253075
 30
0.0
 11
-912.8722407250259
 21
874.06200998253075
 31
0.0
  0
LINE
  5
606
  8
CENTER
  6
CENTER
 10
-918.3722407250259
 20
876.06200998253075
 30
0.0
 11
-918.3722407250259
 21
879.56200998253075
 31
0.0
  0
LINE
  5
607
  8
CENTER
  6
CENTER
 10
-920.37224072502613
 20
874.06200998253075
 30
0.0
 11
-923.87224072502613
 21
874.06200998253075
 31
0.0
  0
LINE
  5
608
  8
CENTER
  6
CENTER
 10
-918.3722407250259
 20
873.06200998253075
 30
0.0
 11
-918.3722407250259
 21
875.06200998253075
 31
0.0
  0
LINE
  5
609
  8
CENTER
  6
CENTER
 10
-919.37224072502613
 20
874.06200998253075
 30
0.0
 11
-917.3722407250259
 21
874.06200998253075
 31
0.0
  0
LINE
  5
60A
  8
CENTER
  6
CENTER
 10
-918.3722407250259
 20
870.5237470069269
 30
0.0
 11
-918.3722407250259
 21
867.0237470069269
 31
0.0
  0
CIRCLE
  5
60B
  8
0
 10
-918.3722407250259
 20
874.06200998253075
 30
0.0
 40
4.5
  0
LINE
  5
60C
  8
0
 10
-910.70190076028132
 20
874.06599554452396
 30
0.0
 11
-911.18075136332368
 21
859.06200998253075
 31
0.0
  0
ARC
  5
60D
  8
0
 10
-908.90364646804267
 20
899.06200998253075
 30
0.0
 40
1.0
 50
90.000000000000185
 51
178.17203175569489
  0
ARC
  5
60E
  8
0
 10
-901.87224072502579
 20
901.06200998253075
 30
0.0
 40
1.0
 50
270.00000000000023
 51
0.0
  0
LINE
  5
60F
  8
0
 10
-908.90364646804267
 20
900.06200998253075
 30
0.0
 11
-901.87224072502579
 21
900.06200998253075
 31
0.0
  0
LINE
  5
610
  8
0
 10
-866.84134387350673
 20
899.09390863492979
 30
0.0
 11
-866.04258068977038
 21
874.06599554452396
 31
0.0
  0
LINE
  5
611
  8
CENTER
  6
CENTER
 10
-858.37224072502602
 20
876.06200998253075
 30
0.0
 11
-858.37224072502602
 21
879.56200998253075
 31
0.0
  0
LINE
  5
612
  8
CENTER
  6
CENTER
 10
-860.3722407250259
 20
874.06200998253075
 30
0.0
 11
-863.8722407250259
 21
874.06200998253075
 31
0.0
  0
LINE
  5
613
  8
CENTER
  6
CENTER
 10
-858.37224072502602
 20
873.06200998253075
 30
0.0
 11
-858.37224072502602
 21
875.06200998253075
 31
0.0
  0
LINE
  5
614
  8
CENTER
  6
CENTER
 10
-858.37224072502602
 20
872.06200998253087
 30
0.0
 11
-858.37224072502602
 21
868.56200998253087
 31
0.0
  0
LINE
  5
615
  8
0
 10
-865.65960196636615
 20
874.06599554452396
 30
0.0
 11
-865.18075136332379
 21
859.06200998253075
 31
0.0
  0
ARC
  5
616
  8
0
 10
-874.87224072502568
 20
901.06200998253075
 30
0.0
 40
1.0
 50
180.0
 51
270.0
  0
LINE
  5
617
  8
0
 10
-874.87224072502568
 20
900.06200998253075
 30
0.0
 11
-867.8408349820088
 21
900.06200998253075
 31
0.0
  0
ARC
  5
618
  8
0
 10
-867.8408349820088
 20
899.06200998253075
 30
0.0
 40
1.0
 50
1.827968244305014
 51
90.0
  0
LINE
  5
619
  8
0
 10
-866.17011306545146
 20
884.06200998253075
 30
0.0
 11
-858.37224072502602
 21
884.06200998253075
 31
0.0
  0
LINE
  5
61A
  8
0
 10
-893.37224072502568
 20
909.06200998253075
 30
0.0
 11
-880.30429153259456
 21
909.06200998253075
 31
0.0
  0
LINE
  5
61B
  8
0
 10
-893.37224072502556
 20
915.06200998253098
 30
0.0
 11
-880.30429153259456
 21
915.06200998253075
 31
0.0
  0
LINE
  5
61C
  8
0
 10
-899.87224072502568
 20
909.06200998253075
 30
0.0
 11
-876.87224072502579
 21
909.06200998253075
 31
0.0
  0
ARC
  5
61D
  8
0
 10
-888.37224072502579
 20
930.9826622111907
 30
0.0
 40
9.083333333333373
 50
56.601511532012807
 51
123.39848846798709
  0
LINE
  5
61E
  8
0
 10
-893.37224072502568
 20
938.56599554452407
 30
0.0
 11
-883.37224072502579
 21
938.56599554452407
 31
0.0
  0
LINE
  5
61F
  8
0
 10
-893.37224072502568
 20
927.56599554452396
 30
0.0
 11
-883.37224072502579
 21
927.56599554452396
 31
0.0
  0
LINE
  5
620
  8
0
 10
-893.37224072502568
 20
929.56599554452384
 30
0.0
 11
-883.37224072502579
 21
929.56599554452384
 31
0.0
  0
LINE
  5
621
  8
CENTER
  6
CENTER
 10
-914.97292772131561
 20
934.06599554452407
 30
0.0
 11
-861.49949087182415
 21
934.06599554452407
 31
0.0
  0
LINE
  5
622
  8
0
 10
-893.37224072502568
 20
938.56599554452407
 30
0.0
 11
-893.37224072502568
 21
929.56599554452384
 31
0.0
  0
LINE
  5
623
  8
0
 10
-896.44018991745691
 20
915.06200998253075
 30
0.0
 11
-892.87224072502579
 21
915.06200998253075
 31
0.0
  0
LINE
  5
624
  8
0
 10
-898.17224072502563
 20
914.06200998253087
 30
0.0
 11
-898.17224072502563
 21
910.06200998253075
 31
0.0
  0
LINE
  5
625
  8
0
 10
-898.17224072502563
 20
910.06200998253075
 30
0.0
 11
-896.44018991745691
 21
909.06200998253075
 31
0.0
  0
LINE
  5
626
  8
0
 10
-896.44018991745691
 20
909.06200998253075
 30
0.0
 11
-892.87224072502579
 21
909.06200998253075
 31
0.0
  0
ARC
  5
627
  8
0
 10
-899.87224072502568
 20
908.06200998253075
 30
0.0
 40
1.0
 50
90.0
 51
180.0
  0
LINE
  5
628
  8
0
 10
-898.17224072502563
 20
914.06200998253087
 30
0.0
 11
-896.44018991745691
 21
915.06200998253075
 31
0.0
  0
LINE
  5
629
  8
0
 10
-892.87224072502579
 20
929.56599554452384
 30
0.0
 11
-892.87224072502534
 21
915.06200998253098
 31
0.0
  0
LINE
  5
62A
  8
0
 10
-893.37224072502568
 20
927.56599554452396
 30
0.0
 11
-893.37224072502568
 21
909.06200998253075
 31
0.0
  0
LINE
  5
62B
  8
0
 10
-912.37224072502568
 20
931.56599554452407
 30
0.0
 11
-893.37224072502568
 21
931.56599554452407
 31
0.0
  0
LINE
  5
62C
  8
0
 10
-912.37224072502568
 20
936.56599554452396
 30
0.0
 11
-893.37224072502568
 21
936.56599554452396
 31
0.0
  0
LINE
  5
62D
  8
0
 10
-912.37224072502568
 20
936.56599554452396
 30
0.0
 11
-912.37224072502568
 21
931.56599554452407
 31
0.0
  0
ARC
  5
62E
  8
0
 10
-909.74724072502579
 20
934.06599554452384
 30
0.0
 40
3.624999999999968
 50
136.39718102729589
 51
223.6028189727038
  0
LINE
  5
62F
  8
0
 10
-883.37224072502579
 20
938.56599554452407
 30
0.0
 11
-883.37224072502579
 21
929.56599554452384
 31
0.0
  0
LINE
  5
630
  8
0
 10
-878.57224072502561
 20
914.06200998253087
 30
0.0
 11
-878.57224072502561
 21
910.06200998253075
 31
0.0
  0
LINE
  5
631
  8
0
 10
-878.57224072502561
 20
910.06200998253075
 30
0.0
 11
-880.30429153259456
 21
909.06200998253075
 31
0.0
  0
ARC
  5
632
  8
0
 10
-876.87224072502579
 20
908.06200998253075
 30
0.0
 40
1.0
 50
0.0
 51
89.999999999999915
  0
LINE
  5
633
  8
0
  6
BYBLOCK
 10
-883.37224072502556
 20
915.06200998253075
 30
0.0
 11
-883.37224072502522
 21
909.06200998253075
 31
0.0
  0
LINE
  5
634
  8
0
 10
-878.57224072502561
 20
914.06200998253087
 30
0.0
 11
-880.30429153259456
 21
915.06200998253075
 31
0.0
  0
LINE
  5
635
  8
0
 10
-883.37224072502579
 20
927.56599554452396
 30
0.0
 11
-883.37224072502556
 21
915.06200998253075
 31
0.0
  0
LINE
  5
636
  8
0
 10
-883.87224072502568
 20
929.56599554452384
 30
0.0
 11
-883.87224072502602
 21
915.06200998253075
 31
0.0
  0
LINE
  5
637
  8
0
 10
-883.37224072502579
 20
931.56599554452407
 30
0.0
 11
-864.37224072502579
 21
931.56599554452407
 31
0.0
  0
LINE
  5
638
  8
0
 10
-883.37224072502579
 20
936.56599554452396
 30
0.0
 11
-864.37224072502579
 21
936.56599554452396
 31
0.0
  0
ARC
  5
639
  8
0
 10
-866.99724072502568
 20
934.06599554452384
 30
0.0
 40
3.624999999999968
 50
316.39718102729609
 51
43.602818972704078
  0
LINE
  5
63A
  8
0
 10
-864.37224072502579
 20
936.56599554452396
 30
0.0
 11
-864.37224072502579
 21
931.56599554452384
 31
0.0
  0
LINE
  5
63B
  8
0
 10
-783.68075136332345
 20
859.75841182123543
 30
0.0
 11
-783.68075136332345
 21
850.75841182123565
 31
0.0
  0
LINE
  5
63C
  8
0
 10
-784.17362280766099
 20
859.75841182123565
 30
0.0
 11
-784.17362280766099
 21
852.77666351547987
 31
0.0
  0
LINE
  5
63D
  8
0
 10
-784.54862280766099
 20
859.75841182123565
 30
0.0
 11
-784.54862280766099
 21
853.25711833304194
 31
0.0
  0
LINE
  5
63E
  8
0
 10
-785.29862280766099
 20
859.75841182123565
 30
0.0
 11
-785.29862280766099
 21
854.40180794978994
 31
0.0
  0
LINE
  5
63F
  8
0
 10
-784.92362280766099
 20
859.75841182123543
 30
0.0
 11
-784.92362280766099
 21
853.67336897863163
 31
0.0
  0
LINE
  5
640
  8
0
 10
-786.04862280766088
 20
859.75841182123565
 30
0.0
 11
-786.04862280766088
 21
856.48306254324302
 31
0.0
  0
LINE
  5
641
  8
0
 10
-785.67362280766088
 20
859.75841182123565
 30
0.0
 11
-785.67362280766088
 21
855.39040408650578
 31
0.0
  0
LINE
  5
642
  8
0
 10
-791.68075136332345
 20
859.75841182123543
 30
0.0
 11
-791.68075136332345
 21
850.75841182123565
 31
0.0
  0
ARC
  5
643
  8
0
 10
-843.18075136332391
 20
849.89156307152655
 30
0.0
 40
49.999999999999993
 50
0.0000000000000325
 51
14.79249704140153
  0
LINE
  5
644
  8
CENTER
  6
CENTER
 10
-787.68075136332345
 20
861.30667819489645
 30
0.0
 11
-787.68075136332345
 21
833.92857474071832
 31
0.0
  0
ARC
  5
645
  8
0
 10
-758.18075136332402
 20
849.89156307152655
 30
0.0
 40
49.999999999999993
 50
165.20750295859841
 51
179.99999999999989
  0
LINE
  5
646
  8
0
 10
-848.37224072502602
 20
874.06200998253075
 30
0.0
 11
-848.37224072502602
 21
854.06200998253087
 31
0.0
  0
LINE
  5
647
  8
0
 10
-783.68075136332345
 20
850.75841182123565
 30
0.0
 11
-791.68075136332345
 21
850.75841182123565
 31
0.0
  0
LINE
  5
648
  8
0
 10
-784.18075136332345
 20
850.25841182123565
 30
0.0
 11
-791.18075136332345
 21
850.25841182123565
 31
0.0
  0
LINE
  5
649
  8
0
  6
BYBLOCK
 10
-805.52440881255222
 20
828.59156307152671
 30
0.0
 11
-782.68075136332402
 21
828.59156307152671
 31
0.0
  0
LINE
  5
64A
  8
0
 10
-784.73075136332375
 20
846.89156307152666
 30
0.0
 11
-790.63075136332361
 21
846.89156307152666
 31
0.0
  0
LINE
  5
64B
  8
0
  6
BYBLOCK
 10
-791.18075136332402
 20
846.89156307152666
 30
0.0
 11
-783.18075136332402
 21
846.89156307152666
 31
0.0
  0
LINE
  5
64C
  8
0
  6
BYBLOCK
 10
-838.18075134832395
 20
806.89156307152666
 30
0.0
 11
-763.18075137832375
 21
806.89156307152666
 31
0.0
  0
LINE
  5
64D
  8
0
  6
BYBLOCK
 10
-837.18075134832395
 20
812.89156307152666
 30
0.0
 11
-764.18075137832386
 21
812.89156307152689
 31
0.0
  0
LINE
  5
64E
  8
0
 10
-789.18075136332379
 20
799.39156307152666
 30
0.0
 11
-785.18075136332379
 21
799.39156307152666
 31
0.0
  0
LINE
  5
64F
  8
0
 10
-838.09117563148459
 20
791.09199033613754
 30
0.0
 11
-763.28754172366348
 21
791.09199033613743
 31
0.0
  0
LINE
  5
650
  8
0
 10
-838.18075134832395
 20
804.39156307152678
 30
0.0
 11
-763.18075137832375
 21
804.39156307152655
 31
0.0
  0
LINE
  5
651
  8
0
 10
-838.18075134832395
 20
804.39156307152655
 30
0.0
 11
-763.18075137832375
 21
804.39156307152655
 31
0.0
  0
LINE
  5
652
  8
0
  6
BYBLOCK
 10
-838.18075134832395
 20
806.89156307152666
 30
0.0
 11
-838.18075134832395
 21
811.89156307152666
 31
0.0
  0
ARC
  5
653
  8
0
 10
-850.31868243232361
 20
809.01799986552669
 30
0.0
 40
0.919540229
 50
270.0
 51
0.0
  0
LINE
  5
654
  8
0
 10
-826.18075136332379
 20
799.39156307152655
 30
0.0
 11
-822.18075136332368
 21
799.39156307152666
 31
0.0
  0
ARC
  5
655
  8
0
 10
-817.08617573575702
 20
772.12082507843866
 30
0.0
 40
10.34682116081626
 50
116.3630047583348
 51
167.32254206692741
  0
ARC
  5
656
  8
0
 10
-821.68075136332379
 20
774.39156307152666
 30
0.0
 40
7.0
 50
0.0
 51
180.0
  0
LINE
  5
657
  8
0
 10
-836.18075136332368
 20
799.39156307152666
 30
0.0
 11
-832.18075136332379
 21
799.39156307152666
 31
0.0
  0
ARC
  5
658
  8
0
 10
-836.18075136332368
 20
798.89156307152666
 30
0.0
 40
0.5
 50
90.000000000000355
 51
180.0000000000002
  0
ARC
  5
659
  8
0
 10
-826.18075136332379
 20
798.89156307152655
 30
0.0
 40
0.5
 50
90.000000000000327
 51
180.0
  0
ARC
  5
65A
  8
0
 10
-832.18075136332379
 20
798.89156307152666
 30
0.0
 40
0.5
 50
0.0000000000002036
 51
90.0
  0
LINE
  5
65B
  8
0
 10
-837.88850715387048
 20
790.79920892375014
 30
0.0
 11
-832.85669810285083
 21
785.75815014899308
 31
0.0
  0
ARC
  5
65C
  8
0
 10
-837.68075136332379
 20
792.09199033613743
 30
0.0
 40
1.0
 50
270.0
 51
0.0000000000004198
  0
ARC
  5
65D
  8
0
 10
-837.18075134832395
 20
791.5056660843162
 30
0.0
 40
1.0
 50
180.0
 51
224.9473863856833
  0
ARC
  5
65E
  8
0
 10
-827.68075136332379
 20
792.09199033613743
 30
0.0
 40
1.0
 50
270.0
 51
0.0
  0
ARC
  5
65F
  8
0
 10
-830.68075136332379
 20
792.09199033613743
 30
0.0
 40
1.0
 50
180.0
 51
270.0
  0
ARC
  5
660
  8
0
 10
-833.91833181117067
 20
784.6984644081441
 30
0.0
 40
1.5
 50
0.5537496115755838
 51
44.947386385683373
  0
LINE
  5
661
  8
0
 10
-836.68075136332379
 20
792.09199033613743
 30
0.0
 11
-836.68075136332379
 21
798.89156307152666
 31
0.0
  0
LINE
  5
662
  8
0
 10
-831.68075136332379
 20
792.09199033613743
 30
0.0
 11
-831.68075136332379
 21
798.89156307152666
 31
0.0
  0
LINE
  5
663
  8
0
 10
-826.68075136332368
 20
792.09199033613743
 30
0.0
 11
-826.68075136332368
 21
798.89156307152655
 31
0.0
  0
LINE
  5
664
  8
0
 10
-838.18075134832395
 20
804.39156307152678
 30
0.0
 11
-838.18075134832395
 21
791.5056660843162
 31
0.0
  0
LINE
  5
665
  8
0
 10
-835.68075134832395
 20
806.89156307152666
 30
0.0
 11
-835.68075134832395
 21
804.39156307152678
 31
0.0
  0
LINE
  5
666
  8
0
 10
-809.68075136332368
 20
799.39156307152666
 30
0.0
 11
-791.68075136332379
 21
799.39156307152666
 31
0.0
  0
LINE
  5
667
  8
0
 10
-800.68075136332368
 20
802.15672551121747
 30
0.0
 11
-809.68075136332368
 21
799.39156307152666
 31
0.0
  0
ARC
  5
668
  8
0
 10
-812.18075136332368
 20
798.89156307152666
 30
0.0
 40
0.5
 50
0.0000000000002036
 51
90.0
  0
ARC
  5
669
  8
0
 10
-816.18075136332379
 20
798.89156307152666
 30
0.0
 40
0.5
 50
90.0
 51
180.0
  0
ARC
  5
66A
  8
0
 10
-822.18075136332368
 20
798.89156307152666
 30
0.0
 40
0.5
 50
359.99999999999972
 51
90.000000000000725
  0
LINE
  5
66B
  8
0
 10
-816.18075136332379
 20
799.39156307152666
 30
0.0
 11
-812.18075136332368
 21
799.39156307152666
 31
0.0
  0
ARC
  5
66C
  8
0
 10
-810.68075136332379
 20
792.09199033613743
 30
0.0
 40
1.0
 50
180.0
 51
270.0
  0
ARC
  5
66D
  8
0
 10
-817.68075136332368
 20
792.09199033613743
 30
0.0
 40
1.0
 50
270.0
 51
0.0
  0
ARC
  5
66E
  8
0
 10
-820.68075136332379
 20
792.09199033613743
 30
0.0
 40
1.0
 50
180.0
 51
270.0
  0
LINE
  5
66F
  8
0
 10
-821.68075136332379
 20
792.09199033613743
 30
0.0
 11
-821.68075136332379
 21
798.89156307152666
 31
0.0
  0
LINE
  5
670
  8
0
 10
-816.68075136332368
 20
792.09199033613743
 30
0.0
 11
-816.68075136332368
 21
798.89156307152666
 31
0.0
  0
LINE
  5
671
  8
0
 10
-811.68075136332379
 20
792.09199033613743
 30
0.0
 11
-811.68075136332379
 21
804.39156307152655
 31
0.0
  0
LINE
  5
672
  8
0
 10
-811.68075136332379
 20
792.09199033613743
 30
0.0
 11
-811.68075136332379
 21
798.89156307152666
 31
0.0
  0
ARC
  5
673
  8
0
 10
-789.18075136332379
 20
798.89156307152666
 30
0.0
 40
0.5
 50
89.999999999999915
 51
180.0000000000002
  0
LINE
  5
674
  8
0
 10
-789.68075136332379
 20
792.09199033613754
 30
0.0
 11
-789.68075136332379
 21
804.39156307152655
 31
0.0
  0
LINE
  5
675
  8
0
 10
-800.68075136332368
 20
802.15672551121747
 30
0.0
 11
-791.68075136332379
 21
799.39156307152666
 31
0.0
  0
ARC
  5
676
  8
0
 10
-790.68075136332368
 20
792.09199033613754
 30
0.0
 40
1.0
 50
270.0
 51
0.0000000000004198
  0
LINE
  5
677
  8
0
  6
ASULTYPE
 10
-791.63075136332361
 20
846.89156307152666
 30
0.0
 11
-827.18075136332357
 21
846.89156307152666
 31
0.0
  0
LINE
  5
678
  8
0
 10
-807.02440881255211
 20
849.39156307152666
 30
0.0
 11
-826.02440881255188
 21
849.39156307152666
 31
0.0
  0
LINE
  5
679
  8
0
 10
-806.524408812552
 20
846.89156307152666
 30
0.0
 11
-826.524408812552
 21
846.89156307152666
 31
0.0
  0
LINE
  5
67A
  8
0
  6
BYBLOCK
 10
-839.74741792511395
 20
832.10771902852048
 30
0.0
 11
-840.24741792511395
 21
832.60771902852048
 31
0.0
  0
LINE
  5
67B
  8
0
  6
BYBLOCK
 10
-847.24741792511395
 20
832.60771902852048
 30
0.0
 11
-847.74741792511395
 21
832.10771902852048
 31
0.0
  0
LINE
  5
67C
  8
0
  6
BYBLOCK
 10
-838.18075134832395
 20
811.89156307152666
 30
0.0
 11
-838.18075134832395
 21
835.89156307152678
 31
0.0
  0
LINE
  5
67D
  8
0
  6
BYBLOCK
 10
-827.68075136332345
 20
837.89156307152666
 30
0.0
 11
-827.68075136332345
 21
813.89156307152666
 31
0.0
  0
LINE
  5
67E
  8
0
 10
-855.37439320065653
 20
829.24788490352671
 30
0.0
 11
-855.37439320065653
 21
834.76512627752675
 31
0.0
  0
LINE
  5
67F
  8
0
 10
-849.39914220332366
 20
834.76512627752675
 30
0.0
 11
-849.39914220332366
 21
809.01799986552669
 31
0.0
  0
LINE
  5
680
  8
0
  6
BYBLOCK
 10
-847.24741792511395
 20
810.60771902852048
 30
0.0
 11
-840.24741792511395
 21
810.60771902852048
 31
0.0
  0
LINE
  5
681
  8
0
  6
BYBLOCK
 10
-840.72970784611346
 20
818.60771902852048
 30
0.0
 11
-846.76512800411444
 21
818.60771902852048
 31
0.0
  0
LINE
  5
682
  8
0
  6
BYBLOCK
 10
-840.72970784611346
 20
818.60771902852048
 30
0.0
 11
-846.76512800411444
 21
818.60771902852048
 31
0.0
  0
LINE
  5
683
  8
0
  6
BYBLOCK
 10
-840.72970784611346
 20
825.60771902852048
 30
0.0
 11
-846.76512800411444
 21
825.60771902852048
 31
0.0
  0
LINE
  5
684
  8
0
  6
BYBLOCK
 10
-847.74741792511395
 20
830.08682229405179
 30
0.0
 11
-846.76512800411444
 21
825.60771902852048
 31
0.0
  0
LINE
  5
685
  8
0
  6
BYBLOCK
 10
-849.39914220332355
 20
830.08682229405167
 30
0.0
 11
-847.74741792511395
 21
830.08682229405179
 31
0.0
  0
LINE
  5
686
  8
0
  6
BYBLOCK
 10
-847.74741792511395
 20
822.3163087571503
 30
0.0
 11
-846.76512800411444
 21
818.60771902852048
 31
0.0
  0
LINE
  5
687
  8
0
  6
BYBLOCK
 10
-846.76512800411444
 20
818.60771902852048
 30
0.0
 11
-847.74741792511395
 21
814.79211951720583
 31
0.0
  0
LINE
  5
688
  8
0
  6
BYBLOCK
 10
-849.39914220332355
 20
813.63780106579077
 30
0.0
 11
-847.74741792511395
 21
813.637801065791
 31
0.0
  0
LINE
  5
689
  8
0
  6
BYBLOCK
 10
-846.76512800411444
 20
825.60771902852048
 30
0.0
 11
-847.74741792511395
 21
822.3163087571503
 31
0.0
  0
LINE
  5
68A
  8
0
  6
BYBLOCK
 10
-847.74741792511395
 20
811.10771902852059
 30
0.0
 11
-847.24741792511395
 21
810.60771902852048
 31
0.0
  0
LINE
  5
68B
  8
0
  6
BYBLOCK
 10
-847.74741792511395
 20
832.10771902852048
 30
0.0
 11
-847.74741792511395
 21
811.10771902852059
 31
0.0
  0
LINE
  5
68C
  8
0
  6
BYBLOCK
 10
-839.74741792511395
 20
814.89912929989066
 30
0.0
 11
-840.72970784611346
 21
818.60771902852048
 31
0.0
  0
LINE
  5
68D
  8
0
  6
BYBLOCK
 10
-840.72970784611346
 20
818.60771902852048
 30
0.0
 11
-839.74741792511395
 21
822.42331853983535
 31
0.0
  0
LINE
  5
68E
  8
0
  6
BYBLOCK
 10
-840.72970784611346
 20
825.60771902852048
 30
0.0
 11
-839.74741792511395
 21
829.42331853983524
 31
0.0
  0
LINE
  5
68F
  8
0
  6
BYBLOCK
 10
-839.74741792511395
 20
830.08682229405179
 30
0.0
 11
-838.18075134832384
 21
830.08682229405179
 31
0.0
  0
LINE
  5
690
  8
0
  6
BYBLOCK
 10
-839.74741792511395
 20
813.637801065791
 30
0.0
 11
-838.18075134832384
 21
813.637801065791
 31
0.0
  0
LINE
  5
691
  8
0
  6
BYBLOCK
 10
-839.74741792511395
 20
821.89912929989066
 30
0.0
 11
-840.72970784611346
 21
825.60771902852048
 31
0.0
  0
LINE
  5
692
  8
0
  6
BYBLOCK
 10
-839.74741792511395
 20
811.10771902852059
 30
0.0
 11
-840.24741792511395
 21
810.60771902852048
 31
0.0
  0
LINE
  5
693
  8
0
  6
BYBLOCK
 10
-839.74741792511395
 20
811.10771902852059
 30
0.0
 11
-839.74741792511395
 21
832.10771902852048
 31
0.0
  0
ARC
  5
694
  8
0
  6
BYBLOCK
 10
-837.18075134832395
 20
811.89156307152666
 30
0.0
 40
1.0
 50
90.0
 51
180.0
  0
ARC
  5
695
  8
0
  6
BYBLOCK
 10
-828.68075136332345
 20
813.89156307152666
 30
0.0
 40
1.0
 50
270.0
 51
0.0
  0
LINE
  5
696
  8
0
  6
BYBLOCK
 10
-840.24741792511395
 20
832.60771902852048
 30
0.0
 11
-847.24741792511395
 21
832.60771902852048
 31
0.0
  0
ARC
  5
697
  8
0
 10
-845.68075136332379
 20
853.56200998253075
 30
0.0
 40
0.5
 50
0.0000000000002036
 51
90.0
  0
LINE
  5
698
  8
0
  6
BYBLOCK
 10
-845.18075136332425
 20
844.2823676515269
 30
0.0
 11
-845.18075136332368
 21
840.7823676515269
 31
0.0
  0
ARC
  5
699
  8
0
  6
BYBLOCK
 10
-846.18075136332413
 20
844.2823676515269
 30
0.0
 40
1.0
 50
270.0
 51
0.0
  0
LINE
  5
69A
  8
0
 10
-845.18075136332368
 20
853.56200998253075
 30
0.0
 11
-845.18075136332391
 21
844.2823676515269
 31
0.0
  0
LINE
  5
69B
  8
0
  6
BYBLOCK
 10
-845.18075136332368
 20
840.7823676515269
 30
0.0
 11
-845.18075136332368
 21
834.76512627752675
 31
0.0
  0
LINE
  5
69C
  8
0
 10
-826.524408812552
 20
848.89156307152666
 30
0.0
 11
-826.02440881255188
 21
849.39156307152666
 31
0.0
  0
ARC
  5
69D
  8
0
  6
ASULTYPE
 10
-827.18075136332357
 20
846.39156307152678
 30
0.0
 40
0.5
 50
90.0
 51
180.0
  0
LINE
  5
69E
  8
0
  6
BYBLOCK
 10
-824.524408812552
 20
849.39156307152666
 30
0.0
 11
-824.524408812552
 21
846.89156307152666
 31
0.0
  0
LINE
  5
69F
  8
0
  6
BYBLOCK
 10
-825.524408812552
 20
849.39156307152666
 30
0.0
 11
-825.524408812552
 21
846.89156307152666
 31
0.0
  0
LINE
  5
6A0
  8
0
  6
BYBLOCK
 10
-826.524408812552
 20
848.89156307152666
 30
0.0
 11
-826.524408812552
 21
846.89156307152666
 31
0.0
  0
LINE
  5
6A1
  8
0
  6
BYBLOCK
 10
-837.18075134832395
 20
836.89156307152666
 30
0.0
 11
-828.68075136332345
 21
836.89156307152666
 31
0.0
  0
ARC
  5
6A2
  8
0
  6
BYBLOCK
 10
-828.68075136332345
 20
837.89156307152666
 30
0.0
 40
1.0
 50
270.0
 51
0.0
  0
ARC
  5
6A3
  8
0
  6
BYBLOCK
 10
-837.18075134832395
 20
835.89156307152678
 30
0.0
 40
1.0
 50
90.0
 51
180.0
  0
LINE
  5
6A4
  8
0
  6
ASULTYPE
 10
-827.68075136332345
 20
846.39156307152678
 30
0.0
 11
-827.68075136332345
 21
837.89156307152666
 31
0.0
  0
LINE
  5
6A5
  8
0
  6
BYBLOCK
 10
-790.63075136332361
 20
845.89156307152655
 30
0.0
 11
-790.63075136332361
 21
828.59156307152671
 31
0.0
  0
LINE
  5
6A6
  8
CENTER
  6
CENTER
 10
-806.52440881255222
 20
848.89156307152666
 30
0.0
 11
-806.52440881255222
 21
813.89156307152666
 31
0.0
  0
ARC
  5
6A7
  8
0
  6
BYBLOCK
 10
-805.52440881255222
 20
829.59156307152671
 30
0.0
 40
1.0
 50
180.0
 51
270.0
  0
ARC
  5
6A8
  8
0
  6
BYBLOCK
 10
-805.52440881255222
 20
813.89156307152666
 30
0.0
 40
1.0
 50
179.99999999999989
 51
270.00000000000011
  0
LINE
  5
6A9
  8
0
  6
BYBLOCK
 10
-808.18075136332402
 20
849.89156307152655
 30
0.0
 11
-793.18075136332391
 21
849.89156307152655
 31
0.0
  0
LINE
  5
6AA
  8
0
  6
BYBLOCK
 10
-793.33075136332388
 20
846.89156307152666
 30
0.0
 11
-808.03075136332404
 21
846.89156307152666
 31
0.0
  0
LINE
  5
6AB
  8
0
 10
-808.18075136332402
 20
849.89156307152655
 30
0.0
 11
-810.18075136332391
 21
849.89156307152655
 31
0.0
  0
LINE
  5
6AC
  8
0
 10
-808.03075136332404
 20
846.89156307152666
 30
0.0
 11
-810.18075136332391
 21
846.89156307152666
 31
0.0
  0
LINE
  5
6AD
  8
0
  6
BYBLOCK
 10
-810.524408812552
 20
849.39156307152666
 30
0.0
 11
-810.524408812552
 21
846.89156307152666
 31
0.0
  0
LINE
  5
6AE
  8
0
  6
BYBLOCK
 10
-815.524408812552
 20
849.39156307152666
 30
0.0
 11
-815.524408812552
 21
846.89156307152666
 31
0.0
  0
LINE
  5
6AF
  8
0
  6
BYBLOCK
 10
-811.52440881255188
 20
849.39156307152666
 30
0.0
 11
-811.52440881255188
 21
846.89156307152666
 31
0.0
  0
LINE
  5
6B0
  8
0
  6
BYBLOCK
 10
-812.52440881255188
 20
849.39156307152666
 30
0.0
 11
-812.52440881255188
 21
846.89156307152666
 31
0.0
  0
LINE
  5
6B1
  8
0
  6
BYBLOCK
 10
-813.52440881255188
 20
849.39156307152666
 30
0.0
 11
-813.52440881255188
 21
846.89156307152666
 31
0.0
  0
LINE
  5
6B2
  8
0
  6
BYBLOCK
 10
-814.52440881255188
 20
849.39156307152666
 30
0.0
 11
-814.52440881255188
 21
846.89156307152666
 31
0.0
  0
LINE
  5
6B3
  8
0
 10
-810.18075136332391
 20
849.89156307152655
 30
0.0
 11
-810.18075136332391
 21
849.39156307152666
 31
0.0
  0
LINE
  5
6B4
  8
0
  6
BYBLOCK
 10
-807.02440881255211
 20
849.39156307152666
 30
0.0
 11
-806.52440881255222
 21
848.89156307152666
 31
0.0
  0
LINE
  5
6B5
  8
0
  6
BYBLOCK
 10
-811.52440881255188
 20
849.39156307152666
 30
0.0
 11
-811.52440881255188
 21
846.89156307152666
 31
0.0
  0
LINE
  5
6B6
  8
0
  6
BYBLOCK
 10
-809.524408812552
 20
849.39156307152666
 30
0.0
 11
-809.524408812552
 21
846.89156307152666
 31
0.0
  0
LINE
  5
6B7
  8
0
  6
BYBLOCK
 10
-808.524408812552
 20
849.39156307152666
 30
0.0
 11
-808.524408812552
 21
846.89156307152666
 31
0.0
  0
LINE
  5
6B8
  8
0
  6
BYBLOCK
 10
-807.524408812552
 20
849.39156307152666
 30
0.0
 11
-807.524408812552
 21
846.89156307152666
 31
0.0
  0
LINE
  5
6B9
  8
0
  6
BYBLOCK
 10
-823.524408812552
 20
849.39156307152666
 30
0.0
 11
-823.524408812552
 21
846.89156307152666
 31
0.0
  0
LINE
  5
6BA
  8
0
  6
BYBLOCK
 10
-819.52440881255188
 20
849.39156307152666
 30
0.0
 11
-819.52440881255188
 21
846.89156307152666
 31
0.0
  0
LINE
  5
6BB
  8
0
  6
BYBLOCK
 10
-820.52440881255188
 20
849.39156307152666
 30
0.0
 11
-820.52440881255188
 21
846.89156307152666
 31
0.0
  0
LINE
  5
6BC
  8
0
  6
BYBLOCK
 10
-821.52440881255188
 20
849.39156307152666
 30
0.0
 11
-821.52440881255188
 21
846.89156307152666
 31
0.0
  0
LINE
  5
6BD
  8
0
  6
BYBLOCK
 10
-822.52440881255188
 20
849.39156307152666
 30
0.0
 11
-822.52440881255188
 21
846.89156307152666
 31
0.0
  0
LINE
  5
6BE
  8
0
  6
BYBLOCK
 10
-817.524408812552
 20
849.39156307152666
 30
0.0
 11
-817.524408812552
 21
846.89156307152666
 31
0.0
  0
LINE
  5
6BF
  8
0
  6
BYBLOCK
 10
-818.524408812552
 20
849.39156307152666
 30
0.0
 11
-818.524408812552
 21
846.89156307152666
 31
0.0
  0
LINE
  5
6C0
  8
CENTER
  6
CENTER
 10
-816.524408812552
 20
853.4953781364635
 30
0.0
 11
-816.524408812552
 21
835.75901216105626
 31
0.0
  0
LINE
  5
6C1
  8
0
  6
BYBLOCK
 10
-816.524408812552
 20
851.11898019554053
 30
0.0
 11
-816.524408812552
 21
848.61898019554042
 31
0.0
  0
LINE
  5
6C2
  8
0
 10
-791.68075136332345
 20
850.75841182123565
 30
0.0
 11
-791.18075136332345
 21
850.25841182123565
 31
0.0
  0
LINE
  5
6C3
  8
0
 10
-791.18075136332402
 20
849.89156307152678
 30
0.0
 11
-793.18075136332391
 21
849.89156307152678
 31
0.0
  0
LINE
  5
6C4
  8
0
 10
-791.18075136332402
 20
846.89156307152666
 30
0.0
 11
-793.33075136332388
 21
846.89156307152666
 31
0.0
  0
LINE
  5
6C8
  8
0
 10
-791.18075136332402
 20
849.89156307152678
 30
0.0
 11
-791.18075136332402
 21
846.89156307152666
 31
0.0
  0
ARC
  5
6C9
  8
0
  6
BYBLOCK
 10
-791.63075136332361
 20
845.89156307152655
 30
0.0
 40
1.0
 50
0.0
 51
90.000000000000099
  0
LINE
  5
6CA
  8
0
 10
-790.63075136332361
 20
850.25841182123565
 30
0.0
 11
-790.63075136332361
 21
846.89156307152666
 31
0.0
  0
LINE
  5
6CB
  8
0
  6
BYBLOCK
 62
     0
 10
-790.63075136332361
 20
847.55822973819329
 30
0.0
 11
-790.63075136332361
 21
850.25841182123565
 31
0.0
  0
LINE
  5
6CC
  8
0
  6
BYBLOCK
 10
-763.18075137832375
 20
806.89156307152666
 30
0.0
 11
-763.18075137832375
 21
811.89156307152666
 31
0.0
  0
ARC
  5
6CD
  8
0
 10
-779.68075136332379
 20
774.39156307152666
 30
0.0
 40
7.0
 50
0.0
 51
180.0
  0
ARC
  5
6CE
  8
0
 10
-780.69040708192495
 20
774.93754786405441
 30
0.0
 40
6.5325123014341511
 50
355.20564847487941
 51
81.108804699858496
  0
ARC
  5
6CF
  8
0
 10
-785.18075136332379
 20
798.89156307152666
 30
0.0
 40
0.5
 50
0.0000000000002036
 51
90.0
  0
LINE
  5
6D0
  8
0
 10
-779.18075136332379
 20
799.39156307152655
 30
0.0
 11
-775.18075136332379
 21
799.39156307152666
 31
0.0
  0
ARC
  5
6D1
  8
0
 10
-779.18075136332379
 20
798.89156307152655
 30
0.0
 40
0.5
 50
90.000000000000327
 51
180.0
  0
ARC
  5
6D2
  8
0
 10
-775.18075136332379
 20
798.89156307152666
 30
0.0
 40
0.5
 50
359.99999999999972
 51
90.000000000000725
  0
ARC
  5
6D3
  8
0
 10
-780.68075136332379
 20
792.09199033613754
 30
0.0
 40
1.0
 50
270.0
 51
0.0
  0
ARC
  5
6D4
  8
0
 10
-783.68075136332379
 20
792.09199033613754
 30
0.0
 40
1.0
 50
180.0
 51
270.0
  0
LINE
  5
6D5
  8
0
 10
-783.68075136332379
 20
791.09199033613754
 30
0.0
 11
-780.68075136332379
 21
791.09199033613754
 31
0.0
  0
ARC
  5
6D6
  8
0
 10
-773.68075136332368
 20
792.09199033613754
 30
0.0
 40
1.0
 50
180.0
 51
270.0
  0
LINE
  5
6D7
  8
0
 10
-784.68075136332379
 20
792.09199033613754
 30
0.0
 11
-784.68075136332379
 21
798.89156307152666
 31
0.0
  0
LINE
  5
6D8
  8
0
 10
-779.68075136332379
 20
792.09199033613754
 30
0.0
 11
-779.68075136332379
 21
798.89156307152655
 31
0.0
  0
LINE
  5
6D9
  8
0
 10
-774.68075136332368
 20
792.09199033613754
 30
0.0
 11
-774.68075136332368
 21
798.89156307152666
 31
0.0
  0
ARC
  5
6DA
  8
0
 10
-769.18075136332379
 20
798.89156307152666
 30
0.0
 40
0.5
 50
90.0
 51
180.0
  0
LINE
  5
6DB
  8
0
 10
-769.18075136332379
 20
799.39156307152666
 30
0.0
 11
-765.18075136332368
 21
799.39156307152666
 31
0.0
  0
ARC
  5
6DC
  8
0
 10
-765.18075136332368
 20
798.89156307152666
 30
0.0
 40
0.5
 50
0.0000000000002036
 51
90.0
  0
ARC
  5
6DD
  8
0
 10
-764.18075137832386
 20
791.54163076228031
 30
0.0
 40
1.0
 50
311.57877936227942
 51
0.0
  0
ARC
  5
6DE
  8
0
 10
-770.68075136332368
 20
792.09199033613754
 30
0.0
 40
1.0
 50
270.0
 51
0.0
  0
ARC
  5
6DF
  8
0
 10
-767.43725577708472
 20
785.31047732090212
 30
0.0
 40
1.5
 50
131.57877936227931
 51
179.4462503884244
  0
ARC
  5
6E0
  8
0
 10
-763.68075136332379
 20
792.09199033613754
 30
0.0
 40
1.0
 50
180.0
 51
270.0
  0
LINE
  5
6E1
  8
0
 10
-763.51710217317884
 20
790.79358682472673
 30
0.0
 11
-768.43272958480213
 21
786.43254322723215
 31
0.0
  0
LINE
  5
6E2
  8
0
 10
-764.68075136332379
 20
792.09199033613754
 30
0.0
 11
-764.68075136332379
 21
798.89156307152666
 31
0.0
  0
LINE
  5
6E3
  8
0
 10
-769.68075136332368
 20
792.09199033613754
 30
0.0
 11
-769.68075136332368
 21
798.89156307152666
 31
0.0
  0
LINE
  5
6E4
  8
0
 10
-763.18075137832375
 20
804.39156307152655
 30
0.0
 11
-763.18075137832375
 21
791.54163076228031
 31
0.0
  0
LINE
  5
6E5
  8
0
 10
-765.68075137832375
 20
806.89156307152666
 30
0.0
 11
-765.68075137832375
 21
804.39156307152655
 31
0.0
  0
LINE
  5
6E6
  8
0
  6
BYBLOCK
 10
-763.18075137832375
 20
811.89156307152666
 30
0.0
 11
-763.18075137832375
 21
835.89156307152678
 31
0.0
  0
LINE
  5
6E7
  8
0
  6
BYBLOCK
 10
-781.68075136332402
 20
836.89156307152666
 30
0.0
 11
-781.68075136332379
 21
813.89156307152666
 31
0.0
  0
ARC
  5
6E8
  8
0
  6
BYBLOCK
 10
-782.68075136332402
 20
829.59156307152671
 30
0.0
 40
1.0
 50
270.00000000000011
 51
0.0
  0
ARC
  5
6E9
  8
0
  6
BYBLOCK
 10
-782.68075136332368
 20
813.89156307152666
 30
0.0
 40
1.0
 50
270.00000000000011
 51
0.0
  0
ARC
  5
6EA
  8
0
  6
BYBLOCK
 10
-764.18075137832386
 20
811.89156307152666
 30
0.0
 40
1.0
 50
0.0
 51
90.0
  0
ARC
  5
6EB
  8
0
  6
BYBLOCK
 10
-775.68075136332379
 20
839.89156307152666
 30
0.0
 40
5.0
 50
359.9999999999996
 51
90.0
  0
LINE
  5
6EC
  8
0
  6
BYBLOCK
 10
-781.68075136332402
 20
836.89156307152666
 30
0.0
 11
-764.18075137832386
 21
836.89156307152666
 31
0.0
  0
LINE
  5
6ED
  8
0
 10
-783.68075136332345
 20
850.75841182123565
 30
0.0
 11
-784.18075136332345
 21
850.25841182123565
 31
0.0
  0
LINE
  5
6EE
  8
0
  6
ASULTYPE
 10
-781.68075136332402
 20
845.39156307152678
 30
0.0
 11
-781.68075136332402
 21
844.89156307152666
 31
0.0
  0
LINE
  5
6F0
  8
0
  6
BYBLOCK
 62
     0
 10
-784.73075136332375
 20
846.89156307152666
 30
0.0
 11
-784.73075136332375
 21
848.25841182123565
 31
0.0
  0
LINE
  5
6F1
  8
0
 10
-781.68075136332402
 20
844.89156307152666
 30
0.0
 11
-775.68075136332379
 21
844.89156307152666
 31
0.0
  0
ARC
  5
6F2
  8
0
  6
BYBLOCK
 10
-783.18075136332402
 20
845.39156307152678
 30
0.0
 40
1.5
 50
359.99999999999977
 51
90.0
  0
LINE
  5
6F3
  8
0
 10
-784.73075136332375
 20
850.25841182123565
 30
0.0
 11
-784.73075136332375
 21
846.89156307152666
 31
0.0
  0
ARC
  5
6F4
  8
0
  6
BYBLOCK
 10
-764.18075137832386
 20
835.89156307152678
 30
0.0
 40
1.0
 50
0.0
 51
89.999999999999915
  0
LINE
  5
6F5
  8
0
  6
BYBLOCK
 10
-770.68075136332368
 20
839.89156307152666
 30
0.0
 11
-770.68075136332368
 21
836.89156307152666
 31
0.0
  0
LINE
  5
6F6
  8
0
 10
-788.28075136332359
 20
859.75841182123543
 30
0.0
 11
-791.68075136332345
 21
859.75841182123543
 31
0.0
  0
LINE
  5
6F7
  8
0
 10
-788.28075136332359
 20
860.25841182123554
 30
0.0
 11
-791.18075136332345
 21
860.25841182123554
 31
0.0
  0
TEXT
  5
6F8
  8
DIM
  6
BYBLOCK
 62
     5
 10
-842.77601766045609
 20
903.01206417602225
 30
0.0
 40
3.0
  1
2-
  7
CHINESET
  0
TEXT
  5
16D3
  8
DIM
  6
BYBLOCK
 62
     5
 10
-836.20458908902754
 20
903.01206417602225
 30
0.0
 40
3.0
  1
%%c
  7
CHINESET
1001
ACAD
1000
R13OBJECT
1002
{
1005
6F8
1002
}
  0
TEXT
  5
16D4
  8
DIM
  6
BYBLOCK
 62
     5
 10
-833.49030337474176
 20
903.01206417602225
 30
0.0
 40
3.0
  1
9
  7
CHINESET
1001
ACAD
1000
R13OBJECT
1002
{
1005
6F8
1002
}
  0
SOLID
  5
6F9
  8
DIM
  6
CONTINUOUS
 10
853.68569937512905
 20
879.8510899169338
 30
0.0
 11
855.11418615692935
 21
877.16605257748733
 31
0.0
 12
854.63373779774952
 22
880.16924577376381
 32
0.0
 13
854.63373779774952
 23
880.16924577376381
 33
0.0
210
0.0
220
0.0
230
-1.0
  0
POLYLINE
  5
16D5
  8
DIM
  6
BYBLOCK
 66
     1
 10
0.0
 20
0.0
 30
0.0
 70
   128
1001
ACAD
1000
R13OBJECT
1002
{
1005
6F9
1002
}
  0
VERTEX
  5
1967
  8
DIM
  6
BYBLOCK
 10
-854.15971858643934
 20
880.01016784534875
 30
0.0
  0
VERTEX
  5
1968
  8
DIM
  6
BYBLOCK
 10
-846.77601766045598
 20
902.01206417602225
 30
0.0
  0
VERTEX
  5
1969
  8
DIM
  6
BYBLOCK
 10
-831.63316051759887
 20
902.01206417602225
 30
0.0
  0
SEQEND
  5
196A
  8
DIM
  6
BYBLOCK
  0
LINE
  5
6FA
  8
CENTER
  6
CENTER
 10
-856.37224072502602
 20
874.06200998253075
 30
0.0
 11
-852.87224072502602
 21
874.06200998253075
 31
0.0
  0
ARC
  5
6FB
  8
0
 10
-803.6230224333309
 20
861.89156307152666
 30
0.0
 40
2.9999999999999991
 50
90.0
 51
165.20750295859861
  0
ARC
  5
6FC
  8
0
 10
-797.73848029331657
 20
861.89156307152666
 30
0.0
 40
2.9999999999999991
 50
14.79249704140161
 51
90.0
  0
LINE
  5
6FD
  8
0
 10
-797.73848029331657
 20
864.89156307152666
 30
0.0
 11
-803.6230224333309
 21
864.89156307152666
 31
0.0
  0
LINE
  5
6FE
  8
0
 10
-791.18075136332345
 20
860.25841182123554
 30
0.0
 11
-791.68075136332345
 21
859.75841182123543
 31
0.0
  0
LINE
  5
700
  8
0
 10
-788.28075136332359
 20
860.25841182123554
 30
0.0
 11
-788.28075136332359
 21
858.75841182123554
 31
0.0
  0
LINE
  5
703
  8
0
 10
-784.18075136332345
 20
860.25841182123554
 30
0.0
 11
-787.08075136332366
 21
860.25841182123554
 31
0.0
  0
LINE
  5
704
  8
0
 10
-787.08075136332366
 20
860.25841182123554
 30
0.0
 11
-787.08075136332366
 21
858.75841182123554
 31
0.0
  0
LINE
  5
706
  8
0
 10
-787.08075136332366
 20
858.75841182123554
 30
0.0
 11
-788.28075136332359
 21
858.75841182123554
 31
0.0
  0
LINE
  5
707
  8
0
 10
-783.68075136332345
 20
859.75841182123543
 30
0.0
 11
-787.08075136332366
 21
859.75841182123543
 31
0.0
  0
LINE
  5
708
  8
0
 10
-784.18075136332345
 20
860.25841182123554
 30
0.0
 11
-783.68075136332345
 21
859.75841182123543
 31
0.0
  0
DIMENSION
  5
709
  8
DIM
  6
BYBLOCK
  2
*D106
 10
-763.18075136332402
 20
1122.1159590977979
 30
0.0
 11
-888.18075135582387
 21
1124.6159590977979
 31
0.0
 70
     0
 13
-1013.180751348323
 23
1040.34277752965
 33
0.0
 14
-763.18075136332402
 24
1040.34277752965
 34
0.0
  0
LINE
  5
716
  8
CENTER
  6
CENTER
 10
-993.68075135612366
 20
1054.3427775240509
 30
0.0
 11
-998.6807513541238
 21
1054.3427775240509
 31
0.0
  0
CIRCLE
  5
717
  8
0
  6
CONTINUOUS
 10
-991.68075135692368
 20
1054.3427775240509
 30
0.0
 40
5.9999999975999989
  0
ARC
  5
718
  8
0
  6
CONTINUOUS
 10
-996.6807513549237
 20
1040.34277752965
 30
0.0
 40
1.4999999993999991
 50
359.99999999999989
 51
90.000000000000099
  0
ARC
  5
719
  8
0
  6
CONTINUOUS
 10
-996.6807513549237
 20
1013.342777540451
 30
0.0
 40
1.4999999993999991
 50
270.0
 51
359.99999999999989
  0
LINE
  5
71A
  8
CENTER
  6
CENTER
 10
-1014.180751347923
 20
1026.842777535051
 30
0.0
 11
-888.18075136332368
 21
1026.842777535051
 31
0.0
  0
ARC
  5
71B
  8
0
  6
CONTINUOUS
 10
-975.68075136332368
 20
1026.842777535051
 30
0.0
 40
39.999999983999992
 50
20.364134806317789
 51
159.63586519368221
  0
LINE
  5
71C
  8
CENTER
  6
CENTER
 10
-993.68075135612366
 20
999.3427775460508
 30
0.0
 11
-998.6807513541238
 21
999.3427775460508
 31
0.0
  0
ARC
  5
71D
  8
0
  6
CONTINUOUS
 10
-975.68075136332368
 20
1026.842777535051
 30
0.0
 40
39.999999983999992
 50
200.36413480631771
 51
339.63586519368238
  0
CIRCLE
  5
71E
  8
0
  6
CONTINUOUS
 10
-991.68075135692368
 20
999.3427775460508
 30
0.0
 40
5.9999999975999989
  0
LINE
  5
71F
  8
0
  6
CONTINUOUS
 10
-1013.180751348323
 20
1040.34277752965
 30
0.0
 11
-1013.180751348323
 21
1013.342777540451
 31
0.0
  0
ARC
  5
720
  8
0
  6
CONTINUOUS
 10
-1011.680751348923
 20
1013.342777540451
 30
0.0
 40
1.4999999993999991
 50
180.0
 51
270.0
  0
LINE
  5
721
  8
0
  6
CONTINUOUS
 10
-1011.680751348923
 20
1011.842777541051
 30
0.0
 11
-996.6807513549237
 21
1011.842777541051
 31
0.0
  0
ARC
  5
722
  8
0
  6
CONTINUOUS
 10
-1011.680751348923
 20
1040.34277752965
 30
0.0
 40
1.4999999993999991
 50
90.0
 51
180.0
  0
LINE
  5
723
  8
0
  6
CONTINUOUS
 10
-1011.680751348923
 20
1041.8427775290511
 30
0.0
 11
-996.6807513549237
 21
1041.8427775290511
 31
0.0
  0
LINE
  5
724
  8
0
  6
CONTINUOUS
 10
-1010.180751349523
 20
1028.342777534451
 30
0.0
 11
-1010.180751349523
 21
1025.3427775356499
 31
0.0
  0
LINE
  5
725
  8
0
  6
CONTINUOUS
 10
-1004.180751351923
 20
1029.8427775338509
 30
0.0
 11
-1004.180751351923
 21
1028.342777534451
 31
0.0
  0
LINE
  5
726
  8
0
  6
CONTINUOUS
 10
-1010.180751349523
 20
1028.342777534451
 30
0.0
 11
-1004.180751351923
 21
1028.342777534451
 31
0.0
  0
LINE
  5
727
  8
0
  6
CONTINUOUS
 10
-1010.180751349523
 20
1025.3427775356499
 30
0.0
 11
-1004.180751351923
 21
1025.3427775356499
 31
0.0
  0
LINE
  5
728
  8
0
  6
CONTINUOUS
 10
-1004.180751351923
 20
1029.8427775338509
 30
0.0
 11
-998.18075135432377
 21
1026.842777535051
 31
0.0
  0
LINE
  5
729
  8
0
  6
CONTINUOUS
 10
-998.18075135432377
 20
1026.842777535051
 30
0.0
 11
-1004.180751351923
 21
1023.842777536251
 31
0.0
  0
LINE
  5
72A
  8
0
  6
CONTINUOUS
 10
-1004.180751351923
 20
1025.3427775356499
 30
0.0
 11
-1004.180751351923
 21
1023.842777536251
 31
0.0
  0
DIMENSION
  5
72B
  8
DIM
  6
BYBLOCK
  2
*D109
 10
-888.18075136332391
 20
1110.417116871135
 30
0.0
 11
-844.43075136332391
 21
1112.917116871135
 31
0.0
 70
     0
 13
-800.68075136332391
 23
1075.342777535051
 33
0.0
 14
-888.18075136332391
 24
1096.84219342349
 34
0.0
  0
CIRCLE
  5
738
  8
0
 10
-857.00383682708389
 20
1044.842777535051
 30
0.0
 40
2.5
  0
CIRCLE
  5
739
  8
0
 10
-857.00383682708389
 20
1008.842777535051
 30
0.0
 40
2.5
  0
CIRCLE
  5
73A
  8
0
  6
ACAD_ISO04W100
 10
-888.18075136332368
 20
1026.842777535051
 30
0.0
 40
36.0
  0
LINE
  5
73B
  8
0
 10
-928.67934354581109
 20
1091.9803995979
 30
0.0
 11
-848.67934354581098
 21
1091.9803995979
 31
0.0
  0
LINE
  5
73C
  8
0
 10
-928.67934354581109
 20
1088.9803995979009
 30
0.0
 11
-848.67934354581098
 21
1088.9803995979
 31
0.0
  0
LINE
  5
73D
  8
CENTER
  6
CENTER
 10
-935.13162764116635
 20
1026.842777535051
 30
0.0
 11
-756.4738930038219
 21
1026.842777535051
 31
0.0
  0
CIRCLE
  5
73E
  8
0
 10
-888.18075136332368
 20
1026.842777535051
 30
0.0
 40
43.0
  0
LINE
  5
73F
  8
CENTER
  6
CENTER
 10
-888.18075136332391
 20
1096.84219342349
 30
0.0
 11
-888.18075136332368
 21
969.93306774945086
 31
0.0
  0
CIRCLE
  5
740
  8
0
 10
-888.18075136332368
 20
1026.842777535051
 30
0.0
 40
19.0
  0
CIRCLE
  5
741
  8
0
 10
-888.18075136332368
 20
1026.842777535051
 30
0.0
 40
27.5
  0
LINE
  5
742
  8
0
  6
CONTINUOUS
 10
-938.18075137832375
 20
1040.34277752965
 30
0.0
 11
-938.18075137832375
 21
1012.923366633543
 31
0.0
  0
LINE
  5
743
  8
0
  6
CONTINUOUS
 10
-956.18075137112396
 20
1040.34277752965
 30
0.0
 11
-956.18075137112396
 21
1013.342777540451
 31
0.0
  0
LINE
  5
744
  8
0
  6
CONTINUOUS
 10
-995.18075135552374
 20
1040.34277752965
 30
0.0
 11
-995.18075135552454
 21
1013.342777540451
 31
0.0
  0
CIRCLE
  5
745
  8
0
  6
CONTINUOUS
 10
-975.68075136332368
 20
1026.842777535051
 30
0.0
 40
10.9999999956
  0
LINE
  5
746
  8
CENTER
  6
CENTER
 10
-975.68075136332391
 20
1075.342777535051
 30
0.0
 11
-975.68075136332368
 21
973.44010257659193
 31
0.0
  0
LINE
  5
747
  8
0
  6
CONTINUOUS
 10
-993.68075135612457
 20
1015.842777539451
 30
0.0
 11
-957.68075137052381
 21
1015.842777539451
 31
0.0
  0
CIRCLE
  5
748
  8
0
  6
CONTINUOUS
 10
-959.68075136972368
 20
999.3427775460508
 30
0.0
 40
2.5499999989799988
  0
CIRCLE
  5
749
  8
0
  6
CONTINUOUS
 10
-959.68075136972368
 20
999.3427775460508
 30
0.0
 40
5.9999999975999989
  0
CIRCLE
  5
74A
  8
0
  6
CONTINUOUS
 10
-959.68075136972368
 20
999.3427775460508
 30
0.0
 40
3.1499999987399989
  0
TEXT
  5
74B
  8
0
  6
CONTINUOUS
 10
-969.88962157356946
 20
994.45505366515363
 30
0.0
 40
2.999999998799999
  1
S
  7
DAYUS
  0
LINE
  5
74C
  8
CENTER
  6
CENTER
 10
-991.68075135692368
 20
997.34277754685127
 30
0.0
 11
-991.68075135692368
 21
992.34277754885125
 31
0.0
  0
TEXT
  5
74D
  8
0
  6
CONTINUOUS
 10
-983.53037438231047
 20
994.45505366515363
 30
0.0
 40
2.999999998799999
  1
O
  7
DAYUS
  0
ARC
  5
74E
  8
0
  6
CONTINUOUS
 10
-975.68075136332368
 20
1026.842777535051
 30
0.0
 40
35.999999985599992
 50
253.87237978683919
 51
286.1276202131607
  0
ARC
  5
74F
  8
0
  6
CONTINUOUS
 10
-975.68075136332368
 20
1026.842777535051
 30
0.0
 40
34.999999985999992
 50
259.90255855571138
 51
280.09744144428862
  0
LINE
  5
750
  8
0
  6
CONTINUOUS
 10
-985.68075135932384
 20
992.25954461730316
 30
0.0
 11
-981.81704805571303
 21
993.29482079729905
 31
0.0
  0
LINE
  5
751
  8
0
  6
CONTINUOUS
 10
-981.81704805571303
 20
993.29482079729905
 30
0.0
 11
-981.81704805571303
 21
992.38489219768644
 31
0.0
  0
LINE
  5
752
  8
0
  6
CONTINUOUS
 10
-965.68075136732386
 20
992.25954461730316
 30
0.0
 11
-969.54445467093456
 21
993.29482079729905
 31
0.0
  0
LINE
  5
753
  8
0
  6
CONTINUOUS
 10
-969.54445467093456
 20
993.29482079729905
 30
0.0
 11
-969.54445467093456
 21
992.38489219768644
 31
0.0
  0
ARC
  5
754
  8
0
  6
CONTINUOUS
 10
-993.68075135612457
 20
1014.34277754005
 30
0.0
 40
1.4999999993999991
 50
90.0
 51
179.99999999999829
  0
CIRCLE
  5
755
  8
0
  6
CONTINUOUS
 10
-991.68075135692368
 20
999.3427775460508
 30
0.0
 40
2.5499999989799988
  0
LINE
  5
756
  8
0
  6
CONTINUOUS
 10
-992.68075135652384
 20
999.3427775460508
 30
0.0
 11
-990.68075135732374
 21
999.3427775460508
 31
0.0
  0
LINE
  5
757
  8
0
  6
CONTINUOUS
 10
-991.68075135692368
 20
998.34277754645109
 30
0.0
 11
-991.68075135692368
 21
1000.342777545651
 31
0.0
  0
LINE
  5
758
  8
CENTER
  6
CENTER
 10
-989.68075135772381
 20
999.3427775460508
 30
0.0
 11
-984.68075135972367
 21
999.3427775460508
 31
0.0
  0
CIRCLE
  5
759
  8
0
  6
CONTINUOUS
 10
-991.68075135692368
 20
999.3427775460508
 30
0.0
 40
3.1499999987399989
  0
LINE
  5
75A
  8
CENTER
  6
CENTER
 10
-991.68075135692368
 20
1001.342777545251
 30
0.0
 11
-991.68075135692368
 21
1006.34277754325
 31
0.0
  0
LINE
  5
75B
  8
CENTER
  6
CENTER
 10
-961.68075136892378
 20
999.3427775460508
 30
0.0
 11
-966.68075136692391
 21
999.3427775460508
 31
0.0
  0
LINE
  5
75C
  8
CENTER
  6
CENTER
 10
-959.68075136972368
 20
997.34277754685127
 30
0.0
 11
-959.68075136972368
 21
992.34277754885125
 31
0.0
  0
LINE
  5
75D
  8
0
  6
CONTINUOUS
 10
-954.68075137172377
 20
1011.842777541051
 30
0.0
 11
-939.68075137772382
 21
1011.842777541051
 31
0.0
  0
ARC
  5
75E
  8
0
  6
CONTINUOUS
 10
-957.68075137052381
 20
1014.34277754005
 30
0.0
 40
1.4999999993999991
 50
0.0
 51
90.0
  0
ARC
  5
75F
  8
0
  6
CONTINUOUS
 10
-954.68075137172377
 20
1013.342777540451
 30
0.0
 40
1.4999999993999991
 50
180.00000000000011
 51
270.0
  0
LINE
  5
760
  8
0
  6
CONTINUOUS
 10
-960.68075136932384
 20
999.3427775460508
 30
0.0
 11
-958.68075137012374
 21
999.3427775460508
 31
0.0
  0
LINE
  5
761
  8
0
  6
CONTINUOUS
 10
-959.68075136972368
 20
998.34277754645109
 30
0.0
 11
-959.68075136972368
 21
1000.342777545651
 31
0.0
  0
LINE
  5
762
  8
CENTER
  6
CENTER
 10
-957.68075137052381
 20
999.3427775460508
 30
0.0
 11
-952.68075137252379
 21
999.3427775460508
 31
0.0
  0
LINE
  5
763
  8
CENTER
  6
CENTER
 10
-959.68075136972368
 20
1001.342777545251
 30
0.0
 11
-959.68075136972368
 21
1006.34277754325
 31
0.0
  0
LINE
  5
764
  8
0
  6
BYBLOCK
 10
-938.18075137832375
 20
1015.074962500144
 30
0.0
 11
-929.53916682262548
 21
1015.074962500144
 31
0.0
  0
ARC
  5
765
  8
0
  6
CONTINUOUS
 10
-939.68075137772382
 20
1013.342777540451
 30
0.0
 40
1.4999999993999991
 50
270.0
 51
0.0000000000000636
  0
CIRCLE
  5
766
  8
0
 10
-919.35766589956359
 20
1008.842777535051
 30
0.0
 40
2.5
  0
CIRCLE
  5
767
  8
0
 10
-888.18075136332368
 20
990.84277753505125
 30
0.0
 40
2.5
  0
DIMENSION
  5
768
  8
DIM
  6
BYBLOCK
  2
*D108
 10
-888.18075136332391
 20
1110.417116871135
 30
0.0
 11
-931.93075136332391
 21
1112.917116871135
 31
0.0
 70
     0
 13
-975.68075136332391
 23
1075.342777535051
 33
0.0
 14
-888.18075136332391
 24
1096.84219342349
 34
0.0
  0
ARC
  5
775
  8
0
 10
-924.67934354581098
 20
1055.9803995979
 30
0.0
 40
4.0
 50
180.0
 51
270.00000000000011
  0
LINE
  5
776
  8
0
 10
-928.67934354581109
 20
1091.9803995979
 30
0.0
 11
-928.67934354581109
 21
1055.9803995979
 31
0.0
  0
CIRCLE
  5
777
  8
0
  6
CONTINUOUS
 10
-959.68075136972368
 20
1054.3427775240509
 30
0.0
 40
2.5499999989799988
  0
CIRCLE
  5
778
  8
0
  6
CONTINUOUS
 10
-959.68075136972368
 20
1054.3427775240509
 30
0.0
 40
5.9999999975999989
  0
CIRCLE
  5
779
  8
0
  6
CONTINUOUS
 10
-959.68075136972368
 20
1054.3427775240509
 30
0.0
 40
3.1499999987399989
  0
CIRCLE
  5
77A
  8
0
 10
-959.68075136332391
 20
1054.342777535051
 30
0.0
 40
3.5
  0
LINE
  5
77B
  8
0
  6
CONTINUOUS
 10
-993.68075135612389
 20
1037.84277753065
 30
0.0
 11
-957.68075137052381
 21
1037.84277753065
 31
0.0
  0
ARC
  5
77C
  8
0
  6
CONTINUOUS
 10
-993.68075135612389
 20
1039.3427775300511
 30
0.0
 40
1.4999999993999991
 50
179.99999999999989
 51
270.0
  0
CIRCLE
  5
77D
  8
0
  6
CONTINUOUS
 10
-991.68075135692368
 20
1054.3427775240509
 30
0.0
 40
2.5499999989799988
  0
LINE
  5
77E
  8
0
  6
CONTINUOUS
 10
-991.68075135692368
 20
1053.34277752445
 30
0.0
 11
-991.68075135692368
 21
1055.342777523651
 31
0.0
  0
LINE
  5
77F
  8
0
  6
CONTINUOUS
 10
-992.68075135652384
 20
1054.3427775240509
 30
0.0
 11
-990.68075135732374
 21
1054.3427775240509
 31
0.0
  0
LINE
  5
780
  8
CENTER
  6
CENTER
 10
-989.68075135772381
 20
1054.3427775240509
 30
0.0
 11
-984.68075135972367
 21
1054.3427775240509
 31
0.0
  0
LINE
  5
781
  8
CENTER
  6
CENTER
 10
-991.68075135692368
 20
1052.342777524851
 30
0.0
 11
-991.68075135692368
 21
1047.342777526851
 31
0.0
  0
CIRCLE
  5
782
  8
0
  6
CONTINUOUS
 10
-991.68075135692368
 20
1054.3427775240509
 30
0.0
 40
3.1499999987399989
  0
CIRCLE
  5
783
  8
0
 10
-991.68075136332391
 20
1054.342777535051
 30
0.0
 40
3.5
  0
LINE
  5
784
  8
CENTER
  6
CENTER
 10
-991.68075135692368
 20
1056.342777523251
 30
0.0
 11
-991.68075135692368
 21
1061.3427775212499
 31
0.0
  0
LINE
  5
785
  8
CENTER
  6
CENTER
 10
-961.68075136892378
 20
1054.3427775240509
 30
0.0
 11
-966.68075136692391
 21
1054.3427775240509
 31
0.0
  0
LINE
  5
786
  8
0
  6
CONTINUOUS
 10
-954.68075137172377
 20
1041.8427775290511
 30
0.0
 11
-939.68075137772382
 21
1041.8427775290511
 31
0.0
  0
ARC
  5
787
  8
0
  6
CONTINUOUS
 10
-954.68075137172377
 20
1040.34277752965
 30
0.0
 40
1.4999999993999991
 50
90.0
 51
180.00000000000011
  0
ARC
  5
788
  8
0
  6
CONTINUOUS
 10
-957.68075137052381
 20
1039.3427775300511
 30
0.0
 40
1.4999999993999991
 50
270.0
 51
0.0000000000002417
  0
LINE
  5
789
  8
0
  6
BYBLOCK
 10
-929.9455977157304
 20
1037.074962500144
 30
0.0
 11
-938.18075137832398
 21
1037.074962500144
 31
0.0
  0
ARC
  5
78A
  8
0
  6
CONTINUOUS
 10
-939.68075137772382
 20
1040.34277752965
 30
0.0
 40
1.4999999993999991
 50
0.0000000000000509
 51
90.0
  0
LINE
  5
78B
  8
0
  6
CONTINUOUS
 10
-959.68075136972368
 20
1053.34277752445
 30
0.0
 11
-959.68075136972368
 21
1055.342777523651
 31
0.0
  0
LINE
  5
78C
  8
0
  6
CONTINUOUS
 10
-960.68075136932384
 20
1054.3427775240509
 30
0.0
 11
-958.68075137012374
 21
1054.3427775240509
 31
0.0
  0
LINE
  5
78D
  8
CENTER
  6
CENTER
 10
-957.68075137052381
 20
1054.3427775240509
 30
0.0
 11
-952.68075137252379
 21
1054.3427775240509
 31
0.0
  0
LINE
  5
78E
  8
CENTER
  6
CENTER
 10
-959.68075136972368
 20
1052.342777524851
 30
0.0
 11
-959.68075136972368
 21
1047.342777526851
 31
0.0
  0
LINE
  5
78F
  8
CENTER
  6
CENTER
 10
-959.68075136972368
 20
1056.342777523251
 30
0.0
 11
-959.68075136972368
 21
1061.3427775212499
 31
0.0
  0
LINE
  5
790
  8
0
 10
-912.18075136332368
 20
1029.342777535051
 30
0.0
 11
-864.18075136332368
 21
1029.342777535051
 31
0.0
  0
LINE
  5
791
  8
0
 10
-912.18075136332368
 20
1024.342777535051
 30
0.0
 11
-864.18075136332345
 21
1024.342777535051
 31
0.0
  0
CIRCLE
  5
792
  8
0
 10
-919.35766589956359
 20
1044.842777535051
 30
0.0
 40
2.5
  0
LINE
  5
793
  8
0
 10
-912.18075136332368
 20
1029.342777535051
 30
0.0
 11
-912.18075136332368
 21
1024.342777535051
 31
0.0
  0
ARC
  5
794
  8
0
 10
-909.55575136332357
 20
1026.842777535051
 30
0.0
 40
3.625
 50
136.39718102729631
 51
223.60281897270349
  0
LINE
  5
795
  8
0
 10
-924.67934354581098
 20
1051.9803995979
 30
0.0
 11
-923.68215918083638
 21
1051.9803995979
 31
0.0
  0
LINE
  5
796
  8
0
 10
-864.18075136332368
 20
1029.342777535051
 30
0.0
 11
-864.18075136332368
 21
1024.342777535051
 31
0.0
  0
ARC
  5
797
  8
0
 10
-866.80575136332357
 20
1026.842777535051
 30
0.0
 40
3.624999999999917
 50
316.39718102729569
 51
43.602818972704881
  0
CIRCLE
  5
798
  8
0
 10
-888.18075136332368
 20
1062.842777535051
 30
0.0
 40
2.5
  0
DIMENSION
  5
799
  8
DIM
  6
BYBLOCK
  2
*D107
 10
-888.18075136332391
 20
1100.1264695773129
 30
0.0
 11
-903.18004745456756
 21
1102.6264695773129
 31
0.0
 70
     0
 13
-918.17934354581109
 23
1094.8162282999681
 33
0.0
 14
-888.18075136332391
 24
1096.84219342349
 34
0.0
  0
LINE
  5
7A6
  8
CENTER
  6
CENTER
 10
-918.17934354581109
 20
1094.8162282999681
 30
0.0
 11
-918.17934354581109
 21
1085.262422111344
 31
0.0
  0
LINE
  5
7A7
  8
HIDDEN
  6
HIDDEN
 10
-913.67934354581109
 20
1091.9803995979
 30
0.0
 11
-913.67934354581109
 21
1088.9803995979009
 31
0.0
  0
LINE
  5
7A8
  8
HIDDEN
  6
HIDDEN
 10
-922.67934354581109
 20
1091.9803995979
 30
0.0
 11
-922.67934354581109
 21
1088.9803995979009
 31
0.0
  0
LINE
  5
7A9
  8
CENTER
  6
CENTER
 10
-858.17934354581109
 20
1094.6453533921101
 30
0.0
 11
-858.17934354581109
 21
1084.5906239378651
 31
0.0
  0
LINE
  5
7AA
  8
HIDDEN
  6
HIDDEN
 10
-862.67934354581109
 20
1091.9803995979
 30
0.0
 11
-862.67934354581109
 21
1088.9803995979
 31
0.0
  0
DIMENSION
  5
7AB
  8
DIM
  6
BYBLOCK
  2
*D110
 10
-888.18075136332391
 20
1100.0377053569389
 30
0.0
 11
-873.18004745456744
 21
1102.5377053569389
 31
0.0
 70
     0
 13
-858.17934354581109
 23
1094.6453533921101
 33
0.0
 14
-888.18075136332391
 24
1096.84219342349
 34
0.0
  0
LINE
  5
7B8
  8
CENTER
  6
CENTER
 10
-800.68075136332391
 20
1075.342777535051
 30
0.0
 11
-800.68075136332368
 21
985.84277755145115
 31
0.0
  0
LINE
  5
7B9
  8
0
  6
ASULTYPE
 10
-838.18075136332368
 20
1040.762188442126
 30
0.0
 11
-838.18075136332368
 21
1012.923366627976
 31
0.0
  0
LINE
  5
7BA
  8
0
  6
ASULTYPE
 10
-763.18075136332402
 20
1040.762188442126
 30
0.0
 11
-763.18075136332402
 21
1012.923366627976
 31
0.0
  0
LINE
  5
7BB
  8
0
  6
ASULTYPE
 10
-781.18075136332379
 20
1033.2283992573889
 30
0.0
 11
-781.18075136332379
 21
1013.842777535051
 31
0.0
  0
ARC
  5
7BC
  8
0
  6
ASULTYPE
 10
-800.68075136332368
 20
1026.842777535051
 30
0.0
 40
11.0
 50
254.50819388502271
 51
22.936808023306249
  0
CIRCLE
  5
7BD
  8
0
  6
ASULTYPE
 10
-800.68075136332368
 20
1026.842777535051
 30
0.0
 40
8.0
  0
CIRCLE
  5
7BE
  8
0
  6
ASULTYPE
 10
-800.68075136332368
 20
1026.842777535051
 30
0.0
 40
7.5
  0
LINE
  5
7BF
  8
CENTER
  6
CENTER
 10
-816.68075136332413
 20
996.50980480569945
 30
0.0
 11
-816.68075136332413
 21
1022.842777535051
 31
0.0
  0
ARC
  5
7C0
  8
0
  6
ASULTYPE
 10
-816.68075136332413
 20
1010.842777535051
 30
0.0
 40
11.0
 50
74.508193014881385
 51
15.491806550047871
  0
LINE
  5
7C1
  8
0
  6
ASULTYPE
 10
-800.68075136332368
 20
1015.842777535051
 30
0.0
 11
-781.18075136332379
 21
1015.842777535051
 31
0.0
  0
ARC
  5
7C2
  8
0
  6
ASULTYPE
 10
-800.68075136332368
 20
1026.842777535051
 30
0.0
 40
37.0
 50
249.9999999999998
 51
290.0
  0
LINE
  5
7C3
  8
0
  6
ASULTYPE
 10
-788.02600606027386
 20
992.07415056597279
 30
0.0
 11
-791.41179052910582
 21
992.91843733235146
 31
0.0
  0
ARC
  5
7C4
  8
0
  6
ASULTYPE
 10
-800.68075136332368
 20
1026.842777535051
 30
0.0
 40
40.0
 50
200.36413480631771
 51
339.63586519368232
  0
LINE
  5
7C5
  8
CENTER
  6
CENTER
 10
-802.74067165898668
 20
1010.842777535051
 30
0.0
 11
-828.68075136332379
 21
1010.842777535051
 31
0.0
  0
CIRCLE
  5
7C6
  8
0
  6
ASULTYPE
 10
-816.6807524419869
 20
1010.842777535051
 30
0.0
 40
8.0
  0
LINE
  5
7C7
  8
0
  6
BYBLOCK
 10
-846.82233590402188
 20
1015.074962500144
 30
0.0
 11
-838.18075136332368
 21
1015.074962500144
 31
0.0
  0
LINE
  5
7C8
  8
0
  6
ASULTYPE
 10
-837.76174379880229
 20
1011.842777535051
 30
0.0
 11
-829.64223276013979
 21
1011.842777535051
 31
0.0
  0
ARC
  5
7C9
  8
0
  6
ASULTYPE
 10
-829.64223276013979
 20
1009.842777535051
 30
0.0
 40
2.0
 50
4.4117257857694741
 51
90.0
  0
TEXT
  5
7CA
  8
0
  6
ASULTYPE
 10
-811.27327787597562
 20
993.70250276811964
 30
0.0
 40
3.0
  1
O
  7
ROMANS
  0
TEXT
  5
7CB
  8
0
  6
ASULTYPE
 10
-792.66746911958887
 20
993.21885824408105
 30
0.0
 40
3.0
  1
S
  7
ROMANS
  0
ARC
  5
7CC
  8
0
  6
ASULTYPE
 10
-800.68075136332368
 20
1026.842777535051
 30
0.0
 40
36.0
 50
256.00984254245429
 51
283.99015745754582
  0
LINE
  5
7CD
  8
0
  6
ASULTYPE
 10
-813.33549666637384
 20
992.07415056597279
 30
0.0
 11
-809.94971219754234
 21
992.91843733235146
 31
0.0
  0
LINE
  5
7CE
  8
0
  6
ASULTYPE
 10
-809.94971219754234
 20
992.91843733235146
 30
0.0
 11
-809.38393892333249
 21
991.91063579860293
 31
0.0
  0
LINE
  5
7CF
  8
0
  6
ASULTYPE
 10
-791.41179052910582
 20
992.91843733235146
 30
0.0
 11
-791.97756380331509
 21
991.91063579860293
 31
0.0
  0
ARC
  5
7D0
  8
0
 10
-804.15305879425534
 20
1014.315084965982
 30
0.0
 40
2.0
 50
74.508193449952003
 51
195.49180655004781
  0
LINE
  5
7D1
  8
0
  6
BYBLOCK
 10
-822.68010022234103
 20
1005.55053545722
 30
0.0
 11
-811.38851036415622
 21
1016.842125315405
 31
0.0
  0
LINE
  5
7D2
  8
0
  6
BYBLOCK
 10
-821.97299337360607
 20
1004.843428743582
 30
0.0
 11
-810.68140365051818
 21
1016.13501846667
 31
0.0
  0
LINE
  5
7D3
  8
0
  6
ASULTYPE
 10
-779.18075136332402
 20
1011.842777535051
 30
0.0
 11
-763.59975892784553
 21
1011.842777535051
 31
0.0
  0
ARC
  5
7D4
  8
0
  6
ASULTYPE
 10
-779.18075136332402
 20
1013.842777535051
 30
0.0
 40
2.0
 50
180.0
 51
270.0
  0
CIRCLE
  5
7D5
  8
0
  6
ASULTYPE
 10
-784.68075136332379
 20
1054.342777535051
 30
0.0
 40
6.0
  0
LINE
  5
7D6
  8
CENTER
  6
CENTER
 10
-786.68075136332402
 20
1054.342777535051
 30
0.0
 11
-791.68075136332402
 21
1054.342777535051
 31
0.0
  0
LINE
  5
7D7
  8
0
  6
BYBLOCK
 10
-789.41884803906589
 20
1037.397574078122
 30
0.0
 11
-785.23554790639537
 21
1041.5808742107929
 31
0.0
  0
LINE
  5
7D8
  8
0
  6
BYBLOCK
 10
-790.12595482025245
 20
1038.1046808593089
 30
0.0
 11
-785.94265468758215
 21
1042.2879809919791
 31
0.0
  0
ARC
  5
7D9
  8
0
  6
ASULTYPE
 10
-787.68075136332402
 20
1039.842777535051
 30
0.0
 40
6.0
 50
262.61822134794141
 51
187.38177865205861
  0
ARC
  5
7DA
  8
0
  6
ASULTYPE
 10
-788.70859327070616
 20
1031.9090809808949
 30
0.0
 40
2.0
 50
82.618220070496236
 51
202.93680745378069
  0
CIRCLE
  5
7DB
  8
0
  6
ASULTYPE
 10
-787.68075136332402
 20
1039.842777535051
 30
0.0
 40
3.0
  0
ARC
  5
7DC
  8
0
  6
ASULTYPE
 10
-787.68075136332402
 20
1039.842777535051
 30
0.0
 40
2.4189539937781879
 50
56.929087052436458
 51
213.0709129475637
  0
ARC
  5
7DD
  8
0
  6
ASULTYPE
 10
-800.68075136332368
 20
1026.842777535051
 30
0.0
 40
40.0
 50
20.364134806317772
 51
159.63586519368221
  0
ARC
  5
7DE
  8
0
  6
ASULTYPE
 10
-787.68075136332402
 20
1039.842777535051
 30
0.0
 40
7.0
 50
26.38780827595992
 51
184.0652250891913
  0
LINE
  5
7DF
  8
0
 10
-848.67934354581098
 20
1091.9803995979
 30
0.0
 11
-848.67934354581098
 21
1055.9803995979
 31
0.0
  0
LINE
  5
7E0
  8
CENTER
  6
CENTER
 10
-818.68075136332368
 20
1054.342777535051
 30
0.0
 11
-823.68075136332368
 21
1054.342777535051
 31
0.0
  0
LINE
  5
7E1
  8
0
  6
ASULTYPE
 10
-837.76174379880229
 20
1041.842777535051
 30
0.0
 11
-822.18075136332368
 21
1041.842777535051
 31
0.0
  0
LINE
  5
7E2
  8
0
  6
ASULTYPE
 10
-829.18075136332413
 20
1029.842777535051
 30
0.0
 11
-823.18075136332402
 21
1026.842777535051
 31
0.0
  0
LINE
  5
7E3
  8
0
  6
ASULTYPE
 10
-823.18075136332402
 20
1026.842777535051
 30
0.0
 11
-829.18075136332413
 21
1023.842777535051
 31
0.0
  0
LINE
  5
7E4
  8
0
  6
BYBLOCK
 10
-838.18075136332391
 20
1037.074962500144
 30
0.0
 11
-846.41590501091719
 21
1037.074962500144
 31
0.0
  0
LINE
  5
7E5
  8
0
  6
ASULTYPE
 10
-829.18075136332413
 20
1029.842777535051
 30
0.0
 11
-829.18075136332413
 21
1028.342777535051
 31
0.0
  0
LINE
  5
7E6
  8
0
  6
ASULTYPE
 10
-835.18075136332391
 20
1028.342777535051
 30
0.0
 11
-829.18075136332413
 21
1028.342777535051
 31
0.0
  0
LINE
  5
7E7
  8
0
  6
ASULTYPE
 10
-835.18075136332391
 20
1025.342777535051
 30
0.0
 11
-829.18075136332413
 21
1025.342777535051
 31
0.0
  0
LINE
  5
7E8
  8
0
  6
ASULTYPE
 10
-829.18075136332413
 20
1025.342777535051
 30
0.0
 11
-829.18075136332413
 21
1023.842777535051
 31
0.0
  0
LINE
  5
7E9
  8
0
  6
ASULTYPE
 10
-835.18075136332391
 20
1028.342777535051
 30
0.0
 11
-835.18075136332391
 21
1025.342777535051
 31
0.0
  0
ARC
  5
7EA
  8
0
 10
-852.67934354581109
 20
1055.9803995979
 30
0.0
 40
4.0
 50
270.0
 51
0.0000000000000254
  0
LINE
  5
7EB
  8
0
  6
ASULTYPE
 10
-820.18075136332391
 20
1037.842777535051
 30
0.0
 11
-800.68075136332368
 21
1037.842777535051
 31
0.0
  0
ARC
  5
7EC
  8
0
  6
ASULTYPE
 10
-800.68075136332368
 20
1026.842777535051
 30
0.0
 40
11.0
 50
67.063191976693744
 51
195.49180655004801
  0
ARC
  5
7ED
  8
0
 10
-822.18075136332368
 20
1039.842777535051
 30
0.0
 40
2.0
 50
0.0
 51
90.0
  0
ARC
  5
7EE
  8
0
  6
ASULTYPE
 10
-813.20844393239247
 20
1023.370470104119
 30
0.0
 40
2.0
 50
254.50819344995199
 51
15.49180655004778
  0
ARC
  5
7EF
  8
0
  6
ASULTYPE
 10
-818.18075136332379
 20
1023.755949105196
 30
0.0
 40
2.0
 50
180.0
 51
276.62580956482321
  0
LINE
  5
7F0
  8
0
  6
ASULTYPE
 10
-820.18075136332391
 20
1039.842777535051
 30
0.0
 11
-820.18075136332391
 21
1023.755949105196
 31
0.0
  0
ARC
  5
7F1
  8
0
  6
ASULTYPE
 10
-796.65810728749125
 20
1039.2047488438341
 30
0.0
 40
2.0
 50
251.97486635635511
 51
4.0652267554684061
  0
ARC
  5
7F2
  8
0
  6
ASULTYPE
 10
-795.61444791747977
 20
1038.814935627669
 30
0.0
 40
2.0
 50
247.06319254621931
 51
7.38177992950295
  0
LINE
  5
7F3
  8
CENTER
  6
CENTER
 10
-789.68075136332379
 20
1039.842777535051
 30
0.0
 11
-794.68075136332368
 21
1039.842777535051
 31
0.0
  0
LINE
  5
7F4
  8
CENTER
  6
CENTER
 10
-814.68075136332379
 20
1054.342777535051
 30
0.0
 11
-809.68075136332368
 21
1054.342777535051
 31
0.0
  0
LINE
  5
7F5
  8
CENTER
  6
CENTER
 10
-817.68075136332402
 20
1054.342777535051
 30
0.0
 11
-815.68075136332368
 21
1054.342777535051
 31
0.0
  0
LINE
  5
7F6
  8
CENTER
  6
CENTER
 10
-816.68075136332413
 20
1053.342777535051
 30
0.0
 11
-816.68075136332413
 21
1055.342777535051
 31
0.0
  0
CIRCLE
  5
7F7
  8
0
  6
ASULTYPE
 10
-816.68075136332413
 20
1054.342777535051
 30
0.0
 40
3.0
  0
CIRCLE
  5
7F8
  8
0
  6
ASULTYPE
 10
-816.68075136332413
 20
1054.342777535051
 30
0.0
 40
2.5
  0
CIRCLE
  5
7F9
  8
0
  6
ASULTYPE
 10
-816.68075136332413
 20
1054.342777535051
 30
0.0
 40
6.0
  0
LINE
  5
7FA
  8
CENTER
  6
CENTER
 10
-816.68075136332413
 20
1056.342777535051
 30
0.0
 11
-816.68075136332413
 21
1061.342777535051
 31
0.0
  0
LINE
  5
7FB
  8
CENTER
  6
CENTER
 10
-816.68075136332413
 20
1052.342777535051
 30
0.0
 11
-816.68075136332413
 21
1047.342777535051
 31
0.0
  0
LINE
  5
7FC
  8
HIDDEN
  6
HIDDEN
 10
-853.67934354581109
 20
1091.9803995979
 30
0.0
 11
-853.67934354581109
 21
1088.9803995979
 31
0.0
  0
LINE
  5
7FD
  8
CENTER
  6
CENTER
 10
-787.68075136332402
 20
1041.842777535051
 30
0.0
 11
-787.68075136332402
 21
1046.842777535051
 31
0.0
  0
LINE
  5
7FE
  8
0
  6
ASULTYPE
 10
-779.61849361502584
 20
1041.842777535051
 30
0.0
 11
-763.59975892784553
 21
1041.842777535051
 31
0.0
  0
ARC
  5
7FF
  8
0
  6
ASULTYPE
 10
-779.61849361502584
 20
1043.842777535051
 30
0.0
 40
2.0
 50
206.38779996124481
 51
270.0
  0
LINE
  5
800
  8
0
 10
-788.68075136332379
 20
1039.842777535051
 30
0.0
 11
-786.68075136332402
 21
1039.842777535051
 31
0.0
  0
LINE
  5
801
  8
0
 10
-787.68075136332402
 20
1038.842777535051
 30
0.0
 11
-787.68075136332402
 21
1040.842777535051
 31
0.0
  0
LINE
  5
802
  8
CENTER
  6
CENTER
 10
-785.68075136332402
 20
1039.842777535051
 30
0.0
 11
-780.68075136332391
 21
1039.842777535051
 31
0.0
  0
ARC
  5
803
  8
0
 10
-783.18075136332402
 20
1033.2283992573889
 30
0.0
 40
2.0
 50
0.0
 51
124.22886632781309
  0
LINE
  5
804
  8
CENTER
  6
CENTER
 10
-787.68075136332402
 20
1037.842777535051
 30
0.0
 11
-787.68075136332402
 21
1032.842777535051
 31
0.0
  0
ARC
  5
805
  8
0
  6
ASULTYPE
 10
-787.68075136332402
 20
1039.842777535051
 30
0.0
 40
2.4189539937781879
 50
236.92908705243121
 51
33.070912947569518
  0
CIRCLE
  5
806
  8
0
  6
ASULTYPE
 10
-784.68075136332379
 20
1054.342777535051
 30
0.0
 40
3.0
  0
CIRCLE
  5
807
  8
0
  6
ASULTYPE
 10
-784.68075136332379
 20
1054.342777535051
 30
0.0
 40
2.5
  0
LINE
  5
808
  8
CENTER
  6
CENTER
 10
-785.68075136332402
 20
1054.342777535051
 30
0.0
 11
-783.68075136332379
 21
1054.342777535051
 31
0.0
  0
LINE
  5
809
  8
CENTER
  6
CENTER
 10
-784.68075136332379
 20
1053.342777535051
 30
0.0
 11
-784.68075136332379
 21
1055.342777535051
 31
0.0
  0
LINE
  5
80A
  8
CENTER
  6
CENTER
 10
-782.68075136332402
 20
1054.342777535051
 30
0.0
 11
-777.68075136332402
 21
1054.342777535051
 31
0.0
  0
LINE
  5
80B
  8
CENTER
  6
CENTER
 10
-784.68075136332379
 20
1056.342777535051
 30
0.0
 11
-784.68075136332379
 21
1061.342777535051
 31
0.0
  0
LINE
  5
80C
  8
CENTER
  6
CENTER
 10
-784.68075136332379
 20
1052.342777535051
 30
0.0
 11
-784.68075136332379
 21
1047.342777535051
 31
0.0
  0
DIMENSION
  5
80D
  8
DIM
  2
*D112
 10
-590.4792214603774
 20
953.63914999448616
 30
0.0
 11
-565.4792214603774
 21
956.13914999448605
 31
0.0
 70
     0
 13
-540.4792214603774
 23
880.22292949673067
 33
0.0
 14
-590.4792214603774
 24
941.22213899824135
 34
0.0
  0
DIMENSION
  5
81A
  8
DIM
  2
*D113
 10
-590.4792214603774
 20
953.63914999448616
 30
0.0
 11
-630.47922146037729
 21
956.9248642802005
 31
0.0
 70
     0
  1
(<>)
 13
-670.4792214603774
 23
843.39156307152666
 33
0.0
 14
-590.4792214603774
 24
941.22213899824135
 34
0.0
  0
TEXT
  5
827
  8
DIM
 10
-682.67760632613783
 20
735.85305825926719
 30
0.0
 40
3.0
  1
2-PT1/2
  7
CHINESET
  0
TEXT
  5
16DA
  8
DIM
 10
-683.24903489756639
 20
730.28162968783863
 30
0.0
 40
3.0
  1
2-PT3/8
  7
CHINESET
1001
ACAD
1000
R13OBJECT
1002
{
1005
827
1002
}
  0
TEXT
  5
16DB
  8
DIM
 10
-682.82046346899494
 20
724.71020111640996
 30
0.0
 40
3.0
  1
2-PT1/4
  7
CHINESET
1001
ACAD
1000
R13OBJECT
1002
{
1005
827
1002
}
  0
SOLID
  5
828
  8
DIM
  6
CONTINUOUS
 10
596.82719505708462
 20
812.34065630902592
 30
0.0
 11
594.6980379037492
 21
814.51245045590099
 31
0.0
 12
596.00773981197176
 22
811.76751313209945
 32
0.0
 13
596.00773981197176
 23
811.76751313209945
 33
0.0
210
0.0
220
0.0
230
-1.0
  0
POLYLINE
  5
16DC
  8
DIM
 66
     1
 10
0.0
 20
0.0
 30
0.0
 70
   128
1001
ACAD
1000
R13OBJECT
1002
{
1005
828
1002
}
  0
VERTEX
  5
196B
  8
DIM
 10
-596.41746743452825
 20
812.05408472056286
 30
0.0
  0
VERTEX
  5
196C
  8
DIM
 10
-659.10617775470928
 20
722.42448683069586
 30
0.0
  0
VERTEX
  5
196D
  8
DIM
 10
-683.24903489756639
 20
722.42448683069586
 30
0.0
  0
SEQEND
  5
196E
  8
DIM
  0
DIMENSION
  5
829
  8
DIM
  2
*D114
 10
-483.60073184702918
 20
936.22691505872388
 30
0.0
 11
-486.10073184702941
 21
797.81123906512516
 31
0.0
 70
     0
 13
-587.46482146037727
 23
659.39556307152657
 33
0.0
 14
-590.4792214603774
 24
936.22691505872388
 34
0.0
 50
90.0
  0
DIMENSION
  5
836
  8
DIM
  2
*D115
 10
-513.82822935534296
 20
659.39556307152657
 30
0.0
 11
-516.32822935534307
 21
739.55648576541262
 31
0.0
 70
     0
 13
-579.05141592774271
 23
819.71740845929867
 33
0.0
 14
-587.46482146037727
 24
659.39556307152657
 34
0.0
 50
90.0
  0
LINE
  5
843
  8
CENTER
  6
CENTER
 10
-590.4792214603774
 20
941.22213899824135
 30
0.0
 11
-590.4792214603774
 21
657.57791608944581
 31
0.0
  0
LINE
  5
844
  8
0
 10
-576.47922146037729
 20
774.39156307152666
 30
0.0
 11
-576.47922146037729
 21
706.39156307152655
 31
0.0
  0
LINE
  5
845
  8
0
 10
-622.22278710167279
 20
785.32497422614358
 30
0.0
 11
-621.47922146037729
 21
708.39156307152655
 31
0.0
  0
LINE
  5
846
  8
0
 10
-616.9792214603774
 20
774.39156307152666
 30
0.0
 11
-616.9792214603774
 21
706.39156307152655
 31
0.0
  0
LINE
  5
847
  8
0
 10
-604.4792214603774
 20
774.39156307152666
 30
0.0
 11
-604.4792214603774
 21
706.39156307152655
 31
0.0
  0
LINE
  5
848
  8
0
 10
-618.4792214603774
 20
774.39156307152666
 30
0.0
 11
-618.4792214603774
 21
706.39156307152655
 31
0.0
  0
LINE
  5
849
  8
0
 10
-559.47922146037729
 20
708.39156307152655
 30
0.0
 11
-558.7415709574741
 21
784.71296131338545
 31
0.0
  0
LINE
  5
84A
  8
0
 10
-563.97922146037729
 20
774.39156307152666
 30
0.0
 11
-563.97922146037729
 21
706.39156307152655
 31
0.0
  0
LINE
  5
84B
  8
0
 10
-562.4792214603774
 20
774.39156307152666
 30
0.0
 11
-562.4792214603774
 21
706.39156307152655
 31
0.0
  0
DIMENSION
  5
84C
  8
DIM
  2
*D116
 10
-587.46482146037727
 20
648.4762414822012
 30
0.0
 11
-590.4792214603774
 21
640.4762414822012
 31
0.0
 70
     0
  1
%%c<>-排水口
 13
-593.49362146037743
 23
659.39556307152657
 33
0.0
 14
-587.46482146037727
 24
659.39556307152657
 34
0.0
1001
ACAD
1000
DSTYLE
1002
{
1070
   340
1005
24
1002
}
  0
LINE
  5
85C
  8
0
 10
-579.94322146037734
 20
681.39156307152678
 30
0.0
 11
-601.01522146037735
 21
681.39156307152678
 31
0.0
  0
LINE
  5
85D
  8
0
 10
-573.59727844424356
 20
682.39156307152666
 30
0.0
 11
-607.3611644765117
 21
682.39156307152666
 31
0.0
  0
ARC
  5
85E
  8
0
 10
-593.49362146037743
 20
661.40516307152654
 30
0.0
 40
1.0047999999999999
 50
90.0
 51
180.0
  0
ARC
  5
85F
  8
0
 10
-587.46482146037727
 20
661.40516307152654
 30
0.0
 40
1.0047999999999999
 50
0.0
 51
90.0
  0
LINE
  5
860
  8
0
 10
-594.4984214603794
 20
661.40516307152654
 30
0.0
 11
-593.49362146037743
 21
659.664798420078
 31
0.0
  0
LINE
  5
861
  8
0
 10
-593.49362146037743
 20
659.66479842007811
 30
0.0
 11
-593.49362146037743
 21
659.39556307152657
 31
0.0
  0
LINE
  5
862
  8
0
 10
-593.49362146037743
 20
659.39556307152657
 30
0.0
 11
-587.46482146037727
 21
659.39556307152657
 31
0.0
  0
LINE
  5
863
  8
0
 10
-587.46482146037727
 20
659.39556307152657
 30
0.0
 11
-587.46482146037727
 21
659.66479842008664
 31
0.0
  0
LINE
  5
864
  8
0
 10
-587.46482146037727
 20
659.66479842008664
 30
0.0
 11
-586.4600214603804
 21
661.40516307152654
 31
0.0
  0
LINE
  5
865
  8
0
 10
-594.4984214603802
 20
661.40516307152859
 30
0.0
 11
-586.46002146037904
 21
661.40516307152859
 31
0.0
  0
LINE
  5
866
  8
DIM
 10
-677.16099473588383
 20
728.83493526356369
 30
0.0
 11
-659.47663528815417
 21
728.83493526356369
 31
0.0
  0
LINE
  5
867
  8
DIM
 10
-677.33436900245215
 20
733.85760168289005
 30
0.0
 11
-658.78313207995495
 21
733.85760168289005
 31
0.0
  0
ARC
  5
868
  8
0
 10
-610.57397409820817
 20
705.7635431418023
 30
0.0
 40
6.4359616843719687
 50
174.40017777713831
 51
261.91427539759962
  0
ARC
  5
869
  8
0
 10
-611.4792214603774
 20
706.39156307152655
 30
0.0
 40
7.0
 50
180.0
 51
0.000000000000007
  0
ARC
  5
86A
  8
0
 10
-590.4792214603774
 20
708.39156307152655
 30
0.0
 40
31.0
 50
180.0
 51
237.00411452642041
  0
LINE
  5
86B
  8
0
 10
-601.01522146037735
 20
682.39156307152666
 30
0.0
 11
-601.01522146037735
 21
681.39156307152655
 31
0.0
  0
ARC
  5
86C
  8
0
 10
-597.61330146037722
 20
665.82628307152663
 30
0.0
 40
0.4019200000000001
 50
180.0
 51
270.0
  0
LINE
  5
86D
  8
0
 10
-593.49362146037743
 20
665.4243630715265
 30
0.0
 11
-593.49362146037743
 21
662.40996307153125
 31
0.0
  0
LINE
  5
86E
  8
0
 10
-598.01522146037723
 20
681.39156307152655
 30
0.0
 11
-598.01522146037723
 21
665.82628307152663
 31
0.0
  0
CIRCLE
  5
86F
  8
0
 10
-590.47922146037706
 20
672.45796307152659
 30
0.0
 40
3.2153599999999738
  0
LINE
  5
870
  8
0
 10
-597.61330146037722
 20
665.4243630715265
 30
0.0
 11
-583.34514146037714
 21
665.4243630715265
 31
0.0
  0
ARC
  5
871
  8
0
 10
-583.34514146037714
 20
665.82628307152663
 30
0.0
 40
0.4019200000000001
 50
270.0
 51
0.0
  0
LINE
  5
872
  8
0
 10
-587.46482146037727
 20
665.42436307152673
 30
0.0
 11
-587.46482146037727
 21
662.40996307152648
 31
0.0
  0
LINE
  5
873
  8
0
 10
-593.49362146037743
 20
662.40996307153011
 30
0.0
 11
-587.46482146037727
 21
662.40996307152477
 31
0.0
  0
LINE
  5
874
  8
0
 10
-587.46482146037727
 20
662.56479842008673
 30
0.0
 11
-587.46482146037727
 21
662.40996307152477
 31
0.0
  0
CIRCLE
  5
875
  8
0
 10
-590.47922146037706
 20
672.45796307152659
 30
0.0
 40
5.5263999999999847
  0
LINE
  5
876
  8
0
 10
-582.94322146037734
 20
681.39156307152655
 30
0.0
 11
-582.94322146037734
 21
665.82628307152663
 31
0.0
  0
LINE
  5
877
  8
0
 10
-582.94322146037734
 20
682.39156307152666
 30
0.0
 11
-598.01522146037746
 21
682.39156307152666
 31
0.0
  0
ARC
  5
878
  8
0
 10
-590.4792214603774
 20
708.39156307152655
 30
0.0
 40
31.0
 50
302.99588547357951
 51
0.000000000000007
  0
LINE
  5
879
  8
0
 10
-579.94322146037734
 20
682.39156307152666
 30
0.0
 11
-579.94322146037734
 21
681.39156307152678
 31
0.0
  0
ARC
  5
87A
  8
0
 10
-570.69670636372462
 20
706.00887263844243
 30
0.0
 40
6.7283768766526313
 50
280.42497055366238
 51
3.2605762715995938
  0
ARC
  5
87B
  8
0
 10
-569.4792214603774
 20
706.39156307152655
 30
0.0
 40
7.0
 50
180.0
 51
0.000000000000007
  0
DIMENSION
  5
87C
  8
DIM
  2
*D117
 10
-513.82822935534296
 20
870.22292949673079
 30
0.0
 11
-516.32822935534307
 21
903.22492227772716
 31
0.0
 70
     0
 13
-590.4792214603774
 23
936.22691505872388
 33
0.0
 14
-534.58351571045
 24
870.22292949673079
 34
0.0
 50
90.0
  0
LINE
  5
889
  8
CENTER
  6
CENTER
 10
-601.31012162774641
 20
819.71740845929867
 30
0.0
 11
-579.05141592774271
 21
819.71740845929867
 31
0.0
  0
LINE
  5
88A
  8
CENTER
  6
CENTER
 10
-672.98058542860963
 20
821.89156307152689
 30
0.0
 11
-545.64736380432976
 21
821.89156307152666
 31
0.0
  0
LINE
  5
88B
  8
0
 10
-580.97922146037729
 20
849.89156307152678
 30
0.0
 11
-582.9792214603774
 21
849.89156307152678
 31
0.0
  0
LINE
  5
88C
  8
0
 10
-580.97922146037729
 20
846.89156307152666
 30
0.0
 11
-583.12922146037749
 21
846.89156307152666
 31
0.0
  0
ARC
  5
88D
  8
0
  6
ASULTYPE
 10
-590.4792214603774
 20
806.89156307152666
 30
0.0
 40
30.0
 50
61.726286368634973
 51
118.273713631365
  0
LINE
  5
88E
  8
0
  6
ASULTYPE
 10
-571.97922146037718
 20
846.89156307152666
 30
0.0
 11
-616.97922146037718
 21
846.89156307152666
 31
0.0
  0
LINE
  5
88F
  8
CENTER
  6
CENTER
 10
-601.69910861227504
 20
821.89156307152666
 30
0.0
 11
-580.51206522800726
 21
821.89156307152666
 31
0.0
  0
LINE
  5
890
  8
0
  6
ASULTYPE
 10
-552.97922147537724
 20
806.89156307152666
 30
0.0
 11
-627.97922144537756
 21
806.89156307152666
 31
0.0
  0
LINE
  5
891
  8
0
 10
-550.56879717721654
 20
791.09199033613754
 30
0.0
 11
-630.37243111503744
 21
791.09199033613743
 31
0.0
  0
LINE
  5
892
  8
0
  6
ASULTYPE
 10
-550.47922146037729
 20
806.89156307152666
 30
0.0
 11
-630.47922146037729
 21
806.89156307152666
 31
0.0
  0
LINE
  5
893
  8
0
  6
ASULTYPE
 10
-550.47922146037729
 20
804.39156307152678
 30
0.0
 11
-630.47922146037729
 21
804.39156307152678
 31
0.0
  0
LINE
  5
894
  8
0
 10
-580.67922146037722
 20
906.22292949673067
 30
0.0
 11
-582.41127226794629
 21
905.22292949673067
 31
0.0
  0
LINE
  5
895
  8
0
 10
-580.67922146037722
 20
910.22292949673079
 30
0.0
 11
-582.41127226794629
 21
911.22292949673079
 31
0.0
  0
LINE
  5
896
  8
0
 10
-601.9792214603774
 20
905.22292949673067
 30
0.0
 11
-578.9792214603774
 21
905.22292949673067
 31
0.0
  0
ARC
  5
897
  8
0
 10
-590.4792214603774
 20
805.0869653691268
 30
0.0
 40
31.632183910399998
 50
64.992166765314735
 51
115.00783323468519
  0
LINE
  5
898
  8
0
  6
BYBLOCK
 10
-633.67071082207963
 20
839.44328716572693
 30
0.0
 11
-547.67071082207963
 21
839.44328716572693
 31
0.0
  0
LINE
  5
899
  8
0
 10
-630.67071082207963
 20
850.22292949673067
 30
0.0
 11
-550.67071082207963
 21
850.22292949673067
 31
0.0
  0
ARC
  5
89A
  8
0
 10
-547.9792214603774
 20
849.89156307152655
 30
0.0
 40
49.999999999999993
 50
165.20750295859841
 51
179.99999999999989
  0
ARC
  5
89B
  8
0
 10
-632.9792214603774
 20
849.89156307152655
 30
0.0
 40
49.999999999999993
 50
0.0000000000000325
 51
14.79249704140153
  0
LINE
  5
89C
  8
0
 10
-612.69249853310635
 20
885.87358121790044
 30
0.0
 11
-613.67071082207963
 21
855.22292949673067
 31
0.0
  0
ARC
  5
89D
  8
0
 10
-651.46264366651269
 20
841.37307313068663
 30
0.0
 40
1.0
 50
0.0
 51
89.999999999999872
  0
ARC
  5
89E
  8
0
 10
-651.46264366651269
 20
802.41005301236703
 30
0.0
 40
1.0
 50
270.00000000000011
 51
0.0
  0
LINE
  5
89F
  8
HIDDEN
  6
PHANTOM
 10
-670.4792214603774
 20
843.39156307152666
 30
0.0
 11
-670.4792214603774
 21
800.39156307152666
 31
0.0
  0
LINE
  5
8A0
  8
HIDDEN
  6
PHANTOM
 10
-662.97300478767806
 20
842.39156307152666
 30
0.0
 11
-662.97300478767806
 21
801.39156307152666
 31
0.0
  0
LINE
  5
8A1
  8
HIDDEN
  6
PHANTOM
 10
-670.4792214603774
 20
800.39156307152666
 30
0.0
 11
-663.97300478767795
 21
800.39156307152666
 31
0.0
  0
LINE
  5
8A3
  8
HIDDEN
  6
PHANTOM
 10
-662.97300478767806
 20
801.4100530123668
 30
0.0
 11
-651.46264366651269
 21
801.4100530123668
 31
0.0
  0
ARC
  5
8A4
  8
0
 10
-663.97300478767795
 20
801.39156307152666
 30
0.0
 40
1.0
 50
270.0
 51
359.99999999999989
  0
LINE
  5
8A6
  8
HIDDEN
  6
PHANTOM
 10
-670.4792214603774
 20
843.39156307152666
 30
0.0
 11
-663.97300478767795
 21
843.39156307152666
 31
0.0
  0
LINE
  5
8A7
  8
HIDDEN
  6
PHANTOM
 10
-662.97300478767806
 20
842.37307313068663
 30
0.0
 11
-651.46264366651269
 21
842.37307313068663
 31
0.0
  0
ARC
  5
8A8
  8
0
 10
-663.97300478767795
 20
842.39156307152666
 30
0.0
 40
1.0
 50
0.0
 51
89.999999999999758
  0
LINE
  5
8A9
  8
0
  6
ASULTYPE
 10
-630.47922146037729
 20
811.89156307152666
 30
0.0
 11
-630.47922146037729
 21
806.89156307152666
 31
0.0
  0
LINE
  5
8AA
  8
HIDDEN
  6
PHANTOM
 10
-650.4626436665128
 20
841.37307313068663
 30
0.0
 11
-650.4626436665128
 21
802.41005172913549
 31
0.0
  0
ARC
  5
8AB
  8
0
 10
-615.9792214603774
 20
798.89156307152666
 30
0.0
 40
0.5
 50
89.999999999999275
 51
180.0000000000002
  0
ARC
  5
8AC
  8
0
 10
-617.47922146037729
 20
792.09199033613754
 30
0.0
 40
1.0
 50
270.0
 51
0.000000000000007
  0
ARC
  5
8AD
  8
0
 10
-610.46956574177625
 20
774.93754786405441
 30
0.0
 40
6.5325123014341511
 50
98.89119530014149
 51
184.7943515251205
  0
ARC
  5
8AE
  8
0
 10
-611.4792214603774
 20
774.39156307152666
 30
0.0
 40
7.0
 50
0.000000000000007
 51
180.0
  0
ARC
  5
8AF
  8
0
 10
-621.97922146037729
 20
798.89156307152666
 30
0.0
 40
0.5
 50
0.000000000000007
 51
90.0
  0
LINE
  5
8B0
  8
0
 10
-621.97922146037729
 20
799.39156307152666
 30
0.0
 11
-625.97922146037729
 21
799.39156307152666
 31
0.0
  0
ARC
  5
8B1
  8
0
 10
-625.97922146037729
 20
798.89156307152666
 30
0.0
 40
0.5
 50
90.0
 51
179.9999999999998
  0
ARC
  5
8B2
  8
0
 10
-623.72271704661637
 20
785.31047732090212
 30
0.0
 40
1.5
 50
0.5537496115756162
 51
48.421220637720658
  0
ARC
  5
8B3
  8
0
 10
-620.4792214603774
 20
792.09199033613754
 30
0.0
 40
1.0
 50
180.0
 51
270.0
  0
ARC
  5
8B4
  8
0
 10
-627.4792214603774
 20
792.09199033613754
 30
0.0
 40
1.0
 50
270.0
 51
0.000000000000007
  0
ARC
  5
8B5
  8
0
 10
-629.4792214603774
 20
791.54163076228031
 30
0.0
 40
1.0
 50
180.0
 51
228.4212206377205
  0
LINE
  5
8B6
  8
0
 10
-630.14287066552208
 20
790.79358682472684
 30
0.0
 11
-622.72724323889929
 21
786.43254322723215
 31
0.0
  0
LINE
  5
8B7
  8
0
 10
-621.47922146037729
 20
792.09199033613754
 30
0.0
 11
-621.47922146037729
 21
798.89156307152666
 31
0.0
  0
LINE
  5
8B8
  8
0
  6
BYBLOCK
 10
-630.47922146037729
 20
804.39156307152678
 30
0.0
 11
-630.47922146037729
 21
791.54163076228031
 31
0.0
  0
LINE
  5
8B9
  8
0
 10
-626.47922146037729
 20
792.09199033613754
 30
0.0
 11
-626.47922146037729
 21
798.89156307152666
 31
0.0
  0
LINE
  5
8BA
  8
0
  6
BYBLOCK
 10
-627.9792214603774
 20
806.89156307152666
 30
0.0
 11
-627.9792214603774
 21
804.39156307152678
 31
0.0
  0
ARC
  5
8BB
  8
0
 10
-601.9792214603774
 20
798.89156307152666
 30
0.0
 40
0.5
 50
359.99999999999972
 51
90.000000000000057
  0
ARC
  5
8BC
  8
0
 10
-600.47922146037729
 20
792.09199033613754
 30
0.0
 40
1.0
 50
179.9999999999996
 51
270.0
  0
LINE
  5
8BD
  8
0
 10
-601.47922146037729
 20
792.09199033613754
 30
0.0
 11
-601.47922146037729
 21
804.39156307152655
 31
0.0
  0
ARC
  5
8BE
  8
0
 10
-611.9792214603774
 20
798.89156307152655
 30
0.0
 40
0.5
 50
0.000000000000007
 51
89.999999999999673
  0
ARC
  5
8BF
  8
0
 10
-605.9792214603774
 20
798.89156307152666
 30
0.0
 40
0.5
 50
90.0
 51
179.9999999999998
  0
LINE
  5
8C0
  8
0
 10
-611.9792214603774
 20
799.39156307152655
 30
0.0
 11
-615.9792214603774
 21
799.39156307152666
 31
0.0
  0
ARC
  5
8C1
  8
0
 10
-610.4792214603774
 20
792.09199033613754
 30
0.0
 40
1.0
 50
180.0
 51
270.0
  0
ARC
  5
8C2
  8
0
 10
-607.4792214603774
 20
792.09199033613754
 30
0.0
 40
1.0
 50
270.0
 51
0.000000000000007
  0
LINE
  5
8C3
  8
0
 10
-607.4792214603774
 20
791.09199033613754
 30
0.0
 11
-610.4792214603774
 21
791.09199033613754
 31
0.0
  0
LINE
  5
8C4
  8
0
 10
-611.4792214603774
 20
792.09199033613754
 30
0.0
 11
-611.4792214603774
 21
798.89156307152655
 31
0.0
  0
LINE
  5
8C5
  8
0
 10
-606.4792214603774
 20
792.09199033613754
 30
0.0
 11
-606.4792214603774
 21
798.89156307152666
 31
0.0
  0
LINE
  5
8C6
  8
0
 10
-616.4792214603774
 20
792.09199033613754
 30
0.0
 11
-616.4792214603774
 21
798.89156307152666
 31
0.0
  0
LINE
  5
8C7
  8
0
 10
-601.9792214603774
 20
799.39156307152666
 30
0.0
 11
-605.9792214603774
 21
799.39156307152666
 31
0.0
  0
LINE
  5
8C8
  8
0
  6
ASULTYPE
 10
-606.4792214603774
 20
812.89156307152666
 30
0.0
 11
-629.4792214603774
 21
812.89156307152666
 31
0.0
  0
LINE
  5
8C9
  8
0
 10
-613.67071082207963
 20
855.22292949673067
 30
0.0
 11
-619.67071082207963
 21
850.22292949673067
 31
0.0
  0
LINE
  5
8CA
  8
0
 10
-603.85147934905444
 20
833.75363203792676
 30
0.0
 11
-633.47922146357723
 21
833.75363203792665
 31
0.0
  0
LINE
  5
8CB
  8
0
  6
BYBLOCK
 10
-630.47922146037729
 20
811.89156307152666
 30
0.0
 11
-630.47922146037763
 21
833.75363203792665
 31
0.0
  0
LINE
  5
8CC
  8
0
  6
ASULTYPE
 10
-617.47922146037718
 20
846.39156307152678
 30
0.0
 11
-617.47922146037718
 21
812.89156307152666
 31
0.0
  0
LINE
  5
8CD
  8
HIDDEN
  6
HIDDEN
 10
-643.07557329020551
 20
826.39156307152666
 30
0.0
 11
-629.26083062037742
 21
825.90914162716604
 31
0.0
  0
LINE
  5
8CE
  8
HIDDEN
  6
HIDDEN
 10
-643.11047278690796
 20
825.39217224450783
 30
0.0
 11
-629.26083062037742
 21
824.90853208286705
 31
0.0
  0
LINE
  5
8CF
  8
HIDDEN
  6
HIDDEN
 10
-643.11047278690796
 20
818.39095389854583
 30
0.0
 11
-629.26083062037742
 21
818.87459406018627
 31
0.0
  0
LINE
  5
8D0
  8
HIDDEN
  6
HIDDEN
 10
-643.07557329020551
 20
817.39156307152666
 30
0.0
 11
-629.26083062037742
 21
817.87398451588763
 31
0.0
  0
LINE
  5
8D1
  8
HIDDEN
  6
PHANTOM
 10
-643.07557329020551
 20
827.39156307152666
 30
0.0
 11
-643.07557329020551
 21
816.39156307152666
 31
0.0
  0
LINE
  5
8D2
  8
HIDDEN
  6
PHANTOM
 10
-650.4626436665128
 20
827.39156307152666
 30
0.0
 11
-643.07557329020551
 21
827.39156307152666
 31
0.0
  0
LINE
  5
8D3
  8
HIDDEN
  6
PHANTOM
 10
-650.4626436665128
 20
816.39156307152666
 30
0.0
 11
-643.07557329020551
 21
816.39156307152666
 31
0.0
  0
LINE
  5
8D4
  8
HIDDEN
  6
PHANTOM
 10
-650.4626436665128
 20
816.39156307152666
 30
0.0
 11
-643.07557329020551
 21
827.39156307152666
 31
0.0
  0
LINE
  5
8D5
  8
HIDDEN
  6
PHANTOM
 10
-650.4626436665128
 20
827.39156307152666
 30
0.0
 11
-643.07557329020551
 21
816.39156307152666
 31
0.0
  0
ARC
  5
8D6
  8
0
  6
ASULTYPE
 10
-629.4792214603774
 20
811.89156307152666
 30
0.0
 40
1.0
 50
90.0
 51
180.0
  0
ARC
  5
8D7
  8
0
 10
-633.17071082207963
 20
849.72292949673079
 30
0.0
 40
0.5
 50
90.0
 51
180.00000000000011
  0
ARC
  5
8D8
  8
0
  6
ASULTYPE
 10
-616.97922146037718
 20
846.39156307152678
 30
0.0
 40
0.5
 50
90.0
 51
180.0
  0
LINE
  5
8D9
  8
0
 10
-633.17071082207963
 20
850.22292949673067
 30
0.0
 11
-619.67071082207963
 21
850.22292949673067
 31
0.0
  0
LINE
  5
8DA
  8
0
  6
BYBLOCK
 10
-633.67071082207963
 20
849.72292949673079
 30
0.0
 11
-633.47922146357723
 21
839.6846665211267
 31
0.0
  0
LINE
  5
8DB
  8
0
 10
-633.47922146357723
 20
839.6846665211267
 30
0.0
 11
-633.47922146357723
 21
833.75363203792665
 31
0.0
  0
ARC
  5
8DC
  8
0
  6
ASULTYPE
 10
-603.9792214603774
 20
831.99136386754901
 30
0.0
 40
1.5
 50
118.273713631365
 51
180.0
  0
ARC
  5
8DD
  8
0
  6
ASULTYPE
 10
-606.4792214603774
 20
813.89156307152666
 30
0.0
 40
1.0
 50
270.0
 51
0.000000000000007
  0
LINE
  5
8DE
  8
0
  6
ASULTYPE
 10
-605.47922146037729
 20
831.99136386754901
 30
0.0
 11
-605.47922146037729
 21
813.89156307152666
 31
0.0
  0
CIRCLE
  5
8DF
  8
0
  6
ASULTYPE
 10
-590.4792214603774
 20
819.71740845929867
 30
0.0
 40
5.7000000000000011
  0
ARC
  5
8E0
  8
0
  6
ASULTYPE
 10
-590.4792214603774
 20
819.71740845929867
 30
0.0
 40
6.7000000000000002
 50
0.0
 51
270.0
  0
LINE
  5
8E1
  8
0
 10
-597.9792214603774
 20
849.89156307152655
 30
0.0
 11
-599.9792214603774
 21
849.89156307152655
 31
0.0
  0
LINE
  5
8E2
  8
0
 10
-597.82922146037731
 20
846.89156307152666
 30
0.0
 11
-599.9792214603774
 21
846.89156307152666
 31
0.0
  0
LINE
  5
8E3
  8
0
 10
-596.32287890960561
 20
846.89156307152666
 30
0.0
 11
-616.32287890960561
 21
846.89156307152666
 31
0.0
  0
LINE
  5
8E4
  8
0
  6
BYBLOCK
 10
-600.32287890960561
 20
849.39156307152666
 30
0.0
 11
-600.32287890960561
 21
846.89156307152666
 31
0.0
  0
LINE
  5
8E5
  8
0
  6
BYBLOCK
 10
-601.32287890960549
 20
849.39156307152666
 30
0.0
 11
-601.32287890960549
 21
846.89156307152666
 31
0.0
  0
LINE
  5
8E6
  8
0
  6
BYBLOCK
 10
-602.32287890960561
 20
849.39156307152666
 30
0.0
 11
-602.32287890960561
 21
846.89156307152666
 31
0.0
  0
LINE
  5
8E7
  8
0
 10
-599.9792214603774
 20
849.89156307152655
 30
0.0
 11
-599.9792214603774
 21
846.89156307152666
 31
0.0
  0
ARC
  5
8E8
  8
0
  6
BYBLOCK
 10
-599.62926290677569
 20
845.89156307152655
 30
0.0
 40
1.0
 50
90.0
 51
180.0
  0
LINE
  5
8E9
  8
0
  6
BYBLOCK
 10
-600.62926290677569
 20
845.89156307152655
 30
0.0
 11
-600.62926290677569
 21
835.12233809872714
 31
0.0
  0
LINE
  5
8EA
  8
0
  6
BYBLOCK
 10
-609.32287890960549
 20
849.39156307152666
 30
0.0
 11
-609.32287890960549
 21
846.89156307152666
 31
0.0
  0
LINE
  5
8EB
  8
0
  6
BYBLOCK
 10
-610.32287890960561
 20
849.39156307152666
 30
0.0
 11
-610.32287890960561
 21
846.89156307152666
 31
0.0
  0
LINE
  5
8EC
  8
0
  6
BYBLOCK
 10
-611.32287890960561
 20
849.39156307152666
 30
0.0
 11
-611.32287890960561
 21
846.89156307152666
 31
0.0
  0
LINE
  5
8ED
  8
0
  6
BYBLOCK
 10
-612.32287890960561
 20
849.39156307152666
 30
0.0
 11
-612.32287890960561
 21
846.89156307152666
 31
0.0
  0
LINE
  5
8EE
  8
0
  6
BYBLOCK
 10
-613.32287890960549
 20
849.39156307152666
 30
0.0
 11
-613.32287890960549
 21
846.89156307152666
 31
0.0
  0
LINE
  5
8EF
  8
0
  6
BYBLOCK
 10
-605.32287890960549
 20
849.39156307152666
 30
0.0
 11
-605.32287890960549
 21
846.89156307152666
 31
0.0
  0
LINE
  5
8F0
  8
0
  6
BYBLOCK
 10
-607.32287890960561
 20
849.39156307152666
 30
0.0
 11
-607.32287890960561
 21
846.89156307152666
 31
0.0
  0
LINE
  5
8F1
  8
0
  6
BYBLOCK
 10
-608.32287890960561
 20
849.39156307152666
 30
0.0
 11
-608.32287890960561
 21
846.89156307152666
 31
0.0
  0
LINE
  5
8F2
  8
0
  6
BYBLOCK
 10
-603.32287890960561
 20
849.39156307152666
 30
0.0
 11
-603.32287890960561
 21
846.89156307152666
 31
0.0
  0
LINE
  5
8F3
  8
0
  6
BYBLOCK
 10
-604.32287890960561
 20
849.39156307152666
 30
0.0
 11
-604.32287890960561
 21
846.89156307152666
 31
0.0
  0
LINE
  5
8F4
  8
0
 10
-616.32287890960561
 20
848.89156307152666
 30
0.0
 11
-615.82287890960561
 21
849.39156307152666
 31
0.0
  0
LINE
  5
8F5
  8
0
  6
BYBLOCK
 10
-614.32287890960561
 20
849.39156307152666
 30
0.0
 11
-614.32287890960561
 21
846.89156307152666
 31
0.0
  0
LINE
  5
8F6
  8
0
  6
BYBLOCK
 10
-615.32287890960561
 20
849.39156307152666
 30
0.0
 11
-615.32287890960561
 21
846.89156307152666
 31
0.0
  0
LINE
  5
8F7
  8
0
  6
BYBLOCK
 10
-616.32287890960561
 20
848.89156307152666
 30
0.0
 11
-616.32287890960561
 21
846.89156307152666
 31
0.0
  0
LINE
  5
8F8
  8
0
 10
-599.9792214603774
 20
849.39156307152666
 30
0.0
 11
-615.82287890960561
 21
849.39156307152666
 31
0.0
  0
LINE
  5
8F9
  8
CENTER
  6
CENTER
 10
-606.32287890960561
 20
853.4953781364635
 30
0.0
 11
-606.32287890960561
 21
835.75901216105626
 31
0.0
  0
LINE
  5
8FA
  8
0
  6
BYBLOCK
 10
-606.32287890960561
 20
851.11898019554053
 30
0.0
 11
-606.32287890960561
 21
848.61898019554042
 31
0.0
  0
LINE
  5
8FB
  8
0
  6
BYBLOCK
 10
-583.12922146037749
 20
846.89156307152666
 30
0.0
 11
-597.82922146037731
 21
846.89156307152666
 31
0.0
  0
ARC
  5
8FC
  8
0
  6
BYBLOCK
 10
-582.81271664956478
 20
845.94297216669338
 30
0.0
 40
1.0
 50
108.4516817731766
 51
180.0
  0
LINE
  5
8FD
  8
0
  6
BYBLOCK
 10
-597.9792214603774
 20
849.89156307152655
 30
0.0
 11
-582.9792214603774
 21
849.89156307152655
 31
0.0
  0
LINE
  5
8FE
  8
0
  6
BYBLOCK
 10
-583.81271664956489
 20
845.94297216669338
 30
0.0
 11
-583.81271664956489
 21
836.1414812527355
 31
0.0
  0
LINE
  5
8FF
  8
0
 10
-584.97922146037729
 20
911.22292949673079
 30
0.0
 11
-584.97922146037729
 21
905.22292949673067
 31
0.0
  0
LINE
  5
900
  8
0
 10
-600.27922146037713
 20
906.22292949673067
 30
0.0
 11
-598.54717065280852
 21
905.22292949673067
 31
0.0
  0
LINE
  5
901
  8
0
 10
-595.9792214603774
 20
911.22292949673079
 30
0.0
 11
-595.9792214603774
 21
905.22292949673067
 31
0.0
  0
ARC
  5
902
  8
0
 10
-593.4214925303844
 20
861.89156307152666
 30
0.0
 40
2.9999999999999991
 50
90.0
 51
165.20750295859861
  0
ARC
  5
903
  8
0
 10
-587.53695039037018
 20
861.89156307152666
 30
0.0
 40
2.9999999999999991
 50
14.79249704140161
 51
90.0
  0
LINE
  5
904
  8
0
 10
-587.53695039037018
 20
864.89156307152666
 30
0.0
 11
-593.4214925303844
 21
864.89156307152666
 31
0.0
  0
ARC
  5
905
  8
0
 10
-601.9792214603774
 20
904.22292949673079
 30
0.0
 40
1.0
 50
90.0
 51
180.0
  0
ARC
  5
906
  8
0
 10
-603.9792214603774
 20
897.22292949673067
 30
0.0
 40
1.0
 50
270.00000000000023
 51
0.0
  0
LINE
  5
907
  8
0
 10
-611.01062720339417
 20
896.22292949673079
 30
0.0
 11
-603.9792214603774
 21
896.22292949673079
 31
0.0
  0
ARC
  5
908
  8
0
 10
-611.01062720339417
 20
895.22292949673079
 30
0.0
 40
1.0
 50
90.000000000000185
 51
178.17203175569489
  0
LINE
  5
909
  8
0
 10
-612.01011831189658
 20
895.25482814912971
 30
0.0
 11
-612.30951980970178
 21
885.87358121790044
 31
0.0
  0
LINE
  5
90A
  8
0
 10
-602.9792214603774
 20
904.22292949673079
 30
0.0
 11
-602.9792214603774
 21
897.22292949673067
 31
0.0
  0
LINE
  5
90B
  8
0
 10
-598.54717065280852
 20
905.22292949673067
 30
0.0
 11
-582.41127226794629
 21
905.22292949673067
 31
0.0
  0
LINE
  5
90C
  8
0
 10
-585.4792214603774
 20
934.72691505872388
 30
0.0
 11
-585.4792214603774
 21
925.72691505872388
 31
0.0
  0
LINE
  5
90D
  8
0
 10
-595.4792214603774
 20
934.72691505872388
 30
0.0
 11
-595.4792214603774
 21
925.72691505872388
 31
0.0
  0
LINE
  5
90E
  8
0
 10
-600.27922146037713
 20
910.22292949673079
 30
0.0
 11
-598.54717065280852
 21
911.22292949673079
 31
0.0
  0
LINE
  5
90F
  8
0
 10
-600.27922146037713
 20
910.22292949673079
 30
0.0
 11
-600.27922146037713
 21
906.22292949673067
 31
0.0
  0
LINE
  5
910
  8
0
 10
-585.9792214603774
 20
925.72691505872388
 30
0.0
 11
-585.97922146037763
 21
911.22292949673079
 31
0.0
  0
LINE
  5
911
  8
0
 10
-585.4792214603774
 20
923.72691505872376
 30
0.0
 11
-585.47922146037763
 21
911.22292949673079
 31
0.0
  0
LINE
  5
912
  8
0
 10
-594.9792214603774
 20
925.72691505872388
 30
0.0
 11
-594.97922146037706
 21
911.22292949673079
 31
0.0
  0
LINE
  5
913
  8
0
 10
-595.4792214603774
 20
923.72691505872376
 30
0.0
 11
-595.4792214603774
 21
911.22292949673079
 31
0.0
  0
LINE
  5
914
  8
0
 10
-598.54717065280852
 20
911.22292949673079
 30
0.0
 11
-582.41127226794629
 21
911.22292949673079
 31
0.0
  0
LINE
  5
915
  8
0
 10
-595.4792214603774
 20
925.72691505872388
 30
0.0
 11
-585.4792214603774
 21
925.72691505872388
 31
0.0
  0
LINE
  5
916
  8
0
 10
-595.4792214603774
 20
923.72691505872376
 30
0.0
 11
-585.4792214603774
 21
923.72691505872376
 31
0.0
  0
LINE
  5
917
  8
HIDDEN
  6
HIDDEN
 10
-595.4792214603774
 20
927.72691505872399
 30
0.0
 11
-585.4792214603774
 21
927.72691505872399
 31
0.0
  0
LINE
  5
918
  8
CENTER
  6
CENTER
 10
-596.70715515009601
 20
930.22691505872388
 30
0.0
 11
-584.03256307495451
 21
930.22691505872388
 31
0.0
  0
LINE
  5
919
  8
HIDDEN
  6
HIDDEN
 10
-595.4792214603774
 20
932.72691505872388
 30
0.0
 11
-585.4792214603774
 21
932.72691505872388
 31
0.0
  0
LINE
  5
91A
  8
0
 10
-595.4792214603774
 20
934.72691505872388
 30
0.0
 11
-585.4792214603774
 21
934.72691505872388
 31
0.0
  0
ARC
  5
91B
  8
0
 10
-590.4792214603774
 20
927.1435817253905
 30
0.0
 40
9.083333333333373
 50
56.601511532012807
 51
123.39848846798709
  0
DIMENSION
  5
91C
  8
DIM
  2
*D118
 10
-513.82822935534296
 20
819.71740845929867
 30
0.0
 11
-516.32822935534307
 21
844.97016897801461
 31
0.0
 70
     0
 13
-536.58351571044989
 23
870.22292949673079
 33
0.0
 14
-579.05141592774271
 24
819.71740845929867
 34
0.0
 50
90.0
  0
DIMENSION
  5
929
  8
DIM
  2
*D119
 10
-527.80462867154517
 20
850.22292949673067
 30
0.0
 11
-530.30462867154552
 21
865.22292949673067
 31
0.0
 70
     0
 13
-540.4792214603774
 23
880.22292949673067
 33
0.0
 14
-541.47922146037695
 24
850.22292949673067
 34
0.0
 50
90.0
  0
LINE
  5
936
  8
0
 10
-573.9720929047146
 20
859.75841182123565
 30
0.0
 11
-573.9720929047146
 21
852.77666351547987
 31
0.0
  0
LINE
  5
937
  8
0
 10
-574.3470929047146
 20
859.75841182123565
 30
0.0
 11
-574.3470929047146
 21
853.25711833304194
 31
0.0
  0
LINE
  5
938
  8
0
 10
-575.0970929047146
 20
859.75841182123565
 30
0.0
 11
-575.0970929047146
 21
854.40180794978994
 31
0.0
  0
LINE
  5
939
  8
0
 10
-574.7220929047146
 20
859.75841182123543
 30
0.0
 11
-574.7220929047146
 21
853.67336897863163
 31
0.0
  0
LINE
  5
93A
  8
0
 10
-573.47922146037706
 20
859.75841182123543
 30
0.0
 11
-573.47922146037706
 21
850.75841182123565
 31
0.0
  0
LINE
  5
93B
  8
0
 10
-575.84709290471449
 20
859.75841182123565
 30
0.0
 11
-575.84709290471449
 21
856.48306254324302
 31
0.0
  0
LINE
  5
93C
  8
0
 10
-575.47209290471449
 20
859.75841182123565
 30
0.0
 11
-575.47209290471449
 21
855.39040408650578
 31
0.0
  0
LINE
  5
93D
  8
0
 10
-581.47922146037706
 20
859.75841182123543
 30
0.0
 11
-581.47922146037706
 21
850.75841182123565
 31
0.0
  0
LINE
  5
93E
  8
CENTER
  6
CENTER
 10
-577.47922146037706
 20
861.30667819489645
 30
0.0
 11
-577.47922146037706
 21
833.92857474071832
 31
0.0
  0
LINE
  5
93F
  8
0
  6
BYBLOCK
 10
-540.4792214603774
 20
880.22292949673067
 30
0.0
 11
-540.47922146037695
 21
851.22292949673079
 31
0.0
  0
LINE
  5
940
  8
0
  6
BYBLOCK
 10
-543.47922146037706
 20
880.22292949673067
 30
0.0
 11
-543.47922146037695
 21
854.2229294967309
 31
0.0
  0
LINE
  5
941
  8
0
 10
-568.64892311105314
 20
885.87358121790044
 30
0.0
 11
-567.67071082207963
 21
855.22292949673067
 31
0.0
  0
LINE
  5
942
  8
0
  6
ASULTYPE
 10
-550.47922146037729
 20
811.89156307152666
 30
0.0
 11
-550.47922146037729
 21
806.89156307152666
 31
0.0
  0
ARC
  5
943
  8
0
 10
-574.07379708794417
 20
772.12082507843866
 30
0.0
 40
10.34682116081626
 50
12.67745793307256
 51
63.636995241665161
  0
ARC
  5
944
  8
0
 10
-569.4792214603774
 20
774.39156307152666
 30
0.0
 40
7.0
 50
0.000000000000007
 51
180.0
  0
ARC
  5
945
  8
0
 10
-564.9792214603774
 20
798.89156307152655
 30
0.0
 40
0.5
 50
0.000000000000007
 51
89.999999999999673
  0
ARC
  5
946
  8
0
 10
-574.9792214603774
 20
798.89156307152666
 30
0.0
 40
0.5
 50
0.000000000000007
 51
90.0
  0
ARC
  5
947
  8
0
 10
-568.9792214603774
 20
798.89156307152666
 30
0.0
 40
0.5
 50
89.999999999999275
 51
180.0000000000002
  0
LINE
  5
948
  8
0
 10
-564.9792214603774
 20
799.39156307152655
 30
0.0
 11
-568.9792214603774
 21
799.39156307152666
 31
0.0
  0
ARC
  5
949
  8
0
 10
-578.9792214603774
 20
798.89156307152666
 30
0.0
 40
0.5
 50
90.0
 51
179.9999999999998
  0
LINE
  5
94A
  8
0
 10
-574.9792214603774
 20
799.39156307152666
 30
0.0
 11
-578.9792214603774
 21
799.39156307152666
 31
0.0
  0
ARC
  5
94B
  8
0
 10
-570.4792214603774
 20
792.09199033613743
 30
0.0
 40
1.0
 50
270.0
 51
0.000000000000007
  0
ARC
  5
94C
  8
0
 10
-573.4792214603774
 20
792.09199033613743
 30
0.0
 40
1.0
 50
180.0
 51
270.0
  0
ARC
  5
94D
  8
0
 10
-580.47922146037729
 20
792.09199033613743
 30
0.0
 40
1.0
 50
270.0
 51
0.000000000000007
  0
LINE
  5
94E
  8
0
 10
-579.4792214603774
 20
792.09199033613743
 30
0.0
 11
-579.4792214603774
 21
804.39156307152655
 31
0.0
  0
LINE
  5
94F
  8
0
 10
-574.4792214603774
 20
792.09199033613743
 30
0.0
 11
-574.4792214603774
 21
798.89156307152666
 31
0.0
  0
LINE
  5
950
  8
0
 10
-579.4792214603774
 20
792.09199033613743
 30
0.0
 11
-579.4792214603774
 21
798.89156307152666
 31
0.0
  0
LINE
  5
951
  8
0
 10
-569.4792214603774
 20
792.09199033613743
 30
0.0
 11
-569.4792214603774
 21
798.89156307152666
 31
0.0
  0
ARC
  5
952
  8
0
 10
-551.47922146037729
 20
791.50566608431632
 30
0.0
 40
1.0
 50
315.05261361431661
 51
0.000000000000007
  0
LINE
  5
953
  8
0
  6
BYBLOCK
 10
-550.47922146037729
 20
804.39156307152678
 30
0.0
 11
-550.47922146037729
 21
791.50566608431632
 31
0.0
  0
ARC
  5
956
  8
0
 10
-558.97922146037729
 20
798.89156307152666
 30
0.0
 40
0.5
 50
90.0
 51
179.9999999999998
  0
ARC
  5
957
  8
0
 10
-554.97922146037729
 20
798.89156307152666
 30
0.0
 40
0.5
 50
359.99999999999972
 51
89.999999999999659
  0
LINE
  5
958
  8
0
 10
-554.97922146037729
 20
799.39156307152666
 30
0.0
 11
-558.97922146037729
 21
799.39156307152666
 31
0.0
  0
ARC
  5
959
  8
0
 10
-557.24164101253029
 20
784.6984644081441
 30
0.0
 40
1.5
 50
135.05261361431661
 51
179.4462503884244
  0
ARC
  5
95A
  8
0
 10
-560.4792214603774
 20
792.09199033613743
 30
0.0
 40
1.0
 50
270.0
 51
0.000000000000007
  0
ARC
  5
95B
  8
0
 10
-563.47922146037729
 20
792.09199033613743
 30
0.0
 40
1.0
 50
180.0
 51
270.0
  0
ARC
  5
95C
  8
0
 10
-553.4792214603774
 20
792.09199033613743
 30
0.0
 40
1.0
 50
179.9999999999996
 51
270.0
  0
LINE
  5
95D
  8
0
 10
-564.4792214603774
 20
792.09199033613743
 30
0.0
 11
-564.4792214603774
 21
798.89156307152655
 31
0.0
  0
LINE
  5
95E
  8
0
 10
-559.47922146037729
 20
792.09199033613743
 30
0.0
 11
-559.47922146037729
 21
798.89156307152666
 31
0.0
  0
LINE
  5
95F
  8
0
 10
-554.4792214603774
 20
792.09199033613743
 30
0.0
 11
-554.4792214603774
 21
798.89156307152666
 31
0.0
  0
LINE
  5
960
  8
0
  6
BYBLOCK
 10
-552.9792214603774
 20
806.89156307152666
 30
0.0
 11
-552.9792214603774
 21
804.39156307152678
 31
0.0
  0
LINE
  5
961
  8
0
 10
-550.77146565483076
 20
790.79920892375014
 30
0.0
 11
-558.30327472085048
 21
785.75815014899308
 31
0.0
  0
LINE
  5
962
  8
0
  6
BYBLOCK
 10
-565.07922146037731
 20
853.22292949673079
 30
0.0
 11
-544.47922146037695
 21
853.22292949673079
 31
0.0
  0
LINE
  5
963
  8
0
  6
BYBLOCK
 10
-547.67071082207963
 20
849.72292949673079
 30
0.0
 11
-547.47922145717735
 21
839.6846665211267
 31
0.0
  0
LINE
  5
964
  8
0
  6
BYBLOCK
 10
-547.97922146037706
 20
850.22292949673067
 30
0.0
 11
-541.47922146037695
 21
850.2229294967309
 31
0.0
  0
LINE
  5
965
  8
0
 10
-547.47922145717735
 20
833.75363203792665
 30
0.0
 11
-577.10696357170036
 21
833.75363203792676
 31
0.0
  0
LINE
  5
966
  8
0
  6
BYBLOCK
 10
-550.47922146037729
 20
811.89156307152666
 30
0.0
 11
-550.47922146037729
 21
833.75363203792665
 31
0.0
  0
ARC
  5
967
  8
0
  6
ASULTYPE
 10
-576.97922146037706
 20
831.99136386754901
 30
0.0
 40
1.5
 50
0.000000000000007
 51
61.726286368634909
  0
LINE
  5
968
  8
0
  6
ASULTYPE
 10
-571.47922146037729
 20
846.39156307152678
 30
0.0
 11
-571.47922146037729
 21
816.89156307152678
 31
0.0
  0
LINE
  5
969
  8
0
  6
ASULTYPE
 10
-557.9792214603774
 20
818.89156307152678
 30
0.0
 11
-567.97922146037729
 21
818.89156307152678
 31
0.0
  0
LINE
  5
96A
  8
0
  6
ASULTYPE
 10
-551.47922146037729
 20
812.89156307152666
 30
0.0
 11
-574.4792214603774
 21
812.89156307152666
 31
0.0
  0
ARC
  5
96B
  8
0
  6
ASULTYPE
 10
-567.97922146037729
 20
817.89156307152678
 30
0.0
 40
1.0
 50
90.0
 51
180.0
  0
ARC
  5
96C
  8
0
  6
ASULTYPE
 10
-574.4792214603774
 20
813.89156307152666
 30
0.0
 40
1.0
 50
180.0
 51
270.0
  0
LINE
  5
96D
  8
0
  6
ASULTYPE
 10
-571.47922146037729
 20
816.89156307152678
 30
0.0
 11
-575.47922146037729
 21
816.89156307152678
 31
0.0
  0
LINE
  5
96E
  8
0
  6
ASULTYPE
 10
-570.4792214603774
 20
815.89156307152666
 30
0.0
 11
-570.4792214603774
 21
812.89156307152666
 31
0.0
  0
ARC
  5
96F
  8
0
  6
ASULTYPE
 10
-571.47922146037729
 20
815.89156307152666
 30
0.0
 40
1.0
 50
0.0000000000000579
 51
90.0
  0
LINE
  5
970
  8
0
  6
ASULTYPE
 10
-568.9792214603774
 20
817.89156307152678
 30
0.0
 11
-568.9792214603774
 21
812.89156307152666
 31
0.0
  0
LINE
  5
971
  8
0
  6
ASULTYPE
 10
-575.47922146037729
 20
831.99136386754901
 30
0.0
 11
-575.47922146037729
 21
813.89156307152666
 31
0.0
  0
ARC
  5
972
  8
0
  6
ASULTYPE
 10
-551.47922146037729
 20
811.89156307152666
 30
0.0
 40
1.0
 50
0.000000000000007
 51
90.0
  0
ARC
  5
973
  8
0
  6
ASULTYPE
 10
-557.9792214603774
 20
817.89156307152678
 30
0.0
 40
1.0
 50
0.000000000000007
 51
90.0
  0
LINE
  5
974
  8
0
  6
ASULTYPE
 10
-556.97922146037706
 20
817.89156307152678
 30
0.0
 11
-556.97922146037706
 21
812.89156307152666
 31
0.0
  0
LINE
  5
975
  8
0
 10
-567.67071082207963
 20
855.22292949673067
 30
0.0
 11
-561.67071082207963
 21
850.22292949673067
 31
0.0
  0
LINE
  5
976
  8
0
 10
-573.47922146037706
 20
850.75841182123565
 30
0.0
 11
-573.97922146037706
 21
850.25841182123565
 31
0.0
  0
LINE
  5
977
  8
0
 10
-581.47922146037706
 20
850.75841182123565
 30
0.0
 11
-580.97922146037706
 21
850.25841182123565
 31
0.0
  0
LINE
  5
978
  8
0
 10
-573.97922146037706
 20
850.25841182123565
 30
0.0
 11
-580.97922146037706
 21
850.25841182123565
 31
0.0
  0
LINE
  5
979
  8
0
 10
-573.47922146037706
 20
850.75841182123565
 30
0.0
 11
-581.47922146037706
 21
850.75841182123565
 31
0.0
  0
LINE
  5
97B
  8
0
  6
BYBLOCK
 62
     0
 10
-574.52922146037713
 20
846.89156307152666
 30
0.0
 11
-574.52922146037713
 21
848.25841182123565
 31
0.0
  0
ARC
  5
97C
  8
0
  6
ASULTYPE
 10
-571.97922146037718
 20
846.39156307152678
 30
0.0
 40
0.5
 50
0.000000000000007
 51
90.0
  0
LINE
  5
980
  8
0
 10
-580.97922146037729
 20
849.89156307152678
 30
0.0
 11
-580.97922146037729
 21
846.89156307152666
 31
0.0
  0
LINE
  5
981
  8
0
 10
-574.52922146037713
 20
846.89156307152666
 30
0.0
 11
-580.42922146037722
 21
846.89156307152666
 31
0.0
  0
LINE
  5
982
  8
0
 10
-580.42922146037722
 20
850.25841182123565
 30
0.0
 11
-580.42922146037722
 21
846.89156307152666
 31
0.0
  0
LINE
  5
983
  8
0
 10
-574.52922146037713
 20
850.25841182123565
 30
0.0
 11
-574.52922146037713
 21
846.89156307152666
 31
0.0
  0
LINE
  5
984
  8
0
  6
BYBLOCK
 62
     0
 10
-580.42922146037722
 20
847.55822973819329
 30
0.0
 11
-580.42922146037722
 21
850.25841182123565
 31
0.0
  0
ARC
  5
985
  8
0
 10
-548.17071082207951
 20
849.72292949673079
 30
0.0
 40
0.5
 50
0.0000000000002036
 51
90.0
  0
LINE
  5
986
  8
0
 10
-561.67071082207963
 20
850.22292949673067
 30
0.0
 11
-548.17071082207951
 21
850.22292949673067
 31
0.0
  0
ARC
  5
987
  8
0
  6
BYBLOCK
 10
-541.47922146037695
 20
851.22292949673079
 30
0.0
 40
1.0
 50
270.0000000000004
 51
0.0000000000008651
  0
ARC
  5
988
  8
0
  6
BYBLOCK
 10
-544.47922146037695
 20
854.22292949673079
 30
0.0
 40
1.0
 50
270.00000000000011
 51
0.0000000000004834
  0
LINE
  5
989
  8
0
 10
-547.47922145717735
 20
839.6846665211267
 30
0.0
 11
-547.47922145717735
 21
833.75363203792676
 31
0.0
  0
LINE
  5
98A
  8
0
 10
-573.97922146037706
 20
860.25841182123554
 30
0.0
 11
-576.87922146037704
 21
860.25841182123554
 31
0.0
  0
LINE
  5
98B
  8
0
 10
-576.87922146037704
 20
860.25841182123554
 30
0.0
 11
-576.87922146037704
 21
858.75841182123554
 31
0.0
  0
LINE
  5
98D
  8
0
 10
-573.47922146037706
 20
859.75841182123543
 30
0.0
 11
-576.87922146037704
 21
859.75841182123543
 31
0.0
  0
LINE
  5
98E
  8
0
 10
-573.97922146037706
 20
860.25841182123554
 30
0.0
 11
-573.47922146037706
 21
859.75841182123543
 31
0.0
  0
LINE
  5
98F
  8
0
 10
-580.97922146037706
 20
860.25841182123554
 30
0.0
 11
-581.47922146037706
 21
859.75841182123543
 31
0.0
  0
LINE
  5
990
  8
0
 10
-578.0792214603772
 20
860.25841182123554
 30
0.0
 11
-578.0792214603772
 21
858.75841182123554
 31
0.0
  0
LINE
  5
991
  8
0
 10
-578.0792214603772
 20
860.25841182123554
 30
0.0
 11
-580.97922146037706
 21
860.25841182123554
 31
0.0
  0
LINE
  5
992
  8
0
 10
-578.0792214603772
 20
859.75841182123543
 30
0.0
 11
-581.47922146037706
 21
859.75841182123543
 31
0.0
  0
LINE
  5
996
  8
0
 10
-576.87922146037704
 20
858.75841182123554
 30
0.0
 11
-578.0792214603772
 21
858.75841182123554
 31
0.0
  0
ARC
  5
997
  8
0
 10
-578.9792214603774
 20
904.22292949673079
 30
0.0
 40
1.0
 50
0.0
 51
89.999999999999915
  0
ARC
  5
998
  8
0
 10
-576.9792214603774
 20
897.22292949673067
 30
0.0
 40
1.0
 50
180.0
 51
270.0
  0
LINE
  5
999
  8
0
 10
-576.9792214603774
 20
896.22292949673079
 30
0.0
 11
-569.94781571736053
 21
896.22292949673079
 31
0.0
  0
ARC
  5
99A
  8
0
 10
-569.94781571736053
 20
895.22292949673079
 30
0.0
 40
1.0
 50
1.827968244305014
 51
90.0
  0
LINE
  5
99B
  8
0
 10
-568.94832460885823
 20
895.25482814912971
 30
0.0
 11
-568.64892311105314
 21
885.87358121790044
 31
0.0
  0
LINE
  5
99C
  8
0
 10
-577.9792214603774
 20
904.22292949673079
 30
0.0
 11
-577.9792214603774
 21
897.22292949673067
 31
0.0
  0
LINE
  5
99D
  8
0
  6
BYBLOCK
 10
-540.4792214603774
 20
880.22292949673067
 30
0.0
 11
-543.47922146037706
 21
880.22292949673067
 31
0.0
  0
LINE
  5
99E
  8
CENTER
  6
CENTER
 10
-536.58351571044989
 20
870.22292949673079
 30
0.0
 11
-547.44691111223494
 21
870.22292949673079
 31
0.0
  0
LINE
  5
99F
  8
0
  6
BYBLOCK
 10
-540.47922146037706
 20
865.72292949673079
 30
0.0
 11
-543.47922146037695
 21
865.72292949673079
 31
0.0
  0
LINE
  5
9A0
  8
0
  6
BYBLOCK
 10
-540.4792214603774
 20
874.72292949673079
 30
0.0
 11
-543.47922146037706
 21
874.72292949673079
 31
0.0
  0
LINE
  5
9A1
  8
0
 10
-580.67922146037722
 20
910.22292949673079
 30
0.0
 11
-580.67922146037722
 21
906.22292949673067
 31
0.0
  0
LINE
  5
15A1
  8
0
 10
-866.36160242715346
 20
884.06200998253075
 30
0.0
 11
-858.37224072502602
 21
884.06200998253075
 31
0.0
  0
TEXT
  5
1786
  8
LOGO
 62
     6
 10
-532.1202448254636
 20
545.33572206721453
 30
0.0
 40
13.65478780528602
  1
配管口徑
 41
0.9
  7
CHINESET
 72
     4
 11
-507.41361314027409
 21
552.16311596985759
 31
0.0
  0
LINE
  5
1787
  8
LOGO
 62
     6
 10
-472.15282359481199
 20
526.56038883494625
 30
0.0
 11
-542.67440268573614
 21
526.56038883494614
 31
0.0
  0
LINE
  5
1788
  8
LOGO
 62
     6
 10
-472.15282359481199
 20
564.11105529948293
 30
0.0
 11
-542.67440268573614
 21
564.11105529948293
 31
0.0
  0
TEXT
  5
1789
  8
LOGO
  6
CONTINUOUS
 62
     6
 10
-530.82182080647874
 20
530.82751002409805
 30
0.0
 40
8.5342423783037642
  1
Bore size
 41
0.8
  7
CHINESET
 72
     4
 11
-507.41361314027409
 21
535.09463121324995
 31
0.0
  0
TEXT
  5
178A
  8
LOGO
  6
CONTINUOUS
 62
     7
 10
-519.63789892630632
 20
586.10652779040015
 30
0.0
 40
17.068484756607528
  1
?A
  7
CHINESET
 72
     1
 11
-505.8205541233383
 21
594.64077016870385
 31
0.0
 73
     2
  0
LINE
  5
178B
  8
LOGO
 62
     6
 10
-478.9802174974551
 20
610.19596414232308
 30
0.0
 11
-535.84700878309297
 21
610.19596414232308
 31
0.0
  0
LINE
  5
178C
  8
LOGO
 62
     6
 10
-478.9802174974551
 20
579.47269158042945
 30
0.0
 11
-535.84700878309297
 21
579.47269158042968
 31
0.0
  0
LINE
  5
178D
  8
LOGO
 62
     1
 10
-466.22715244439809
 20
620.43705499628766
 30
0.0
 11
-1051.1316155134971
 21
620.43705499628766
 31
0.0
  0
LINE
  5
178E
  8
LOGO
 62
     1
 10
-466.22715244439809
 20
518.02614645664255
 30
0.0
 11
-1051.1316155134971
 21
518.02614645664255
 31
0.0
  0
LINE
  5
178F
  8
LOGO
  6
CONTINUOUS
 62
     6
 10
-856.41322206692541
 20
593.21964579492089
 30
0.0
 11
-837.77216871867415
 21
595.68190660059122
 31
0.0
  0
LINE
  5
1790
  8
LOGO
  6
CONTINUOUS
 62
     6
 10
-856.41322206692541
 20
586.25173061042562
 30
0.0
 11
-837.77216871867415
 21
583.78946980475507
 31
0.0
  0
LINE
  5
1791
  8
LOGO
 62
     1
 10
-825.82761672627805
 20
599.95487328835861
 30
0.0
 11
-976.0302825844243
 21
599.95487328835861
 31
0.0
  0
LINE
  5
1792
  8
LOGO
 62
     1
 10
-825.82761672627805
 20
579.47269158042968
 30
0.0
 11
-976.0302825844243
 21
579.47269158042968
 31
0.0
  0
TEXT
  5
1793
  8
LOGO
 62
     6
 10
-878.73823085172535
 20
605.07541871534079
 30
0.0
 40
10.24109085396451
  1
1 : 1
  7
CHINESET
 72
     1
 11
-860.69440410902598
 21
610.19596414232308
 31
0.0
 73
     2
  0
TEXT
  5
1794
  8
LOGO
 62
     6
 10
-878.73823085172535
 20
564.1110552994827
 30
0.0
 40
10.24109085396451
  1
m/m
  7
CHINESET
 72
     1
 11
-860.69440410902598
 21
569.2316007264651
 31
0.0
 73
     2
  0
LINE
  5
1795
  8
LOGO
 62
     1
 10
-825.82761672627805
 20
558.99050987250075
 30
0.0
 11
-1051.1316155134971
 21
558.99050987250075
 31
0.0
  0
TEXT
  5
1796
  8
LOGO
  6
CONTINUOUS
 62
     5
 10
-1047.7795335653291
 20
538.14461488771917
 30
0.0
 40
15.361636280946771
  1
金器工業股份有限公司
 41
0.8
  7
LOGO
  0
TEXT
  5
1797
  8
LOGO
  6
CONTINUOUS
 62
     5
 10
-1043.380887460024
 20
522.77996893046009
 30
0.0
 40
10.24109085396451
  1
MINDMAN INDUSTRIAL CO.,LTD
 41
0.85
  7
CHINESET
  0
SOLID
  5
1798
  8
LOGO
 62
     5
 10
-1040.5063193955009
 20
576.01486571272153
 30
0.0
 11
-1036.0783404364711
 21
576.01486571271994
 31
0.0
 12
-1017.602979952239
 22
618.00432135869858
 32
0.0
 13
-1013.17500099321
 23
618.00432135869585
 33
0.0
  0
SOLID
  5
1799
  8
LOGO
 62
     5
 10
-1034.2460732810071
 20
576.01486571272153
 30
0.0
 11
-1029.8180943219779
 21
576.01486571272153
 31
0.0
 12
-1013.17500099321
 22
614.64516490701908
 32
0.0
 13
-1017.602979952239
 23
598.4092420572407
 33
0.0
  0
SOLID
  5
179A
  8
LOGO
 62
     2
 10
-1036.0783404364711
 20
576.01486571271994
 30
0.0
 11
-1034.2460732810071
 21
576.01486571272153
 31
0.0
 12
-1013.17500099321
 22
618.00432135869585
 32
0.0
 13
-1011.342733837748
 23
618.00432135869585
 33
0.0
  0
SOLID
  5
179B
  8
LOGO
 62
     5
 10
-1035.9519987444139
 20
568.38041923163428
 30
0.0
 11
-1034.425109448199
 21
568.38041923163428
 31
0.0
 12
-1035.9519987444139
 22
560.74597275054896
 32
0.0
 13
-1034.425109448199
 23
560.74597275054896
 33
0.0
  0
SOLID
  5
179C
  8
LOGO
 62
     5
 10
-1047.6054555402779
 20
560.74597275054896
 30
0.0
 11
-1046.0785662440601
 21
560.74597275054896
 31
0.0
 12
-1041.778727142347
 22
568.38041923163428
 32
0.0
 13
-1040.2518378461309
 23
568.38041923163428
 33
0.0
  0
SOLID
  5
179D
  8
LOGO
 62
     5
 10
-1041.778727142347
 20
568.38041923163428
 30
0.0
 11
-1040.2518378461309
 21
568.38041923163428
 31
0.0
 12
-1041.778727142347
 22
560.74597275054896
 32
0.0
 13
-1040.2518378461309
 23
560.74597275054896
 33
0.0
  0
SOLID
  5
179E
  8
LOGO
 62
     5
 10
-1041.778727142347
 20
560.74597275054896
 30
0.0
 11
-1040.2518378461309
 21
560.74597275054896
 31
0.0
 12
-1035.9519987444139
 22
568.38041923163428
 32
0.0
 13
-1034.425109448199
 23
568.38041923163428
 33
0.0
  0
LINE
  5
179F
  8
LOGO
 62
     1
 10
-1051.1316155134971
 20
518.02614645664255
 30
0.0
 11
-1051.1316155134971
 21
620.43705499628766
 31
0.0
  0
TEXT
  5
17A0
  8
LOGO
 62
     6
 10
-967.5859545454631
 20
605.0804586222572
 30
0.0
 40
10.24109085396451
  1
比例 Scale:
 41
0.9
  7
CHINESET
 72
     4
 11
-935.06591916856587
 21
610.19596414232308
 31
0.0
  0
TEXT
  5
17A1
  8
LOGO
 62
     6
 10
-964.0061446621354
 20
584.73729434677
 30
0.0
 40
10.24109085396451
  1
投影 View:
 41
0.9
  7
CHINESET
 72
     4
 11
-935.06591916856587
 21
589.71378243439403
 31
0.0
  0
TEXT
  5
17A2
  8
LOGO
 62
     6
 10
-963.00489515453785
 20
564.1110552994827
 30
0.0
 40
10.24109085396451
  1
單位 Unit:
 41
0.9
  7
CHINESET
 72
     4
 11
-935.06591916856587
 21
569.2316007264651
 31
0.0
  0
POLYLINE
  5
17A3
  8
LOGO
 62
     5
 66
     1
 10
0.0
 20
0.0
 30
0.0
 70
     1
 40
1.529336234192034
 41
1.529336234192034
  0
VERTEX
  5
1973
  8
LOGO
 62
     5
 10
-998.77613738222362
 20
564.56319599109111
 30
0.0
 42
1.0
  0
VERTEX
  5
1974
  8
LOGO
 62
     5
 10
-992.65879244545556
 20
564.56319599109111
 30
0.0
 42
1.0
  0
SEQEND
  5
1975
  8
LOGO
 62
     5
  0
LINE
  5
17A4
  8
LOGO
 62
     5
 10
-984.01141543545918
 20
560.74597275054896
 30
0.0
 11
-984.01141543545918
 21
565.32664063919958
 31
0.0
  0
SOLID
  5
17A5
  8
LOGO
 62
     5
 10
-993.42728365843959
 20
568.38041923163428
 30
0.0
 11
-991.90039436222378
 21
568.38041923163428
 31
0.0
 12
-993.42728365843959
 22
560.74597275054896
 32
0.0
 13
-991.90039436222378
 23
560.74597275054896
 33
0.0
  0
SOLID
  5
17A6
  8
LOGO
 62
     5
 10
-990.11897262032858
 20
560.74597275054896
 30
0.0
 11
-988.59208332411015
 21
560.74597275054896
 31
0.0
 12
-990.11897262032858
 22
568.38041923163428
 32
0.0
 13
-988.59208332411015
 23
568.38041923163428
 33
0.0
  0
SOLID
  5
17A7
  8
LOGO
 62
     5
 10
-985.53830473167488
 20
565.32664063919958
 30
0.0
 11
-984.01141543545918
 21
565.32664063919947
 31
0.0
 12
-985.53830473167488
 22
560.74597275054896
 32
0.0
 13
-984.01141543545918
 23
560.74597275054896
 33
0.0
  0
SOLID
  5
17A8
  8
LOGO
 62
     5
 10
-1015.312798696842
 20
570.67075317596118
 30
0.0
 11
-1013.785909400626
 21
570.67075317596118
 31
0.0
 12
-1015.312798696842
 22
560.74597275054896
 32
0.0
 13
-1013.785909400626
 23
560.74597275054896
 33
0.0
  0
SOLID
  5
17A9
  8
LOGO
 62
     5
 10
-1012.004487658727
 20
568.38041923163428
 30
0.0
 11
-1010.477598362511
 21
568.38041923163428
 31
0.0
 12
-1012.004487658727
 22
560.74597275054896
 32
0.0
 13
-1010.477598362511
 23
560.74597275054896
 33
0.0
  0
SOLID
  5
17AA
  8
LOGO
 62
     5
 10
-1007.423819770076
 20
565.32664063919958
 30
0.0
 11
-1005.89693047386
 21
565.32664063919958
 31
0.0
 12
-1007.423819770076
 22
560.74597275054896
 32
0.0
 13
-1005.89693047386
 23
560.74597275054896
 33
0.0
  0
SOLID
  5
17AB
  8
LOGO
 62
     5
 10
-1002.843151881425
 20
565.32664063919958
 30
0.0
 11
-1001.31626258521
 21
565.32664063919958
 31
0.0
 12
-1002.843151881425
 22
560.74597275054612
 32
0.0
 13
-1001.31626258521
 23
560.74597275054612
 33
0.0
  0
LINE
  5
17AC
  8
LOGO
 62
     1
 10
-976.0302825844243
 20
558.99050987250064
 30
0.0
 11
-976.0302825844243
 21
620.43705499628766
 31
0.0
  0
SOLID
  5
17AD
  8
LOGO
 62
     5
 10
-1029.3093348084781
 20
568.38041923163428
 30
0.0
 11
-1027.782445512262
 21
568.38041923163428
 31
0.0
 12
-1029.3093348084781
 22
560.74597275054896
 32
0.0
 13
-1027.782445512262
 23
560.74597275054896
 33
0.0
  0
SOLID
  5
17AE
  8
LOGO
 62
     5
 10
-1024.7286669198279
 20
565.32664063919958
 30
0.0
 11
-1023.201777623609
 21
565.32664063919958
 31
0.0
 12
-1024.7286669198279
 22
560.74597275054896
 32
0.0
 13
-1023.201777623609
 23
560.74597275054896
 33
0.0
  0
SOLID
  5
17AF
  8
LOGO
 62
     5
 10
-1032.6176458465929
 20
568.38041923163428
 30
0.0
 11
-1031.090756550373
 21
568.38041923163428
 31
0.0
 12
-1032.6176458465929
 22
560.74597275054612
 32
0.0
 13
-1031.090756550373
 23
560.74597275054896
 33
0.0
  0
POLYLINE
  5
17B0
  8
LOGO
 62
     5
 66
     1
 10
0.0
 20
0.0
 30
0.0
 70
     1
 40
1.529336234192034
 41
1.529336234192034
  0
VERTEX
  5
1976
  8
LOGO
 62
     5
 10
-1020.661652420625
 20
564.56319599109111
 30
0.0
 42
1.0
  0
VERTEX
  5
1977
  8
LOGO
 62
     5
 10
-1014.544307483857
 20
564.56319599109111
 30
0.0
 42
1.0
  0
SEQEND
  5
1978
  8
LOGO
 62
     5
  0
POLYLINE
  5
17B1
  8
LOGO
 62
     5
 66
     1
 10
0.0
 20
0.0
 30
0.0
 40
1.529336234192034
 41
1.529336234192034
  0
VERTEX
  5
1979
  8
LOGO
 62
     5
 10
-984.77118967660442
 20
565.32664063919958
 30
0.0
 42
1.0
  0
VERTEX
  5
197A
  8
LOGO
 62
     5
 10
-989.35919837918073
 20
565.32664063919958
 30
0.0
 42
1.0
  0
SEQEND
  5
197B
  8
LOGO
 62
     5
  0
SOLID
  5
17B2
  8
LOGO
 62
     5
 10
-988.43939439448889
 20
576.01486571271994
 30
0.0
 11
-984.01141543545918
 21
576.01486571271994
 31
0.0
 12
-988.43939439448889
 22
618.00432135869585
 32
0.0
 13
-984.01141543545918
 23
618.00432135869858
 33
0.0
  0
SOLID
  5
17B3
  8
LOGO
 62
     5
 10
-1011.342733837748
 20
618.00432135869585
 30
0.0
 11
-1006.914754878718
 21
618.00432135869858
 31
0.0
 12
-1011.342733837748
 22
579.37402216439807
 32
0.0
 13
-1006.914754878718
 23
595.60994501417656
 33
0.0
  0
SOLID
  5
17B4
  8
LOGO
 62
     5
 10
-1011.342733837748
 20
579.37402216439807
 30
0.0
 11
-1006.914754878718
 21
595.60994501417656
 31
0.0
 12
-990.27166154995098
 22
618.00432135869858
 32
0.0
 13
-994.69964050898125
 23
618.00432135869858
 33
0.0
  0
SOLID
  5
17B5
  8
LOGO
 62
     5
 10
-990.27166154995098
 20
614.64516490701908
 30
0.0
 11
-994.69964050898125
 21
598.4092420572407
 31
0.0
 12
-990.27166154995098
 22
576.01486571271994
 32
0.0
 13
-994.69964050898125
 23
576.01486571271994
 33
0.0
  0
SOLID
  5
17B6
  8
LOGO
 62
     2
 10
-990.27166154995098
 20
618.00432135869858
 30
0.0
 11
-988.43939439448889
 21
618.00432135869585
 31
0.0
 12
-990.27166154995098
 22
576.01486571271994
 32
0.0
 13
-988.43939439448889
 23
576.01486571271994
 33
0.0
  0
SOLID
  5
17B7
  8
LOGO
 62
     5
 10
-1017.602979952239
 20
576.01486571272153
 30
0.0
 11
-1013.17500099321
 21
576.01486571272153
 31
0.0
 12
-1017.602979952239
 22
598.4092420572407
 32
0.0
 13
-1013.17500099321
 23
614.64516490701908
 33
0.0
  0
SOLID
  5
17B8
  8
LOGO
 62
     2
 10
-1013.17500099321
 20
618.00432135869585
 30
0.0
 11
-1011.342733837748
 21
618.00432135869585
 31
0.0
 12
-1013.17500099321
 22
576.01486571272153
 32
0.0
 13
-1011.342733837748
 23
576.01486571272153
 33
0.0
  0
SOLID
  5
17B9
  8
LOGO
 62
     5
 10
-1011.342733837748
 20
576.01486571272153
 30
0.0
 11
-1006.914754878718
 21
576.01486571272153
 31
0.0
 12
-990.27166154995098
 22
614.64516490701908
 32
0.0
 13
-994.69964050898125
 23
598.4092420572407
 33
0.0
  0
SOLID
  5
17BA
  8
LOGO
 62
     2
 10
-1013.17500099321
 20
576.01486571272153
 30
0.0
 11
-1011.342733837748
 21
576.01486571272153
 31
0.0
 12
-990.27166154995098
 22
618.00432135869858
 32
0.0
 13
-988.43939439448889
 23
618.00432135869585
 33
0.0
  0
POLYLINE
  5
17BB
  8
LOGO
 62
     5
 66
     1
 10
0.0
 20
0.0
 30
0.0
 40
1.529336234192034
 41
1.529336234192034
  0
VERTEX
  5
197C
  8
LOGO
 62
     5
 10
-1006.656704715006
 20
565.32664063919958
 30
0.0
 42
1.0
  0
VERTEX
  5
197D
  8
LOGO
 62
     5
 10
-1011.244713417582
 20
565.32664063919958
 30
0.0
 42
1.0
  0
SEQEND
  5
197E
  8
LOGO
 62
     5
  0
POLYLINE
  5
17BC
  8
LOGO
 62
     5
 66
     1
 10
0.0
 20
0.0
 30
0.0
 40
1.529336234192034
 41
1.529336234192034
  0
VERTEX
  5
197F
  8
LOGO
 62
     5
 10
-1023.961551864756
 20
565.32664063919958
 30
0.0
 42
1.0
  0
VERTEX
  5
1980
  8
LOGO
 62
     5
 10
-1028.549560567332
 20
565.32664063919958
 30
0.0
 42
1.0
  0
SEQEND
  5
1981
  8
LOGO
 62
     5
  0
SOLID
  5
17BD
  8
LOGO
 62
     5
 10
-1032.6176458465929
 20
569.44924173898596
 30
0.0
 11
-1031.090756550373
 21
569.44924173898596
 31
0.0
 12
-1032.6176458465929
 22
570.67075317596118
 32
0.0
 13
-1031.090756550373
 23
570.67075317596118
 33
0.0
  0
POLYLINE
  5
17BE
  8
LOGO
 62
     5
 66
     1
 10
0.0
 20
0.0
 30
0.0
 70
     1
  0
VERTEX
  5
1982
  8
LOGO
 62
     5
 10
-998.00779885816507
 20
564.56319599109167
 30
0.0
 42
1.0000000573306349
  0
VERTEX
  5
1983
  8
LOGO
 62
     5
 10
-993.42713096951229
 20
564.56319599109167
 30
0.0
 42
1.0000000573306349
  0
SEQEND
  5
1984
  8
LOGO
 62
     5
  0
CIRCLE
  5
17BF
  8
LOGO
 62
     5
 10
-995.71746491383851
 20
564.56319599109167
 30
0.0
 40
2.290333944325992
  0
POLYLINE
  5
17C0
  8
LOGO
 62
     5
 66
     1
 10
0.0
 20
0.0
 30
0.0
 40
1.529336234192034
 41
1.529336234192034
  0
VERTEX
  5
1985
  8
LOGO
 62
     5
 10
-1002.076036826355
 20
565.32664063919958
 30
0.0
 42
1.0
  0
VERTEX
  5
1986
  8
LOGO
 62
     5
 10
-1006.664045528931
 20
565.32664063919958
 30
0.0
 42
1.0
  0
SEQEND
  5
1987
  8
LOGO
 62
     5
  0
LINE
  5
17C1
  8
LOGO
 62
     1
 10
-894.10155575270801
 20
558.99050987250064
 30
0.0
 11
-894.10155575270801
 21
620.43705499628766
 31
0.0
  0
CIRCLE
  5
17C2
  8
LOGO
  6
CONTINUOUS
 62
     6
 10
-875.13889510119714
 20
589.73568820267315
 30
0.0
 40
5.9462183979180088
  0
CIRCLE
  5
17C3
  8
LOGO
  6
CONTINUOUS
 62
     6
 10
-875.13889510119714
 20
589.73568820267315
 30
0.0
 40
3.4839575922475601
  0
LINE
  5
17C4
  8
LOGO
 62
     6
 10
-856.41322206692519
 20
586.25173061042562
 30
0.0
 11
-856.41322206692541
 21
593.21964579492089
 31
0.0
  0
TEXT
  5
17C5
  8
LOGO
  6
CONTINUOUS
 62
     6
 10
-639.00706391029314
 20
530.82751002409816
 30
0.0
 40
8.5342423783037642
  1
Model
  7
CHINESET
 72
     4
 11
-622.75136414209544
 21
535.09463121325007
 31
0.0
  0
TEXT
  5
17C6
  8
LOGO
  6
CONTINUOUS
 62
     7
 10
-680.25183653653005
 20
586.30008548307239
 30
0.0
 40
17.068484756607528
  1
MACT400
  7
CHINESET
 72
     1
 11
-623.76327984204306
 21
594.83432786137632
 31
0.0
 73
     2
  0
LINE
  5
17C7
  8
LOGO
 62
     6
 10
-560.53677102733559
 20
610.19596414232308
 30
0.0
 11
-684.96595725685495
 21
610.19596414232308
 31
0.0
  0
LINE
  5
17C8
  8
LOGO
 62
     6
 10
-560.53677102733559
 20
579.47269158042968
 30
0.0
 11
-684.96595725685495
 21
579.47269158042968
 31
0.0
  0
LINE
  5
17C9
  8
LOGO
 62
     6
 10
-588.6143946288804
 20
564.11105529948293
 30
0.0
 11
-656.88833365531036
 21
564.11105529948293
 31
0.0
  0
LINE
  5
17CA
  8
LOGO
 62
     6
 10
-588.6143946288804
 20
526.56038883494625
 30
0.0
 11
-656.88833365531036
 21
526.56038883494614
 31
0.0
  0
TEXT
  5
17CB
  8
LOGO
 62
     7
 10
-817.44478325773389
 20
594.79569260554115
 30
0.0
 40
20.48218170792903
  1
訂購代號:
  7
CHINESET
  0
TEXT
  5
17CC
  8
LOGO
 62
     7
 10
-819.89456511050309
 20
575.57257863558925
 30
0.0
 40
13.65478780528602
  1
Order example:
 41
0.8
  7
CHINESET
  0
LINE
  5
17CD
  8
LOGO
 62
     1
 10
-825.82761672627805
 20
518.02614645664255
 30
0.0
 11
-825.82761672627805
 21
620.43705499628766
 31
0.0
  0
LINE
  5
17CE
  8
LOGO
 62
     6
 10
-837.77216871867415
 20
583.78946980475507
 30
0.0
 11
-837.77216871867415
 21
595.68190660059122
 31
0.0
  0
LINE
  5
17CF
  8
LOGO
 62
     6
 10
-656.88833365531036
 20
564.11105529948293
 30
0.0
 11
-656.88833365531036
 21
526.56038883494614
 31
0.0
  0
LINE
  5
17D0
  8
LOGO
 62
     6
 10
-684.96595725685495
 20
610.19596414232308
 30
0.0
 11
-684.96595725685495
 21
579.47269158042968
 31
0.0
  0
LINE
  5
17D1
  8
LOGO
 62
     6
 10
-588.61439462888006
 20
564.11105529948293
 30
0.0
 11
-588.61439462888006
 21
526.56038883494625
 31
0.0
  0
TEXT
  5
17D2
  8
LOGO
 62
     6
 10
-636.40615194738143
 20
545.6851556134128
 30
0.0
 40
13.65478780528602
  1
型式
  7
CHINESET
 72
     4
 11
-622.75136414209544
 21
552.16311596985759
 31
0.0
  0
LINE
  5
17D3
  8
LOGO
 62
     6
 10
-622.75136414209544
 20
579.47269158042968
 30
0.0
 11
-622.75136414209544
 21
564.11105529948293
 31
0.0
  0
LINE
  5
17D4
  8
LOGO
 62
     6
 10
-560.53677102733559
 20
610.19596414232308
 30
0.0
 11
-560.53677102733559
 21
579.47269158042968
 31
0.0
  0
LINE
  5
17D5
  8
LOGO
 62
     6
 10
-542.67440268573614
 20
564.11105529948293
 30
0.0
 11
-542.67440268573614
 21
526.56038883494614
 31
0.0
  0
LINE
  5
17D6
  8
LOGO
  6
CONTINUOUS
 62
     7
 10
-554.7264003883846
 20
594.72550117453784
 30
0.0
 11
-541.16012426745453
 21
594.72550117453784
 31
0.0
  0
LINE
  5
17D7
  8
LOGO
 62
     6
 10
-535.84700878309297
 20
610.19596414232308
 30
0.0
 11
-535.84700878309297
 21
579.47269158042968
 31
0.0
  0
LINE
  5
17D8
  8
LOGO
 62
     6
 10
-506.69062312185639
 20
579.47269158042968
 30
0.0
 11
-506.69062312185639
 21
564.11105529948293
 31
0.0
  0
LINE
  5
17D9
  8
LOGO
 62
     6
 10
-472.15282359481199
 20
564.11105529948293
 30
0.0
 11
-472.15282359481199
 21
526.41879792335283
 31
0.0
  0
LINE
  5
17DA
  8
LOGO
 62
     6
 10
-478.9802174974551
 20
610.19596414232308
 30
0.0
 11
-478.9802174974551
 21
579.47269158042945
 31
0.0
  0
LINE
  5
17DB
  8
LOGO
 62
     1
 10
-466.22715244439809
 20
518.02614645664255
 30
0.0
 11
-466.22715244439809
 21
620.43705499628766
 31
0.0
  0
ENDSEC
  0
EOF
