  0
SECTION
  2
HEADER
  9
$ACADVER
  1
AC1015
  9
$ACADMAINTVER
 70
    20
  9
$DWGCODEPAGE
  3
ANSI_950
  9
$INSBASE
 10
0.0
 20
0.0
 30
0.0
  9
$EXTMIN
 10
133.8327037704092
 20
297.3451822128013
 30
-0.0056823537491937
  9
$EXTMAX
 10
239.2877204940744
 20
442.6304836357608
 30
85.56078091254832
  9
$LIMMIN
 10
0.0
 20
0.0
  9
$LIMMAX
 10
420.0
 20
297.0
  9
$ORTHOMODE
 70
     1
  9
$REGENMODE
 70
     1
  9
$FILLMODE
 70
     1
  9
$QTEXTMODE
 70
     0
  9
$MIRRTEXT
 70
     1
  9
$LTSCALE
 40
1.0
  9
$ATTMODE
 70
     1
  9
$TEXTSIZE
 40
3.0
  9
$TRACEWID
 40
1.0
  9
$TEXTSTYLE
  7
STANDARD
  9
$CLAYER
  8
0
  9
$CELTYPE
  6
ByLayer
  9
$CECOLOR
 62
   256
  9
$CELTSCALE
 40
1.0
  9
$DISPSILH
 70
     0
  9
$DIMSCALE
 40
1.0
  9
$DIMASZ
 40
3.0
  9
$DIMEXO
 40
1.0
  9
$DIMDLI
 40
8.0
  9
$DIMRND
 40
0.0
  9
$DIMDLE
 40
0.0
  9
$DIMEXE
 40
1.0
  9
$DIMTP
 40
0.1
  9
$DIMTM
 40
0.1
  9
$DIMTXT
 40
3.0
  9
$DIMCEN
 40
0.0
  9
$DIMTSZ
 40
0.0
  9
$DIMTOL
 70
     0
  9
$DIMLIM
 70
     0
  9
$DIMTIH
 70
     0
  9
$DIMTOH
 70
     0
  9
$DIMSE1
 70
     0
  9
$DIMSE2
 70
     0
  9
$DIMTAD
 70
     1
  9
$DIMZIN
 70
     8
  9
$DIMBLK
  1

  9
$DIMASO
 70
     1
  9
$DIMSHO
 70
     1
  9
$DIMPOST
  1

  9
$DIMAPOST
  1
"
  9
$DIMALT
 70
     0
  9
$DIMALTD
 70
     2
  9
$DIMALTF
 40
0.0393701
  9
$DIMLFAC
 40
1.0
  9
$DIMTOFL
 70
     1
  9
$DIMTVP
 40
0.0
  9
$DIMTIX
 70
     0
  9
$DIMSOXD
 70
     0
  9
$DIMSAH
 70
     0
  9
$DIMBLK1
  1

  9
$DIMBLK2
  1

  9
$DIMSTYLE
  2
AM_ISO
  9
$DIMCLRD
 70
   256
  9
$DIMCLRE
 70
   256
  9
$DIMCLRT
 70
   256
  9
$DIMTFAC
 40
0.6
  9
$DIMGAP
 40
0.7
  9
$DIMJUST
 70
     0
  9
$DIMSD1
 70
     0
  9
$DIMSD2
 70
     0
  9
$DIMTOLJ
 70
     0
  9
$DIMTZIN
 70
     8
  9
$DIMALTZ
 70
     0
  9
$DIMALTTZ
 70
     0
  9
$DIMUPT
 70
     0
  9
$DIMDEC
 70
     2
  9
$DIMTDEC
 70
     8
  9
$DIMALTU
 70
     2
  9
$DIMALTTD
 70
     2
  9
$DIMTXSTY
  7
STANDARD
  9
$DIMAUNIT
 70
     0
  9
$DIMADEC
 70
     0
  9
$DIMALTRND
 40
0.0
  9
$DIMAZIN
 70
     2
  9
$DIMDSEP
 70
    46
  9
$DIMATFIT
 70
     3
  9
$DIMFRAC
 70
     0
  9
$DIMLDRBLK
  1

  9
$DIMLUNIT
 70
     2
  9
$DIMLWD
 70
    -1
  9
$DIMLWE
 70
    -1
  9
$DIMTMOVE
 70
     0
  9
$LUNITS
 70
     2
  9
$LUPREC
 70
     2
  9
$SKETCHINC
 40
1.0
  9
$FILLETRAD
 40
2.5
  9
$AUNITS
 70
     0
  9
$AUPREC
 70
     0
  9
$MENU
  1
.
  9
$ELEVATION
 40
0.0
  9
$PELEVATION
 40
0.0
  9
$THICKNESS
 40
0.0
  9
$LIMCHECK
 70
     0
  9
$CHAMFERA
 40
2.5
  9
$CHAMFERB
 40
2.5
  9
$CHAMFERC
 40
20.0
  9
$CHAMFERD
 40
0.0
  9
$SKPOLY
 70
     0
  9
$TDCREATE
 40
2453965.689012037
  9
$TDUCREATE
 40
2453965.355678704
  9
$TDUPDATE
 40
2455322.624111100
  9
$TDUUPDATE
 40
2455322.290777766
  9
$TDINDWG
 40
0.1391523264
  9
$TDUSRTIMER
 40
0.1391523264
  9
$USRTIMER
 70
     1
  9
$ANGBASE
 50
0.0
  9
$ANGDIR
 70
     0
  9
$PDMODE
 70
     0
  9
$PDSIZE
 40
0.0
  9
$PLINEWID
 40
0.0
  9
$SPLFRAME
 70
     0
  9
$SPLINETYPE
 70
     6
  9
$SPLINESEGS
 70
     8
  9
$HANDSEED
  5
361F
  9
$SURFTAB1
 70
     6
  9
$SURFTAB2
 70
     6
  9
$SURFTYPE
 70
     6
  9
$SURFU
 70
     6
  9
$SURFV
 70
     6
  9
$UCSBASE
  2

  9
$UCSNAME
  2

  9
$UCSORG
 10
0.0
 20
0.0
 30
0.0
  9
$UCSXDIR
 10
1.0
 20
0.0
 30
0.0
  9
$UCSYDIR
 10
0.0
 20
1.0
 30
0.0
  9
$UCSORTHOREF
  2

  9
$UCSORTHOVIEW
 70
     0
  9
$UCSORGTOP
 10
0.0
 20
0.0
 30
0.0
  9
$UCSORGBOTTOM
 10
0.0
 20
0.0
 30
0.0
  9
$UCSORGLEFT
 10
0.0
 20
0.0
 30
0.0
  9
$UCSORGRIGHT
 10
0.0
 20
0.0
 30
0.0
  9
$UCSORGFRONT
 10
0.0
 20
0.0
 30
0.0
  9
$UCSORGBACK
 10
0.0
 20
0.0
 30
0.0
  9
$PUCSBASE
  2

  9
$PUCSNAME
  2

  9
$PUCSORG
 10
0.0
 20
0.0
 30
0.0
  9
$PUCSXDIR
 10
1.0
 20
0.0
 30
0.0
  9
$PUCSYDIR
 10
0.0
 20
1.0
 30
0.0
  9
$PUCSORTHOREF
  2

  9
$PUCSORTHOVIEW
 70
     0
  9
$PUCSORGTOP
 10
0.0
 20
0.0
 30
0.0
  9
$PUCSORGBOTTOM
 10
0.0
 20
0.0
 30
0.0
  9
$PUCSORGLEFT
 10
0.0
 20
0.0
 30
0.0
  9
$PUCSORGRIGHT
 10
0.0
 20
0.0
 30
0.0
  9
$PUCSORGFRONT
 10
0.0
 20
0.0
 30
0.0
  9
$PUCSORGBACK
 10
0.0
 20
0.0
 30
0.0
  9
$USERI1
 70
     0
  9
$USERI2
 70
     0
  9
$USERI3
 70
     0
  9
$USERI4
 70
     0
  9
$USERI5
 70
     0
  9
$USERR1
 40
0.0
  9
$USERR2
 40
0.0
  9
$USERR3
 40
0.0
  9
$USERR4
 40
0.0
  9
$USERR5
 40
0.0
  9
$WORLDVIEW
 70
     1
  9
$SHADEDGE
 70
     3
  9
$SHADEDIF
 70
    70
  9
$TILEMODE
 70
     1
  9
$MAXACTVP
 70
    64
  9
$PINSBASE
 10
0.0
 20
0.0
 30
0.0
  9
$PLIMCHECK
 70
     0
  9
$PEXTMIN
 10
1.000000000000000E+20
 20
1.000000000000000E+20
 30
1.000000000000000E+20
  9
$PEXTMAX
 10
-1.000000000000000E+20
 20
-1.000000000000000E+20
 30
-1.000000000000000E+20
  9
$PLIMMIN
 10
0.0
 20
0.0
  9
$PLIMMAX
 10
420.0
 20
297.0
  9
$UNITMODE
 70
     0
  9
$VISRETAIN
 70
     1
  9
$PLINEGEN
 70
     0
  9
$PSLTSCALE
 70
     1
  9
$TREEDEPTH
 70
  3020
  9
$CMLSTYLE
  2
Standard
  9
$CMLJUST
 70
     0
  9
$CMLSCALE
 40
20.0
  9
$PROXYGRAPHICS
 70
     1
  9
$MEASUREMENT
 70
     1
  9
$CELWEIGHT
370
    -1
  9
$ENDCAPS
280
     0
  9
$JOINSTYLE
280
     0
  9
$LWDISPLAY
290
     0
  9
$INSUNITS
 70
     4
  9
$HYPERLINKBASE
  1

  9
$STYLESHEET
  1
acad.ctb
  9
$XEDIT
290
     1
  9
$CEPSNTYPE
380
     0
  9
$PSTYLEMODE
290
     1
  9
$FINGERPRINTGUID
  2
{8012A336-B5C9-4CB1-A428-E581F243F217}
  9
$VERSIONGUID
  2
{2E4A05EB-2802-4A81-840C-A8170968BFAF}
  9
$EXTNAMES
290
     1
  9
$PSVPSCALE
 40
0.0
  9
$OLESTARTUP
290
     0
  0
ENDSEC
  0
SECTION
  2
CLASSES
  0
CLASS
  1
ACDBDICTIONARYWDFLT
  2
AcDbDictionaryWithDefault
  3
ObjectDBX Classes
 90
        0
280
     0
281
     0
  0
CLASS
  1
ACDBPLACEHOLDER
  2
AcDbPlaceHolder
  3
ObjectDBX Classes
 90
        0
280
     0
281
     0
  0
CLASS
  1
LAYOUT
  2
AcDbLayout
  3
ObjectDBX Classes
 90
        0
280
     0
281
     0
  0
CLASS
  1
ACME_DOCUMENT
  2
AcMeDbDoc
  3
AcMeServices
 90
        0
280
     0
281
     0
  0
CLASS
  1
AMGSETTINGSOBJ
  2
AmgSettingsObj
  3
"AcadM|Product Description: AutoCAD Mechanical 2000|Company: Autodesk"
 90
        0
280
     0
281
     0
  0
CLASS
  1
ACMESCOPE
  2
AcMeScope
  3
AcMeServices
 90
        0
280
     0
281
     0
  0
CLASS
  1
ACMECOMMANDHISTORY
  2
AcMeCommandHistory
  3
AcMeServices
 90
        0
280
     0
281
     0
  0
CLASS
  1
ACIMSYSVARMAN
  2
AcImSysVarManager
  3
AcMeServices
 90
        0
280
     0
281
     0
  0
CLASS
  1
ACIMREALSYSVAR
  2
AcImRealSysVar
  3
AcMeServices
 90
        0
280
     0
281
     0
  0
CLASS
  1
ACIMINTSYSVAR
  2
AcImIntSysVar
  3
AcMeServices
 90
        0
280
     0
281
     0
  0
CLASS
  1
ACMEDRAWINGMAN
  2
AcMeDrawingMan
  3
AcMeServices
 90
        0
280
     0
281
     0
  0
CLASS
  1
ACMEVIEW
  2
AcMeView
  3
AcMeServices
 90
        0
280
     0
281
     0
  0
CLASS
  1
ACDBENTITYCACHE
  2
AcMeEntityCache
  3
AcMeServices
 90
        0
280
     0
281
     0
  0
CLASS
  1
GSMANAGER
  2
AcMeGSManager
  3
AcMeServices
 90
        0
280
     0
281
     0
  0
CLASS
  1
AMDTINTERNALREACTOR
  2
AmdtInternalReactor
  3
AcMeServices
 90
        0
280
     0
281
     0
  0
CLASS
  1
ACMESTATEMGR
  2
AcMeStateMgr
  3
AcMeServices
 90
        0
280
     0
281
     0
  0
CLASS
  1
ACGREFMASTER
  2
AcGrefMaster
  3
AcAttribServices
 90
        0
280
     0
281
     0
  0
CLASS
  1
ACME_DATABASE
  2
AcMeDbDatabase
  3
AcMeServices
 90
        0
280
     0
281
     0
  0
CLASS
  1
ACRFINSADJUSTERMGR
  2
AcRfInsAdjusterMgr
  3
AcMeServices
 90
        0
280
     0
281
     0
  0
CLASS
  1
ACGREFACADMASTER
  2
AcGrefacadMaster
  3
AcGrefServices
 90
        0
280
     0
281
     0
  0
CLASS
  1
AMIMASTER
  2
AmiMaster
  3
AmiServices
 90
        0
280
     0
281
     0
  0
CLASS
  1
ACMDATADICTIONARY
  2
AcmDataDictionary
  3
"AcmSymBB|Product Description: AutoCAD Mechanical 2004 DX|Company: Autodesk"
 90
        0
280
     0
281
     0
  0
CLASS
  1
ACMDATAENTRYBLOCK
  2
AcmDataEntryBlock
  3
"AcmSymBB|Product Description: AutoCAD Mechanical 2004 DX|Company: Autodesk"
 90
        0
280
     0
281
     0
  0
CLASS
  1
ACIMSTRSYSVAR
  2
AcImStrSysVar
  3
AcMeServices
 90
        0
280
     0
281
     0
  0
CLASS
  1
ACMSTANDARDISO
  2
AcmStandardISO
  3
"Amdt_StdImp|Product Description: AutoCAD Mechanical 2004 DX|Company: Autodesk"
 90
        0
280
     0
281
     0
  0
CLASS
  1
AMGOBJPROPCFG
  2
AmgObjPropCfg
  3
"AmgLay|Product Description: AutoCAD Mechanical 2000|Company: Autodesk"
 90
        1
280
     0
281
     0
  0
CLASS
  1
AMDTEDGESTANDARDISO
  2
AmdtEdgeStdISO
  3
"Amdt_StdImp|Product Description: AutoCAD Mechanical 2004 DX|Company: Autodesk"
 90
    32768
280
     0
281
     0
  0
CLASS
  1
ACMSURFSTANDARDISO
  2
AcmSurfTextStdISO
  3
"Amdt_StdImp|Product Description: AutoCAD Mechanical 2004 DX|Company: Autodesk"
 90
        0
280
     0
281
     0
  0
CLASS
  1
ACMFCFSTANDARDISO
  2
AcmFCFStdISO
  3
"Amdt_StdImp|Product Description: AutoCAD Mechanical 2004 DX|Company: Autodesk"
 90
        0
280
     0
281
     0
  0
CLASS
  1
ACMWELDSTANDARDISO
  2
AcmWeldingStdISO
  3
"Amdt_StdImp|Product Description: AutoCAD Mechanical 2004 DX|Company: Autodesk"
 90
        0
280
     0
281
     0
  0
CLASS
  1
ACMIDSTANDARDISO
  2
AcmIdStdISO
  3
"Amdt_StdImp|Product Description: AutoCAD Mechanical 2004 DX|Company: Autodesk"
 90
        0
280
     0
281
     0
  0
CLASS
  1
ACMDATUMSTANDARDISO
  2
AcmDatumStdISO
  3
"Amdt_StdImp|Product Description: AutoCAD Mechanical 2004 DX|Company: Autodesk"
 90
        0
280
     0
281
     0
  0
CLASS
  1
ACMBOMSTANDARDISO
  2
AcmBOMStdISO
  3
"Amdt_StdImp|Product Description: AutoCAD Mechanical 2004 DX|Company: Autodesk"
 90
        0
280
     0
281
     0
  0
CLASS
  1
ACMDETAILSTANDARDISO
  2
AmdtDetailSymStdISO
  3
"Amdt_StdImp|Product Description: AutoCAD Mechanical 2004 DX|Company: Autodesk"
 90
        0
280
     0
281
     0
  0
CLASS
  1
ACMSECTIONSTANDARDISO
  2
AmdtSectionSymStdISO
  3
"Amdt_StdImp|Product Description: AutoCAD Mechanical 2004 DX|Company: Autodesk"
 90
        0
280
     0
281
     0
  0
CLASS
  1
ACMCENTERLINESTANDARDISO
  2
AmdtCenterLineStdISO
  3
"Amdt_StdImp|Product Description: AutoCAD Mechanical 2004 DX|Company: Autodesk"
 90
        0
280
     0
281
     0
  0
CLASS
  1
ACMNOTESTANDARDISO
  2
AmdtNoteStdISO
  3
"Amdt_StdImp|Product Description: AutoCAD Mechanical 2004 DX|Company: Autodesk"
 90
        0
280
     0
281
     0
  0
CLASS
  1
ACAMGLAYSTD
  2
AcAmgLayStd
  3
"AcAmgLayStd|Product Description: AutoCAD Mechanical 2000|Company: Autodesk"
 90
        0
280
     0
281
     0
  0
CLASS
  1
ACAMGDIMSTD
  2
AcAmgDimStd
  3
"AcAmgDimStd|Product Description: AutoCAD Mechanical 2000|Company: Autodesk"
 90
        0
280
     0
281
     0
  0
CLASS
  1
ACAMGHOLECHARTSTDISO
  2
AcAmgHoleChartStdISO
  3
ACMSYMBB_MODULE_NAME
 90
        0
280
     0
281
     0
  0
CLASS
  1
ACAMGTITLESTD
  2
AcAmgTitleStd
  3
"TITLEAPP"
 90
        0
280
     0
281
     0
  0
CLASS
  1
LAYER_INDEX
  2
AcDbLayerIndex
  3
ObjectDBX Classes
 90
        0
280
     0
281
     0
  0
CLASS
  1
IDBUFFER
  2
AcDbIdBuffer
  3
ObjectDBX Classes
 90
        0
280
     0
281
     0
  0
CLASS
  1
DICTIONARYVAR
  2
AcDbDictionaryVar
  3
ObjectDBX Classes
 90
        0
280
     0
281
     0
  0
CLASS
  1
AM_DRAWING_MGR
  2
AcDmDwgMgr
  3
AcMechDwgViewMgmt
 90
        0
280
     0
281
     0
  0
CLASS
  1
AM_DWG_DOCUMENT
  2
AcDmDwgDocument
  3
AcMechDwgViewMgmt
 90
        0
280
     0
281
     0
  0
CLASS
  1
AM_DWG_SHEET
  2
AcDmSheet
  3
AcMechDwgViewMgmt
 90
        0
280
     0
281
     0
  0
CLASS
  1
AM_VIEWDIMPARMAP
  2
AcDmViewDimParMap
  3
AcMechDwgViewMgmt
 90
        0
280
     0
281
     0
  0
CLASS
  1
AM_DWGMGR_NAME
  2
AcDmDwgMgrName
  3
AcMechDwgViewMgmt
 90
        0
280
     0
281
     0
  0
CLASS
  1
AMDTMENUSTATEMGR
  2
AmdtMenuStateMgr
  3
McadcomServices
 90
        0
280
     0
281
     0
  0
CLASS
  1
AMDTMCOMMENUSTATE
  2
AmdtMcomMenuState
  3
McadcomServices
 90
        0
280
     0
281
     0
  0
CLASS
  1
MAPIAMMOUDLE
  2
MApiAmModule
  3
MApiAmServices
 90
        0
280
     0
281
     0
  0
CLASS
  1
AMDTADMENUSTATE
  2
AmdtAdMenuState
  3
DesignerServices
 90
        0
280
     0
281
     0
  0
CLASS
  1
ADAPPL
  2
AcAdAppl
  3
DesignerServices
 90
        0
280
     0
281
     0
  0
CLASS
  1
DEPMGR
  2
AcAdDepMgr
  3
DesignerServices
 90
        0
280
     0
281
     0
  0
CLASS
  1
PARAMMGR
  2
AcAdParamMgr
  3
DesignerServices
 90
        0
280
     0
281
     0
  0
CLASS
  1
PARAMSCOPE
  2
AcAdParamScope
  3
DesignerServices
 90
        0
280
     0
281
     0
  0
CLASS
  1
NAMEDAPPL
  2
AcAdNamedAppl
  3
DesignerServices
 90
        0
280
     0
281
     0
  0
CLASS
  1
AMDTDMMENUSTATE
  2
AmdtDmMenuState
  3
AcMechDwgViewMgmt
 90
        0
280
     0
281
     0
  0
CLASS
  1
AMDTAMMENUSTATE
  2
AmdtAmMenuState
  3
DesignerAssemblies
 90
        0
280
     0
281
     0
  0
CLASS
  1
ACAMPROJECT
  2
AcAmProject
  3
DesignerAssemblies
 90
        0
280
     0
281
     0
  0
CLASS
  1
ACAMGRCOMPDEF
  2
AcAmGrCompDef
  3
DesignerAssemblies
 90
        0
280
     0
281
     0
  0
CLASS
  1
ACCMCONTEXT
  2
AcCmContext
  3
DesignerAssemblies
 90
        0
280
     0
281
     0
  0
CLASS
  1
ACAMCOMPDEF
  2
AcAmCompDef
  3
DesignerAssemblies
 90
        0
280
     0
281
     0
  0
CLASS
  1
ACAMCOMPDEFMGR
  2
AcAmCompDefMgr
  3
DesignerAssemblies
 90
        0
280
     0
281
     0
  0
CLASS
  1
AMCONTEXTMGR
  2
AcAmContextMgr
  3
DesignerAssemblies
 90
        0
280
     0
281
     0
  0
CLASS
  1
ACAMCONTEXTMODELER
  2
AcAmContextModeler
  3
DesignerAssemblies
 90
        0
280
     0
281
     0
  0
CLASS
  1
ACMTHREADLINESTANDARDISO
  2
AmdtThreadLineStdISO
  3
"Amdt_StdImp|Product Description: AutoCAD Mechanical 2004 DX|Company: Autodesk"
 90
        0
280
     0
281
     0
  0
CLASS
  1
CATALOGSTATE
  2
AcAmCatalogState
  3
DesignerAssemblies
 90
        0
280
     0
281
     0
  0
CLASS
  1
ACAMGRCOMPDEFSET
  2
AcAmGrCompDefSet
  3
DesignerAssemblies
 90
        0
280
     0
281
     0
  0
CLASS
  1
AMDTBROWSERDBTAB
  2
AmdtBrowserDbTab
  3
McadcomServices
 90
        0
280
     0
281
     0
  0
CLASS
  1
CBROWSERAPPOBJECT
  2
CBrowserAppObject
  3
McadcomServices
 90
        0
280
     0
281
     0
  0
CLASS
  1
DM_PLACEHOLDER
  2
AcDmSelsetPlaceholder
  3
AcMechDwgViewMgmt
 90
        0
280
     0
281
     0
  0
CLASS
  1
TABLESTYLE
  2
AcDbTableStyle
  3
ObjectDBX Classes
 90
     2047
280
     0
281
     0
  0
CLASS
  1
VAACXREFPANELOBJECT
  2
VaAcXREFPanelObject
  3
VAAC_ADDIN
 90
    32768
280
     0
281
     0
  0
CLASS
  1
VAACIMAGEINVENTORY
  2
VaAcImageInventory
  3
VAAC_ADDIN
 90
    32768
280
     0
281
     0
  0
CLASS
  1
AMDTNOTETEMPLATEDB
  2
AmdtNoteTemplateDB
  3
AMDT_STDIMP_MODULE_NAME
 90
        0
280
     0
281
     0
  0
CLASS
  1
ACMBOM
  2
AcmBom
  3
"AcmSymBB|Product Description: AutoCAD Mechanical 2004 DX|Company: Autodesk"
 90
    32768
280
     0
281
     0
  0
CLASS
  1
AMDTFORMULAUPDATEDISPATCHER
  2
AmdtFormulaUpdateDispatcher
  3
AcMeServices
 90
    32768
280
     0
281
     0
  0
CLASS
  1
ACMPARTLIST
  2
AcmPartList
  3
"AcmSymBB|Product Description: AutoCAD Mechanical 2004 DX|Company: Autodesk"
 90
    33791
280
     0
281
     1
  0
CLASS
  1
ACAMGFILTERDAT
  2
AcAmgFilterDat
  3
"AcadM|Product Description: AutoCAD Mechanical 2000|Company: Autodesk"
 90
    32768
280
     0
281
     0
  0
CLASS
  1
DIMASSOC
  2
AcDbDimAssoc
  3
"AcDbDimAssoc|Product Desc:     AcDim ARX App For Dimension|Company:          Autodesk, Inc.|WEB Address:      www.autodesk.com"
 90
        0
280
     0
281
     0
  0
CLASS
  1
SORTENTSTABLE
  2
AcDbSortentsTable
  3
ObjectDBX Classes
 90
        0
280
     0
281
     0
  0
CLASS
  1
STDPART2D
  2
AmgStdPart
  3
"AmgStdPart|Product Description: AutoCAD Mechanical 2000|Company: Autodesk"
 90
    33791
280
     0
281
     1
  0
CLASS
  1
ACAMSTDPCOMPDEF
  2
AcAmStdpCompDef
  3
DesignerAssemblies
 90
    32768
280
     0
281
     0
  0
CLASS
  1
ACRFATTGENMGR
  2
AcRfAttGeneralMgr
  3
AcAttribServices
 90
    32768
280
     0
281
     0
  0
CLASS
  1
ACRFOBJATTMGR
  2
AcRfObjAttGroupMgr
  3
AcAttribServices
 90
    32768
280
     0
281
     0
  0
CLASS
  1
ACRFMCADAPIATTHOLDER
  2
AcRfMCADAPIAttHolder
  3
AcAttribServices
 90
    32768
280
     0
281
     0
  0
CLASS
  1
AMDTSYSATTR
  2
AmdtSystemAttribute
  3
AcAttribServices
 90
    32768
280
     0
281
     0
  0
CLASS
  1
ACAMCOMP
  2
AcAmComp
  3
DesignerAssemblies
 90
    32768
280
     0
281
     0
  0
CLASS
  1
AC_AM_STDP_VIEW_DEF
  2
AcAmStdpViewDef
  3
DesignerAssemblies
 90
    32768
280
     0
281
     0
  0
CLASS
  1
AC_AM_MVD_DEP_MGR
  2
AcAmMVDdepMgr
  3
DesignerAssemblies
 90
    32768
280
     0
281
     0
  0
CLASS
  1
AC_AM_MASTER_VIEW_DEF
  2
AcAmMasterViewDef
  3
DesignerAssemblies
 90
    32768
280
     0
281
     0
  0
CLASS
  1
AC_AM_DIRTY_NODES
  2
AcAmDirtyNodes
  3
DesignerAssemblies
 90
    32768
280
     0
281
     0
  0
CLASS
  1
AC_AM_MAPPER_CACHE
  2
AcAmMapperCache
  3
DesignerAssemblies
 90
    32768
280
     0
281
     0
  0
CLASS
  1
ACAMMVDBACKUPOBJECT
  2
AcAmMVDBackupObject
  3
DesignerAssemblies
 90
    32768
280
     0
281
     0
  0
CLASS
  1
AC_AM_COMP_VIEW_INST
  2
AcAmCompView
  3
DesignerAssemblies
 90
    32768
280
     0
281
     0
  0
CLASS
  1
AC_AM_2D_XREF_MGR
  2
AcAmXrefMgr2d
  3
DesignerAssemblies
 90
    32768
280
     0
281
     0
  0
CLASS
  1
AMDTEDGESTANDARDISO13715
  2
AmdtEdgeStdISO13715
  3
"Amdt_StdImp|Product Description: AutoCAD Mechanical 2004 DX|Company: Autodesk"
 90
        0
280
     0
281
     0
  0
CLASS
  1
ASAPP
  2
AcAsAppObject
  3
AutoSurfServices
 90
        0
280
     0
281
     0
  0
CLASS
  1
IM_STATIC_MAN
  2
AcImStaticVarManager
  3
AcMeServices
 90
        0
280
     0
281
     0
  0
CLASS
  1
ACIMDBLSTATICVAR
  2
AcImDblStaticVar
  3
AcMeServices
 90
        0
280
     0
281
     0
  0
CLASS
  1
ACIMSTRSTATICVAR
  2
AcImStrStaticVar
  3
AcMeServices
 90
        0
280
     0
281
     0
  0
CLASS
  1
ACIMINTSTATICVAR
  2
AcImIntStaticVar
  3
AcMeServices
 90
        0
280
     0
281
     0
  0
CLASS
  1
ACASGREFMASTER
  2
AcAsGrefMaster
  3
AutoSurfResolverServices
 90
        0
280
     0
281
     0
  0
CLASS
  1
ACADGREFMODULE
  2
AcAdGrefModule
  3
AdGrefServices
 90
        0
280
     0
281
     0
  0
CLASS
  1
AMDTMAPISURFMOUDULE
  2
AmdtMApiSurfModule
  3
MApiSurfServices
 90
        0
280
     0
281
     0
  0
CLASS
  1
MAPIADMODULE
  2
MApiAdModule
  3
MApiAdServices
 90
        0
280
     0
281
     0
  0
CLASS
  1
MATERIAL
  2
AcDbMaterial
  3
ObjectDBX Classes
 90
        0
280
     0
281
     0
  0
CLASS
  1
ACMSTANDARDANSI
  2
AcmStandardANSI
  3
"Amdt_StdImp|Product Description: AutoCAD Mechanical 2004 DX|Company: Autodesk"
 90
        0
280
     0
281
     0
  0
CLASS
  1
ACMSURFSTANDARDANSI
  2
AcmSurfTextStdANSI
  3
"Amdt_StdImp|Product Description: AutoCAD Mechanical 2004 DX|Company: Autodesk"
 90
        0
280
     0
281
     0
  0
CLASS
  1
ACMFCFSTANDARDANSI
  2
AcmFCFStdANSI
  3
"Amdt_StdImp|Product Description: AutoCAD Mechanical 2004 DX|Company: Autodesk"
 90
        0
280
     0
281
     0
  0
CLASS
  1
ACMWELDSTANDARDANSI
  2
AcmWeldingStdANSI
  3
"Amdt_StdImp|Product Description: AutoCAD Mechanical 2004 DX|Company: Autodesk"
 90
        0
280
     0
281
     0
  0
CLASS
  1
ACMIDSTANDARDANSI
  2
AcmIdStdANSI
  3
"Amdt_StdImp|Product Description: AutoCAD Mechanical 2004 DX|Company: Autodesk"
 90
        0
280
     0
281
     0
  0
CLASS
  1
ACMDATUMSTANDARDANSI
  2
AcmDatumStdANSI
  3
"Amdt_StdImp|Product Description: AutoCAD Mechanical 2004 DX|Company: Autodesk"
 90
        0
280
     0
281
     0
  0
CLASS
  1
ACMBOMSTANDARDANSI
  2
AcmBOMStdANSI
  3
"Amdt_StdImp|Product Description: AutoCAD Mechanical 2004 DX|Company: Autodesk"
 90
        0
280
     0
281
     0
  0
CLASS
  1
ACMDETAILSTANDARDANSI
  2
AmdtDetailSymStdANSI
  3
"Amdt_StdImp|Product Description: AutoCAD Mechanical 2004 DX|Company: Autodesk"
 90
        0
280
     0
281
     0
  0
CLASS
  1
ACMSECTIONSTANDARDANSI
  2
AmdtSectionSymStdANSI
  3
"Amdt_StdImp|Product Description: AutoCAD Mechanical 2004 DX|Company: Autodesk"
 90
        0
280
     0
281
     0
  0
CLASS
  1
ACMCENTERLINESTANDARDANSI
  2
AmdtCenterLineStdANSI
  3
"Amdt_StdImp|Product Description: AutoCAD Mechanical 2004 DX|Company: Autodesk"
 90
        0
280
     0
281
     0
  0
CLASS
  1
ACMTHREADLINESTANDARDANSI
  2
AmdtThreadLineStdANSI
  3
"Amdt_StdImp|Product Description: AutoCAD Mechanical 2004 DX|Company: Autodesk"
 90
        0
280
     0
281
     0
  0
CLASS
  1
ACMNOTESTANDARDANSI
  2
AmdtNoteStdANSI
  3
"Amdt_StdImp|Product Description: AutoCAD Mechanical 2004 DX|Company: Autodesk"
 90
        0
280
     0
281
     0
  0
CLASS
  1
ACAMGHOLECHARTSTDANSI
  2
AcAmgHoleChartStdANSI
  3
ACMSYMBB_MODULE_NAME
 90
        0
280
     0
281
     0
  0
ENDSEC
  0
SECTION
  2
TABLES
  0
TABLE
  2
VPORT
  5
8
330
0
100
AcDbSymbolTable
 70
   143
  0
VPORT
  5
3616
330
8
100
AcDbSymbolTableRecord
100
AcDbViewportTableRecord
  2
*Active
 70
     0
 10
0.0
 20
0.0
 11
1.0
 21
1.0
 12
-6.681060798793453
 22
2.301262135122328
 13
0.0
 23
0.0
 14
2.5
 24
2.5
 15
10.0
 25
10.0
 16
0.0
 26
0.0
 36
1.0
 17
193.2412729310352
 27
367.6865707891587
 37
0.0
 40
146.5200206985087
 41
0.9815602836879431
 42
50.0
 43
0.0
 44
0.0
 50
0.0
 51
0.0
 71
     0
 72
   100
 73
     1
 74
     3
 75
     0
 76
     0
 77
     0
 78
     0
281
     0
 65
     0
110
0.0
120
0.0
130
0.0
111
1.0
121
0.0
131
0.0
112
0.0
122
1.0
132
0.0
 79
     0
146
0.0
  0
ENDTAB
  0
TABLE
  2
LTYPE
  5
5
330
0
100
AcDbSymbolTable
 70
    21
  0
LTYPE
  5
14
330
5
100
AcDbSymbolTableRecord
100
AcDbLinetypeTableRecord
  2
ByBlock
 70
     0
  3

 72
    65
 73
     0
 40
0.0
  0
LTYPE
  5
15
330
5
100
AcDbSymbolTableRecord
100
AcDbLinetypeTableRecord
  2
ByLayer
 70
     0
  3

 72
    65
 73
     0
 40
0.0
  0
LTYPE
  5
16
330
5
100
AcDbSymbolTableRecord
100
AcDbLinetypeTableRecord
  2
Continuous
 70
     0
  3
Solid line
 72
    65
 73
     0
 40
0.0
  0
LTYPE
  5
64
330
5
100
AcDbSymbolTableRecord
100
AcDbLinetypeTableRecord
  2
AM_ISO02W050
 70
     0
  3
__ __ __ __ __ __ __ __ __ __ __ __ __ __ __
 72
    65
 73
     2
 40
7.5
 49
6.0
 74
     0
 49
-1.5
 74
     0
  0
LTYPE
  5
65
330
5
100
AcDbSymbolTableRecord
100
AcDbLinetypeTableRecord
  2
AM_ISO08W050
 70
     0
  3
____ . ____ . ____ . ____ . ____ . ____ . ____
 72
    65
 73
     4
 40
18.0
 49
12.0
 74
     0
 49
-1.5
 74
     0
 49
3.0
 74
     0
 49
-1.5
 74
     0
  0
LTYPE
  5
66
330
5
100
AcDbSymbolTableRecord
100
AcDbLinetypeTableRecord
  2
AM_ISO09W050
 70
     0
  3
_____ . . _____ . . _____ . . ____ .. ____
 72
    65
 73
     6
 40
22.5
 49
12.0
 74
     0
 49
-1.5
 74
     0
 49
3.0
 74
     0
 49
-1.5
 74
     0
 49
3.0
 74
     0
 49
-1.5
 74
     0
  0
LTYPE
  5
67
330
5
100
AcDbSymbolTableRecord
100
AcDbLinetypeTableRecord
  2
Amconstr
 70
     0
  3
_______________________
 72
    65
 73
     2
 40
9999.0
 49
9999.0
 74
     0
 49
0.0
 74
     0
  0
LTYPE
  5
68
330
5
100
AcDbSymbolTableRecord
100
AcDbLinetypeTableRecord
  2
AM_ISO08W050x2
 70
     0
  3
__ . __ . __ . __ . __ . __
 72
    65
 73
     4
 40
9.0
 49
6.0
 74
     0
 49
-0.75
 74
     0
 49
1.5
 74
     0
 49
-0.75
 74
     0
  0
LTYPE
  5
69
330
5
100
AcDbSymbolTableRecord
100
AcDbLinetypeTableRecord
  2
AM_ISO02W050x2
 70
     0
  3
 _ _ _ _ _ _ _ _ _ _ _ _
 72
    65
 73
     2
 40
3.75
 49
3.0
 74
     0
 49
-0.75
 74
     0
  0
LTYPE
  5
6C
330
5
100
AcDbSymbolTableRecord
100
AcDbLinetypeTableRecord
  2
Amzigzag
 70
     0
  3
/\/-/\/-/\/-/\/-/\/-/\/
 72
    65
 73
     2
 40
11.0001
 49
0.0001
 74
     4
 75
   135
340
6B
 46
0.04
 50
0.0
 44
0.0
 45
0.0
 49
-11.0
 74
     0
  0
LTYPE
  5
7A
330
5
100
AcDbSymbolTableRecord
100
AcDbLinetypeTableRecord
  2
ACISOWELD
 70
     0
  3
_ _ _ _ _
 72
    65
 73
     2
 40
2.0
 49
2.0
 74
     0
 49
-1.0
 74
     0
  0
LTYPE
  5
7B
330
5
100
AcDbSymbolTableRecord
100
AcDbLinetypeTableRecord
  2
ACISOTGB
 70
     0
  3
__ . . __ . .
 72
    65
 73
     6
 40
9.0
 49
4.0
 74
     0
 49
-1.0
 74
     0
 49
1.0
 74
     0
 49
-1.0
 74
     0
 49
1.0
 74
     0
 49
-1.0
 74
     0
  0
LTYPE
  5
7C
330
5
100
AcDbSymbolTableRecord
100
AcDbLinetypeTableRecord
  2
ACISOTGL
 70
     0
  3
_ _ _ _ _
 72
    65
 73
     2
 40
3.0
 49
2.0
 74
     0
 49
-1.0
 74
     0
  0
LTYPE
  5
7E
330
5
100
AcDbSymbolTableRecord
100
AcDbLinetypeTableRecord
  2
CENTER
 70
     0
  3
__ . __
 72
    65
 73
     4
 40
7.0
 49
4.0
 74
     0
 49
-1.0
 74
     0
 49
1.0
 74
     0
 49
-1.0
 74
     0
  0
LTYPE
  5
D8
330
5
100
AcDbSymbolTableRecord
100
AcDbLinetypeTableRecord
  2
HIDDEN
 70
     0
  3
Hidden __ __ __ __ __ __ __ __ __ __ __ __ __ _
 72
    65
 73
     2
 40
9.524999999999998
 49
6.349999999999999
 74
     0
 49
-3.174999999999999
 74
     0
  0
LTYPE
  5
D9
330
5
100
AcDbSymbolTableRecord
100
AcDbLinetypeTableRecord
  2
PHANTOM2
 70
     0
  3
Phantom (.5x) ___ _ _ ___ _ _ ___ _ _ ___ _ _
 72
    65
 73
     6
 40
31.75
 49
15.875
 74
     0
 49
-3.174999999999999
 74
     0
 49
3.174999999999999
 74
     0
 49
-3.174999999999999
 74
     0
 49
3.174999999999999
 74
     0
 49
-3.174999999999999
 74
     0
  0
LTYPE
  5
2B12
330
5
100
AcDbSymbolTableRecord
100
AcDbLinetypeTableRecord
  2
CENTER2
 70
     0
  3
________ _ ________ _ ________ _ ________ _ 
 72
    65
 73
     4
 40
11.0
 49
8.0
 74
     0
 49
-1.0
 74
     0
 49
1.0
 74
     0
 49
-1.0
 74
     0
  0
LTYPE
  5
2B15
330
5
100
AcDbSymbolTableRecord
100
AcDbLinetypeTableRecord
  2
ACANSTGB
 70
     0
  3
__ . . __ . .
 72
    65
 73
     6
 40
0.35433070866
 49
0.15748031496
 74
     0
 49
-0.03937007874
 74
     0
 49
0.03937007874
 74
     0
 49
-0.03937007874
 74
     0
 49
0.03937007874
 74
     0
 49
-0.03937007874
 74
     0
  0
LTYPE
  5
2B16
330
5
100
AcDbSymbolTableRecord
100
AcDbLinetypeTableRecord
  2
ACANSTGL
 70
     0
  3
_ _ _ _ _
 72
    65
 73
     2
 40
0.11811023622
 49
0.07874015748
 74
     0
 49
-0.03937007874
 74
     0
  0
ENDTAB
  0
TABLE
  2
LAYER
  5
2
102
{ACAD_XDICTIONARY
360
3F9
102
}
330
0
100
AcDbSymbolTable
 70
     5
  0
LAYER
  5
10
330
2
100
AcDbSymbolTableRecord
100
AcDbLayerTableRecord
  2
0
 70
     0
 62
     7
  6
Continuous
370
    -3
390
F
  0
LAYER
  5
B0C
330
2
100
AcDbSymbolTableRecord
100
AcDbLayerTableRecord
  2
AM_5
 70
     0
 62
     5
  6
Continuous
370
    50
390
F
  0
LAYER
  5
B0D
330
2
100
AcDbSymbolTableRecord
100
AcDbLayerTableRecord
  2
Defpoints
 70
     0
 62
     7
  6
Continuous
290
     0
370
    -3
390
F
  0
LAYER
  5
1774
330
2
100
AcDbSymbolTableRecord
100
AcDbLayerTableRecord
  2
LOGO
 70
     0
 62
     7
  6
Continuous
370
    -3
390
F
  0
LAYER
  5
2B17
102
{ACAD_XDICTIONARY
360
2B18
102
}
330
2
100
AcDbSymbolTableRecord
100
AcDbLayerTableRecord
  2
UMCL1
 70
     0
 62
     7
  6
Continuous
370
    -3
390
F
  0
ENDTAB
  0
TABLE
  2
STYLE
  5
3
330
0
100
AcDbSymbolTable
 70
     9
  0
STYLE
  5
11
330
3
100
AcDbSymbolTableRecord
100
AcDbTextStyleTableRecord
  2
STANDARD
 70
     0
 40
0.0
 41
1.0
 50
0.0
 71
     0
 42
3.0
  3
ISOCP.SHX
  4
CHINESET.SHX
  0
STYLE
  5
6B
330
3
100
AcDbSymbolTableRecord
100
AcDbTextStyleTableRecord
  2

 70
     1
 40
0.0
 41
1.0
 50
0.0
 71
     0
 42
2.5
  3
ltypeshp.shx
  4

  0
STYLE
  5
6D
330
3
100
AcDbSymbolTableRecord
100
AcDbTextStyleTableRecord
  2
ACISOTS
 70
     0
 40
1.0
 41
1.0
 50
0.0
 71
     0
 42
1.0
  3
isocp.shx
  4
chineset.shx
  0
STYLE
  5
79
330
3
100
AcDbSymbolTableRecord
100
AcDbTextStyleTableRecord
  2
ACISOGDT
 70
     0
 40
0.0
 41
1.0
 50
0.0
 71
     0
 42
2.5
  3
amgdt.shx
  4
chineset.shx
  0
STYLE
  5
F5C
330
3
100
AcDbSymbolTableRecord
100
AcDbTextStyleTableRecord
  2
CHINESET
 70
     0
 40
0.0
 41
1.0
 50
0.0
 71
     0
 42
2.5
  3
simplex.shx
  4
chineset.shx
  0
STYLE
  5
2B1C
330
3
100
AcDbSymbolTableRecord
100
AcDbTextStyleTableRecord
  2
ACANSTS
 70
     0
 40
1.0
 41
1.0
 50
0.0
 71
     0
 42
4.0
  3
romans.shx
  4
chineset.shx
  0
STYLE
  5
2B1D
330
3
100
AcDbSymbolTableRecord
100
AcDbTextStyleTableRecord
  2
ACANSGDT
 70
     0
 40
0.0
 41
1.0
 50
0.0
 71
     0
 42
4.0
  3
amgdtans.shx
  4

  0
ENDTAB
  0
TABLE
  2
VIEW
  5
6
330
0
100
AcDbSymbolTable
 70
     0
  0
ENDTAB
  0
TABLE
  2
UCS
  5
7
330
0
100
AcDbSymbolTable
 70
     0
  0
ENDTAB
  0
TABLE
  2
APPID
  5
9
330
0
100
AcDbSymbolTable
 70
    32
  0
APPID
  5
12
330
9
100
AcDbSymbolTableRecord
100
AcDbRegAppTableRecord
  2
ACAD
 70
     0
  0
APPID
  5
46
330
9
100
AcDbSymbolTableRecord
100
AcDbRegAppTableRecord
  2
MCAD_NO_VIS
 70
     0
  0
APPID
  5
47
330
9
100
AcDbSymbolTableRecord
100
AcDbRegAppTableRecord
  2
ACAD_TEMP_GRAPHIC
 70
     0
  0
APPID
  5
58
330
9
100
AcDbSymbolTableRecord
100
AcDbRegAppTableRecord
  2
ACATTRIBSERVICES
 70
     0
  0
APPID
  5
EE
330
9
100
AcDbSymbolTableRecord
100
AcDbRegAppTableRecord
  2
AD_DRAW
 70
     0
  0
APPID
  5
10C
330
9
100
AcDbSymbolTableRecord
100
AcDbRegAppTableRecord
  2
DESIGNERASSEMBLIES
 70
     0
  0
APPID
  5
111
330
9
100
AcDbSymbolTableRecord
100
AcDbRegAppTableRecord
  2
ACADM_DIM_EDIT
 70
     0
  0
APPID
  5
112
330
9
100
AcDbSymbolTableRecord
100
AcDbRegAppTableRecord
  2
AMDT_DM_ADJ
 70
     0
  0
APPID
  5
22C
330
9
100
AcDbSymbolTableRecord
100
AcDbRegAppTableRecord
  2
ACAD_DSTYLE_DIMTEXT_FILL
 70
     0
  0
APPID
  5
452
330
9
100
AcDbSymbolTableRecord
100
AcDbRegAppTableRecord
  2
GENIUS_GENOENT_13
 70
     0
  0
APPID
  5
453
330
9
100
AcDbSymbolTableRecord
100
AcDbRegAppTableRecord
  2
GENIUS_GENOBJ-N-CRS_13
 70
     0
  0
APPID
  5
454
330
9
100
AcDbSymbolTableRecord
100
AcDbRegAppTableRecord
  2
GENIUS_GENOLIS_13
 70
     0
  0
APPID
  5
455
330
9
100
AcDbSymbolTableRecord
100
AcDbRegAppTableRecord
  2
GENIUS_GENODEF_13
 70
     0
  0
APPID
  5
456
330
9
100
AcDbSymbolTableRecord
100
AcDbRegAppTableRecord
  2
GENIUS_GENOREF_13
 70
     0
  0
APPID
  5
6F3
330
9
100
AcDbSymbolTableRecord
100
AcDbRegAppTableRecord
  2
ACAD_PSEXT
 70
     0
  0
APPID
  5
808
330
9
100
AcDbSymbolTableRecord
100
AcDbRegAppTableRecord
  2
GENIUS_GENDTOL_13
 70
     0
  0
APPID
  5
B11
330
9
100
AcDbSymbolTableRecord
100
AcDbRegAppTableRecord
  2
GENIUS_GENOBJ-N-CEN_13
 70
     0
  0
APPID
  5
B12
330
9
100
AcDbSymbolTableRecord
100
AcDbRegAppTableRecord
  2
GENIUS_GENCEN_19
 70
     0
  0
APPID
  5
166E
330
9
100
AcDbSymbolTableRecord
100
AcDbRegAppTableRecord
  2
GEVID1155862074
 70
     0
  0
APPID
  5
166F
330
9
100
AcDbSymbolTableRecord
100
AcDbRegAppTableRecord
  2
GEVDC
 70
     0
  0
APPID
  5
1686
330
9
100
AcDbSymbolTableRecord
100
AcDbRegAppTableRecord
  2
AMG_2DHIDE
 70
     0
  0
APPID
  5
1687
330
9
100
AcDbSymbolTableRecord
100
AcDbRegAppTableRecord
  2
AMG_2DSTRUCT_BTR
 70
     0
  0
APPID
  5
1698
330
9
100
AcDbSymbolTableRecord
100
AcDbRegAppTableRecord
  2
ACADM_2DVIEW_IGN_NOTIFY
 70
     0
  0
APPID
  5
16CC
330
9
100
AcDbSymbolTableRecord
100
AcDbRegAppTableRecord
  2
GEVID1155862075
 70
     0
  0
APPID
  5
16CD
330
9
100
AcDbSymbolTableRecord
100
AcDbRegAppTableRecord
  2
GEVRADREF
 70
     0
  0
APPID
  5
1775
330
9
100
AcDbSymbolTableRecord
100
AcDbRegAppTableRecord
  2
GENIUS_GENREC_14
 70
     0
  0
APPID
  5
1776
330
9
100
AcDbSymbolTableRecord
100
AcDbRegAppTableRecord
  2
GENIUS_GENOBJ-N-REC_13
 70
     0
  0
APPID
  5
1CDE
330
9
100
AcDbSymbolTableRecord
100
AcDbRegAppTableRecord
  2
AcAecLayerStandard
 70
     0
  0
APPID
  5
23E5
330
9
100
AcDbSymbolTableRecord
100
AcDbRegAppTableRecord
  2
GENIUS_GENDIM_13
 70
     0
  0
APPID
  5
23E6
330
9
100
AcDbSymbolTableRecord
100
AcDbRegAppTableRecord
  2
GENIUS_GE3DTOL_13
 70
     0
  0
APPID
  5
2466
330
9
100
AcDbSymbolTableRecord
100
AcDbRegAppTableRecord
  2
ASURF_PCURVE_APPNAME
 70
     0
  0
APPID
  5
246B
330
9
100
AcDbSymbolTableRecord
100
AcDbRegAppTableRecord
  2
AMG_3D2D_5.0
 70
     0
  0
ENDTAB
  0
TABLE
  2
DIMSTYLE
  5
A
330
0
100
AcDbSymbolTable
 70
    15
100
AcDbDimStyleTable
 71
     3
340
81
340
8B
340
86
  0
DIMSTYLE
105
81
330
A
100
AcDbSymbolTableRecord
100
AcDbDimStyleTableRecord
  2
AM_ISO
 70
     0
  4
"
 41
3.0
 42
1.0
 43
8.0
 44
1.0
 47
0.1
 48
0.1
 73
     0
 74
     0
 77
     1
 78
     8
 79
     2
140
3.0
141
0.0
143
0.0393701
146
0.6
147
0.7
172
     1
176
   256
177
   256
178
   256
271
     2
272
     2
283
     0
284
     8
340
11
371
    -1
372
    -1
  0
DIMSTYLE
105
82
330
A
100
AcDbSymbolTableRecord
100
AcDbDimStyleTableRecord
  2
AM_ISO$3
 70
     0
  4
"
 41
3.0
 42
1.0
 43
8.0
 44
1.0
 47
0.1
 48
0.1
 73
     0
 77
     1
 78
     8
 79
     2
140
3.0
141
0.0
143
0.0393701
146
0.6
147
0.7
176
   256
177
   256
178
   256
271
     2
272
     2
283
     0
284
     8
288
     1
289
     0
340
11
371
    -1
372
    -1
  0
DIMSTYLE
105
83
330
A
100
AcDbSymbolTableRecord
100
AcDbDimStyleTableRecord
  2
AM_ISO$4
 70
     0
  4
"
 41
3.0
 42
1.0
 43
8.0
 44
1.0
 47
0.1
 48
0.1
 73
     0
 77
     1
 78
     8
 79
     2
140
3.0
141
0.0
143
0.0393701
146
0.6
147
0.7
176
   256
177
   256
178
   256
271
     2
272
     2
283
     0
284
     8
288
     1
289
     0
340
11
371
    -1
372
    -1
  0
DIMSTYLE
105
84
330
A
100
AcDbSymbolTableRecord
100
AcDbDimStyleTableRecord
  2
AM_ISO$6
 70
     0
  4
"
 41
3.0
 42
1.0
 43
8.0
 44
1.0
 47
0.1
 48
0.1
 73
     0
 74
     0
 78
     8
 79
     2
140
3.0
141
0.0
143
0.0393701
146
0.6
147
0.7
172
     1
176
   256
177
   256
178
   256
271
     2
272
     2
283
     0
284
     8
340
11
371
    -1
372
    -1
  0
DIMSTYLE
105
85
330
A
100
AcDbSymbolTableRecord
100
AcDbDimStyleTableRecord
  2
AM_ISO$7
 70
     0
  4
"
 41
3.0
 42
1.0
 43
8.0
 44
1.0
 47
0.1
 48
0.1
 73
     0
 74
     0
 77
     1
 78
     8
 79
     2
140
5.0
141
0.0
143
0.0393701
146
0.6
147
0.7
172
     1
176
   256
177
   256
178
   256
271
     2
272
     2
283
     0
284
     8
340
11
371
    -1
372
    -1
  0
DIMSTYLE
105
86
330
A
100
AcDbSymbolTableRecord
100
AcDbDimStyleTableRecord
  2
AM_ISO$SF
 70
     0
  4
"
 41
2.5
 42
1.0
 43
10.0
 44
1.0
 47
0.1
 48
0.1
 73
     0
 74
     0
 75
     1
 76
     1
 77
     1
 78
     8
 79
     2
140
3.5
141
0.0
143
0.0393701
146
0.71
147
1.5
172
     1
176
   256
177
   256
178
     2
271
     2
272
     3
274
     4
283
     0
284
     8
340
11
371
    -1
372
    -1
  0
DIMSTYLE
105
8B
330
A
100
AcDbSymbolTableRecord
100
AcDbDimStyleTableRecord
  2
AM_ISO$SH
 70
     0
  4
"
 41
2.5
 42
1.0
 43
10.0
 44
1.0
 47
0.1
 48
0.1
 73
     0
 74
     0
 75
     1
 76
     1
 77
     1
 78
     8
 79
     2
140
3.5
141
0.0
143
0.0393701
144
2.0
146
0.71
147
1.5
172
     1
173
     1
176
   256
177
   256
178
     2
271
     2
272
     3
274
     4
283
     0
284
     8
340
11
343
87
371
    -1
372
    -1
  0
DIMSTYLE
105
40B
102
{ACAD_REACTORS
330
3271
330
324B
330
3465
330
3413
330
33C3
330
33E9
330
3369
102
}
330
A
100
AcDbSymbolTableRecord
100
AcDbDimStyleTableRecord
  2
AM_ISO$0
 70
     0
  4
"
 41
3.0
 42
1.0
 43
8.0
 44
1.0
 47
0.1
 48
0.1
 73
     0
 74
     0
 77
     1
 78
     8
 79
     2
140
3.0
141
0.0
143
0.0393701
146
0.6
147
0.7
172
     1
176
   256
177
   256
178
   256
271
     2
272
     2
283
     0
284
     8
340
11
371
    -1
372
    -1
  0
DIMSTYLE
105
2B1E
330
A
100
AcDbSymbolTableRecord
100
AcDbDimStyleTableRecord
  2
Standard
 70
     0
340
11
  0
DIMSTYLE
105
2B1F
330
A
100
AcDbSymbolTableRecord
100
AcDbDimStyleTableRecord
  2
AM_ANSI
 70
     0
  4
mm
 41
0.1
 42
0.05
 43
0.5
 44
0.1
 47
0.1
 48
0.1
 78
     7
 79
     2
140
0.12
141
0.0
146
0.71
147
0.06
176
   256
177
   256
178
     2
274
     4
284
     7
340
11
371
    -1
372
    -1
  0
DIMSTYLE
105
2B20
330
A
100
AcDbSymbolTableRecord
100
AcDbDimStyleTableRecord
  2
AM_ANSI$3
 70
     0
  4
mm
 41
0.1
 42
0.05
 43
0.5
 44
0.1
 47
0.1
 48
0.1
 78
     7
 79
     2
140
0.12
141
0.0
146
0.71
147
0.06
176
   256
177
   256
178
     2
274
     4
284
     7
288
     1
289
     0
340
11
371
    -1
372
    -1
  0
DIMSTYLE
105
2B21
330
A
100
AcDbSymbolTableRecord
100
AcDbDimStyleTableRecord
  2
AM_ANSI$4
 70
     0
  4
mm
 41
0.1
 42
0.05
 43
0.5
 44
0.1
 47
0.1
 48
0.1
 78
     7
 79
     2
140
0.12
141
0.0
146
0.71
147
0.06
176
   256
177
   256
178
     2
274
     4
284
     7
288
     1
289
     0
340
11
371
    -1
372
    -1
  0
DIMSTYLE
105
2B22
330
A
100
AcDbSymbolTableRecord
100
AcDbDimStyleTableRecord
  2
AM_ANSI$7
 70
     0
  4
mm
 41
0.1
 42
0.05
 43
0.5
 44
0.1
 47
0.1
 48
0.1
 78
     7
 79
     2
140
0.24
141
0.0
146
0.71
147
0.06
176
   256
177
   256
178
     2
274
     4
284
     7
340
11
371
    -1
372
    -1
  0
DIMSTYLE
105
2B23
330
A
100
AcDbSymbolTableRecord
100
AcDbDimStyleTableRecord
  2
AM_ANSI$SF
 70
     0
  4
mm
 41
0.1
 42
0.05
 43
0.5
 44
0.1
 47
0.1
 48
0.1
 75
     1
 76
     1
 78
     7
 79
     2
140
0.12
141
0.0
146
0.71
147
0.06
176
   256
177
   256
178
     2
274
     4
284
     7
340
11
371
    -1
372
    -1
  0
DIMSTYLE
105
2B24
330
A
100
AcDbSymbolTableRecord
100
AcDbDimStyleTableRecord
  2
AM_ANSI$SH
 70
     0
  4
mm
 41
0.1
 42
0.05
 43
0.5
 44
0.1
 47
0.1
 48
0.1
 75
     1
 76
     1
 78
     7
 79
     2
140
0.12
141
0.0
146
0.71
147
0.06
173
     1
176
   256
177
   256
178
     2
274
     4
284
     7
340
11
343
87
371
    -1
372
    -1
  0
ENDTAB
  0
TABLE
  2
BLOCK_RECORD
  5
1
330
0
100
AcDbSymbolTable
 70
    17
  0
BLOCK_RECORD
  5
1F
102
{ACAD_XDICTIONARY
360
8F
102
}
330
1
100
AcDbSymbolTableRecord
100
AcDbBlockTableRecord
  2
*Model_Space
340
22
  0
BLOCK_RECORD
  5
1B
330
1
100
AcDbSymbolTableRecord
100
AcDbBlockTableRecord
  2
*Paper_Space
340
1E
  0
BLOCK_RECORD
  5
23
330
1
100
AcDbSymbolTableRecord
100
AcDbBlockTableRecord
  2
*Paper_Space0
340
26
  0
BLOCK_RECORD
  5
87
330
1
100
AcDbSymbolTableRecord
100
AcDbBlockTableRecord
  2
GENAXEH
340
0
  0
BLOCK_RECORD
  5
324C
330
1
100
AcDbSymbolTableRecord
100
AcDbBlockTableRecord
  2
*D10
340
0
  0
BLOCK_RECORD
  5
3272
330
1
100
AcDbSymbolTableRecord
100
AcDbBlockTableRecord
  2
*D11
340
0
  0
BLOCK_RECORD
  5
336A
330
1
100
AcDbSymbolTableRecord
100
AcDbBlockTableRecord
  2
*D12
340
0
  0
BLOCK_RECORD
  5
33C4
330
1
100
AcDbSymbolTableRecord
100
AcDbBlockTableRecord
  2
*D13
340
0
  0
BLOCK_RECORD
  5
33EA
330
1
100
AcDbSymbolTableRecord
100
AcDbBlockTableRecord
  2
*D14
340
0
  0
BLOCK_RECORD
  5
3414
330
1
100
AcDbSymbolTableRecord
100
AcDbBlockTableRecord
  2
*D15
340
0
  0
BLOCK_RECORD
  5
3466
330
1
100
AcDbSymbolTableRecord
100
AcDbBlockTableRecord
  2
*D16
340
0
  0
ENDTAB
  0
ENDSEC
  0
SECTION
  2
BLOCKS
  0
BLOCK
  5
20
330
1F
100
AcDbEntity
  8
0
100
AcDbBlockBegin
  2
*Model_Space
 70
     0
 10
0.0
 20
0.0
 30
0.0
  3
*Model_Space
  1

  0
ENDBLK
  5
21
330
1F
100
AcDbEntity
  8
0
100
AcDbBlockEnd
  0
BLOCK
  5
1C
330
1B
100
AcDbEntity
 67
     1
  8
0
100
AcDbBlockBegin
  2
*Paper_Space
 70
     0
 10
0.0
 20
0.0
 30
0.0
  3
*Paper_Space
  1

  0
ENDBLK
  5
1D
330
1B
100
AcDbEntity
 67
     1
  8
0
100
AcDbBlockEnd
  0
BLOCK
  5
24
330
23
100
AcDbEntity
  8
0
100
AcDbBlockBegin
  2
*Paper_Space0
 70
     0
 10
0.0
 20
0.0
 30
0.0
  3
*Paper_Space0
  1

  0
ENDBLK
  5
25
330
23
100
AcDbEntity
  8
0
100
AcDbBlockEnd
  0
BLOCK
  5
89
330
87
100
AcDbEntity
  8
0
100
AcDbBlockBegin
  2
GENAXEH
 70
     0
 10
0.0
 20
0.0
 30
0.0
  3
GENAXEH
  1

  0
LINE
  5
88
330
87
100
AcDbEntity
  8
0
100
AcDbLine
 10
-1.0
 20
0.0
 30
0.0
 11
1.0
 21
0.0
 31
0.0
  0
ENDBLK
  5
8A
330
87
100
AcDbEntity
  8
0
100
AcDbBlockEnd
  0
BLOCK
  5
3258
330
324C
100
AcDbEntity
  8
0
100
AcDbBlockBegin
  2
*D10
 70
     1
 10
0.0
 20
0.0
 30
0.0
  3
*D10
  1

  0
LINE
  5
360A
330
324C
100
AcDbEntity
  8
AM_5
100
AcDbLine
 10
159.0197791272228
 20
381.9001547417569
 30
0.0
 11
153.3211325155877
 21
381.9001547417569
 31
0.0
  0
LINE
  5
360B
330
324C
100
AcDbEntity
  8
AM_5
100
AcDbLine
 10
157.8697791272224
 20
377.6001547417568
 30
0.0
 11
153.3211325155877
 21
377.6001547417568
 31
0.0
  0
LINE
  5
360C
330
324C
100
AcDbEntity
  8
AM_5
100
AcDbLine
 10
154.0211325155877
 20
384.0001547417569
 30
0.0
 11
154.0211325155877
 21
386.1001547417568
 31
0.0
  0
LINE
  5
360D
330
324C
100
AcDbEntity
  8
AM_5
100
AcDbLine
 10
154.0211325155877
 20
375.5001547417568
 30
0.0
 11
154.0211325155877
 21
373.4001547417569
 31
0.0
  0
LINE
  5
360E
330
324C
100
AcDbEntity
  8
AM_5
100
AcDbLine
 10
154.0211325155877
 20
381.9001547417569
 30
0.0
 11
154.0211325155877
 21
377.6001547417568
 31
0.0
  0
SOLID
  5
360F
330
324C
100
AcDbEntity
  8
AM_5
100
AcDbTrace
 10
153.6711325155877
 20
384.0001547417569
 30
0.0
 11
154.3711325155876
 21
384.0001547417569
 31
0.0
 12
154.0211325155877
 22
381.9001547417569
 32
0.0
 13
154.0211325155877
 23
381.9001547417569
 33
0.0
  0
SOLID
  5
3610
330
324C
100
AcDbEntity
  8
AM_5
100
AcDbTrace
 10
153.6711325155877
 20
375.5001547417568
 30
0.0
 11
154.3711325155876
 21
375.5001547417568
 31
0.0
 12
154.0211325155877
 22
377.6001547417568
 32
0.0
 13
154.0211325155877
 23
377.6001547417568
 33
0.0
  0
MTEXT
  5
3611
330
324C
100
AcDbEntity
  8
AM_5
100
AcDbMText
 10
152.4811325155876
 20
379.7501547417569
 30
0.0
 40
2.099999999999999
 41
0.0
 71
     5
 72
     1
  1
4.3
 11
0.0000000000000001
 21
1.0
 31
0.0
 73
     1
 44
1.0
1001
ACAD
1000
MTEXTBEGIN
1070
    73
1070
     1
1070
    44
1040
1.0
1070
    74
1070
     0
1000
MTEXTEND
  0
POINT
  5
3612
330
324C
100
AcDbEntity
  8
Defpoints
 62
     0
100
AcDbPoint
 10
159.7197791272228
 20
381.9001547417569
 30
0.0
  0
POINT
  5
3613
330
324C
100
AcDbEntity
  8
Defpoints
 62
     0
100
AcDbPoint
 10
158.5697791272224
 20
377.6001547417568
 30
0.0
  0
POINT
  5
3614
330
324C
100
AcDbEntity
  8
Defpoints
 62
     0
100
AcDbPoint
 10
154.0211325155877
 20
377.6001547417568
 30
0.0
  0
ENDBLK
  5
3259
330
324C
100
AcDbEntity
  8
0
100
AcDbBlockEnd
  0
BLOCK
  5
327E
330
3272
100
AcDbEntity
  8
0
100
AcDbBlockBegin
  2
*D11
 70
     1
 10
0.0
 20
0.0
 30
0.0
  3
*D11
  1

  0
LINE
  5
35CC
330
3272
100
AcDbEntity
  8
AM_5
100
AcDbLine
 10
164.8697791272225
 20
376.9001547417569
 30
0.0
 11
164.8697791272225
 21
369.7373960453145
 31
0.0
  0
LINE
  5
35CD
330
3272
100
AcDbEntity
  8
AM_5
100
AcDbLine
 10
158.5697791272224
 20
376.9001547417569
 30
0.0
 11
158.5697791272224
 21
369.7373960453145
 31
0.0
  0
LINE
  5
35CE
330
3272
100
AcDbEntity
  8
AM_5
100
AcDbLine
 10
162.7697791272225
 20
370.4373960453145
 30
0.0
 11
160.6697791272224
 21
370.4373960453145
 31
0.0
  0
SOLID
  5
35CF
330
3272
100
AcDbEntity
  8
AM_5
100
AcDbTrace
 10
162.7697791272225
 20
370.7873960453146
 30
0.0
 11
162.7697791272225
 21
370.0873960453145
 31
0.0
 12
164.8697791272225
 22
370.4373960453145
 32
0.0
 13
164.8697791272225
 23
370.4373960453145
 33
0.0
  0
SOLID
  5
35D0
330
3272
100
AcDbEntity
  8
AM_5
100
AcDbTrace
 10
160.6697791272224
 20
370.7873960453146
 30
0.0
 11
160.6697791272224
 21
370.0873960453145
 31
0.0
 12
158.5697791272224
 22
370.4373960453145
 32
0.0
 13
158.5697791272224
 23
370.4373960453145
 33
0.0
  0
MTEXT
  5
35D1
330
3272
100
AcDbEntity
  8
AM_5
100
AcDbMText
 10
161.7197791272224
 20
371.9773960453145
 30
0.0
 40
2.099999999999999
 41
0.0
 71
     5
 72
     1
  1
6.3
 73
     1
 44
1.0
1001
ACAD
1000
MTEXTBEGIN
1070
    73
1070
     1
1070
    44
1040
1.0
1070
    74
1070
     0
1000
MTEXTEND
  0
POINT
  5
35D2
330
3272
100
AcDbEntity
  8
Defpoints
 62
     0
100
AcDbPoint
 10
164.8697791272225
 20
377.6001547417568
 30
0.0
  0
POINT
  5
35D3
330
3272
100
AcDbEntity
  8
Defpoints
 62
     0
100
AcDbPoint
 10
158.5697791272224
 20
377.6001547417568
 30
0.0
  0
POINT
  5
35D4
330
3272
100
AcDbEntity
  8
Defpoints
 62
     0
100
AcDbPoint
 10
158.5697791272224
 20
370.4373960453145
 30
0.0
  0
ENDBLK
  5
327F
330
3272
100
AcDbEntity
  8
0
100
AcDbBlockEnd
  0
BLOCK
  5
3376
330
336A
100
AcDbEntity
  8
0
100
AcDbBlockBegin
  2
*D12
 70
     1
 10
0.0
 20
0.0
 30
0.0
  3
*D12
  1

  0
LINE
  5
35D5
330
336A
100
AcDbEntity
  8
AM_5
100
AcDbLine
 10
217.4627346509201
 20
378.1169458524457
 30
0.0
 11
224.5721916514711
 21
378.1169458524457
 31
0.0
  0
LINE
  5
35D6
330
336A
100
AcDbEntity
  8
AM_5
100
AcDbLine
 10
217.4627346509201
 20
381.1169458524457
 30
0.0
 11
224.5721916514711
 21
381.1169458524457
 31
0.0
  0
LINE
  5
35D7
330
336A
100
AcDbEntity
  8
AM_5
100
AcDbLine
 10
223.8721916514712
 20
383.2169458524457
 30
0.0
 11
223.8721916514712
 21
385.3169458524456
 31
0.0
  0
LINE
  5
35D8
330
336A
100
AcDbEntity
  8
AM_5
100
AcDbLine
 10
223.8721916514712
 20
376.0169458524456
 30
0.0
 11
223.8721916514712
 21
367.1721591383446
 31
0.0
  0
LINE
  5
35D9
330
336A
100
AcDbEntity
  8
AM_5
100
AcDbLine
 10
223.8721916514712
 20
381.1169458524457
 30
0.0
 11
223.8721916514712
 21
378.1169458524457
 31
0.0
  0
SOLID
  5
35DA
330
336A
100
AcDbEntity
  8
AM_5
100
AcDbTrace
 10
223.5221916514712
 20
383.2169458524457
 30
0.0
 11
224.2221916514711
 21
383.2169458524457
 31
0.0
 12
223.8721916514712
 22
381.1169458524457
 32
0.0
 13
223.8721916514712
 23
381.1169458524457
 33
0.0
  0
SOLID
  5
35DB
330
336A
100
AcDbEntity
  8
AM_5
100
AcDbTrace
 10
223.5221916514712
 20
376.0169458524456
 30
0.0
 11
224.2221916514711
 21
376.0169458524456
 31
0.0
 12
223.8721916514712
 22
378.1169458524457
 32
0.0
 13
223.8721916514712
 23
378.1169458524457
 33
0.0
  0
MTEXT
  5
35DC
330
336A
100
AcDbEntity
  8
AM_5
100
AcDbMText
 10
222.3321916514711
 20
369.0706515623939
 30
0.0
 40
2.099999999999999
 41
0.0
 71
     5
 72
     1
  1
%%c3
 11
0.0000000000000001
 21
1.0
 31
0.0
 73
     1
 44
1.0
1001
ACAD
1000
MTEXTBEGIN
1070
    73
1070
     1
1070
    44
1040
1.0
1070
    74
1070
     0
1000
MTEXTEND
  0
POINT
  5
35DD
330
336A
100
AcDbEntity
  8
Defpoints
 62
     0
100
AcDbPoint
 10
216.7627346509201
 20
378.1169458524457
 30
0.0
  0
POINT
  5
35DE
330
336A
100
AcDbEntity
  8
Defpoints
 62
     0
100
AcDbPoint
 10
216.7627346509201
 20
381.1169458524457
 30
0.0
  0
POINT
  5
35DF
330
336A
100
AcDbEntity
  8
Defpoints
 62
     0
100
AcDbPoint
 10
223.8721916514712
 20
381.1169458524457
 30
0.0
  0
ENDBLK
  5
3377
330
336A
100
AcDbEntity
  8
0
100
AcDbBlockEnd
  0
BLOCK
  5
33D0
330
33C4
100
AcDbEntity
  8
0
100
AcDbBlockBegin
  2
*D13
 70
     1
 10
0.0
 20
0.0
 30
0.0
  3
*D13
  1

  0
LINE
  5
35FF
330
33C4
100
AcDbEntity
  8
AM_5
100
AcDbLine
 10
178.7627346509201
 20
402.1732925003341
 30
0.0
 11
178.7627346509201
 21
396.7856832816731
 31
0.0
  0
LINE
  5
3600
330
33C4
100
AcDbEntity
  8
AM_5
100
AcDbLine
 10
180.7627346509201
 20
400.5982925003343
 30
0.0
 11
180.7627346509201
 21
396.7856832816731
 31
0.0
  0
LINE
  5
3601
330
33C4
100
AcDbEntity
  8
AM_5
100
AcDbLine
 10
176.6627346509201
 20
397.4856832816731
 30
0.0
 11
174.5627346509201
 21
397.4856832816731
 31
0.0
  0
LINE
  5
3602
330
33C4
100
AcDbEntity
  8
AM_5
100
AcDbLine
 10
182.8627346509201
 20
397.4856832816731
 30
0.0
 11
186.9621854383216
 21
397.4856832816731
 31
0.0
  0
LINE
  5
3603
330
33C4
100
AcDbEntity
  8
AM_5
100
AcDbLine
 10
178.7627346509201
 20
397.4856832816731
 30
0.0
 11
180.7627346509201
 21
397.4856832816731
 31
0.0
  0
SOLID
  5
3604
330
33C4
100
AcDbEntity
  8
AM_5
100
AcDbTrace
 10
176.6627346509201
 20
397.8356832816731
 30
0.0
 11
176.6627346509201
 21
397.1356832816731
 31
0.0
 12
178.7627346509201
 22
397.4856832816731
 32
0.0
 13
178.7627346509201
 23
397.4856832816731
 33
0.0
  0
SOLID
  5
3605
330
33C4
100
AcDbEntity
  8
AM_5
100
AcDbTrace
 10
182.8627346509201
 20
397.8356832816731
 30
0.0
 11
182.8627346509201
 21
397.1356832816731
 31
0.0
 12
180.7627346509201
 22
397.4856832816731
 32
0.0
 13
180.7627346509201
 23
397.4856832816731
 33
0.0
  0
MTEXT
  5
3606
330
33C4
100
AcDbEntity
  8
AM_5
100
AcDbMText
 10
185.9624600446209
 20
399.0258899745865
 30
0.0
 40
2.099999999999999
 41
0.0
 71
     5
 72
     1
  1
2
 73
     1
 44
1.0
1001
ACAD
1000
MTEXTBEGIN
1070
    73
1070
     1
1070
    44
1040
1.0
1070
    74
1070
     0
1000
MTEXTEND
  0
POINT
  5
3607
330
33C4
100
AcDbEntity
  8
Defpoints
 62
     0
100
AcDbPoint
 10
178.7627346509201
 20
402.8732925003342
 30
0.0
  0
POINT
  5
3608
330
33C4
100
AcDbEntity
  8
Defpoints
 62
     0
100
AcDbPoint
 10
180.7627346509201
 20
401.2982925003343
 30
0.0
  0
POINT
  5
3609
330
33C4
100
AcDbEntity
  8
Defpoints
 62
     0
100
AcDbPoint
 10
180.7627346509201
 20
397.4856832816731
 30
0.0
  0
ENDBLK
  5
33D1
330
33C4
100
AcDbEntity
  8
0
100
AcDbBlockEnd
  0
BLOCK
  5
33F4
330
33EA
100
AcDbEntity
  8
0
100
AcDbBlockBegin
  2
*D14
 70
     1
 10
0.0
 20
0.0
 30
0.0
  3
*D14
  1

  0
LINE
  5
35E0
330
33EA
100
AcDbEntity
  8
AM_5
100
AcDbLine
 10
178.7627346509201
 20
376.9001547417569
 30
0.0
 11
178.7627346509201
 21
369.7373960453147
 31
0.0
  0
LINE
  5
35E1
330
33EA
100
AcDbEntity
  8
AM_5
100
AcDbLine
 10
208.0627346509201
 20
376.9001547417569
 30
0.0
 11
208.0627346509201
 21
369.7373960453147
 31
0.0
  0
LINE
  5
35E2
330
33EA
100
AcDbEntity
  8
AM_5
100
AcDbLine
 10
180.8627346509201
 20
370.4373960453147
 30
0.0
 11
205.9627346509201
 21
370.4373960453147
 31
0.0
  0
SOLID
  5
35E3
330
33EA
100
AcDbEntity
  8
AM_5
100
AcDbTrace
 10
180.8627346509201
 20
370.7873960453147
 30
0.0
 11
180.8627346509201
 21
370.0873960453147
 31
0.0
 12
178.7627346509201
 22
370.4373960453147
 32
0.0
 13
178.7627346509201
 23
370.4373960453147
 33
0.0
  0
SOLID
  5
35E4
330
33EA
100
AcDbEntity
  8
AM_5
100
AcDbTrace
 10
205.9627346509201
 20
370.7873960453147
 30
0.0
 11
205.9627346509201
 21
370.0873960453147
 31
0.0
 12
208.0627346509201
 22
370.4373960453147
 32
0.0
 13
208.0627346509201
 23
370.4373960453147
 33
0.0
  0
MTEXT
  5
35E5
330
33EA
100
AcDbEntity
  8
AM_5
100
AcDbMText
 10
193.4127346509201
 20
371.9776027382281
 30
0.0
 40
2.099999999999999
 41
0.0
 71
     5
 72
     1
  1
29.3
 73
     1
 44
1.0
1001
ACAD
1000
MTEXTBEGIN
1070
    73
1070
     1
1070
    44
1040
1.0
1070
    74
1070
     0
1000
MTEXTEND
  0
POINT
  5
35E6
330
33EA
100
AcDbEntity
  8
Defpoints
 62
     0
100
AcDbPoint
 10
178.7627346509201
 20
377.6001547417568
 30
0.0
  0
POINT
  5
35E7
330
33EA
100
AcDbEntity
  8
Defpoints
 62
     0
100
AcDbPoint
 10
208.0627346509201
 20
377.6001547417569
 30
0.0
  0
POINT
  5
35E8
330
33EA
100
AcDbEntity
  8
Defpoints
 62
     0
100
AcDbPoint
 10
208.0627346509201
 20
370.4373960453147
 30
0.0
  0
ENDBLK
  5
33F5
330
33EA
100
AcDbEntity
  8
0
100
AcDbBlockEnd
  0
BLOCK
  5
3420
330
3414
100
AcDbEntity
  8
0
100
AcDbBlockBegin
  2
*D15
 70
     1
 10
0.0
 20
0.0
 30
0.0
  3
*D15
  1

  0
LINE
  5
35E9
330
3414
100
AcDbEntity
  8
AM_5
100
AcDbLine
 10
178.0627346509201
 20
377.6001547417568
 30
0.0
 11
174.9949845793588
 21
377.6001547417568
 31
0.0
  0
LINE
  5
35EA
330
3414
100
AcDbEntity
  8
AM_5
100
AcDbLine
 10
178.0627346509201
 20
380.6001547417569
 30
0.0
 11
174.9949845793588
 21
380.6001547417569
 31
0.0
  0
LINE
  5
35EB
330
3414
100
AcDbEntity
  8
AM_5
100
AcDbLine
 10
175.6949845793588
 20
375.5001547417568
 30
0.0
 11
175.6949845793588
 21
373.4001547417569
 31
0.0
  0
LINE
  5
35EC
330
3414
100
AcDbEntity
  8
AM_5
100
AcDbLine
 10
175.6949845793588
 20
382.700154741757
 30
0.0
 11
175.6949845793588
 21
384.8001547417569
 31
0.0
  0
LINE
  5
35ED
330
3414
100
AcDbEntity
  8
AM_5
100
AcDbLine
 10
175.6949845793588
 20
377.6001547417568
 30
0.0
 11
175.6949845793588
 21
380.6001547417569
 31
0.0
  0
SOLID
  5
35EE
330
3414
100
AcDbEntity
  8
AM_5
100
AcDbTrace
 10
175.3449845793588
 20
375.5001547417568
 30
0.0
 11
176.0449845793587
 21
375.5001547417568
 31
0.0
 12
175.6949845793588
 22
377.6001547417568
 32
0.0
 13
175.6949845793588
 23
377.6001547417568
 33
0.0
  0
SOLID
  5
35EF
330
3414
100
AcDbEntity
  8
AM_5
100
AcDbTrace
 10
175.3449845793588
 20
382.700154741757
 30
0.0
 11
176.0449845793587
 21
382.700154741757
 31
0.0
 12
175.6949845793588
 22
380.6001547417569
 32
0.0
 13
175.6949845793588
 23
380.6001547417569
 33
0.0
  0
MTEXT
  5
35F0
330
3414
100
AcDbEntity
  8
AM_5
100
AcDbMText
 10
174.1549845793587
 20
379.1001547417569
 30
0.0
 40
2.099999999999999
 41
0.0
 71
     5
 72
     1
  1
3
 11
0.0000000000000001
 21
1.0
 31
0.0
 73
     1
 44
1.0
1001
ACAD
1000
MTEXTBEGIN
1070
    73
1070
     1
1070
    44
1040
1.0
1070
    74
1070
     0
1000
MTEXTEND
  0
POINT
  5
35F1
330
3414
100
AcDbEntity
  8
Defpoints
 62
     0
100
AcDbPoint
 10
178.7627346509201
 20
377.6001547417568
 30
0.0
  0
POINT
  5
35F2
330
3414
100
AcDbEntity
  8
Defpoints
 62
     0
100
AcDbPoint
 10
178.7627346509201
 20
380.6001547417569
 30
0.0
  0
POINT
  5
35F3
330
3414
100
AcDbEntity
  8
Defpoints
 62
     0
100
AcDbPoint
 10
175.6949845793588
 20
380.6001547417569
 30
0.0
  0
ENDBLK
  5
3421
330
3414
100
AcDbEntity
  8
0
100
AcDbBlockEnd
  0
BLOCK
  5
3472
330
3466
100
AcDbEntity
  8
0
100
AcDbBlockBegin
  2
*D16
 70
     1
 10
0.0
 20
0.0
 30
0.0
  3
*D16
  1

  0
LINE
  5
35F4
330
3466
100
AcDbEntity
  8
AM_5
100
AcDbLine
 10
163.7197791272224
 20
382.6001547417569
 30
0.0
 11
163.7197791272224
 21
387.3747435974599
 31
0.0
  0
LINE
  5
35F5
330
3466
100
AcDbEntity
  8
AM_5
100
AcDbLine
 10
159.7197791272228
 20
382.6001547417569
 30
0.0
 11
159.7197791272228
 21
387.3747435974599
 31
0.0
  0
LINE
  5
35F6
330
3466
100
AcDbEntity
  8
AM_5
100
AcDbLine
 10
165.8197791272224
 20
386.67474359746
 30
0.0
 11
167.9197791272224
 21
386.67474359746
 31
0.0
  0
LINE
  5
35F7
330
3466
100
AcDbEntity
  8
AM_5
100
AcDbLine
 10
157.6197791272228
 20
386.67474359746
 30
0.0
 11
155.5197791272228
 21
386.67474359746
 31
0.0
  0
LINE
  5
35F8
330
3466
100
AcDbEntity
  8
AM_5
100
AcDbLine
 10
163.7197791272224
 20
386.67474359746
 30
0.0
 11
159.7197791272228
 21
386.67474359746
 31
0.0
  0
SOLID
  5
35F9
330
3466
100
AcDbEntity
  8
AM_5
100
AcDbTrace
 10
165.8197791272224
 20
387.02474359746
 30
0.0
 11
165.8197791272224
 21
386.3247435974599
 31
0.0
 12
163.7197791272224
 22
386.67474359746
 32
0.0
 13
163.7197791272224
 23
386.67474359746
 33
0.0
  0
SOLID
  5
35FA
330
3466
100
AcDbEntity
  8
AM_5
100
AcDbTrace
 10
157.6197791272228
 20
387.02474359746
 30
0.0
 11
157.6197791272228
 21
386.3247435974599
 31
0.0
 12
159.7197791272228
 22
386.67474359746
 32
0.0
 13
159.7197791272228
 23
386.67474359746
 33
0.0
  0
MTEXT
  5
35FB
330
3466
100
AcDbEntity
  8
AM_5
100
AcDbMText
 10
161.7197791272226
 20
388.21474359746
 30
0.0
 40
2.099999999999999
 41
0.0
 71
     5
 72
     1
  1
4
 73
     1
 44
1.0
1001
ACAD
1000
MTEXTBEGIN
1070
    73
1070
     1
1070
    44
1040
1.0
1070
    74
1070
     0
1000
MTEXTEND
  0
POINT
  5
35FC
330
3466
100
AcDbEntity
  8
Defpoints
 62
     0
100
AcDbPoint
 10
163.7197791272224
 20
381.9001547417569
 30
0.0
  0
POINT
  5
35FD
330
3466
100
AcDbEntity
  8
Defpoints
 62
     0
100
AcDbPoint
 10
159.7197791272228
 20
381.9001547417569
 30
0.0
  0
POINT
  5
35FE
330
3466
100
AcDbEntity
  8
Defpoints
 62
     0
100
AcDbPoint
 10
159.7197791272228
 20
386.67474359746
 30
0.0
  0
ENDBLK
  5
3473
330
3466
100
AcDbEntity
  8
0
100
AcDbBlockEnd
  0
ENDSEC
  0
SECTION
  2
ENTITIES
  0
TEXT
  5
28C3
330
1F
100
AcDbEntity
  8
LOGO
 62
     7
100
AcDbText
 10
163.3189337314219
 20
304.7116589661787
 30
0.0
 40
1.740547938461538
  1
Order example:
 41
0.8
  7
CHINESET
100
AcDbText
  0
TEXT
  5
28C4
330
1F
100
AcDbEntity
  8
LOGO
 62
     7
100
AcDbText
 10
163.6312024253278
 20
307.1619900784833
 30
0.0
 40
2.610821907692307
  1
訂購代號：
  7
CHINESET
100
AcDbText
  0
LINE
  5
28C5
330
1F
100
AcDbEntity
  8
LOGO
 62
     4
100
AcDbLine
 10
162.5626597485611
 20
297.3763326818619
 30
0.0
 11
162.5626597485611
 21
310.4304422203235
 31
0.0
  0
TEXT
  5
28C6
330
1F
100
AcDbEntity
  8
LOGO
  6
Continuous
100
AcDbText
 10
138.5327135895189
 20
299.9407928003236
 30
0.0
 40
1.95811643076923
  1
金器工業股份有限公司
  7
CHINESET
100
AcDbText
  0
TEXT
  5
28C7
330
1F
100
AcDbEntity
  8
LOGO
  6
Continuous
100
AcDbText
 10
134.9360411004273
 20
297.9822927322563
 30
0.0
 40
1.305410953846153
  1
MINDMAN INDUSTRIAL CO., LTD.
 41
0.85
  7
CHINESET
100
AcDbText
  0
LINE
  5
28C8
330
1F
100
AcDbEntity
  8
LOGO
 62
     4
100
AcDbLine
 10
162.5626597485611
 20
307.8196203126312
 30
0.0
 11
143.4166324254841
 21
307.8196203126312
 31
0.0
  0
LINE
  5
28C9
330
1F
100
AcDbEntity
  8
LOGO
 62
     4
100
AcDbLine
 10
162.5626597485611
 20
305.2087984049388
 30
0.0
 11
143.4166324254841
 21
305.2087984049388
 31
0.0
  0
LINE
  5
28CA
330
1F
100
AcDbEntity
  8
LOGO
 62
     4
100
AcDbLine
 10
162.5626597485611
 20
302.5979764972467
 30
0.0
 11
133.8436187639458
 21
302.5979764972467
 31
0.0
  0
LINE
  5
28CB
330
1F
100
AcDbEntity
  8
LOGO
 62
     4
100
AcDbLine
 10
143.4166324254841
 20
302.5979764972467
 30
0.0
 11
143.4166324254841
 21
310.4304422203235
 31
0.0
  0
TEXT
  5
28CC
330
1F
100
AcDbEntity
  8
LOGO
100
AcDbText
 10
156.5020384220824
 20
303.2506819741696
 30
0.0
 40
1.305410953846153
  1
mm
  7
CHINESET
 72
     1
 11
158.1182615077967
 21
303.9033874510926
 31
0.0
100
AcDbText
 73
     2
  0
TEXT
  5
28CD
330
1F
100
AcDbEntity
  8
LOGO
100
AcDbText
 10
155.8182517319725
 20
308.4723257895542
 30
0.0
 40
1.305410953846153
  1
1 : 1
  7
CHINESET
 72
     1
 11
158.1182615077967
 21
309.1250312664773
 31
0.0
100
AcDbText
 73
     2
  0
LINE
  5
28CE
330
1F
100
AcDbEntity
  8
LOGO
 62
     4
100
AcDbLine
 10
153.8599200562534
 20
302.5979764972467
 30
0.0
 11
153.8599200562534
 21
310.4304422203235
 31
0.0
  0
TEXT
  5
28CF
330
1F
100
AcDbEntity
  8
LOGO
100
AcDbText
 10
144.49301368966
 20
308.4729682162047
 30
85.55448337616052
 40
1.305410953846153
  1
比例 Scale:
 41
0.9
  7
CHINESET
 72
     4
 11
148.6382762408688
 21
309.1250312664773
 31
85.55448337616052
100
AcDbText
  0
TEXT
  5
28D0
330
1F
100
AcDbEntity
  8
LOGO
100
AcDbText
 10
144.4178360052644
 20
305.8798665769557
 30
85.55448337616052
 40
1.305410953846153
  1
投影  View:
 41
0.9
  7
CHINESET
 72
     4
 11
148.6382762408688
 21
306.5142093587849
 31
85.55448337616052
100
AcDbText
  0
TEXT
  5
28D1
330
1F
100
AcDbEntity
  8
LOGO
100
AcDbText
 10
144.5454632369127
 20
303.2506819741696
 30
85.55448337616052
 40
1.305410953846153
  1
單位  Unit:
 41
0.9
  7
CHINESET
 72
     4
 11
148.6382762408688
 21
303.9033874510926
 31
85.55448337616052
100
AcDbText
  0
LWPOLYLINE
  5
28D2
330
1F
100
AcDbEntity
  8
LOGO
 62
     4
100
AcDbPolyline
 90
        4
 70
     1
 43
0.0
 10
133.8436187639458
 20
310.4304422203235
 10
239.2867194477813
 20
310.4304422203235
 10
239.2867194477813
 20
442.6245689895539
 10
133.8436187639458
 20
442.6245689895539
1001
GENIUS_GENREC_14
1002
{
1000
PYDIR
1011
133.8436187639458
1021
442.6245689895539
1031
0.0
1002
}
1002
{
1000
PXDIR
1011
239.2867194477813
1021
310.4304422203235
1031
0.0
1002
}
1002
{
1000
PORI
1011
133.8436187639458
1021
310.4304422203235
1031
0.0
1002
}
1002
{
1000
PINS
1011
133.8436187639458
1021
310.4304422203235
1031
0.0
1002
}
1002
{
1000
PINS2
1011
239.2867194477813
1021
442.6245689895539
1031
0.0
1002
}
1002
{
1000
C
1070
     1
1002
}
1001
GENIUS_GENODEF_13
1002
{
1000
HIER
1070
     0
1002
}
1002
{
1000
MANEDIT
1070
     0
1002
}
1002
{
1000
NOSEL
1070
     0
1002
}
1002
{
1000
BEHIND
1070
     0
1002
}
1002
{
1000
OTHER
1070
     0
1002
}
1002
{
1000
REACTOR
1002
}
1001
GENIUS_GENOBJ-N-REC_13
1002
{
1000
OWNER
1000
GEN
1002
}
  0
SOLID
  5
28D3
330
1F
100
AcDbEntity
  8
LOGO
 62
     5
100
AcDbTrace
 10
135.1980035788133
 20
304.7680363973983
 30
0.0
 11
135.762429021273
 21
304.7680363973981
 31
0.0
 12
138.11744552257
 22
310.1203466276192
 32
0.0
 13
138.68187096503
 23
310.1203466276189
 33
0.0
  0
SOLID
  5
28D4
330
1F
100
AcDbEntity
  8
LOGO
 62
     5
100
AcDbTrace
 10
135.9959843767741
 20
304.7680363973983
 30
0.0
 11
136.5604098192338
 21
304.7680363973983
 31
0.0
 12
138.68187096503
 22
309.6921618092013
 32
0.0
 13
138.11744552257
 23
307.6226018535159
 33
0.0
  0
SOLID
  5
28D5
330
1F
100
AcDbEntity
  8
LOGO
 62
     2
100
AcDbTrace
 10
135.762429021273
 20
304.7680363973981
 30
0.0
 11
135.9959843767741
 21
304.7680363973983
 31
0.0
 12
138.68187096503
 22
310.1203466276189
 32
0.0
 13
138.9154263205308
 23
310.1203466276189
 33
0.0
  0
SOLID
  5
28D6
330
1F
100
AcDbEntity
  8
LOGO
 62
     5
100
AcDbTrace
 10
134.2930911804773
 20
302.8217417682272
 30
0.0
 11
134.4877206433946
 21
302.8217417682272
 31
0.0
 12
135.0358123597159
 22
303.7948890828126
 32
0.0
 13
135.2304418226327
 23
303.7948890828126
 33
0.0
  0
SOLID
  5
28D7
330
1F
100
AcDbEntity
  8
LOGO
 62
     5
100
AcDbTrace
 10
135.0358123597159
 20
303.7948890828126
 30
0.0
 11
135.2304418226327
 21
303.7948890828126
 31
0.0
 12
135.0358123597159
 22
302.8217417682272
 32
0.0
 13
135.2304418226327
 23
302.8217417682272
 33
0.0
  0
SOLID
  5
28D8
330
1F
100
AcDbEntity
  8
LOGO
 62
     5
100
AcDbTrace
 10
135.0358123597159
 20
302.8217417682272
 30
0.0
 11
135.2304418226327
 21
302.8217417682272
 31
0.0
 12
135.7785335389549
 22
303.7948890828126
 32
0.0
 13
135.9731630018719
 23
303.7948890828126
 33
0.0
  0
SOLID
  5
28D9
330
1F
100
AcDbEntity
  8
LOGO
 62
     5
100
AcDbTrace
 10
135.7785335389549
 20
303.7948890828126
 30
0.0
 11
135.9731630018719
 21
303.7948890828126
 31
0.0
 12
135.7785335389549
 22
302.8217417682272
 32
0.0
 13
135.9731630018719
 23
302.8217417682272
 33
0.0
  0
POLYLINE
  5
28DA
330
1F
100
AcDbEntity
  8
LOGO
 62
     5
100
AcDb2dPolyline
 66
     1
 10
0.0
 20
0.0
 30
0.0
 40
0.1949413691076923
 41
0.1949413691076923
  0
VERTEX
  5
28DB
330
28DA
100
AcDbEntity
  8
LOGO
 62
     5
100
AcDbVertex
100
AcDb2dVertex
 10
142.3024468345745
 20
303.4056301569784
 30
0.0
 42
1.0
  0
VERTEX
  5
28DC
330
28DA
100
AcDbEntity
  8
LOGO
 62
     5
100
AcDbVertex
100
AcDb2dVertex
 10
141.7176227272513
 20
303.4056301569784
 30
0.0
 42
1.0
  0
SEQEND
  5
28DD
330
28DA
100
AcDbEntity
  8
LOGO
 62
     5
  0
POLYLINE
  5
28DE
330
1F
100
AcDbEntity
  8
LOGO
 62
     5
100
AcDb2dPolyline
 66
     1
 10
0.0
 20
0.0
 30
0.0
 70
     1
  0
VERTEX
  5
28DF
330
28DE
100
AcDbEntity
  8
LOGO
 62
     5
100
AcDbVertex
100
AcDb2dVertex
 10
140.6152032719707
 20
303.3083154255198
 30
0.0
 42
1.000000057330635
  0
VERTEX
  5
28E0
330
28DE
100
AcDbEntity
  8
LOGO
 62
     5
100
AcDbVertex
100
AcDb2dVertex
 10
141.1990916607221
 20
303.3083154255198
 30
0.0
 42
1.000000057330635
  0
SEQEND
  5
28E1
330
28DE
100
AcDbEntity
  8
LOGO
 62
     5
  0
CIRCLE
  5
28E2
330
1F
100
AcDbEntity
  8
LOGO
 62
     5
100
AcDbCircle
 10
140.9071474663468
 20
303.3083154255198
 30
0.0
 40
0.29194419437568
  0
POLYLINE
  5
28E3
330
1F
100
AcDbEntity
  8
LOGO
 62
     5
100
AcDb2dPolyline
 66
     1
 10
0.0
 20
0.0
 30
0.0
 70
     1
 40
0.1949413691076923
 41
0.1949413691076923
  0
VERTEX
  5
28E4
330
28E3
100
AcDbEntity
  8
LOGO
 62
     5
100
AcDbVertex
100
AcDb2dVertex
 10
140.5172647281311
 20
303.3083154255198
 30
0.0
 42
1.0
  0
VERTEX
  5
28E5
330
28E3
100
AcDbEntity
  8
LOGO
 62
     5
100
AcDbVertex
100
AcDb2dVertex
 10
141.2970302045619
 20
303.3083154255198
 30
0.0
 42
1.0
  0
SEQEND
  5
28E6
330
28E3
100
AcDbEntity
  8
LOGO
 62
     5
  0
LINE
  5
28E7
330
1F
100
AcDbEntity
  8
LOGO
100
AcDbLine
 10
142.3992937067468
 20
302.8217417682272
 30
0.0
 11
142.3992937067468
 21
303.4056301569784
 31
0.0
  0
SOLID
  5
28E8
330
1F
100
AcDbEntity
  8
LOGO
 62
     5
100
AcDbTrace
 10
141.1990721977766
 20
303.7948890828126
 30
0.0
 11
141.3937016606934
 21
303.7948890828126
 31
0.0
 12
141.1990721977766
 22
302.8217417682272
 32
0.0
 13
141.3937016606934
 23
302.8217417682272
 33
0.0
  0
SOLID
  5
28E9
330
1F
100
AcDbEntity
  8
LOGO
 62
     5
100
AcDbTrace
 10
141.6207758550784
 20
302.8217417682272
 30
0.0
 11
141.8154053179958
 21
302.8217417682272
 31
0.0
 12
141.6207758550784
 22
303.7948890828126
 32
0.0
 13
141.8154053179958
 23
303.7948890828126
 33
0.0
  0
SOLID
  5
28EA
330
1F
100
AcDbEntity
  8
LOGO
 62
     5
100
AcDbTrace
 10
142.2046642438301
 20
303.4056301569784
 30
0.0
 11
142.3992937067468
 21
303.4056301569784
 31
0.0
 12
142.2046642438301
 22
302.8217417682272
 32
0.0
 13
142.3992937067468
 23
302.8217417682272
 33
0.0
  0
SOLID
  5
28EB
330
1F
100
AcDbEntity
  8
LOGO
 62
     5
100
AcDbTrace
 10
141.6013129087867
 20
309.6921618092013
 30
0.0
 11
141.0368874663273
 21
307.6226018535159
 31
0.0
 12
141.6013129087867
 22
304.7680363973981
 32
0.0
 13
141.0368874663273
 23
304.7680363973981
 33
0.0
  0
SOLID
  5
28EC
330
1F
100
AcDbEntity
  8
LOGO
 62
     5
100
AcDbTrace
 10
141.8348682642875
 20
304.7680363973981
 30
0.0
 11
142.3992937067468
 21
304.7680363973981
 31
0.0
 12
141.8348682642875
 22
310.1203466276189
 32
0.0
 13
142.3992937067468
 23
310.1203466276192
 33
0.0
  0
SOLID
  5
28ED
330
1F
100
AcDbEntity
  8
LOGO
 62
     2
100
AcDbTrace
 10
141.6013129087867
 20
310.1203466276192
 30
0.0
 11
141.8348682642875
 21
310.1203466276189
 31
0.0
 12
141.6013129087867
 22
304.7680363973981
 32
0.0
 13
141.8348682642875
 23
304.7680363973981
 33
0.0
  0
POLYLINE
  5
28EE
330
1F
100
AcDbEntity
  8
LOGO
 62
     5
100
AcDb2dPolyline
 66
     1
 10
0.0
 20
0.0
 30
0.0
 40
0.1949413691076923
 41
0.1949413691076923
  0
VERTEX
  5
28EF
330
28EE
100
AcDbEntity
  8
LOGO
 62
     5
100
AcDbVertex
100
AcDb2dVertex
 10
139.5127448907983
 20
303.4056301569784
 30
0.0
 42
1.0
  0
VERTEX
  5
28F0
330
28EE
100
AcDbEntity
  8
LOGO
 62
     5
100
AcDbVertex
100
AcDb2dVertex
 10
138.9279207834751
 20
303.4056301569784
 30
0.0
 42
1.0
  0
SEQEND
  5
28F1
330
28EE
100
AcDbEntity
  8
LOGO
 62
     5
  0
POLYLINE
  5
28F2
330
1F
100
AcDbEntity
  8
LOGO
 62
     5
100
AcDb2dPolyline
 66
     1
 10
0.0
 20
0.0
 30
0.0
 40
0.1949413691076923
 41
0.1949413691076923
  0
VERTEX
  5
28F3
330
28F2
100
AcDbEntity
  8
LOGO
 62
     5
100
AcDbVertex
100
AcDb2dVertex
 10
140.0966332795491
 20
303.4056301569784
 30
0.0
 42
1.0
  0
VERTEX
  5
28F4
330
28F2
100
AcDbEntity
  8
LOGO
 62
     5
100
AcDbVertex
100
AcDb2dVertex
 10
139.5118091722262
 20
303.4056301569784
 30
0.0
 42
1.0
  0
SEQEND
  5
28F5
330
28F2
100
AcDbEntity
  8
LOGO
 62
     5
  0
POLYLINE
  5
28F6
330
1F
100
AcDbEntity
  8
LOGO
 62
     5
100
AcDb2dPolyline
 66
     1
 10
0.0
 20
0.0
 30
0.0
 40
0.1949413691076923
 41
0.1949413691076923
  0
VERTEX
  5
28F7
330
28F6
100
AcDbEntity
  8
LOGO
 62
     5
100
AcDbVertex
100
AcDb2dVertex
 10
137.3069313357729
 20
303.4056301569784
 30
0.0
 42
1.0
  0
VERTEX
  5
28F8
330
28F6
100
AcDbEntity
  8
LOGO
 62
     5
100
AcDbVertex
100
AcDb2dVertex
 10
136.72210722845
 20
303.4056301569784
 30
0.0
 42
1.0
  0
SEQEND
  5
28F9
330
28F6
100
AcDbEntity
  8
LOGO
 62
     5
  0
SOLID
  5
28FA
330
1F
100
AcDbEntity
  8
LOGO
 62
     5
100
AcDbTrace
 10
136.6252603562774
 20
303.7948890828126
 30
0.0
 11
136.8198898191942
 21
303.7948890828126
 31
0.0
 12
136.6252603562774
 22
302.8217417682272
 32
0.0
 13
136.8198898191942
 23
302.8217417682272
 33
0.0
  0
SOLID
  5
28FB
330
1F
100
AcDbEntity
  8
LOGO
 62
     5
100
AcDbTrace
 10
137.2091487450288
 20
303.4056301569784
 30
0.0
 11
137.4037782079461
 21
303.4056301569784
 31
0.0
 12
137.2091487450288
 22
302.8217417682272
 32
0.0
 13
137.4037782079461
 23
302.8217417682272
 33
0.0
  0
POLYLINE
  5
28FC
330
1F
100
AcDbEntity
  8
LOGO
 62
     5
100
AcDb2dPolyline
 66
     1
 10
0.0
 20
0.0
 30
0.0
 70
     1
 40
0.1949413691076923
 41
0.1949413691076923
  0
VERTEX
  5
28FD
330
28FC
100
AcDbEntity
  8
LOGO
 62
     5
100
AcDbVertex
100
AcDb2dVertex
 10
137.7275627843547
 20
303.3083154255198
 30
0.0
 42
1.0
  0
VERTEX
  5
28FE
330
28FC
100
AcDbEntity
  8
LOGO
 62
     5
100
AcDbVertex
100
AcDb2dVertex
 10
138.5073282607857
 20
303.3083154255198
 30
0.0
 42
1.0
  0
SEQEND
  5
28FF
330
28FC
100
AcDbEntity
  8
LOGO
 62
     5
  0
SOLID
  5
2900
330
1F
100
AcDbEntity
  8
LOGO
 62
     5
100
AcDbTrace
 10
138.4093702539999
 20
304.0868332771885
 30
0.0
 11
138.6039997169169
 21
304.0868332771885
 31
0.0
 12
138.4093702539999
 22
302.8217417682272
 32
0.0
 13
138.6039997169169
 23
302.8217417682272
 33
0.0
  0
SOLID
  5
2901
330
1F
100
AcDbEntity
  8
LOGO
 62
     5
100
AcDbTrace
 10
138.8310739113028
 20
303.7948890828126
 30
0.0
 11
139.0257033742195
 21
303.7948890828126
 31
0.0
 12
138.8310739113028
 22
302.8217417682272
 32
0.0
 13
139.0257033742195
 23
302.8217417682272
 33
0.0
  0
SOLID
  5
2902
330
1F
100
AcDbEntity
  8
LOGO
 62
     5
100
AcDbTrace
 10
139.4149623000536
 20
303.4056301569784
 30
0.0
 11
139.6095917629709
 21
303.4056301569784
 31
0.0
 12
139.4149623000536
 22
302.8217417682272
 32
0.0
 13
139.6095917629709
 23
302.8217417682272
 33
0.0
  0
SOLID
  5
2903
330
1F
100
AcDbEntity
  8
LOGO
 62
     5
100
AcDbTrace
 10
139.998850688805
 20
303.4056301569784
 30
0.0
 11
140.193480151722
 21
303.4056301569784
 31
0.0
 12
139.998850688805
 22
302.821741768227
 32
0.0
 13
140.193480151722
 23
302.821741768227
 33
0.0
  0
SOLID
  5
2904
330
1F
100
AcDbEntity
  8
LOGO
 62
     5
100
AcDbTrace
 10
136.2035566989748
 20
303.9311297068547
 30
0.0
 11
136.3981861618924
 21
303.9311297068547
 31
0.0
 12
136.2035566989748
 22
304.0868332771885
 32
0.0
 13
136.3981861618924
 23
304.0868332771885
 33
0.0
  0
SOLID
  5
2905
330
1F
100
AcDbEntity
  8
LOGO
 62
     5
100
AcDbTrace
 10
136.2035566989748
 20
303.7948890828126
 30
0.0
 11
136.3981861618924
 21
303.7948890828126
 31
0.0
 12
136.2035566989748
 22
302.821741768227
 32
0.0
 13
136.3981861618924
 23
302.8217417682272
 33
0.0
  0
SOLID
  5
2906
330
1F
100
AcDbEntity
  8
LOGO
 62
     5
100
AcDbTrace
 10
138.11744552257
 20
304.7680363973983
 30
0.0
 11
138.68187096503
 21
304.7680363973983
 31
0.0
 12
138.11744552257
 22
307.6226018535159
 32
0.0
 13
138.68187096503
 23
309.6921618092013
 33
0.0
  0
SOLID
  5
2907
330
1F
100
AcDbEntity
  8
LOGO
 62
     5
100
AcDbTrace
 10
138.9154263205308
 20
310.1203466276189
 30
0.0
 11
139.4798517629901
 21
310.1203466276192
 31
0.0
 12
138.9154263205308
 22
305.1962212158159
 32
0.0
 13
139.4798517629901
 23
307.2657811715012
 33
0.0
  0
SOLID
  5
2908
330
1F
100
AcDbEntity
  8
LOGO
 62
     2
100
AcDbTrace
 10
138.68187096503
 20
310.1203466276189
 30
0.0
 11
138.9154263205308
 21
310.1203466276189
 31
0.0
 12
138.68187096503
 22
304.7680363973983
 32
0.0
 13
138.9154263205308
 23
304.7680363973983
 33
0.0
  0
SOLID
  5
2909
330
1F
100
AcDbEntity
  8
LOGO
 62
     5
100
AcDbTrace
 10
138.9154263205308
 20
305.1962212158159
 30
0.0
 11
139.4798517629901
 21
307.2657811715012
 31
0.0
 12
141.6013129087867
 22
310.1203466276192
 32
0.0
 13
141.0368874663273
 23
310.1203466276192
 33
0.0
  0
SOLID
  5
290A
330
1F
100
AcDbEntity
  8
LOGO
 62
     5
100
AcDbTrace
 10
138.9154263205308
 20
304.7680363973983
 30
0.0
 11
139.4798517629901
 21
304.7680363973983
 31
0.0
 12
141.6013129087867
 22
309.6921618092013
 32
0.0
 13
141.0368874663273
 23
307.6226018535159
 33
0.0
  0
SOLID
  5
290B
330
1F
100
AcDbEntity
  8
LOGO
 62
     2
100
AcDbTrace
 10
138.68187096503
 20
304.7680363973983
 30
0.0
 11
138.9154263205308
 21
304.7680363973983
 31
0.0
 12
141.6013129087867
 22
310.1203466276192
 32
0.0
 13
141.8348682642875
 23
310.1203466276189
 33
0.0
  0
LWPOLYLINE
  5
290C
330
1F
100
AcDbEntity
  8
LOGO
 62
     4
100
AcDbPolyline
 90
        4
 70
     1
 43
0.0
 10
133.8436187639458
 20
310.4304422203235
 10
239.2867194477813
 20
310.4304422203235
 10
239.2867194477813
 20
297.3763326818617
 10
133.8436187639458
 20
297.3763326818617
1001
GENIUS_GENREC_14
1002
{
1000
PYDIR
1011
133.8436187639458
1021
297.3763326818617
1031
0.0
1002
}
1002
{
1000
PXDIR
1011
239.2867194477813
1021
310.4304422203235
1031
0.0
1002
}
1002
{
1000
PORI
1011
133.8436187639458
1021
310.4304422203235
1031
0.0
1002
}
1002
{
1000
PINS
1011
133.8436187639458
1021
310.4304422203235
1031
0.0
1002
}
1002
{
1000
PINS2
1011
239.2867194477813
1021
297.3763326818617
1031
0.0
1002
}
1002
{
1000
C
1070
     1
1002
}
1001
GENIUS_GENOBJ-N-REC_13
1002
{
1000
OWNER
1000
GEN
1002
}
1001
GENIUS_GENODEF_13
1002
{
1000
HIER
1070
     0
1002
}
1002
{
1000
MANEDIT
1070
     0
1002
}
1002
{
1000
NOSEL
1070
     0
1002
}
1002
{
1000
BEHIND
1070
     0
1002
}
1002
{
1000
OTHER
1070
     0
1002
}
1002
{
1000
REACTOR
1002
}
  0
LINE
  5
290D
330
1F
100
AcDbEntity
  8
LOGO
 62
     4
100
AcDbLine
 10
189.2207477402296
 20
303.2506819741698
 30
0.0
 11
189.2207477402296
 21
298.4641751434003
 31
0.0
  0
LINE
  5
290E
330
1F
100
AcDbEntity
  8
LOGO
 62
     4
100
AcDbLine
 10
180.5180080479218
 20
303.2506819741698
 30
0.0
 11
180.5180080479218
 21
298.4641751434003
 31
0.0
  0
LINE
  5
290F
330
1F
100
AcDbEntity
  8
LOGO
 62
     4
100
AcDbLine
 10
189.2207477402296
 20
298.4641751434003
 30
0.0
 11
180.5180080479218
 21
298.4641751434003
 31
0.0
  0
LINE
  5
2910
330
1F
100
AcDbEntity
  8
LOGO
 62
     4
100
AcDbLine
 10
190.7816765924551
 20
309.1250312664773
 30
0.0
 11
180.5180080479218
 21
309.1250312664773
 31
0.0
  0
LINE
  5
2911
330
1F
100
AcDbEntity
  8
LOGO
 62
     4
100
AcDbLine
 10
190.7816765924551
 20
305.2087984049388
 30
0.0
 11
180.5180080479218
 21
305.2087984049388
 31
0.0
  0
LINE
  5
2912
330
1F
100
AcDbEntity
  8
LOGO
 62
     4
100
AcDbLine
 10
180.5180080479218
 20
309.1250312664773
 30
0.0
 11
180.5180080479218
 21
305.2087984049388
 31
0.0
  0
LINE
  5
2913
330
1F
100
AcDbEntity
  8
LOGO
 62
     4
100
AcDbLine
 10
190.7816765924551
 20
309.1250312664773
 30
0.0
 11
190.7816765924551
 21
305.2087984049388
 31
0.0
  0
LINE
  5
2914
330
1F
100
AcDbEntity
  8
LOGO
 62
     4
100
AcDbLine
 10
185.3234423201885
 20
305.2087984049388
 30
0.0
 11
185.3234423201885
 21
303.2506819741698
 31
0.0
  0
TEXT
  5
2915
330
1F
100
AcDbEntity
  8
LOGO
  6
Continuous
 62
     7
100
AcDbText
 10
181.1902244319997
 20
306.2109514945614
 30
0.0
 40
2.0
  1
LN40R
  7
CHINESET
100
AcDbText
  0
LINE
  5
2916
330
1F
100
AcDbEntity
  8
LOGO
 62
     4
100
AcDbLine
 10
189.2207477402296
 20
303.2506819741698
 30
0.0
 11
180.5180080479218
 21
303.2506819741698
 31
0.0
  0
TEXT
  5
2917
330
1F
100
AcDbEntity
  8
LOGO
  6
Continuous
100
AcDbText
 10
183.3106896627288
 20
299.1397804325398
 30
85.55448337616052
 40
0.9792000000000001
  1
Model
 41
0.8
  7
CHINESET
100
AcDbText
  0
TEXT
  5
2918
330
1F
100
AcDbEntity
  8
LOGO
100
AcDbText
 10
183.050058454563
 20
300.955006199878
 30
85.55448337616052
 40
1.631999999999999
  1
型號
  7
CHINESET
100
AcDbText
  0
TEXT
  5
2919
330
1F
100
AcDbEntity
  8
LOGO
100
AcDbText
 10
163.2763021825211
 20
298.0708061569337
 30
0.0
 40
1.3056
  1
01005051
 41
0.7
  7
CHINESET
 72
     1
 11
166.3444621825211
 21
298.0708061569337
 31
0.0
100
AcDbText
  0
LINE
  5
291A
330
1F
100
AcDbEntity
  8
LOGO
 62
     4
100
AcDbLine
 10
170.3962597485606
 20
299.9871545895545
 30
0.0
 11
170.3962597485611
 21
297.376332681862
 31
0.0
  0
LINE
  5
291B
330
1F
100
AcDbEntity
  8
LOGO
 62
     4
100
AcDbLine
 10
170.3962597485606
 20
299.9871545895545
 30
0.0
 11
162.5626597485611
 21
299.9871545895545
 31
0.0
  0
CIRCLE
  5
291C
330
1F
100
AcDbEntity
  8
LOGO
  6
Continuous
100
AcDbCircle
 10
156.2770517155205
 20
306.5170016423681
 30
0.0
 40
0.7579523257133083
  0
CIRCLE
  5
291D
330
1F
100
AcDbEntity
  8
LOGO
  6
Continuous
100
AcDbCircle
 10
156.2770517155205
 20
306.5170016423681
 30
0.0
 40
0.4440929651449019
  0
LINE
  5
291E
330
1F
100
AcDbEntity
  8
LOGO
100
AcDbLine
 10
161.0401120793716
 20
305.7590493166546
 30
0.0
 11
161.0401120793716
 21
307.2749539680815
 31
0.0
  0
LINE
  5
291F
330
1F
100
AcDbEntity
  8
LOGO
100
AcDbLine
 10
158.6639750468
 20
306.0729086772233
 30
0.0
 11
158.6639750468
 21
306.961094607513
 31
0.0
  0
LINE
  5
2920
330
1F
100
AcDbEntity
  8
LOGO
  6
Continuous
100
AcDbLine
 10
158.6639750468
 20
306.961094607513
 30
0.0
 11
161.0401120793716
 21
307.2749539680815
 31
0.0
  0
LINE
  5
2921
330
1F
100
AcDbEntity
  8
LOGO
  6
Continuous
100
AcDbLine
 10
158.6639750468
 20
306.0729086772233
 30
0.0
 11
161.0401120793716
 21
305.7590493166546
 31
0.0
  0
LINE
  5
2922
330
1F
100
AcDbEntity
  8
LOGO
  6
AM_ISO08W050x2
 48
0.3
100
AcDbLine
 10
155.2322030850824
 20
306.5170016423681
 30
0.0
 11
157.3219003459587
 21
306.5170016423681
 31
0.0
1001
GENIUS_GENOREF_13
1005
2927
  0
LINE
  5
2923
330
1F
100
AcDbEntity
  8
LOGO
  6
AM_ISO08W050x2
 48
0.3
100
AcDbLine
 10
156.2770517155205
 20
305.4721530119299
 30
0.0
 11
156.2770517155205
 21
307.5618502728062
 31
0.0
1001
GENIUS_GENOREF_13
1005
2926
  0
LINE
  5
2924
330
1F
100
AcDbEntity
  8
LOGO
  6
CENTER
 48
0.5
100
AcDbLine
 10
158.473950128614
 20
306.5170016423681
 30
0.0
 11
161.2793813865994
 21
306.5170016423681
 31
0.0
1001
GENIUS_GENOREF_13
1005
2925
  0
POINT
  5
2925
330
1F
100
AcDbEntity
  8
0
 60
     1
100
AcDbPoint
 10
-1949.639111438457
 20
-649.6689424179721
 30
0.0
1001
GENIUS_GENOBJ-N-CRS_13
1002
{
1000
OWNER
1000
GEN
1002
}
1001
GENIUS_GENOLIS_13
1002
{
1000
ENT
1005
0
1005
0
1005
0
1005
2924
1002
}
1001
GENIUS_GENOENT_13
1002
{
1000
MYREF
1005
2925
1002
}
1002
{
1000
GRP
1005
0
1002
}
1001
GENIUS_GENODEF_13
1002
{
1000
HIER
1070
    10
1002
}
1002
{
1000
MANEDIT
1070
     1
1002
}
1002
{
1000
NOSEL
1070
     0
1002
}
1002
{
1000
BEHIND
1070
     0
1002
}
1002
{
1000
OTHER
1070
     0
1002
}
1002
{
1000
REACTOR
1002
}
  0
POINT
  5
2926
330
1F
100
AcDbEntity
  8
0
 60
     1
100
AcDbPoint
 10
-1960.963696661312
 20
-640.7933559393359
 30
0.0
1001
GENIUS_GENOBJ-N-CRS_13
1002
{
1000
OWNER
1000
GEN
1002
}
1001
GENIUS_GENOLIS_13
1002
{
1000
ENT
1005
0
1005
0
1005
0
1005
2923
1002
}
1001
GENIUS_GENOENT_13
1002
{
1000
MYREF
1005
2926
1002
}
1002
{
1000
GRP
1005
0
1002
}
1001
GENIUS_GENODEF_13
1002
{
1000
HIER
1070
    10
1002
}
1002
{
1000
MANEDIT
1070
     1
1002
}
1002
{
1000
NOSEL
1070
     0
1002
}
1002
{
1000
BEHIND
1070
     0
1002
}
1002
{
1000
OTHER
1070
     0
1002
}
1002
{
1000
REACTOR
1002
}
  0
POINT
  5
2927
330
1F
100
AcDbEntity
  8
0
 60
     1
100
AcDbPoint
 10
-1954.605022963475
 20
-649.6689424179721
 30
0.0
1001
GENIUS_GENOBJ-N-CRS_13
1002
{
1000
OWNER
1000
GEN
1002
}
1001
GENIUS_GENOLIS_13
1002
{
1000
ENT
1005
0
1005
0
1005
0
1005
2922
1002
}
1001
GENIUS_GENOENT_13
1002
{
1000
MYREF
1005
2927
1002
}
1002
{
1000
GRP
1005
0
1002
}
1001
GENIUS_GENODEF_13
1002
{
1000
HIER
1070
    10
1002
}
1002
{
1000
MANEDIT
1070
     1
1002
}
1002
{
1000
NOSEL
1070
     0
1002
}
1002
{
1000
BEHIND
1070
     0
1002
}
1002
{
1000
OTHER
1070
     0
1002
}
1002
{
1000
REACTOR
1002
}
  0
LINE
  5
31A3
330
1F
100
AcDbEntity
  8
UMCL1
  6
Continuous
100
AcDbLine
 10
164.8697791272226
 20
380.6001547417569
 30
0.0
 11
164.8697791272225
 21
377.6001547417568
 31
0.0
  0
LINE
  5
31A4
330
1F
100
AcDbEntity
  8
UMCL1
  6
Continuous
100
AcDbLine
 10
158.5697791272226
 20
380.6001547417569
 30
0.0
 11
158.5697791272224
 21
377.6001547417568
 31
0.0
  0
LINE
  5
31A5
102
{ACAD_REACTORS
330
325B
330
3281
102
}
330
1F
100
AcDbEntity
  8
UMCL1
  6
Continuous
100
AcDbLine
 10
164.8697791272225
 20
377.6001547417568
 30
0.0
 11
158.5697791272224
 21
377.6001547417568
 31
0.0
  0
LINE
  5
31A6
330
1F
100
AcDbEntity
  8
UMCL1
  6
Continuous
100
AcDbLine
 10
164.8697791272226
 20
380.6001547417569
 30
0.0
 11
159.7197791272228
 21
380.600154741757
 31
0.0
  0
LINE
  5
31A7
330
1F
100
AcDbEntity
  8
UMCL1
  6
Continuous
100
AcDbLine
 10
159.7197791272228
 20
380.6001547417569
 30
0.0
 11
158.5697791272226
 21
380.6001547417569
 31
0.0
  0
LINE
  5
31A8
102
{ACAD_REACTORS
330
3475
102
}
330
1F
100
AcDbEntity
  8
UMCL1
  6
Continuous
100
AcDbLine
 10
163.7197791272224
 20
381.9001547417569
 30
0.0
 11
159.7197791272228
 21
381.9001547417569
 31
0.0
  0
LINE
  5
31A9
330
1F
100
AcDbEntity
  8
UMCL1
  6
Continuous
100
AcDbLine
 10
163.7197791272227
 20
381.9001547417569
 30
0.0
 11
163.7197791272224
 21
380.6001547417569
 31
0.0
  0
LINE
  5
31AA
102
{ACAD_REACTORS
330
325B
102
}
330
1F
100
AcDbEntity
  8
UMCL1
  6
Continuous
100
AcDbLine
 10
159.7197791272228
 20
381.9001547417569
 30
0.0
 11
159.7197791272228
 21
380.6001547417569
 31
0.0
  0
LINE
  5
31B0
330
1F
100
AcDbEntity
  8
0
  6
CENTER2
 62
     1
 48
0.5
100
AcDbLine
 10
177.400258258422
 20
406.0232925003342
 30
0.0
 11
183.8368338833477
 21
406.0232925003342
 31
0.0
  0
LINE
  5
31B1
330
1F
100
AcDbEntity
  8
UMCL1
  6
Continuous
100
AcDbLine
 10
180.2145745379118
 20
409.2232925003342
 30
0.0
 11
182.2950247223232
 21
409.2232925003342
 31
0.0
  0
LINE
  5
31B2
330
1F
100
AcDbEntity
  8
UMCL1
  6
Continuous
100
AcDbLine
 10
208.0627346509201
 20
404.523292500334
 30
0.0
 11
216.7627346509201
 21
404.523292500334
 31
0.0
  0
LINE
  5
31B3
330
1F
100
AcDbEntity
  8
UMCL1
  6
Continuous
100
AcDbLine
 10
208.0627346509201
 20
407.5232925003342
 30
0.0
 11
216.7627346509201
 21
407.5232925003341
 31
0.0
  0
LINE
  5
31B4
330
1F
100
AcDbEntity
  8
UMCL1
  6
Continuous
100
AcDbLine
 10
178.7627346509201
 20
402.8732925003342
 30
0.0
 11
179.5216497859143
 21
402.8732925003342
 31
0.0
  0
LINE
  5
31B5
330
1F
100
AcDbEntity
  8
UMCL1
  6
Continuous
100
AcDbLine
 10
182.0379898646802
 20
402.8732925003342
 30
0.0
 11
208.0627346509201
 21
402.8732925003342
 31
0.0
  0
LINE
  5
31B6
330
1F
100
AcDbEntity
  8
UMCL1
  6
Continuous
100
AcDbLine
 10
178.7627346509201
 20
403.4732925003343
 30
0.0
 11
208.0627346509201
 21
403.4732925003343
 31
0.0
  0
LINE
  5
31B7
330
1F
100
AcDbEntity
  8
UMCL1
  6
Continuous
100
AcDbLine
 10
178.7627346509201
 20
409.173292500334
 30
0.0
 11
179.9966295907351
 21
409.1732925003343
 31
0.0
  0
LINE
  5
31B8
330
1F
100
AcDbEntity
  8
UMCL1
  6
Continuous
100
AcDbLine
 10
182.5129696694998
 20
409.1732925003343
 30
0.0
 11
208.0627346509201
 21
409.1732925003343
 31
0.0
  0
LINE
  5
31B9
330
1F
100
AcDbEntity
  8
UMCL1
  6
Continuous
100
AcDbLine
 10
178.7627346509201
 20
408.5732925003342
 30
0.0
 11
208.0627346509201
 21
408.5732925003342
 31
0.0
  0
LINE
  5
31BA
102
{ACAD_REACTORS
330
33D3
102
}
330
1F
100
AcDbEntity
  8
UMCL1
  6
Continuous
100
AcDbLine
 10
178.7627346509201
 20
409.173292500334
 30
0.0
 11
178.7627346509201
 21
402.8732925003342
 31
0.0
  0
LINE
  5
31BB
330
1F
100
AcDbEntity
  8
UMCL1
  6
Continuous
100
AcDbLine
 10
208.0627346509201
 20
409.1732925003343
 30
0.0
 11
208.0627346509201
 21
402.8732925003342
 31
0.0
  0
LINE
  5
31BC
330
1F
100
AcDbEntity
  8
UMCL1
  6
Continuous
100
AcDbLine
 10
201.2627346509201
 20
407.0232925003342
 30
0.0
 11
201.2627346509201
 21
405.0232925003341
 31
0.0
  0
LINE
  5
31BD
330
1F
100
AcDbEntity
  8
UMCL1
  6
Continuous
100
AcDbLine
 10
198.2627346509201
 20
407.0232925003342
 30
0.0
 11
198.2627346509201
 21
405.0232925003341
 31
0.0
  0
LINE
  5
31BE
330
1F
100
AcDbEntity
  8
UMCL1
100
AcDbLine
 10
221.7442620311511
 20
406.3966875814887
 30
0.0
 11
221.7442620311511
 21
406.8441584373649
 31
0.0
  0
LINE
  5
31BF
330
1F
100
AcDbEntity
  8
UMCL1
100
AcDbLine
 10
219.1567569337552
 20
406.9688938653029
 30
0.0
 11
219.1567569337547
 21
406.2719521535506
 31
0.0
  0
LINE
  5
31C0
330
1F
100
AcDbEntity
  8
UMCL1
100
AcDbLine
 10
219.1567569337552
 20
406.8441584373649
 30
0.0
 11
221.7442620311511
 21
406.8441584373649
 31
0.0
  0
LINE
  5
31C1
330
1F
100
AcDbEntity
  8
UMCL1
100
AcDbLine
 10
221.7442620311511
 20
405.2024265633034
 30
0.0
 11
221.7442620311511
 21
405.6498974191796
 31
0.0
  0
LINE
  5
31C2
330
1F
100
AcDbEntity
  8
UMCL1
100
AcDbLine
 10
219.1567569337552
 20
405.0776911353654
 30
0.0
 11
219.1567569337552
 21
405.7746328471177
 31
0.0
  0
LINE
  5
31C3
330
1F
100
AcDbEntity
  8
UMCL1
100
AcDbLine
 10
219.1567569337552
 20
406.3966875814887
 30
0.0
 11
221.7442620311511
 21
406.3966875814887
 31
0.0
  0
LINE
  5
31C4
330
1F
100
AcDbEntity
  8
UMCL1
100
AcDbLine
 10
219.1567569337552
 20
405.6498974191796
 30
0.0
 11
221.7442620311511
 21
405.6498974191796
 31
0.0
  0
LINE
  5
31C5
330
1F
100
AcDbEntity
  8
UMCL1
100
AcDbLine
 10
219.1567569337552
 20
405.2024265633034
 30
0.0
 11
221.7442620311511
 21
405.2024265633034
 31
0.0
  0
LINE
  5
31C6
330
1F
100
AcDbEntity
  8
UMCL1
100
AcDbLine
 10
216.7627346509201
 20
404.523292500334
 30
0.0
 11
216.7627346509201
 21
407.5232925003342
 31
0.0
  0
LINE
  5
31C7
330
1F
100
AcDbEntity
  8
UMCL1
100
AcDbLine
 10
216.7627346509201
 20
405.0776911353654
 30
0.0
 11
219.1567569337552
 21
405.0776911353654
 31
0.0
  0
LINE
  5
31C8
330
1F
100
AcDbEntity
  8
UMCL1
100
AcDbLine
 10
216.7627346509201
 20
405.7746328471177
 30
0.0
 11
219.1567569337552
 21
405.7746328471177
 31
0.0
  0
LINE
  5
31C9
330
1F
100
AcDbEntity
  8
UMCL1
100
AcDbLine
 10
216.7627346509201
 20
406.2719521535506
 30
0.0
 11
219.1567569337552
 21
406.2719521535506
 31
0.0
  0
LINE
  5
31CA
330
1F
100
AcDbEntity
  8
UMCL1
100
AcDbLine
 10
216.7627346509201
 20
406.9688938653029
 30
0.0
 11
219.1567569337552
 21
406.9688938653029
 31
0.0
  0
LINE
  5
31CB
102
{ACAD_REACTORS
330
33D3
102
}
330
1F
100
AcDbEntity
  8
0
  6
CENTER2
 62
     1
 48
0.5
100
AcDbLine
 10
180.7627346509201
 20
410.7482925003341
 30
0.0
 11
180.7627346509201
 21
401.2982925003343
 31
0.0
  0
ARC
  5
31CD
330
1F
100
AcDbEntity
  8
UMCL1
  6
Continuous
100
AcDbCircle
 10
180.7627346509201
 20
406.0232925003342
 30
0.0
 40
1.2
100
AcDbArc
 50
149.4775121859276
 51
300.5224878140887
  0
ARC
  5
31CE
330
1F
100
AcDbEntity
  8
UMCL1
  6
Continuous
100
AcDbCircle
 10
180.7627346509201
 20
406.0232925003342
 30
0.0
 40
1.2
100
AcDbArc
 50
329.4775121859348
 51
120.5224878140578
  0
LINE
  5
31CF
330
1F
100
AcDbEntity
  8
UMCL1
  6
Continuous
100
AcDbLine
 10
179.935636200735
 20
407.2746550192313
 30
0.0
 11
182.0140971698172
 21
405.1961940501485
 31
0.0
  0
LINE
  5
31D0
330
1F
100
AcDbEntity
  8
UMCL1
  6
Continuous
100
AcDbLine
 10
179.5113721320229
 20
406.8503909505195
 30
0.0
 11
181.5898331011056
 21
404.771929981437
 31
0.0
  0
LINE
  5
31D1
330
1F
100
AcDbEntity
  8
UMCL1
  6
Continuous
100
AcDbLine
 10
201.2627346509201
 20
405.0232925003341
 30
0.0
 11
198.2627346509201
 21
405.0232925003341
 31
0.0
  0
LINE
  5
31D2
330
1F
100
AcDbEntity
  8
UMCL1
  6
Continuous
100
AcDbLine
 10
201.2627346509201
 20
407.0232925003342
 30
0.0
 11
198.2627346509201
 21
407.0232925003342
 31
0.0
  0
LINE
  5
31D3
330
1F
100
AcDbEntity
  8
UMCL1
 62
     4
 48
3.0
100
AcDbLine
 10
184.76273465092
 20
409.1732925003343
 30
0.0
 11
184.7627346509201
 21
402.8732925003341
 31
0.0
  0
LINE
  5
3231
330
1F
100
AcDbEntity
  8
UMCL1
  6
Continuous
100
AcDbLine
 10
182.3124487940089
 20
403.2364684115004
 30
0.0
 11
182.354207270552
 21
403.4732925003343
 31
0.0
  0
ARC
  5
3232
330
1F
100
AcDbEntity
  8
UMCL1
  6
Continuous
100
AcDbCircle
 10
181.8200449175028
 20
403.3232925003339
 30
0.0
 40
0.5
100
AcDbArc
 50
269.9999999999968
 51
350.0000000000014
  0
LINE
  5
3233
330
1F
100
AcDbEntity
  8
UMCL1
  6
Continuous
100
AcDbLine
 10
179.6804121848627
 20
408.5732925003342
 30
0.0
 11
179.7221706614057
 21
408.8101165891676
 31
0.0
  0
ARC
  5
3234
330
1F
100
AcDbEntity
  8
UMCL1
  6
Continuous
100
AcDbCircle
 10
180.2145745379118
 20
408.7232925003341
 30
0.0
 40
0.5
100
AcDbArc
 50
90.0
 51
170.0000000000015
  0
LINE
  5
3235
330
1F
100
AcDbEntity
  8
UMCL1
  6
Continuous
100
AcDbLine
 10
179.7395947330915
 20
402.8232925003339
 30
0.0
 11
181.8200449175028
 21
402.8232925003339
 31
0.0
  0
ARC
  5
3236
330
1F
100
AcDbEntity
  8
UMCL1
  6
Continuous
100
AcDbCircle
 10
179.7395947330915
 20
403.3232925003339
 30
0.0
 40
0.5
100
AcDbArc
 50
180.0
 51
269.9999999999968
  0
LINE
  5
3237
330
1F
100
AcDbEntity
  8
UMCL1
  6
Continuous
100
AcDbLine
 10
182.7950247223232
 20
408.5732925003342
 30
0.0
 11
182.7950247223232
 21
408.7232925003341
 31
0.0
  0
ARC
  5
3238
330
1F
100
AcDbEntity
  8
UMCL1
  6
Continuous
100
AcDbCircle
 10
182.2950247223232
 20
408.7232925003341
 30
0.0
 40
0.5
100
AcDbArc
 50
0.0
 51
90.0
  0
LINE
  5
3239
330
1F
100
AcDbEntity
  8
UMCL1
  6
Continuous
100
AcDbLine
 10
179.2395947330915
 20
403.4732925003343
 30
0.0
 11
179.2395947330915
 21
403.3232925003339
 31
0.0
  0
CIRCLE
  5
323B
330
1F
100
AcDbEntity
  8
0
100
AcDbCircle
 10
180.7627346509201
 20
406.0232925003342
 30
0.0
 40
1.5
  0
DIMENSION
  5
324B
102
{ACAD_XDICTIONARY
360
325A
102
}
102
{ACAD_REACTORS
330
325B
102
}
330
1F
100
AcDbEntity
  8
AM_5
100
AcDbDimension
  2
*D10
 10
154.0211325155877
 20
377.6001547417568
 30
0.0
 11
154.0211325155876
 21
379.7501547417569
 31
0.0
 70
   160
 71
     5
 42
4.300000000000011
  3
AM_ISO$0
100
AcDbAlignedDimension
 13
159.7197791272228
 23
381.9001547417569
 33
0.0
 14
158.5697791272224
 24
377.6001547417568
 34
0.0
 50
90.0
100
AcDbRotatedDimension
1001
ACAD
1000
DSTYLE
1002
{
1070
    40
1040
0.7
1070
   272
1070
     8
1002
}
  0
DIMENSION
  5
3271
102
{ACAD_XDICTIONARY
360
3280
102
}
102
{ACAD_REACTORS
330
3281
102
}
330
1F
100
AcDbEntity
  8
AM_5
100
AcDbDimension
  2
*D11
 10
158.5697791272224
 20
370.4373960453145
 30
0.0
 11
161.7197791272224
 21
371.9773960453145
 31
0.0
 70
    32
 71
     5
 42
6.300000000000068
  3
AM_ISO$0
100
AcDbAlignedDimension
 13
164.8697791272225
 23
377.6001547417568
 33
0.0
 14
158.5697791272224
 24
377.6001547417568
 34
0.0
 50
0.0000000000002036
100
AcDbRotatedDimension
1001
ACAD
1000
DSTYLE
1002
{
1070
    40
1040
0.7
1070
   272
1070
     8
1002
}
  0
LINE
  5
32EA
330
1F
100
AcDbEntity
  8
0
100
AcDbLine
 10
178.7627346509201
 20
381.9001547417568
 30
0.0
 11
208.0627346509201
 21
381.9001547417568
 31
0.0
  0
LINE
  5
32EB
102
{ACAD_REACTORS
330
33F7
330
3423
102
}
330
1F
100
AcDbEntity
  8
0
100
AcDbLine
 10
178.7627346509201
 20
377.6001547417568
 30
0.0
 11
208.0627346509201
 21
377.6001547417569
 31
0.0
  0
LINE
  5
32EC
102
{ACAD_REACTORS
330
3423
102
}
330
1F
100
AcDbEntity
  8
0
100
AcDbLine
 10
178.7627346509201
 20
381.9001547417568
 30
0.0
 11
178.7627346509201
 21
377.6001547417568
 31
0.0
  0
LINE
  5
331B
330
1F
100
AcDbEntity
  8
0
100
AcDbLine
 10
208.0627346509201
 20
381.9001547417568
 30
0.0
 11
208.0627346509201
 21
377.6001547417568
 31
0.0
  0
LINE
  5
331C
102
{ACAD_REACTORS
330
3423
102
}
330
1F
100
AcDbEntity
  8
0
100
AcDbLine
 10
178.76273465092
 20
380.6001547417569
 30
0.0
 11
208.0627346509201
 21
380.6001547417569
 31
0.0
  0
LINE
  5
331D
330
1F
100
AcDbEntity
  8
0
100
AcDbLine
 10
182.354207270552
 20
380.6001547417569
 30
0.0
 11
182.354207270552
 21
378.2635460451893
 31
0.0
  0
LINE
  5
331E
330
1F
100
AcDbEntity
  8
0
100
AcDbLine
 10
182.354207270552
 20
378.2635460451893
 30
0.0
 11
178.7627346509201
 21
378.2635460451893
 31
0.0
  0
LINE
  5
331F
330
1F
100
AcDbEntity
  8
0
100
AcDbLine
 10
164.8697791272225
 20
378.2635460451892
 30
0.0
 11
158.5697791272224
 21
378.2635460451891
 31
0.0
  0
LINE
  5
334B
102
{ACAD_REACTORS
330
3379
102
}
330
1F
100
AcDbEntity
  8
UMCL1
  6
Continuous
100
AcDbLine
 10
208.0627346509201
 20
378.1169458524457
 30
0.0
 11
216.7627346509201
 21
378.1169458524457
 31
0.0
  0
LINE
  5
334C
102
{ACAD_REACTORS
330
3379
102
}
330
1F
100
AcDbEntity
  8
UMCL1
  6
Continuous
100
AcDbLine
 10
208.0627346509201
 20
381.1169458524459
 30
0.0
 11
216.7627346509201
 21
381.1169458524457
 31
0.0
  0
LINE
  5
334D
330
1F
100
AcDbEntity
  8
UMCL1
100
AcDbLine
 10
221.7442620311511
 20
379.9903409336003
 30
0.0
 11
221.7442620311511
 21
380.4378117894765
 31
0.0
  0
LINE
  5
334E
330
1F
100
AcDbEntity
  8
UMCL1
100
AcDbLine
 10
219.1567569337552
 20
380.5625472174146
 30
0.0
 11
219.1567569337547
 21
379.8656055056623
 31
0.0
  0
LINE
  5
334F
330
1F
100
AcDbEntity
  8
UMCL1
100
AcDbLine
 10
219.1567569337552
 20
380.4378117894765
 30
0.0
 11
221.7442620311511
 21
380.4378117894765
 31
0.0
  0
LINE
  5
3350
330
1F
100
AcDbEntity
  8
UMCL1
100
AcDbLine
 10
221.7442620311511
 20
378.7960799154151
 30
0.0
 11
221.7442620311511
 21
379.2435507712913
 31
0.0
  0
LINE
  5
3351
330
1F
100
AcDbEntity
  8
UMCL1
100
AcDbLine
 10
219.1567569337552
 20
378.6713444874771
 30
0.0
 11
219.1567569337552
 21
379.3682861992293
 31
0.0
  0
LINE
  5
3352
330
1F
100
AcDbEntity
  8
UMCL1
100
AcDbLine
 10
219.1567569337552
 20
379.9903409336003
 30
0.0
 11
221.7442620311511
 21
379.9903409336003
 31
0.0
  0
LINE
  5
3353
330
1F
100
AcDbEntity
  8
UMCL1
100
AcDbLine
 10
219.1567569337552
 20
379.2435507712913
 30
0.0
 11
221.7442620311511
 21
379.2435507712913
 31
0.0
  0
LINE
  5
3354
330
1F
100
AcDbEntity
  8
UMCL1
100
AcDbLine
 10
219.1567569337552
 20
378.7960799154151
 30
0.0
 11
221.7442620311511
 21
378.7960799154151
 31
0.0
  0
LINE
  5
3355
330
1F
100
AcDbEntity
  8
UMCL1
100
AcDbLine
 10
216.7627346509201
 20
378.1169458524457
 30
0.0
 11
216.7627346509201
 21
381.1169458524459
 31
0.0
  0
LINE
  5
3356
330
1F
100
AcDbEntity
  8
UMCL1
100
AcDbLine
 10
216.7627346509201
 20
378.6713444874771
 30
0.0
 11
219.1567569337552
 21
378.6713444874771
 31
0.0
  0
LINE
  5
3357
330
1F
100
AcDbEntity
  8
UMCL1
100
AcDbLine
 10
216.7627346509201
 20
379.3682861992293
 30
0.0
 11
219.1567569337552
 21
379.3682861992293
 31
0.0
  0
LINE
  5
3358
330
1F
100
AcDbEntity
  8
UMCL1
100
AcDbLine
 10
216.7627346509201
 20
379.8656055056623
 30
0.0
 11
219.1567569337552
 21
379.8656055056623
 31
0.0
  0
LINE
  5
3359
330
1F
100
AcDbEntity
  8
UMCL1
100
AcDbLine
 10
216.7627346509201
 20
380.5625472174146
 30
0.0
 11
219.1567569337552
 21
380.5625472174146
 31
0.0
  0
DIMENSION
  5
3369
102
{ACAD_XDICTIONARY
360
3378
102
}
102
{ACAD_REACTORS
330
3379
102
}
330
1F
100
AcDbEntity
  8
AM_5
100
AcDbDimension
  2
*D12
 10
223.8721916514712
 20
381.1169458524457
 30
0.0
 11
223.8721916514711
 21
369.0706515623939
 31
0.0
 70
   160
  1
%%c<>
 71
     5
 42
3.0
  3
AM_ISO$0
100
AcDbAlignedDimension
 13
216.7627346509201
 23
378.1169458524457
 33
0.0
 14
216.7627346509201
 24
381.1169458524457
 34
0.0
 50
90.0
100
AcDbRotatedDimension
1001
ACAD
1000
DSTYLE
1002
{
1070
    40
1040
0.7
1070
   272
1070
     8
1002
}
  0
DIMENSION
  5
33C3
102
{ACAD_XDICTIONARY
360
33D2
102
}
102
{ACAD_REACTORS
330
33D3
102
}
330
1F
100
AcDbEntity
  8
AM_5
100
AcDbDimension
  2
*D13
 10
180.7627346509201
 20
397.4856832816731
 30
0.0
 11
185.9624600446209
 21
397.4856832816731
 31
0.0
 70
   160
 71
     5
 42
2.0
  3
AM_ISO$0
100
AcDbAlignedDimension
 13
178.7627346509201
 23
402.8732925003342
 33
0.0
 14
180.7627346509201
 24
401.2982925003343
 34
0.0
100
AcDbRotatedDimension
1001
ACAD
1000
DSTYLE
1002
{
1070
    40
1040
0.7
1070
   272
1070
     8
1002
}
  0
DIMENSION
  5
33E9
102
{ACAD_XDICTIONARY
360
33F6
102
}
102
{ACAD_REACTORS
330
33F7
102
}
330
1F
100
AcDbEntity
  8
AM_5
100
AcDbDimension
  2
*D14
 10
208.0627346509201
 20
370.4373960453147
 30
0.0
 11
193.4127346509201
 21
370.4373960453147
 31
0.0
 70
   160
 71
     5
 42
29.30000000000001
  3
AM_ISO$0
100
AcDbAlignedDimension
 13
178.7627346509201
 23
377.6001547417568
 33
0.0
 14
208.0627346509201
 24
377.6001547417569
 34
0.0
 50
0.0000000000002036
100
AcDbRotatedDimension
1001
ACAD
1000
DSTYLE
1002
{
1070
    40
1040
0.7
1070
   272
1070
     8
1002
}
  0
DIMENSION
  5
3413
102
{ACAD_XDICTIONARY
360
3422
102
}
102
{ACAD_REACTORS
330
3423
102
}
330
1F
100
AcDbEntity
  8
AM_5
100
AcDbDimension
  2
*D15
 10
175.6949845793588
 20
380.6001547417569
 30
0.0
 11
174.1549845793587
 21
379.1001547417569
 31
0.0
 70
    32
 71
     5
 42
3.000000000000056
  3
AM_ISO$0
100
AcDbAlignedDimension
 13
178.7627346509201
 23
377.6001547417568
 33
0.0
 14
178.7627346509201
 24
380.6001547417569
 34
0.0
 50
90.0
100
AcDbRotatedDimension
1001
ACAD
1000
DSTYLE
1002
{
1070
    40
1040
0.7
1070
   272
1070
     8
1002
}
  0
DIMENSION
  5
3465
102
{ACAD_XDICTIONARY
360
3474
102
}
102
{ACAD_REACTORS
330
3475
102
}
330
1F
100
AcDbEntity
  8
AM_5
100
AcDbDimension
  2
*D16
 10
159.7197791272228
 20
386.67474359746
 30
0.0
 11
161.7197791272226
 21
388.21474359746
 31
0.0
 70
    32
 71
     5
 42
3.999999999999658
  3
AM_ISO$0
100
AcDbAlignedDimension
 13
163.7197791272224
 23
381.9001547417569
 33
0.0
 14
159.7197791272228
 24
381.9001547417569
 34
0.0
100
AcDbRotatedDimension
1001
ACAD
1000
DSTYLE
1002
{
1070
    40
1040
0.7
1070
   272
1070
     8
1002
}
  0
ENDSEC
  0
SECTION
  2
OBJECTS
  0
DICTIONARY
  5
C
330
0
100
AcDbDictionary
281
     1
  3
ACAD_COLOR
350
BE
  3
ACAD_GROUP
350
D
  3
ACAD_LAYOUT
350
1A
  3
ACAD_MATERIAL
350
BD
  3
ACAD_MLINESTYLE
350
17
  3
ACAD_PLOTSETTINGS
350
19
  3
ACAD_PLOTSTYLENAME
350
E
  3
ACAD_TABLESTYLE
350
11A
  3
ACDBHEADERROUNDTRIPXREC
350
3618
  3
AcDbVariableDictionary
350
94
  3
AcmDictionary
350
5B
  3
AMG
350
41
  3
AMGSNAPSETTINGS
350
1B8
  3
DWGPROPS
350
3617
  3
MAPISURF_MODULE
350
2469
  0
DICTIONARY
  5
3F9
330
2
100
AcDbDictionary
280
     1
281
     1
  3
ACAD_LAYERFILTERS
360
5B7
  3
ACAD_LAYERSTATES
360
B13
  3
ACLYDICTIONARY
360
5B6
  0
DICTIONARY
  5
2B18
330
2B17
100
AcDbDictionary
280
     1
281
     1
  3
ACAD_XREC_ROUNDTRIP
360
2B19
  0
DICTIONARY
  5
8F
330
1F
100
AcDbDictionary
280
     1
281
     1
  3
ACAD_INDEX
360
2928
  3
ACAD_SORTENTS
360
1430
  0
DICTIONARY
  5
325A
330
324B
100
AcDbDictionary
280
     1
281
     1
  3
ACAD_DIMASSOC
360
325B
  0
DICTIONARY
  5
3280
330
3271
100
AcDbDictionary
280
     1
281
     1
  3
ACAD_DIMASSOC
360
3281
  0
DICTIONARY
  5
3378
330
3369
100
AcDbDictionary
280
     1
281
     1
  3
ACAD_DIMASSOC
360
3379
  0
DICTIONARY
  5
33D2
330
33C3
100
AcDbDictionary
280
     1
281
     1
  3
ACAD_DIMASSOC
360
33D3
  0
DICTIONARY
  5
33F6
330
33E9
100
AcDbDictionary
280
     1
281
     1
  3
ACAD_DIMASSOC
360
33F7
  0
DICTIONARY
  5
3422
330
3413
100
AcDbDictionary
280
     1
281
     1
  3
ACAD_DIMASSOC
360
3423
  0
DICTIONARY
  5
3474
330
3465
100
AcDbDictionary
280
     1
281
     1
  3
ACAD_DIMASSOC
360
3475
  0
DICTIONARY
  5
BE
102
{ACAD_REACTORS
330
C
102
}
330
C
100
AcDbDictionary
281
     1
  0
DICTIONARY
  5
D
102
{ACAD_REACTORS
330
C
102
}
330
C
100
AcDbDictionary
281
     1
  0
DICTIONARY
  5
1A
102
{ACAD_REACTORS
330
C
102
}
330
C
100
AcDbDictionary
281
     1
  3
Model
350
22
  3
配置1
350
1E
  3
配置2
350
26
  0
DICTIONARY
  5
BD
102
{ACAD_REACTORS
330
C
102
}
330
C
100
AcDbDictionary
281
     1
  3
Global
350
2B25
  0
DICTIONARY
  5
17
102
{ACAD_REACTORS
330
C
102
}
330
C
100
AcDbDictionary
281
     1
  3
Standard
350
18
  0
DICTIONARY
  5
19
102
{ACAD_REACTORS
330
C
102
}
330
C
100
AcDbDictionary
281
     1
  0
ACDBDICTIONARYWDFLT
  5
E
102
{ACAD_REACTORS
330
C
102
}
330
C
100
AcDbDictionary
281
     1
  3
Normal
350
F
100
AcDbDictionaryWithDefault
340
F
  0
DICTIONARY
  5
11A
102
{ACAD_REACTORS
330
C
102
}
330
C
100
AcDbDictionary
281
     1
  3
Standard
350
11B
  0
DICTIONARY
  5
3618
102
{ACAD_REACTORS
330
C
102
}
330
C
100
AcDbDictionary
281
     1
  0
DICTIONARY
  5
94
102
{ACAD_REACTORS
330
C
102
}
330
C
100
AcDbDictionary
281
     1
  3
CTABLESTYLE
350
138
  3
DIMASSOC
350
96
  3
INDEXCTL
350
95
  3
PROJECTNAME
350
1BF5
  0
DICTIONARY
  5
5B
102
{ACAD_REACTORS
330
C
102
}
330
C
100
AcDbDictionary
281
     1
  3
AcmBOM
350
1B5
  3
AcmStdDictionary
350
61
  3
AMDTSECTSYM_ARROWCOLOR
350
123
  0
DICTIONARY
  5
41
102
{ACAD_REACTORS
330
C
102
}
330
C
100
AcDbDictionary
281
     1
  3
AcMgSettings
350
23E3
  0
DICTIONARY
  5
1B8
102
{ACAD_REACTORS
330
C
102
}
330
C
100
AcDbDictionary
281
     1
  0
XRECORD
  5
3617
102
{ACAD_REACTORS
330
C
102
}
330
C
100
AcDbXrecord
280
     1
  1
DWGPROPS COOKIE
  2

  3

  4

  6

  7

  8

  9

300
AmdtFileType=84
301
=
302
=
303
=
304
=
305
=
306
=
307
=
308
=
309
=
 40
0.1391521527777778
 41
2453965.689012037
 42
2455322.6241111
  1

 90
        1
  0
DICTIONARY
  5
5B7
102
{ACAD_REACTORS
330
3F9
102
}
330
3F9
100
AcDbDictionary
281
     1
  0
DICTIONARY
  5
B13
102
{ACAD_REACTORS
330
3F9
102
}
330
3F9
100
AcDbDictionary
281
     1
  0
DICTIONARY
  5
5B6
102
{ACAD_REACTORS
330
3F9
102
}
330
3F9
100
AcDbDictionary
281
     1
1001
ACAD
1000
<All
  0
XRECORD
  5
2B19
102
{ACAD_REACTORS
330
2B18
102
}
330
2B18
100
AcDbXrecord
280
     1
102
MATERIAL
340
2B25
  0
DICTIONARY
  5
2928
102
{ACAD_REACTORS
330
8F
102
}
330
8F
100
AcDbDictionary
281
     1
  3
*A1
350
2929
  0
SORTENTSTABLE
  5
1430
102
{ACAD_REACTORS
330
8F
102
}
330
8F
100
AcDbSortentsTable
330
1F
331
331B
  5
331B
331
31B4
  5
31B4
331
3234
  5
3234
331
2917
  5
2917
331
28D8
  5
28D8
331
31C5
  5
31C5
331
31A3
  5
31A3
331
2906
  5
2906
331
28E9
  5
28E9
331
28C7
  5
28C7
331
31B2
  5
31B2
331
3232
  5
3232
331
2915
  5
2915
331
31C3
  5
31C3
331
2904
  5
2904
331
28E7
  5
28E7
331
28D6
  5
28D6
331
28C5
  5
28C5
331
31D2
  5
31D2
331
31B0
  5
31B0
331
2913
  5
2913
331
31C1
  5
31C1
331
2924
  5
2924
331
2902
  5
2902
331
28D4
  5
28D4
331
28C3
  5
28C3
331
31D0
  5
31D0
331
2911
  5
2911
331
31BF
  5
31BF
331
2922
  5
2922
331
2900
  5
2900
331
28E3
  5
28E3
331
28D2
  5
28D2
331
31BD
  5
31BD
331
2920
  5
2920
331
31CE
  5
31CE
331
290F
  5
290F
331
28D0
  5
28D0
331
31BB
  5
31BB
331
323B
  5
323B
331
291E
  5
291E
331
28FC
  5
28FC
331
31AA
  5
31AA
331
290D
  5
290D
331
28CE
  5
28CE
331
31B9
  5
31B9
331
3239
  5
3239
331
291C
  5
291C
331
28FA
  5
28FA
331
31CA
  5
31CA
331
31A8
  5
31A8
331
290B
  5
290B
331
28EE
  5
28EE
331
28CC
  5
28CC
331
331E
  5
331E
331
31B7
  5
31B7
331
3237
  5
3237
331
291A
  5
291A
331
32EB
  5
32EB
331
31C8
  5
31C8
331
31A6
  5
31A6
331
2909
  5
2909
331
28EC
  5
28EC
331
28CA
  5
28CA
331
331C
  5
331C
331
31B5
  5
31B5
331
3235
  5
3235
331
2918
  5
2918
331
28F6
  5
28F6
331
28D9
  5
28D9
331
3271
  5
3271
331
31C6
  5
31C6
331
31A4
  5
31A4
331
2907
  5
2907
331
28EA
  5
28EA
331
28C8
  5
28C8
331
31B3
  5
31B3
331
3233
  5
3233
331
2916
  5
2916
331
31C4
  5
31C4
331
2905
  5
2905
331
28E8
  5
28E8
331
28D7
  5
28D7
331
28C6
  5
28C6
331
31B1
  5
31B1
331
31D3
  5
31D3
331
3231
  5
3231
331
2914
  5
2914
331
28F2
  5
28F2
331
31C2
  5
31C2
331
2903
  5
2903
331
28D5
  5
28D5
331
28C4
  5
28C4
331
31D1
  5
31D1
331
31C0
  5
31C0
331
2912
  5
2912
331
2923
  5
2923
331
2901
  5
2901
331
28D3
  5
28D3
331
2910
  5
2910
331
31BE
  5
31BE
331
2921
  5
2921
331
28E2
  5
28E2
331
31CF
  5
31CF
331
28D1
  5
28D1
331
31BC
  5
31BC
331
291F
  5
291F
331
31CD
  5
31CD
331
290E
  5
290E
331
28CF
  5
28CF
331
324B
  5
324B
331
31BA
  5
31BA
331
291D
  5
291D
331
28FB
  5
28FB
331
28DE
  5
28DE
331
31CB
  5
31CB
331
31A9
  5
31A9
331
290C
  5
290C
331
28CD
  5
28CD
331
331F
  5
331F
331
31B8
  5
31B8
331
3238
  5
3238
331
291B
  5
291B
331
32EC
  5
32EC
331
31C9
  5
31C9
331
31A7
  5
31A7
331
290A
  5
290A
331
28ED
  5
28ED
331
28CB
  5
28CB
331
331D
  5
331D
331
31B6
  5
31B6
331
3236
  5
3236
331
2919
  5
2919
331
28DA
  5
28DA
331
32EA
  5
32EA
331
31C7
  5
31C7
331
31A5
  5
31A5
331
2908
  5
2908
331
28EB
  5
28EB
331
28C9
  5
28C9
  0
DIMASSOC
  5
325B
102
{ACAD_REACTORS
330
325A
102
}
330
325A
100
AcDbDimAssoc
330
324B
 90
        3
 70
     0
 71
     0
  1
AcDbOsnapPointRef
 72
    13
331
31AA
 73
     0
 91
        0
 40
0.0
 10
0.0
 20
0.0
 30
2.000000000000000E+50
 75
     0
  1
AcDbOsnapPointRef
 72
     1
331
31A5
 73
     0
 91
        0
 40
0.0
 10
0.0
 20
0.0
 30
2.000000000000000E+50
 75
     0
  0
DIMASSOC
  5
3281
102
{ACAD_REACTORS
330
3280
102
}
330
3280
100
AcDbDimAssoc
330
3271
 90
        3
 70
     0
 71
     0
  1
AcDbOsnapPointRef
 72
    13
331
31A5
 73
     0
 91
        0
 40
0.0
 10
0.0
 20
0.0
 30
2.000000000000000E+50
 75
     0
  1
AcDbOsnapPointRef
 72
     1
331
31A5
 73
     0
 91
        0
 40
0.0
 10
0.0
 20
0.0
 30
2.000000000000000E+50
 75
     0
  0
DIMASSOC
  5
3379
102
{ACAD_REACTORS
330
3378
102
}
330
3378
100
AcDbDimAssoc
330
3369
 90
        3
 70
     0
 71
     0
  1
AcDbOsnapPointRef
 72
     1
331
334B
 73
     0
 91
        0
 40
0.0
 10
0.0
 20
0.0
 30
2.000000000000000E+50
 75
     0
  1
AcDbOsnapPointRef
 72
     1
331
334C
 73
     0
 91
        0
 40
0.0
 10
0.0
 20
0.0
 30
2.000000000000000E+50
 75
     0
  0
DIMASSOC
  5
33D3
102
{ACAD_REACTORS
330
33D2
102
}
330
33D2
100
AcDbDimAssoc
330
33C3
 90
        3
 70
     0
 71
     0
  1
AcDbOsnapPointRef
 72
     1
331
31BA
 73
     0
 91
        0
 40
0.0
 10
0.0
 20
0.0
 30
2.000000000000000E+50
 75
     0
  1
AcDbOsnapPointRef
 72
     1
331
31CB
 73
     0
 91
        0
 40
0.0
 10
0.0
 20
0.0
 30
2.000000000000000E+50
 75
     0
  0
DIMASSOC
  5
33F7
102
{ACAD_REACTORS
330
33F6
102
}
330
33F6
100
AcDbDimAssoc
330
33E9
 90
        3
 70
     0
 71
     0
  1
AcDbOsnapPointRef
 72
    13
331
32EB
 73
     0
 91
        0
 40
0.0
 10
0.0
 20
0.0
 30
2.000000000000000E+50
 75
     0
  1
AcDbOsnapPointRef
 72
     1
331
32EB
 73
     0
 91
        0
 40
0.0
 10
0.0
 20
0.0
 30
2.000000000000000E+50
 75
     0
  0
DIMASSOC
  5
3423
102
{ACAD_REACTORS
330
3422
102
}
330
3422
100
AcDbDimAssoc
330
3413
 90
        3
 70
     0
 71
     0
  1
AcDbOsnapPointRef
 72
    13
331
32EB
 73
     0
 91
        0
 40
0.0
 10
0.0
 20
0.0
 30
2.000000000000000E+50
 75
     0
  1
AcDbOsnapPointRef
 72
     6
331
331C
 73
     0
 91
        0
 40
0.0000000000000019
 10
0.0
 20
0.0
 30
0.0
332
32EC
 74
     0
 92
        0
 75
     0
  0
DIMASSOC
  5
3475
102
{ACAD_REACTORS
330
3474
102
}
330
3474
100
AcDbDimAssoc
330
3465
 90
        3
 70
     0
 71
     0
  1
AcDbOsnapPointRef
 72
    13
331
31A8
 73
     0
 91
        0
 40
0.0
 10
0.0
 20
0.0
 30
2.000000000000000E+50
 75
     0
  1
AcDbOsnapPointRef
 72
     1
331
31A8
 73
     0
 91
        0
 40
0.0
 10
0.0
 20
0.0
 30
2.000000000000000E+50
 75
     0
  0
LAYOUT
  5
22
102
{ACAD_XDICTIONARY
360
361B
102
}
102
{ACAD_REACTORS
330
1A
102
}
330
1A
100
AcDbPlotSettings
  1

  2
\\RD\EPSON Stylus C63 Series單色
  4
A4
  6

 40
3.757083177566528
 41
3.757076978683471
 42
3.757080078125
 43
3.757080078125
 44
209.9733276367187
 45
296.9683227539062
 46
0.0
 47
0.0
 48
0.0
 49
0.0
140
0.0
141
0.0
142
1.0
143
0.3405120737814363
 70
 11952
 72
     1
 73
     0
 74
     0
  7
單色出圖.ctb
 75
     0
147
2.936753428137963
148
-2047.07469463503
149
-1261.649717473083
100
AcDbLayout
  1
Model
 70
     1
 71
     0
 10
0.0
 20
0.0
 11
12.0
 21
9.0
 12
0.0
 22
0.0
 32
0.0
 14
0.0
 24
0.0
 34
0.0
 15
0.0
 25
0.0
 35
0.0
146
0.0
 13
0.0
 23
0.0
 33
0.0
 16
1.0
 26
0.0
 36
0.0
 17
0.0
 27
1.0
 37
0.0
 76
     0
330
1F
1001
ACAD_PSEXT
1000
\\RD\EPSON Stylus C63 Series單色
1000
EPSON Stylus C63 Series
1000
\\RD
1000

1070
     0
  0
LAYOUT
  5
1E
102
{ACAD_XDICTIONARY
360
3619
102
}
102
{ACAD_REACTORS
330
1A
102
}
330
1A
100
AcDbPlotSettings
  1

  2

  4

  6

 40
0.0
 41
0.0
 42
0.0
 43
0.0
 44
0.0
 45
0.0
 46
0.0
 47
0.0
 48
0.0
 49
0.0
140
0.0
141
0.0
142
1.0
143
1.0
 70
   688
 72
     0
 73
     0
 74
     5
  7
單色出圖.ctb
 75
    16
147
1.0
148
0.0
149
0.0
100
AcDbLayout
  1
配置1
 70
     1
 71
     1
 10
0.0
 20
0.0
 11
420.0
 21
297.0
 12
0.0
 22
0.0
 32
0.0
 14
1.000000000000000E+20
 24
1.000000000000000E+20
 34
1.000000000000000E+20
 15
-1.000000000000000E+20
 25
-1.000000000000000E+20
 35
-1.000000000000000E+20
146
0.0
 13
0.0
 23
0.0
 33
0.0
 16
1.0
 26
0.0
 36
0.0
 17
0.0
 27
1.0
 37
0.0
 76
     0
330
1B
  0
LAYOUT
  5
26
102
{ACAD_XDICTIONARY
360
361D
102
}
102
{ACAD_REACTORS
330
1A
102
}
330
1A
100
AcDbPlotSettings
  1

  2

  4

  6

 40
0.0
 41
0.0
 42
0.0
 43
0.0
 44
0.0
 45
0.0
 46
0.0
 47
0.0
 48
0.0
 49
0.0
140
0.0
141
0.0
142
1.0
143
1.0
 70
   688
 72
     0
 73
     0
 74
     5
  7
單色出圖.ctb
 75
    16
147
1.0
148
0.0
149
0.0
100
AcDbLayout
  1
配置2
 70
     1
 71
     2
 10
0.0
 20
0.0
 11
12.0
 21
9.0
 12
0.0
 22
0.0
 32
0.0
 14
0.0
 24
0.0
 34
0.0
 15
0.0
 25
0.0
 35
0.0
146
0.0
 13
0.0
 23
0.0
 33
0.0
 16
1.0
 26
0.0
 36
0.0
 17
0.0
 27
1.0
 37
0.0
 76
     0
330
23
  0
MATERIAL
  5
2B25
102
{ACAD_XDICTIONARY
360
2B26
102
}
102
{ACAD_REACTORS
330
BD
102
}
330
BD
100
AcDbMaterial
  1
Global
  0
MLINESTYLE
  5
18
102
{ACAD_REACTORS
330
17
102
}
330
17
100
AcDbMlineStyle
  2
STANDARD
 70
     0
  3

 62
   256
 51
90.0
 52
90.0
 71
     2
 49
0.5
 62
   256
  6
BYLAYER
 49
-0.5
 62
   256
  6
BYLAYER
  0
ACDBPLACEHOLDER
  5
F
102
{ACAD_REACTORS
330
E
102
}
330
E
  0
TABLESTYLE
  5
11B
102
{ACAD_REACTORS
330
11A
102
}
330
11A
100
AcDbTableStyle
  3
Standard
 70
     0
 71
     0
 40
1.5
 41
1.5
280
     0
281
     0
  7
STANDARD
140
4.5
170
     2
 62
     0
 63
     7
283
     0
274
    -2
284
     1
 64
     0
275
    -2
285
     1
 65
     0
276
    -2
286
     1
 66
     0
277
    -2
287
     1
 67
     0
278
    -2
288
     1
 68
     0
279
    -2
289
     1
 69
     0
  7
STANDARD
140
6.0
170
     5
 62
     0
 63
     7
283
     0
274
    -2
284
     1
 64
     0
275
    -2
285
     1
 65
     0
276
    -2
286
     1
 66
     0
277
    -2
287
     1
 67
     0
278
    -2
288
     1
 68
     0
279
    -2
289
     1
 69
     0
  7
STANDARD
140
4.5
170
     5
 62
     0
 63
     7
283
     0
274
    -2
284
     1
 64
     0
275
    -2
285
     1
 65
     0
276
    -2
286
     1
 66
     0
277
    -2
287
     1
 67
     0
278
    -2
288
     1
 68
     0
279
    -2
289
     1
 69
     0
  0
DICTIONARYVAR
  5
138
102
{ACAD_REACTORS
330
94
102
}
330
94
100
DictionaryVariables
280
     0
  1
STANDARD
  0
DICTIONARYVAR
  5
96
102
{ACAD_REACTORS
330
94
102
}
330
94
100
DictionaryVariables
280
     0
  1
2
  0
DICTIONARYVAR
  5
95
102
{ACAD_REACTORS
330
94
102
}
330
94
100
DictionaryVariables
280
     0
  1
1
  0
DICTIONARYVAR
  5
1BF5
102
{ACAD_REACTORS
330
94
102
}
330
94
100
DictionaryVariables
280
     0
  1

  0
DICTIONARY
  5
1B5
102
{ACAD_REACTORS
330
5B
102
}
330
5B
100
AcDbDictionary
281
     1
  0
DICTIONARY
  5
61
102
{ACAD_REACTORS
330
5B
102
}
330
5B
100
AcDbDictionary
281
     1
  0
XRECORD
  5
123
102
{ACAD_REACTORS
330
5B
102
}
330
5B
100
AcDbXrecord
280
     1
 90
-1023410169
  0
DICTIONARY
  5
23E3
102
{ACAD_REACTORS
330
41
102
}
330
41
100
AcDbDictionary
281
     1
  3
DWGSETTINGS
350
23E4
  3
TRANSSETTINGS
350
23E7
  0
LAYER_INDEX
  5
2929
102
{ACAD_REACTORS
330
2928
102
}
330
2928
100
AcDbIndex
 40
2455322.6241111
100
AcDbLayerIndex
  8
0
360
292A
 90
       14
  8
AM_5
360
292B
 90
        7
  8
Defpoints
360
292C
 90
        0
  8
LOGO
360
292D
 90
       77
  8
UMCL1
360
292E
 90
       65
  0
DICTIONARY
  5
361B
330
22
100
AcDbDictionary
280
     1
281
     1
  3
ACAD_XREC_ROUNDTRIP
360
361C
  0
DICTIONARY
  5
3619
330
1E
100
AcDbDictionary
280
     1
281
     1
  3
ACAD_XREC_ROUNDTRIP
360
361A
  0
DICTIONARY
  5
361D
330
26
100
AcDbDictionary
280
     1
281
     1
  3
ACAD_XREC_ROUNDTRIP
360
361E
  0
DICTIONARY
  5
2B26
330
2B25
100
AcDbDictionary
280
     1
281
     1
  3
ACAD_XREC_ROUNDTRIP
360
2B27
  0
IDBUFFER
  5
292A
330
0
100
AcDbIdBuffer
330
331B
330
331C
330
331D
330
331E
330
331F
330
2925
330
2926
330
2927
330
31B0
330
31CB
330
323B
330
32EA
330
32EB
330
32EC
  0
IDBUFFER
  5
292B
330
0
100
AcDbIdBuffer
330
324B
330
3271
330
3369
330
33C3
330
33E9
330
3413
330
3465
  0
IDBUFFER
  5
292C
330
0
100
AcDbIdBuffer
  0
IDBUFFER
  5
292D
330
0
100
AcDbIdBuffer
330
28C3
330
28C4
330
28C5
330
28C6
330
28C7
330
28C8
330
28C9
330
28CA
330
28CB
330
28CC
330
28CD
330
28CE
330
28CF
330
28D0
330
28D1
330
28D2
330
28D3
330
28D4
330
28D5
330
28D6
330
28D7
330
28D8
330
28D9
330
28DA
330
28DE
330
28E2
330
28E3
330
28E7
330
28E8
330
28E9
330
28EA
330
28EB
330
28EC
330
28ED
330
28EE
330
28F2
330
28F6
330
28FA
330
28FB
330
28FC
330
2900
330
2901
330
2902
330
2903
330
2904
330
2905
330
2906
330
2907
330
2908
330
2909
330
290A
330
290B
330
290C
330
290D
330
290E
330
290F
330
2910
330
2911
330
2912
330
2913
330
2914
330
2915
330
2916
330
2917
330
2918
330
2919
330
291A
330
291B
330
291C
330
291D
330
291E
330
291F
330
2920
330
2921
330
2922
330
2923
330
2924
  0
IDBUFFER
  5
292E
330
0
100
AcDbIdBuffer
330
31A3
330
31A4
330
31A5
330
31A6
330
31A7
330
31A8
330
31A9
330
31AA
330
31B1
330
31B2
330
31B3
330
31B4
330
31B5
330
31B6
330
31B7
330
31B8
330
31B9
330
31BA
330
31BB
330
31BC
330
31BD
330
31BE
330
31BF
330
31C0
330
31C1
330
31C2
330
31C3
330
31C4
330
31C5
330
31C6
330
31C7
330
31C8
330
31C9
330
31CA
330
31CD
330
31CE
330
31CF
330
31D0
330
31D1
330
31D2
330
31D3
330
3231
330
3232
330
3233
330
3234
330
3235
330
3236
330
3237
330
3238
330
3239
330
334B
330
334C
330
334D
330
334E
330
334F
330
3350
330
3351
330
3352
330
3353
330
3354
330
3355
330
3356
330
3357
330
3358
330
3359
  0
XRECORD
  5
361C
102
{ACAD_REACTORS
330
361B
102
}
330
361B
100
AcDbXrecord
280
     1
102
SHADEPLOT
 70
     0
102
SHADEPLOTRESLEVEL
 70
     2
102
SHADEPLOTCUSTOMDPI
 70
   300
  0
XRECORD
  5
361A
102
{ACAD_REACTORS
330
3619
102
}
330
3619
100
AcDbXrecord
280
     1
102
SHADEPLOT
 70
     0
102
SHADEPLOTRESLEVEL
 70
     2
102
SHADEPLOTCUSTOMDPI
 70
   300
  0
XRECORD
  5
361E
102
{ACAD_REACTORS
330
361D
102
}
330
361D
100
AcDbXrecord
280
     1
102
SHADEPLOT
 70
     0
102
SHADEPLOTRESLEVEL
 70
     2
102
SHADEPLOTCUSTOMDPI
 70
   300
  0
XRECORD
  5
2B27
102
{ACAD_REACTORS
330
2B26
102
}
330
2B26
100
AcDbXrecord
280
     1
102
MATERIAL
148
0.0
149
0.0
149
0.0
 93
        0
 94
       63
282
     0
 72
     1
 77
     1
171
     1
175
     1
179
     1
273
     0
  0
ENDSEC
  0
EOF
